0
SECTION
2
HEADER
9
$ACADVER
1
AC1015
9
$DWGCODEPAGE
3
ANSI_1252
9
$HANDSEED
5
192
9
$ANGBASE
50
0
9
$ANGDIR
70
0
9
$ATTMODE
70
1
9
$AUNITS
70
0
9
$AUPREC
70
0
9
$CECOLOR
62
256
9
$CELTSCALE
40
1
9
$CELTYPE
6
ByLayer
9
$CELWEIGHT
370
-1
9
$CLAYER
8
0
9
$CMLJUST
70
0
9
$CMLSCALE
40
1
9
$CMLSTYLE
2
Standard
9
$DIMSTYLE
2
Standard
9
$TEXTSIZE
40
0.2
9
$TEXTSTYLE
7
Standard
9
$LUNITS
70
2
9
$LUPREC
70
4
9
$EXTNAMES
290
1
9
$INSUNITS
70
4
9
$LTSCALE
40
1
9
$LWDISPLAY
290
0
9
$PDMODE
70
0
9
$PDSIZE
40
0
9
$PLINEGEN
70
0
0
ENDSEC
0
SECTION
2
CLASSES
0
CLASS
1
RASTERVARIABLES
2
AcDbRasterVariables
3
ISM
90
0
280
0
281
0
0
ENDSEC
0
SECTION
2
TABLES
0
TABLE
2
VPORT
5
188
100
AcDbSymbolTable
0
VPORT
5
1
100
AcDbSymbolTableRecord
100
AcDbViewportTableRecord
2
*Active
70
0
10
0
20
0
11
1
21
1
12
-1
22
1
13
0
23
0
14
0.5
24
0.5
15
10
25
10
16
0
26
0
36
1
17
0
27
0
37
0
0
ENDTAB
0
TABLE
2
LTYPE
5
189
100
AcDbSymbolTable
0
LTYPE
5
14
100
AcDbSymbolTableRecord
100
AcDbLinetypeTableRecord
70
0
2
ByBlock
3

72
65
73
0
40
0
0
LTYPE
5
15
100
AcDbSymbolTableRecord
100
AcDbLinetypeTableRecord
70
0
2
ByLayer
3

72
65
73
0
40
0
0
LTYPE
5
16
100
AcDbSymbolTableRecord
100
AcDbLinetypeTableRecord
70
0
2
CONTINUOUS
3
Solid line
72
65
73
0
40
0
0
LTYPE
5
3B
100
AcDbSymbolTableRecord
100
AcDbLinetypeTableRecord
70
0
2
DASHED
3
__ __ __ __ __ __ __ __ __
72
65
73
2
40
25.72
49
12.86
74
0
49
-12.86
74
0
0
LTYPE
5
3C
100
AcDbSymbolTableRecord
100
AcDbLinetypeTableRecord
70
0
2
HIDDEN
3
_ _ _ _ _ _ _ _ _ _ _ _ _ _ _
72
65
73
2
40
0.5
49
0.25
74
0
49
-0.25
74
0
0
LTYPE
5
3D
100
AcDbSymbolTableRecord
100
AcDbLinetypeTableRecord
70
0
2
PHANTOM
3
____ _ _ ____ _ _ _____ _ _ ____
72
65
73
6
40
50.5
49
18
74
0
49
-6.5
74
0
49
6.5
74
0
49
-6.5
74
0
49
6.5
74
0
49
-6.5
74
0
0
LTYPE
5
3E
100
AcDbSymbolTableRecord
100
AcDbLinetypeTableRecord
70
0
2
CENTER
3
____ _ ____ _ ____ _ ____
72
65
73
4
40
47.5
49
22
74
0
49
-8.5
74
0
49
8.5
74
0
49
-8.5
74
0
0
LTYPE
5
3F
100
AcDbSymbolTableRecord
100
AcDbLinetypeTableRecord
70
0
2
DOT
3
.........................
72
65
73
2
40
10
49
0
74
0
49
-10
74
0
0
LTYPE
5
40
100
AcDbSymbolTableRecord
100
AcDbLinetypeTableRecord
70
0
2
DASHDOT
3
_._._._._._._._._._._._._._._._.
72
65
73
4
40
70
49
31
74
0
49
-13
74
0
49
13
74
0
49
-13
74
0
0
ENDTAB
0
TABLE
2
LAYER
5
18a
100
AcDbSymbolTable
0
LAYER
5
10
100
AcDbSymbolTableRecord
100
AcDbLayerTableRecord
2
0
70
0
62
7
6
CONTINUOUS
290
1
370
-3
390
0
0
LAYER
5
42
100
AcDbSymbolTableRecord
100
AcDbLayerTableRecord
2
80
70
0
62
-6
6
CONTINUOUS
290
1
370
-3
390
0
0
LAYER
5
44
100
AcDbSymbolTableRecord
100
AcDbLayerTableRecord
2
81
70
0
62
-3
6
CONTINUOUS
290
1
370
-3
390
0
0
LAYER
5
46
100
AcDbSymbolTableRecord
100
AcDbLayerTableRecord
2
1
70
0
62
4
6
CONTINUOUS
290
1
370
-3
390
0
0
LAYER
5
48
100
AcDbSymbolTableRecord
100
AcDbLayerTableRecord
2
2
70
0
62
7
6
CONTINUOUS
290
1
370
-3
390
0
0
LAYER
5
4E
100
AcDbSymbolTableRecord
100
AcDbLayerTableRecord
2
4
70
0
62
-2
6
CENTER
290
1
370
-3
390
0
0
LAYER
5
174
100
AcDbSymbolTableRecord
100
AcDbLayerTableRecord
2
SK4
70
0
62
2
6
CENTER
290
1
370
-3
390
0
0
LAYER
5
175
100
AcDbSymbolTableRecord
100
AcDbLayerTableRecord
2
SK1
70
0
62
4
6
CONTINUOUS
290
1
370
-3
390
0
0
LAYER
5
176
100
AcDbSymbolTableRecord
100
AcDbLayerTableRecord
2
SK6
70
0
62
5
6
CONTINUOUS
290
1
370
-3
390
0
0
LAYER
5
177
100
AcDbSymbolTableRecord
100
AcDbLayerTableRecord
2
SK2
70
0
62
7
6
CONTINUOUS
290
1
370
-3
390
0
0
ENDTAB
0
TABLE
2
STYLE
5
18b
100
AcDbSymbolTable
0
STYLE
5
11
100
AcDbSymbolTableRecord
100
AcDbTextStyleTableRecord
2
Standard
3
txt
70
0
71
0
40
0
41
1
42
0
50
0
0
STYLE
5
F0
100
AcDbSymbolTableRecord
100
AcDbTextStyleTableRecord
2
DEFAULT
3
simplex.shx
70
0
71
0
40
0
41
1
42
0
50
0
0
STYLE
5
113
100
AcDbSymbolTableRecord
100
AcDbTextStyleTableRecord
2
DWGDirectTextStyle
3
SIMPLEX
70
0
71
0
40
0
41
1
42
0
50
0
0
ENDTAB
0
TABLE
2
DIMSTYLE
5
18c
100
AcDbSymbolTable
100
AcDbDimStyleTable
0
DIMSTYLE
105
27
100
AcDbSymbolTableRecord
100
AcDbDimStyleTableRecord
2
Standard
70
0
3
<>
41
0.18
42
0.0625
44
0.18
140
0.18
147
0.09
73
0
74
0
77
1
271
2
275
0
278
52
280
0
340
11
0
ENDTAB
0
TABLE
2
VIEW
5
18d
100
AcDbSymbolTable
0
ENDTAB
0
TABLE
2
UCS
5
18e
100
AcDbSymbolTable
0
ENDTAB
0
TABLE
2
APPID
5
18f
100
AcDbSymbolTable
0
APPID
5
12
100
AcDbSymbolTableRecord
100
AcDbRegAppTableRecord
2
ACAD
70
0
0
ENDTAB
0
TABLE
2
BLOCK_RECORD
5
190
100
AcDbSymbolTable
0
BLOCK_RECORD
5
1F
100
AcDbSymbolTableRecord
100
AcDbBlockTableRecord
2
*Model_Space
340
0
70
0
0
BLOCK_RECORD
5
1B
100
AcDbSymbolTableRecord
100
AcDbBlockTableRecord
2
*Paper_Space
340
0
70
0
0
BLOCK_RECORD
5
23
100
AcDbSymbolTableRecord
100
AcDbBlockTableRecord
2
*Paper_Space0
340
0
70
0
0
BLOCK_RECORD
5
115
100
AcDbSymbolTableRecord
100
AcDbBlockTableRecord
2
DimnDraft3D1
340
0
70
0
0
BLOCK_RECORD
5
123
100
AcDbSymbolTableRecord
100
AcDbBlockTableRecord
2
_CLOSED
340
0
70
0
0
BLOCK_RECORD
5
12A
100
AcDbSymbolTableRecord
100
AcDbBlockTableRecord
2
DimnDraft3D2
340
0
70
0
0
BLOCK_RECORD
5
139
100
AcDbSymbolTableRecord
100
AcDbBlockTableRecord
2
DimnDraft3D3
340
0
70
0
0
BLOCK_RECORD
5
147
100
AcDbSymbolTableRecord
100
AcDbBlockTableRecord
2
DimnDraft3D4
340
0
70
0
0
ENDTAB
0
ENDSEC
0
SECTION
2
BLOCKS
0
BLOCK
5
20
100
AcDbEntity
8
0
100
AcDbBlockBegin
2
*Model_Space
70
0
10
0
20
0
30
0
3
*Model_Space
0
ENDBLK
5
21
100
AcDbEntity
8
0
100
AcDbBlockEnd
0
BLOCK
5
1C
100
AcDbEntity
8
0
100
AcDbBlockBegin
2
*Paper_Space
70
0
10
0
20
0
30
0
3
*Paper_Space
0
ENDBLK
5
1D
100
AcDbEntity
8
0
100
AcDbBlockEnd
0
BLOCK
5
24
100
AcDbEntity
8
0
100
AcDbBlockBegin
2
*Paper_Space0
70
0
10
0
20
0
30
0
3
*Paper_Space0
0
ENDBLK
5
25
100
AcDbEntity
8
0
100
AcDbBlockEnd
0
BLOCK
5
120
100
AcDbEntity
8
0
100
AcDbBlockBegin
2
DimnDraft3D1
70
0
10
0
20
0
30
0
3
DimnDraft3D1
0
MTEXT
5
116
100
AcDbEntity
8
2
62
256
6
ByLayer
370
-1
48
1
60
0
100
AcDbMText
10
51.075
20
18.28
30
0
210
0
220
0
230
1
1
\W01.000;\fsimplex.shx,bigfont.shx;7.0 
40
4.5
41
0
44
1.084337
50
90
71
7
72
5
7
DEFAULT
0
LINE
5
117
100
AcDbEntity
8
2
62
256
6
ByLayer
370
-1
48
1
60
0
100
AcDbLine
10
41.95
20
6.9
30
0
11
54.2
21
6.9
31
0
39
0
210
0
220
0
230
1
0
LINE
5
118
100
AcDbEntity
8
2
62
256
6
ByLayer
370
-1
48
1
60
0
100
AcDbLine
10
41.95
20
0
30
0
11
54.2
21
0
31
0
39
0
210
0
220
0
230
1
0
LINE
5
119
100
AcDbEntity
8
2
62
256
6
ByLayer
370
-1
48
1
60
0
100
AcDbLine
10
52.2
20
-11.25
30
0
11
52.2
21
24.177368
31
0
39
0
210
0
220
0
230
1
0
LINE
5
11A
100
AcDbEntity
8
2
62
256
6
ByLayer
370
-1
48
1
60
0
100
AcDbLine
10
52.2
20
6.9
30
0
11
51.782003
21
10.074998
31
0
39
0
210
0
220
0
230
1
0
LINE
5
11B
100
AcDbEntity
8
2
62
256
6
ByLayer
370
-1
48
1
60
0
100
AcDbLine
10
52.2
20
6.9
30
0
11
52.617997
21
10.075002
31
0
39
0
210
0
220
0
230
1
0
LINE
5
11C
100
AcDbEntity
8
2
62
256
6
ByLayer
370
-1
48
1
60
0
100
AcDbLine
10
51.782003
20
10.074998
30
0
11
52.617997
21
10.075002
31
0
39
0
210
0
220
0
230
1
0
LINE
5
11D
100
AcDbEntity
8
2
62
256
6
ByLayer
370
-1
48
1
60
0
100
AcDbLine
10
52.2
20
0
30
0
11
52.617997
21
-3.174998
31
0
39
0
210
0
220
0
230
1
0
LINE
5
11E
100
AcDbEntity
8
2
62
256
6
ByLayer
370
-1
48
1
60
0
100
AcDbLine
10
52.2
20
0
30
0
11
51.782003
21
-3.175002
31
0
39
0
210
0
220
0
230
1
0
LINE
5
11F
100
AcDbEntity
8
2
62
256
6
ByLayer
370
-1
48
1
60
0
100
AcDbLine
10
52.617997
20
-3.174998
30
0
11
51.782003
21
-3.175002
31
0
39
0
210
0
220
0
230
1
0
ENDBLK
5
121
100
AcDbEntity
8
0
100
AcDbBlockEnd
0
BLOCK
5
124
100
AcDbEntity
8
0
100
AcDbBlockBegin
2
_CLOSED
70
0
10
0
20
0
30
0
3
_CLOSED
0
LINE
5
126
100
AcDbEntity
8
0
62
256
6
ByLayer
370
-2
48
1
60
0
100
AcDbLine
10
-1
20
0.166667
30
0
11
0
21
0
31
0
39
0
210
0
220
0
230
1
0
LINE
5
127
100
AcDbEntity
8
0
62
256
6
ByLayer
370
-2
48
1
60
0
100
AcDbLine
10
0
20
0
30
0
11
-1
21
-0.166667
31
0
39
0
210
0
220
0
230
1
0
LINE
5
128
100
AcDbEntity
8
0
62
256
6
ByLayer
370
-2
48
1
60
0
100
AcDbLine
10
-1
20
0.166667
30
0
11
-1
21
-0.166667
31
0
39
0
210
0
220
0
230
1
0
LINE
5
129
100
AcDbEntity
8
0
62
256
6
ByLayer
370
-2
48
1
60
0
100
AcDbLine
10
0
20
0
30
0
11
-1
21
0
31
0
39
0
210
0
220
0
230
1
0
ENDBLK
5
125
100
AcDbEntity
8
0
100
AcDbBlockEnd
0
BLOCK
5
136
100
AcDbEntity
8
0
100
AcDbBlockBegin
2
DimnDraft3D2
70
0
10
0
20
0
30
0
3
DimnDraft3D2
0
MTEXT
5
12B
100
AcDbEntity
8
SK2
62
256
6
ByLayer
370
-1
48
1
60
0
100
AcDbMText
10
-97.175
20
16.37375
30
0
210
0
220
0
230
1
1
\W01.000;\fsimplex.shx,bigfont.shx;%%c10 
40
4.5
41
0
44
1.084337
50
90
71
7
72
5
7
DEFAULT
0
LINE
5
12D
100
AcDbEntity
8
SK2
62
256
6
ByLayer
370
-1
48
1
60
0
100
AcDbLine
10
-88.3
20
-4.99375
30
0
11
-98.05
21
-4.99375
31
0
39
0
210
0
220
0
230
1
0
LINE
5
12E
100
AcDbEntity
8
SK2
62
256
6
ByLayer
370
-1
48
1
60
0
100
AcDbLine
10
-88.3
20
4.99375
30
0
11
-98.05
21
4.99375
31
0
39
0
210
0
220
0
230
1
0
LINE
5
12F
100
AcDbEntity
8
SK2
62
256
6
ByLayer
370
-1
48
1
60
0
100
AcDbLine
10
-96.05
20
-4.99375
30
0
11
-96.05
21
23.692171
31
0
39
0
210
0
220
0
230
1
0
LINE
5
130
100
AcDbEntity
8
SK2
62
256
6
ByLayer
370
-1
48
1
60
0
100
AcDbLine
10
-96.05
20
-4.99375
30
0
11
-96.467997
21
-1.818752
31
0
39
0
210
0
220
0
230
1
0
LINE
5
131
100
AcDbEntity
8
SK2
62
256
6
ByLayer
370
-1
48
1
60
0
100
AcDbLine
10
-96.05
20
-4.99375
30
0
11
-95.632003
21
-1.818748
31
0
39
0
210
0
220
0
230
1
0
LINE
5
132
100
AcDbEntity
8
SK2
62
256
6
ByLayer
370
-1
48
1
60
0
100
AcDbLine
10
-96.467997
20
-1.818752
30
0
11
-95.632003
21
-1.818748
31
0
39
0
210
0
220
0
230
1
0
LINE
5
133
100
AcDbEntity
8
SK2
62
256
6
ByLayer
370
-1
48
1
60
0
100
AcDbLine
10
-96.05
20
4.99375
30
0
11
-95.632003
21
1.818752
31
0
39
0
210
0
220
0
230
1
0
LINE
5
134
100
AcDbEntity
8
SK2
62
256
6
ByLayer
370
-1
48
1
60
0
100
AcDbLine
10
-96.05
20
4.99375
30
0
11
-96.467997
21
1.818748
31
0
39
0
210
0
220
0
230
1
0
LINE
5
135
100
AcDbEntity
8
SK2
62
256
6
ByLayer
370
-1
48
1
60
0
100
AcDbLine
10
-95.632003
20
1.818752
30
0
11
-96.467997
21
1.818748
31
0
39
0
210
0
220
0
230
1
0
ENDBLK
5
137
100
AcDbEntity
8
0
100
AcDbBlockEnd
0
BLOCK
5
144
100
AcDbEntity
8
0
100
AcDbBlockBegin
2
DimnDraft3D3
70
0
10
0
20
0
30
0
3
DimnDraft3D3
0
MTEXT
5
13A
100
AcDbEntity
8
SK2
62
256
6
ByLayer
370
-1
48
1
60
0
100
AcDbMText
10
-28.302632
20
20.775
30
0
210
0
220
0
230
1
1
\W01.000;\fsimplex.shx,bigfont.shx;125.0 
40
4.5
41
0
44
1.084337
50
0
71
7
72
5
7
DEFAULT
0
LINE
5
13B
100
AcDbEntity
8
SK2
62
256
6
ByLayer
370
-1
48
1
60
0
100
AcDbLine
10
39.95
20
8.9
30
0
11
39.95
21
21.65
31
0
39
0
210
0
220
0
230
1
0
LINE
5
13C
100
AcDbEntity
8
SK2
62
256
6
ByLayer
370
-1
48
1
60
0
100
AcDbLine
10
-86.3
20
6.99375
30
0
11
-86.3
21
21.65
31
0
39
0
210
0
220
0
230
1
0
LINE
5
13D
100
AcDbEntity
8
SK2
62
256
6
ByLayer
370
-1
48
1
60
0
100
AcDbLine
10
39.95
20
19.65
30
0
11
-86.3
21
19.65
31
0
39
0
210
0
220
0
230
1
0
LINE
5
13E
100
AcDbEntity
8
SK2
62
256
6
ByLayer
370
-1
48
1
60
0
100
AcDbLine
10
39.95
20
19.65
30
0
11
36.775002
21
19.232003
31
0
39
0
210
0
220
0
230
1
0
LINE
5
13F
100
AcDbEntity
8
SK2
62
256
6
ByLayer
370
-1
48
1
60
0
100
AcDbLine
10
39.95
20
19.65
30
0
11
36.774998
21
20.067997
31
0
39
0
210
0
220
0
230
1
0
LINE
5
140
100
AcDbEntity
8
SK2
62
256
6
ByLayer
370
-1
48
1
60
0
100
AcDbLine
10
36.775002
20
19.232003
30
0
11
36.774998
21
20.067997
31
0
39
0
210
0
220
0
230
1
0
LINE
5
141
100
AcDbEntity
8
SK2
62
256
6
ByLayer
370
-1
48
1
60
0
100
AcDbLine
10
-86.3
20
19.65
30
0
11
-83.125002
21
20.067997
31
0
39
0
210
0
220
0
230
1
0
LINE
5
142
100
AcDbEntity
8
SK2
62
256
6
ByLayer
370
-1
48
1
60
0
100
AcDbLine
10
-86.3
20
19.65
30
0
11
-83.124998
21
19.232003
31
0
39
0
210
0
220
0
230
1
0
LINE
5
143
100
AcDbEntity
8
SK2
62
256
6
ByLayer
370
-1
48
1
60
0
100
AcDbLine
10
-83.125002
20
20.067997
30
0
11
-83.124998
21
19.232003
31
0
39
0
210
0
220
0
230
1
0
ENDBLK
5
145
100
AcDbEntity
8
0
100
AcDbBlockEnd
0
BLOCK
5
152
100
AcDbEntity
8
0
100
AcDbBlockBegin
2
DimnDraft3D4
70
0
10
0
20
0
30
0
3
DimnDraft3D4
0
MTEXT
5
148
100
AcDbEntity
8
2
62
256
6
ByLayer
370
-1
48
1
60
0
100
AcDbMText
10
68.591644
20
-35.950619
30
0
210
0
220
0
230
1
1
\W01.000;\fsimplex.shx,bigfont.shx;91%%d0' 
40
4.5
41
0
44
1.084337
50
44.5
71
7
72
5
7
DEFAULT
0
LINE
5
149
100
AcDbEntity
8
2
62
256
6
ByLayer
370
-1
48
1
60
0
100
AcDbLine
10
39.758024
20
-4.098325
30
0
11
38.975677
21
-48.918955
31
0
39
0
210
0
220
0
230
1
0
LINE
5
14A
100
AcDbEntity
8
2
62
256
6
ByLayer
370
-1
48
1
60
0
100
AcDbLine
10
41.95
20
0
30
0
11
88.755967
21
0
31
0
39
0
210
0
220
0
230
1
0
ARC
5
14B
100
AcDbEntity
8
2
62
256
6
ByLayer
370
-1
48
1
60
0
100
AcDbCircle
39
0
10
39.82956
20
0
30
0
40
46.9264068782929
210
0
220
0
230
1
100
AcDbArc
50
269
51
0
0
LINE
5
14C
100
AcDbEntity
8
2
62
256
6
ByLayer
370
-1
48
1
60
0
100
AcDbLine
10
39.010581
20
-46.91926
30
0
11
42.185807
21
-46.502993
31
0
39
0
210
0
220
0
230
1
0
LINE
5
14D
100
AcDbEntity
8
2
62
256
6
ByLayer
370
-1
48
1
60
0
100
AcDbLine
10
39.010581
20
-46.91926
30
0
11
42.185355
21
-47.338987
31
0
39
0
210
0
220
0
230
1
0
LINE
5
14E
100
AcDbEntity
8
2
62
256
6
ByLayer
370
-1
48
1
60
0
100
AcDbLine
10
42.185807
20
-46.502993
30
0
11
42.185355
21
-47.338987
31
0
39
0
210
0
220
0
230
1
0
LINE
5
14F
100
AcDbEntity
8
2
62
256
6
ByLayer
370
-1
48
1
60
0
100
AcDbLine
10
86.755967
20
0
30
0
11
87.120222
21
-3.181612
31
0
39
0
210
0
220
0
230
1
0
LINE
5
150
100
AcDbEntity
8
2
62
256
6
ByLayer
370
-1
48
1
60
0
100
AcDbLine
10
86.755967
20
0
30
0
11
86.284349
21
-3.16748
31
0
39
0
210
0
220
0
230
1
0
LINE
5
151
100
AcDbEntity
8
2
62
256
6
ByLayer
370
-1
48
1
60
0
100
AcDbLine
10
87.120222
20
-3.181612
30
0
11
86.284349
21
-3.16748
31
0
39
0
210
0
220
0
230
1
0
ENDBLK
5
153
100
AcDbEntity
8
0
100
AcDbBlockEnd
0
ENDSEC
0
SECTION
2
ENTITIES
0
ELLIPSE
5
95
100
AcDbEntity
8
1
62
256
6
ByLayer
370
-1
48
1
60
0
100
AcDbEllipse
10
36.785285
20
-0.000127
30
0
11
0.00156327549398829
21
-6.10925577158785
31
0
210
0
220
0
230
-1
40
0.109555
41
-3.13481134195927
42
-2.9950232314783
0
ELLIPSE
5
96
100
AcDbEntity
8
1
62
256
6
ByLayer
370
-1
48
1
60
0
100
AcDbEllipse
10
32.986299
20
2.835517
30
0
11
-0.999847695156391
21
0.0174524064372834
31
0
210
0
220
0
230
1
40
0.987191
41
-2.09439510239322
42
-0.42033338534136
0
ELLIPSE
5
97
100
AcDbEntity
8
1
62
256
6
ByLayer
370
-1
48
1
60
0
100
AcDbEllipse
10
29.101853
20
9.176418
30
0
11
8.54732623990072
21
-31.4944882957583
31
-8.20539097029216E-15
210
1.23259516440783E-32
220
2.60534189132937E-16
230
-1
40
0.153375
41
1.24434465101424
42
1.38809194777877
0
ELLIPSE
5
98
100
AcDbEntity
8
1
62
256
6
ByLayer
370
-1
48
1
60
0
100
AcDbEllipse
10
32.093384
20
2.183201
30
0
11
-0.874866733261843
21
0.015270855632623
31
0
210
0
220
0
230
1
40
0.987191
41
-1.84164374786283
42
-1.53472160386996
0
ELLIPSE
5
99
100
AcDbEntity
8
1
62
256
6
ByLayer
370
-1
48
1
60
0
100
AcDbEllipse
10
32.988666
20
2.971126
30
0
11
1.09418586688477
21
-0.0190990853500186
31
0
210
0
220
0
230
1
40
0.987191
41
1.04719755119662
42
2.76970596283256
0
ELLIPSE
5
9A
100
AcDbEntity
8
1
62
256
6
ByLayer
370
-1
48
1
60
0
100
AcDbEllipse
10
32.092131
20
2.111416
30
0
11
0.874866733261842
21
-0.0152708556326285
31
0
210
0
220
0
230
1
40
0.987191
41
1.40656635158269
42
2.89911760910022
0
ELLIPSE
5
9B
100
AcDbEntity
8
1
62
256
6
ByLayer
370
-1
48
1
60
0
100
AcDbEllipse
10
32.09937
20
2.526187
30
0
11
-0.874866733261843
21
0.015270855632623
31
0
210
0
220
0
230
1
40
0.987191
41
-1.41224493287851
42
2.32851568125978
0
ELLIPSE
5
9C
100
AcDbEntity
8
1
62
256
6
ByLayer
370
-1
48
1
60
0
100
AcDbEllipse
10
32.982679
20
2.62814
30
0
11
-0.999847695156391
21
0.0174524064372834
31
0
210
0
220
0
230
1
40
0.987191
41
-1.91048385899412
42
-0.420333385341359
0
ELLIPSE
5
9D
100
AcDbEntity
8
1
62
256
6
ByLayer
370
-1
48
1
60
0
100
AcDbEllipse
10
37.097623
20
2.345767
30
0
11
-0.747886075976975
21
0.0130544000150879
31
0
210
0
220
0
230
1
40
0.987191
41
1.962001047133
42
2.47952555462244
0
ELLIPSE
5
9E
100
AcDbEntity
8
1
62
256
6
ByLayer
370
-1
48
1
60
0
100
AcDbEllipse
10
37.099946
20
2.478855
30
0
11
0.747886075976973
21
-0.0130544000150926
31
0
210
0
220
0
230
1
40
0.987191
41
2.58026252607505
42
2.6557252299079
0
ELLIPSE
5
9F
100
AcDbEntity
8
1
62
256
6
ByLayer
370
-1
48
1
60
0
100
AcDbEllipse
10
37.100407
20
2.505288
30
0
11
1.03484236448687
21
-0.018063240662595
31
0
210
0
220
0
230
1
40
0.987191
41
-2.09439510239319
42
-1.04805553085652
0
ELLIPSE
5
A0
100
AcDbEntity
8
1
62
256
6
ByLayer
370
-1
48
1
60
0
100
AcDbEllipse
10
38.099373
20
1.751415
30
0
11
-0.421935727355997
21
0.00736491551653361
31
0
210
0
220
0
230
1
40
0.987191
41
-1.05547100226692E-05
42
0.130872014860842
0
ELLIPSE
5
A1
100
AcDbEntity
8
1
62
256
6
ByLayer
370
-1
48
1
60
0
100
AcDbEllipse
10
37.100407
20
2.505288
30
0
11
1.03484236448687
21
-0.018063240662595
31
0
210
0
220
0
230
1
40
0.987191
41
-3.1407346739299
42
-2.09439510239319
0
ELLIPSE
5
A2
100
AcDbEntity
8
1
62
256
6
ByLayer
370
-1
48
1
60
0
100
AcDbEllipse
10
37.097623
20
2.345767
30
0
11
-0.747886075976975
21
0.0130544000150879
31
0
210
0
220
0
230
1
40
0.987191
41
0.659823139311055
42
1.18212686693359
0
ELLIPSE
5
A3
100
AcDbEntity
8
1
62
256
6
ByLayer
370
-1
48
1
60
0
100
AcDbEllipse
10
37.099946
20
2.478855
30
0
11
0.747886075976973
21
-0.0130544000150926
31
0
210
0
220
0
230
1
40
0.987191
41
-0.561330127515835
42
-0.485867423680749
0
ELLIPSE
5
A4
100
AcDbEntity
8
1
62
256
6
ByLayer
370
-1
48
1
60
0
100
AcDbEllipse
10
37.097623
20
2.345767
30
0
11
0.747886075976976
21
-0.0130544000150927
31
0
210
0
220
0
230
1
40
0.987191
41
0.524027765428251
42
1.57036733696493
0
ELLIPSE
5
A5
100
AcDbEntity
8
1
62
256
6
ByLayer
370
-1
48
1
60
0
100
AcDbEllipse
10
37.097623
20
2.345767
30
0
11
-0.747886075976975
21
0.0130544000150879
31
0
210
0
220
0
230
1
40
0.987191
41
-1.57122531662486
42
-0.561330127514905
0
ELLIPSE
5
A6
100
AcDbEntity
8
1
62
256
6
ByLayer
370
-1
48
1
60
0
100
AcDbEllipse
10
37.100407
20
2.505288
30
0
11
1.03484236448687
21
-0.018063240662595
31
0
210
0
220
0
230
1
40
0.987191
41
-1.04805553085652
42
0.000857979659917346
0
ELLIPSE
5
A7
100
AcDbEntity
8
1
62
256
6
ByLayer
370
-1
48
1
60
0
100
AcDbEllipse
10
37.118282
20
3.500595
30
0
11
-0.421935727355997
21
0.00736491551653361
31
0
210
0
220
0
230
1
40
0.987191
41
1.57036733696491
42
2.34526706481744
0
ELLIPSE
5
A8
100
AcDbEntity
8
1
62
256
6
ByLayer
370
-1
48
1
60
0
100
AcDbEllipse
10
37.100407
20
2.505288
30
0
11
1.03484236448687
21
-0.018063240662595
31
0
210
0
220
0
230
1
40
0.987191
41
2.09353712273326
42
-3.1407346739299
0
ELLIPSE
5
A9
100
AcDbEntity
8
1
62
256
6
ByLayer
370
-1
48
1
60
0
100
AcDbEllipse
10
37.097623
20
2.345767
30
0
11
0.747886075976976
21
-0.0130544000150927
31
0
210
0
220
0
230
1
40
0.987191
41
2.58026252607489
42
2.65572522990808
0
ELLIPSE
5
AA
100
AcDbEntity
8
1
62
256
6
ByLayer
370
-1
48
1
60
0
100
AcDbEllipse
10
37.100407
20
2.505288
30
0
11
1.03484236448687
21
-0.018063240662595
31
0
210
0
220
0
230
1
40
0.987191
41
0.00085797965991778
42
1.0471975511966
0
ELLIPSE
5
AB
100
AcDbEntity
8
1
62
256
6
ByLayer
370
-1
48
1
60
0
100
AcDbEllipse
10
36.095872
20
2.940118
30
0
11
-0.421935727355997
21
0.00736491551653361
31
0
210
0
220
0
230
1
40
0.987191
41
2.68490720030683
42
3.14158267124534
0
ELLIPSE
5
AC
100
AcDbEntity
8
1
62
256
6
ByLayer
370
-1
48
1
60
0
100
AcDbEllipse
10
37.097623
20
2.345767
30
0
11
-0.747886075976975
21
0.0130544000150879
31
0
210
0
220
0
230
1
40
0.987191
41
-0.485867423681723
42
0.200782194016581
0
ELLIPSE
5
AD
100
AcDbEntity
8
1
62
256
6
ByLayer
370
-1
48
1
60
0
100
AcDbEllipse
10
37.100407
20
2.505288
30
0
11
1.03484236448687
21
-0.018063240662595
31
0
210
0
220
0
230
1
40
0.987191
41
1.0471975511966
42
2.09353712273326
0
ELLIPSE
5
AE
100
AcDbEntity
8
1
62
256
6
ByLayer
370
-1
48
1
60
0
100
AcDbEllipse
10
37.097623
20
2.345767
30
0
11
-0.747886075976975
21
0.0130544000150879
31
0
210
0
220
0
230
1
40
0.987191
41
2.94073644632128
42
-2.61756488816153
0
ELLIPSE
5
AF
100
AcDbEntity
8
1
62
256
6
ByLayer
370
-1
48
1
60
0
100
AcDbEllipse
10
38.120553
20
2.905935
30
0
11
-0.421935727355997
21
0.00736491551653361
31
0
210
0
220
0
230
1
40
0.987191
41
0.524027765428257
42
1.29892749328076
0
ELLIPSE
5
B0
100
AcDbEntity
8
1
62
256
6
ByLayer
370
-1
48
1
60
0
100
AcDbEllipse
10
36.074692
20
1.785598
30
0
11
-0.421935727355997
21
0.00736491551653361
31
0
210
0
220
0
230
1
40
0.987191
41
3.04611222090216
42
-3.14159071363306
0
ELLIPSE
5
B1
100
AcDbEntity
8
1
62
256
6
ByLayer
370
-1
48
1
60
0
100
AcDbEllipse
10
36.24774
20
2.359881
30
0
11
-0.184971823603932
21
0.00322869519089743
31
0
210
0
220
0
230
1
40
0.987191
41
-1.30068497549054
42
-0.448823696927731
0
ELLIPSE
5
B2
100
AcDbEntity
8
1
62
256
6
ByLayer
370
-1
48
1
60
0
100
AcDbEllipse
10
36.095872
20
2.940118
30
0
11
-0.421935727355997
21
0.00736491551653361
31
0
210
0
220
0
230
1
40
0.987191
41
1.84090767809964
42
2.55108055567607
0
ELLIPSE
5
B3
100
AcDbEntity
8
1
62
256
6
ByLayer
370
-1
48
1
60
0
100
AcDbEllipse
10
36.686008
20
3.080114
30
0
11
-0.184971823603932
21
0.00322869519089743
31
0
210
0
220
0
230
1
40
0.987191
41
-2.34612504447729
42
-0.484639200629671
0
ELLIPSE
5
B4
100
AcDbEntity
8
1
62
256
6
ByLayer
370
-1
48
1
60
0
100
AcDbEllipse
10
37.118282
20
3.500595
30
0
11
-0.421935727355997
21
0.00736491551653361
31
0
210
0
220
0
230
1
40
0.987191
41
0.795467609112492
42
1.57036733696491
0
ELLIPSE
5
B5
100
AcDbEntity
8
1
62
256
6
ByLayer
370
-1
48
1
60
0
100
AcDbEllipse
10
37.53524
20
3.064931
30
0
11
-0.184971823603932
21
0.00322869519089743
31
0
210
0
220
0
230
1
40
0.987191
41
-2.62570921528177
42
-0.796325588772339
0
ELLIPSE
5
B6
100
AcDbEntity
8
1
62
256
6
ByLayer
370
-1
48
1
60
0
100
AcDbEllipse
10
38.120553
20
2.905935
30
0
11
-0.421935727355997
21
0.00736491551653361
31
0
210
0
220
0
230
1
40
0.987191
41
1.9399567551062E-06
42
0.524027765428257
0
ELLIPSE
5
B7
100
AcDbEntity
8
1
62
256
6
ByLayer
370
-1
48
1
60
0
100
AcDbEllipse
10
37.947505
20
2.331652
30
0
11
-0.184971823603932
21
0.00322869519089743
31
0
210
0
220
0
230
1
40
0.987191
41
-2.69046307757121
42
-1.84266516030916
0
ELLIPSE
5
B8
100
AcDbEntity
8
1
62
256
6
ByLayer
370
-1
48
1
60
0
100
AcDbEllipse
10
37.099893
20
2.475844
30
0
11
1.54976392749241
21
-0.0270512299777992
31
0
210
0
220
0
230
1
40
0.987191
41
0
42
6.28318530717959
0
ELLIPSE
5
B9
100
AcDbEntity
8
1
62
256
6
ByLayer
370
-1
48
1
60
0
100
AcDbEllipse
10
37.097901
20
2.361719
30
0
11
1.54976392749241
21
-0.0270512299777992
31
0
210
0
220
0
230
1
40
0.987191
41
3.14156020642109
42
-2.90226681204753E-16
0
ELLIPSE
5
BA
100
AcDbEntity
8
1
62
256
6
ByLayer
370
-1
48
1
60
0
100
AcDbEllipse
10
37.100407
20
2.505288
30
0
11
1.09983246467203
21
-0.0191976470810188
31
0
210
0
220
0
230
1
40
0.987191
41
0
42
6.28318530717959
0
ELLIPSE
5
BB
100
AcDbEntity
8
1
62
256
6
ByLayer
370
-1
48
1
60
0
100
AcDbEllipse
10
39.410774
20
-1.639976
30
0
11
0.396939534977048
21
-0.00692860535560335
31
0
210
0
220
0
230
1
40
0.987191
41
-2.09439510239324
42
-7.36532446634298E-15
0
ELLIPSE
5
BC
100
AcDbEntity
8
1
62
256
6
ByLayer
370
-1
48
1
60
0
100
AcDbEllipse
10
32.333975
20
2.558777
30
0
11
0.396939534977056
21
-0.00692860535560349
31
0
210
0
220
0
230
1
40
0.987191
41
2.09439510239319
42
-2.09439510239317
0
ELLIPSE
5
BD
100
AcDbEntity
8
1
62
256
6
ByLayer
370
-1
48
1
60
0
100
AcDbEllipse
10
37.097321
20
2.365113
30
0
11
-1.60734660482144
21
0.0280563393493082
31
0
210
0
220
0
230
1
40
0.987191
41
0.017679625658916
42
0.860861854538956
0
ELLIPSE
5
BE
100
AcDbEntity
8
1
62
256
6
ByLayer
370
-1
48
1
60
0
100
AcDbEllipse
10
37.097321
20
2.365113
30
0
11
-1.60734660482144
21
0.0280563393493082
31
0
210
0
220
0
230
1
40
0.987191
41
2.2807638744454
42
-2.57810168831598
0
ELLIPSE
5
BF
100
AcDbEntity
8
1
62
256
6
ByLayer
370
-1
48
1
60
0
100
AcDbEllipse
10
37.097321
20
2.365113
30
0
11
-1.60734660482144
21
0.0280563393493082
31
0
210
0
220
0
230
1
40
0.987191
41
0
42
6.28318530717959
0
ELLIPSE
5
C0
100
AcDbEntity
8
1
62
256
6
ByLayer
370
-1
48
1
60
0
100
AcDbEllipse
10
37.097321
20
2.365113
30
0
11
-1.60734660482144
21
0.0280563393493082
31
0
210
0
220
0
230
1
40
0.987191
41
-0.574943951708622
42
-2.79829403302178E-16
0
ELLIPSE
5
C1
100
AcDbEntity
8
1
62
256
6
ByLayer
370
-1
48
1
60
0
100
AcDbEllipse
10
37.097321
20
2.365113
30
0
11
-1.60734660482144
21
0.0280563393493082
31
0
210
0
220
0
230
1
40
0.987191
41
0
42
0.0176798846640642
0
ELLIPSE
5
C2
100
AcDbEntity
8
1
62
256
6
ByLayer
370
-1
48
1
60
0
100
AcDbEllipse
10
37.097719
20
2.387928
30
0
11
1.65537097473
21
-0.0288946078442094
31
0
210
0
220
0
230
1
40
0.987191
41
-0.423362017573609
42
-2.71711204432787E-16
0
ELLIPSE
5
C3
100
AcDbEntity
8
1
62
256
6
ByLayer
370
-1
48
1
60
0
100
AcDbEllipse
10
37.097719
20
2.387928
30
0
11
1.65537097473
21
-0.0288946078442094
31
0
210
0
220
0
230
1
40
0.987191
41
0
42
0.0176796900314454
0
ELLIPSE
5
C4
100
AcDbEntity
8
1
62
256
6
ByLayer
370
-1
48
1
60
0
100
AcDbEllipse
10
37.097719
20
2.387928
30
0
11
1.65537097473
21
-0.0288946078442094
31
0
210
0
220
0
230
1
40
0.987191
41
-2.71819742681023
42
-1.55266645181603
0
ELLIPSE
5
C5
100
AcDbEntity
8
1
62
256
6
ByLayer
370
-1
48
1
60
0
100
AcDbEllipse
10
37.097719
20
2.387928
30
0
11
1.65537097473
21
-0.0288946078442094
31
0
210
0
220
0
230
1
40
0.987191
41
0.017679564189941
42
-2.71819742681023
0
ELLIPSE
5
C6
100
AcDbEntity
8
1
62
256
6
ByLayer
370
-1
48
1
60
0
100
AcDbEllipse
10
39.552998
20
6.507996
30
0
11
0.396939534977051
21
-0.00692860535560341
31
0
210
0
220
0
230
1
40
0.987191
41
0
42
2.09439510239319
0
ELLIPSE
5
C7
100
AcDbEntity
8
1
62
256
6
ByLayer
370
-1
48
1
60
0
100
AcDbEllipse
10
37.099249
20
2.475599
30
0
11
1.6937958789114
21
-0.0295653170415565
31
0
210
0
220
0
230
1
40
0.987191
41
0
42
6.28318530717959
0
POINT
5
41
100
AcDbEntity
8
80
62
256
6
ByLayer
370
-1
48
1
60
0
100
AcDbPoint
10
0
20
0
30
0
39
0
210
0
220
0
230
1
50
360
0
POINT
5
43
100
AcDbEntity
8
81
62
256
6
ByLayer
370
-1
48
1
60
0
100
AcDbPoint
10
39.95
20
6.9
30
0
39
0
210
0
220
0
230
1
50
360
0
POINT
5
45
100
AcDbEntity
8
1
62
256
6
ByLayer
370
-1
48
1
60
0
100
AcDbPoint
10
-86.3
20
0
30
0
39
0
210
0
220
0
230
1
50
360
0
POINT
5
47
100
AcDbEntity
8
2
62
256
6
ByLayer
370
-1
48
1
60
0
100
AcDbPoint
10
39.95
20
6.9
30
0
39
0
210
0
220
0
230
1
50
360
0
SPLINE
5
C8
100
AcDbEntity
8
1
62
256
6
ByLayer
370
-1
48
1
60
0
100
AcDbSpline
70
4
71
3
72
8
73
4
40
0
40
0
40
0
40
0
40
1
40
1
40
1
40
1
41
1
10
25.9047528509333
20
2.16507253054013
30
0
41
1
10
25.6894489313841
20
3.1887406663634
30
0
41
1
10
25.6187928815649
20
4.06463876723112
30
0
41
1
10
26.1366585089603
20
4.50624999999999
30
0
0
SPLINE
5
C9
100
AcDbEntity
8
1
62
256
6
ByLayer
370
-1
48
1
60
0
100
AcDbSpline
70
4
71
3
72
48
73
44
40
-0.0787976764761643
40
-0.0787976764761643
40
0
40
0
40
0.0634650563386408
40
0.0634650563386408
40
0.113971410274966
40
0.113971410274966
40
0.155664796653583
40
0.155664796653583
40
0.197713794557216
40
0.197713794557216
40
0.234628205582744
40
0.234628205582744
40
0.270155548705068
40
0.270155548705068
40
0.307192209914502
40
0.307192209914502
40
0.347580587587349
40
0.347580587587349
40
0.393208822364577
40
0.393208822364577
40
0.446650807215414
40
0.446650807215414
40
0.527473254052475
40
0.527473254052475
40
0.609519477993974
40
0.609519477993974
40
0.664881628599489
40
0.664881628599489
40
0.698408050236103
40
0.698408050236103
40
0.721137412309202
40
0.721137412309202
40
0.739457810920255
40
0.739457810920255
40
0.75779511704829
40
0.75779511704829
40
0.783003892151509
40
0.783003892151509
40
0.828464635075243
40
0.828464635075243
40
0.921202323523836
40
0.921202323523836
40
1
40
1
40
1.06346505633864
40
1.06346505633864
41
1
10
28.0949859489737
20
1.09344747123083
30
0
41
1
10
27.8341496441697
20
0.982560874716768
30
0
41
1
10
27.7134387674252
20
0.951879879402782
30
0
41
1
10
27.4981582715715
20
0.947915341135456
30
0
41
1
10
27.4012880337697
20
0.964547628390534
30
0
41
1
10
27.2318689583302
20
1.03673865497922
30
0
41
1
10
27.1562668496544
20
1.08604556119266
30
0
41
1
10
27.0172375906031
20
1.21569234083387
30
0
41
1
10
26.9518010987351
20
1.29842955279923
30
0
41
1
10
26.8479584332904
20
1.47204796361214
30
0
41
1
10
26.8057492222575
20
1.56303543522679
30
0
41
1
10
26.7413061307938
20
1.7442391277097
30
0
41
1
10
26.7175052843206
20
1.8366739133518
30
0
41
1
10
26.6875163186169
20
2.01832123723912
30
0
41
1
10
26.6817208729186
20
2.10951380488544
30
0
41
1
10
26.689670835498
20
2.28515748064328
30
0
41
1
10
26.7053098429003
20
2.37043603732852
30
0
41
1
10
26.7602586367465
20
2.53033406363636
30
0
41
1
10
26.8029772818232
20
2.60412938229896
30
0
41
1
10
26.9182585604452
20
2.73719219463584
30
0
41
1
10
26.995899775193
20
2.79353188894032
30
0
41
1
10
27.2153825879143
20
2.89909076002033
30
0
41
1
10
27.3733476692617
20
2.93259121407476
30
0
41
1
10
27.7147818145825
20
2.95276561282355
30
0
41
1
10
27.9030330419528
20
2.93960875863735
30
0
41
1
10
28.2244016257225
20
2.87683684462164
30
0
41
1
10
28.358050034855
20
2.84019411030272
30
0
41
1
10
28.5660298475539
20
2.7519131236792
30
0
41
1
10
28.6442171675179
20
2.7112214599394
30
0
41
1
10
28.7634378515017
20
2.62388609363487
30
0
41
1
10
28.8090541205801
20
2.58247592851072
30
0
41
1
10
28.876622265428
20
2.4965334263691
30
0
41
1
10
28.9018413682709
20
2.45320150071248
30
0
41
1
10
28.9362493118621
20
2.36243956054648
30
0
41
1
10
28.9458183742012
20
2.31401018650052
30
0
41
1
10
28.9517258644326
20
2.20151178606935
30
0
41
1
10
28.9424700551173
20
2.13656468523723
30
0
41
1
10
28.8973109682053
20
1.96588332820818
30
0
41
1
10
28.8465368373363
20
1.86459910056533
30
0
41
1
10
28.6724921814983
20
1.58483298416655
30
0
41
1
10
28.5238285957311
20
1.42549013555234
30
0
41
1
10
28.2362864606843
20
1.18463183881528
30
0
41
1
10
28.0949859489737
20
1.09344747123083
30
0
41
1
10
27.8341496441697
20
0.982560874716768
30
0
0
SPLINE
5
CA
100
AcDbEntity
8
1
62
256
6
ByLayer
370
-1
48
1
60
0
100
AcDbSpline
70
4
71
3
72
8
73
4
40
0
40
0
40
0
40
0
40
1
40
1
40
1
40
1
41
1
10
29.4378198606004
20
4.91645044900832
30
0
41
1
10
29.6057207145351
20
5.01460512768281
30
0
41
1
10
29.7760764984332
20
5.1133749898448
30
0
41
1
10
29.9470523586036
20
5.21231136826501
30
0
0
SPLINE
5
CB
100
AcDbEntity
8
1
62
256
6
ByLayer
370
-1
48
1
60
0
100
AcDbSpline
70
4
71
3
72
8
73
4
40
0
40
0
40
0
40
0
40
1
40
1
40
1
40
1
41
1
10
27.6427236711682
20
-2.75069610843263
30
0
41
1
10
28.0984085425083
20
-3.42055835898452
30
0
41
1
10
28.6881257315115
20
-3.88889246365361
30
0
41
1
10
29.4378198606005
20
-4.17730752164152
30
0
0
SPLINE
5
CC
100
AcDbEntity
8
1
62
256
6
ByLayer
370
-1
48
1
60
0
100
AcDbSpline
70
4
71
3
72
8
73
4
40
0
40
0
40
0
40
0
40
1
40
1
40
1
40
1
41
1
10
29.740257567571
20
-4.45023837659932
30
0
41
1
10
29.6375690135562
20
-4.36097868145498
30
0
41
1
10
29.5367195325531
20
-4.27009684069549
30
0
41
1
10
29.4378198606004
20
-4.17730752164169
30
0
0
SPLINE
5
CD
100
AcDbEntity
8
1
62
256
6
ByLayer
370
-1
48
1
60
0
100
AcDbSpline
70
4
71
3
72
8
73
4
40
0
40
0
40
0
40
0
40
1
40
1
40
1
40
1
41
1
10
27.5677236711682
20
-2.70091972918124
30
0
41
1
10
27.5922476069041
20
-2.71875700433293
30
0
41
1
10
27.6172559420145
20
-2.73536111530399
30
0
41
1
10
27.6427236711682
20
-2.75069610843263
30
0
0
SPLINE
5
CE
100
AcDbEntity
8
1
62
256
6
ByLayer
370
-1
48
1
60
0
100
AcDbSpline
70
4
71
3
72
8
73
4
40
0
40
0
40
0
40
0
40
1
40
1
40
1
40
1
41
1
10
36.7882605902912
20
6.10898981471388
30
0
41
1
10
34.7339199637997
20
5.94101760656613
30
0
41
1
10
32.6795979776062
20
5.7728241701507
30
0
41
1
10
30.62530047
20
5.60434155762897
30
0
0
SPLINE
5
CF
100
AcDbEntity
8
1
62
256
6
ByLayer
370
-1
48
1
60
0
100
AcDbSpline
70
4
71
3
72
8
73
4
40
0
40
0
40
0
40
0
40
1
40
1
40
1
40
1
41
1
10
29.9470523586036
20
5.21231136826501
30
0
41
1
10
30.1730698331841
20
5.34309796218753
30
0
41
1
10
30.3991572383225
20
5.47376688457462
30
0
41
1
10
30.62530047
20
5.60434155762897
30
0
0
SPLINE
5
D0
100
AcDbEntity
8
1
62
256
6
ByLayer
370
-1
48
1
60
0
100
AcDbSpline
70
4
71
3
72
8
73
4
40
0
40
0
40
0
40
0
40
1
40
1
40
1
40
1
41
1
10
27.5677236711682
20
-2.70091972918152
30
0
41
1
10
27.4593975009368
20
-2.53037123647823
30
0
41
1
10
27.3601898882424
20
-2.35152747640453
30
0
41
1
10
27.2675008700371
20
-2.16507253054038
30
0
0
SPLINE
5
D1
100
AcDbEntity
8
1
62
256
6
ByLayer
370
-1
48
1
60
0
100
AcDbSpline
70
4
71
3
72
8
73
4
40
0
40
0
40
0
40
0
40
1
40
1
40
1
40
1
41
1
10
37.3326017059072
20
5.74147341155179
30
0
41
1
10
37.1802545351462
20
5.72902385201544
30
0
41
1
10
37.0279074645644
20
5.71657310432406
30
0
41
1
10
36.8755604960202
20
5.70412114675139
30
0
0
SPLINE
5
D2
100
AcDbEntity
8
1
62
256
6
ByLayer
370
-1
48
1
60
0
100
AcDbSpline
70
4
71
3
72
8
73
4
40
0
40
0
40
0
40
0
40
1
40
1
40
1
40
1
41
1
10
29.4378198606003
20
-4.75496981792159
30
0
41
1
10
29.5212549006505
20
-4.74431655090382
30
0
41
1
10
29.6240616651468
20
-4.73118983684279
30
0
41
1
10
29.7399783743236
20
-4.71638920087571
30
0
0
SPLINE
5
D3
100
AcDbEntity
8
1
62
256
6
ByLayer
370
-1
48
1
60
0
100
AcDbSpline
70
4
71
3
72
8
73
4
40
0
40
0
40
0
40
0
40
1
40
1
40
1
40
1
41
1
10
30.4490836781401
20
-4.62584824661096
30
0
41
1
10
30.2031468947353
20
-4.57897853253954
30
0
41
1
10
29.966990296372
20
-4.52150989604874
30
0
41
1
10
29.740257567571
20
-4.45023837659932
30
0
0
SPLINE
5
D4
100
AcDbEntity
8
1
62
256
6
ByLayer
370
-1
48
1
60
0
100
AcDbSpline
70
4
71
3
72
8
73
4
40
0
40
0
40
0
40
0
40
1
40
1
40
1
40
1
41
1
10
29.740257567571
20
-4.45023837659932
30
0
41
1
10
29.7401620470985
20
-4.5506492538905
30
0
41
1
10
29.7400690070366
20
-4.63924994332717
30
0
41
1
10
29.7399783743236
20
-4.71638920087571
30
0
0
SPLINE
5
D5
100
AcDbEntity
8
1
62
256
6
ByLayer
370
-1
48
1
60
0
100
AcDbSpline
70
4
71
3
72
8
73
4
40
0
40
0
40
0
40
0
40
1
40
1
40
1
40
1
41
1
10
29.4378198606005
20
4.91645044900812
30
0
41
1
10
29.0351759405714
20
4.9150162426227
30
0
41
1
10
28.64701031989
20
4.91220365983631
30
0
41
1
10
28.2739903085122
20
4.90001663851203
30
0
0
SPLINE
5
D6
100
AcDbEntity
8
1
62
256
6
ByLayer
370
-1
48
1
60
0
100
AcDbSpline
70
4
71
3
72
8
73
4
40
0
40
0
40
0
40
0
40
1
40
1
40
1
40
1
41
1
10
32.0805151037355
20
3.25422707373187
30
0
41
1
10
32.0462634267187
20
3.29880664106486
30
0
41
1
10
32.0114223153579
20
3.34128971505117
30
0
41
1
10
31.9761257131328
20
3.38142536589643
30
0
0
SPLINE
5
D7
100
AcDbEntity
8
1
62
256
6
ByLayer
370
-1
48
1
60
0
100
AcDbSpline
70
4
71
3
72
18
73
14
40
0
40
0
40
0
40
0
40
0.0838467479352248
40
0.0838467479352248
40
0.26144305294225
40
0.26144305294225
40
0.439039359447034
40
0.439039359447034
40
0.616635666434998
40
0.616635666434998
40
0.794231973578556
40
0.794231973578556
40
1
40
1
40
1
40
1
41
1
10
39.3695490726589
20
-2.1047031374419
30
0
41
1
10
39.3733636407944
20
-2.10562560171496
30
0
41
1
10
39.3772142772957
20
-2.10640061449959
30
0
41
1
10
39.3892794279228
20
-2.1083439694556
30
0
41
1
10
39.3976150464796
20
-2.10899218165844
30
0
41
1
10
39.4142224214341
20
-2.10891806112832
30
0
41
1
10
39.4225511373357
20
-2.10819547413894
30
0
41
1
10
39.4389158219506
20
-2.10540898805425
30
0
41
1
10
39.4470079178803
20
-2.10333553192405
30
0
41
1
10
39.4626785519051
20
-2.0979135355646
30
0
41
1
10
39.4703108368004
20
-2.09454639908734
30
0
41
1
10
39.4859179679345
20
-2.08606059935269
30
0
41
1
10
39.4938684056875
20
-2.08068780980145
30
0
41
1
10
39.5012305680717
20
-2.0746341334405
30
0
0
SPLINE
5
D8
100
AcDbEntity
8
1
62
256
6
ByLayer
370
-1
48
1
60
0
100
AcDbSpline
70
4
71
3
72
10
73
6
40
0
40
0
40
0
40
0
40
0.794173423318092
40
0.794173423318092
40
1
40
1
40
1
40
1
41
1
10
32.229002669938
20
2.12701537363276
30
0
41
1
10
32.2344741387971
20
2.12223211514177
30
0
41
1
10
32.2402900250302
20
2.11784229025395
30
0
41
1
10
32.2479400714228
20
2.11290788439527
30
0
41
1
10
32.2495349022981
20
2.11192076078189
30
0
41
1
10
32.251146951565
20
2.11096436866168
30
0
0
SPLINE
5
D9
100
AcDbEntity
8
1
62
256
6
ByLayer
370
-1
48
1
60
0
100
AcDbSpline
70
4
71
3
72
18
73
14
40
0
40
0
40
0
40
0
40
0.208762136101533
40
0.208762136101533
40
0.385176383367027
40
0.385176383367027
40
0.563283124343798
40
0.563283124343798
40
0.71835897204408
40
0.71835897204408
40
0.923772873496454
40
0.923772873496454
40
1
40
1
40
1
40
1
41
1
10
36.8203506365657
20
3.35694809307569
30
0
41
1
10
36.8500674326254
20
3.32362823324769
30
0
41
1
10
36.8853905501722
20
3.29402068529666
30
0
41
1
10
36.9584491400295
20
3.25129000830316
30
0
41
1
10
36.9958428895287
20
3.23594447715155
30
0
41
1
10
37.0740041083587
20
3.21776851496551
30
0
41
1
10
37.1159820652789
20
3.2149322258843
30
0
41
1
10
37.1915627089842
20
3.22233499750081
30
0
41
1
10
37.2264523597185
20
3.23095097128007
30
0
41
1
10
37.3012952708364
20
3.26019455020156
30
0
41
1
10
37.3405615433617
20
3.28414612023369
30
0
41
1
10
37.387255330309
20
3.32315949423889
30
0
41
1
10
37.3993541237777
20
3.33449206082503
30
0
41
1
10
37.4107561852487
20
3.34639241421155
30
0
0
SPLINE
5
DA
100
AcDbEntity
8
1
62
256
6
ByLayer
370
-1
48
1
60
0
100
AcDbSpline
70
4
71
3
72
16
73
12
40
0
40
0
40
0
40
0
40
0.0576001212737694
40
0.0576001212737694
40
0.282183349903927
40
0.282183349903927
40
0.509223834921691
40
0.509223834921691
40
0.750395845851056
40
0.750395845851056
40
1
40
1
40
1
40
1
41
1
10
38.1352644027494
20
2.48810091787109
30
0
41
1
10
38.1353438776282
20
2.49289268884164
30
0
41
1
10
38.1352316867233
20
2.49767768387093
30
0
41
1
10
38.1337567034341
20
2.52081917252502
30
0
41
1
10
38.1296249708361
20
2.53899346865239
30
0
41
1
10
38.1162732283464
20
2.57223275129235
30
0
41
1
10
38.106841577227
20
2.58769098796753
30
0
41
1
10
38.0836416812447
20
2.61490144470119
30
0
41
1
10
38.0693650423092
20
2.62671700580478
30
0
41
1
10
38.0380656251903
20
2.64507481415413
30
0
41
1
10
38.0206294198973
20
2.65166136301622
30
0
41
1
10
38.0028418372939
20
2.65536135143373
30
0
0
SPLINE
5
DB
100
AcDbEntity
8
1
62
256
6
ByLayer
370
-1
48
1
60
0
100
AcDbSpline
70
4
71
3
72
14
73
10
40
0
40
0
40
0
40
0
40
0.0471755880000608
40
0.0471755880000608
40
0.384290522899888
40
0.384290522899888
40
0.831082204357458
40
0.831082204357458
40
1
40
1
40
1
40
1
41
1
10
36.4736844227365
20
2.88291594644235
30
0
41
1
10
36.4759707365641
20
2.88736203494645
30
0
41
1
10
36.4781763327903
20
2.89185808277892
30
0
41
1
10
36.495330655059
20
2.92854769631589
30
0
41
1
10
36.5062153255989
20
2.96324837139153
30
0
41
1
10
36.5212087389877
20
3.04367563932325
30
0
41
1
10
36.5223687287344
20
3.09064945685458
30
0
41
1
10
36.515312120252
20
3.15253973351014
30
0
41
1
10
36.512450191929
20
3.16946141255374
30
0
41
1
10
36.5087420164935
20
3.1860743586937
30
0
0
SPLINE
5
DC
100
AcDbEntity
8
1
62
256
6
ByLayer
370
-1
48
1
60
0
100
AcDbSpline
70
4
71
3
72
18
73
14
40
0
40
0
40
0
40
0
40
0.200563741782944
40
0.200563741782944
40
0.378429281654648
40
0.378429281654648
40
0.558082705772405
40
0.558082705772405
40
0.713469953797829
40
0.713469953797829
40
0.917454055846154
40
0.917454055846154
40
1
40
1
40
1
40
1
41
1
10
37.7162259773586
20
3.16515338597651
30
0
41
1
10
37.7053726979847
20
3.12301747751155
30
0
41
1
10
37.6999560720721
20
3.07830264319131
30
0
41
1
10
37.7022569238664
20
2.99356575554199
30
0
41
1
10
37.7086896829515
20
2.95262510984008
30
0
41
1
10
37.7330833820023
20
2.87474230404686
30
0
41
1
10
37.7516444528498
20
2.83674233701379
30
0
41
1
10
37.7947729655635
20
2.77560314952126
30
0
41
1
10
37.81866374643
20
2.75037605846103
30
0
41
1
10
37.878084112536
20
2.70251246092371
30
0
41
1
10
37.9158402604565
20
2.68218559887774
30
0
41
1
10
37.9704296534491
20
2.66318375085774
30
0
41
1
10
37.9865663078529
20
2.65874681823723
30
0
41
1
10
38.0028418372939
20
2.65536135143361
30
0
0
SPLINE
5
DD
100
AcDbEntity
8
1
62
256
6
ByLayer
370
-1
48
1
60
0
100
AcDbSpline
70
4
71
3
72
14
73
10
40
0
40
0
40
0
40
0
40
0.234367995813617
40
0.234367995813617
40
0.527853126806401
40
0.527853126806401
40
0.793258592408354
40
0.793258592408354
40
1
40
1
40
1
40
1
41
1
10
36.4842098303625
20
1.82374157149241
30
0
41
1
10
36.4796139655951
20
1.80857200455242
30
0
41
1
10
36.4773262995832
20
1.79229306617873
30
0
41
1
10
36.4781857329223
20
1.75511567547983
30
0
41
1
10
36.4829277783653
20
1.73346380296783
30
0
41
1
10
36.5002258617232
20
1.6946841356276
30
0
41
1
10
36.5122920931676
20
1.67674526666192
30
0
41
1
10
36.5389604874206
20
1.64924646605019
30
0
41
1
10
36.5526944310107
20
1.6384091853235
30
0
41
1
10
36.5675430928025
20
1.62959928953916
30
0
0
SPLINE
5
DE
100
AcDbEntity
8
1
62
256
6
ByLayer
370
-1
48
1
60
0
100
AcDbSpline
70
4
71
3
72
16
73
12
40
0
40
0
40
0
40
0
40
0.064633983666631
40
0.064633983666631
40
0.289175235701357
40
0.289175235701357
40
0.5165698011666
40
0.5165698011666
40
0.758421990997526
40
0.758421990997526
40
1
40
1
40
1
40
1
41
1
10
36.0655498368087
20
2.52247438499893
30
0
41
1
10
36.0654607493548
20
2.51710304399569
30
0
41
1
10
36.0656119869914
20
2.51170312986321
30
0
41
1
10
36.0673473934146
20
2.48771021542922
30
0
41
1
10
36.0716395643084
20
2.46891217927231
30
0
41
1
10
36.0852684309516
20
2.43365856215868
30
0
41
1
10
36.0948282560921
20
2.41678203707608
30
0
41
1
10
36.1182538031423
20
2.3860380003521
30
0
41
1
10
36.13263247776
20
2.37203306678129
30
0
41
1
10
36.1635543779481
20
2.34918575146344
30
0
41
1
10
36.1804073062294
20
2.34007114177851
30
0
41
1
10
36.1975939704276
20
2.33353360603516
30
0
0
SPLINE
5
DF
100
AcDbEntity
8
1
62
256
6
ByLayer
370
-1
48
1
60
0
100
AcDbSpline
70
4
71
3
72
18
73
14
40
0
40
0
40
0
40
0
40
0.212969059779958
40
0.212969059779958
40
0.388649121930997
40
0.388649121930997
40
0.565972375223444
40
0.565972375223444
40
0.720906315372376
40
0.720906315372376
40
0.927068205726857
40
0.927068205726857
40
1
40
1
40
1
40
1
41
1
10
37.3800851711555
20
1.63194686439334
30
0
41
1
10
37.349644227913
20
1.65882634009276
30
0
41
1
10
37.3133592388326
20
1.68226534214648
30
0
41
1
10
37.2391225248036
20
1.71513132552133
30
0
41
1
10
37.2016911305058
20
1.72659672503579
30
0
41
1
10
37.123638987128
20
1.74013301382692
30
0
41
1
10
37.0818229285192
20
1.74223421507182
30
0
41
1
10
37.0065435036599
20
1.73678388989765
30
0
41
1
10
36.9717898944707
20
1.7303913444994
30
0
41
1
10
36.8971206414089
20
1.70831327492175
30
0
41
1
10
36.8579488775848
20
1.68997836085677
30
0
41
1
10
36.8120469231419
20
1.65988613684539
30
0
41
1
10
36.8005443415516
20
1.65142462011164
30
0
41
1
10
36.7896796224728
20
1.64250254325719
30
0
0
SPLINE
5
E0
100
AcDbEntity
8
1
62
256
6
ByLayer
370
-1
48
1
60
0
100
AcDbSpline
70
4
71
3
72
18
73
14
40
0
40
0
40
0
40
0
40
0.0868907634828924
40
0.0868907634828924
40
0.287855877216128
40
0.287855877216128
40
0.451318164037003
40
0.451318164037003
40
0.61554126189857
40
0.61554126189857
40
0.770140281400468
40
0.770140281400468
40
1
40
1
40
1
40
1
41
1
10
36.4842098303628
20
1.82374157149232
30
0
41
1
10
36.4888811109141
20
1.8391600632464
30
0
41
1
10
36.4925204910106
20
1.855081472374
30
0
41
1
10
36.5008226458506
20
1.90897183179322
30
0
41
1
10
36.500629874288
20
1.94939083440332
30
0
41
1
10
36.4874049106361
20
2.02373373109955
30
0
41
1
10
36.4765303436871
20
2.05829123721642
30
0
41
1
10
36.4455102970767
20
2.12464159855443
30
0
41
1
10
36.4248826016251
20
2.15727001785237
30
0
41
1
10
36.3787809658854
20
2.21383947726022
30
0
41
1
10
36.3531734449642
20
2.23886821829103
30
0
41
1
10
36.2862860530098
20
2.2918802499147
30
0
41
1
10
36.2422009447455
20
2.31656581719358
30
0
41
1
10
36.1975939704276
20
2.33353360603519
30
0
0
SPLINE
5
E1
100
AcDbEntity
8
1
62
256
6
ByLayer
370
-1
48
1
60
0
100
AcDbSpline
70
4
71
3
72
14
73
10
40
0
40
0
40
0
40
0
40
0.0514115536286152
40
0.0514115536286152
40
0.388063998995188
40
0.388063998995188
40
0.835707846289007
40
0.835707846289007
40
1
40
1
40
1
40
1
41
1
10
37.7262070521007
20
2.07479420099813
30
0
41
1
10
37.7237165025436
20
2.07005241771486
30
0
41
1
10
37.7213223530098
20
2.06528138386756
30
0
41
1
10
37.7041307542548
20
2.02937536701759
30
0
41
1
10
37.6934061908817
20
1.99704004311448
30
0
41
1
10
37.6787614092056
20
1.9240052835016
30
0
41
1
10
37.677846242389
20
1.88278867304857
30
0
41
1
10
37.6852100252327
20
1.83018882570298
30
0
41
1
10
37.6880527412855
20
1.81627573661663
30
0
41
1
10
37.6916919460475
20
1.80271488845861
30
0
0
SPLINE
5
E2
100
AcDbEntity
8
1
62
256
6
ByLayer
370
-1
48
1
60
0
100
AcDbSpline
70
4
71
3
72
14
73
10
40
0
40
0
40
0
40
0
40
0.283146476567556
40
0.283146476567556
40
0.570532096823472
40
0.570532096823472
40
0.830931804110685
40
0.830931804110685
40
1
40
1
40
1
40
1
41
1
10
36.8203506365657
20
3.35694809307572
30
0
41
1
10
36.8055961545202
20
3.37349150753394
30
0
41
1
10
36.787749584353
20
3.38786216279905
30
0
41
1
10
36.7479641745085
20
3.40942817967297
30
0
41
1
10
36.7253348245242
20
3.41680997038236
30
0
41
1
10
36.6812801602186
20
3.42188317190914
30
0
41
1
10
36.6592749062689
20
3.42045764235524
30
0
41
1
10
36.6249106968833
20
3.41150005564489
30
0
41
1
10
36.6116089346821
20
3.40623539122944
30
0
41
1
10
36.5992055378004
20
3.3994637536928
30
0
0
SPLINE
5
E3
100
AcDbEntity
8
1
62
256
6
ByLayer
370
-1
48
1
60
0
100
AcDbSpline
70
4
71
3
72
14
73
10
40
0
40
0
40
0
40
0
40
0.283256706380083
40
0.283256706380083
40
0.570068005887759
40
0.570068005887759
40
0.829920896873181
40
0.829920896873181
40
1
40
1
40
1
40
1
41
1
10
36.2040483063235
20
2.68535236878449
30
0
41
1
10
36.1836289278601
20
2.68188332278177
30
0
41
1
10
36.1634912537967
20
2.67462025601176
30
0
41
1
10
36.1271765148499
20
2.6527937284574
30
0
41
1
10
36.1105129344547
20
2.63776865288511
30
0
41
1
10
36.0856791525692
20
2.60355108352155
30
0
41
1
10
36.0765145754175
20
2.58434507796821
30
0
41
1
10
36.0677076440543
20
2.55066297955943
30
0
41
1
10
36.0657839645684
20
2.53659062675959
30
0
41
1
10
36.0655498368087
20
2.52247438499893
30
0
0
SPLINE
5
E4
100
AcDbEntity
8
1
62
256
6
ByLayer
370
-1
48
1
60
0
100
AcDbSpline
70
4
71
3
72
16
73
12
40
0
40
0
40
0
40
0
40
0.0560577806572211
40
0.0560577806572211
40
0.280156589209677
40
0.280156589209677
40
0.506627282651893
40
0.506627282651893
40
0.747132515691279
40
0.747132515691279
40
1
40
1
40
1
40
1
41
1
10
37.6016087017577
20
1.6111115491772
30
0
41
1
10
37.6057523934127
20
1.61337379864148
30
0
41
1
10
37.6098113129904
20
1.61578175718256
30
0
41
1
10
37.6294473118023
20
1.62840257248013
30
0
41
1
10
37.643664340737
20
1.64079708383446
30
0
41
1
10
37.6671708890104
20
1.66819538025743
30
0
41
1
10
37.6767176700591
20
1.68356612557821
30
0
41
1
10
37.6907092824538
20
1.71599178590361
30
0
41
1
10
37.694995172167
20
1.73349171010076
30
0
41
1
10
37.6978303511889
20
1.76840418496002
30
0
41
1
10
37.6961313881817
20
1.78617209830892
30
0
41
1
10
37.6916919460475
20
1.80271488845861
30
0
0
SPLINE
5
E5
100
AcDbEntity
8
1
62
256
6
ByLayer
370
-1
48
1
60
0
100
AcDbSpline
70
4
71
3
72
16
73
12
40
0
40
0
40
0
40
0
40
0.0086275035319986
40
0.0086275035319986
40
0.329488951051048
40
0.329488951051048
40
0.619278535320798
40
0.619278535320798
40
0.874458956672177
40
0.874458956672177
40
1
40
1
40
1
40
1
41
1
10
37.7162259773586
20
3.16515338597648
30
0
41
1
10
37.7163990900943
20
3.16582546509042
30
0
41
1
10
37.7165689873863
20
3.16649866134821
30
0
41
1
10
37.722834586387
20
3.19184791491185
30
0
41
1
10
37.7245725077022
20
3.21849152946669
30
0
41
1
10
37.7180293579925
20
3.26783778188093
30
0
41
1
10
37.7105465671817
20
3.29144366393692
30
0
41
1
10
37.6887513808957
20
3.33117770975423
30
0
41
1
10
37.6750064941059
20
3.34843538197782
30
0
41
1
10
37.6509437254514
20
3.36936892550688
30
0
41
1
10
37.6423233167205
20
3.37560524826588
30
0
41
1
10
37.6332711467555
20
3.38097601333084
30
0
0
SPLINE
5
E6
100
AcDbEntity
8
1
62
256
6
ByLayer
370
-1
48
1
60
0
100
AcDbSpline
70
4
71
3
72
12
73
8
40
0
40
0
40
0
40
0
40
0.463467417903006
40
0.463467417903006
40
0.845037738615614
40
0.845037738615614
40
1
40
1
40
1
40
1
41
1
10
37.9963856562175
20
2.30343687836782
30
0
41
1
10
37.9543247305407
20
2.28917059067226
30
0
41
1
10
37.9125397999247
20
2.26825308127627
30
0
41
1
10
37.8421340131264
20
2.2188404666887
30
0
41
1
10
37.8117506266761
20
2.19171649514644
30
0
41
1
10
37.7747292961084
20
2.14894673896612
30
0
41
1
10
37.7646026122943
20
2.13594802249958
30
0
41
1
10
37.7552611208653
20
2.1225405463974
30
0
0
SPLINE
5
E7
100
AcDbEntity
8
1
62
256
6
ByLayer
370
-1
48
1
60
0
100
AcDbSpline
70
4
71
3
72
14
73
10
40
0
40
0
40
0
40
0
40
0.269491342236096
40
0.269491342236096
40
0.558586657826081
40
0.558586657826081
40
0.820357948699801
40
0.820357948699801
40
1
40
1
40
1
40
1
41
1
10
37.3800851711555
20
1.63194686439334
30
0
41
1
10
37.3941878412992
20
1.61949414975822
30
0
41
1
10
37.4110719275016
20
1.6088600888576
30
0
41
1
10
37.4497192862579
20
1.59282101183237
30
0
41
1
10
37.4723804078065
20
1.5876402900515
30
0
41
1
10
37.5166217702156
20
1.58566686611911
30
0
41
1
10
37.5387736476964
20
1.58813415388238
30
0
41
1
10
37.5742298463531
20
1.59814249408126
30
0
41
1
10
37.5884327895026
20
1.60391815668507
30
0
41
1
10
37.6016087017577
20
1.6111115491772
30
0
0
SPLINE
5
E8
100
AcDbEntity
8
1
62
256
6
ByLayer
370
-1
48
1
60
0
100
AcDbSpline
70
4
71
3
72
16
73
12
40
0
40
0
40
0
40
0
40
0.0658444346412053
40
0.0658444346412053
40
0.289753770355938
40
0.289753770355938
40
0.51658651473506
40
0.51658651473506
40
0.757900848952581
40
0.757900848952581
40
1
40
1
40
1
40
1
41
1
10
36.5992055378004
20
3.3994637536928
30
0
41
1
10
36.5943426635912
20
3.3968088663386
30
0
41
1
10
36.5895950948708
20
3.39391467019556
30
0
41
1
10
36.5694640538193
20
3.38029029968067
30
0
41
1
10
36.555428368949
20
3.36704766338639
30
0
41
1
10
36.5322707107203
20
3.33721712860341
30
0
41
1
10
36.5229087255483
20
3.32021776163762
30
0
41
1
10
36.5092908906434
20
3.28385230473157
30
0
41
1
10
36.5052098052791
20
3.26395667387979
30
0
41
1
10
36.5028521718014
20
3.22468165748958
30
0
41
1
10
36.5045430242956
20
3.20488620630996
30
0
41
1
10
36.5087420164936
20
3.1860743586937
30
0
0
SPLINE
5
E9
100
AcDbEntity
8
1
62
256
6
ByLayer
370
-1
48
1
60
0
100
AcDbSpline
70
4
71
3
72
14
73
10
40
0
40
0
40
0
40
0
40
0.273533809186855
40
0.273533809186855
40
0.561561507230637
40
0.561561507230637
40
0.822390051619128
40
0.822390051619128
40
1
40
1
40
1
40
1
41
1
10
37.9963856562175
20
2.30343687836779
30
0
41
1
10
38.0161648800893
20
2.31014562511103
30
0
41
1
10
38.0356682657303
20
2.32022427416962
30
0
41
1
10
38.0717911271803
20
2.34699784786949
30
0
41
1
10
38.0887447895963
20
2.36447167322868
30
0
41
1
10
38.1141282141185
20
2.40231436925882
30
0
41
1
10
38.123563697917
20
2.42284578203709
30
0
41
1
10
38.132925621231
20
2.45838789111553
30
0
41
1
10
38.1350199495772
20
2.47336212703863
30
0
41
1
10
38.1352644027494
20
2.48810091787109
30
0
0
SPLINE
5
EA
100
AcDbEntity
8
1
62
256
6
ByLayer
370
-1
48
1
60
0
100
AcDbSpline
70
4
71
3
72
16
73
12
40
0
40
0
40
0
40
0
40
0.0311864765903817
40
0.0311864765903817
40
0.256421450984069
40
0.256421450984069
40
0.482605696559205
40
0.482605696559205
40
0.721697475903147
40
0.721697475903147
40
1
40
1
40
1
40
1
41
1
10
36.5675430928025
20
1.62959928953916
30
0
41
1
10
36.5698021496191
20
1.62825896302331
30
0
41
1
10
36.5720907691056
20
1.62696166904027
30
0
41
1
10
36.5909487643127
20
1.61675897366183
30
0
41
1
10
36.6090992080738
20
1.61005464840406
30
0
41
1
10
36.6456693713589
20
1.60201890211067
30
0
41
1
10
36.6645548989565
20
1.60059467357058
30
0
41
1
10
36.7016639828117
20
1.60277648154445
30
0
41
1
10
36.7202558653129
20
1.60668308743342
30
0
41
1
10
36.7568054947055
20
1.61991901868916
30
0
41
1
10
36.7746906285278
20
1.63019362344272
30
0
41
1
10
36.7896796224728
20
1.64250254325722
30
0
0
SPLINE
5
EB
100
AcDbEntity
8
1
62
256
6
ByLayer
370
-1
48
1
60
0
100
AcDbSpline
70
4
71
3
72
12
73
8
40
0
40
0
40
0
40
0
40
0.456853638474354
40
0.456853638474354
40
0.839531309767529
40
0.839531309767529
40
1
40
1
40
1
40
1
41
1
10
36.2040483063235
20
2.68535236878452
30
0
41
1
10
36.2453893559294
20
2.69237579523897
30
0
41
1
10
36.2864580918093
20
2.70625619148535
30
0
41
1
10
36.3563840019057
20
2.74519475309043
30
0
41
1
10
36.3868821264618
20
2.76861804280253
30
0
41
1
10
36.4244612810443
20
2.80879104709737
30
0
41
1
10
36.4349646878359
20
2.82161446881483
30
0
41
1
10
36.4446303539728
20
2.8351696010445
30
0
0
SPLINE
5
EC
100
AcDbEntity
8
1
62
256
6
ByLayer
370
-1
48
1
60
0
100
AcDbSpline
70
4
71
3
72
16
73
12
40
0
40
0
40
0
40
0
40
0.106586587776118
40
0.106586587776118
40
0.330811103474503
40
0.330811103474503
40
0.560209161716521
40
0.560209161716521
40
0.805950156783902
40
0.805950156783902
40
1
40
1
40
1
40
1
41
1
10
37.6332711467555
20
3.38097601333084
30
0
41
1
10
37.6256087682974
20
3.38552219780337
30
0
41
1
10
37.6175852470587
20
3.38948127076949
30
0
41
1
10
37.5920954763912
20
3.39970406698873
30
0
41
1
10
37.5735758867604
20
3.40379720484287
30
0
41
1
10
37.5365734441335
20
3.40600783017118
30
0
41
1
10
37.5176336912254
20
3.40402977796489
30
0
41
1
10
37.4807305701793
20
3.39435714267464
30
0
41
1
10
37.462466624264
20
3.38616497197833
30
0
41
1
10
37.4332243291006
20
3.36731038964445
30
0
41
1
10
37.4213052388677
20
3.35740248167008
30
0
41
1
10
37.4107561852487
20
3.34639241421158
30
0
0
SPLINE
5
ED
100
AcDbEntity
8
SK1
62
256
6
ByLayer
370
-1
48
1
60
0
100
AcDbSpline
70
4
71
3
72
8
73
4
40
0
40
0
40
0
40
0
40
1
40
1
40
1
40
1
41
1
10
-85.7874999953241
20
4.50624999999999
30
0
41
1
10
-85.787524445444
20
4.50624999999999
30
0
41
1
10
-85.5956382351615
20
4.50624999999999
30
0
41
1
10
-85.3000000000001
20
4.50624999999999
30
0
0
SPLINE
5
EE
100
AcDbEntity
8
SK1
62
256
6
ByLayer
370
-1
48
1
60
0
100
AcDbSpline
70
4
71
3
72
10
73
6
40
0
40
0
40
0
40
0
40
0.5
40
0.5
40
1
40
1
40
1
40
1
41
1
10
-85.3000000000002
20
2.16507253054036
30
0
41
1
10
-85.5951148187382
20
1.48438880965591
30
0
41
1
10
-85.7936931348086
20
0.753297629610387
30
0
41
1
10
-85.7938068395366
20
-0.752618081247988
30
0
41
1
10
-85.5930579130502
20
-1.48913307232292
30
0
41
1
10
-85.3
20
-2.16507253054027
30
0
0
LINE
5
49
100
AcDbEntity
8
80
62
256
6
ByLayer
370
-1
48
1
60
0
100
AcDbLine
10
0
20
0
30
0
11
-10
21
0
31
0
39
0
210
0
220
0
230
1
0
LINE
5
4A
100
AcDbEntity
8
81
62
256
6
ByLayer
370
-1
48
1
60
0
100
AcDbLine
10
39.95
20
6.9
30
0
11
49.95
21
6.9
31
0
39
0
210
0
220
0
230
1
0
LINE
5
4B
100
AcDbEntity
8
SK4
62
256
6
ByLayer
370
-1
48
0.05
60
0
100
AcDbLine
10
-91.3
20
0
30
0
11
44.369496
21
0
31
0
39
0
210
0
220
0
230
1
0
LINE
5
4D
100
AcDbEntity
8
4
62
256
6
ByLayer
370
-1
48
0.05
60
0
100
AcDbLine
10
0
20
0
30
0
11
44.369496
21
0
31
0
39
0
210
0
220
0
230
1
0
LINE
5
4F
100
AcDbEntity
8
1
62
256
6
ByLayer
370
-1
48
1
60
0
100
AcDbLine
10
0
20
-4.99375
30
0
11
27.567724
21
-4.99375
31
0
39
0
210
0
220
0
230
1
0
LINE
5
50
100
AcDbEntity
8
1
62
256
6
ByLayer
370
-1
48
1
60
0
100
AcDbLine
10
27.567724
20
-4.99375
30
0
11
27.642724
21
-4.91875
31
0
39
0
210
0
220
0
230
1
0
LINE
5
51
100
AcDbEntity
8
1
62
256
6
ByLayer
370
-1
48
1
60
0
100
AcDbLine
10
29.43782
20
4.91875
30
0
11
28.292724
21
4.91875
31
0
39
0
210
0
220
0
230
1
0
LINE
5
52
100
AcDbEntity
8
1
62
256
6
ByLayer
370
-1
48
1
60
0
100
AcDbLine
10
27.642724
20
-4.91875
30
0
11
28.155114
21
-4.91875
31
0
39
0
210
0
220
0
230
1
0
LINE
5
53
100
AcDbEntity
8
1
62
256
6
ByLayer
370
-1
48
1
60
0
100
AcDbLine
10
30.6253
20
5.604342
30
0
11
29.43782
21
4.91875
31
0
39
0
210
0
220
0
230
1
0
LINE
5
54
100
AcDbEntity
8
1
62
256
6
ByLayer
370
-1
48
1
60
0
100
AcDbLine
10
30.699717
20
5.610445
30
0
11
30.6253
21
5.604342
31
0
39
0
210
0
220
0
230
1
0
LINE
5
55
100
AcDbEntity
8
1
62
256
6
ByLayer
370
-1
48
1
60
0
100
AcDbLine
10
39.50071
20
-2.075079
30
0
11
39.663683
21
-1.942186
31
0
39
0
210
0
220
0
230
1
0
LINE
5
56
100
AcDbEntity
8
1
62
256
6
ByLayer
370
-1
48
1
60
0
100
AcDbLine
10
32.070674
20
2.265577
30
0
11
32.228909
21
2.127078
31
0
39
0
210
0
220
0
230
1
0
LINE
5
57
100
AcDbEntity
8
1
62
256
6
ByLayer
370
-1
48
1
60
0
100
AcDbLine
10
32.243783
20
2.115627
30
0
11
32.33318
21
2.055302
31
0
39
0
210
0
220
0
230
1
0
LINE
5
58
100
AcDbEntity
8
1
62
256
6
ByLayer
370
-1
48
1
60
0
100
AcDbLine
10
36.496628
20
1.778233
30
0
11
36.499093
21
1.919487
31
0
39
0
210
0
220
0
230
1
0
LINE
5
59
100
AcDbEntity
8
1
62
256
6
ByLayer
370
-1
48
1
60
0
100
AcDbLine
10
37.679901
20
1.899914
30
0
11
37.677437
21
1.75878
31
0
39
0
210
0
220
0
230
1
0
LINE
5
5A
100
AcDbEntity
8
1
62
256
6
ByLayer
370
-1
48
1
60
0
100
AcDbLine
10
38.647665
20
2.334667
30
0
11
38.649657
21
2.448793
31
0
39
0
210
0
220
0
230
1
0
LINE
5
5B
100
AcDbEntity
8
1
62
256
6
ByLayer
370
-1
48
1
60
0
100
AcDbLine
10
35.550129
20
2.502895
30
0
11
35.548137
21
2.38877
31
0
39
0
210
0
220
0
230
1
0
LINE
5
5C
100
AcDbEntity
8
1
62
256
6
ByLayer
370
-1
48
1
60
0
100
AcDbLine
10
37.701079
20
3.0543
30
0
11
37.698618
21
2.9133
31
0
39
0
210
0
220
0
230
1
0
LINE
5
5D
100
AcDbEntity
8
1
62
256
6
ByLayer
370
-1
48
1
60
0
100
AcDbLine
10
36.517808
20
2.932753
30
0
11
36.520271
21
3.073885
31
0
39
0
210
0
220
0
230
1
0
LINE
5
5E
100
AcDbEntity
8
SK1
62
256
6
ByLayer
370
-1
48
1
60
0
100
AcDbLine
10
-85.7875
20
4.50625
30
0
11
-86.3
21
3.99375
31
0
39
0
210
0
220
0
230
1
0
LINE
5
60
100
AcDbEntity
8
SK1
62
256
6
ByLayer
370
-1
48
1
60
0
100
AcDbLine
10
-86.3
20
-3.99375
30
0
11
-85.3
21
-4.99375
31
0
39
0
210
0
220
0
230
1
0
LINE
5
61
100
AcDbEntity
8
SK1
62
256
6
ByLayer
370
-1
48
1
60
0
100
AcDbLine
10
-85.3
20
-4.99375
30
0
11
0
21
-4.99375
31
0
39
0
210
0
220
0
230
1
0
LINE
5
62
100
AcDbEntity
8
1
62
256
6
ByLayer
370
-1
48
1
60
0
100
AcDbLine
10
0
20
4.50625
30
0
11
26.136659
21
4.50625
31
0
39
0
210
0
220
0
230
1
0
LINE
5
63
100
AcDbEntity
8
1
62
256
6
ByLayer
370
-1
48
1
60
0
100
AcDbLine
10
29.43782
20
4.91875
30
0
11
29.43782
21
4.91645
31
0
39
0
210
0
220
0
230
1
0
LINE
5
64
100
AcDbEntity
8
1
62
256
6
ByLayer
370
-1
48
1
60
0
100
AcDbLine
10
33.552087
20
3.897031
30
0
11
33.748271
21
3.780633
31
0
39
0
210
0
220
0
230
1
0
LINE
5
65
100
AcDbEntity
8
1
62
256
6
ByLayer
370
-1
48
1
60
0
100
AcDbLine
10
32.544434
20
-4.358307
30
0
11
39.369496
21
-3.48686
31
0
39
0
210
0
220
0
230
1
0
LINE
5
66
100
AcDbEntity
8
1
62
256
6
ByLayer
370
-1
48
1
60
0
100
AcDbLine
10
36.881487
20
6.04365
30
0
11
36.871812
21
5.48939
31
0
39
0
210
0
220
0
230
1
0
LINE
5
67
100
AcDbEntity
8
1
62
256
6
ByLayer
370
-1
48
1
60
0
100
AcDbLine
10
30.449084
20
-4.625848
30
0
11
29.739978
21
-4.716389
31
0
39
0
210
0
220
0
230
1
0
LINE
5
68
100
AcDbEntity
8
1
62
256
6
ByLayer
370
-1
48
1
60
0
100
AcDbLine
10
0
20
-4.99375
30
0
11
0
21
-2.165073
31
0
39
0
210
0
220
0
230
1
0
LINE
5
69
100
AcDbEntity
8
1
62
256
6
ByLayer
370
-1
48
1
60
0
100
AcDbLine
10
33.532848
20
3.662782
30
0
11
33.501143
21
3.681593
31
0
39
0
210
0
220
0
230
1
0
LINE
5
6A
100
AcDbEntity
8
1
62
256
6
ByLayer
370
-1
48
1
60
0
100
AcDbLine
10
39.369496
20
-3.48686
30
0
11
39.369496
21
-2.07489
31
0
39
0
210
0
220
0
230
1
0
LINE
5
6B
100
AcDbEntity
8
1
62
256
6
ByLayer
370
-1
48
1
60
0
100
AcDbLine
10
33.500506
20
3.645088
30
0
11
33.501143
21
3.681593
31
0
39
0
210
0
220
0
230
1
0
LINE
5
6C
100
AcDbEntity
8
1
62
256
6
ByLayer
370
-1
48
1
60
0
100
AcDbLine
10
32.080515
20
3.254227
30
0
11
32.076895
21
3.04685
31
0
39
0
210
0
220
0
230
1
0
LINE
5
6D
100
AcDbEntity
8
1
62
256
6
ByLayer
370
-1
48
1
60
0
100
AcDbLine
10
33.552087
20
3.897031
30
0
11
33.501143
21
3.681593
31
0
39
0
210
0
220
0
230
1
0
LINE
5
6E
100
AcDbEntity
8
1
62
256
6
ByLayer
370
-1
48
1
60
0
100
AcDbLine
10
0
20
4.50625
30
0
11
0
21
2.165073
31
0
39
0
210
0
220
0
230
1
0
LINE
5
6F
100
AcDbEntity
8
1
62
256
6
ByLayer
370
-1
48
1
60
0
100
AcDbLine
10
27.880224
20
4.50625
30
0
11
28.27399
21
4.900017
31
0
39
0
210
0
220
0
230
1
0
LINE
5
70
100
AcDbEntity
8
1
62
256
6
ByLayer
370
-1
48
1
60
0
100
AcDbLine
10
27.567724
20
-2.70092
30
0
11
27.567724
21
-4.99375
31
0
39
0
210
0
220
0
230
1
0
LINE
5
71
100
AcDbEntity
8
1
62
256
6
ByLayer
370
-1
48
1
60
0
100
AcDbLine
10
0
20
-2.165073
30
0
11
0
21
2.165073
31
0
39
0
210
0
220
0
230
1
0
LINE
5
72
100
AcDbEntity
8
1
62
256
6
ByLayer
370
-1
48
1
60
0
100
AcDbLine
10
29.947052
20
5.212311
30
0
11
32.544434
21
-4.358307
31
0
39
0
210
0
220
0
230
1
0
LINE
5
73
100
AcDbEntity
8
1
62
256
6
ByLayer
370
-1
48
1
60
0
100
AcDbLine
10
36.776536
20
5.43727
30
0
11
36.788261
21
6.10899
31
0
39
0
210
0
220
0
230
1
0
LINE
5
74
100
AcDbEntity
8
1
62
256
6
ByLayer
370
-1
48
1
60
0
100
AcDbLine
10
26.136659
20
4.50625
30
0
11
27.880224
21
4.50625
31
0
39
0
210
0
220
0
230
1
0
LINE
5
75
100
AcDbEntity
8
1
62
256
6
ByLayer
370
-1
48
1
60
0
100
AcDbLine
10
25.904753
20
2.165073
30
0
11
0
21
2.165073
31
0
39
0
210
0
220
0
230
1
0
LINE
5
76
100
AcDbEntity
8
1
62
256
6
ByLayer
370
-1
48
1
60
0
100
AcDbLine
10
28.27399
20
4.900017
30
0
11
28.292724
21
4.91875
31
0
39
0
210
0
220
0
230
1
0
LINE
5
77
100
AcDbEntity
8
1
62
256
6
ByLayer
370
-1
48
1
60
0
100
AcDbLine
10
30.449084
20
-4.625848
30
0
11
32.544434
21
-4.358307
31
0
39
0
210
0
220
0
230
1
0
LINE
5
78
100
AcDbEntity
8
1
62
256
6
ByLayer
370
-1
48
1
60
0
100
AcDbLine
10
27.642724
20
-4.91875
30
0
11
27.642724
21
-2.750696
31
0
39
0
210
0
220
0
230
1
0
LINE
5
79
100
AcDbEntity
8
1
62
256
6
ByLayer
370
-1
48
1
60
0
100
AcDbLine
10
0
20
-2.165073
30
0
11
27.267501
21
-2.165073
31
0
39
0
210
0
220
0
230
1
0
LINE
5
7A
100
AcDbEntity
8
1
62
256
6
ByLayer
370
-1
48
1
60
0
100
AcDbLine
10
29.43782
20
-4.177308
30
0
11
29.43782
21
-4.75497
31
0
39
0
210
0
220
0
230
1
0
LINE
5
7B
100
AcDbEntity
8
1
62
256
6
ByLayer
370
-1
48
1
60
0
100
AcDbLine
10
28.155114
20
-4.91875
30
0
11
29.43782
21
-4.75497
31
0
39
0
210
0
220
0
230
1
0
LINE
5
7C
100
AcDbEntity
8
SK1
62
256
6
ByLayer
370
-1
48
1
60
0
100
AcDbLine
10
-85.3
20
4.50625
30
0
11
0
21
4.50625
31
0
39
0
210
0
220
0
230
1
0
LINE
5
7D
100
AcDbEntity
8
1
62
256
6
ByLayer
370
-1
48
1
60
0
100
AcDbLine
10
32.333178
20
2.055303
30
0
11
32.340562
21
2.050627
31
0
39
0
210
0
220
0
230
1
0
LINE
5
7E
100
AcDbEntity
8
1
62
256
6
ByLayer
370
-1
48
1
60
0
100
AcDbLine
10
32.251147
20
2.110964
30
0
11
32.340562
21
2.050627
31
0
39
0
210
0
220
0
230
1
0
LINE
5
7F
100
AcDbEntity
8
1
62
256
6
ByLayer
370
-1
48
1
60
0
100
AcDbLine
10
36.44463
20
2.83517
30
0
11
36.442307
21
2.702081
31
0
39
0
210
0
220
0
230
1
0
LINE
5
80
100
AcDbEntity
8
1
62
256
6
ByLayer
370
-1
48
1
60
0
100
AcDbLine
10
36.471361
20
2.749827
30
0
11
36.473684
21
2.882916
31
0
39
0
210
0
220
0
230
1
0
LINE
5
81
100
AcDbEntity
8
1
62
256
6
ByLayer
370
-1
48
1
60
0
100
AcDbLine
10
37.690363
20
1.726587
30
0
11
37.691692
21
1.802715
31
0
39
0
210
0
220
0
230
1
0
LINE
5
82
100
AcDbEntity
8
1
62
256
6
ByLayer
370
-1
48
1
60
0
100
AcDbLine
10
38.000247
20
2.50668
30
0
11
38.002842
21
2.655361
31
0
39
0
210
0
220
0
230
1
0
LINE
5
83
100
AcDbEntity
8
1
62
256
6
ByLayer
370
-1
48
1
60
0
100
AcDbLine
10
37.408161
20
3.197711
30
0
11
37.410756
21
3.346392
31
0
39
0
210
0
220
0
230
1
0
LINE
5
84
100
AcDbEntity
8
1
62
256
6
ByLayer
370
-1
48
1
60
0
100
AcDbLine
10
36.817755
20
3.208267
30
0
11
36.820351
21
3.356948
31
0
39
0
210
0
220
0
230
1
0
LINE
5
85
100
AcDbEntity
8
1
62
256
6
ByLayer
370
-1
48
1
60
0
100
AcDbLine
10
36.201454
20
2.536724
30
0
11
36.204048
21
2.685352
31
0
39
0
210
0
220
0
230
1
0
LINE
5
86
100
AcDbEntity
8
1
62
256
6
ByLayer
370
-1
48
1
60
0
100
AcDbLine
10
36.48297
20
1.752705
30
0
11
36.48421
21
1.823742
31
0
39
0
210
0
220
0
230
1
0
LINE
5
87
100
AcDbEntity
8
1
62
256
6
ByLayer
370
-1
48
1
60
0
100
AcDbLine
10
32.129582
20
2.222885
30
0
11
32.251147
21
2.110964
31
0
39
0
210
0
220
0
230
1
0
LINE
5
88
100
AcDbEntity
8
1
62
256
6
ByLayer
370
-1
48
1
60
0
100
AcDbLine
10
32.340562
20
2.050627
30
0
11
32.65894
21
1.861729
31
0
39
0
210
0
220
0
230
1
0
LINE
5
89
100
AcDbEntity
8
1
62
256
6
ByLayer
370
-1
48
1
60
0
100
AcDbLine
10
39.360452
20
6.850816
30
0
11
32.141429
21
2.901598
31
0
39
0
210
0
220
0
230
1
0
LINE
5
8A
100
AcDbEntity
8
1
62
256
6
ByLayer
370
-1
48
1
60
0
100
AcDbLine
10
39.807714
20
-1.646905
30
0
11
39.949937
21
6.501067
31
0
39
0
210
0
220
0
230
1
0
LINE
5
8B
100
AcDbEntity
8
1
62
256
6
ByLayer
370
-1
48
1
60
0
100
AcDbLine
10
32.129582
20
2.222885
30
0
11
39.206381
21
-1.975868
31
0
39
0
210
0
220
0
230
1
0
LINE
5
8C
100
AcDbEntity
8
SK1
62
256
6
ByLayer
370
-1
48
1
60
0
100
AcDbLine
10
-85.3
20
2.165073
30
0
11
-85.3
21
4.50625
31
0
39
0
210
0
220
0
230
1
0
LINE
5
8D
100
AcDbEntity
8
SK1
62
256
6
ByLayer
370
-1
48
1
60
0
100
AcDbLine
10
0
20
-2.165073
30
0
11
0
21
2.165073
31
0
39
0
210
0
220
0
230
1
0
LINE
5
8E
100
AcDbEntity
8
SK1
62
256
6
ByLayer
370
-1
48
1
60
0
100
AcDbLine
10
-85.3
20
-2.165073
30
0
11
0
21
-2.165073
31
0
39
0
210
0
220
0
230
1
0
LINE
5
8F
100
AcDbEntity
8
SK1
62
256
6
ByLayer
370
-1
48
1
60
0
100
AcDbLine
10
0
20
2.165073
30
0
11
-85.3
21
2.165073
31
0
39
0
210
0
220
0
230
1
0
LINE
5
90
100
AcDbEntity
8
SK1
62
256
6
ByLayer
370
-1
48
1
60
0
100
AcDbLine
10
0
20
-4.99375
30
0
11
0
21
-2.165073
31
0
39
0
210
0
220
0
230
1
0
LINE
5
91
100
AcDbEntity
8
SK1
62
256
6
ByLayer
370
-1
48
1
60
0
100
AcDbLine
10
0
20
4.50625
30
0
11
0
21
2.165073
31
0
39
0
210
0
220
0
230
1
0
LINE
5
92
100
AcDbEntity
8
SK1
62
256
6
ByLayer
370
-1
48
1
60
0
100
AcDbLine
10
-85.3
20
-4.99375
30
0
11
-85.3
21
-2.165073
31
0
39
0
210
0
220
0
230
1
0
LINE
5
93
100
AcDbEntity
8
SK1
62
256
6
ByLayer
370
-1
48
1
60
0
100
AcDbLine
10
-86.3
20
-3.99375
30
0
11
-86.3
21
3.99375
31
0
39
0
210
0
220
0
230
1
0
LINE
5
94
100
AcDbEntity
8
2
62
256
6
ByLayer
370
-1
48
1
60
1
100
AcDbLine
10
39.95
20
0
30
0
11
39.951
21
0.001
31
0
39
0
210
0
220
0
230
1
0
MTEXT
5
EF
100
AcDbEntity
8
SK6
62
256
6
ByLayer
370
-1
48
1
60
0
100
AcDbMText
10
-19.8
20
-17.217029
30
0
210
0
220
0
230
1
1
\W00.772;\fsimplex.shx,bigfont.shx;A10K-STFCR 09 
40
3.5
41
0
44
1.084337
50
0
71
7
72
5
7
DEFAULT
0
DIMENSION
5
122
100
AcDbEntity
8
2
62
256
6
ByLayer
370
-3
48
1
60
0
100
AcDbDimension
2
DimnDraft3D1
10
52.2
20
0
30
0
11
52.2
21
17.155
31
0
70
32
71
5
72
1
41
1
210
0
220
0
230
1
3
Standard
100
AcDbAlignedDimension
13
41.95
23
6.9
33
0
14
41.95
24
0
34
0
50
90
100
AcDbRotatedDimension
1001
ACAD
1000
DSTYLE
1002
{
1070
    74
1070
     0
1070
   279
1070
     0
1070
   172
1070
     1
1070
   173
1070
     1
1070
   340
1005
F0
1070
    77
1070
     1
1070
    73
1070
     0
1070
   171
1070
     4
1070
   274
1070
     4
1070
   177
1070
     2
1070
   176
1070
     2
1070
   178
1070
     7
1070
    78
1070
     8
1070
    41
1041
3.175
1070
   147
1041
2.25
1070
    42
1041
2.0
1070
    44
1041
2.0
1070
   140
1041
4.5
1070
   343
1005
123
1070
   344
1005
123
1002
}
0
DIMENSION
5
138
100
AcDbEntity
8
SK2
62
256
6
ByLayer
370
-3
48
1
60
0
100
AcDbDimension
2
DimnDraft3D2
10
-96.05
20
4.99375
30
0
11
-96.05
21
15.24875
31
0
70
32
71
5
72
1
41
1
210
0
220
0
230
1
3
Standard
100
AcDbAlignedDimension
13
-88.3
23
-4.99375
33
0
14
-88.3
24
4.99375
34
0
50
90
100
AcDbRotatedDimension
1001
ACAD
1000
DSTYLE
1002
{
1070
    74
1070
     0
1070
   279
1070
     0
1070
   172
1070
     1
1070
   173
1070
     1
1070
   340
1005
F0
1070
    77
1070
     1
1070
    73
1070
     0
1070
   171
1070
     4
1070
   274
1070
     4
1070
   177
1070
     2
1070
   176
1070
     2
1070
   178
1070
     7
1070
    78
1070
     8
1070
    41
1041
3.175
1070
   147
1041
2.25
1070
    42
1041
2.0
1070
    44
1041
2.0
1070
   140
1041
4.5
1070
   343
1005
123
1070
   344
1005
123
1002
}
0
DIMENSION
5
146
100
AcDbEntity
8
SK2
62
256
6
ByLayer
370
-3
48
1
60
0
100
AcDbDimension
2
DimnDraft3D3
10
-86.3
20
19.65
30
0
11
-29.427632
21
19.65
31
0
70
32
71
5
72
1
41
1
210
0
220
0
230
1
3
Standard
100
AcDbAlignedDimension
13
39.95
23
8.9
33
0
14
-86.3
24
6.99375
34
0
50
0
100
AcDbRotatedDimension
1001
ACAD
1000
DSTYLE
1002
{
1070
   279
1070
     0
1070
   172
1070
     1
1070
   173
1070
     1
1070
   340
1005
F0
1070
    77
1070
     1
1070
    73
1070
     0
1070
   171
1070
     4
1070
   274
1070
     4
1070
   177
1070
     2
1070
   176
1070
     2
1070
   178
1070
     7
1070
    78
1070
     8
1070
    41
1041
3.175
1070
   147
1041
2.25
1070
    42
1041
2.0
1070
    44
1041
2.0
1070
   140
1041
4.5
1070
   343
1005
123
1070
   344
1005
123
1002
}
0
DIMENSION
5
154
100
AcDbEntity
8
2
62
256
6
ByLayer
370
-3
48
1
60
0
100
AcDbDimension
2
DimnDraft3D4
10
88.755967
20
0
30
0
11
67.000715
21
-35.936736
31
0
70
34
71
5
72
1
41
1
210
0
220
0
230
1
3
Standard
100
AcDb2LineAngularDimension
13
39.758024
23
-4.098325
33
0
14
38.975677
24
-48.918955
34
0
15
41.95
25
0
35
0
16
69.566622
26
-30.260654
36
0
40
0
0
ENDSEC
0
SECTION
2
OBJECTS
0
DICTIONARY
5
185
330
0
100
AcDbDictionary
280
0
281
1
3
ACAD_GROUP
350
186
3
ACAD_MLINESTYLE
350
187
0
DICTIONARY
5
186
330
0
100
AcDbDictionary
280
0
281
1
0
DICTIONARY
5
187
330
0
100
AcDbDictionary
280
0
281
1
3
Standard
350
18
0
MLINESTYLE
5
18
330
187
100
AcDbMlineStyle
2
Standard
70
0
3

62
256
51
90
52
90
71
2
49
-0.5
62
256
6
ByLayer
49
0.5
62
256
6
ByLayer
0
RASTERVARIABLES
5
173
330

100
AcDbRasterVariables
90
0
70
1
71
1
72
1
0
ENDSEC
0
EOF
