0
SECTION
2
HEADER
9
$ACADVER
1
AC1015
9
$DWGCODEPAGE
3
ANSI_1252
9
$HANDSEED
5
180
9
$ANGBASE
50
0
9
$ANGDIR
70
0
9
$ATTMODE
70
1
9
$AUNITS
70
0
9
$AUPREC
70
0
9
$CECOLOR
62
256
9
$CELTSCALE
40
1
9
$CELTYPE
6
ByLayer
9
$CELWEIGHT
370
-1
9
$CLAYER
8
0
9
$CMLJUST
70
0
9
$CMLSCALE
40
1
9
$CMLSTYLE
2
Standard
9
$DIMSTYLE
2
Standard
9
$TEXTSIZE
40
0.2
9
$TEXTSTYLE
7
Standard
9
$LUNITS
70
2
9
$LUPREC
70
4
9
$EXTNAMES
290
1
9
$INSUNITS
70
4
9
$LTSCALE
40
1
9
$LWDISPLAY
290
0
9
$PDMODE
70
0
9
$PDSIZE
40
0
9
$PLINEGEN
70
0
0
ENDSEC
0
SECTION
2
CLASSES
0
CLASS
1
RASTERVARIABLES
2
AcDbRasterVariables
3
ISM
90
0
280
0
281
0
0
ENDSEC
0
SECTION
2
TABLES
0
TABLE
2
VPORT
5
176
100
AcDbSymbolTable
0
VPORT
5
1
100
AcDbSymbolTableRecord
100
AcDbViewportTableRecord
2
*Active
70
0
10
0
20
0
11
1
21
1
12
-1
22
1
13
0
23
0
14
0.5
24
0.5
15
10
25
10
16
0
26
0
36
1
17
0
27
0
37
0
0
ENDTAB
0
TABLE
2
LTYPE
5
177
100
AcDbSymbolTable
0
LTYPE
5
14
100
AcDbSymbolTableRecord
100
AcDbLinetypeTableRecord
70
0
2
ByBlock
3

72
65
73
0
40
0
0
LTYPE
5
15
100
AcDbSymbolTableRecord
100
AcDbLinetypeTableRecord
70
0
2
ByLayer
3

72
65
73
0
40
0
0
LTYPE
5
16
100
AcDbSymbolTableRecord
100
AcDbLinetypeTableRecord
70
0
2
CONTINUOUS
3
Solid line
72
65
73
0
40
0
0
LTYPE
5
3B
100
AcDbSymbolTableRecord
100
AcDbLinetypeTableRecord
70
0
2
DASHED
3
__ __ __ __ __ __ __ __ __
72
65
73
2
40
25.72
49
12.86
74
0
49
-12.86
74
0
0
LTYPE
5
3C
100
AcDbSymbolTableRecord
100
AcDbLinetypeTableRecord
70
0
2
HIDDEN
3
_ _ _ _ _ _ _ _ _ _ _ _ _ _ _
72
65
73
2
40
0.5
49
0.25
74
0
49
-0.25
74
0
0
LTYPE
5
3D
100
AcDbSymbolTableRecord
100
AcDbLinetypeTableRecord
70
0
2
PHANTOM
3
____ _ _ ____ _ _ _____ _ _ ____
72
65
73
6
40
50.5
49
18
74
0
49
-6.5
74
0
49
6.5
74
0
49
-6.5
74
0
49
6.5
74
0
49
-6.5
74
0
0
LTYPE
5
3E
100
AcDbSymbolTableRecord
100
AcDbLinetypeTableRecord
70
0
2
CENTER
3
____ _ ____ _ ____ _ ____
72
65
73
4
40
47.5
49
22
74
0
49
-8.5
74
0
49
8.5
74
0
49
-8.5
74
0
0
LTYPE
5
3F
100
AcDbSymbolTableRecord
100
AcDbLinetypeTableRecord
70
0
2
DOT
3
.........................
72
65
73
2
40
10
49
0
74
0
49
-10
74
0
0
LTYPE
5
40
100
AcDbSymbolTableRecord
100
AcDbLinetypeTableRecord
70
0
2
DASHDOT
3
_._._._._._._._._._._._._._._._.
72
65
73
4
40
70
49
31
74
0
49
-13
74
0
49
13
74
0
49
-13
74
0
0
ENDTAB
0
TABLE
2
LAYER
5
178
100
AcDbSymbolTable
0
LAYER
5
10
100
AcDbSymbolTableRecord
100
AcDbLayerTableRecord
2
0
70
0
62
7
6
CONTINUOUS
290
1
370
-3
390
0
0
LAYER
5
42
100
AcDbSymbolTableRecord
100
AcDbLayerTableRecord
2
80
70
0
62
-6
6
CONTINUOUS
290
1
370
-3
390
0
0
LAYER
5
44
100
AcDbSymbolTableRecord
100
AcDbLayerTableRecord
2
81
70
0
62
-3
6
CONTINUOUS
290
1
370
-3
390
0
0
LAYER
5
46
100
AcDbSymbolTableRecord
100
AcDbLayerTableRecord
2
1
70
0
62
4
6
CONTINUOUS
290
1
370
-3
390
0
0
LAYER
5
48
100
AcDbSymbolTableRecord
100
AcDbLayerTableRecord
2
2
70
0
62
7
6
CONTINUOUS
290
1
370
-3
390
0
0
LAYER
5
52
100
AcDbSymbolTableRecord
100
AcDbLayerTableRecord
2
4
70
0
62
-2
6
CENTER
290
1
370
-3
390
0
0
LAYER
5
162
100
AcDbSymbolTableRecord
100
AcDbLayerTableRecord
2
SK4
70
0
62
2
6
CENTER
290
1
370
-3
390
0
0
LAYER
5
163
100
AcDbSymbolTableRecord
100
AcDbLayerTableRecord
2
SK1
70
0
62
4
6
CONTINUOUS
290
1
370
-3
390
0
0
LAYER
5
164
100
AcDbSymbolTableRecord
100
AcDbLayerTableRecord
2
SK6
70
0
62
5
6
CONTINUOUS
290
1
370
-3
390
0
0
LAYER
5
165
100
AcDbSymbolTableRecord
100
AcDbLayerTableRecord
2
SK2
70
0
62
7
6
CONTINUOUS
290
1
370
-3
390
0
0
ENDTAB
0
TABLE
2
STYLE
5
179
100
AcDbSymbolTable
0
STYLE
5
11
100
AcDbSymbolTableRecord
100
AcDbTextStyleTableRecord
2
Standard
3
txt
70
0
71
0
40
0
41
1
42
0
50
0
0
STYLE
5
DE
100
AcDbSymbolTableRecord
100
AcDbTextStyleTableRecord
2
DEFAULT
3
simplex.shx
70
0
71
0
40
0
41
1
42
0
50
0
0
STYLE
5
101
100
AcDbSymbolTableRecord
100
AcDbTextStyleTableRecord
2
DWGDirectTextStyle
3
SIMPLEX
70
0
71
0
40
0
41
1
42
0
50
0
0
ENDTAB
0
TABLE
2
DIMSTYLE
5
17a
100
AcDbSymbolTable
100
AcDbDimStyleTable
0
DIMSTYLE
105
27
100
AcDbSymbolTableRecord
100
AcDbDimStyleTableRecord
2
Standard
70
0
3
<>
41
0.18
42
0.0625
44
0.18
140
0.18
147
0.09
73
0
74
0
77
1
271
2
275
0
278
52
280
0
340
11
0
ENDTAB
0
TABLE
2
VIEW
5
17b
100
AcDbSymbolTable
0
ENDTAB
0
TABLE
2
UCS
5
17c
100
AcDbSymbolTable
0
ENDTAB
0
TABLE
2
APPID
5
17d
100
AcDbSymbolTable
0
APPID
5
12
100
AcDbSymbolTableRecord
100
AcDbRegAppTableRecord
2
ACAD
70
0
0
ENDTAB
0
TABLE
2
BLOCK_RECORD
5
17e
100
AcDbSymbolTable
0
BLOCK_RECORD
5
1F
100
AcDbSymbolTableRecord
100
AcDbBlockTableRecord
2
*Model_Space
340
0
70
0
0
BLOCK_RECORD
5
1B
100
AcDbSymbolTableRecord
100
AcDbBlockTableRecord
2
*Paper_Space
340
0
70
0
0
BLOCK_RECORD
5
23
100
AcDbSymbolTableRecord
100
AcDbBlockTableRecord
2
*Paper_Space0
340
0
70
0
0
BLOCK_RECORD
5
103
100
AcDbSymbolTableRecord
100
AcDbBlockTableRecord
2
DimnDraft3D1
340
0
70
0
0
BLOCK_RECORD
5
111
100
AcDbSymbolTableRecord
100
AcDbBlockTableRecord
2
_CLOSED
340
0
70
0
0
BLOCK_RECORD
5
118
100
AcDbSymbolTableRecord
100
AcDbBlockTableRecord
2
DimnDraft3D2
340
0
70
0
0
BLOCK_RECORD
5
127
100
AcDbSymbolTableRecord
100
AcDbBlockTableRecord
2
DimnDraft3D3
340
0
70
0
0
BLOCK_RECORD
5
135
100
AcDbSymbolTableRecord
100
AcDbBlockTableRecord
2
DimnDraft3D4
340
0
70
0
0
ENDTAB
0
ENDSEC
0
SECTION
2
BLOCKS
0
BLOCK
5
20
100
AcDbEntity
8
0
100
AcDbBlockBegin
2
*Model_Space
70
0
10
0
20
0
30
0
3
*Model_Space
0
ENDBLK
5
21
100
AcDbEntity
8
0
100
AcDbBlockEnd
0
BLOCK
5
1C
100
AcDbEntity
8
0
100
AcDbBlockBegin
2
*Paper_Space
70
0
10
0
20
0
30
0
3
*Paper_Space
0
ENDBLK
5
1D
100
AcDbEntity
8
0
100
AcDbBlockEnd
0
BLOCK
5
24
100
AcDbEntity
8
0
100
AcDbBlockBegin
2
*Paper_Space0
70
0
10
0
20
0
30
0
3
*Paper_Space0
0
ENDBLK
5
25
100
AcDbEntity
8
0
100
AcDbBlockEnd
0
BLOCK
5
10E
100
AcDbEntity
8
0
100
AcDbBlockBegin
2
DimnDraft3D1
70
0
10
0
20
0
30
0
3
DimnDraft3D1
0
MTEXT
5
104
100
AcDbEntity
8
2
62
256
6
ByLayer
370
-1
48
1
60
0
100
AcDbMText
10
51.075
20
20.28
30
0
210
0
220
0
230
1
1
\W01.000;\fsimplex.shx,bigfont.shx;9.0 
40
4.5
41
0
44
1.084337
50
90
71
7
72
5
7
DEFAULT
0
LINE
5
105
100
AcDbEntity
8
2
62
256
6
ByLayer
370
-1
48
1
60
0
100
AcDbLine
10
41.95
20
8.9
30
0
11
54.2
21
8.9
31
0
39
0
210
0
220
0
230
1
0
LINE
5
106
100
AcDbEntity
8
2
62
256
6
ByLayer
370
-1
48
1
60
0
100
AcDbLine
10
41.95
20
0
30
0
11
54.2
21
0
31
0
39
0
210
0
220
0
230
1
0
LINE
5
107
100
AcDbEntity
8
2
62
256
6
ByLayer
370
-1
48
1
60
0
100
AcDbLine
10
52.2
20
0
30
0
11
52.2
21
26.177368
31
0
39
0
210
0
220
0
230
1
0
LINE
5
108
100
AcDbEntity
8
2
62
256
6
ByLayer
370
-1
48
1
60
0
100
AcDbLine
10
52.2
20
8.9
30
0
11
52.617997
21
5.725002
31
0
39
0
210
0
220
0
230
1
0
LINE
5
109
100
AcDbEntity
8
2
62
256
6
ByLayer
370
-1
48
1
60
0
100
AcDbLine
10
52.2
20
8.9
30
0
11
51.782003
21
5.724998
31
0
39
0
210
0
220
0
230
1
0
LINE
5
10A
100
AcDbEntity
8
2
62
256
6
ByLayer
370
-1
48
1
60
0
100
AcDbLine
10
52.617997
20
5.725002
30
0
11
51.782003
21
5.724998
31
0
39
0
210
0
220
0
230
1
0
LINE
5
10B
100
AcDbEntity
8
2
62
256
6
ByLayer
370
-1
48
1
60
0
100
AcDbLine
10
52.2
20
0
30
0
11
51.782003
21
3.174998
31
0
39
0
210
0
220
0
230
1
0
LINE
5
10C
100
AcDbEntity
8
2
62
256
6
ByLayer
370
-1
48
1
60
0
100
AcDbLine
10
52.2
20
0
30
0
11
52.617997
21
3.175002
31
0
39
0
210
0
220
0
230
1
0
LINE
5
10D
100
AcDbEntity
8
2
62
256
6
ByLayer
370
-1
48
1
60
0
100
AcDbLine
10
51.782003
20
3.174998
30
0
11
52.617997
21
3.175002
31
0
39
0
210
0
220
0
230
1
0
ENDBLK
5
10F
100
AcDbEntity
8
0
100
AcDbBlockEnd
0
BLOCK
5
112
100
AcDbEntity
8
0
100
AcDbBlockBegin
2
_CLOSED
70
0
10
0
20
0
30
0
3
_CLOSED
0
LINE
5
114
100
AcDbEntity
8
0
62
256
6
ByLayer
370
-2
48
1
60
0
100
AcDbLine
10
-1
20
0.166667
30
0
11
0
21
0
31
0
39
0
210
0
220
0
230
1
0
LINE
5
115
100
AcDbEntity
8
0
62
256
6
ByLayer
370
-2
48
1
60
0
100
AcDbLine
10
0
20
0
30
0
11
-1
21
-0.166667
31
0
39
0
210
0
220
0
230
1
0
LINE
5
116
100
AcDbEntity
8
0
62
256
6
ByLayer
370
-2
48
1
60
0
100
AcDbLine
10
-1
20
0.166667
30
0
11
-1
21
-0.166667
31
0
39
0
210
0
220
0
230
1
0
LINE
5
117
100
AcDbEntity
8
0
62
256
6
ByLayer
370
-2
48
1
60
0
100
AcDbLine
10
0
20
0
30
0
11
-1
21
0
31
0
39
0
210
0
220
0
230
1
0
ENDBLK
5
113
100
AcDbEntity
8
0
100
AcDbBlockEnd
0
BLOCK
5
124
100
AcDbEntity
8
0
100
AcDbBlockBegin
2
DimnDraft3D2
70
0
10
0
20
0
30
0
3
DimnDraft3D2
0
MTEXT
5
119
100
AcDbEntity
8
SK2
62
256
6
ByLayer
370
-1
48
1
60
0
100
AcDbMText
10
-97.175
20
16.37375
30
0
210
0
220
0
230
1
1
\W01.000;\fsimplex.shx,bigfont.shx;%%c10 
40
4.5
41
0
44
1.084337
50
90
71
7
72
5
7
DEFAULT
0
LINE
5
11B
100
AcDbEntity
8
SK2
62
256
6
ByLayer
370
-1
48
1
60
0
100
AcDbLine
10
-88.3
20
-4.99375
30
0
11
-98.05
21
-4.99375
31
0
39
0
210
0
220
0
230
1
0
LINE
5
11C
100
AcDbEntity
8
SK2
62
256
6
ByLayer
370
-1
48
1
60
0
100
AcDbLine
10
-88.3
20
4.99375
30
0
11
-98.05
21
4.99375
31
0
39
0
210
0
220
0
230
1
0
LINE
5
11D
100
AcDbEntity
8
SK2
62
256
6
ByLayer
370
-1
48
1
60
0
100
AcDbLine
10
-96.05
20
-4.99375
30
0
11
-96.05
21
23.692171
31
0
39
0
210
0
220
0
230
1
0
LINE
5
11E
100
AcDbEntity
8
SK2
62
256
6
ByLayer
370
-1
48
1
60
0
100
AcDbLine
10
-96.05
20
-4.99375
30
0
11
-96.467997
21
-1.818752
31
0
39
0
210
0
220
0
230
1
0
LINE
5
11F
100
AcDbEntity
8
SK2
62
256
6
ByLayer
370
-1
48
1
60
0
100
AcDbLine
10
-96.05
20
-4.99375
30
0
11
-95.632003
21
-1.818748
31
0
39
0
210
0
220
0
230
1
0
LINE
5
120
100
AcDbEntity
8
SK2
62
256
6
ByLayer
370
-1
48
1
60
0
100
AcDbLine
10
-96.467997
20
-1.818752
30
0
11
-95.632003
21
-1.818748
31
0
39
0
210
0
220
0
230
1
0
LINE
5
121
100
AcDbEntity
8
SK2
62
256
6
ByLayer
370
-1
48
1
60
0
100
AcDbLine
10
-96.05
20
4.99375
30
0
11
-95.632003
21
1.818752
31
0
39
0
210
0
220
0
230
1
0
LINE
5
122
100
AcDbEntity
8
SK2
62
256
6
ByLayer
370
-1
48
1
60
0
100
AcDbLine
10
-96.05
20
4.99375
30
0
11
-96.467997
21
1.818748
31
0
39
0
210
0
220
0
230
1
0
LINE
5
123
100
AcDbEntity
8
SK2
62
256
6
ByLayer
370
-1
48
1
60
0
100
AcDbLine
10
-95.632003
20
1.818752
30
0
11
-96.467997
21
1.818748
31
0
39
0
210
0
220
0
230
1
0
ENDBLK
5
125
100
AcDbEntity
8
0
100
AcDbBlockEnd
0
BLOCK
5
132
100
AcDbEntity
8
0
100
AcDbBlockBegin
2
DimnDraft3D3
70
0
10
0
20
0
30
0
3
DimnDraft3D3
0
MTEXT
5
128
100
AcDbEntity
8
SK2
62
256
6
ByLayer
370
-1
48
1
60
0
100
AcDbMText
10
-28.302632
20
22.775
30
0
210
0
220
0
230
1
1
\W01.000;\fsimplex.shx,bigfont.shx;125.0 
40
4.5
41
0
44
1.084337
50
0
71
7
72
5
7
DEFAULT
0
LINE
5
129
100
AcDbEntity
8
SK2
62
256
6
ByLayer
370
-1
48
1
60
0
100
AcDbLine
10
39.95
20
10.9
30
0
11
39.95
21
23.65
31
0
39
0
210
0
220
0
230
1
0
LINE
5
12A
100
AcDbEntity
8
SK2
62
256
6
ByLayer
370
-1
48
1
60
0
100
AcDbLine
10
-86.3
20
6.99375
30
0
11
-86.3
21
23.65
31
0
39
0
210
0
220
0
230
1
0
LINE
5
12B
100
AcDbEntity
8
SK2
62
256
6
ByLayer
370
-1
48
1
60
0
100
AcDbLine
10
39.95
20
21.65
30
0
11
-86.3
21
21.65
31
0
39
0
210
0
220
0
230
1
0
LINE
5
12C
100
AcDbEntity
8
SK2
62
256
6
ByLayer
370
-1
48
1
60
0
100
AcDbLine
10
39.95
20
21.65
30
0
11
36.775002
21
21.232003
31
0
39
0
210
0
220
0
230
1
0
LINE
5
12D
100
AcDbEntity
8
SK2
62
256
6
ByLayer
370
-1
48
1
60
0
100
AcDbLine
10
39.95
20
21.65
30
0
11
36.774998
21
22.067997
31
0
39
0
210
0
220
0
230
1
0
LINE
5
12E
100
AcDbEntity
8
SK2
62
256
6
ByLayer
370
-1
48
1
60
0
100
AcDbLine
10
36.775002
20
21.232003
30
0
11
36.774998
21
22.067997
31
0
39
0
210
0
220
0
230
1
0
LINE
5
12F
100
AcDbEntity
8
SK2
62
256
6
ByLayer
370
-1
48
1
60
0
100
AcDbLine
10
-86.3
20
21.65
30
0
11
-83.125002
21
22.067997
31
0
39
0
210
0
220
0
230
1
0
LINE
5
130
100
AcDbEntity
8
SK2
62
256
6
ByLayer
370
-1
48
1
60
0
100
AcDbLine
10
-86.3
20
21.65
30
0
11
-83.124998
21
21.232003
31
0
39
0
210
0
220
0
230
1
0
LINE
5
131
100
AcDbEntity
8
SK2
62
256
6
ByLayer
370
-1
48
1
60
0
100
AcDbLine
10
-83.125002
20
22.067997
30
0
11
-83.124998
21
21.232003
31
0
39
0
210
0
220
0
230
1
0
ENDBLK
5
133
100
AcDbEntity
8
0
100
AcDbBlockEnd
0
BLOCK
5
140
100
AcDbEntity
8
0
100
AcDbBlockBegin
2
DimnDraft3D4
70
0
10
0
20
0
30
0
3
DimnDraft3D4
0
MTEXT
5
136
100
AcDbEntity
8
2
62
256
6
ByLayer
370
-1
48
1
60
0
100
AcDbMText
10
67.205827
20
-36.834311
30
0
210
0
220
0
230
1
1
\W01.000;\fsimplex.shx,bigfont.shx;93%%d0' 
40
4.5
41
0
44
1.084337
50
43.5
71
7
72
5
7
DEFAULT
0
LINE
5
137
100
AcDbEntity
8
2
62
256
6
ByLayer
370
-1
48
1
60
0
100
AcDbLine
10
39.478976
20
-0.087666
30
0
11
36.92296
21
-48.859355
31
0
39
0
210
0
220
0
230
1
0
LINE
5
138
100
AcDbEntity
8
2
62
256
6
ByLayer
370
-1
48
1
60
0
100
AcDbLine
10
41.95
20
0
30
0
11
88.409978
21
0
31
0
39
0
210
0
220
0
230
1
0
ARC
5
139
100
AcDbEntity
8
2
62
256
6
ByLayer
370
-1
48
1
60
0
100
AcDbCircle
39
0
10
39.483571
20
0
30
0
40
46.9264068782928
210
0
220
0
230
1
100
AcDbArc
50
267
51
0
0
LINE
5
13A
100
AcDbEntity
8
2
62
256
6
ByLayer
370
-1
48
1
60
0
100
AcDbLine
10
37.027632
20
-46.862096
30
0
11
40.215451
21
-46.556897
31
0
39
0
210
0
220
0
230
1
0
LINE
5
13B
100
AcDbEntity
8
2
62
256
6
ByLayer
370
-1
48
1
60
0
100
AcDbLine
10
37.027632
20
-46.862096
30
0
11
40.185823
21
-47.392365
31
0
39
0
210
0
220
0
230
1
0
LINE
5
13C
100
AcDbEntity
8
2
62
256
6
ByLayer
370
-1
48
1
60
0
100
AcDbLine
10
40.215451
20
-46.556897
30
0
11
40.185823
21
-47.392365
31
0
39
0
210
0
220
0
230
1
0
LINE
5
13D
100
AcDbEntity
8
2
62
256
6
ByLayer
370
-1
48
1
60
0
100
AcDbLine
10
86.409978
20
0
30
0
11
86.774233
21
-3.181612
31
0
39
0
210
0
220
0
230
1
0
LINE
5
13E
100
AcDbEntity
8
2
62
256
6
ByLayer
370
-1
48
1
60
0
100
AcDbLine
10
86.409978
20
0
30
0
11
85.938359
21
-3.16748
31
0
39
0
210
0
220
0
230
1
0
LINE
5
13F
100
AcDbEntity
8
2
62
256
6
ByLayer
370
-1
48
1
60
0
100
AcDbLine
10
86.774233
20
-3.181612
30
0
11
85.938359
21
-3.16748
31
0
39
0
210
0
220
0
230
1
0
ENDBLK
5
141
100
AcDbEntity
8
0
100
AcDbBlockEnd
0
ENDSEC
0
SECTION
2
ENTITIES
0
ELLIPSE
5
91
100
AcDbEntity
8
1
62
256
6
ByLayer
370
-1
48
1
60
0
100
AcDbEllipse
10
33.380818
20
-1.846703
30
0
11
-0.436561765470939
21
-0.954941791382544
31
0
210
0
220
0
230
1
40
0.997185
41
1.75112770582092
42
2.1049838399005
0
ELLIPSE
5
92
100
AcDbEntity
8
1
62
256
6
ByLayer
370
-1
48
1
60
0
100
AcDbEllipse
10
33.495918
20
7.672159
30
0
11
2.16339326356547
21
-2.94365243988885
31
0
210
0
220
0
230
-1
40
0.675379
41
0.952937996881212
42
0.963475486591243
0
ELLIPSE
5
93
100
AcDbEntity
8
1
62
256
6
ByLayer
370
-1
48
1
60
0
100
AcDbEllipse
10
33.217432
20
-0.769226
30
0
11
1.25165619813111
21
-0.0563368134641622
31
0
210
0
220
0
230
-1
40
0.997286
41
2.32609638417499
42
-2.17430117616431
0
ELLIPSE
5
94
100
AcDbEntity
8
1
62
256
6
ByLayer
370
-1
48
1
60
0
100
AcDbEllipse
10
33.547888
20
-1.92308
30
0
11
0.43656176547098
21
0.954941791382527
31
0
210
0
220
0
230
1
40
0.997185
41
0.860339843001969
42
3.03893623032991
0
ELLIPSE
5
95
100
AcDbEntity
8
1
62
256
6
ByLayer
370
-1
48
1
60
0
100
AcDbEllipse
10
33.500722
20
7.764171
30
0
11
3.00000310613975
21
-0.000427960360827088
31
0
210
0
220
0
230
-1
40
0.999616
41
1.70532492081076
42
2.0079674179777
0
ELLIPSE
5
96
100
AcDbEntity
8
1
62
256
6
ByLayer
370
-1
48
1
60
0
100
AcDbEllipse
10
33.392968
20
-0.849474
30
0
11
-0.519716387465402
21
-1.1368354659316
31
0
210
0
220
0
230
1
40
0.997185
41
-2.15332989969544
42
-0.370542152855214
0
ELLIPSE
5
97
100
AcDbEntity
8
1
62
256
6
ByLayer
370
-1
48
1
60
0
100
AcDbEllipse
10
33.500091
20
7.752129
30
0
11
2.41545798167451
21
1.78321599839052
31
0
210
0
220
0
230
-1
40
0.998033
41
2.23555818107412
42
2.32992352932673
0
ELLIPSE
5
98
100
AcDbEntity
8
1
62
256
6
ByLayer
370
-1
48
1
60
0
100
AcDbEllipse
10
33.527431
20
-1.913728
30
0
11
0.436561765470979
21
0.954941791382526
31
0
210
0
220
0
230
1
40
0.997185
41
0.837840174938323
42
1.81430495607355
0
ELLIPSE
5
99
100
AcDbEntity
8
1
62
256
6
ByLayer
370
-1
48
1
60
0
100
AcDbEllipse
10
42.107399
20
2.699597
30
0
11
2.41545793724724
21
1.78321607307403
31
0
210
0
220
0
230
-1
40
0.998033
41
-3.0452052466052
42
-2.94529628659452
0
ELLIPSE
5
9A
100
AcDbEntity
8
1
62
256
6
ByLayer
370
-1
48
1
60
0
100
AcDbEllipse
10
33.352783
20
-1.833886
30
0
11
1.05139120643046
21
-0.0473229233026863
31
0
210
0
220
0
230
-1
40
0.997286
41
0.234239616366004
42
-3.00034337833677
0
ELLIPSE
5
9B
100
AcDbEntity
8
1
62
256
6
ByLayer
370
-1
48
1
60
0
100
AcDbEllipse
10
39.199193
20
1.732271
30
0
11
0.165009953020282
21
0.360945260433279
31
0
210
0
220
0
230
1
40
0.997185
41
-2.15332989969545
42
-1.19339881109851
0
ELLIPSE
5
9C
100
AcDbEntity
8
1
62
256
6
ByLayer
370
-1
48
1
60
0
100
AcDbEllipse
10
33.814822
20
4.898998
30
0
11
0.165009953020282
21
0.360945260433279
31
0
210
0
220
0
230
1
40
0.997185
41
0.988262753894368
42
1.94819384249122
0
ELLIPSE
5
9D
100
AcDbEntity
8
1
62
256
6
ByLayer
370
-1
48
1
60
0
100
AcDbEllipse
10
33.459967
20
-1.872049
30
0
11
0.165009953020284
21
0.360945260433283
31
0
210
0
220
0
230
1
40
0.997185
41
1.9481938424913
42
-2.15332989969542
0
ELLIPSE
5
9E
100
AcDbEntity
8
1
62
256
6
ByLayer
370
-1
48
1
60
0
100
AcDbEllipse
10
39.554049
20
8.503318
30
0
11
0.165009953020284
21
0.360945260433283
31
0
210
0
220
0
230
1
40
0.997185
41
-1.19339881109846
42
0.988262753894396
0
ELLIPSE
5
9F
100
AcDbEntity
8
1
62
256
6
ByLayer
370
-1
48
1
60
0
100
AcDbEllipse
10
36.507008
20
3.315635
30
0
11
-0.791918652489928
21
-1.73225480665307
31
0
210
0
220
0
230
1
40
0.997185
41
0
42
6.28318530717959
0
ELLIPSE
5
A0
100
AcDbEntity
8
1
62
256
6
ByLayer
370
-1
48
1
60
0
100
AcDbEllipse
10
36.560704
20
3.291087
30
0
11
-0.748979767396418
21
-1.63832964166082
31
0
210
0
220
0
230
1
40
0.997185
41
0
42
6.28318530717959
0
ELLIPSE
5
A1
100
AcDbEntity
8
1
62
256
6
ByLayer
370
-1
48
1
60
0
100
AcDbEllipse
10
36.543661
20
3.298878
30
0
11
0.782161388147048
21
1.71091161943965
31
0
210
0
220
0
230
1
40
0.997185
41
-0.619600503446775
42
-2.36730660120885E-16
0
ELLIPSE
5
A2
100
AcDbEntity
8
1
62
256
6
ByLayer
370
-1
48
1
60
0
100
AcDbEllipse
10
36.543661
20
3.298878
30
0
11
0.782161388147048
21
1.71091161943965
31
0
210
0
220
0
230
1
40
0.997185
41
0
42
-2.52203150456413
0
ELLIPSE
5
A3
100
AcDbEntity
8
1
62
256
6
ByLayer
370
-1
48
1
60
0
100
AcDbEllipse
10
36.507914
20
3.315221
30
0
11
0.430345957476889
21
0.941345239209978
31
0
210
0
220
0
230
1
40
0.997185
41
2.51542545804106
42
-1.66502144136115
0
ELLIPSE
5
A4
100
AcDbEntity
8
1
62
256
6
ByLayer
370
-1
48
1
60
0
100
AcDbEllipse
10
37.292832
20
2.853584
30
0
11
0.131364576406758
21
0.204630526148102
31
0
210
0
220
0
230
-1
40
0.498724
41
1.36379683121141
42
1.51577340724568
0
ELLIPSE
5
A5
100
AcDbEntity
8
1
62
256
6
ByLayer
370
-1
48
1
60
0
100
AcDbEllipse
10
36.507914
20
3.315221
30
0
11
0.430345957476889
21
0.941345239209978
31
0
210
0
220
0
230
1
40
0.997185
41
1.45988538415393
42
2.51542545804106
0
ELLIPSE
5
A6
100
AcDbEntity
8
1
62
256
6
ByLayer
370
-1
48
1
60
0
100
AcDbEllipse
10
36.507914
20
3.315221
30
0
11
0.430345957476889
21
0.941345239209978
31
0
210
0
220
0
230
1
40
0.997185
41
-1.62957847038538
42
-0.626166412852019
0
ELLIPSE
5
A7
100
AcDbEntity
8
1
62
256
6
ByLayer
370
-1
48
1
60
0
100
AcDbEllipse
10
36.507914
20
3.315221
30
0
11
0.430345957476889
21
0.941345239209978
31
0
210
0
220
0
230
1
40
0.997185
41
-0.626166412852019
42
1.42444241318416
0
ELLIPSE
5
A8
100
AcDbEntity
8
1
62
256
6
ByLayer
370
-1
48
1
60
0
100
AcDbEllipse
10
35.722996
20
3.776857
30
0
11
0.114675236382869
21
0.214441802315653
31
0
210
0
220
0
230
-1
40
0.498678
41
-1.51501353087121
42
-1.36303694220756
0
ELLIPSE
5
A9
100
AcDbEntity
8
1
62
256
6
ByLayer
370
-1
48
1
60
0
100
AcDbEllipse
10
36.582925
20
3.280928
30
0
11
-0.328959684610099
21
-0.719571376516062
31
0
210
0
220
0
230
1
40
0.997185
41
-1.14306835440821
42
0
0
ELLIPSE
5
AA
100
AcDbEntity
8
1
62
256
6
ByLayer
370
-1
48
1
60
0
100
AcDbEllipse
10
36.582925
20
3.280928
30
0
11
-0.328959684610099
21
-0.719571376516062
31
0
210
0
220
0
230
1
40
0.997185
41
0
42
0.714005300119408
0
ELLIPSE
5
AB
100
AcDbEntity
8
1
62
256
6
ByLayer
370
-1
48
1
60
0
100
AcDbEllipse
10
36.582925
20
3.280928
30
0
11
-0.328959684610099
21
-0.719571376516062
31
0
210
0
220
0
230
1
40
0.997185
41
1.09875224169051
42
1.8083596954057
0
ELLIPSE
5
AC
100
AcDbEntity
8
1
62
256
6
ByLayer
370
-1
48
1
60
0
100
AcDbEllipse
10
36.582925
20
3.280928
30
0
11
-0.328959684610099
21
-0.719571376516062
31
0
210
0
220
0
230
1
40
0.997185
41
2.22786059082043
42
-1.14306835440822
0
ELLIPSE
5
AD
100
AcDbEntity
8
1
62
256
6
ByLayer
370
-1
48
1
60
0
100
AcDbEllipse
10
36.512137
20
3.31329
30
0
11
0.385742100114009
21
0.843778088759394
31
0
210
0
220
0
230
1
40
0.997185
41
0.159120587864693
42
0.159342130529454
0
ELLIPSE
5
AE
100
AcDbEntity
8
1
62
256
6
ByLayer
370
-1
48
1
60
0
100
AcDbEllipse
10
36.512137
20
3.31329
30
0
11
0.385742100114009
21
0.843778088759394
31
0
210
0
220
0
230
1
40
0.997185
41
1.2063181390613
42
1.20836596609665
0
ELLIPSE
5
AF
100
AcDbEntity
8
1
62
256
6
ByLayer
370
-1
48
1
60
0
100
AcDbEllipse
10
36.512137
20
3.31329
30
0
11
0.385742100114009
21
0.843778088759394
31
0
210
0
220
0
230
1
40
0.997185
41
0.682719363463019
42
0.682940906127749
0
ELLIPSE
5
B0
100
AcDbEntity
8
1
62
256
6
ByLayer
370
-1
48
1
60
0
100
AcDbEllipse
10
36.512137
20
3.31329
30
0
11
0.385742100114009
21
0.843778088759394
31
0
210
0
220
0
230
1
40
0.997185
41
-2.9824720657251
42
-2.98225052306037
0
ELLIPSE
5
B1
100
AcDbEntity
8
1
62
256
6
ByLayer
370
-1
48
1
60
0
100
AcDbEllipse
10
36.512137
20
3.31329
30
0
11
0.385742100114009
21
0.843778088759394
31
0
210
0
220
0
230
1
40
0.997185
41
-1.4135020233008
42
-1.41145419626548
0
ELLIPSE
5
B2
100
AcDbEntity
8
1
62
256
6
ByLayer
370
-1
48
1
60
0
100
AcDbEllipse
10
36.512137
20
3.31329
30
0
11
0.385742100114009
21
0.843778088759394
31
0
210
0
220
0
230
1
40
0.997185
41
-2.45887329012679
42
-2.45865174746207
0
ELLIPSE
5
B3
100
AcDbEntity
8
1
62
256
6
ByLayer
370
-1
48
1
60
0
100
AcDbEllipse
10
36.574882
20
2.368243
30
0
11
0.242026996324907
21
-0.00146969215456278
31
0
210
0
220
0
230
-1
40
0.482204
41
2.32147156998698
42
-2.99445541988389
0
ELLIPSE
5
B4
100
AcDbEntity
8
1
62
256
6
ByLayer
370
-1
48
1
60
0
100
AcDbEllipse
10
36.120465
20
2.493576
30
0
11
0.208510719854654
21
-0.122681023304665
31
0
210
0
220
0
230
-1
40
0.482632
41
-1.78180894978154
42
-0.14617723567911
0
ELLIPSE
5
B5
100
AcDbEntity
8
1
62
256
6
ByLayer
370
-1
48
1
60
0
100
AcDbEllipse
10
35.789964
20
2.829879
30
0
11
0.118971325657046
21
-0.210911083319666
31
0
210
0
220
0
230
-1
40
0.502914
41
0.605425714859593
42
-3.02686754136155
0
ELLIPSE
5
B6
100
AcDbEntity
8
1
62
256
6
ByLayer
370
-1
48
1
60
0
100
AcDbEllipse
10
35.671936
20
3.287041
30
0
11
0.00228985842845855
21
0.242475411701154
31
0
210
0
220
0
230
-1
40
0.480397
41
0.0659194113188953
42
3.01892218952316
0
ELLIPSE
5
B7
100
AcDbEntity
8
1
62
256
6
ByLayer
370
-1
48
1
60
0
100
AcDbEllipse
10
35.798007
20
3.742565
30
0
11
0.114675239838962
21
0.214441812908963
31
0
210
0
220
0
230
-1
40
0.498678
41
-3.12804848143283
42
-0.295864604735381
0
ELLIPSE
5
B8
100
AcDbEntity
8
1
62
256
6
ByLayer
370
-1
48
1
60
0
100
AcDbEllipse
10
36.134396
20
4.074394
30
0
11
0.210572627578484
21
0.120001730337732
31
0
210
0
220
0
230
-1
40
0.480874
41
0.14749057931734
42
2.9974513461995
0
ELLIPSE
5
B9
100
AcDbEntity
8
1
62
256
6
ByLayer
370
-1
48
1
60
0
100
AcDbEllipse
10
36.582925
20
3.280928
30
0
11
-0.385742100113973
21
-0.84377808875941
31
0
210
0
220
0
230
1
40
0.997185
41
-2.45887329012682
42
-2.45865174746208
0
ELLIPSE
5
BA
100
AcDbEntity
8
1
62
256
6
ByLayer
370
-1
48
1
60
0
100
AcDbEllipse
10
36.590968
20
4.193614
30
0
11
0.242026996324902
21
-0.00146969215457092
31
0
210
0
220
0
230
-1
40
0.482204
41
2.99709800058772
42
-0.820120424599757
0
ELLIPSE
5
BB
100
AcDbEntity
8
1
62
256
6
ByLayer
370
-1
48
1
60
0
100
AcDbEllipse
10
37.045385
20
4.068281
30
0
11
0.208510719854634
21
-0.122681023304676
31
0
210
0
220
0
230
-1
40
0.482632
41
0.120995809339328
42
1.35977986979289
0
ELLIPSE
5
BC
100
AcDbEntity
8
1
62
256
6
ByLayer
370
-1
48
1
60
0
100
AcDbEllipse
10
37.375886
20
3.731978
30
0
11
0.11897141884846
21
-0.210911030422578
31
0
210
0
220
0
230
-1
40
0.502914
41
3.02326310224204
42
-2.53616768824188
0
ELLIPSE
5
BD
100
AcDbEntity
8
1
62
256
6
ByLayer
370
-1
48
1
60
0
100
AcDbEllipse
10
36.569286
20
3.287163
30
0
11
0.717208614702316
21
1.56883294298556
31
0
210
0
220
0
230
1
40
0.997185
41
-3.14151443805307
42
-1.14306866126379
0
ELLIPSE
5
BE
100
AcDbEntity
8
1
62
256
6
ByLayer
370
-1
48
1
60
0
100
AcDbEllipse
10
36.569286
20
3.287163
30
0
11
0.717208614702316
21
1.56883294298556
31
0
210
0
220
0
230
1
40
0.997185
41
-1.14306866126379
42
-2.58169768100139E-16
0
ELLIPSE
5
BF
100
AcDbEntity
8
1
62
256
6
ByLayer
370
-1
48
1
60
0
100
AcDbEllipse
10
36.519774
20
3.309798
30
0
11
0.717208614702309
21
1.56883294298555
31
0
210
0
220
0
230
1
40
0.997185
41
0
42
6.28318530717959
0
ELLIPSE
5
C0
100
AcDbEntity
8
1
62
256
6
ByLayer
370
-1
48
1
60
0
100
AcDbEllipse
10
36.507914
20
3.315221
30
0
11
0.540505042964068
21
1.18230888456884
31
0
210
0
220
0
230
1
40
0.997185
41
0
42
6.28318530717959
0
POINT
5
41
100
AcDbEntity
8
80
62
256
6
ByLayer
370
-1
48
1
60
0
100
AcDbPoint
10
0
20
0
30
0
39
0
210
0
220
0
230
1
50
360
0
POINT
5
43
100
AcDbEntity
8
81
62
256
6
ByLayer
370
-1
48
1
60
0
100
AcDbPoint
10
39.95
20
8.9
30
0
39
0
210
0
220
0
230
1
50
360
0
POINT
5
45
100
AcDbEntity
8
1
62
256
6
ByLayer
370
-1
48
1
60
0
100
AcDbPoint
10
-86.3
20
0
30
0
39
0
210
0
220
0
230
1
50
360
0
POINT
5
47
100
AcDbEntity
8
2
62
256
6
ByLayer
370
-1
48
1
60
0
100
AcDbPoint
10
39.95
20
8.9
30
0
39
0
210
0
220
0
230
1
50
360
0
POINT
5
49
100
AcDbEntity
8
2
62
256
6
ByLayer
370
-1
48
1
60
0
100
AcDbPoint
10
39.882425
20
7.845502
30
0
39
0
210
0
220
0
230
1
50
360
0
SPLINE
5
C1
100
AcDbEntity
8
1
62
256
6
ByLayer
370
-1
48
1
60
0
100
AcDbSpline
70
4
71
3
72
48
73
44
40
-0.0567248125180914
40
-0.0567248125180914
40
0
40
0
40
0.0634160512265992
40
0.0634160512265992
40
0.105892129099582
40
0.105892129099582
40
0.148873341932723
40
0.148873341932723
40
0.185702736961425
40
0.185702736961425
40
0.219883206354795
40
0.219883206354795
40
0.255513387202491
40
0.255513387202491
40
0.294730297044732
40
0.294730297044732
40
0.339151410171217
40
0.339151410171217
40
0.390620454568655
40
0.390620454568655
40
0.451700143957535
40
0.451700143957535
40
0.525634571544147
40
0.525634571544147
40
0.614178041892771
40
0.614178041892771
40
0.646323841996423
40
0.646323841996423
40
0.678882026723517
40
0.678882026723517
40
0.697867454138735
40
0.697867454138735
40
0.717031263897426
40
0.717031263897426
40
0.734505528735171
40
0.734505528735171
40
0.765836866121953
40
0.765836866121953
40
0.829329304032596
40
0.829329304032596
40
0.943275187481909
40
0.943275187481909
40
1
40
1
40
1.0634160512266
40
1.0634160512266
41
1
10
27.4017513534615
20
1.37127611127957
30
0
41
1
10
27.1927659540989
20
1.26391243760114
30
0
41
1
10
27.0782898559694
20
1.22823731303211
30
0
41
1
10
26.8898897607437
20
1.22688283610117
30
0
41
1
10
26.8133161378694
20
1.24246247981466
30
0
41
1
10
26.6672178942607
20
1.31255289065396
30
0
41
1
10
26.5955352369634
20
1.36902645285198
30
0
41
1
10
26.477843619026
20
1.50637896271786
30
0
41
1
10
26.427930681805
20
1.58451777021199
30
0
41
1
10
26.3473503990414
20
1.74870089483909
30
0
41
1
10
26.3144538110383
20
1.83581534745267
30
0
41
1
10
26.2627444895388
20
2.01566680612646
30
0
41
1
10
26.2439000656981
20
2.11069443837351
30
0
41
1
10
26.2215898670094
20
2.30356156168611
30
0
41
1
10
26.2195659909201
20
2.40308790312946
30
0
41
1
10
26.2353868652366
20
2.60019153219775
30
0
41
1
10
26.2560750328276
20
2.69817239802211
30
0
41
1
10
26.3238961026222
20
2.88636160748629
30
0
41
1
10
26.3754495508646
20
2.97520027811513
30
0
41
1
10
26.513446221398
20
3.13884168691527
30
0
41
1
10
26.6060894558901
20
3.21005415452984
30
0
41
1
10
26.8362055553545
20
3.33030899863567
30
0
41
1
10
26.9816078059067
20
3.37339584096904
30
0
41
1
10
27.3223524829459
20
3.42171298203601
30
0
41
1
10
27.5275960947918
20
3.42054970339362
30
0
41
1
10
27.8100321946283
20
3.36364935284624
30
0
41
1
10
27.8868115441755
20
3.3424987849485
30
0
41
1
10
28.036928126913
20
3.28241368254211
30
0
41
1
10
28.1120591211534
20
3.2426017732555
30
0
41
1
10
28.215159651731
20
3.15643212300333
30
0
41
1
10
28.250264331921
20
3.11874257796967
30
0
41
1
10
28.3062908733877
20
3.03362539874666
30
0
41
1
10
28.3275485958947
20
2.98494109134791
30
0
41
1
10
28.3515469689004
20
2.88934441379888
30
0
41
1
10
28.3562334227687
20
2.84169626879901
30
0
41
1
10
28.3547616422719
20
2.71177284450639
30
0
41
1
10
28.3379575007194
20
2.6294311093389
30
0
41
1
10
28.2662350101709
20
2.39521381151536
30
0
41
1
10
28.1899181846858
20
2.25106049102243
30
0
41
1
10
27.9582042226373
20
1.88414265989007
30
0
41
1
10
27.779424129951
20
1.67840645111002
30
0
41
1
10
27.4991880919437
20
1.43983225150114
30
0
41
1
10
27.4017513534615
20
1.37127611127957
30
0
41
1
10
27.1927659540989
20
1.26391243760114
30
0
0
SPLINE
5
C2
100
AcDbEntity
8
1
62
256
6
ByLayer
370
-1
48
1
60
0
100
AcDbSpline
70
4
71
3
72
8
73
4
40
0
40
0
40
0
40
0
40
1
40
1
40
1
40
1
41
1
10
30.1967094630842
20
4.91726611446393
30
0
41
1
10
30.1717094639909
20
4.94225666330834
30
0
41
1
10
30.1467094639772
20
4.96724721123292
30
0
41
1
10
30.1217094630843
20
4.99223775827849
30
0
0
SPLINE
5
C3
100
AcDbEntity
8
1
62
256
6
ByLayer
370
-1
48
1
60
0
100
AcDbSpline
70
4
71
3
72
8
73
4
40
0
40
0
40
0
40
0
40
1
40
1
40
1
40
1
41
1
10
32.5258363524904
20
-5.09038545917323
30
0
41
1
10
32.4556342629868
20
-5.09038545917323
30
0
41
1
10
32.385668427826
20
-5.09034382055594
30
0
41
1
10
32.3159347157209
20
-5.09025795656811
30
0
0
SPLINE
5
C4
100
AcDbEntity
8
1
62
256
6
ByLayer
370
-1
48
1
60
0
100
AcDbSpline
70
4
71
3
72
8
73
4
40
0
40
0
40
0
40
0
40
1
40
1
40
1
40
1
41
1
10
32.3159347157208
20
-5.09025795656811
30
0
41
1
10
32.315913632589
20
-5.09191911564039
30
0
41
1
10
32.315892856623
20
-5.09275
30
0
41
1
10
32.3158724030724
20
-5.09275
30
0
0
SPLINE
5
C5
100
AcDbEntity
8
1
62
256
6
ByLayer
370
-1
48
1
60
0
100
AcDbSpline
70
4
71
3
72
8
73
4
40
0
40
0
40
0
40
0
40
1
40
1
40
1
40
1
41
1
10
30.1217094630846
20
-4.94312423823772
30
0
41
1
10
30.1466443718314
20
-4.92026180664394
30
0
41
1
10
30.1716462873014
20
-4.89723434631838
30
0
41
1
10
30.1967094630846
20
-4.87405347720778
30
0
0
SPLINE
5
C6
100
AcDbEntity
8
1
62
256
6
ByLayer
370
-1
48
1
60
0
100
AcDbSpline
70
4
71
3
72
8
73
4
40
0
40
0
40
0
40
0
40
1
40
1
40
1
40
1
41
1
10
31.9746164726023
20
4.91726611446413
30
0
41
1
10
32.0598104701302
20
4.96068854050978
30
0
41
1
10
32.1450044699056
20
5.00411096214924
30
0
41
1
10
32.2301984717588
20
5.04753337971511
30
0
0
SPLINE
5
C7
100
AcDbEntity
8
1
62
256
6
ByLayer
370
-1
48
1
60
0
100
AcDbSpline
70
4
71
3
72
8
73
4
40
0
40
0
40
0
40
0
40
1
40
1
40
1
40
1
41
1
10
32.3159347157208
20
-5.09025795656811
30
0
41
1
10
32.2020648429626
20
-5.03209778032399
30
0
41
1
10
32.0882871280463
20
-4.97389667887828
30
0
41
1
10
31.9746164726023
20
-4.91562624405054
30
0
0
SPLINE
5
C8
100
AcDbEntity
8
1
62
256
6
ByLayer
370
-1
48
1
60
0
100
AcDbSpline
70
4
71
3
72
10
73
6
40
0
40
0
40
0
40
0
40
0.5
40
0.5
40
1
40
1
40
1
40
1
41
1
10
30.1217094630843
20
-4.94312423823763
30
0
41
1
10
28.8705527609199
20
-4.85507027424396
30
0
41
1
10
27.9279975884163
20
-4.53425893908482
30
0
41
1
10
26.7615953545799
20
-2.85217852538469
30
0
41
1
10
26.4564138524365
20
-1.53983420739891
30
0
41
1
10
26.0988545522324
20
-0.204215349875938
30
0
0
SPLINE
5
C9
100
AcDbEntity
8
1
62
256
6
ByLayer
370
-1
48
1
60
0
100
AcDbSpline
70
4
71
3
72
8
73
4
40
0
40
0
40
0
40
0
40
1
40
1
40
1
40
1
41
1
10
30.1967094630842
20
-4.87405347720733
30
0
41
1
10
30.761062927692
20
-4.90983763542499
30
0
41
1
10
31.3534938378564
20
-4.9135236764246
30
0
41
1
10
31.9746164726024
20
-4.91562624405037
30
0
0
SPLINE
5
CA
100
AcDbEntity
8
1
62
256
6
ByLayer
370
-1
48
1
60
0
100
AcDbSpline
70
4
71
3
72
14
73
10
40
0
40
0
40
0
40
0
40
0.25
40
0.25
40
0.5
40
0.5
40
0.75
40
0.75
40
1
40
1
40
1
40
1
41
1
10
25.9894434677604
20
0.204215349875938
30
0
41
1
10
25.7602012314048
20
1.05912204699922
30
0
41
1
10
25.5206193847411
20
1.89561179774242
30
0
41
1
10
25.2445073594348
20
3.35988661161679
30
0
41
1
10
25.2284789362126
20
4.00737476386183
30
0
41
1
10
25.8642462524352
20
4.78408260586227
30
0
41
1
10
26.5124918694874
20
4.91874037034751
30
0
41
1
10
28.048461456228
20
5.01176009041001
30
0
41
1
10
28.9340428632596
20
4.99223775827863
30
0
41
1
10
29.8231709231609
20
4.99223775827863
30
0
0
SPLINE
5
CB
100
AcDbEntity
8
1
62
256
6
ByLayer
370
-1
48
1
60
0
100
AcDbSpline
70
4
71
3
72
12
73
8
40
0
40
0
40
0
40
0
40
0.159899845806208
40
0.159899845806208
40
0.658361431121033
40
0.658361431121033
40
1
40
1
40
1
40
1
41
1
10
26.0988545522324
20
-0.204215349875938
30
0
41
1
10
26.0931985349402
20
-0.183244961742702
30
0
41
1
10
26.0874469808928
20
-0.161840563031774
30
0
41
1
10
26.063645844934
20
-0.073142455125236
30
0
41
1
10
26.0447286503372
20
-0.0025082062325339
30
0
41
1
10
26.0137892440754
20
0.112905433022121
30
0
41
1
10
26.001274879909
20
0.159601930474338
30
0
41
1
10
25.9894434677604
20
0.204215349875938
30
0
0
SPLINE
5
CC
100
AcDbEntity
8
SK1
62
256
6
ByLayer
370
-1
48
1
60
0
100
AcDbSpline
70
4
71
3
72
22
73
18
40
0
40
0
40
0
40
0
40
0.250000000000003
40
0.250000000000003
40
0.375000000000007
40
0.375000000000007
40
0.50000000000001
40
0.50000000000001
40
0.531250000000011
40
0.531250000000011
40
0.562500000000012
40
0.562500000000012
40
0.62500000000001
40
0.62500000000001
40
0.750000000000005
40
0.750000000000005
40
1
40
1
40
1
40
1
41
1
10
-30.05
20
-0.204215349875994
30
0
41
1
10
-30.4584173658861
20
-0.204215349875994
30
0
41
1
10
-30.8667221047428
20
-0.196763039806484
30
0
41
1
10
-31.4786574500243
20
-0.167803329741048
30
0
41
1
10
-31.6823165528714
20
-0.155331213204306
30
0
41
1
10
-32.0881416072518
20
-0.117201738211236
30
0
41
1
10
-32.321526301184
20
-0.153024065834245
30
0
41
1
10
-32.5266498502749
20
0.0110937548652714
30
0
41
1
10
-32.439461113843
20
0.0476159018251678
30
0
41
1
10
-32.3387112252005
20
0.0749532783003986
30
0
41
1
10
-32.2874346483116
20
0.0845555179086261
30
0
41
1
10
-32.1329017469481
20
0.11019107296471
30
0
41
1
10
-32.0291364237662
20
0.122128403615136
30
0
41
1
10
-31.7178483449742
20
0.15293077509844
30
0
41
1
10
-31.5097013066031
20
0.166021659542196
30
0
41
1
10
-30.8845245193121
20
0.196489492264334
30
0
41
1
10
-30.4673002522227
20
0.204215349875938
30
0
41
1
10
-30.05
20
0.204215349875938
30
0
0
SPLINE
5
CD
100
AcDbEntity
8
1
62
256
6
ByLayer
370
-1
48
1
60
0
100
AcDbSpline
70
4
71
3
72
24
73
20
40
0
40
0
40
0
40
0
40
0.157271741032193
40
0.157271741032193
40
0.34894895203808
40
0.34894895203808
40
0.444424851181456
40
0.444424851181456
40
0.539981403188625
40
0.539981403188625
40
0.635703613088618
40
0.635703613088618
40
0.713564507855927
40
0.713564507855927
40
0.838051590547766
40
0.838051590547766
40
0.924253033978506
40
0.924253033978506
40
1
40
1
40
1
40
1
41
1
10
37.4067302149615
20
3.82648264420431
30
0
41
1
10
37.4149299485452
20
3.81197702537958
30
0
41
1
10
37.4224125862854
20
3.79701447613124
30
0
41
1
10
37.4371904003385
20
3.76307265685736
30
0
41
1
10
37.4441373877736
20
3.74383422084833
30
0
41
1
10
37.4522342025241
20
3.71446133006933
30
0
41
1
10
37.4545487486201
20
3.70456891888031
30
0
41
1
10
37.4582506214412
20
3.68465673032355
30
0
41
1
10
37.4596433449015
20
3.67460822823639
30
0
41
1
10
37.4612642175685
20
3.65450262474249
30
0
41
1
10
37.4614952025621
20
3.64439751558257
30
0
41
1
10
37.4605277750418
20
3.62631773024998
30
0
41
1
10
37.4595832260532
20
3.6182519269795
30
0
41
1
10
37.4554949244923
20
3.59805316214098
30
0
41
1
10
37.4512654565676
20
3.58597239066819
30
0
41
1
10
37.4406590506132
20
3.56873215240782
30
0
41
1
10
37.4352097770693
20
3.56245285063298
30
0
41
1
10
37.4235554210101
20
3.55335413362096
30
0
41
1
10
37.4174123868205
20
3.55011748991654
30
0
41
1
10
37.4110295155786
20
3.54801799237592
30
0
0
SPLINE
5
CE
100
AcDbEntity
8
1
62
256
6
ByLayer
370
-1
48
1
60
0
100
AcDbSpline
70
4
71
3
72
42
73
38
40
0
40
0
40
0
40
0
40
0.0453868446055287
40
0.0453868446055287
40
0.0855289172227029
40
0.0855289172227029
40
0.136755260759462
40
0.136755260759462
40
0.176187381923015
40
0.176187381923015
40
0.232899104725519
40
0.232899104725519
40
0.289415721421958
40
0.289415721421958
40
0.345854377934236
40
0.345854377934236
40
0.459254087222248
40
0.459254087222248
40
0.515653380606276
40
0.515653380606276
40
0.572053913253583
40
0.572053913253583
40
0.659762760606543
40
0.659762760606543
40
0.72649488295076
40
0.72649488295076
40
0.778219441680406
40
0.778219441680406
40
0.861348933301136
40
0.861348933301136
40
0.909456127368943
40
0.909456127368943
40
0.950205311078192
40
0.950205311078192
40
0.991117202000532
40
0.991117202000532
40
1
40
1
40
1
40
1
41
1
10
36.2805738098017
20
4.21062488937613
30
0
41
1
10
36.2779150033078
20
4.21868133613421
30
0
41
1
10
36.2768768548775
20
4.22738350527268
30
0
41
1
10
36.2786243595042
20
4.24335623165643
30
0
41
1
10
36.2809954024859
20
4.25086425674297
30
0
41
1
10
36.28903727108
20
4.26660760232056
30
0
41
1
10
36.2955026724439
20
4.27473865031965
30
0
41
1
10
36.3086210054141
20
4.28737661826338
30
0
41
1
10
36.3149815282061
20
4.2923918874215
30
0
41
1
10
36.3313057475664
20
4.30345248458801
30
0
41
1
10
36.3417142303433
20
4.30906023839987
30
0
41
1
10
36.3631748722623
20
4.31875320852186
30
0
41
1
10
36.3742990111606
20
4.3228729159317
30
0
41
1
10
36.3969126976346
20
4.32990653036458
30
0
41
1
10
36.4084430799796
20
4.33283247684693
30
0
41
1
10
36.4434083825205
20
4.34008579735601
30
0
41
1
10
36.4672945211487
20
4.34291426596437
30
0
41
1
10
36.5031204688956
20
4.34455828185136
30
0
41
1
10
36.5150769707384
20
4.3446713784526
30
0
41
1
10
36.5389647956445
20
4.34403861157995
30
0
41
1
10
36.5509134026435
20
4.34329234117561
30
0
41
1
10
36.5812992266904
20
4.34025438085939
30
0
41
1
10
36.5997361404637
20
4.33733657491561
30
0
41
1
10
36.6316613830662
20
4.33004258784351
30
0
41
1
10
36.6453308285919
20
4.32616887003596
30
0
41
1
10
36.6689967227719
20
4.31776840982027
30
0
41
1
10
36.6791649421818
20
4.31357026241508
30
0
41
1
10
36.7046348808859
20
4.30104846140074
30
0
41
1
10
36.7197255050844
20
4.29161269974847
30
0
41
1
10
36.7396747321157
20
4.27329990601783
30
0
41
1
10
36.746266308902
20
4.26569871793726
30
0
41
1
10
36.7555119888248
20
4.25049331860424
30
0
41
1
10
36.7586703242372
20
4.24290494078093
30
0
41
1
10
36.7618781746068
20
4.22760711396049
30
0
41
1
10
36.7619440829075
20
4.219708108471
30
0
41
1
10
36.7602842240285
20
4.21063674474235
30
0
41
1
10
36.7599176301673
20
4.20901410038564
30
0
41
1
10
36.7594885950833
20
4.20741156809655
30
0
0
SPLINE
5
CF
100
AcDbEntity
8
1
62
256
6
ByLayer
370
-1
48
1
60
0
100
AcDbSpline
70
4
71
3
72
34
73
30
40
0
40
0
40
0
40
0
40
0.0489352209447946
40
0.0489352209447946
40
0.117200042217474
40
0.117200042217474
40
0.171506955646199
40
0.171506955646199
40
0.225668649239191
40
0.225668649239191
40
0.279765320459292
40
0.279765320459292
40
0.3732253215925
40
0.3732253215925
40
0.466583477789661
40
0.466583477789661
40
0.559915867375091
40
0.559915867375091
40
0.653268378335538
40
0.653268378335538
40
0.744703146931187
40
0.744703146931187
40
0.818565955739491
40
0.818565955739491
40
0.875584577609625
40
0.875584577609625
40
0.965112275153849
40
0.965112275153849
40
1
40
1
40
1
40
1
41
1
10
37.1666386294772
20
2.64637003100279
30
0
41
1
10
37.1619542171612
20
2.65275892169794
30
0
41
1
10
37.1558134927703
20
2.65804296685585
30
0
41
1
10
37.139503713067
20
2.66777026342143
30
0
41
1
10
37.1284657692534
20
2.67132149072253
30
0
41
1
10
37.1079723663202
20
2.67495678427619
30
0
41
1
10
37.0984897207603
20
2.67562929655472
30
0
41
1
10
37.0793316052811
20
2.6755636969651
30
0
41
1
10
37.0695939485635
20
2.67482708264771
30
0
41
1
10
37.0500691076487
20
2.67226074707395
30
0
41
1
10
37.0402424043584
20
2.67042568696206
30
0
41
1
10
37.0135232617007
20
2.66420603872103
30
0
41
1
10
36.9965608542441
20
2.6589171661949
30
0
41
1
10
36.9631451687106
20
2.64630603387244
30
0
41
1
10
36.9465800856263
20
2.63893949654235
30
0
41
1
10
36.9142376011218
20
2.62250025097586
30
0
41
1
10
36.8983659726667
20
2.61337911679078
30
0
41
1
10
36.8677495404807
20
2.5936285409706
30
0
41
1
10
36.8529144021366
20
2.58294176178035
30
0
41
1
10
36.8251220540689
20
2.56040445128943
30
0
41
1
10
36.8120390772329
20
2.54851138151858
30
0
41
1
10
36.7903646960691
20
2.5258122486301
30
0
41
1
10
36.7813311557003
20
2.51517167710753
30
0
41
1
10
36.7671602783287
20
2.4955440792516
30
0
41
1
10
36.7615685755928
20
2.48668121614884
30
0
41
1
10
36.7495715099575
20
2.46345614777294
30
0
41
1
10
36.7442133465204
20
2.44832580100865
30
0
41
1
10
36.742628281559
20
2.42758341192769
30
0
41
1
10
36.7428496570934
20
2.42168374486522
30
0
41
1
10
36.7438995848991
20
2.41600625541361
30
0
0
SPLINE
5
D0
100
AcDbEntity
8
1
62
256
6
ByLayer
370
-1
48
1
60
0
100
AcDbSpline
70
4
71
3
72
22
73
18
40
0
40
0
40
0
40
0
40
0.0986115253817985
40
0.0986115253817985
40
0.183915875237048
40
0.183915875237048
40
0.299838198393736
40
0.299838198393736
40
0.483762819036422
40
0.483762819036422
40
0.582277256987733
40
0.582277256987733
40
0.774223519387573
40
0.774223519387573
40
0.965774542287523
40
0.965774542287523
40
1
40
1
40
1
40
1
41
1
10
35.6130136023438
20
3.07866698857629
30
0
41
1
10
35.6040384277034
20
3.07627191844551
30
0
41
1
10
35.5954332516147
20
3.07191104783018
30
0
41
1
10
35.5819289016443
20
3.06069495363383
30
0
41
1
10
35.5765183478891
20
3.05414054032153
30
0
41
1
10
35.566412323722
20
3.03712063747054
30
0
41
1
10
35.5624485273869
20
3.02586599727457
30
0
41
1
10
35.5561256624773
20
2.99614179823442
30
0
41
1
10
35.5557734853206
20
2.97674245178564
30
0
41
1
10
35.5583930996955
20
2.94749091953739
30
0
41
1
10
35.5599276275863
20
2.93723981737981
30
0
41
1
10
35.5658763380878
20
2.90733683011169
30
0
41
1
10
35.5716500120655
20
2.88782110494273
30
0
41
1
10
35.5858231803715
20
2.84990703237889
30
0
41
1
10
35.5942717154634
20
2.83138593851274
30
0
41
1
10
35.6055592429744
20
2.8103020874828
30
0
41
1
10
35.6073098728928
20
2.80712054372674
30
0
41
1
10
35.6090969444365
20
2.80395913610408
30
0
0
SPLINE
5
D1
100
AcDbEntity
8
1
62
256
6
ByLayer
370
-1
48
1
60
0
100
AcDbSpline
70
4
71
3
72
34
73
30
40
0
40
0
40
0
40
0
40
0.0484619167058624
40
0.0484619167058624
40
0.123250895849355
40
0.123250895849355
40
0.18357092930999
40
0.18357092930999
40
0.243735544403279
40
0.243735544403279
40
0.303833391334258
40
0.303833391334258
40
0.401539481583052
40
0.401539481583052
40
0.499173133036359
40
0.499173133036359
40
0.596804264321062
40
0.596804264321062
40
0.692486849042998
40
0.692486849042998
40
0.773267829409126
40
0.773267829409126
40
0.83655569412992
40
0.83655569412992
40
0.884954691233198
40
0.884954691233198
40
0.961866476552056
40
0.961866476552056
40
1
40
1
40
1
40
1
41
1
10
35.6130136023439
20
3.07866698857578
30
0
41
1
10
35.6213038978927
20
3.08048364730732
30
0
41
1
10
35.6292475045972
20
3.08397823384911
30
0
41
1
10
35.6475471273188
20
3.09545931729008
30
0
41
1
10
35.6572768199534
20
3.1049716477292
30
0
41
1
10
35.6724132320084
20
3.12407791728654
30
0
41
1
10
35.678409600361
20
3.13346145270819
30
0
41
1
10
35.6890227176244
20
3.15309466405637
30
0
41
1
10
35.6936749776025
20
3.16340822537759
30
0
41
1
10
35.7018294822051
20
3.18460892482935
30
0
41
1
10
35.7053483635672
20
3.19554055075051
30
0
41
1
10
35.7132450512162
20
3.22471968656342
30
0
41
1
10
35.7168261958399
20
3.24339701802558
30
0
41
1
10
35.7215900602232
20
3.28113462569999
30
0
41
1
10
35.7227875570296
20
3.30032458872427
30
0
41
1
10
35.7228646566653
20
3.33863474275572
30
0
41
1
10
35.7217447392366
20
3.35787747921964
30
0
41
1
10
35.7171569938193
20
3.39542955519951
30
0
41
1
10
35.713724255287
20
3.41387570455711
30
0
41
1
10
35.7050328917378
20
3.44687799805308
30
0
41
1
10
35.7001170538903
20
3.46169217855223
30
0
41
1
10
35.6894180840075
20
3.48690393513675
30
0
41
1
10
35.6840235442546
20
3.49763084690713
30
0
41
1
10
35.6730810001287
20
3.51536275675701
30
0
41
1
10
35.6678378862253
20
3.52269342889485
30
0
41
1
10
35.6529341527649
20
3.53994742342923
30
0
41
1
10
35.6421684459389
20
3.54923935384269
30
0
41
1
10
35.6239471840952
20
3.55820096636836
30
0
41
1
10
35.6174176864879
20
3.56038533257927
30
0
41
1
10
35.6107389305738
20
3.56144635051049
30
0
0
SPLINE
5
D2
100
AcDbEntity
8
1
62
256
6
ByLayer
370
-1
48
1
60
0
100
AcDbSpline
70
4
71
3
72
36
73
32
40
0
40
0
40
0
40
0
40
0.0492962859146126
40
0.0492962859146126
40
0.128955121085004
40
0.128955121085004
40
0.193390858861515
40
0.193390858861515
40
0.257664558572679
40
0.257664558572679
40
0.321869855697224
40
0.321869855697224
40
0.38604363822399
40
0.38604363822399
40
0.490448583703838
40
0.490448583703838
40
0.594841290248598
40
0.594841290248598
40
0.692807648700752
40
0.692807648700752
40
0.776462598779106
40
0.776462598779106
40
0.842223390286748
40
0.842223390286748
40
0.892525018755576
40
0.892525018755576
40
0.93148958493601
40
0.93148958493601
40
0.988987173585894
40
0.988987173585894
40
1
40
1
40
1
40
1
41
1
10
37.404086526624
20
3.06738744713499
30
0
41
1
10
37.3965939425977
20
3.06968798642399
30
0
41
1
10
37.3895292201838
20
3.07358944924044
30
0
41
1
10
37.3729292503621
20
3.08625598479199
30
0
41
1
10
37.3641650867388
20
3.09667946188125
30
0
41
1
10
37.3507345571781
20
3.11741415416645
30
0
41
1
10
37.3455035545759
20
3.12754356238597
30
0
41
1
10
37.3363934151831
20
3.14864828788251
30
0
41
1
10
37.3324840849214
20
3.15969277716493
30
0
41
1
10
37.3257793526942
20
3.18233332063744
30
0
41
1
10
37.3229702193988
20
3.19397781331335
30
0
41
1
10
37.3183290742739
20
3.21762517740552
30
0
41
1
10
37.3164898568298
20
3.22966690758781
30
0
41
1
10
37.3128438732425
20
3.26153594177526
30
0
41
1
10
37.3117578453574
20
3.28165171124948
30
0
41
1
10
37.3118248983979
20
3.32182788639628
30
0
41
1
10
37.3129781984626
20
3.34203037581662
30
0
41
1
10
37.3174471456815
20
3.38060866839314
30
0
41
1
10
37.3206383875593
20
3.39914906122311
30
0
41
1
10
37.3286629234421
20
3.4325041156255
30
0
41
1
10
37.3332112479939
20
3.44756909306758
30
0
41
1
10
37.3431132792215
20
3.47324804923414
30
0
41
1
10
37.3481142235648
20
3.4841942218126
30
0
41
1
10
37.3582733916228
20
3.50229120705146
30
0
41
1
10
37.3631459599412
20
3.50977413529654
30
0
41
1
10
37.3727263081359
20
3.52193252572312
30
0
41
1
10
37.3772498450427
20
3.52688963009908
30
0
41
1
10
37.3892504093969
20
3.53772730709486
30
0
41
1
10
37.397294661116
20
3.543078210744
30
0
41
1
10
37.4076044656773
20
3.546982775966
30
0
41
1
10
37.4093073368962
20
3.5475419803831
30
0
41
1
10
37.4110295155778
20
3.5480179923787
30
0
0
SPLINE
5
D3
100
AcDbEntity
8
1
62
256
6
ByLayer
370
-1
48
1
60
0
100
AcDbSpline
70
4
71
3
72
24
73
20
40
0
40
0
40
0
40
0
40
0.157271741131639
40
0.157271741131639
40
0.348948952191469
40
0.348948952191469
40
0.444424851361662
40
0.444424851361662
40
0.539981403395733
40
0.539981403395733
40
0.635703613322784
40
0.635703613322784
40
0.713564508081659
40
0.713564508081659
40
0.838051590778967
40
0.838051590778967
40
0.924253034226386
40
0.924253034226386
40
1
40
1
40
1
40
1
41
1
10
35.6090969444365
20
2.80395913610408
30
0
41
1
10
35.6172966489111
20
2.78945350071385
30
0
41
1
10
35.6262755449717
20
2.77534204791431
30
0
41
1
10
35.6478187744386
20
2.74524850870967
30
0
41
1
10
35.6607939805913
20
2.72943902311545
30
0
41
1
10
35.6819565511309
20
2.70749815012459
30
0
41
1
10
35.6893060945991
20
2.70046972863801
30
0
41
1
10
35.7046185121353
20
2.6871618097656
30
0
41
1
10
35.7126034169353
20
2.6808630493525
30
0
41
1
10
35.7292159411828
20
2.66928494499734
30
0
41
1
10
35.7378837492173
20
2.6639788401921
30
0
41
1
10
35.7541502372206
20
2.65570199078397
30
0
41
1
10
35.761688812567
20
2.65246152881258
30
0
41
1
10
35.7815187260999
20
2.64586783994733
30
0
41
1
10
35.7943640905277
20
2.64349951526233
30
0
41
1
10
35.8152366498862
20
2.64416503263036
30
0
41
1
10
35.8237211048985
20
2.64581146589893
30
0
41
1
10
35.838110215962
20
2.65152670333177
30
0
41
1
10
35.844342261565
20
2.6553292094928
30
0
41
1
10
35.8497223381535
20
2.65992067103471
30
0
0
SPLINE
5
D4
100
AcDbEntity
8
1
62
256
6
ByLayer
370
-1
48
1
60
0
100
AcDbSpline
70
4
71
3
72
36
73
32
40
0
40
0
40
0
40
0
40
0.0492962859085638
40
0.0492962859085638
40
0.12895512106926
40
0.12895512106926
40
0.193390858837933
40
0.193390858837933
40
0.257664558541262
40
0.257664558541262
40
0.321869855657996
40
0.321869855657996
40
0.386043638176937
40
0.386043638176937
40
0.490448583644077
40
0.490448583644077
40
0.594841290176103
40
0.594841290176103
40
0.692807648616276
40
0.692807648616276
40
0.776462598684427
40
0.776462598684427
40
0.842223390184061
40
0.842223390184061
40
0.892525018646705
40
0.892525018646705
40
0.931489584822389
40
0.931489584822389
40
0.988987173442024
40
0.988987173442024
40
1
40
1
40
1
40
1
41
1
10
36.2645886650496
20
2.41922223457783
30
0
41
1
10
36.2668298560273
20
2.42705950592858
30
0
41
1
10
36.2674826098137
20
2.43535079673015
30
0
41
1
10
36.2660635736737
20
2.4566524982074
30
0
41
1
10
36.2621614268389
20
2.46984157078521
30
0
41
1
10
36.2521491408948
20
2.49252061652209
30
0
41
1
10
36.246510377887
20
2.50241808388509
30
0
41
1
10
36.233747151506
20
2.52144487313967
30
0
41
1
10
36.2265811008891
20
2.53063688607051
30
0
41
1
10
36.2111397009444
20
2.54830786858193
30
0
41
1
10
36.2028310040968
20
2.55682411863543
30
0
41
1
10
36.1853401844815
20
2.57316237555125
30
0
41
1
10
36.1761290980726
20
2.58101086485473
30
0
41
1
10
36.1510349749322
20
2.60067984285851
30
0
41
1
10
36.134482240274
20
2.61199789395064
30
0
41
1
10
36.1000999034532
20
2.63257868690772
30
0
41
1
10
36.0821487243981
20
2.6419142329251
30
0
41
1
10
36.046536988074
20
2.65769397041507
30
0
41
1
10
36.0288088434895
20
2.66433507055652
30
0
41
1
10
35.9955933641949
20
2.67423212288207
30
0
41
1
10
35.980056587786
20
2.67787236301442
30
0
41
1
10
35.9523490565342
20
2.68215837858787
30
0
41
1
10
35.940093834498
20
2.68328895859136
30
0
41
1
10
35.9187669447693
20
2.68347615389021
30
0
41
1
10
35.9095699318994
20
2.68295607187164
30
0
41
1
10
35.8936948250419
20
2.68063497884239
30
0
41
1
10
35.8868765094991
20
2.67914065013389
30
0
41
1
10
35.8707907422087
20
2.67400235759496
30
0
41
1
10
35.8616652038424
20
2.66958680093276
30
0
41
1
10
35.8525300734884
20
2.66243076586849
30
0
41
1
10
35.8510955287772
20
2.66120535625615
30
0
41
1
10
35.8497223381535
20
2.65992067103471
30
0
0
SPLINE
5
D5
100
AcDbEntity
8
1
62
256
6
ByLayer
370
-1
48
1
60
0
100
AcDbSpline
70
4
71
3
72
42
73
38
40
0
40
0
40
0
40
0
40
0.0453868446055344
40
0.0453868446055344
40
0.0855289172227135
40
0.0855289172227135
40
0.136755260759469
40
0.136755260759469
40
0.176187381923005
40
0.176187381923005
40
0.232899104725496
40
0.232899104725496
40
0.289415721421944
40
0.289415721421944
40
0.345854377934227
40
0.345854377934227
40
0.459254087222247
40
0.459254087222247
40
0.515653380606295
40
0.515653380606295
40
0.572053913253626
40
0.572053913253626
40
0.659762760606587
40
0.659762760606587
40
0.726494882950781
40
0.726494882950781
40
0.778219441680445
40
0.778219441680445
40
0.861348933301181
40
0.861348933301181
40
0.909456127368967
40
0.909456127368967
40
0.950205311078234
40
0.950205311078234
40
0.991117202000592
40
0.991117202000592
40
1
40
1
40
1
40
1
41
1
10
36.2647862637576
20
2.41916773480636
30
0
41
1
10
36.2619883609399
20
2.41144053134457
30
0
41
1
10
36.2607996082849
20
2.40305321646039
30
0
41
1
10
36.2622699791624
20
2.38757879860251
30
0
41
1
10
36.2645104582461
20
2.38027137178574
30
0
41
1
10
36.2722779956478
20
2.36488558709573
30
0
41
1
10
36.2786012954588
20
2.35689197310128
30
0
41
1
10
36.2914982614768
20
2.34441081175791
30
0
41
1
10
36.2977707481959
20
2.33943638066643
30
0
41
1
10
36.3139004679971
20
2.32842656703275
30
0
41
1
10
36.3242100181263
20
2.32280815566781
30
0
41
1
10
36.345499184095
20
2.31304326849562
30
0
41
1
10
36.3565501693056
20
2.30886202166207
30
0
41
1
10
36.379038502227
20
2.3016714167068
30
0
41
1
10
36.3905164694214
20
2.29864966895809
30
0
41
1
10
36.4253510662675
20
2.2910714474701
30
0
41
1
10
36.4491850017316
20
2.28797627655368
30
0
41
1
10
36.484978037839
20
2.28588571634503
30
0
41
1
10
36.4969311629519
20
2.28561564592224
30
0
41
1
10
36.5208272403555
20
2.28591931310112
30
0
41
1
10
36.5327874816791
20
2.28649322217041
30
0
41
1
10
36.5632227997821
20
2.28907149127687
30
0
41
1
10
36.5817085071753
20
2.2916904343237
30
0
41
1
10
36.6137573256445
20
2.29841894764195
30
0
41
1
10
36.6274927716186
20
2.30203448592897
30
0
41
1
10
36.6513024197669
20
2.30994619192853
30
0
41
1
10
36.6615426545083
20
2.31391982628324
30
0
41
1
10
36.6872278518615
20
2.32582402825435
30
0
41
1
10
36.7024810790827
20
2.3348392879056
30
0
41
1
10
36.7227465491404
20
2.35241147786078
30
0
41
1
10
36.7294695087519
20
2.35971866766721
30
0
41
1
10
36.7389782162814
20
2.37435974901132
30
0
41
1
10
36.7422678939246
20
2.38167514268929
30
0
41
1
10
36.7457406534157
20
2.39643729730707
30
0
41
1
10
36.7459434109422
20
2.40406695752054
30
0
41
1
10
36.7444407732037
20
2.41283591781857
30
0
41
1
10
36.7441023048386
20
2.41440475242132
30
0
41
1
10
36.7437010490392
20
2.41595441352681
30
0
0
SPLINE
5
D6
100
AcDbEntity
8
1
62
256
6
ByLayer
370
-1
48
1
60
0
100
AcDbSpline
70
4
71
3
72
22
73
18
40
0
40
0
40
0
40
0
40
0.167842784022577
40
0.167842784022577
40
0.335898034300897
40
0.335898034300897
40
0.454065247675466
40
0.454065247675466
40
0.642558083086931
40
0.642558083086931
40
0.755508761109943
40
0.755508761109943
40
0.870151412014941
40
0.870151412014941
40
0.96701298222941
40
0.96701298222941
40
1
40
1
40
1
40
1
41
1
10
37.4197057903865
20
2.83152474530294
30
0
41
1
10
37.4268216658837
20
2.84562887130838
30
0
41
1
10
37.4332516391314
20
2.86010915303001
30
0
41
1
10
37.4444084624974
20
2.88963345615821
30
0
41
1
10
37.4491620534434
20
2.90474375853074
30
0
41
1
10
37.4553300403089
20
2.93078580623575
30
0
41
1
10
37.4573248363511
20
2.94167166774531
30
0
41
1
10
37.4605732921513
20
2.96979514761262
30
0
41
1
10
37.4607659242805
20
2.98740571663697
30
0
41
1
10
37.4561493742277
20
3.01380551979204
30
0
41
1
10
37.4532287638156
20
3.02347880060898
30
0
41
1
10
37.4445415053543
20
3.04061898319614
30
0
41
1
10
37.4385519399976
20
3.04825826983111
30
0
41
1
10
37.4254166384463
20
3.05858669677372
30
0
41
1
10
37.4184445531686
20
3.06199296554314
30
0
41
1
10
37.4086959583447
20
3.06465598433582
30
0
41
1
10
37.4061495509286
20
3.06518065216343
30
0
41
1
10
37.4035781243376
20
3.06555695698793
30
0
0
SPLINE
5
D7
100
AcDbEntity
8
1
62
256
6
ByLayer
370
-1
48
1
60
0
100
AcDbSpline
70
4
71
3
72
22
73
18
40
0
40
0
40
0
40
0
40
0.0991354884069507
40
0.0991354884069507
40
0.206229847800958
40
0.206229847800958
40
0.367627630834119
40
0.367627630834119
40
0.507529288583767
40
0.507529288583767
40
0.647011593783352
40
0.647011593783352
40
0.786332448958144
40
0.786332448958144
40
0.892876682570046
40
0.892876682570046
40
1
40
1
40
1
40
1
41
1
10
37.1666386294772
20
2.64637003100276
30
0
41
1
10
37.1739821685889
20
2.64186598679933
30
0
41
1
10
37.1826642667146
20
2.63903511531825
30
0
41
1
10
37.2014251170125
20
2.63690245600174
30
0
41
1
10
37.2118218116713
20
2.6378038743712
30
0
41
1
10
37.2372118722363
20
2.64353750858365
30
0
41
1
10
37.2523636720468
20
2.65010317304245
30
0
41
1
10
37.2789496812613
20
2.66519175467374
30
0
41
1
10
37.2908395917697
20
2.6734769744759
30
0
41
1
10
37.313408433896
20
2.69152391734238
30
0
41
1
10
37.3241612468418
20
2.70134379248214
30
0
41
1
10
37.3445694106721
20
2.72205218826326
30
0
41
1
10
37.3542624624776
20
2.73297989081289
30
0
41
1
10
37.3704428634926
20
2.75301324249011
30
0
41
1
10
37.3771609955263
20
2.76196143126717
30
0
41
1
10
37.3900106191234
20
2.78033946091074
30
0
41
1
10
37.3961475924759
20
2.78978445556484
30
0
41
1
10
37.401955788765
20
2.7994224132724
30
0
0
SPLINE
5
D8
100
AcDbEntity
8
1
62
256
6
ByLayer
370
-1
48
1
60
0
100
AcDbSpline
70
4
71
3
72
22
73
18
40
0
40
0
40
0
40
0
40
0.0991354884057745
40
0.0991354884057745
40
0.206229847798469
40
0.206229847798469
40
0.367627630829737
40
0.367627630829737
40
0.507529288577755
40
0.507529288577755
40
0.647011593775734
40
0.647011593775734
40
0.78633244894888
40
0.78633244894888
40
0.892876682569997
40
0.892876682569997
40
1
40
1
40
1
40
1
41
1
10
35.6107389305738
20
3.56144635051049
30
0
41
1
10
35.602585151189
20
3.56605679433096
30
0
41
1
10
35.5952601833361
20
3.57264021030821
30
0
41
1
10
35.5831198318773
20
3.58868157467188
30
0
41
1
10
35.5783195383554
20
3.59852084682581
30
0
41
1
10
35.5698456075161
20
3.62417101977133
30
0
41
1
10
35.567679287136
20
3.64092204624032
30
0
41
1
10
35.5671230632669
20
3.6719738771549
30
0
41
1
10
35.5682731114112
20
3.68657556692688
30
0
41
1
10
35.5725500187498
20
3.7153806045304
30
0
41
1
10
35.5756903391942
20
3.72967763949316
30
0
41
1
10
35.5835083620631
20
3.75779071557673
30
0
41
1
10
35.5882014801843
20
3.77165904528684
30
0
41
1
10
35.5976374556826
20
3.79565901774646
30
0
41
1
10
35.6021187978307
20
3.80592273699082
30
0
41
1
10
35.6118178052456
20
3.82615374871693
30
0
41
1
10
35.6170461427028
20
3.83613314233867
30
0
41
1
10
35.6226183062339
20
3.84590991875655
30
0
0
SPLINE
5
D9
100
AcDbEntity
8
1
62
256
6
ByLayer
370
-1
48
1
60
0
100
AcDbSpline
70
4
71
3
72
34
73
30
40
0
40
0
40
0
40
0
40
0.0495805136006548
40
0.0495805136006548
40
0.129698637862962
40
0.129698637862962
40
0.194505892890852
40
0.194505892890852
40
0.259150175590233
40
0.259150175590233
40
0.323725661314083
40
0.323725661314083
40
0.425534197335571
40
0.425534197335571
40
0.527282435054707
40
0.527282435054707
40
0.629041292372174
40
0.629041292372174
40
0.724169483475275
40
0.724169483475275
40
0.802896330501572
40
0.802896330501572
40
0.863925138213344
40
0.863925138213344
40
0.910648821183668
40
0.910648821183668
40
0.947136701919365
40
0.947136701919365
40
1
40
1
40
1
40
1
41
1
10
36.2803752739384
20
4.21057304750477
30
0
41
1
10
36.2824755077444
20
4.20241551301262
30
0
41
1
10
36.2829794848437
20
4.19382469561972
30
0
41
1
10
36.2811788587453
20
4.17182631364383
30
0
41
1
10
36.2770410777251
20
4.15827731393858
30
0
41
1
10
36.2666243953747
20
4.1350683645812
30
0
41
1
10
36.2608094489127
20
4.12497380096218
30
0
41
1
10
36.2477080504393
20
4.10562725388178
30
0
41
1
10
36.2403788964486
20
4.0963114692706
30
0
41
1
10
36.2246244516581
20
4.07846037461229
30
0
41
1
10
36.216165152872
20
4.06988740006253
30
0
41
1
10
36.1932840478227
20
4.04879708189949
30
0
41
1
10
36.1781384622277
20
4.03675591351748
30
0
41
1
10
36.1463787838264
20
4.01464130485763
30
0
41
1
10
36.1296541085864
20
4.0044924384506
30
0
41
1
10
36.0951742581543
20
3.98634991528326
30
0
41
1
10
36.0773045901042
20
3.97829525153398
30
0
41
1
10
36.042119966311
20
3.96514520843269
30
0
41
1
10
36.0247307738561
20
3.95984569910374
30
0
41
1
10
35.9927739389401
20
3.95265740670851
30
0
41
1
10
35.9781432588012
20
3.9503162010314
30
0
41
1
10
35.9523443435331
20
3.94832802017757
30
0
41
1
10
35.9410688031807
20
3.94818984002916
30
0
41
1
10
35.9215466692775
20
3.94965910387665
30
0
41
1
10
35.9131604958829
20
3.9508711573084
30
0
41
1
10
35.8987217817985
20
3.9543345588109
30
0
41
1
10
35.8925243628337
20
3.95631142728786
30
0
41
1
10
35.8781558431132
20
3.96245650891709
30
0
41
1
10
35.8701599230346
20
3.96730404726156
30
0
41
1
10
35.8635087106854
20
3.9734524580852
30
0
0
SPLINE
5
DA
100
AcDbEntity
8
1
62
256
6
ByLayer
370
-1
48
1
60
0
100
AcDbSpline
70
4
71
3
72
22
73
18
40
0
40
0
40
0
40
0
40
0.0986115253809132
40
0.0986115253809132
40
0.183915875236122
40
0.183915875236122
40
0.299838198386784
40
0.299838198386784
40
0.483762819016337
40
0.483762819016337
40
0.582277256960192
40
0.582277256960192
40
0.774223519347304
40
0.774223519347304
40
0.965774542234524
40
0.965774542234524
40
1
40
1
40
1
40
1
41
1
10
37.1743214284478
20
3.9667646788823
30
0
41
1
10
37.1805803685156
20
3.9730350249242
30
0
41
1
10
37.1883256101579
20
3.97797454208683
30
0
41
1
10
37.2041714739802
20
3.98345333447529
30
0
41
1
10
37.2122594611944
20
3.9845771143147
30
0
41
1
10
37.2313934548331
20
3.9841894167503
30
0
41
1
10
37.2427576608289
20
3.98165359755856
30
0
41
1
10
37.2707928704563
20
3.97147283904505
30
0
41
1
10
37.2872878722823
20
3.96165644638356
30
0
41
1
10
37.3106344846689
20
3.94419477309648
30
0
41
1
10
37.3185181420021
20
3.93755516067875
30
0
41
1
10
37.3407985007302
20
3.91694188478596
30
0
41
1
10
37.3544185102783
20
3.90188928494254
30
0
41
1
10
37.3794253359775
20
3.87013757572049
30
0
41
1
10
37.3908918344696
20
3.85333314930614
30
0
41
1
10
37.4031210933211
20
3.83278497061843
30
0
41
1
10
37.4049431370701
20
3.82964404822283
30
0
41
1
10
37.4067302149615
20
3.82648264420431
30
0
0
SPLINE
5
DB
100
AcDbEntity
8
1
62
256
6
ByLayer
370
-1
48
1
60
0
100
AcDbSpline
70
4
71
3
72
22
73
18
40
0
40
0
40
0
40
0
40
0.167842784250048
40
0.167842784250048
40
0.335898034473404
40
0.335898034473404
40
0.454065247811023
40
0.454065247811023
40
0.642558083168848
40
0.642558083168848
40
0.755508761176069
40
0.755508761176069
40
0.870151412064282
40
0.870151412064282
40
0.967012982270141
40
0.967012982270141
40
1
40
1
40
1
40
1
41
1
10
35.642011844483
20
3.87704563235872
30
0
41
1
10
35.6508892112251
20
3.89011376681805
30
0
41
1
10
35.6604613693676
20
3.90274602517386
30
0
41
1
10
35.6810090172096
20
3.92674727233376
30
0
41
1
10
35.6920295287982
20
3.93817179040411
30
0
41
1
10
35.7121059118923
20
3.95603384806415
30
0
41
1
10
35.7208101928108
20
3.96297363854001
30
0
41
1
10
35.7443292382858
20
3.97917531096428
30
0
41
1
10
35.7600519536549
20
3.98765212192359
30
0
41
1
10
35.7863296294308
20
3.99588200416443
30
0
41
1
10
35.7966372109328
20
3.99777534570666
30
0
41
1
10
35.8168606363599
20
3.99791219431612
30
0
41
1
10
35.8270561447886
20
3.99603250118287
30
0
41
1
10
35.8436662486878
20
3.98886666665868
30
0
41
1
10
35.8506253656292
20
3.98407953243154
30
0
41
1
10
35.8584791176348
20
3.97639002608145
30
0
41
1
10
35.8603777728404
20
3.97430040486128
30
0
41
1
10
35.8621578287019
20
3.97211745824581
30
0
0
SPLINE
5
DC
100
AcDbEntity
8
1
62
256
6
ByLayer
370
-1
48
1
60
0
100
AcDbSpline
70
4
71
3
72
34
73
30
40
0
40
0
40
0
40
0
40
0.0493619475591468
40
0.0493619475591468
40
0.125539901664526
40
0.125539901664526
40
0.186980193980924
40
0.186980193980924
40
0.248262181512439
40
0.248262181512439
40
0.340547871918762
40
0.340547871918762
40
0.432709445704622
40
0.432709445704622
40
0.524833165866722
40
0.524833165866722
40
0.616962251766965
40
0.616962251766965
40
0.709145696793846
40
0.709145696793846
40
0.791292482820641
40
0.791292482820641
40
0.854807499469232
40
0.854807499469232
40
0.90351977451622
40
0.90351977451622
40
0.980968575571215
40
0.980968575571215
40
1
40
1
40
1
40
1
41
1
10
37.1743214284483
20
3.96676467888182
30
0
41
1
10
37.1688743337945
20
3.96076728307199
30
0
41
1
10
37.1621734965314
20
3.95593186790285
30
0
41
1
10
37.1438369554884
20
3.94657369602487
30
0
41
1
10
37.131206609969
20
3.94336726728878
30
0
41
1
10
37.1079045228424
20
3.94060908336101
30
0
41
1
10
37.0971346273093
20
3.9404556908419
30
0
41
1
10
37.0754997863684
20
3.94174573070447
30
0
41
1
10
37.0645640276185
20
3.94319256939988
30
0
41
1
10
37.0372275398947
20
3.94838159685548
30
0
41
1
10
37.0207301862714
20
3.95293224171581
30
0
41
1
10
36.9881876028385
20
3.96418270094668
30
0
41
1
10
36.972032044679
20
3.97092294312716
30
0
41
1
10
36.9404163366637
20
3.98619965109603
30
0
41
1
10
36.9248669491544
20
3.9947800830694
30
0
41
1
10
36.8947546737107
20
4.01351939792957
30
0
41
1
10
36.8801091234481
20
4.0237293241268
30
0
41
1
10
36.8521782018807
20
4.04559865449329
30
0
41
1
10
36.8388074032979
20
4.05732282123154
30
0
41
1
10
36.8153371525115
20
4.08080912211798
30
0
41
1
10
36.8049666941572
20
4.09249805823467
30
0
41
1
10
36.7885283409784
20
4.11420551716324
30
0
41
1
10
36.7819751512992
20
4.12406035415665
30
0
41
1
10
36.7720759196487
20
4.14203126351367
30
0
41
1
10
36.7683152800717
20
4.15006393818663
30
0
41
1
10
36.7606738926222
20
4.17108605469008
30
0
41
1
10
36.7578578442761
20
4.18466405385743
30
0
41
1
10
36.758680963629
20
4.20094468278097
30
0
41
1
10
36.7590638420108
20
4.20418351031984
30
0
41
1
10
36.7596861937913
20
4.20735706832511
30
0
0
LINE
5
4A
100
AcDbEntity
8
80
62
256
6
ByLayer
370
-1
48
1
60
0
100
AcDbLine
10
0
20
0
30
0
11
-10
21
0
31
0
39
0
210
0
220
0
230
1
0
LINE
5
4B
100
AcDbEntity
8
81
62
256
6
ByLayer
370
-1
48
1
60
0
100
AcDbLine
10
39.95
20
8.9
30
0
11
49.95
21
8.9
31
0
39
0
210
0
220
0
230
1
0
LINE
5
4C
100
AcDbEntity
8
1
62
256
6
ByLayer
370
-1
48
1
60
0
100
AcDbLine
10
39.949455
20
8.483361
30
0
11
39.5946
21
1.712314
31
0
39
0
210
0
220
0
230
1
0
LINE
5
4D
100
AcDbEntity
8
1
62
256
6
ByLayer
370
-1
48
1
60
0
100
AcDbLine
10
39.408981
20
1.396293
30
0
11
33.669755
21
-2.208027
31
0
39
0
210
0
220
0
230
1
0
LINE
5
4E
100
AcDbEntity
8
1
62
256
6
ByLayer
370
-1
48
1
60
0
100
AcDbLine
10
33.06456
20
-1.852092
30
0
11
33.419416
21
4.918955
31
0
39
0
210
0
220
0
230
1
0
LINE
5
4F
100
AcDbEntity
8
SK4
62
256
6
ByLayer
370
-1
48
0.05
60
0
100
AcDbLine
10
-91.3
20
0
30
0
11
44.882425
21
0
31
0
39
0
210
0
220
0
230
1
0
LINE
5
51
100
AcDbEntity
8
4
62
256
6
ByLayer
370
-1
48
0.05
60
0
100
AcDbLine
10
0
20
0
30
0
11
44.882425
21
0
31
0
39
0
210
0
220
0
230
1
0
LINE
5
53
100
AcDbEntity
8
1
62
256
6
ByLayer
370
-1
48
1
60
0
100
AcDbLine
10
0
20
-4.99375
30
0
11
30.121709
21
-4.99375
31
0
39
0
210
0
220
0
230
1
0
LINE
5
54
100
AcDbEntity
8
1
62
256
6
ByLayer
370
-1
48
1
60
0
100
AcDbLine
10
28.721569
20
4.99375
30
0
11
0
21
4.99375
31
0
39
0
210
0
220
0
230
1
0
LINE
5
55
100
AcDbEntity
8
1
62
256
6
ByLayer
370
-1
48
1
60
0
100
AcDbLine
10
30.196709
20
-4.91875
30
0
11
31.974616
21
-4.91875
31
0
39
0
210
0
220
0
230
1
0
LINE
5
56
100
AcDbEntity
8
1
62
256
6
ByLayer
370
-1
48
1
60
0
100
AcDbLine
10
30.121709
20
-4.99375
30
0
11
30.196709
21
-4.91875
31
0
39
0
210
0
220
0
230
1
0
LINE
5
57
100
AcDbEntity
8
1
62
256
6
ByLayer
370
-1
48
1
60
0
100
AcDbLine
10
31.974616
20
-4.91875
30
0
11
32.315879
21
-5.092753
31
0
39
0
210
0
220
0
230
1
0
LINE
5
58
100
AcDbEntity
8
1
62
256
6
ByLayer
370
-1
48
1
60
0
100
AcDbLine
10
37.201311
20
2.638674
30
0
11
37.141674
21
2.665938
31
0
39
0
210
0
220
0
230
1
0
LINE
5
59
100
AcDbEntity
8
1
62
256
6
ByLayer
370
-1
48
1
60
0
100
AcDbLine
10
37.396806
20
3.070166
30
0
11
37.403951
21
3.066899
31
0
39
0
210
0
220
0
230
1
0
LINE
5
5A
100
AcDbEntity
8
1
62
256
6
ByLayer
370
-1
48
1
60
0
100
AcDbLine
10
36.96536
20
3.974266
30
0
11
37.031168
21
3.944181
31
0
39
0
210
0
220
0
230
1
0
LINE
5
5B
100
AcDbEntity
8
1
62
256
6
ByLayer
370
-1
48
1
60
0
100
AcDbLine
10
36.134682
20
2.617676
30
0
11
36.068883
21
2.647757
31
0
39
0
210
0
220
0
230
1
0
LINE
5
5C
100
AcDbEntity
8
1
62
256
6
ByLayer
370
-1
48
1
60
0
100
AcDbLine
10
37.286495
20
4.855996
30
0
11
37.236983
21
4.878631
31
0
39
0
210
0
220
0
230
1
0
LINE
5
5D
100
AcDbEntity
8
1
62
256
6
ByLayer
370
-1
48
1
60
0
100
AcDbLine
10
35.802566
20
1.740966
30
0
11
35.852078
21
1.71833
31
0
39
0
210
0
220
0
230
1
0
LINE
5
5E
100
AcDbEntity
8
1
62
256
6
ByLayer
370
-1
48
1
60
0
100
AcDbLine
10
35.884427
20
3.959807
30
0
11
35.954292
21
3.927867
31
0
39
0
210
0
220
0
230
1
0
LINE
5
5F
100
AcDbEntity
8
1
62
256
6
ByLayer
370
-1
48
1
60
0
100
AcDbLine
10
35.698568
20
3.52391
30
0
11
35.6281
21
3.556125
31
0
39
0
210
0
220
0
230
1
0
LINE
5
60
100
AcDbEntity
8
SK1
62
256
6
ByLayer
370
-1
48
1
60
0
100
AcDbLine
10
-85.8
20
4.99375
30
0
11
-86.3
21
4.49375
31
0
39
0
210
0
220
0
230
1
0
LINE
5
62
100
AcDbEntity
8
SK1
62
256
6
ByLayer
370
-1
48
1
60
0
100
AcDbLine
10
-86.3
20
-4.49375
30
0
11
-85.8
21
-4.99375
31
0
39
0
210
0
220
0
230
1
0
LINE
5
63
100
AcDbEntity
8
SK1
62
256
6
ByLayer
370
-1
48
1
60
0
100
AcDbLine
10
-85.8
20
-4.99375
30
0
11
0
21
-4.99375
31
0
39
0
210
0
220
0
230
1
0
LINE
5
64
100
AcDbEntity
8
SK1
62
256
6
ByLayer
370
-1
48
1
60
0
100
AcDbLine
10
0
20
4.99375
30
0
11
-85.8
21
4.99375
31
0
39
0
210
0
220
0
230
1
0
LINE
5
65
100
AcDbEntity
8
1
62
256
6
ByLayer
370
-1
48
1
60
0
100
AcDbLine
10
33.196169
20
0.659192
30
0
11
32.883757
21
0.462993
31
0
39
0
210
0
220
0
230
1
0
LINE
5
66
100
AcDbEntity
8
1
62
256
6
ByLayer
370
-1
48
1
60
0
100
AcDbLine
10
36.256473
20
-5.09275
30
0
11
32.315872
21
-5.09275
31
0
39
0
210
0
220
0
230
1
0
LINE
5
67
100
AcDbEntity
8
1
62
256
6
ByLayer
370
-1
48
1
60
0
100
AcDbLine
10
30.121709
20
-4.99375
30
0
11
30.121709
21
-4.943124
31
0
39
0
210
0
220
0
230
1
0
LINE
5
68
100
AcDbEntity
8
1
62
256
6
ByLayer
370
-1
48
1
60
0
100
AcDbLine
10
33.187538
20
0.494672
30
0
11
32.732219
21
0.208725
31
0
39
0
210
0
220
0
230
1
0
LINE
5
69
100
AcDbEntity
8
1
62
256
6
ByLayer
370
-1
48
1
60
0
100
AcDbLine
10
0
20
-0.204215
30
0
11
0
21
0.204215
31
0
39
0
210
0
220
0
230
1
0
LINE
5
6A
100
AcDbEntity
8
1
62
256
6
ByLayer
370
-1
48
1
60
0
100
AcDbLine
10
0
20
-0.204215
30
0
11
26.098855
21
-0.204215
31
0
39
0
210
0
220
0
230
1
0
LINE
5
6B
100
AcDbEntity
8
1
62
256
6
ByLayer
370
-1
48
1
60
0
100
AcDbLine
10
29.823171
20
4.992238
30
0
11
30.121709
21
4.992238
31
0
39
0
210
0
220
0
230
1
0
LINE
5
6C
100
AcDbEntity
8
1
62
256
6
ByLayer
370
-1
48
1
60
0
100
AcDbLine
10
36.259278
20
-5.090385
30
0
11
36.256473
21
-5.09275
31
0
39
0
210
0
220
0
230
1
0
LINE
5
6D
100
AcDbEntity
8
1
62
256
6
ByLayer
370
-1
48
1
60
0
100
AcDbLine
10
39.528627
20
1.094649
30
0
11
34.364508
21
-2.123286
31
0
39
0
210
0
220
0
230
1
0
LINE
5
6E
100
AcDbEntity
8
1
62
256
6
ByLayer
370
-1
48
1
60
0
100
AcDbLine
10
31.974616
20
4.917266
30
0
11
30.196709
21
4.917266
31
0
39
0
210
0
220
0
230
1
0
LINE
5
6F
100
AcDbEntity
8
1
62
256
6
ByLayer
370
-1
48
1
60
0
100
AcDbLine
10
39.528627
20
1.09465
30
0
11
39.531877
21
1.15666
31
0
39
0
210
0
220
0
230
1
0
LINE
5
70
100
AcDbEntity
8
1
62
256
6
ByLayer
370
-1
48
1
60
0
100
AcDbLine
10
32.318507
20
-1.639421
30
0
11
32.498012
21
-1.721484
31
0
39
0
210
0
220
0
230
1
0
LINE
5
71
100
AcDbEntity
8
1
62
256
6
ByLayer
370
-1
48
1
60
0
100
AcDbLine
10
30.196709
20
-4.91875
30
0
11
30.196709
21
-4.874053
31
0
39
0
210
0
220
0
230
1
0
LINE
5
72
100
AcDbEntity
8
1
62
256
6
ByLayer
370
-1
48
1
60
0
100
AcDbLine
10
0
20
-4.99375
30
0
11
0
21
-0.204215
31
0
39
0
210
0
220
0
230
1
0
LINE
5
73
100
AcDbEntity
8
1
62
256
6
ByLayer
370
-1
48
1
60
0
100
AcDbLine
10
0
20
0.204215
30
0
11
0
21
4.99375
31
0
39
0
210
0
220
0
230
1
0
LINE
5
74
100
AcDbEntity
8
1
62
256
6
ByLayer
370
-1
48
1
60
0
100
AcDbLine
10
36.259278
20
-5.090385
30
0
11
39.340631
21
-2.492527
31
0
39
0
210
0
220
0
230
1
0
LINE
5
75
100
AcDbEntity
8
1
62
256
6
ByLayer
370
-1
48
1
60
0
100
AcDbLine
10
32.553337
20
0.290503
30
0
11
32.852834
21
0.47713
31
0
39
0
210
0
220
0
230
1
0
LINE
5
76
100
AcDbEntity
8
1
62
256
6
ByLayer
370
-1
48
1
60
0
100
AcDbLine
10
32.553337
20
0.290503
30
0
11
32.732219
21
0.208725
31
0
39
0
210
0
220
0
230
1
0
LINE
5
77
100
AcDbEntity
8
1
62
256
6
ByLayer
370
-1
48
1
60
0
100
AcDbLine
10
39.528627
20
1.094649
30
0
11
39.340631
21
-2.492527
31
0
39
0
210
0
220
0
230
1
0
LINE
5
78
100
AcDbEntity
8
1
62
256
6
ByLayer
370
-1
48
1
60
0
100
AcDbLine
10
32.852834
20
0.47713
30
0
11
32.883757
21
0.462993
31
0
39
0
210
0
220
0
230
1
0
LINE
5
79
100
AcDbEntity
8
1
62
256
6
ByLayer
370
-1
48
1
60
0
100
AcDbLine
10
33.128625
20
4.775947
30
0
11
32.883757
21
0.462993
31
0
39
0
210
0
220
0
230
1
0
LINE
5
7A
100
AcDbEntity
8
1
62
256
6
ByLayer
370
-1
48
1
60
0
100
AcDbLine
10
29.823171
20
4.992238
30
0
11
32.525836
21
-5.090385
31
0
39
0
210
0
220
0
230
1
0
LINE
5
7B
100
AcDbEntity
8
1
62
256
6
ByLayer
370
-1
48
1
60
0
100
AcDbLine
10
32.852834
20
0.47713
30
0
11
33.097928
21
4.792472
31
0
39
0
210
0
220
0
230
1
0
LINE
5
7C
100
AcDbEntity
8
1
62
256
6
ByLayer
370
-1
48
1
60
0
100
AcDbLine
10
36.259278
20
-5.090385
30
0
11
32.525836
21
-5.090385
31
0
39
0
210
0
220
0
230
1
0
LINE
5
7D
100
AcDbEntity
8
1
62
256
6
ByLayer
370
-1
48
1
60
0
100
AcDbLine
10
25.989443
20
0.204215
30
0
11
0
21
0.204215
31
0
39
0
210
0
220
0
230
1
0
LINE
5
7E
100
AcDbEntity
8
1
62
256
6
ByLayer
370
-1
48
1
60
0
100
AcDbLine
10
31.974616
20
-4.91875
30
0
11
31.974616
21
-4.915626
31
0
39
0
210
0
220
0
230
1
0
LINE
5
7F
100
AcDbEntity
8
SK1
62
256
6
ByLayer
370
-1
48
1
60
0
100
AcDbLine
10
-30.05
20
-0.204215
30
0
11
0
21
-0.204215
31
0
39
0
210
0
220
0
230
1
0
LINE
5
80
100
AcDbEntity
8
SK1
62
256
6
ByLayer
370
-1
48
1
60
0
100
AcDbLine
10
-85.8
20
-4.99375
30
0
11
-85.8
21
4.99375
31
0
39
0
210
0
220
0
230
1
0
LINE
5
81
100
AcDbEntity
8
SK1
62
256
6
ByLayer
370
-1
48
1
60
0
100
AcDbLine
10
-86.3
20
-4.49375
30
0
11
-86.3
21
4.49375
31
0
39
0
210
0
220
0
230
1
0
LINE
5
82
100
AcDbEntity
8
SK1
62
256
6
ByLayer
370
-1
48
1
60
0
100
AcDbLine
10
-30.05
20
-0.204215
30
0
11
-30.05
21
0.204215
31
0
39
0
210
0
220
0
230
1
0
LINE
5
83
100
AcDbEntity
8
SK1
62
256
6
ByLayer
370
-1
48
1
60
0
100
AcDbLine
10
0
20
-4.99375
30
0
11
0
21
-0.204215
31
0
39
0
210
0
220
0
230
1
0
LINE
5
84
100
AcDbEntity
8
SK1
62
256
6
ByLayer
370
-1
48
1
60
0
100
AcDbLine
10
0
20
0.204215
30
0
11
0
21
4.99375
31
0
39
0
210
0
220
0
230
1
0
LINE
5
85
100
AcDbEntity
8
SK1
62
256
6
ByLayer
370
-1
48
1
60
0
100
AcDbLine
10
0
20
0.204215
30
0
11
-30.05
21
0.204215
31
0
39
0
210
0
220
0
230
1
0
LINE
5
86
100
AcDbEntity
8
SK1
62
256
6
ByLayer
370
-1
48
1
60
0
100
AcDbLine
10
0
20
-0.204215
30
0
11
0
21
0.204215
31
0
39
0
210
0
220
0
230
1
0
LINE
5
87
100
AcDbEntity
8
1
62
256
6
ByLayer
370
-1
48
1
60
0
100
AcDbLine
10
33.605035
20
5.234977
30
0
11
39.344261
21
8.839296
31
0
39
0
210
0
220
0
230
1
0
LINE
5
88
100
AcDbEntity
8
1
62
256
6
ByLayer
370
-1
48
1
60
0
100
AcDbLine
10
37.432747
20
3.052222
30
0
11
37.403578
21
3.065557
31
0
39
0
210
0
220
0
230
1
0
LINE
5
89
100
AcDbEntity
8
1
62
256
6
ByLayer
370
-1
48
1
60
0
100
AcDbLine
10
37.245225
20
3.934351
30
0
11
37.174321
21
3.966765
31
0
39
0
210
0
220
0
230
1
0
LINE
5
8A
100
AcDbEntity
8
1
62
256
6
ByLayer
370
-1
48
1
60
0
100
AcDbLine
10
36.759682
20
4.207323
30
0
11
36.759489
21
4.207412
31
0
39
0
210
0
220
0
230
1
0
LINE
5
8B
100
AcDbEntity
8
1
62
256
6
ByLayer
370
-1
48
1
60
0
100
AcDbLine
10
36.351361
20
4.178264
30
0
11
36.280574
21
4.210625
31
0
39
0
210
0
220
0
230
1
0
LINE
5
8C
100
AcDbEntity
8
1
62
256
6
ByLayer
370
-1
48
1
60
0
100
AcDbLine
10
36.351163
20
4.178212
30
0
11
36.280375
21
4.210573
31
0
39
0
210
0
220
0
230
1
0
LINE
5
8D
100
AcDbEntity
8
1
62
256
6
ByLayer
370
-1
48
1
60
0
100
AcDbLine
10
35.874657
20
3.966403
30
0
11
35.862158
21
3.972117
31
0
39
0
210
0
220
0
230
1
0
LINE
5
8E
100
AcDbEntity
8
1
62
256
6
ByLayer
370
-1
48
1
60
0
100
AcDbLine
10
35.683917
20
3.046253
30
0
11
35.613014
21
3.078667
31
0
39
0
210
0
220
0
230
1
0
LINE
5
8F
100
AcDbEntity
8
1
62
256
6
ByLayer
370
-1
48
1
60
0
100
AcDbLine
10
36.335574
20
2.386807
30
0
11
36.264786
21
2.419168
31
0
39
0
210
0
220
0
230
1
0
LINE
5
90
100
AcDbEntity
8
2
62
256
6
ByLayer
370
-1
48
1
60
1
100
AcDbLine
10
39.95
20
0
30
0
11
39.951
21
0.001
31
0
39
0
210
0
220
0
230
1
0
MTEXT
5
DD
100
AcDbEntity
8
SK6
62
256
6
ByLayer
370
-1
48
1
60
0
100
AcDbMText
10
-19.8
20
-18.124905
30
0
210
0
220
0
230
1
1
\W00.754;\fsimplex.shx,bigfont.shx;A10K-SDUPR 07-ER 
40
3.5
41
0
44
1.084337
50
0
71
7
72
5
7
DEFAULT
0
DIMENSION
5
110
100
AcDbEntity
8
2
62
256
6
ByLayer
370
-3
48
1
60
0
100
AcDbDimension
2
DimnDraft3D1
10
52.2
20
0
30
0
11
52.2
21
19.155
31
0
70
32
71
5
72
1
41
1
210
0
220
0
230
1
3
Standard
100
AcDbAlignedDimension
13
41.95
23
8.9
33
0
14
41.95
24
0
34
0
50
90
100
AcDbRotatedDimension
1001
ACAD
1000
DSTYLE
1002
{
1070
    74
1070
     0
1070
   279
1070
     0
1070
   172
1070
     1
1070
   173
1070
     1
1070
   340
1005
DE
1070
    77
1070
     1
1070
    73
1070
     0
1070
   171
1070
     4
1070
   274
1070
     4
1070
   177
1070
     2
1070
   176
1070
     2
1070
   178
1070
     7
1070
    78
1070
     8
1070
    41
1041
3.175
1070
   147
1041
2.25
1070
    42
1041
2.0
1070
    44
1041
2.0
1070
   140
1041
4.5
1070
   343
1005
111
1070
   344
1005
111
1002
}
0
DIMENSION
5
126
100
AcDbEntity
8
SK2
62
256
6
ByLayer
370
-3
48
1
60
0
100
AcDbDimension
2
DimnDraft3D2
10
-96.05
20
4.99375
30
0
11
-96.05
21
15.24875
31
0
70
32
71
5
72
1
41
1
210
0
220
0
230
1
3
Standard
100
AcDbAlignedDimension
13
-88.3
23
-4.99375
33
0
14
-88.3
24
4.99375
34
0
50
90
100
AcDbRotatedDimension
1001
ACAD
1000
DSTYLE
1002
{
1070
    74
1070
     0
1070
   279
1070
     0
1070
   172
1070
     1
1070
   173
1070
     1
1070
   340
1005
DE
1070
    77
1070
     1
1070
    73
1070
     0
1070
   171
1070
     4
1070
   274
1070
     4
1070
   177
1070
     2
1070
   176
1070
     2
1070
   178
1070
     7
1070
    78
1070
     8
1070
    41
1041
3.175
1070
   147
1041
2.25
1070
    42
1041
2.0
1070
    44
1041
2.0
1070
   140
1041
4.5
1070
   343
1005
111
1070
   344
1005
111
1002
}
0
DIMENSION
5
134
100
AcDbEntity
8
SK2
62
256
6
ByLayer
370
-3
48
1
60
0
100
AcDbDimension
2
DimnDraft3D3
10
-86.3
20
21.65
30
0
11
-29.427632
21
21.65
31
0
70
32
71
5
72
1
41
1
210
0
220
0
230
1
3
Standard
100
AcDbAlignedDimension
13
39.95
23
10.9
33
0
14
-86.3
24
6.99375
34
0
50
0
100
AcDbRotatedDimension
1001
ACAD
1000
DSTYLE
1002
{
1070
   279
1070
     0
1070
   172
1070
     1
1070
   173
1070
     1
1070
   340
1005
DE
1070
    77
1070
     1
1070
    73
1070
     0
1070
   171
1070
     4
1070
   274
1070
     4
1070
   177
1070
     2
1070
   176
1070
     2
1070
   178
1070
     7
1070
    78
1070
     8
1070
    41
1041
3.175
1070
   147
1041
2.25
1070
    42
1041
2.0
1070
    44
1041
2.0
1070
   140
1041
4.5
1070
   343
1005
111
1070
   344
1005
111
1002
}
0
DIMENSION
5
142
100
AcDbEntity
8
2
62
256
6
ByLayer
370
-3
48
1
60
0
100
AcDbDimension
2
DimnDraft3D4
10
88.409978
20
0
30
0
11
65.615382
21
-36.792664
31
0
70
34
71
5
72
1
41
1
210
0
220
0
230
1
3
Standard
100
AcDb2LineAngularDimension
13
39.478976
23
-0.087666
33
0
14
36.92296
24
-48.859355
34
0
15
41.95
25
0
35
0
16
68.687982
26
-30.775028
36
0
40
0
0
ENDSEC
0
SECTION
2
OBJECTS
0
DICTIONARY
5
173
330
0
100
AcDbDictionary
280
0
281
1
3
ACAD_GROUP
350
174
3
ACAD_MLINESTYLE
350
175
0
DICTIONARY
5
174
330
0
100
AcDbDictionary
280
0
281
1
0
DICTIONARY
5
175
330
0
100
AcDbDictionary
280
0
281
1
3
Standard
350
18
0
MLINESTYLE
5
18
330
175
100
AcDbMlineStyle
2
Standard
70
0
3

62
256
51
90
52
90
71
2
49
-0.5
62
256
6
ByLayer
49
0.5
62
256
6
ByLayer
0
RASTERVARIABLES
5
161
330

100
AcDbRasterVariables
90
0
70
1
71
1
72
1
0
ENDSEC
0
EOF
