0
SECTION
2
HEADER
9
$ACADVER
1
AC1015
9
$DWGCODEPAGE
3
ANSI_1252
9
$HANDSEED
5
187
9
$ANGBASE
50
0
9
$ANGDIR
70
0
9
$ATTMODE
70
1
9
$AUNITS
70
0
9
$AUPREC
70
0
9
$CECOLOR
62
256
9
$CELTSCALE
40
1
9
$CELTYPE
6
ByLayer
9
$CELWEIGHT
370
-1
9
$CLAYER
8
0
9
$CMLJUST
70
0
9
$CMLSCALE
40
1
9
$CMLSTYLE
2
Standard
9
$DIMSTYLE
2
Standard
9
$TEXTSIZE
40
0.2
9
$TEXTSTYLE
7
Standard
9
$LUNITS
70
2
9
$LUPREC
70
4
9
$EXTNAMES
290
1
9
$INSUNITS
70
4
9
$LTSCALE
40
1
9
$LWDISPLAY
290
0
9
$PDMODE
70
0
9
$PDSIZE
40
0
9
$PLINEGEN
70
0
0
ENDSEC
0
SECTION
2
CLASSES
0
CLASS
1
RASTERVARIABLES
2
AcDbRasterVariables
3
ISM
90
0
280
0
281
0
0
ENDSEC
0
SECTION
2
TABLES
0
TABLE
2
VPORT
5
17d
100
AcDbSymbolTable
0
VPORT
5
1
100
AcDbSymbolTableRecord
100
AcDbViewportTableRecord
2
*Active
70
0
10
0
20
0
11
1
21
1
12
-1
22
1
13
0
23
0
14
0.5
24
0.5
15
10
25
10
16
0
26
0
36
1
17
0
27
0
37
0
0
ENDTAB
0
TABLE
2
LTYPE
5
17e
100
AcDbSymbolTable
0
LTYPE
5
14
100
AcDbSymbolTableRecord
100
AcDbLinetypeTableRecord
70
0
2
ByBlock
3

72
65
73
0
40
0
0
LTYPE
5
15
100
AcDbSymbolTableRecord
100
AcDbLinetypeTableRecord
70
0
2
ByLayer
3

72
65
73
0
40
0
0
LTYPE
5
16
100
AcDbSymbolTableRecord
100
AcDbLinetypeTableRecord
70
0
2
CONTINUOUS
3
Solid line
72
65
73
0
40
0
0
LTYPE
5
3B
100
AcDbSymbolTableRecord
100
AcDbLinetypeTableRecord
70
0
2
DASHED
3
__ __ __ __ __ __ __ __ __
72
65
73
2
40
25.72
49
12.86
74
0
49
-12.86
74
0
0
LTYPE
5
3C
100
AcDbSymbolTableRecord
100
AcDbLinetypeTableRecord
70
0
2
HIDDEN
3
_ _ _ _ _ _ _ _ _ _ _ _ _ _ _
72
65
73
2
40
0.5
49
0.25
74
0
49
-0.25
74
0
0
LTYPE
5
3D
100
AcDbSymbolTableRecord
100
AcDbLinetypeTableRecord
70
0
2
PHANTOM
3
____ _ _ ____ _ _ _____ _ _ ____
72
65
73
6
40
50.5
49
18
74
0
49
-6.5
74
0
49
6.5
74
0
49
-6.5
74
0
49
6.5
74
0
49
-6.5
74
0
0
LTYPE
5
3E
100
AcDbSymbolTableRecord
100
AcDbLinetypeTableRecord
70
0
2
CENTER
3
____ _ ____ _ ____ _ ____
72
65
73
4
40
47.5
49
22
74
0
49
-8.5
74
0
49
8.5
74
0
49
-8.5
74
0
0
LTYPE
5
3F
100
AcDbSymbolTableRecord
100
AcDbLinetypeTableRecord
70
0
2
DOT
3
.........................
72
65
73
2
40
10
49
0
74
0
49
-10
74
0
0
LTYPE
5
40
100
AcDbSymbolTableRecord
100
AcDbLinetypeTableRecord
70
0
2
DASHDOT
3
_._._._._._._._._._._._._._._._.
72
65
73
4
40
70
49
31
74
0
49
-13
74
0
49
13
74
0
49
-13
74
0
0
ENDTAB
0
TABLE
2
LAYER
5
17f
100
AcDbSymbolTable
0
LAYER
5
10
100
AcDbSymbolTableRecord
100
AcDbLayerTableRecord
2
0
70
0
62
7
6
CONTINUOUS
290
1
370
-3
390
0
0
LAYER
5
42
100
AcDbSymbolTableRecord
100
AcDbLayerTableRecord
2
80
70
0
62
-6
6
CONTINUOUS
290
1
370
-3
390
0
0
LAYER
5
44
100
AcDbSymbolTableRecord
100
AcDbLayerTableRecord
2
81
70
0
62
-3
6
CONTINUOUS
290
1
370
-3
390
0
0
LAYER
5
46
100
AcDbSymbolTableRecord
100
AcDbLayerTableRecord
2
1
70
0
62
4
6
CONTINUOUS
290
1
370
-3
390
0
0
LAYER
5
48
100
AcDbSymbolTableRecord
100
AcDbLayerTableRecord
2
2
70
0
62
7
6
CONTINUOUS
290
1
370
-3
390
0
0
LAYER
5
4F
100
AcDbSymbolTableRecord
100
AcDbLayerTableRecord
2
4
70
0
62
-2
6
CENTER
290
1
370
-3
390
0
0
LAYER
5
169
100
AcDbSymbolTableRecord
100
AcDbLayerTableRecord
2
SK4
70
0
62
2
6
CENTER
290
1
370
-3
390
0
0
LAYER
5
16a
100
AcDbSymbolTableRecord
100
AcDbLayerTableRecord
2
SK1
70
0
62
4
6
CONTINUOUS
290
1
370
-3
390
0
0
LAYER
5
16b
100
AcDbSymbolTableRecord
100
AcDbLayerTableRecord
2
SK6
70
0
62
5
6
CONTINUOUS
290
1
370
-3
390
0
0
LAYER
5
16c
100
AcDbSymbolTableRecord
100
AcDbLayerTableRecord
2
SK2
70
0
62
7
6
CONTINUOUS
290
1
370
-3
390
0
0
ENDTAB
0
TABLE
2
STYLE
5
180
100
AcDbSymbolTable
0
STYLE
5
11
100
AcDbSymbolTableRecord
100
AcDbTextStyleTableRecord
2
Standard
3
txt
70
0
71
0
40
0
41
1
42
0
50
0
0
STYLE
5
E5
100
AcDbSymbolTableRecord
100
AcDbTextStyleTableRecord
2
DEFAULT
3
simplex.shx
70
0
71
0
40
0
41
1
42
0
50
0
0
STYLE
5
108
100
AcDbSymbolTableRecord
100
AcDbTextStyleTableRecord
2
DWGDirectTextStyle
3
SIMPLEX
70
0
71
0
40
0
41
1
42
0
50
0
0
ENDTAB
0
TABLE
2
DIMSTYLE
5
181
100
AcDbSymbolTable
100
AcDbDimStyleTable
0
DIMSTYLE
105
27
100
AcDbSymbolTableRecord
100
AcDbDimStyleTableRecord
2
Standard
70
0
3
<>
41
0.18
42
0.0625
44
0.18
140
0.18
147
0.09
73
0
74
0
77
1
271
2
275
0
278
52
280
0
340
11
0
ENDTAB
0
TABLE
2
VIEW
5
182
100
AcDbSymbolTable
0
ENDTAB
0
TABLE
2
UCS
5
183
100
AcDbSymbolTable
0
ENDTAB
0
TABLE
2
APPID
5
184
100
AcDbSymbolTable
0
APPID
5
12
100
AcDbSymbolTableRecord
100
AcDbRegAppTableRecord
2
ACAD
70
0
0
ENDTAB
0
TABLE
2
BLOCK_RECORD
5
185
100
AcDbSymbolTable
0
BLOCK_RECORD
5
1F
100
AcDbSymbolTableRecord
100
AcDbBlockTableRecord
2
*Model_Space
340
0
70
0
0
BLOCK_RECORD
5
1B
100
AcDbSymbolTableRecord
100
AcDbBlockTableRecord
2
*Paper_Space
340
0
70
0
0
BLOCK_RECORD
5
23
100
AcDbSymbolTableRecord
100
AcDbBlockTableRecord
2
*Paper_Space0
340
0
70
0
0
BLOCK_RECORD
5
10A
100
AcDbSymbolTableRecord
100
AcDbBlockTableRecord
2
DimnDraft3D1
340
0
70
0
0
BLOCK_RECORD
5
118
100
AcDbSymbolTableRecord
100
AcDbBlockTableRecord
2
_CLOSED
340
0
70
0
0
BLOCK_RECORD
5
11F
100
AcDbSymbolTableRecord
100
AcDbBlockTableRecord
2
DimnDraft3D2
340
0
70
0
0
BLOCK_RECORD
5
12E
100
AcDbSymbolTableRecord
100
AcDbBlockTableRecord
2
DimnDraft3D3
340
0
70
0
0
BLOCK_RECORD
5
13C
100
AcDbSymbolTableRecord
100
AcDbBlockTableRecord
2
DimnDraft3D4
340
0
70
0
0
ENDTAB
0
ENDSEC
0
SECTION
2
BLOCKS
0
BLOCK
5
20
100
AcDbEntity
8
0
100
AcDbBlockBegin
2
*Model_Space
70
0
10
0
20
0
30
0
3
*Model_Space
0
ENDBLK
5
21
100
AcDbEntity
8
0
100
AcDbBlockEnd
0
BLOCK
5
1C
100
AcDbEntity
8
0
100
AcDbBlockBegin
2
*Paper_Space
70
0
10
0
20
0
30
0
3
*Paper_Space
0
ENDBLK
5
1D
100
AcDbEntity
8
0
100
AcDbBlockEnd
0
BLOCK
5
24
100
AcDbEntity
8
0
100
AcDbBlockBegin
2
*Paper_Space0
70
0
10
0
20
0
30
0
3
*Paper_Space0
0
ENDBLK
5
25
100
AcDbEntity
8
0
100
AcDbBlockEnd
0
BLOCK
5
115
100
AcDbEntity
8
0
100
AcDbBlockBegin
2
DimnDraft3D1
70
0
10
0
20
0
30
0
3
DimnDraft3D1
0
MTEXT
5
10B
100
AcDbEntity
8
2
62
256
6
ByLayer
370
-1
48
1
60
0
100
AcDbMText
10
51.075
20
20.28
30
0
210
0
220
0
230
1
1
\W01.000;\fsimplex.shx,bigfont.shx;9.0 
40
4.5
41
0
44
1.084337
50
90
71
7
72
5
7
DEFAULT
0
LINE
5
10C
100
AcDbEntity
8
2
62
256
6
ByLayer
370
-1
48
1
60
0
100
AcDbLine
10
41.95
20
8.9
30
0
11
54.2
21
8.9
31
0
39
0
210
0
220
0
230
1
0
LINE
5
10D
100
AcDbEntity
8
2
62
256
6
ByLayer
370
-1
48
1
60
0
100
AcDbLine
10
41.95
20
0
30
0
11
54.2
21
0
31
0
39
0
210
0
220
0
230
1
0
LINE
5
10E
100
AcDbEntity
8
2
62
256
6
ByLayer
370
-1
48
1
60
0
100
AcDbLine
10
52.2
20
0
30
0
11
52.2
21
26.177368
31
0
39
0
210
0
220
0
230
1
0
LINE
5
10F
100
AcDbEntity
8
2
62
256
6
ByLayer
370
-1
48
1
60
0
100
AcDbLine
10
52.2
20
8.9
30
0
11
52.617997
21
5.725002
31
0
39
0
210
0
220
0
230
1
0
LINE
5
110
100
AcDbEntity
8
2
62
256
6
ByLayer
370
-1
48
1
60
0
100
AcDbLine
10
52.2
20
8.9
30
0
11
51.782003
21
5.724998
31
0
39
0
210
0
220
0
230
1
0
LINE
5
111
100
AcDbEntity
8
2
62
256
6
ByLayer
370
-1
48
1
60
0
100
AcDbLine
10
52.617997
20
5.725002
30
0
11
51.782003
21
5.724998
31
0
39
0
210
0
220
0
230
1
0
LINE
5
112
100
AcDbEntity
8
2
62
256
6
ByLayer
370
-1
48
1
60
0
100
AcDbLine
10
52.2
20
0
30
0
11
51.782003
21
3.174998
31
0
39
0
210
0
220
0
230
1
0
LINE
5
113
100
AcDbEntity
8
2
62
256
6
ByLayer
370
-1
48
1
60
0
100
AcDbLine
10
52.2
20
0
30
0
11
52.617997
21
3.175002
31
0
39
0
210
0
220
0
230
1
0
LINE
5
114
100
AcDbEntity
8
2
62
256
6
ByLayer
370
-1
48
1
60
0
100
AcDbLine
10
51.782003
20
3.174998
30
0
11
52.617997
21
3.175002
31
0
39
0
210
0
220
0
230
1
0
ENDBLK
5
116
100
AcDbEntity
8
0
100
AcDbBlockEnd
0
BLOCK
5
119
100
AcDbEntity
8
0
100
AcDbBlockBegin
2
_CLOSED
70
0
10
0
20
0
30
0
3
_CLOSED
0
LINE
5
11B
100
AcDbEntity
8
0
62
256
6
ByLayer
370
-2
48
1
60
0
100
AcDbLine
10
-1
20
0.166667
30
0
11
0
21
0
31
0
39
0
210
0
220
0
230
1
0
LINE
5
11C
100
AcDbEntity
8
0
62
256
6
ByLayer
370
-2
48
1
60
0
100
AcDbLine
10
0
20
0
30
0
11
-1
21
-0.166667
31
0
39
0
210
0
220
0
230
1
0
LINE
5
11D
100
AcDbEntity
8
0
62
256
6
ByLayer
370
-2
48
1
60
0
100
AcDbLine
10
-1
20
0.166667
30
0
11
-1
21
-0.166667
31
0
39
0
210
0
220
0
230
1
0
LINE
5
11E
100
AcDbEntity
8
0
62
256
6
ByLayer
370
-2
48
1
60
0
100
AcDbLine
10
0
20
0
30
0
11
-1
21
0
31
0
39
0
210
0
220
0
230
1
0
ENDBLK
5
11A
100
AcDbEntity
8
0
100
AcDbBlockEnd
0
BLOCK
5
12B
100
AcDbEntity
8
0
100
AcDbBlockBegin
2
DimnDraft3D2
70
0
10
0
20
0
30
0
3
DimnDraft3D2
0
MTEXT
5
120
100
AcDbEntity
8
SK2
62
256
6
ByLayer
370
-1
48
1
60
0
100
AcDbMText
10
-97.175
20
16.37375
30
0
210
0
220
0
230
1
1
\W01.000;\fsimplex.shx,bigfont.shx;%%c10 
40
4.5
41
0
44
1.084337
50
90
71
7
72
5
7
DEFAULT
0
LINE
5
122
100
AcDbEntity
8
SK2
62
256
6
ByLayer
370
-1
48
1
60
0
100
AcDbLine
10
-88.3
20
-4.99375
30
0
11
-98.05
21
-4.99375
31
0
39
0
210
0
220
0
230
1
0
LINE
5
123
100
AcDbEntity
8
SK2
62
256
6
ByLayer
370
-1
48
1
60
0
100
AcDbLine
10
-88.3
20
4.99375
30
0
11
-98.05
21
4.99375
31
0
39
0
210
0
220
0
230
1
0
LINE
5
124
100
AcDbEntity
8
SK2
62
256
6
ByLayer
370
-1
48
1
60
0
100
AcDbLine
10
-96.05
20
-4.99375
30
0
11
-96.05
21
23.692171
31
0
39
0
210
0
220
0
230
1
0
LINE
5
125
100
AcDbEntity
8
SK2
62
256
6
ByLayer
370
-1
48
1
60
0
100
AcDbLine
10
-96.05
20
-4.99375
30
0
11
-96.467997
21
-1.818752
31
0
39
0
210
0
220
0
230
1
0
LINE
5
126
100
AcDbEntity
8
SK2
62
256
6
ByLayer
370
-1
48
1
60
0
100
AcDbLine
10
-96.05
20
-4.99375
30
0
11
-95.632003
21
-1.818748
31
0
39
0
210
0
220
0
230
1
0
LINE
5
127
100
AcDbEntity
8
SK2
62
256
6
ByLayer
370
-1
48
1
60
0
100
AcDbLine
10
-96.467997
20
-1.818752
30
0
11
-95.632003
21
-1.818748
31
0
39
0
210
0
220
0
230
1
0
LINE
5
128
100
AcDbEntity
8
SK2
62
256
6
ByLayer
370
-1
48
1
60
0
100
AcDbLine
10
-96.05
20
4.99375
30
0
11
-95.632003
21
1.818752
31
0
39
0
210
0
220
0
230
1
0
LINE
5
129
100
AcDbEntity
8
SK2
62
256
6
ByLayer
370
-1
48
1
60
0
100
AcDbLine
10
-96.05
20
4.99375
30
0
11
-96.467997
21
1.818748
31
0
39
0
210
0
220
0
230
1
0
LINE
5
12A
100
AcDbEntity
8
SK2
62
256
6
ByLayer
370
-1
48
1
60
0
100
AcDbLine
10
-95.632003
20
1.818752
30
0
11
-96.467997
21
1.818748
31
0
39
0
210
0
220
0
230
1
0
ENDBLK
5
12C
100
AcDbEntity
8
0
100
AcDbBlockEnd
0
BLOCK
5
139
100
AcDbEntity
8
0
100
AcDbBlockBegin
2
DimnDraft3D3
70
0
10
0
20
0
30
0
3
DimnDraft3D3
0
MTEXT
5
12F
100
AcDbEntity
8
SK2
62
256
6
ByLayer
370
-1
48
1
60
0
100
AcDbMText
10
-28.302632
20
22.775
30
0
210
0
220
0
230
1
1
\W01.000;\fsimplex.shx,bigfont.shx;125.0 
40
4.5
41
0
44
1.084337
50
0
71
7
72
5
7
DEFAULT
0
LINE
5
130
100
AcDbEntity
8
SK2
62
256
6
ByLayer
370
-1
48
1
60
0
100
AcDbLine
10
39.95
20
10.9
30
0
11
39.95
21
23.65
31
0
39
0
210
0
220
0
230
1
0
LINE
5
131
100
AcDbEntity
8
SK2
62
256
6
ByLayer
370
-1
48
1
60
0
100
AcDbLine
10
-86.3
20
6.99375
30
0
11
-86.3
21
23.65
31
0
39
0
210
0
220
0
230
1
0
LINE
5
132
100
AcDbEntity
8
SK2
62
256
6
ByLayer
370
-1
48
1
60
0
100
AcDbLine
10
39.95
20
21.65
30
0
11
-86.3
21
21.65
31
0
39
0
210
0
220
0
230
1
0
LINE
5
133
100
AcDbEntity
8
SK2
62
256
6
ByLayer
370
-1
48
1
60
0
100
AcDbLine
10
39.95
20
21.65
30
0
11
36.775002
21
21.232003
31
0
39
0
210
0
220
0
230
1
0
LINE
5
134
100
AcDbEntity
8
SK2
62
256
6
ByLayer
370
-1
48
1
60
0
100
AcDbLine
10
39.95
20
21.65
30
0
11
36.774998
21
22.067997
31
0
39
0
210
0
220
0
230
1
0
LINE
5
135
100
AcDbEntity
8
SK2
62
256
6
ByLayer
370
-1
48
1
60
0
100
AcDbLine
10
36.775002
20
21.232003
30
0
11
36.774998
21
22.067997
31
0
39
0
210
0
220
0
230
1
0
LINE
5
136
100
AcDbEntity
8
SK2
62
256
6
ByLayer
370
-1
48
1
60
0
100
AcDbLine
10
-86.3
20
21.65
30
0
11
-83.125002
21
22.067997
31
0
39
0
210
0
220
0
230
1
0
LINE
5
137
100
AcDbEntity
8
SK2
62
256
6
ByLayer
370
-1
48
1
60
0
100
AcDbLine
10
-86.3
20
21.65
30
0
11
-83.124998
21
21.232003
31
0
39
0
210
0
220
0
230
1
0
LINE
5
138
100
AcDbEntity
8
SK2
62
256
6
ByLayer
370
-1
48
1
60
0
100
AcDbLine
10
-83.125002
20
22.067997
30
0
11
-83.124998
21
21.232003
31
0
39
0
210
0
220
0
230
1
0
ENDBLK
5
13A
100
AcDbEntity
8
0
100
AcDbBlockEnd
0
BLOCK
5
147
100
AcDbEntity
8
0
100
AcDbBlockBegin
2
DimnDraft3D4
70
0
10
0
20
0
30
0
3
DimnDraft3D4
0
MTEXT
5
13D
100
AcDbEntity
8
2
62
256
6
ByLayer
370
-1
48
1
60
0
100
AcDbMText
10
67.205827
20
-36.834311
30
0
210
0
220
0
230
1
1
\W01.000;\fsimplex.shx,bigfont.shx;93%%d0' 
40
4.5
41
0
44
1.084337
50
43.5
71
7
72
5
7
DEFAULT
0
LINE
5
13E
100
AcDbEntity
8
2
62
256
6
ByLayer
370
-1
48
1
60
0
100
AcDbLine
10
39.478976
20
-0.087666
30
0
11
36.92296
21
-48.859355
31
0
39
0
210
0
220
0
230
1
0
LINE
5
13F
100
AcDbEntity
8
2
62
256
6
ByLayer
370
-1
48
1
60
0
100
AcDbLine
10
41.95
20
0
30
0
11
88.409978
21
0
31
0
39
0
210
0
220
0
230
1
0
ARC
5
140
100
AcDbEntity
8
2
62
256
6
ByLayer
370
-1
48
1
60
0
100
AcDbCircle
39
0
10
39.483571
20
0
30
0
40
46.9264068782928
210
0
220
0
230
1
100
AcDbArc
50
267
51
0
0
LINE
5
141
100
AcDbEntity
8
2
62
256
6
ByLayer
370
-1
48
1
60
0
100
AcDbLine
10
37.027632
20
-46.862096
30
0
11
40.215451
21
-46.556897
31
0
39
0
210
0
220
0
230
1
0
LINE
5
142
100
AcDbEntity
8
2
62
256
6
ByLayer
370
-1
48
1
60
0
100
AcDbLine
10
37.027632
20
-46.862096
30
0
11
40.185823
21
-47.392365
31
0
39
0
210
0
220
0
230
1
0
LINE
5
143
100
AcDbEntity
8
2
62
256
6
ByLayer
370
-1
48
1
60
0
100
AcDbLine
10
40.215451
20
-46.556897
30
0
11
40.185823
21
-47.392365
31
0
39
0
210
0
220
0
230
1
0
LINE
5
144
100
AcDbEntity
8
2
62
256
6
ByLayer
370
-1
48
1
60
0
100
AcDbLine
10
86.409978
20
0
30
0
11
86.774233
21
-3.181612
31
0
39
0
210
0
220
0
230
1
0
LINE
5
145
100
AcDbEntity
8
2
62
256
6
ByLayer
370
-1
48
1
60
0
100
AcDbLine
10
86.409978
20
0
30
0
11
85.938359
21
-3.16748
31
0
39
0
210
0
220
0
230
1
0
LINE
5
146
100
AcDbEntity
8
2
62
256
6
ByLayer
370
-1
48
1
60
0
100
AcDbLine
10
86.774233
20
-3.181612
30
0
11
85.938359
21
-3.16748
31
0
39
0
210
0
220
0
230
1
0
ENDBLK
5
148
100
AcDbEntity
8
0
100
AcDbBlockEnd
0
ENDSEC
0
SECTION
2
ENTITIES
0
ELLIPSE
5
8D
100
AcDbEntity
8
1
62
256
6
ByLayer
370
-1
48
1
60
0
100
AcDbEllipse
10
33.422727
20
-2.09672
30
0
11
-1.0485610114923
21
0.0549527540550895
31
0
210
0
220
0
230
1
40
0.992029
41
-2.78398620744039
42
-2.66258142515867
0
ELLIPSE
5
8E
100
AcDbEntity
8
1
62
256
6
ByLayer
370
-1
48
1
60
0
100
AcDbEllipse
10
33.422727
20
-2.09672
30
0
11
-1.0485610114923
21
0.0549527540550895
31
0
210
0
220
0
230
1
40
0.992029
41
-1.19431338480954
42
-0.130643513891357
0
ELLIPSE
5
8F
100
AcDbEntity
8
1
62
256
6
ByLayer
370
-1
48
1
60
0
100
AcDbEllipse
10
33.259126
20
-0.781164
30
0
11
-1.24828691844322
21
0.0654199453036782
31
0
210
0
220
0
230
1
40
0.992029
41
-0.959931088596851
42
0.862027290779753
0
ELLIPSE
5
90
100
AcDbEntity
8
1
62
256
6
ByLayer
370
-1
48
1
60
0
100
AcDbEllipse
10
33.41976
20
-2.153347
30
0
11
-1.0485610114923
21
0.0549527540550895
31
0
210
0
220
0
230
1
40
0.992029
41
-2.983520463061
42
-2.61781954052437
0
ELLIPSE
5
91
100
AcDbEntity
8
1
62
256
6
ByLayer
370
-1
48
1
60
0
100
AcDbEllipse
10
33.41976
20
-2.153347
30
0
11
-1.0485610114923
21
0.0549527540550895
31
0
210
0
220
0
230
1
40
0.992029
41
-1.19438345238158
42
-0.158050267130769
0
ELLIPSE
5
92
100
AcDbEntity
8
1
62
256
6
ByLayer
370
-1
48
1
60
0
100
AcDbEllipse
10
32.728694
20
8.926235
30
0
11
-4.19424404596921
21
0.219811016220358
31
0
210
0
220
0
230
1
40
0.992029
41
1.35620492926804
42
1.78284394689583
0
ELLIPSE
5
93
100
AcDbEntity
8
1
62
256
6
ByLayer
370
-1
48
1
60
0
100
AcDbEllipse
10
33.244927
20
-1.052101
30
0
11
-1.24828691844322
21
0.0654199453036782
31
0
210
0
220
0
230
1
40
0.992029
41
-0.959931088596884
42
-0.10958890969631
0
ELLIPSE
5
94
100
AcDbEntity
8
1
62
256
6
ByLayer
370
-1
48
1
60
0
100
AcDbEllipse
10
174.683759
20
-0.001011
30
0
11
772.209532286453
21
-0.641253166281387
31
0
210
0
220
0
230
-1
40
0.006541
41
1.75080080230427
42
1.75466348348979
0
ELLIPSE
5
95
100
AcDbEntity
8
1
62
256
6
ByLayer
370
-1
48
1
60
0
100
AcDbEllipse
10
33.436927
20
-1.825783
30
0
11
1.0485610114923
21
-0.0549527540551008
31
0
210
0
220
0
230
1
40
0.992029
41
3.05268057580771
42
0.263164752213138
0
ELLIPSE
5
96
100
AcDbEntity
8
1
62
256
6
ByLayer
370
-1
48
1
60
0
100
AcDbEllipse
10
43.254976
20
2.772059
30
0
11
-4.19424404596917
21
0.219811016220356
31
0
210
0
220
0
230
1
40
0.992029
41
0.391928592698316
42
0.439975954790923
0
ELLIPSE
5
97
100
AcDbEntity
8
1
62
256
6
ByLayer
370
-1
48
1
60
0
100
AcDbEllipse
10
36.49662
20
3.267047
30
0
11
1.82225885974134
21
-0.0955005401179077
31
0
210
0
220
0
230
1
40
0.992029
41
-1.26585255926717
42
-2.45324085689518E-16
0
ELLIPSE
5
98
100
AcDbEntity
8
1
62
256
6
ByLayer
370
-1
48
1
60
0
100
AcDbEllipse
10
36.49662
20
3.267047
30
0
11
1.82225885974134
21
-0.0955005401179077
31
0
210
0
220
0
230
1
40
0.992029
41
0
42
0.0527795302679723
0
ELLIPSE
5
99
100
AcDbEntity
8
1
62
256
6
ByLayer
370
-1
48
1
60
0
100
AcDbEllipse
10
36.49662
20
3.267047
30
0
11
1.82225885974134
21
-0.0955005401179077
31
0
210
0
220
0
230
1
40
0.992029
41
0.0527798324824231
42
-1.87571416904063
0
ELLIPSE
5
9A
100
AcDbEntity
8
1
62
256
6
ByLayer
370
-1
48
1
60
0
100
AcDbEllipse
10
36.497585
20
3.285464
30
0
11
1.87243037766482
21
-0.0981299179555371
31
0
210
0
220
0
230
1
40
0.992029
41
-0.565179392302793
42
-2.38750660098345E-16
0
ELLIPSE
5
9B
100
AcDbEntity
8
1
62
256
6
ByLayer
370
-1
48
1
60
0
100
AcDbEllipse
10
36.497585
20
3.285464
30
0
11
1.87243037766482
21
-0.0981299179555371
31
0
210
0
220
0
230
1
40
0.992029
41
0
42
0.0527797738744657
0
ELLIPSE
5
9C
100
AcDbEntity
8
1
62
256
6
ByLayer
370
-1
48
1
60
0
100
AcDbEllipse
10
36.497585
20
3.285464
30
0
11
1.87243037766482
21
-0.0981299179555371
31
0
210
0
220
0
230
1
40
0.992029
41
0.0527799287174626
42
-2.57638770604698
0
ELLIPSE
5
9D
100
AcDbEntity
8
1
62
256
6
ByLayer
370
-1
48
1
60
0
100
AcDbEllipse
10
36.501739
20
3.364741
30
0
11
1.91642389486198
21
-0.100435520494691
31
0
210
0
220
0
230
1
40
0.992029
41
0
42
6.28318530717959
0
ELLIPSE
5
9E
100
AcDbEntity
8
1
62
256
6
ByLayer
370
-1
48
1
60
0
100
AcDbEllipse
10
39.553134
20
8.50628
30
0
11
0.396331096605807
21
-0.0207708326339266
31
0
210
0
220
0
230
1
40
0.992029
41
0
42
2.18166156499298
0
ELLIPSE
5
9F
100
AcDbEntity
8
1
62
256
6
ByLayer
370
-1
48
1
60
0
100
AcDbEllipse
10
33.450345
20
-1.776798
30
0
11
0.396331096605807
21
-0.0207708326339266
31
0
210
0
220
0
230
1
40
0.992029
41
-3.14159265358955
42
-0.959931088596505
0
ELLIPSE
5
A0
100
AcDbEntity
8
1
62
256
6
ByLayer
370
-1
48
1
60
0
100
AcDbEllipse
10
33.802507
20
4.942843
30
0
11
0.396331096605764
21
-0.0207708326339243
31
0
210
0
220
0
230
1
40
0.992029
41
2.18166156499297
42
3.14159265358978
0
ELLIPSE
5
A1
100
AcDbEntity
8
1
62
256
6
ByLayer
370
-1
48
1
60
0
100
AcDbEllipse
10
39.200972
20
1.786638
30
0
11
0.396331096605764
21
-0.0207708326339243
31
0
210
0
220
0
230
1
40
0.992029
41
-0.959931088596692
42
2.3405084395465E-13
0
ELLIPSE
5
A2
100
AcDbEntity
8
1
62
256
6
ByLayer
370
-1
48
1
60
0
100
AcDbEllipse
10
35.644939
20
3.24116
30
0
11
-0.184746463929596
21
0.00968215190494435
31
0
210
0
220
0
230
1
40
0.992029
41
-1.25705174419054
42
-0.341093277874005
0
ELLIPSE
5
A3
100
AcDbEntity
8
1
62
256
6
ByLayer
370
-1
48
1
60
0
100
AcDbEllipse
10
35.487838
20
3.822946
30
0
11
-0.42142166366643
21
0.0220857735345217
31
0
210
0
220
0
230
1
40
0.992029
41
1.8845409093995
42
2.59471378697442
0
ELLIPSE
5
A4
100
AcDbEntity
8
1
62
256
6
ByLayer
370
-1
48
1
60
0
100
AcDbEllipse
10
36.076672
20
3.968623
30
0
11
-0.184746463929596
21
0.00968215190494435
31
0
210
0
220
0
230
1
40
0.992029
41
-2.30249181317747
42
-0.383938297291235
0
ELLIPSE
5
A5
100
AcDbEntity
8
1
62
256
6
ByLayer
370
-1
48
1
60
0
100
AcDbEllipse
10
36.505121
20
4.394818
30
0
11
-0.42142166366643
21
0.0220857735345217
31
0
210
0
220
0
230
1
40
0.992029
41
0.839100840412364
42
1.61400056826478
0
ELLIPSE
5
A6
100
AcDbEntity
8
1
62
256
6
ByLayer
370
-1
48
1
60
0
100
AcDbEllipse
10
36.92599
20
3.960554
30
0
11
-0.184746463929596
21
0.00968215190494435
31
0
210
0
220
0
230
1
40
0.992029
41
-2.72957061416728
42
-0.752692357472627
0
ELLIPSE
5
A7
100
AcDbEntity
8
1
62
256
6
ByLayer
370
-1
48
1
60
0
100
AcDbEllipse
10
37.512703
20
3.805736
30
0
11
-0.42142166366643
21
0.0220857735345217
31
0
210
0
220
0
230
1
40
0.992029
41
1.05484631466333E-05
42
0.567660996728105
0
ELLIPSE
5
A8
100
AcDbEntity
8
1
62
256
6
ByLayer
370
-1
48
1
60
0
100
AcDbEllipse
10
37.344854
20
3.227182
30
0
11
-0.184746463929596
21
0.00968215190494435
31
0
210
0
220
0
230
1
40
0.992029
41
-2.77607896027767
42
-1.79903192900923
0
ELLIPSE
5
A9
100
AcDbEntity
8
1
62
256
6
ByLayer
370
-1
48
1
60
0
100
AcDbEllipse
10
36.494897
20
3.234171
30
0
11
-0.746974891996423
21
0.0391472952697211
31
0
210
0
220
0
230
1
40
0.992029
41
1.92320177051856
42
2.55261877997625
0
ELLIPSE
5
AA
100
AcDbEntity
8
1
62
256
6
ByLayer
370
-1
48
1
60
0
100
AcDbEllipse
10
36.500399
20
3.339156
30
0
11
0.746974891996421
21
-0.039147295269729
31
0
210
0
220
0
230
1
40
0.992029
41
2.62389575737402
42
2.69935846120862
0
ELLIPSE
5
AB
100
AcDbEntity
8
1
62
256
6
ByLayer
370
-1
48
1
60
0
100
AcDbEllipse
10
36.501491
20
3.360007
30
0
11
1.03358156847099
21
-0.0541677147114569
31
0
210
0
220
0
230
1
40
0.992029
41
-2.05076187109329
42
-1.00442229955657
0
ELLIPSE
5
AC
100
AcDbEntity
8
1
62
256
6
ByLayer
370
-1
48
1
60
0
100
AcDbEllipse
10
37.501955
20
2.645395
30
0
11
-0.42142166366643
21
0.0220857735345217
31
0
210
0
220
0
230
1
40
0.992029
41
-8.36424668712781E-06
42
0.297120655593546
0
ELLIPSE
5
AD
100
AcDbEntity
8
1
62
256
6
ByLayer
370
-1
48
1
60
0
100
AcDbEllipse
10
36.501491
20
3.360007
30
0
11
1.03358156847099
21
-0.0541677147114569
31
0
210
0
220
0
230
1
40
0.992029
41
-3.09710144263004
42
-2.05076187109329
0
ELLIPSE
5
AE
100
AcDbEntity
8
1
62
256
6
ByLayer
370
-1
48
1
60
0
100
AcDbEllipse
10
36.494897
20
3.234171
30
0
11
-0.746974891996423
21
0.0391472952697211
31
0
210
0
220
0
230
1
40
0.992029
41
0.680943343900729
42
1.30783122874853
0
ELLIPSE
5
AF
100
AcDbEntity
8
1
62
256
6
ByLayer
370
-1
48
1
60
0
100
AcDbEllipse
10
36.500399
20
3.339156
30
0
11
0.746974891996421
21
-0.039147295269729
31
0
210
0
220
0
230
1
40
0.992029
41
-0.517696896215209
42
-0.442234192381633
0
ELLIPSE
5
B0
100
AcDbEntity
8
1
62
256
6
ByLayer
370
-1
48
1
60
0
100
AcDbEllipse
10
36.494897
20
3.234171
30
0
11
0.746974891996423
21
-0.0391472952697291
31
0
210
0
220
0
230
1
40
0.992029
41
0.567660996728077
42
1.61400056826475
0
ELLIPSE
5
B1
100
AcDbEntity
8
1
62
256
6
ByLayer
370
-1
48
1
60
0
100
AcDbEllipse
10
36.494897
20
3.234171
30
0
11
-0.746974891996423
21
0.0391472952697211
31
0
210
0
220
0
230
1
40
0.992029
41
-1.52759208532502
42
-0.517696896215941
0
ELLIPSE
5
B2
100
AcDbEntity
8
1
62
256
6
ByLayer
370
-1
48
1
60
0
100
AcDbEllipse
10
36.501491
20
3.360007
30
0
11
1.03358156847099
21
-0.0541677147114569
31
0
210
0
220
0
230
1
40
0.992029
41
-1.00442229955657
42
0.0444912109597397
0
ELLIPSE
5
B3
100
AcDbEntity
8
1
62
256
6
ByLayer
370
-1
48
1
60
0
100
AcDbEllipse
10
36.505121
20
4.394818
30
0
11
-0.42142166366643
21
0.0220857735345217
31
0
210
0
220
0
230
1
40
0.992029
41
1.61400056826478
42
2.38890029611726
0
ELLIPSE
5
B4
100
AcDbEntity
8
1
62
256
6
ByLayer
370
-1
48
1
60
0
100
AcDbEllipse
10
36.501491
20
3.360007
30
0
11
1.03358156847099
21
-0.0541677147114569
31
0
210
0
220
0
230
1
40
0.992029
41
2.1371703540331
42
-3.09710144263004
0
ELLIPSE
5
B5
100
AcDbEntity
8
1
62
256
6
ByLayer
370
-1
48
1
60
0
100
AcDbEllipse
10
36.494897
20
3.234171
30
0
11
0.746974891996423
21
-0.0391472952697291
31
0
210
0
220
0
230
1
40
0.992029
41
2.62389575737384
42
2.69935846120878
0
ELLIPSE
5
B6
100
AcDbEntity
8
1
62
256
6
ByLayer
370
-1
48
1
60
0
100
AcDbEllipse
10
36.501491
20
3.360007
30
0
11
1.03358156847099
21
-0.0541677147114569
31
0
210
0
220
0
230
1
40
0.992029
41
0.0444912109597393
42
1.09083078249644
0
ELLIPSE
5
B7
100
AcDbEntity
8
1
62
256
6
ByLayer
370
-1
48
1
60
0
100
AcDbEllipse
10
35.487838
20
3.822946
30
0
11
-0.42142166366643
21
0.0220857735345217
31
0
210
0
220
0
230
1
40
0.992029
41
2.72854043160823
42
3.14158478301129
0
ELLIPSE
5
B8
100
AcDbEntity
8
1
62
256
6
ByLayer
370
-1
48
1
60
0
100
AcDbEllipse
10
36.494897
20
3.234171
30
0
11
-0.746974891996423
21
0.0391472952697211
31
0
210
0
220
0
230
1
40
0.992029
41
-0.442234192381001
42
0.282665230823669
0
ELLIPSE
5
B9
100
AcDbEntity
8
1
62
256
6
ByLayer
370
-1
48
1
60
0
100
AcDbEllipse
10
36.501491
20
3.360007
30
0
11
1.03358156847099
21
-0.0541677147114569
31
0
210
0
220
0
230
1
40
0.992029
41
1.09083078249644
42
2.1371703540331
0
ELLIPSE
5
BA
100
AcDbEntity
8
1
62
256
6
ByLayer
370
-1
48
1
60
0
100
AcDbEllipse
10
36.494897
20
3.234171
30
0
11
-0.746974891996423
21
0.0391472952697211
31
0
210
0
220
0
230
1
40
0.992029
41
2.91890006845583
42
-2.57393165686171
0
ELLIPSE
5
BB
100
AcDbEntity
8
1
62
256
6
ByLayer
370
-1
48
1
60
0
100
AcDbEllipse
10
37.512703
20
3.805736
30
0
11
-0.42142166366643
21
0.0220857735345217
31
0
210
0
220
0
230
1
40
0.992029
41
0.567660996728105
42
1.3425607245806
0
ELLIPSE
5
BC
100
AcDbEntity
8
1
62
256
6
ByLayer
370
-1
48
1
60
0
100
AcDbEllipse
10
36.495556
20
3.246755
30
0
11
1.72263594745164
21
-0.0902795245190944
31
0
210
0
220
0
230
1
40
0.992029
41
3.1415073080915
42
-2.59511587063417E-16
0
ELLIPSE
5
BD
100
AcDbEntity
8
1
62
256
6
ByLayer
370
-1
48
1
60
0
100
AcDbEllipse
10
36.501491
20
3.360007
30
0
11
1.29821839518097
21
-0.0680367431158405
31
0
210
0
220
0
230
1
40
0.992029
41
0
42
6.28318530717959
0
ELLIPSE
5
BE
100
AcDbEntity
8
1
62
256
6
ByLayer
370
-1
48
1
60
0
100
AcDbEllipse
10
36.500344
20
3.338121
30
0
11
1.72263594745164
21
-0.0902795245190944
31
0
210
0
220
0
230
1
40
0.992029
41
0
42
6.28318530717959
0
POINT
5
41
100
AcDbEntity
8
80
62
256
6
ByLayer
370
-1
48
1
60
0
100
AcDbPoint
10
0
20
0
30
0
39
0
210
0
220
0
230
1
50
360
0
POINT
5
43
100
AcDbEntity
8
81
62
256
6
ByLayer
370
-1
48
1
60
0
100
AcDbPoint
10
39.95
20
8.9
30
0
39
0
210
0
220
0
230
1
50
360
0
POINT
5
45
100
AcDbEntity
8
1
62
256
6
ByLayer
370
-1
48
1
60
0
100
AcDbPoint
10
-86.3
20
0
30
0
39
0
210
0
220
0
230
1
50
360
0
POINT
5
47
100
AcDbEntity
8
2
62
256
6
ByLayer
370
-1
48
1
60
0
100
AcDbPoint
10
39.95
20
8.9
30
0
39
0
210
0
220
0
230
1
50
360
0
POINT
5
49
100
AcDbEntity
8
2
62
256
6
ByLayer
370
-1
48
1
60
0
100
AcDbPoint
10
39.714844
20
7.830152
30
0
39
0
210
0
220
0
230
1
50
360
0
SPLINE
5
BF
100
AcDbEntity
8
1
62
256
6
ByLayer
370
-1
48
1
60
0
100
AcDbSpline
70
4
71
3
72
8
73
4
40
0
40
0
40
0
40
0
40
1
40
1
40
1
40
1
41
1
10
33.4943244294563
20
-4.84982143857934
30
0
41
1
10
33.4941092455047
20
-5.01034697754028
30
0
41
1
10
33.4939126142245
20
-5.09275
30
0
41
1
10
33.4937397908542
20
-5.09275
30
0
0
SPLINE
5
C0
100
AcDbEntity
8
1
62
256
6
ByLayer
370
-1
48
1
60
0
100
AcDbSpline
70
4
71
2
72
6
73
3
40
0
40
0
40
0
40
1
40
1
40
1
41
0.49999980423895
10
29.8338154517921
20
4.98267468668158
30
0
41
0.50000019576105
10
30.581622890483
20
4.98300915816579
30
0
41
0.49999980423895
10
31.3297225907687
20
4.98333353924747
30
0
0
SPLINE
5
C1
100
AcDbEntity
8
1
62
256
6
ByLayer
370
-1
48
1
60
0
100
AcDbSpline
70
4
71
3
72
8
73
4
40
0
40
0
40
0
40
0
40
1
40
1
40
1
40
1
41
1
10
31.404722590773
20
4.9075673796026
30
0
41
1
10
31.3797260176789
20
4.93282610428187
30
0
41
1
10
31.3547259648186
20
4.95808144021888
30
0
41
1
10
31.329722590773
20
4.98333353924733
30
0
0
SPLINE
5
C2
100
AcDbEntity
8
1
62
256
6
ByLayer
370
-1
48
1
60
0
100
AcDbSpline
70
4
71
3
72
10
73
6
40
0
40
0
40
0
40
0
40
0.5
40
0.5
40
1
40
1
40
1
40
1
41
1
10
31.329722590773
20
-4.70360186887834
30
0
41
1
10
30.0119001159682
20
-4.59955932865859
30
0
41
1
10
28.8709468293752
20
-4.28426510278226
30
0
41
1
10
27.3345480718767
20
-2.72431668806499
30
0
41
1
10
26.9019904217183
20
-1.48517762042232
30
0
41
1
10
26.5261111825699
20
-0.204215349875938
30
0
0
SPLINE
5
C3
100
AcDbEntity
8
1
62
256
6
ByLayer
370
-1
48
1
60
0
100
AcDbSpline
70
4
71
3
72
50
73
46
40
-0.0197909549060165
40
-0.0197909549060165
40
0
40
0
40
0.0624425353979128
40
0.0624425353979128
40
0.107234320755104
40
0.107234320755104
40
0.144863066850747
40
0.144863066850747
40
0.182756129935924
40
0.182756129935924
40
0.216799093812786
40
0.216799093812786
40
0.250999524172506
40
0.250999524172506
40
0.288075177020623
40
0.288075177020623
40
0.329667006937972
40
0.329667006937972
40
0.377308952588792
40
0.377308952588792
40
0.433049858688228
40
0.433049858688228
40
0.499833363098083
40
0.499833363098083
40
0.580906008790037
40
0.580906008790037
40
0.646317941956842
40
0.646317941956842
40
0.675462101393218
40
0.675462101393218
40
0.700382375711343
40
0.700382375711343
40
0.717492381069342
40
0.717492381069342
40
0.73467784387109
40
0.73467784387109
40
0.756467676187962
40
0.756467676187962
40
0.795144651765015
40
0.795144651765015
40
0.881637770949831
40
0.881637770949831
40
0.980209045093984
40
0.980209045093984
40
1
40
1
40
1.06244253539791
40
1.06244253539791
41
1
10
27.8177998569246
20
1.47686485453801
30
0
41
1
10
27.6693898195942
20
1.39693195450326
30
0
41
1
10
27.5519612555897
20
1.35478195949483
30
0
41
1
10
27.3500852965949
20
1.33561288076231
30
0
41
1
10
27.2639214459822
20
1.34383411831237
30
0
41
1
10
27.1109351231013
20
1.39757653808778
30
0
41
1
10
27.0416301108053
20
1.43777747573282
30
0
41
1
10
26.913446807785
20
1.54803727555267
30
0
41
1
10
26.852765647736
20
1.62003603402238
30
0
41
1
10
26.7537598163095
20
1.77529353281418
30
0
41
1
10
26.7124149033917
20
1.85862525431065
30
0
41
1
10
26.6454098229138
20
2.03053719310105
30
0
41
1
10
26.618920855707
20
2.12125201860735
30
0
41
1
10
26.5806737845696
20
2.30608555782885
30
0
41
1
10
26.5698319032315
20
2.40212462467042
30
0
41
1
10
26.566377110694
20
2.59345324479548
30
0
41
1
10
26.5760849669003
20
2.68958394703469
30
0
41
1
10
26.6196470852127
20
2.87537602283192
30
0
41
1
10
26.6572984839545
20
2.96436043822922
30
0
41
1
10
26.7643715843396
20
3.12991219749324
30
0
41
1
10
26.8392687972755
20
3.20390507151882
30
0
41
1
10
27.0301579011221
20
3.33344350574086
30
0
41
1
10
27.1534141661624
20
3.38424242849308
30
0
41
1
10
27.4504923764949
20
3.45852683984771
30
0
41
1
10
27.6331254958157
20
3.47549306923847
30
0
41
1
10
27.977286147475
20
3.46334626309761
30
0
41
1
10
28.1396113594765
20
3.44316855152366
30
0
41
1
10
28.371419947803
20
3.37652758645774
30
0
41
1
10
28.4434635731151
20
3.35028355396793
30
0
41
1
10
28.5703884582003
20
3.28515474022802
30
0
41
1
10
28.6273993234603
20
3.24788353992807
30
0
41
1
10
28.7089905889763
20
3.16913684984115
30
0
41
1
10
28.7385811261653
20
3.13173837057983
30
0
41
1
10
28.7832871231152
20
3.05009826783549
30
0
41
1
10
28.7987698070397
20
3.00486620076072
30
0
41
1
10
28.8171885165513
20
2.90200674062001
30
0
41
1
10
28.8164423550608
20
2.84282226168295
30
0
41
1
10
28.7958411956179
20
2.68590467246636
30
0
41
1
10
28.762734592684
20
2.58990489406426
30
0
41
1
10
28.6342441503236
20
2.30089275069514
30
0
41
1
10
28.5099206771235
20
2.12347080163386
30
0
41
1
10
28.2283511304866
20
1.7892571599595
30
0
41
1
10
28.0619508779449
20
1.63458695698608
30
0
41
1
10
27.8534107029374
20
1.4981964674854
30
0
41
1
10
27.8177998569246
20
1.47686485453801
30
0
41
1
10
27.6693898195942
20
1.39693195450326
30
0
0
SPLINE
5
C4
100
AcDbEntity
8
1
62
256
6
ByLayer
370
-1
48
1
60
0
100
AcDbSpline
70
4
71
3
72
8
73
4
40
0
40
0
40
0
40
0
40
1
40
1
40
1
40
1
41
1
10
31.404722590773
20
-4.63459922895541
30
0
41
1
10
31.744379820577
20
-4.65907585715161
30
0
41
1
10
32.093326483019
20
-4.67082985713012
30
0
41
1
10
32.4407472347133
20
-4.67156051401611
30
0
0
SPLINE
5
C5
100
AcDbEntity
8
1
62
256
6
ByLayer
370
-1
48
1
60
0
100
AcDbSpline
70
4
71
2
72
6
73
3
40
0
40
0
40
0
40
1
40
1
40
1
41
0.499981606222077
10
31.6224798168951
20
4.90766578435141
30
0
41
0.500018393777923
10
31.5135980308307
20
4.90761669057545
30
0
41
0.499981606222077
10
31.4047225907729
20
4.90756737960262
30
0
0
SPLINE
5
C6
100
AcDbEntity
8
1
62
256
6
ByLayer
370
-1
48
1
60
0
100
AcDbSpline
70
4
71
3
72
14
73
10
40
0
40
0
40
0
40
0
40
0.25
40
0.25
40
0.5
40
0.5
40
0.75
40
0.75
40
1
40
1
40
1
40
1
41
1
10
26.4089104425378
20
0.204215349875938
30
0
41
1
10
26.1879037681193
20
0.990889423994531
30
0
41
1
10
25.9817950353885
20
1.7729642875982
30
0
41
1
10
25.7362959374756
20
3.17343037014587
30
0
41
1
10
25.7079138837232
20
3.7990149714563
30
0
41
1
10
26.2199058128807
20
4.62886925427279
30
0
41
1
10
26.7832981594819
20
4.8191083795555
30
0
41
1
10
28.1863281736319
20
4.98152986857943
30
0
41
1
10
29.0094887030812
20
4.98230599044129
30
0
41
1
10
29.8338154517926
20
4.98267468668158
30
0
0
SPLINE
5
C7
100
AcDbEntity
8
1
62
256
6
ByLayer
370
-1
48
1
60
0
100
AcDbSpline
70
4
71
3
72
8
73
4
40
0
40
0
40
0
40
0
40
1
40
1
40
1
40
1
41
1
10
31.3853372391507
20
4.93813079447614
30
0
41
1
10
31.3696978605583
20
4.95374851292809
30
0
41
1
10
31.3511088427889
20
4.97038533147636
30
0
41
1
10
31.3297225907795
20
4.98807538023226
30
0
0
SPLINE
5
C8
100
AcDbEntity
8
1
62
256
6
ByLayer
370
-1
48
1
60
0
100
AcDbSpline
70
4
71
3
72
8
73
4
40
0
40
0
40
0
40
0
40
1
40
1
40
1
40
1
41
1
10
31.2332685721968
20
4.99366254823281
30
0
41
1
10
31.2603541986802
20
4.99358365429046
30
0
41
1
10
31.2925496105354
20
4.99164460018727
30
0
41
1
10
31.3297225907693
20
4.988075380238
30
0
0
SPLINE
5
C9
100
AcDbEntity
8
1
62
256
6
ByLayer
370
-1
48
1
60
0
100
AcDbSpline
70
4
71
3
72
8
73
4
40
0
40
0
40
0
40
0
40
1
40
1
40
1
40
1
41
1
10
31.3297225907733
20
-4.70360186887822
30
0
41
1
10
31.3547116826016
20
-4.6807182915627
30
0
41
1
10
31.3797135570279
20
-4.65771511740755
30
0
41
1
10
31.4047225907733
20
-4.63459922895575
30
0
0
SPLINE
5
CA
100
AcDbEntity
8
1
62
256
6
ByLayer
370
-1
48
1
60
0
100
AcDbSpline
70
4
71
3
72
12
73
8
40
0
40
0
40
0
40
0
40
0.212360590492905
40
0.212360590492905
40
0.690055381869025
40
0.690055381869025
40
1
40
1
40
1
40
1
41
1
10
26.5261111825699
20
-0.204215349875938
30
0
41
1
10
26.5194544078038
20
-0.176082769057444
30
0
41
1
10
26.5122982806175
20
-0.147209939998817
30
0
41
1
10
26.4878386186417
20
-0.0528196782113355
30
0
41
1
10
26.46858432619
20
0.0149361796774485
30
0
41
1
10
26.4356680962931
20
0.122380415078965
30
0
41
1
10
26.4222499036528
20
0.164178721211442
30
0
41
1
10
26.4089104425378
20
0.204215349875938
30
0
0
SPLINE
5
CB
100
AcDbEntity
8
1
62
256
6
ByLayer
370
-1
48
1
60
0
100
AcDbSpline
70
4
71
2
72
6
73
3
40
0
40
0
40
0
40
1
40
1
40
1
41
0.499999566967011
10
32.440747234713
20
-4.67156051401611
30
0
41
0.500000433032989
10
32.8230684973808
20
-4.67236456979537
30
0
41
0.499999566967011
10
33.2054672593961
20
-4.67316607712385
30
0
0
SPLINE
5
CC
100
AcDbEntity
8
1
62
256
6
ByLayer
370
-1
48
1
60
0
100
AcDbSpline
70
4
71
3
72
8
73
4
40
0
40
0
40
0
40
0
40
1
40
1
40
1
40
1
41
1
10
31.6224798168951
20
4.90766578435139
30
0
41
1
10
31.5502625961656
20
4.91448910029746
30
0
41
1
10
31.4902020367906
20
4.91871417388938
30
0
41
1
10
31.4438835557327
20
4.91874970396898
30
0
0
SPLINE
5
CD
100
AcDbEntity
8
1
62
256
6
ByLayer
370
-1
48
1
60
0
100
AcDbSpline
70
4
71
3
72
8
73
4
40
0
40
0
40
0
40
0
40
1
40
1
40
1
40
1
41
1
10
33.4943244294562
20
-4.84982143857931
30
0
41
1
10
33.3980204606636
20
-4.79096571577927
30
0
41
1
10
33.3017340631051
20
-4.73208166018381
30
0
41
1
10
33.2054672593905
20
-4.67316607712405
30
0
0
SPLINE
5
CE
100
AcDbEntity
8
SK1
62
256
6
ByLayer
370
-1
48
1
60
0
100
AcDbSpline
70
4
71
3
72
22
73
18
40
0
40
0
40
0
40
0
40
0.24999999999999
40
0.24999999999999
40
0.374999999999985
40
0.374999999999985
40
0.499999999999979
40
0.499999999999979
40
0.531249999999979
40
0.531249999999979
40
0.562499999999978
40
0.562499999999978
40
0.624999999999981
40
0.624999999999981
40
0.749999999999988
40
0.749999999999988
40
1
40
1
40
1
40
1
41
1
10
-30.05
20
-0.204215349875994
30
0
41
1
10
-30.4584173658862
20
-0.204215349875994
30
0
41
1
10
-30.866722104743
20
-0.196763039806484
30
0
41
1
10
-31.4786574500246
20
-0.167803329741019
30
0
41
1
10
-31.6823165528718
20
-0.155331213204334
30
0
41
1
10
-32.0881416072523
20
-0.117201738211236
30
0
41
1
10
-32.3215263011859
20
-0.153024065835524
30
0
41
1
10
-32.526649850275
20
0.0110937548661809
30
0
41
1
10
-32.4394611138425
20
0.0476159018255089
30
0
41
1
10
-32.3387112251999
20
0.0749532783005975
30
0
41
1
10
-32.287434648311
20
0.0845555179087114
30
0
41
1
10
-32.1329017469475
20
0.110191072964795
30
0
41
1
10
-32.0291364237657
20
0.122128403615193
30
0
41
1
10
-31.7178483449737
20
0.152930775098497
30
0
41
1
10
-31.5097013066027
20
0.166021659542196
30
0
41
1
10
-30.8845245193119
20
0.196489492264334
30
0
41
1
10
-30.4673002522226
20
0.204215349875938
30
0
41
1
10
-30.05
20
0.204215349875938
30
0
0
SPLINE
5
CF
100
AcDbEntity
8
1
62
256
6
ByLayer
370
-1
48
1
60
0
100
AcDbSpline
70
4
71
3
72
16
73
12
40
0
40
0
40
0
40
0
40
0.0064235833537437
40
0.0064235833537437
40
0.327133713037221
40
0.327133713037221
40
0.647843850443109
40
0.647843850443109
40
0.968554011238254
40
0.968554011238254
40
1
40
1
40
1
40
1
41
1
10
33.3910897592745
20
-2.1714085714269
30
0
41
1
10
33.3912480826832
20
-2.17145930864194
30
0
41
1
10
33.3914064810098
20
-2.1715097797167
30
0
41
1
10
33.399476979971
20
-2.17406653879792
30
0
41
1
10
33.4076268422378
20
-2.1759255713072
30
0
41
1
10
33.4240667948475
20
-2.17827207554404
30
0
41
1
10
33.4324132705889
20
-2.17876759522838
30
0
41
1
10
33.449015686215
20
-2.17838277443937
30
0
41
1
10
33.4573285687005
20
-2.17750111401631
30
0
41
1
10
33.4662815072047
20
-2.17579609737788
30
0
41
1
10
33.4670799702811
20
-2.17563729249642
30
0
41
1
10
33.4678772824018
20
-2.17547197653749
30
0
0
SPLINE
5
D0
100
AcDbEntity
8
1
62
256
6
ByLayer
370
-1
48
1
60
0
100
AcDbSpline
70
4
71
3
72
18
73
14
40
0
40
0
40
0
40
0
40
0.202531629551585
40
0.202531629551585
40
0.380045188989625
40
0.380045188989625
40
0.559323799141232
40
0.559323799141232
40
0.714631285625988
40
0.714631285625988
40
0.918954330526368
40
0.918954330526368
40
1
40
1
40
1
40
1
41
1
10
36.2134004033483
20
4.21580207784945
30
0
41
1
10
36.2424088399366
20
4.18429438260495
30
0
41
1
10
36.2766469278552
20
4.15631477681447
30
0
41
1
10
36.3484489403244
20
4.11493146442098
30
0
41
1
10
36.3859574554904
20
4.09978305986706
30
0
41
1
10
36.4644781614881
20
4.08182513829598
30
0
41
1
10
36.5067234187345
20
4.07901358787697
30
0
41
1
10
36.5826615101207
20
4.08634117879879
30
0
41
1
10
36.6176537980201
20
4.09482383206176
30
0
41
1
10
36.692417655529
20
4.12352390378877
30
0
41
1
10
36.7315493529754
20
4.1469280547027
30
0
41
1
10
36.7789683313615
20
4.1857817960684
30
0
41
1
10
36.7918133479035
20
4.19767278334268
30
0
41
1
10
36.8038649180301
20
4.21019274010715
30
0
0
SPLINE
5
D1
100
AcDbEntity
8
1
62
256
6
ByLayer
370
-1
48
1
60
0
100
AcDbSpline
70
4
71
3
72
16
73
12
40
0
40
0
40
0
40
0
40
0.0473248171415595
40
0.0473248171415595
40
0.272258556536005
40
0.272258556536005
40
0.499066168504571
40
0.499066168504571
40
0.73953871576696
40
0.73953871576696
40
1
40
1
40
1
40
1
41
1
10
37.5364401020233
20
3.35149640787753
30
0
41
1
10
37.5364698365527
20
3.35545478219328
30
0
41
1
10
37.5363698999524
20
3.35940903627966
30
0
41
1
10
37.535061309748
20
3.3818907120633
30
0
41
1
10
37.5310092130285
20
3.40029482187464
30
0
41
1
10
37.5177866571293
20
3.43404308275575
30
0
41
1
10
37.508418544834
20
3.44979663647052
30
0
41
1
10
37.4853403923267
20
3.47765479046956
30
0
41
1
10
37.471129112407
20
3.48984422512322
30
0
41
1
10
37.4391646900126
20
3.50948708949329
30
0
41
1
10
37.4208348625876
20
3.51672409458459
30
0
41
1
10
37.4021576030776
20
3.52079686949298
30
0
0
SPLINE
5
D2
100
AcDbEntity
8
1
62
256
6
ByLayer
370
-1
48
1
60
0
100
AcDbSpline
70
4
71
3
72
14
73
10
40
0
40
0
40
0
40
0
40
0.0408659230250888
40
0.0408659230250888
40
0.378368312663639
40
0.378368312663639
40
0.823475716296097
40
0.823475716296097
40
1
40
1
40
1
40
1
41
1
10
35.8705251624338
20
3.73988987518598
30
0
41
1
10
35.8724731529053
20
3.74376988981157
30
0
41
1
10
35.8743604406212
20
3.74768490672287
30
0
41
1
10
35.8911157436336
20
3.78391078301473
30
0
41
1
10
35.9019007365131
20
3.81862334095189
30
0
41
1
10
35.9166095686911
20
3.89860399354211
30
0
41
1
10
35.9176503133575
20
3.94503679923943
30
0
41
1
10
35.9104064142533
20
4.00687931194992
30
0
41
1
10
35.9073395741895
20
4.02435105763698
30
0
41
1
10
35.9033531208079
20
4.04146689693604
30
0
0
SPLINE
5
D3
100
AcDbEntity
8
1
62
256
6
ByLayer
370
-1
48
1
60
0
100
AcDbSpline
70
4
71
3
72
18
73
14
40
0
40
0
40
0
40
0
40
0.203186071284531
40
0.203186071284531
40
0.380583439891605
40
0.380583439891605
40
0.559738263508739
40
0.559738263508739
40
0.715020194891885
40
0.715020194891885
40
0.919456836633727
40
0.919456836633727
40
1
40
1
40
1
40
1
41
1
10
37.1109533889183
20
4.03065390177957
30
0
41
1
10
37.1002328368007
20
3.98839887576491
30
0
41
1
10
37.0951221520489
20
3.9434790979879
30
0
41
1
10
37.0983757751659
20
3.85889707593731
30
0
41
1
10
37.1052546211203
20
3.81833531025205
30
0
41
1
10
37.1304898193303
20
3.74104918486944
30
0
41
1
10
37.149452927539
20
3.70327292087765
30
0
41
1
10
37.1932506395365
20
3.64224069095863
30
0
41
1
10
37.2174462818416
20
3.6169503242887
30
0
41
1
10
37.2775712718937
20
3.56870964162738
30
0
41
1
10
37.3157283145682
20
3.54806310597587
30
0
41
1
10
37.3703733841398
20
3.5287541076554
30
0
41
1
10
37.3862029582349
20
3.52427594934156
30
0
41
1
10
37.4021576030776
20
3.52079686949301
30
0
0
SPLINE
5
D4
100
AcDbEntity
8
1
62
256
6
ByLayer
370
-1
48
1
60
0
100
AcDbSpline
70
4
71
3
72
14
73
10
40
0
40
0
40
0
40
0
40
0.246248535883231
40
0.246248535883231
40
0.538251668984071
40
0.538251668984071
40
0.802411547194988
40
0.802411547194988
40
1
40
1
40
1
40
1
41
1
10
35.8911330154004
20
2.67225751502607
30
0
41
1
10
35.8864989767925
20
2.65587772323977
30
0
41
1
10
35.8844228487923
20
2.63829215601959
30
0
41
1
10
35.8863526067278
20
2.59951555534676
30
0
41
1
10
35.8916513148827
20
2.57762645507327
30
0
41
1
10
35.9098657082524
20
2.53869608598666
30
0
41
1
10
35.9223202013879
20
2.52081525497454
30
0
41
1
10
35.949033006486
20
2.49411317194071
30
0
41
1
10
35.9623027597546
20
2.48387084556444
30
0
41
1
10
35.9765721187703
20
2.4755282850835
30
0
0
SPLINE
5
D5
100
AcDbEntity
8
1
62
256
6
ByLayer
370
-1
48
1
60
0
100
AcDbSpline
70
4
71
3
72
16
73
12
40
0
40
0
40
0
40
0
40
0.0638783969850595
40
0.0638783969850595
40
0.288488572404529
40
0.288488572404529
40
0.515909392638795
40
0.515909392638795
40
0.757756222538126
40
0.757756222538126
40
1
40
1
40
1
40
1
41
1
10
35.4665425912416
20
3.36851722082059
30
0
41
1
10
35.4665025210756
20
3.36318292699579
30
0
41
1
10
35.4666967444098
20
3.35782650188989
30
0
41
1
10
35.4686133172157
20
3.33382809720561
30
0
41
1
10
35.4730447973622
20
3.31504416090121
30
0
41
1
10
35.4869212219897
20
3.27995544946225
30
0
41
1
10
35.4965911773442
20
3.26323270280096
30
0
41
1
10
35.5201996806103
20
3.2329225817798
30
0
41
1
10
35.5346503443704
20
3.21920954309636
30
0
41
1
10
35.5657256354843
20
3.19699264917878
30
0
41
1
10
35.5826723136536
20
3.18824089478599
30
0
41
1
10
35.5999288012412
20
3.18211454731266
30
0
0
SPLINE
5
D6
100
AcDbEntity
8
1
62
256
6
ByLayer
370
-1
48
1
60
0
100
AcDbSpline
70
4
71
3
72
18
73
14
40
0
40
0
40
0
40
0
40
0.212529039001837
40
0.212529039001837
40
0.388280617468671
40
0.388280617468671
40
0.565680458455712
40
0.565680458455712
40
0.720624903190627
40
0.720624903190627
40
0.926704197202859
40
0.926704197202859
40
1
40
1
40
1
40
1
41
1
10
36.7886860009688
20
2.48710933895805
30
0
41
1
10
36.7579500554231
20
2.51457504849534
30
0
41
1
10
36.7214337716354
20
2.53850313494345
30
0
41
1
10
36.6468481630254
20
2.57196804458283
30
0
41
1
10
36.6092535473302
20
2.5835842661287
30
0
41
1
10
36.5309972006517
20
2.59701230489876
30
0
41
1
10
36.4891388843841
20
2.59884180484991
30
0
41
1
10
36.4139238936481
20
2.59250665301894
30
0
41
1
10
36.3792593603648
20
2.58554428699011
30
0
41
1
10
36.3049132241562
20
2.56194284490425
30
0
41
1
10
36.2660066265544
20
2.5425738228694
30
0
41
1
10
36.2204577690698
20
2.51098608262123
30
0
41
1
10
36.2090150623079
20
2.50208647984763
30
0
41
1
10
36.1982214862886
20
2.49271867669827
30
0
0
SPLINE
5
D7
100
AcDbEntity
8
1
62
256
6
ByLayer
370
-1
48
1
60
0
100
AcDbSpline
70
4
71
3
72
18
73
14
40
0
40
0
40
0
40
0
40
0.0808141096386507
40
0.0808141096386507
40
0.283077876294454
40
0.283077876294454
40
0.447079626597967
40
0.447079626597967
40
0.611894536160902
40
0.611894536160902
40
0.766319849166241
40
0.766319849166241
40
1
40
1
40
1
40
1
41
1
10
35.8911330154006
20
2.67225751502605
30
0
41
1
10
35.8953061703404
20
2.68700823568028
30
0
41
1
10
35.8985823942464
20
2.70217936063807
30
0
41
1
10
35.9066302836718
20
2.75628790250795
30
0
41
1
10
35.9063349574724
20
2.79769357613051
30
0
41
1
10
35.8928423493659
20
2.87341976228978
30
0
41
1
10
35.8818481203093
20
2.90843825778234
30
0
41
1
10
35.8505514658493
20
2.97540086056233
30
0
41
1
10
35.8297543094874
20
3.00818826248104
30
0
41
1
10
35.7834082135518
20
3.06457241438582
30
0
41
1
10
35.7577488301266
20
3.08931086507042
30
0
41
1
10
35.6901351943984
20
3.14186556919714
30
0
41
1
10
35.6452527707786
20
3.1660237649418
30
0
41
1
10
35.5999288012412
20
3.18211454731269
30
0
0
SPLINE
5
D8
100
AcDbEntity
8
1
62
256
6
ByLayer
370
-1
48
1
60
0
100
AcDbSpline
70
4
71
3
72
14
73
10
40
0
40
0
40
0
40
0
40
0.050949702283191
40
0.050949702283191
40
0.387626223356312
40
0.387626223356312
40
0.835144276720354
40
0.835144276720354
40
1
40
1
40
1
40
1
41
1
10
37.1302720280837
20
2.9384218768522
30
0
41
1
10
37.1278480771732
20
2.93366738754335
30
0
41
1
10
37.1255195579834
20
2.92888163088361
30
0
41
1
10
37.1086794515269
20
2.89256553162519
30
0
41
1
10
37.098273792138
20
2.85972312603559
30
0
41
1
10
37.0843895810054
20
2.7854026689775
30
0
41
1
10
37.0839277263806
20
2.74335083145272
30
0
41
1
10
37.0918958665266
20
2.68955502207427
30
0
41
1
10
37.0949125301391
20
2.67527987596378
30
0
41
1
10
37.098728913332
20
2.66136113188853
30
0
0
SPLINE
5
D9
100
AcDbEntity
8
1
62
256
6
ByLayer
370
-1
48
1
60
0
100
AcDbSpline
70
4
71
3
72
14
73
10
40
0
40
0
40
0
40
0
40
0.281707882974637
40
0.281707882974637
40
0.569273570142208
40
0.569273570142208
40
0.829816619826967
40
0.829816619826967
40
1
40
1
40
1
40
1
41
1
10
36.2134004033483
20
4.21580207784947
30
0
41
1
10
36.1986295436664
20
4.23184553968602
30
0
41
1
10
36.1808167574983
20
4.24571934783771
30
0
41
1
10
36.1410647041128
20
4.26645419328398
30
0
41
1
10
36.1184131293577
20
4.27344737233312
30
0
41
1
10
36.0743632934908
20
4.2778461184285
30
0
41
1
10
36.0523809528981
20
4.27611894330875
30
0
41
1
10
36.0180073114309
20
4.26672088594307
30
0
41
1
10
36.004664223471
20
4.2612649410365
30
0
41
1
10
35.9922416895619
20
4.25430981640176
30
0
0
SPLINE
5
DA
100
AcDbEntity
8
1
62
256
6
ByLayer
370
-1
48
1
60
0
100
AcDbSpline
70
4
71
3
72
14
73
10
40
0
40
0
40
0
40
0
40
0.282188954218811
40
0.282188954218811
40
0.569133807557403
40
0.569133807557403
40
0.829093230662053
40
0.829093230662053
40
1
40
1
40
1
40
1
41
1
10
35.603202277478
20
3.53571865535028
30
0
41
1
10
35.5829491486412
20
3.53169905735913
30
0
41
1
10
35.5630080248906
20
3.52391719196658
30
0
41
1
10
35.5270188518738
20
3.50114123714045
30
0
41
1
10
35.5105074434708
20
3.48564102335155
30
0
41
1
10
35.4859931180808
20
3.45066146939462
30
0
41
1
10
35.4769977080866
20
3.43114422977172
30
0
41
1
10
35.4684591031763
20
3.39702743668872
30
0
41
1
10
35.4666496793739
20
3.38277320272954
30
0
41
1
10
35.4665425912416
20
3.36851722082059
30
0
0
SPLINE
5
DB
100
AcDbEntity
8
1
62
256
6
ByLayer
370
-1
48
1
60
0
100
AcDbSpline
70
4
71
3
72
18
73
14
40
0
40
0
40
0
40
0
40
0.0415871275910516
40
0.0415871275910516
40
0.266016169662664
40
0.266016169662664
40
0.491993915041308
40
0.491993915041308
40
0.731337962352975
40
0.731337962352975
40
0.993401286871984
40
0.993401286871984
40
1
40
1
40
1
40
1
41
1
10
37.0107410037032
20
2.46570381229643
30
0
41
1
10
37.0138039644928
20
2.46741870188327
30
0
41
1
10
37.0168186901394
20
2.46921527850316
30
0
41
1
10
37.035593607042
20
2.48110412812841
30
0
41
1
10
37.0499746980635
20
2.49352643044475
30
0
41
1
10
37.0737712188154
20
2.52110632678435
30
0
41
1
10
37.0834664964183
20
2.53662586530695
30
0
41
1
10
37.0977511045205
20
2.56944837497687
30
0
41
1
10
37.1022018663972
20
2.58720710458687
30
0
41
1
10
37.1054570066693
20
2.62351264892413
30
0
41
1
10
37.1037487359748
20
2.64242889014119
30
0
41
1
10
37.0989718391384
20
2.66046750814797
30
0
41
1
10
37.0988513265293
20
2.66091467830219
30
0
41
1
10
37.0987289133321
20
2.66136113188853
30
0
0
SPLINE
5
DC
100
AcDbEntity
8
1
62
256
6
ByLayer
370
-1
48
1
60
0
100
AcDbSpline
70
4
71
3
72
16
73
12
40
0
40
0
40
0
40
0
40
0.077382467344126
40
0.077382467344126
40
0.393169299578724
40
0.393169299578724
40
0.67548005849159
40
0.67548005849159
40
0.924660118277382
40
0.924660118277382
40
1
40
1
40
1
40
1
41
1
10
37.1109533889196
20
4.030653901779
30
0
41
1
10
37.1124578141653
20
4.03658358965308
30
0
41
1
10
37.1137066323349
20
4.04260726351683
30
0
41
1
10
37.1186361468889
20
4.07326825809929
30
0
41
1
10
37.1181194201425
20
4.09945513924475
30
0
41
1
10
37.1075514520049
20
4.14692233053296
30
0
41
1
10
37.0983015134054
20
4.16915912714879
30
0
41
1
10
37.073840391115
20
4.20593806106743
30
0
41
1
10
37.0590733633597
20
4.22159876132361
30
0
41
1
10
37.0372110720513
20
4.23777184432251
30
0
41
1
10
37.0318903566619
20
4.24128159675382
30
0
41
1
10
37.0264105744946
20
4.24448534361463
30
0
0
SPLINE
5
DD
100
AcDbEntity
8
1
62
256
6
ByLayer
370
-1
48
1
60
0
100
AcDbSpline
70
4
71
3
72
12
73
8
40
0
40
0
40
0
40
0
40
0.462753666795991
40
0.462753666795991
40
0.844442931868919
40
0.844442931868919
40
1
40
1
40
1
40
1
41
1
10
37.3988797566614
20
3.16710937347415
30
0
41
1
10
37.3568971668023
20
3.15321065620762
30
0
41
1
10
37.3152575858052
20
3.13260764496945
30
0
41
1
10
37.2451734063865
20
3.08349010444451
30
0
41
1
10
37.2149583996651
20
3.05637141593073
30
0
41
1
10
37.1782127629367
20
3.01334975209207
30
0
41
1
10
37.1681530628489
20
3.0002171313549
30
0
41
1
10
37.1588929117796
20
2.98664750047962
30
0
0
SPLINE
5
DE
100
AcDbEntity
8
1
62
256
6
ByLayer
370
-1
48
1
60
0
100
AcDbSpline
70
4
71
3
72
14
73
10
40
0
40
0
40
0
40
0
40
0.249169627199006
40
0.249169627199006
40
0.540807793069254
40
0.540807793069254
40
0.804663904150219
40
0.804663904150219
40
1
40
1
40
1
40
1
41
1
10
36.7886860009688
20
2.48710933895799
30
0
41
1
10
36.8018823035347
20
2.47531709353296
30
0
41
1
10
36.8174195099133
20
2.4651291205823
30
0
41
1
10
36.8544775163756
20
2.44839071376921
30
0
41
1
10
36.8771983584362
20
2.44253265159878
30
0
41
1
10
36.9216855121484
20
2.43951800750872
30
0
41
1
10
36.9440158882177
20
2.44157814922033
30
0
41
1
10
36.9809916030468
20
2.45145673580728
30
0
41
1
10
36.996490652064
20
2.45772532960805
30
0
41
1
10
37.0107410037032
20
2.46570381229643
30
0
0
SPLINE
5
DF
100
AcDbEntity
8
1
62
256
6
ByLayer
370
-1
48
1
60
0
100
AcDbSpline
70
4
71
3
72
16
73
12
40
0
40
0
40
0
40
0
40
0.0648108843864053
40
0.0648108843864053
40
0.28873891514811
40
0.28873891514811
40
0.5155323049027
40
0.5155323049027
40
0.756760256041826
40
0.756760256041826
40
1
40
1
40
1
40
1
41
1
10
35.9922416895619
20
4.25430981640176
30
0
41
1
10
35.9874786282932
20
4.25164307505827
30
0
41
1
10
35.9828288619758
20
4.24874829988889
30
0
41
1
10
35.9628671486859
20
4.23500079597065
30
0
41
1
10
35.9489199149463
20
4.22166922505548
30
0
41
1
10
35.9259562379651
20
4.19176531864261
30
0
41
1
10
35.9167010185049
20
4.17478248095793
30
0
41
1
10
35.9033041515277
20
4.13855546640568
30
0
41
1
10
35.8993388143262
20
4.1187899022743
30
0
41
1
10
35.8971936726332
20
4.07976960935741
30
0
41
1
10
35.899013045834
20
4.0601010106931
30
0
41
1
10
35.9033531208079
20
4.04146689693604
30
0
0
SPLINE
5
E0
100
AcDbEntity
8
1
62
256
6
ByLayer
370
-1
48
1
60
0
100
AcDbSpline
70
4
71
3
72
14
73
10
40
0
40
0
40
0
40
0
40
0.259172000864633
40
0.259172000864633
40
0.548996251316505
40
0.548996251316505
40
0.811288215848641
40
0.811288215848641
40
1
40
1
40
1
40
1
41
1
10
37.3988797566614
20
3.16710937347412
30
0
41
1
10
37.4176176721813
20
3.17331273040969
30
0
41
1
10
37.4360646984638
20
3.18255820675407
30
0
41
1
10
37.4715890722168
20
3.20789177731916
30
0
41
1
10
37.4887872999499
20
3.22510943496795
30
0
41
1
10
37.5146052403467
20
3.2627144667573
30
0
41
1
10
37.5242437141203
20
3.28323660286623
30
0
41
1
10
37.5341082969763
20
3.31976762714396
30
0
41
1
10
37.5363219046346
20
3.33576151924331
30
0
41
1
10
37.5364401020233
20
3.35149640787753
30
0
0
SPLINE
5
E1
100
AcDbEntity
8
1
62
256
6
ByLayer
370
-1
48
1
60
0
100
AcDbSpline
70
4
71
3
72
16
73
12
40
0
40
0
40
0
40
0
40
0.0396185262706853
40
0.0396185262706853
40
0.264683044238616
40
0.264683044238616
40
0.491181391971569
40
0.491181391971569
40
0.730984162932316
40
0.730984162932316
40
1
40
1
40
1
40
1
41
1
10
35.9765721187703
20
2.4755282850835
30
0
41
1
10
35.9794539388689
20
2.47384343305612
30
0
41
1
10
35.9823827988782
20
2.47222996783955
30
0
41
1
10
36.0020556488063
20
2.46203677445246
30
0
41
1
10
36.0202992528943
20
2.45571755809388
30
0
41
1
10
36.0569569231487
20
2.44854559075378
30
0
41
1
10
36.0758371868059
20
2.44762299163972
30
0
41
1
10
36.1128434818207
20
2.45089996414191
30
0
41
1
10
36.1313266538455
20
2.45542584503497
30
0
41
1
10
36.166833995754
20
2.46974479798675
30
0
41
1
10
36.1838863260076
20
2.48027711336599
30
0
41
1
10
36.1982214862886
20
2.49271867669827
30
0
0
SPLINE
5
E2
100
AcDbEntity
8
1
62
256
6
ByLayer
370
-1
48
1
60
0
100
AcDbSpline
70
4
71
3
72
12
73
8
40
0
40
0
40
0
40
0
40
0.447009754952745
40
0.447009754952745
40
0.831356966909179
40
0.831356966909179
40
1
40
1
40
1
40
1
41
1
10
35.603202277478
20
3.53571865535028
30
0
41
1
10
35.6434794461547
20
3.54371238449716
30
0
41
1
10
35.6834274400107
20
3.55825252222758
30
0
41
1
10
35.7523795639869
20
3.59806735783002
30
0
41
1
10
35.7828688640847
20
3.62210927668943
30
0
41
1
10
35.8209359295221
20
3.66356436180592
30
0
41
1
10
35.8318844041815
20
3.67723059542857
30
0
41
1
10
35.8419042787375
20
3.69166425155791
30
0
0
SPLINE
5
E3
100
AcDbEntity
8
1
62
256
6
ByLayer
370
-1
48
1
60
0
100
AcDbSpline
70
4
71
3
72
16
73
12
40
0
40
0
40
0
40
0
40
0.15399997818411
40
0.15399997818411
40
0.378226214487479
40
0.378226214487479
40
0.610165065452888
40
0.610165065452888
40
0.860479460078963
40
0.860479460078963
40
1
40
1
40
1
40
1
41
1
10
37.0264105744946
20
4.24448534361463
30
0
41
1
10
37.0153065453028
20
4.25097729850987
30
0
41
1
10
37.003433041896
20
4.25626163353058
30
0
41
1
10
36.9735540812952
20
4.26580534514687
30
0
41
1
10
36.9548240252396
20
4.26858565140719
30
0
41
1
10
36.9176329405661
20
4.26831772459027
30
0
41
1
10
36.8987342329932
20
4.26508007875103
30
0
41
1
10
36.8621801499876
20
4.25295599510395
30
0
41
1
10
36.8442784105794
20
4.24351149216079
30
0
41
1
10
36.8196849974577
20
4.22532653127382
30
0
41
1
10
36.8114241953983
20
4.21804581027376
30
0
41
1
10
36.8038649180301
20
4.21019274010715
30
0
0
LINE
5
4A
100
AcDbEntity
8
80
62
256
6
ByLayer
370
-1
48
1
60
0
100
AcDbLine
10
0
20
0
30
0
11
-10
21
0
31
0
39
0
210
0
220
0
230
1
0
LINE
5
4B
100
AcDbEntity
8
81
62
256
6
ByLayer
370
-1
48
1
60
0
100
AcDbLine
10
39.95
20
8.9
30
0
11
49.95
21
8.9
31
0
39
0
210
0
220
0
230
1
0
LINE
5
4C
100
AcDbEntity
8
SK4
62
256
6
ByLayer
370
-1
48
0.05
60
0
100
AcDbLine
10
-91.3
20
0
30
0
11
44.714844
21
0
31
0
39
0
210
0
220
0
230
1
0
LINE
5
4E
100
AcDbEntity
8
4
62
256
6
ByLayer
370
-1
48
0.05
60
0
100
AcDbLine
10
0
20
0
30
0
11
44.714844
21
0
31
0
39
0
210
0
220
0
230
1
0
LINE
5
50
100
AcDbEntity
8
1
62
256
6
ByLayer
370
-1
48
1
60
0
100
AcDbLine
10
0
20
-4.99375
30
0
11
31.329723
21
-4.99375
31
0
39
0
210
0
220
0
230
1
0
LINE
5
51
100
AcDbEntity
8
1
62
256
6
ByLayer
370
-1
48
1
60
0
100
AcDbLine
10
31.253218
20
4.99375
30
0
11
0
21
4.99375
31
0
39
0
210
0
220
0
230
1
0
LINE
5
52
100
AcDbEntity
8
1
62
256
6
ByLayer
370
-1
48
1
60
0
100
AcDbLine
10
31.404723
20
-4.91875
30
0
11
33.205467
21
-4.91875
31
0
39
0
210
0
220
0
230
1
0
LINE
5
53
100
AcDbEntity
8
1
62
256
6
ByLayer
370
-1
48
1
60
0
100
AcDbLine
10
31.329723
20
-4.99375
30
0
11
31.404723
21
-4.91875
31
0
39
0
210
0
220
0
230
1
0
LINE
5
54
100
AcDbEntity
8
1
62
256
6
ByLayer
370
-1
48
1
60
0
100
AcDbLine
10
33.205467
20
-4.91875
30
0
11
33.493741
21
-5.092751
31
0
39
0
210
0
220
0
230
1
0
LINE
5
55
100
AcDbEntity
8
1
62
256
6
ByLayer
370
-1
48
1
60
0
100
AcDbLine
10
31.404723
20
4.91875
30
0
11
31.382672
21
4.9408
31
0
39
0
210
0
220
0
230
1
0
LINE
5
56
100
AcDbEntity
8
1
62
256
6
ByLayer
370
-1
48
1
60
0
100
AcDbLine
10
31.444093
20
4.91875
30
0
11
31.404723
21
4.91875
31
0
39
0
210
0
220
0
230
1
0
LINE
5
57
100
AcDbEntity
8
1
62
256
6
ByLayer
370
-1
48
1
60
0
100
AcDbLine
10
35.898512
20
2.64052
30
0
11
35.904399
21
2.752859
31
0
39
0
210
0
220
0
230
1
0
LINE
5
58
100
AcDbEntity
8
1
62
256
6
ByLayer
370
-1
48
1
60
0
100
AcDbLine
10
38.218192
20
3.156475
30
0
11
38.22298
21
3.247841
31
0
39
0
210
0
220
0
230
1
0
LINE
5
59
100
AcDbEntity
8
1
62
256
6
ByLayer
370
-1
48
1
60
0
100
AcDbLine
10
34.777708
20
3.4284
30
0
11
34.77292
21
3.337034
31
0
39
0
210
0
220
0
230
1
0
LINE
5
5A
100
AcDbEntity
8
1
62
256
6
ByLayer
370
-1
48
1
60
0
100
AcDbLine
10
37.08632
20
2.777895
30
0
11
37.080534
21
2.667481
31
0
39
0
210
0
220
0
230
1
0
LINE
5
5B
100
AcDbEntity
8
1
62
256
6
ByLayer
370
-1
48
1
60
0
100
AcDbLine
10
37.097166
20
3.940113
30
0
11
37.091281
21
3.827822
31
0
39
0
210
0
220
0
230
1
0
LINE
5
5C
100
AcDbEntity
8
1
62
256
6
ByLayer
370
-1
48
1
60
0
100
AcDbLine
10
35.909259
20
3.800861
30
0
11
35.915046
21
3.911281
31
0
39
0
210
0
220
0
230
1
0
LINE
5
5D
100
AcDbEntity
8
1
62
256
6
ByLayer
370
-1
48
1
60
0
100
AcDbLine
10
33.328923
20
-2.151537
30
0
11
33.391194
21
-2.171442
31
0
39
0
210
0
220
0
230
1
0
LINE
5
5E
100
AcDbEntity
8
1
62
256
6
ByLayer
370
-1
48
1
60
0
100
AcDbLine
10
33.467921
20
-2.175463
30
0
11
33.531931
21
-2.162177
31
0
39
0
210
0
220
0
230
1
0
LINE
5
5F
100
AcDbEntity
8
SK1
62
256
6
ByLayer
370
-1
48
1
60
0
100
AcDbLine
10
-85.8
20
4.99375
30
0
11
-86.3
21
4.49375
31
0
39
0
210
0
220
0
230
1
0
LINE
5
61
100
AcDbEntity
8
SK1
62
256
6
ByLayer
370
-1
48
1
60
0
100
AcDbLine
10
-86.3
20
-4.49375
30
0
11
-85.8
21
-4.99375
31
0
39
0
210
0
220
0
230
1
0
LINE
5
62
100
AcDbEntity
8
SK1
62
256
6
ByLayer
370
-1
48
1
60
0
100
AcDbLine
10
-85.8
20
-4.99375
30
0
11
0
21
-4.99375
31
0
39
0
210
0
220
0
230
1
0
LINE
5
63
100
AcDbEntity
8
SK1
62
256
6
ByLayer
370
-1
48
1
60
0
100
AcDbLine
10
0
20
4.99375
30
0
11
-85.8
21
4.99375
31
0
39
0
210
0
220
0
230
1
0
LINE
5
64
100
AcDbEntity
8
1
62
256
6
ByLayer
370
-1
48
1
60
0
100
AcDbLine
10
32.387667
20
-1.863411
30
0
11
32.397348
21
-1.678683
31
0
39
0
210
0
220
0
230
1
0
LINE
5
65
100
AcDbEntity
8
1
62
256
6
ByLayer
370
-1
48
1
60
0
100
AcDbLine
10
31.404723
20
-4.91875
30
0
11
31.404723
21
-4.634599
31
0
39
0
210
0
220
0
230
1
0
LINE
5
66
100
AcDbEntity
8
1
62
256
6
ByLayer
370
-1
48
1
60
0
100
AcDbLine
10
26.40891
20
0.204215
30
0
11
0
21
0.204215
31
0
39
0
210
0
220
0
230
1
0
LINE
5
67
100
AcDbEntity
8
1
62
256
6
ByLayer
370
-1
48
1
60
0
100
AcDbLine
10
32.582101
20
-0.000192
30
0
11
32.5963
21
0.270745
31
0
39
0
210
0
220
0
230
1
0
LINE
5
68
100
AcDbEntity
8
1
62
256
6
ByLayer
370
-1
48
1
60
0
100
AcDbLine
10
33.179157
20
0.631919
30
0
11
32.5963
21
0.270745
31
0
39
0
210
0
220
0
230
1
0
LINE
5
69
100
AcDbEntity
8
1
62
256
6
ByLayer
370
-1
48
1
60
0
100
AcDbLine
10
36.427889
20
-4.855788
30
0
11
39.172127
21
-2.525518
31
0
39
0
210
0
220
0
230
1
0
LINE
5
6A
100
AcDbEntity
8
1
62
256
6
ByLayer
370
-1
48
1
60
0
100
AcDbLine
10
31.329723
20
-4.99375
30
0
11
31.329723
21
-4.703602
31
0
39
0
210
0
220
0
230
1
0
LINE
5
6B
100
AcDbEntity
8
1
62
256
6
ByLayer
370
-1
48
1
60
0
100
AcDbLine
10
36.14883
20
-5.09275
30
0
11
33.49374
21
-5.09275
31
0
39
0
210
0
220
0
230
1
0
LINE
5
6C
100
AcDbEntity
8
1
62
256
6
ByLayer
370
-1
48
1
60
0
100
AcDbLine
10
33.205467
20
-4.91875
30
0
11
33.205467
21
-4.673166
31
0
39
0
210
0
220
0
230
1
0
LINE
5
6D
100
AcDbEntity
8
1
62
256
6
ByLayer
370
-1
48
1
60
0
100
AcDbLine
10
0
20
-4.99375
30
0
11
0
21
-0.204215
31
0
39
0
210
0
220
0
230
1
0
LINE
5
6E
100
AcDbEntity
8
1
62
256
6
ByLayer
370
-1
48
1
60
0
100
AcDbLine
10
0
20
0.204215
30
0
11
0
21
4.99375
31
0
39
0
210
0
220
0
230
1
0
LINE
5
6F
100
AcDbEntity
8
1
62
256
6
ByLayer
370
-1
48
1
60
0
100
AcDbLine
10
36.427889
20
-4.855788
30
0
11
36.14883
21
-5.09275
31
0
39
0
210
0
220
0
230
1
0
LINE
5
70
100
AcDbEntity
8
1
62
256
6
ByLayer
370
-1
48
1
60
0
100
AcDbLine
10
0
20
-0.204215
30
0
11
26.526111
21
-0.204215
31
0
39
0
210
0
220
0
230
1
0
LINE
5
71
100
AcDbEntity
8
1
62
256
6
ByLayer
370
-1
48
1
60
0
100
AcDbLine
10
34.431958
20
-1.632919
30
0
11
34.424036
21
-1.784091
31
0
39
0
210
0
220
0
230
1
0
LINE
5
72
100
AcDbEntity
8
1
62
256
6
ByLayer
370
-1
48
1
60
0
100
AcDbLine
10
31.329723
20
4.988075
30
0
11
31.329723
21
4.983334
31
0
39
0
210
0
220
0
230
1
0
LINE
5
73
100
AcDbEntity
8
1
62
256
6
ByLayer
370
-1
48
1
60
0
100
AcDbLine
10
29.833815
20
4.982675
30
0
11
32.440747
21
-4.671561
31
0
39
0
210
0
220
0
230
1
0
LINE
5
74
100
AcDbEntity
8
1
62
256
6
ByLayer
370
-1
48
1
60
0
100
AcDbLine
10
0
20
-0.204215
30
0
11
0
21
0.204215
31
0
39
0
210
0
220
0
230
1
0
LINE
5
75
100
AcDbEntity
8
1
62
256
6
ByLayer
370
-1
48
1
60
0
100
AcDbLine
10
39.367309
20
1.198772
30
0
11
39.172127
21
-2.525518
31
0
39
0
210
0
220
0
230
1
0
LINE
5
76
100
AcDbEntity
8
1
62
256
6
ByLayer
370
-1
48
1
60
0
100
AcDbLine
10
31.404723
20
4.91875
30
0
11
31.404723
21
4.907567
31
0
39
0
210
0
220
0
230
1
0
LINE
5
77
100
AcDbEntity
8
1
62
256
6
ByLayer
370
-1
48
1
60
0
100
AcDbLine
10
33.164954
20
0.360979
30
0
11
32.582101
21
-0.000192
31
0
39
0
210
0
220
0
230
1
0
LINE
5
78
100
AcDbEntity
8
SK1
62
256
6
ByLayer
370
-1
48
1
60
0
100
AcDbLine
10
0
20
0.204215
30
0
11
-30.05
21
0.204215
31
0
39
0
210
0
220
0
230
1
0
LINE
5
79
100
AcDbEntity
8
SK1
62
256
6
ByLayer
370
-1
48
1
60
0
100
AcDbLine
10
0
20
-4.99375
30
0
11
0
21
-0.204215
31
0
39
0
210
0
220
0
230
1
0
LINE
5
7A
100
AcDbEntity
8
SK1
62
256
6
ByLayer
370
-1
48
1
60
0
100
AcDbLine
10
0
20
0.204215
30
0
11
0
21
4.99375
31
0
39
0
210
0
220
0
230
1
0
LINE
5
7B
100
AcDbEntity
8
SK1
62
256
6
ByLayer
370
-1
48
1
60
0
100
AcDbLine
10
-85.8
20
-4.99375
30
0
11
-85.8
21
4.99375
31
0
39
0
210
0
220
0
230
1
0
LINE
5
7C
100
AcDbEntity
8
SK1
62
256
6
ByLayer
370
-1
48
1
60
0
100
AcDbLine
10
-86.3
20
-4.49375
30
0
11
-86.3
21
4.49375
31
0
39
0
210
0
220
0
230
1
0
LINE
5
7D
100
AcDbEntity
8
SK1
62
256
6
ByLayer
370
-1
48
1
60
0
100
AcDbLine
10
-30.05
20
-0.204215
30
0
11
-30.05
21
0.204215
31
0
39
0
210
0
220
0
230
1
0
LINE
5
7E
100
AcDbEntity
8
SK1
62
256
6
ByLayer
370
-1
48
1
60
0
100
AcDbLine
10
-30.05
20
-0.204215
30
0
11
0
21
-0.204215
31
0
39
0
210
0
220
0
230
1
0
LINE
5
7F
100
AcDbEntity
8
SK1
62
256
6
ByLayer
370
-1
48
1
60
0
100
AcDbLine
10
0
20
-0.204215
30
0
11
0
21
0.204215
31
0
39
0
210
0
220
0
230
1
0
LINE
5
80
100
AcDbEntity
8
1
62
256
6
ByLayer
370
-1
48
1
60
0
100
AcDbLine
10
33.406176
20
4.963614
30
0
11
33.054014
21
-1.756027
31
0
39
0
210
0
220
0
230
1
0
LINE
5
81
100
AcDbEntity
8
1
62
256
6
ByLayer
370
-1
48
1
60
0
100
AcDbLine
10
39.342686
20
8.840261
30
0
11
33.592059
21
5.276825
31
0
39
0
210
0
220
0
230
1
0
LINE
5
82
100
AcDbEntity
8
1
62
256
6
ByLayer
370
-1
48
1
60
0
100
AcDbLine
10
39.597303
20
1.765867
30
0
11
39.949465
21
8.485509
31
0
39
0
210
0
220
0
230
1
0
LINE
5
83
100
AcDbEntity
8
1
62
256
6
ByLayer
370
-1
48
1
60
0
100
AcDbLine
10
33.660793
20
-2.110779
30
0
11
39.411419
21
1.452657
31
0
39
0
210
0
220
0
230
1
0
LINE
5
84
100
AcDbEntity
8
1
62
256
6
ByLayer
370
-1
48
1
60
0
100
AcDbLine
10
37.0937
20
2.565398
30
0
11
37.098729
21
2.661361
31
0
39
0
210
0
220
0
230
1
0
LINE
5
85
100
AcDbEntity
8
1
62
256
6
ByLayer
370
-1
48
1
60
0
100
AcDbLine
10
37.396011
20
3.403512
30
0
11
37.402158
21
3.520797
31
0
39
0
210
0
220
0
230
1
0
LINE
5
86
100
AcDbEntity
8
1
62
256
6
ByLayer
370
-1
48
1
60
0
100
AcDbLine
10
36.797718
20
4.092908
30
0
11
36.803865
21
4.210193
31
0
39
0
210
0
220
0
230
1
0
LINE
5
87
100
AcDbEntity
8
1
62
256
6
ByLayer
370
-1
48
1
60
0
100
AcDbLine
10
36.207254
20
4.098517
30
0
11
36.2134
21
4.215802
31
0
39
0
210
0
220
0
230
1
0
LINE
5
88
100
AcDbEntity
8
1
62
256
6
ByLayer
370
-1
48
1
60
0
100
AcDbLine
10
35.597058
20
3.418476
30
0
11
35.603202
21
3.535719
31
0
39
0
210
0
220
0
230
1
0
LINE
5
89
100
AcDbEntity
8
1
62
256
6
ByLayer
370
-1
48
1
60
0
100
AcDbLine
10
35.887884
20
2.610263
30
0
11
35.891133
21
2.672258
31
0
39
0
210
0
220
0
230
1
0
LINE
5
8A
100
AcDbEntity
8
1
62
256
6
ByLayer
370
-1
48
1
60
0
100
AcDbLine
10
35.841904
20
3.691664
30
0
11
35.836402
21
3.586679
31
0
39
0
210
0
220
0
230
1
0
LINE
5
8B
100
AcDbEntity
8
1
62
256
6
ByLayer
370
-1
48
1
60
0
100
AcDbLine
10
35.865023
20
3.634905
30
0
11
35.870525
21
3.73989
31
0
39
0
210
0
220
0
230
1
0
LINE
5
8C
100
AcDbEntity
8
2
62
256
6
ByLayer
370
-1
48
1
60
1
100
AcDbLine
10
39.95
20
0
30
0
11
39.951
21
0.001
31
0
39
0
210
0
220
0
230
1
0
MTEXT
5
E4
100
AcDbEntity
8
SK6
62
256
6
ByLayer
370
-1
48
1
60
0
100
AcDbMText
10
-19.8
20
-18.103206
30
0
210
0
220
0
230
1
1
\W00.749;\fsimplex.shx,bigfont.shx;A10K-SDUCR 07-ER 
40
3.5
41
0
44
1.084337
50
0
71
7
72
5
7
DEFAULT
0
DIMENSION
5
117
100
AcDbEntity
8
2
62
256
6
ByLayer
370
-3
48
1
60
0
100
AcDbDimension
2
DimnDraft3D1
10
52.2
20
0
30
0
11
52.2
21
19.155
31
0
70
32
71
5
72
1
41
1
210
0
220
0
230
1
3
Standard
100
AcDbAlignedDimension
13
41.95
23
8.9
33
0
14
41.95
24
0
34
0
50
90
100
AcDbRotatedDimension
1001
ACAD
1000
DSTYLE
1002
{
1070
    74
1070
     0
1070
   279
1070
     0
1070
   172
1070
     1
1070
   173
1070
     1
1070
   340
1005
E5
1070
    77
1070
     1
1070
    73
1070
     0
1070
   171
1070
     4
1070
   274
1070
     4
1070
   177
1070
     2
1070
   176
1070
     2
1070
   178
1070
     7
1070
    78
1070
     8
1070
    41
1041
3.175
1070
   147
1041
2.25
1070
    42
1041
2.0
1070
    44
1041
2.0
1070
   140
1041
4.5
1070
   343
1005
118
1070
   344
1005
118
1002
}
0
DIMENSION
5
12D
100
AcDbEntity
8
SK2
62
256
6
ByLayer
370
-3
48
1
60
0
100
AcDbDimension
2
DimnDraft3D2
10
-96.05
20
4.99375
30
0
11
-96.05
21
15.24875
31
0
70
32
71
5
72
1
41
1
210
0
220
0
230
1
3
Standard
100
AcDbAlignedDimension
13
-88.3
23
-4.99375
33
0
14
-88.3
24
4.99375
34
0
50
90
100
AcDbRotatedDimension
1001
ACAD
1000
DSTYLE
1002
{
1070
    74
1070
     0
1070
   279
1070
     0
1070
   172
1070
     1
1070
   173
1070
     1
1070
   340
1005
E5
1070
    77
1070
     1
1070
    73
1070
     0
1070
   171
1070
     4
1070
   274
1070
     4
1070
   177
1070
     2
1070
   176
1070
     2
1070
   178
1070
     7
1070
    78
1070
     8
1070
    41
1041
3.175
1070
   147
1041
2.25
1070
    42
1041
2.0
1070
    44
1041
2.0
1070
   140
1041
4.5
1070
   343
1005
118
1070
   344
1005
118
1002
}
0
DIMENSION
5
13B
100
AcDbEntity
8
SK2
62
256
6
ByLayer
370
-3
48
1
60
0
100
AcDbDimension
2
DimnDraft3D3
10
-86.3
20
21.65
30
0
11
-29.427632
21
21.65
31
0
70
32
71
5
72
1
41
1
210
0
220
0
230
1
3
Standard
100
AcDbAlignedDimension
13
39.95
23
10.9
33
0
14
-86.3
24
6.99375
34
0
50
0
100
AcDbRotatedDimension
1001
ACAD
1000
DSTYLE
1002
{
1070
   279
1070
     0
1070
   172
1070
     1
1070
   173
1070
     1
1070
   340
1005
E5
1070
    77
1070
     1
1070
    73
1070
     0
1070
   171
1070
     4
1070
   274
1070
     4
1070
   177
1070
     2
1070
   176
1070
     2
1070
   178
1070
     7
1070
    78
1070
     8
1070
    41
1041
3.175
1070
   147
1041
2.25
1070
    42
1041
2.0
1070
    44
1041
2.0
1070
   140
1041
4.5
1070
   343
1005
118
1070
   344
1005
118
1002
}
0
DIMENSION
5
149
100
AcDbEntity
8
2
62
256
6
ByLayer
370
-3
48
1
60
0
100
AcDbDimension
2
DimnDraft3D4
10
88.409978
20
0
30
0
11
65.615382
21
-36.792664
31
0
70
34
71
5
72
1
41
1
210
0
220
0
230
1
3
Standard
100
AcDb2LineAngularDimension
13
39.478976
23
-0.087666
33
0
14
36.92296
24
-48.859355
34
0
15
41.95
25
0
35
0
16
68.687982
26
-30.775028
36
0
40
0
0
ENDSEC
0
SECTION
2
OBJECTS
0
DICTIONARY
5
17a
330
0
100
AcDbDictionary
280
0
281
1
3
ACAD_GROUP
350
17b
3
ACAD_MLINESTYLE
350
17c
0
DICTIONARY
5
17b
330
0
100
AcDbDictionary
280
0
281
1
0
DICTIONARY
5
17c
330
0
100
AcDbDictionary
280
0
281
1
3
Standard
350
18
0
MLINESTYLE
5
18
330
17c
100
AcDbMlineStyle
2
Standard
70
0
3

62
256
51
90
52
90
71
2
49
-0.5
62
256
6
ByLayer
49
0.5
62
256
6
ByLayer
0
RASTERVARIABLES
5
168
330

100
AcDbRasterVariables
90
0
70
1
71
1
72
1
0
ENDSEC
0
EOF
