0
SECTION
2
HEADER
9
$ACADVER
1
AC1015
9
$DWGCODEPAGE
3
ANSI_1252
9
$HANDSEED
5
188
9
$ANGBASE
50
0
9
$ANGDIR
70
0
9
$ATTMODE
70
1
9
$AUNITS
70
0
9
$AUPREC
70
0
9
$CECOLOR
62
256
9
$CELTSCALE
40
1
9
$CELTYPE
6
ByLayer
9
$CELWEIGHT
370
-1
9
$CLAYER
8
0
9
$CMLJUST
70
0
9
$CMLSCALE
40
1
9
$CMLSTYLE
2
Standard
9
$DIMSTYLE
2
Standard
9
$TEXTSIZE
40
0.2
9
$TEXTSTYLE
7
Standard
9
$LUNITS
70
2
9
$LUPREC
70
4
9
$EXTNAMES
290
1
9
$INSUNITS
70
4
9
$LTSCALE
40
1
9
$LWDISPLAY
290
0
9
$PDMODE
70
0
9
$PDSIZE
40
0
9
$PLINEGEN
70
0
0
ENDSEC
0
SECTION
2
CLASSES
0
CLASS
1
RASTERVARIABLES
2
AcDbRasterVariables
3
ISM
90
0
280
0
281
0
0
ENDSEC
0
SECTION
2
TABLES
0
TABLE
2
VPORT
5
17e
100
AcDbSymbolTable
0
VPORT
5
1
100
AcDbSymbolTableRecord
100
AcDbViewportTableRecord
2
*Active
70
0
10
0
20
0
11
1
21
1
12
-1
22
1
13
0
23
0
14
0.5
24
0.5
15
10
25
10
16
0
26
0
36
1
17
0
27
0
37
0
0
ENDTAB
0
TABLE
2
LTYPE
5
17f
100
AcDbSymbolTable
0
LTYPE
5
14
100
AcDbSymbolTableRecord
100
AcDbLinetypeTableRecord
70
0
2
ByBlock
3

72
65
73
0
40
0
0
LTYPE
5
15
100
AcDbSymbolTableRecord
100
AcDbLinetypeTableRecord
70
0
2
ByLayer
3

72
65
73
0
40
0
0
LTYPE
5
16
100
AcDbSymbolTableRecord
100
AcDbLinetypeTableRecord
70
0
2
CONTINUOUS
3
Solid line
72
65
73
0
40
0
0
LTYPE
5
3B
100
AcDbSymbolTableRecord
100
AcDbLinetypeTableRecord
70
0
2
DASHED
3
__ __ __ __ __ __ __ __ __
72
65
73
2
40
25.72
49
12.86
74
0
49
-12.86
74
0
0
LTYPE
5
3C
100
AcDbSymbolTableRecord
100
AcDbLinetypeTableRecord
70
0
2
HIDDEN
3
_ _ _ _ _ _ _ _ _ _ _ _ _ _ _
72
65
73
2
40
0.5
49
0.25
74
0
49
-0.25
74
0
0
LTYPE
5
3D
100
AcDbSymbolTableRecord
100
AcDbLinetypeTableRecord
70
0
2
PHANTOM
3
____ _ _ ____ _ _ _____ _ _ ____
72
65
73
6
40
50.5
49
18
74
0
49
-6.5
74
0
49
6.5
74
0
49
-6.5
74
0
49
6.5
74
0
49
-6.5
74
0
0
LTYPE
5
3E
100
AcDbSymbolTableRecord
100
AcDbLinetypeTableRecord
70
0
2
CENTER
3
____ _ ____ _ ____ _ ____
72
65
73
4
40
47.5
49
22
74
0
49
-8.5
74
0
49
8.5
74
0
49
-8.5
74
0
0
LTYPE
5
3F
100
AcDbSymbolTableRecord
100
AcDbLinetypeTableRecord
70
0
2
DOT
3
.........................
72
65
73
2
40
10
49
0
74
0
49
-10
74
0
0
LTYPE
5
40
100
AcDbSymbolTableRecord
100
AcDbLinetypeTableRecord
70
0
2
DASHDOT
3
_._._._._._._._._._._._._._._._.
72
65
73
4
40
70
49
31
74
0
49
-13
74
0
49
13
74
0
49
-13
74
0
0
ENDTAB
0
TABLE
2
LAYER
5
180
100
AcDbSymbolTable
0
LAYER
5
10
100
AcDbSymbolTableRecord
100
AcDbLayerTableRecord
2
0
70
0
62
7
6
CONTINUOUS
290
1
370
-3
390
0
0
LAYER
5
42
100
AcDbSymbolTableRecord
100
AcDbLayerTableRecord
2
80
70
0
62
-6
6
CONTINUOUS
290
1
370
-3
390
0
0
LAYER
5
44
100
AcDbSymbolTableRecord
100
AcDbLayerTableRecord
2
81
70
0
62
-3
6
CONTINUOUS
290
1
370
-3
390
0
0
LAYER
5
46
100
AcDbSymbolTableRecord
100
AcDbLayerTableRecord
2
1
70
0
62
4
6
CONTINUOUS
290
1
370
-3
390
0
0
LAYER
5
48
100
AcDbSymbolTableRecord
100
AcDbLayerTableRecord
2
2
70
0
62
7
6
CONTINUOUS
290
1
370
-3
390
0
0
LAYER
5
4F
100
AcDbSymbolTableRecord
100
AcDbLayerTableRecord
2
4
70
0
62
-2
6
CENTER
290
1
370
-3
390
0
0
LAYER
5
16a
100
AcDbSymbolTableRecord
100
AcDbLayerTableRecord
2
SK4
70
0
62
2
6
CENTER
290
1
370
-3
390
0
0
LAYER
5
16b
100
AcDbSymbolTableRecord
100
AcDbLayerTableRecord
2
SK1
70
0
62
4
6
CONTINUOUS
290
1
370
-3
390
0
0
LAYER
5
16c
100
AcDbSymbolTableRecord
100
AcDbLayerTableRecord
2
SK6
70
0
62
5
6
CONTINUOUS
290
1
370
-3
390
0
0
LAYER
5
16d
100
AcDbSymbolTableRecord
100
AcDbLayerTableRecord
2
SK2
70
0
62
7
6
CONTINUOUS
290
1
370
-3
390
0
0
ENDTAB
0
TABLE
2
STYLE
5
181
100
AcDbSymbolTable
0
STYLE
5
11
100
AcDbSymbolTableRecord
100
AcDbTextStyleTableRecord
2
Standard
3
txt
70
0
71
0
40
0
41
1
42
0
50
0
0
STYLE
5
E6
100
AcDbSymbolTableRecord
100
AcDbTextStyleTableRecord
2
DEFAULT
3
simplex.shx
70
0
71
0
40
0
41
1
42
0
50
0
0
STYLE
5
109
100
AcDbSymbolTableRecord
100
AcDbTextStyleTableRecord
2
DWGDirectTextStyle
3
SIMPLEX
70
0
71
0
40
0
41
1
42
0
50
0
0
ENDTAB
0
TABLE
2
DIMSTYLE
5
182
100
AcDbSymbolTable
100
AcDbDimStyleTable
0
DIMSTYLE
105
27
100
AcDbSymbolTableRecord
100
AcDbDimStyleTableRecord
2
Standard
70
0
3
<>
41
0.18
42
0.0625
44
0.18
140
0.18
147
0.09
73
0
74
0
77
1
271
2
275
0
278
52
280
0
340
11
0
ENDTAB
0
TABLE
2
VIEW
5
183
100
AcDbSymbolTable
0
ENDTAB
0
TABLE
2
UCS
5
184
100
AcDbSymbolTable
0
ENDTAB
0
TABLE
2
APPID
5
185
100
AcDbSymbolTable
0
APPID
5
12
100
AcDbSymbolTableRecord
100
AcDbRegAppTableRecord
2
ACAD
70
0
0
ENDTAB
0
TABLE
2
BLOCK_RECORD
5
186
100
AcDbSymbolTable
0
BLOCK_RECORD
5
1F
100
AcDbSymbolTableRecord
100
AcDbBlockTableRecord
2
*Model_Space
340
0
70
0
0
BLOCK_RECORD
5
1B
100
AcDbSymbolTableRecord
100
AcDbBlockTableRecord
2
*Paper_Space
340
0
70
0
0
BLOCK_RECORD
5
23
100
AcDbSymbolTableRecord
100
AcDbBlockTableRecord
2
*Paper_Space0
340
0
70
0
0
BLOCK_RECORD
5
10B
100
AcDbSymbolTableRecord
100
AcDbBlockTableRecord
2
DimnDraft3D1
340
0
70
0
0
BLOCK_RECORD
5
119
100
AcDbSymbolTableRecord
100
AcDbBlockTableRecord
2
_CLOSED
340
0
70
0
0
BLOCK_RECORD
5
120
100
AcDbSymbolTableRecord
100
AcDbBlockTableRecord
2
DimnDraft3D2
340
0
70
0
0
BLOCK_RECORD
5
12F
100
AcDbSymbolTableRecord
100
AcDbBlockTableRecord
2
DimnDraft3D3
340
0
70
0
0
BLOCK_RECORD
5
13D
100
AcDbSymbolTableRecord
100
AcDbBlockTableRecord
2
DimnDraft3D4
340
0
70
0
0
ENDTAB
0
ENDSEC
0
SECTION
2
BLOCKS
0
BLOCK
5
20
100
AcDbEntity
8
0
100
AcDbBlockBegin
2
*Model_Space
70
0
10
0
20
0
30
0
3
*Model_Space
0
ENDBLK
5
21
100
AcDbEntity
8
0
100
AcDbBlockEnd
0
BLOCK
5
1C
100
AcDbEntity
8
0
100
AcDbBlockBegin
2
*Paper_Space
70
0
10
0
20
0
30
0
3
*Paper_Space
0
ENDBLK
5
1D
100
AcDbEntity
8
0
100
AcDbBlockEnd
0
BLOCK
5
24
100
AcDbEntity
8
0
100
AcDbBlockBegin
2
*Paper_Space0
70
0
10
0
20
0
30
0
3
*Paper_Space0
0
ENDBLK
5
25
100
AcDbEntity
8
0
100
AcDbBlockEnd
0
BLOCK
5
116
100
AcDbEntity
8
0
100
AcDbBlockBegin
2
DimnDraft3D1
70
0
10
0
20
0
30
0
3
DimnDraft3D1
0
MTEXT
5
10C
100
AcDbEntity
8
2
62
256
6
ByLayer
370
-1
48
1
60
0
100
AcDbMText
10
51.075
20
-23.052368
30
0
210
0
220
0
230
1
1
\W01.000;\fsimplex.shx,bigfont.shx;7.0 
40
4.5
41
0
44
1.084337
50
90
71
7
72
5
7
DEFAULT
0
LINE
5
10D
100
AcDbEntity
8
2
62
256
6
ByLayer
370
-1
48
1
60
0
100
AcDbLine
10
41.95
20
-6.9
30
0
11
54.2
21
-6.9
31
0
39
0
210
0
220
0
230
1
0
LINE
5
10E
100
AcDbEntity
8
2
62
256
6
ByLayer
370
-1
48
1
60
0
100
AcDbLine
10
41.95
20
0
30
0
11
54.2
21
0
31
0
39
0
210
0
220
0
230
1
0
LINE
5
10F
100
AcDbEntity
8
2
62
256
6
ByLayer
370
-1
48
1
60
0
100
AcDbLine
10
52.2
20
11.25
30
0
11
52.2
21
-24.177368
31
0
39
0
210
0
220
0
230
1
0
LINE
5
110
100
AcDbEntity
8
2
62
256
6
ByLayer
370
-1
48
1
60
0
100
AcDbLine
10
52.2
20
-6.9
30
0
11
52.617997
21
-10.074998
31
0
39
0
210
0
220
0
230
1
0
LINE
5
111
100
AcDbEntity
8
2
62
256
6
ByLayer
370
-1
48
1
60
0
100
AcDbLine
10
52.2
20
-6.9
30
0
11
51.782003
21
-10.075002
31
0
39
0
210
0
220
0
230
1
0
LINE
5
112
100
AcDbEntity
8
2
62
256
6
ByLayer
370
-1
48
1
60
0
100
AcDbLine
10
52.617997
20
-10.074998
30
0
11
51.782003
21
-10.075002
31
0
39
0
210
0
220
0
230
1
0
LINE
5
113
100
AcDbEntity
8
2
62
256
6
ByLayer
370
-1
48
1
60
0
100
AcDbLine
10
52.2
20
0
30
0
11
51.782003
21
3.174998
31
0
39
0
210
0
220
0
230
1
0
LINE
5
114
100
AcDbEntity
8
2
62
256
6
ByLayer
370
-1
48
1
60
0
100
AcDbLine
10
52.2
20
0
30
0
11
52.617997
21
3.175002
31
0
39
0
210
0
220
0
230
1
0
LINE
5
115
100
AcDbEntity
8
2
62
256
6
ByLayer
370
-1
48
1
60
0
100
AcDbLine
10
51.782003
20
3.174998
30
0
11
52.617997
21
3.175002
31
0
39
0
210
0
220
0
230
1
0
ENDBLK
5
117
100
AcDbEntity
8
0
100
AcDbBlockEnd
0
BLOCK
5
11A
100
AcDbEntity
8
0
100
AcDbBlockBegin
2
_CLOSED
70
0
10
0
20
0
30
0
3
_CLOSED
0
LINE
5
11C
100
AcDbEntity
8
0
62
256
6
ByLayer
370
-2
48
1
60
0
100
AcDbLine
10
-1
20
0.166667
30
0
11
0
21
0
31
0
39
0
210
0
220
0
230
1
0
LINE
5
11D
100
AcDbEntity
8
0
62
256
6
ByLayer
370
-2
48
1
60
0
100
AcDbLine
10
0
20
0
30
0
11
-1
21
-0.166667
31
0
39
0
210
0
220
0
230
1
0
LINE
5
11E
100
AcDbEntity
8
0
62
256
6
ByLayer
370
-2
48
1
60
0
100
AcDbLine
10
-1
20
0.166667
30
0
11
-1
21
-0.166667
31
0
39
0
210
0
220
0
230
1
0
LINE
5
11F
100
AcDbEntity
8
0
62
256
6
ByLayer
370
-2
48
1
60
0
100
AcDbLine
10
0
20
0
30
0
11
-1
21
0
31
0
39
0
210
0
220
0
230
1
0
ENDBLK
5
11B
100
AcDbEntity
8
0
100
AcDbBlockEnd
0
BLOCK
5
12C
100
AcDbEntity
8
0
100
AcDbBlockBegin
2
DimnDraft3D2
70
0
10
0
20
0
30
0
3
DimnDraft3D2
0
MTEXT
5
121
100
AcDbEntity
8
SK2
62
256
6
ByLayer
370
-1
48
1
60
0
100
AcDbMText
10
-97.175
20
16.37375
30
0
210
0
220
0
230
1
1
\W01.000;\fsimplex.shx,bigfont.shx;%%c10 
40
4.5
41
0
44
1.084337
50
90
71
7
72
5
7
DEFAULT
0
LINE
5
123
100
AcDbEntity
8
SK2
62
256
6
ByLayer
370
-1
48
1
60
0
100
AcDbLine
10
-88.3
20
-4.99375
30
0
11
-98.05
21
-4.99375
31
0
39
0
210
0
220
0
230
1
0
LINE
5
124
100
AcDbEntity
8
SK2
62
256
6
ByLayer
370
-1
48
1
60
0
100
AcDbLine
10
-88.3
20
4.99375
30
0
11
-98.05
21
4.99375
31
0
39
0
210
0
220
0
230
1
0
LINE
5
125
100
AcDbEntity
8
SK2
62
256
6
ByLayer
370
-1
48
1
60
0
100
AcDbLine
10
-96.05
20
-4.99375
30
0
11
-96.05
21
23.692171
31
0
39
0
210
0
220
0
230
1
0
LINE
5
126
100
AcDbEntity
8
SK2
62
256
6
ByLayer
370
-1
48
1
60
0
100
AcDbLine
10
-96.05
20
-4.99375
30
0
11
-96.467997
21
-1.818752
31
0
39
0
210
0
220
0
230
1
0
LINE
5
127
100
AcDbEntity
8
SK2
62
256
6
ByLayer
370
-1
48
1
60
0
100
AcDbLine
10
-96.05
20
-4.99375
30
0
11
-95.632003
21
-1.818748
31
0
39
0
210
0
220
0
230
1
0
LINE
5
128
100
AcDbEntity
8
SK2
62
256
6
ByLayer
370
-1
48
1
60
0
100
AcDbLine
10
-96.467997
20
-1.818752
30
0
11
-95.632003
21
-1.818748
31
0
39
0
210
0
220
0
230
1
0
LINE
5
129
100
AcDbEntity
8
SK2
62
256
6
ByLayer
370
-1
48
1
60
0
100
AcDbLine
10
-96.05
20
4.99375
30
0
11
-95.632003
21
1.818752
31
0
39
0
210
0
220
0
230
1
0
LINE
5
12A
100
AcDbEntity
8
SK2
62
256
6
ByLayer
370
-1
48
1
60
0
100
AcDbLine
10
-96.05
20
4.99375
30
0
11
-96.467997
21
1.818748
31
0
39
0
210
0
220
0
230
1
0
LINE
5
12B
100
AcDbEntity
8
SK2
62
256
6
ByLayer
370
-1
48
1
60
0
100
AcDbLine
10
-95.632003
20
1.818752
30
0
11
-96.467997
21
1.818748
31
0
39
0
210
0
220
0
230
1
0
ENDBLK
5
12D
100
AcDbEntity
8
0
100
AcDbBlockEnd
0
BLOCK
5
13A
100
AcDbEntity
8
0
100
AcDbBlockBegin
2
DimnDraft3D3
70
0
10
0
20
0
30
0
3
DimnDraft3D3
0
MTEXT
5
130
100
AcDbEntity
8
SK2
62
256
6
ByLayer
370
-1
48
1
60
0
100
AcDbMText
10
-28.302632
20
-23.025
30
0
210
0
220
0
230
1
1
\W01.000;\fsimplex.shx,bigfont.shx;125.0 
40
4.5
41
0
44
1.084337
50
0
71
7
72
5
7
DEFAULT
0
LINE
5
131
100
AcDbEntity
8
SK2
62
256
6
ByLayer
370
-1
48
1
60
0
100
AcDbLine
10
-86.3
20
-6.99375
30
0
11
-86.3
21
-26.15
31
0
39
0
210
0
220
0
230
1
0
LINE
5
132
100
AcDbEntity
8
SK2
62
256
6
ByLayer
370
-1
48
1
60
0
100
AcDbLine
10
39.95
20
-8.9
30
0
11
39.95
21
-26.15
31
0
39
0
210
0
220
0
230
1
0
LINE
5
133
100
AcDbEntity
8
SK2
62
256
6
ByLayer
370
-1
48
1
60
0
100
AcDbLine
10
-86.3
20
-24.15
30
0
11
39.95
21
-24.15
31
0
39
0
210
0
220
0
230
1
0
LINE
5
134
100
AcDbEntity
8
SK2
62
256
6
ByLayer
370
-1
48
1
60
0
100
AcDbLine
10
-86.3
20
-24.15
30
0
11
-83.125002
21
-23.732003
31
0
39
0
210
0
220
0
230
1
0
LINE
5
135
100
AcDbEntity
8
SK2
62
256
6
ByLayer
370
-1
48
1
60
0
100
AcDbLine
10
-86.3
20
-24.15
30
0
11
-83.124998
21
-24.567997
31
0
39
0
210
0
220
0
230
1
0
LINE
5
136
100
AcDbEntity
8
SK2
62
256
6
ByLayer
370
-1
48
1
60
0
100
AcDbLine
10
-83.125002
20
-23.732003
30
0
11
-83.124998
21
-24.567997
31
0
39
0
210
0
220
0
230
1
0
LINE
5
137
100
AcDbEntity
8
SK2
62
256
6
ByLayer
370
-1
48
1
60
0
100
AcDbLine
10
39.95
20
-24.15
30
0
11
36.775002
21
-24.567997
31
0
39
0
210
0
220
0
230
1
0
LINE
5
138
100
AcDbEntity
8
SK2
62
256
6
ByLayer
370
-1
48
1
60
0
100
AcDbLine
10
39.95
20
-24.15
30
0
11
36.774998
21
-23.732003
31
0
39
0
210
0
220
0
230
1
0
LINE
5
139
100
AcDbEntity
8
SK2
62
256
6
ByLayer
370
-1
48
1
60
0
100
AcDbLine
10
36.775002
20
-24.567997
30
0
11
36.774998
21
-23.732003
31
0
39
0
210
0
220
0
230
1
0
ENDBLK
5
13B
100
AcDbEntity
8
0
100
AcDbBlockEnd
0
BLOCK
5
148
100
AcDbEntity
8
0
100
AcDbBlockBegin
2
DimnDraft3D4
70
0
10
0
20
0
30
0
3
DimnDraft3D4
0
MTEXT
5
13E
100
AcDbEntity
8
2
62
256
6
ByLayer
370
-1
48
1
60
0
100
AcDbMText
10
54.424436
20
36.215882
30
0
210
0
220
0
230
1
1
\W01.000;\fsimplex.shx,bigfont.shx;107%%d30' 
40
4.5
41
0
44
1.084337
50
323.75
71
7
72
5
7
DEFAULT
0
LINE
5
13F
100
AcDbEntity
8
2
62
256
6
ByLayer
370
-1
48
1
60
0
100
AcDbLine
10
37.243648
20
1.683453
30
0
11
25.768336
21
38.078491
31
0
39
0
210
0
220
0
230
1
0
LINE
5
140
100
AcDbEntity
8
2
62
256
6
ByLayer
370
-1
48
1
60
0
100
AcDbLine
10
41.95
20
0
30
0
11
77.700845
21
0
31
0
39
0
210
0
220
0
230
1
0
ARC
5
141
100
AcDbEntity
8
2
62
256
6
ByLayer
370
-1
48
1
60
0
100
AcDbCircle
39
0
10
37.774438
20
0
30
0
40
37.9264068640928
210
0
220
0
230
1
100
AcDbArc
50
0
51
107.5
0
LINE
5
142
100
AcDbEntity
8
2
62
256
6
ByLayer
370
-1
48
1
60
0
100
AcDbLine
10
26.369748
20
36.171057
30
0
11
29.299775
21
37.463449
31
0
39
0
210
0
220
0
230
1
0
LINE
5
143
100
AcDbEntity
8
2
62
256
6
ByLayer
370
-1
48
1
60
0
100
AcDbLine
10
26.369748
20
36.171057
30
0
11
29.534435
21
36.661066
31
0
39
0
210
0
220
0
230
1
0
LINE
5
144
100
AcDbEntity
8
2
62
256
6
ByLayer
370
-1
48
1
60
0
100
AcDbLine
10
29.299775
20
37.463449
30
0
11
29.534435
21
36.661066
31
0
39
0
210
0
220
0
230
1
0
LINE
5
145
100
AcDbEntity
8
2
62
256
6
ByLayer
370
-1
48
1
60
0
100
AcDbLine
10
75.700845
20
0
30
0
11
75.216535
21
3.165562
31
0
39
0
210
0
220
0
230
1
0
LINE
5
146
100
AcDbEntity
8
2
62
256
6
ByLayer
370
-1
48
1
60
0
100
AcDbLine
10
75.700845
20
0
30
0
11
76.052345
21
3.183049
31
0
39
0
210
0
220
0
230
1
0
LINE
5
147
100
AcDbEntity
8
2
62
256
6
ByLayer
370
-1
48
1
60
0
100
AcDbLine
10
75.216535
20
3.165562
30
0
11
76.052345
21
3.183049
31
0
39
0
210
0
220
0
230
1
0
ENDBLK
5
149
100
AcDbEntity
8
0
100
AcDbBlockEnd
0
ENDSEC
0
SECTION
2
ENTITIES
0
ELLIPSE
5
92
100
AcDbEntity
8
1
62
256
6
ByLayer
370
-1
48
1
60
0
100
AcDbEllipse
10
57.217859
20
-0.001079
30
0
11
101.651960086071
21
0.811519924217909
31
0
210
0
220
0
230
-1
40
0.04947
41
-1.79773308352033
42
-1.79085273797419
0
ELLIPSE
5
93
100
AcDbEntity
8
1
62
256
6
ByLayer
370
-1
48
1
60
0
100
AcDbEllipse
10
32.633808
20
0
30
0
11
1.5981777527115
21
-4.99374988035791
31
0
210
0
220
0
230
-1
40
0.000692
41
2.7175831854744
42
-3.14128840200627
0
ELLIPSE
5
94
100
AcDbEntity
8
1
62
256
6
ByLayer
370
-1
48
1
60
0
100
AcDbEllipse
10
41.708421
20
-0.050658
30
0
11
-4.00561119314257
21
-1.26296435791794
31
0
210
0
220
0
230
1
40
0.986053
41
-0.439975954790919
42
-0.391542433397328
0
ELLIPSE
5
95
100
AcDbEntity
8
1
62
256
6
ByLayer
370
-1
48
1
60
0
100
AcDbEllipse
10
57.240595
20
-4.3E-05
30
0
11
99.6559634332204
21
0.795591648661239
31
0
210
0
220
0
230
-1
40
0.04947
41
-1.83502750434028
42
-1.82646788864061
0
ELLIPSE
5
96
100
AcDbEntity
8
1
62
256
6
ByLayer
370
-1
48
1
60
0
100
AcDbEllipse
10
57.240354
20
0
30
0
11
99.6554640966625
21
0.795599182491802
31
0
210
0
220
0
230
-1
40
0.04947
41
1.83679373354286
42
1.87344146993969
0
ELLIPSE
5
97
100
AcDbEntity
8
1
62
256
6
ByLayer
370
-1
48
1
60
0
100
AcDbEllipse
10
33.046907
20
-8.613485
30
0
11
-4.00561119314256
21
-1.26296435791794
31
0
210
0
220
0
230
1
40
0.986053
41
-1.78322412884555
42
-1.38464568526378
0
ELLIPSE
5
98
100
AcDbEntity
8
1
62
256
6
ByLayer
370
-1
48
1
60
0
100
AcDbEllipse
10
31.57571
20
0.678209
30
0
11
-1.14446034089787
21
-0.360846959405126
31
0
210
0
220
0
230
1
40
0.986053
41
0.00436332312998742
42
0.959931088596859
0
ELLIPSE
5
99
100
AcDbEntity
8
1
62
256
6
ByLayer
370
-1
48
1
60
0
100
AcDbEllipse
10
31.467953
20
1.01997
30
0
11
1.14446034089787
21
0.360846959405126
31
0
210
0
220
0
230
1
40
0.986053
41
-3.13722933045982
42
-2.1816615649929
0
ELLIPSE
5
9A
100
AcDbEntity
8
1
62
256
6
ByLayer
370
-1
48
1
60
0
100
AcDbEllipse
10
57.24038
20
-5E-06
30
0
11
98.158816350047
21
0.783649450281857
31
0
210
0
220
0
230
-1
40
0.04947
41
-1.82967041662465
42
-1.81186783890838
0
ELLIPSE
5
9B
100
AcDbEntity
8
1
62
256
6
ByLayer
370
-1
48
1
60
0
100
AcDbEllipse
10
14.219096
20
1E-06
30
0
11
99.6554547018107
21
0.795598962403338
31
0
210
0
220
0
230
-1
40
0.04947
41
-1.42218381731799
42
-1.40084215344127
0
ELLIPSE
5
9C
100
AcDbEntity
8
1
62
256
6
ByLayer
370
-1
48
1
60
0
100
AcDbEllipse
10
29.843524
20
2.143877
30
0
11
2.11792180479116
21
-6.61580299418941
31
0
210
0
220
0
230
-1
40
0.000398
41
-1.92587266961293
42
-1.66128781164814
0
ELLIPSE
5
9D
100
AcDbEntity
8
1
62
256
6
ByLayer
370
-1
48
1
60
0
100
AcDbEllipse
10
30.533881
20
0
30
0
11
1.59817775971816
21
-4.99374990223852
31
0
210
0
220
0
230
-1
40
0.000692
41
2.66849150235764
42
3.13042574122962
0
ELLIPSE
5
9E
100
AcDbEntity
8
1
62
256
6
ByLayer
370
-1
48
1
60
0
100
AcDbEllipse
10
35.290145
20
-2.224814
30
0
11
1.78821928265293
21
0.56382337407051
31
0
210
0
220
0
230
1
40
0.986053
41
2.83210850901041
42
-2.40197614719188E-16
0
ELLIPSE
5
9F
100
AcDbEntity
8
1
62
256
6
ByLayer
370
-1
48
1
60
0
100
AcDbEllipse
10
35.290145
20
-2.224814
30
0
11
1.78821928265293
21
0.56382337407051
31
0
210
0
220
0
230
1
40
0.986053
41
0
42
0.401498038981391
0
ELLIPSE
5
A0
100
AcDbEntity
8
1
62
256
6
ByLayer
370
-1
48
1
60
0
100
AcDbEllipse
10
35.290145
20
-2.224814
30
0
11
1.78821928265293
21
0.56382337407051
31
0
210
0
220
0
230
1
40
0.986053
41
2.74002088112042
42
2.83210904917421
0
ELLIPSE
5
A1
100
AcDbEntity
8
1
62
256
6
ByLayer
370
-1
48
1
60
0
100
AcDbEllipse
10
35.28282
20
-2.201583
30
0
11
1.74030418959479
21
0.548715803260254
31
0
210
0
220
0
230
1
40
0.986053
41
2.83210872599263
42
-2.46810878728104E-16
0
ELLIPSE
5
A2
100
AcDbEntity
8
1
62
256
6
ByLayer
370
-1
48
1
60
0
100
AcDbEllipse
10
35.28282
20
-2.201583
30
0
11
1.74030418959479
21
0.548715803260254
31
0
210
0
220
0
230
1
40
0.986053
41
0
42
0.778488882120063
0
ELLIPSE
5
A3
100
AcDbEntity
8
1
62
256
6
ByLayer
370
-1
48
1
60
0
100
AcDbEllipse
10
35.28282
20
-2.201583
30
0
11
1.74030418959479
21
0.548715803260254
31
0
210
0
220
0
230
1
40
0.986053
41
2.36293176936379
42
2.83210872599264
0
ELLIPSE
5
A4
100
AcDbEntity
8
1
62
256
6
ByLayer
370
-1
48
1
60
0
100
AcDbEllipse
10
35.321675
20
-2.324814
30
0
11
1.83023422574618
21
0.577070634742632
31
0
210
0
220
0
230
1
40
0.986053
41
0
42
6.28318530717959
0
ELLIPSE
5
A5
100
AcDbEntity
8
1
62
256
6
ByLayer
370
-1
48
1
60
0
100
AcDbEllipse
10
31.089727
20
1.858528
30
0
11
0.378506414828253
21
0.119342614178274
31
0
210
0
220
0
230
1
40
0.986053
41
0.959931088596818
42
3.14159265358963
0
ELLIPSE
5
A6
100
AcDbEntity
8
1
62
256
6
ByLayer
370
-1
48
1
60
0
100
AcDbEllipse
10
39.553622
20
-6.508157
30
0
11
0.378506414828253
21
0.119342614178274
31
0
210
0
220
0
230
1
40
0.986053
41
-2.18166156499287
42
-1.81566700890072E-14
0
ELLIPSE
5
A7
100
AcDbEntity
8
1
62
256
6
ByLayer
370
-1
48
1
60
0
100
AcDbEllipse
10
33.100945
20
-4.520241
30
0
11
0.378506414828217
21
0.119342614178262
31
0
210
0
220
0
230
1
40
0.986053
41
3.14159265358977
42
-2.18166156499291
0
ELLIPSE
5
A8
100
AcDbEntity
8
1
62
256
6
ByLayer
370
-1
48
1
60
0
100
AcDbEllipse
10
31.0397
20
2.168014
30
0
11
-0.143057542612236
21
-0.0451058699256414
31
0
210
0
220
0
230
1
40
0.986053
41
-2.18166156499317
42
-2.07080644562853
0
ELLIPSE
5
A9
100
AcDbEntity
8
1
62
256
6
ByLayer
370
-1
48
1
60
0
100
AcDbEllipse
10
37.542404
20
-0.129387
30
0
11
0.378506414828217
21
0.119342614178262
31
0
210
0
220
0
230
1
40
0.986053
41
0
42
0.959931088596837
0
ELLIPSE
5
AA
100
AcDbEntity
8
1
62
256
6
ByLayer
370
-1
48
1
60
0
100
AcDbEllipse
10
35.269744
20
-2.160113
30
0
11
-0.713380279159671
21
-0.224927938029194
31
0
210
0
220
0
230
1
40
0.986053
41
-1.22454998746584
42
-0.715636222025303
0
ELLIPSE
5
AB
100
AcDbEntity
8
1
62
256
6
ByLayer
370
-1
48
1
60
0
100
AcDbEllipse
10
35.319792
20
-2.318843
30
0
11
1.2398320359727
21
0.390917539355555
31
0
210
0
220
0
230
1
40
0.986053
41
0
42
6.28318530717959
0
ELLIPSE
5
AC
100
AcDbEntity
8
1
62
256
6
ByLayer
370
-1
48
1
60
0
100
AcDbEllipse
10
36.090811
20
-1.940318
30
0
11
-0.176437635888422
21
-0.0556305729082903
31
0
210
0
220
0
230
1
40
0.986053
41
1.79903192900931
42
2.66978028135651
0
ELLIPSE
5
AD
100
AcDbEntity
8
1
62
256
6
ByLayer
370
-1
48
1
60
0
100
AcDbEllipse
10
35.269744
20
-2.160113
30
0
11
-0.713380279159671
21
-0.224927938029194
31
0
210
0
220
0
230
1
40
0.986053
41
-2.53485187348248
42
-2.03373883840845
0
ELLIPSE
5
AE
100
AcDbEntity
8
1
62
256
6
ByLayer
370
-1
48
1
60
0
100
AcDbEllipse
10
36.397109
20
-2.455048
30
0
11
-0.402468553215752
21
-0.126897847390803
31
0
210
0
220
0
230
1
40
0.986053
41
-1.34256072458056
42
-0.567660996728132
0
ELLIPSE
5
AF
100
AcDbEntity
8
1
62
256
6
ByLayer
370
-1
48
1
60
0
100
AcDbEllipse
10
35.319792
20
-2.318843
30
0
11
0.98709704402441
21
0.31123050248692
31
0
210
0
220
0
230
1
40
0.986053
41
-2.13717035403315
42
-1.09083078249649
0
ELLIPSE
5
B0
100
AcDbEntity
8
1
62
256
6
ByLayer
370
-1
48
1
60
0
100
AcDbEllipse
10
35.319792
20
-2.318843
30
0
11
0.98709704402441
21
0.31123050248692
31
0
210
0
220
0
230
1
40
0.986053
41
-0.0444912109597539
42
1.0044222995567
0
ELLIPSE
5
B1
100
AcDbEntity
8
1
62
256
6
ByLayer
370
-1
48
1
60
0
100
AcDbEllipse
10
35.568145
20
-3.274567
30
0
11
-0.402468553215752
21
-0.126897847390803
31
0
210
0
220
0
230
1
40
0.986053
41
-2.38890029611717
42
-1.61400056826478
0
ELLIPSE
5
B2
100
AcDbEntity
8
1
62
256
6
ByLayer
370
-1
48
1
60
0
100
AcDbEllipse
10
35.274749
20
-2.175986
30
0
11
1.64516174004068
21
0.518717504144866
31
0
210
0
220
0
230
1
40
0.986053
41
2.83210850901039
42
-3.14153153971711
0
ELLIPSE
5
B3
100
AcDbEntity
8
1
62
256
6
ByLayer
370
-1
48
1
60
0
100
AcDbEllipse
10
35.274749
20
-2.175986
30
0
11
1.64516174004068
21
0.518717504144866
31
0
210
0
220
0
230
1
40
0.986053
41
0
42
2.83210856643897
0
ELLIPSE
5
B4
100
AcDbEntity
8
1
62
256
6
ByLayer
370
-1
48
1
60
0
100
AcDbEllipse
10
34.441211
20
-2.979206
30
0
11
-0.402468553215752
21
-0.126897847390803
31
0
210
0
220
0
230
1
40
0.986053
41
-3.14158449842981
42
-2.72854043160716
0
ELLIPSE
5
B5
100
AcDbEntity
8
1
62
256
6
ByLayer
370
-1
48
1
60
0
100
AcDbEllipse
10
35.568145
20
-3.274567
30
0
11
-0.402468553215752
21
-0.126897847390803
31
0
210
0
220
0
230
1
40
0.986053
41
-1.61400056826478
42
-0.839100840412337
0
ELLIPSE
5
B6
100
AcDbEntity
8
1
62
256
6
ByLayer
370
-1
48
1
60
0
100
AcDbEllipse
10
35.319792
20
-2.318843
30
0
11
0.98709704402441
21
0.31123050248692
31
0
210
0
220
0
230
1
40
0.986053
41
1.0044222995567
42
2.05076187109338
0
ELLIPSE
5
B7
100
AcDbEntity
8
1
62
256
6
ByLayer
370
-1
48
1
60
0
100
AcDbEllipse
10
35.047444
20
-2.971797
30
0
11
-0.176437635888422
21
-0.0556305729082903
31
0
210
0
220
0
230
1
40
0.986053
41
0.362246090577831
42
2.30249181317742
0
ELLIPSE
5
B8
100
AcDbEntity
8
1
62
256
6
ByLayer
370
-1
48
1
60
0
100
AcDbEllipse
10
35.311087
20
-2.291235
30
0
11
1.64516174004069
21
0.518717504144868
31
0
210
0
220
0
230
1
40
0.986053
41
0
42
6.28318530717959
0
ELLIPSE
5
B9
100
AcDbEntity
8
1
62
256
6
ByLayer
370
-1
48
1
60
0
100
AcDbEllipse
10
34.448678
20
-2.379907
30
0
11
-0.176437635888422
21
-0.0556305729082903
31
0
210
0
220
0
230
1
40
0.986053
41
0.474444993443664
42
1.25705174419066
0
ELLIPSE
5
BA
100
AcDbEntity
8
1
62
256
6
ByLayer
370
-1
48
1
60
0
100
AcDbEllipse
10
35.311499
20
-2.292541
30
0
11
0.713380279159675
21
0.224927938029195
31
0
210
0
220
0
230
1
40
0.986053
41
0.442234192381129
42
0.517696896215748
0
ELLIPSE
5
BB
100
AcDbEntity
8
1
62
256
6
ByLayer
370
-1
48
1
60
0
100
AcDbEllipse
10
35.319792
20
-2.318843
30
0
11
0.98709704402441
21
0.31123050248692
31
0
210
0
220
0
230
1
40
0.986053
41
-1.09083078249649
42
-0.0444912109597539
0
ELLIPSE
5
BC
100
AcDbEntity
8
1
62
256
6
ByLayer
370
-1
48
1
60
0
100
AcDbEllipse
10
35.269744
20
-2.160113
30
0
11
-0.713380279159671
21
-0.224927938029194
31
0
210
0
220
0
230
1
40
0.986053
41
2.57393165686168
42
-2.98474809083524
0
ELLIPSE
5
BD
100
AcDbEntity
8
1
62
256
6
ByLayer
370
-1
48
1
60
0
100
AcDbEllipse
10
35.319792
20
-2.318843
30
0
11
0.98709704402441
21
0.31123050248692
31
0
210
0
220
0
230
1
40
0.986053
41
3.09710144263003
42
-2.13717035403315
0
ELLIPSE
5
BE
100
AcDbEntity
8
1
62
256
6
ByLayer
370
-1
48
1
60
0
100
AcDbEllipse
10
35.269744
20
-2.160113
30
0
11
-0.713380279159671
21
-0.224927938029194
31
0
210
0
220
0
230
1
40
0.986053
41
-0.226047629958888
42
0.442234192381607
0
ELLIPSE
5
BF
100
AcDbEntity
8
1
62
256
6
ByLayer
370
-1
48
1
60
0
100
AcDbEllipse
10
34.441211
20
-2.979206
30
0
11
-0.402468553215752
21
-0.126897847390803
31
0
210
0
220
0
230
1
40
0.986053
41
-2.59471378697554
42
-1.88454090939943
0
ELLIPSE
5
C0
100
AcDbEntity
8
1
62
256
6
ByLayer
370
-1
48
1
60
0
100
AcDbEllipse
10
35.867623
20
-2.751124
30
0
11
-0.176437635888422
21
-0.0556305729082903
31
0
210
0
220
0
230
1
40
0.986053
41
0.752692357472794
42
3.04483796643169
0
ELLIPSE
5
C1
100
AcDbEntity
8
1
62
256
6
ByLayer
370
-1
48
1
60
0
100
AcDbEllipse
10
35.319792
20
-2.318843
30
0
11
0.98709704402441
21
0.31123050248692
31
0
210
0
220
0
230
1
40
0.986053
41
2.05076187109338
42
3.09710144263003
0
ELLIPSE
5
C2
100
AcDbEntity
8
1
62
256
6
ByLayer
370
-1
48
1
60
0
100
AcDbEllipse
10
35.269744
20
-2.160113
30
0
11
-0.713380279159671
21
-0.224927938029194
31
0
210
0
220
0
230
1
40
0.986053
41
0.517696896215276
42
1.52759208532502
0
ELLIPSE
5
C3
100
AcDbEntity
8
1
62
256
6
ByLayer
370
-1
48
1
60
0
100
AcDbEllipse
10
36.397109
20
-2.455048
30
0
11
-0.402468553215752
21
-0.126897847390803
31
0
210
0
220
0
230
1
40
0.986053
41
-0.567660996728132
42
-1.01943815769683E-05
0
ELLIPSE
5
C4
100
AcDbEntity
8
1
62
256
6
ByLayer
370
-1
48
1
60
0
100
AcDbEllipse
10
35.269744
20
-2.160113
30
0
11
0.713380279159665
21
0.224927938029192
31
0
210
0
220
0
230
1
40
0.986053
41
-2.6993584612082
42
-2.62389575737453
0
ELLIPSE
5
C5
100
AcDbEntity
8
1
62
256
6
ByLayer
370
-1
48
1
60
0
100
AcDbEllipse
10
35.269744
20
-2.160113
30
0
11
0.713380279159665
21
0.224927938029192
31
0
210
0
220
0
230
1
40
0.986053
41
-1.61400056826479
42
-0.567660996728138
0
ELLIPSE
5
C6
100
AcDbEntity
8
1
62
256
6
ByLayer
370
-1
48
1
60
0
100
AcDbEllipse
10
35.311499
20
-2.292541
30
0
11
0.713380279159675
21
0.224927938029195
31
0
210
0
220
0
230
1
40
0.986053
41
-2.69935846120824
42
-2.62389575737447
0
POINT
5
41
100
AcDbEntity
8
80
62
256
6
ByLayer
370
-1
48
1
60
0
100
AcDbPoint
10
0
20
0
30
0
39
0
210
0
220
0
230
1
50
360
0
POINT
5
43
100
AcDbEntity
8
81
62
256
6
ByLayer
370
-1
48
1
60
0
100
AcDbPoint
10
39.95
20
-6.9
30
0
39
0
210
0
220
0
230
1
50
360
0
POINT
5
45
100
AcDbEntity
8
1
62
256
6
ByLayer
370
-1
48
1
60
0
100
AcDbPoint
10
-86.3
20
0
30
0
39
0
210
0
220
0
230
1
50
360
0
POINT
5
47
100
AcDbEntity
8
2
62
256
6
ByLayer
370
-1
48
1
60
0
100
AcDbPoint
10
39.95
20
6.9
30
0
39
0
210
0
220
0
230
1
50
360
0
POINT
5
49
100
AcDbEntity
8
2
62
256
6
ByLayer
370
-1
48
1
60
0
100
AcDbPoint
10
39.543298
20
5.820703
30
0
39
0
210
0
220
0
230
1
50
360
0
SPLINE
5
C7
100
AcDbEntity
8
1
62
256
6
ByLayer
370
-1
48
1
60
0
100
AcDbSpline
70
4
71
3
72
8
73
4
40
0
40
0
40
0
40
0
40
1
40
1
40
1
40
1
41
1
10
32.0000013413677
20
4.56850975819677
30
0
41
1
10
32.0250056840307
20
4.54351416993748
30
0
41
1
10
32.0500057531683
20
4.51851440239383
30
0
41
1
10
32.0750013413677
20
4.49351025720586
30
0
0
SPLINE
5
C8
100
AcDbEntity
8
1
62
256
6
ByLayer
370
-1
48
1
60
0
100
AcDbSpline
70
4
71
3
72
8
73
4
40
0
40
0
40
0
40
0
40
1
40
1
40
1
40
1
41
1
10
34.3076726876784
20
4.71616758248072
30
0
41
1
10
34.1277237271643
20
4.65372535078086
30
0
41
1
10
33.947822484969
20
4.59114574554829
30
0
41
1
10
33.7679750503745
20
4.52841247886388
30
0
0
SPLINE
5
C9
100
AcDbEntity
8
1
62
256
6
ByLayer
370
-1
48
1
60
0
100
AcDbSpline
70
4
71
3
72
48
73
44
40
-0.105477086409679
40
-0.105477086409679
40
0
40
0
40
0.0621985991826322
40
0.0621985991826322
40
0.108235055608259
40
0.108235055608259
40
0.154815130608577
40
0.154815130608577
40
0.194593647067399
40
0.194593647067399
40
0.231022398440898
40
0.231022398440898
40
0.267613245376083
40
0.267613245376083
40
0.305722087474041
40
0.305722087474041
40
0.346216355826116
40
0.346216355826116
40
0.390438789252552
40
0.390438789252552
40
0.440884712085891
40
0.440884712085891
40
0.518100276766859
40
0.518100276766859
40
0.619093552882212
40
0.619093552882212
40
0.657394430524462
40
0.657394430524462
40
0.698101887079481
40
0.698101887079481
40
0.713148948597315
40
0.713148948597315
40
0.728488547200093
40
0.728488547200093
40
0.741804143712219
40
0.741804143712219
40
0.75907470609288
40
0.75907470609288
40
0.801900854021693
40
0.801900854021693
40
0.894522913590321
40
0.894522913590321
40
1
40
1
40
1.06219859918263
40
1.06219859918263
41
1
10
26.8135521551069
20
-0.925859315120533
30
0
41
1
10
26.4880954674147
20
-0.794212655378573
30
0
41
1
10
26.3636621049186
20
-0.765142165038156
30
0
41
1
10
26.152505665354
20
-0.769935914916402
30
0
41
1
10
26.062413099707
20
-0.789924331092067
30
0
41
1
10
25.8919110420722
20
-0.872623746892657
30
0
41
1
10
25.8089707240611
20
-0.937570910283199
30
0
41
1
10
25.6734173533875
20
-1.09262653512826
30
0
41
1
10
25.6161047183601
20
-1.17987350835378
30
0
41
1
10
25.5238962525915
20
-1.36032386285982
30
0
41
1
10
25.4861992262681
20
-1.45476977770176
30
0
41
1
10
25.4279037220193
20
-1.64407460063532
30
0
41
1
10
25.4065888097487
20
-1.74140548212
30
0
41
1
10
25.3822371916816
20
-1.93026907269626
30
0
41
1
10
25.3797049123752
20
-2.02384304480566
30
0
41
1
10
25.3962097832813
20
-2.19878548245254
30
0
41
1
10
25.4168513673482
20
-2.28125356051828
30
0
41
1
10
25.4833820762907
20
-2.4297493152396
30
0
41
1
10
25.5321947700649
20
-2.49545558428443
30
0
41
1
10
25.6597394415645
20
-2.60884703015895
30
0
41
1
10
25.7430543710696
20
-2.65420772762019
30
0
41
1
10
25.9772255972916
20
-2.73605755724753
30
0
41
1
10
26.1442581432533
20
-2.75739123798468
30
0
41
1
10
26.5516986902761
20
-2.76333578974203
30
0
41
1
10
26.8063650231235
20
-2.73668805813332
30
0
41
1
10
27.1596703252736
20
-2.66251602016482
30
0
41
1
10
27.2585599148502
20
-2.63765871875796
30
0
41
1
10
27.4594037424321
20
-2.57248608072291
30
0
41
1
10
27.5638413591143
20
-2.53182737512381
30
0
41
1
10
27.6909491046419
20
-2.44925428287027
30
0
41
1
10
27.7240078512161
20
-2.4236089019162
30
0
41
1
10
27.781383896479
20
-2.36374635921058
30
0
41
1
10
27.8060155570042
20
-2.32825241279426
30
0
41
1
10
27.8352146881465
20
-2.25645024131981
30
0
41
1
10
27.84226722274
20
-2.22006966509647
30
0
41
1
10
27.8445934406029
20
-2.13808437869341
30
0
41
1
10
27.8364039665407
20
-2.09163988086306
30
0
41
1
10
27.7917688598145
20
-1.93948869280487
30
0
41
1
10
27.7335976232068
20
-1.84071082484377
30
0
41
1
10
27.5370939887421
20
-1.55265203572009
30
0
41
1
10
27.3735056909123
20
-1.38110406501369
30
0
41
1
10
27.0167690448757
20
-1.06608436424881
30
0
41
1
10
26.8135521551069
20
-0.925859315120533
30
0
41
1
10
26.4880954674147
20
-0.794212655378573
30
0
0
SPLINE
5
CA
100
AcDbEntity
8
1
62
256
6
ByLayer
370
-1
48
1
60
0
100
AcDbSpline
70
4
71
3
72
14
73
10
40
0
40
0
40
0
40
0
40
0.25
40
0.25
40
0.5
40
0.5
40
0.75
40
0.75
40
1
40
1
40
1
40
1
41
1
10
25.3019672900843
20
-0.204215349875938
30
0
41
1
10
25.1120705961966
20
-0.900366009982122
30
0
41
1
10
24.9189905215938
20
-1.59514135291684
30
0
41
1
10
24.612819809336
20
-2.86260809259645
30
0
41
1
10
24.4962882683947
20
-3.45080439213063
30
0
41
1
10
24.6679452734517
20
-4.35090403107114
30
0
41
1
10
25.0054940754229
20
-4.64053124141967
30
0
41
1
10
26.1202956481903
20
-4.9152796520184
30
0
41
1
10
26.8423481553309
20
-4.93755669593224
30
0
41
1
10
27.5759943077467
20
-4.94303114256311
30
0
0
SPLINE
5
CB
100
AcDbEntity
8
1
62
256
6
ByLayer
370
-1
48
1
60
0
100
AcDbSpline
70
4
71
3
72
10
73
6
40
0
40
0
40
0
40
0
40
0.415224827380966
40
0.415224827380966
40
1
40
1
40
1
40
1
41
1
10
30.8586820932684
20
-4.99361320636896
30
0
41
1
10
30.8825151657238
20
-4.99364685360922
30
0
41
1
10
30.9092177625911
20
-4.99196748909097
30
0
41
1
10
30.9805512283216
20
-4.98396734471137
30
0
41
1
10
31.0282637214564
20
-4.97612075732408
30
0
41
1
10
31.0817244416385
20
-4.96572315764632
30
0
0
SPLINE
5
CC
100
AcDbEntity
8
1
62
256
6
ByLayer
370
-1
48
1
60
0
100
AcDbSpline
70
4
71
3
72
12
73
8
40
0
40
0
40
0
40
0
40
0.178642173504625
40
0.178642173504625
40
0.6705335951897
40
0.6705335951897
40
1
40
1
40
1
40
1
41
1
10
25.4142309045281
20
0.204215349875938
30
0
41
1
10
25.4080684086133
20
0.180723442644165
30
0
41
1
10
25.4017121089719
20
0.156697985166602
30
0
41
1
10
25.3774477410815
20
0.065905698901588
30
0
41
1
10
25.3582776727661
20
-0.003798334162127
30
0
41
1
10
25.3267523092455
20
-0.116407979839607
30
0
41
1
10
25.3140574525403
20
-0.161269484717366
30
0
41
1
10
25.3019672900844
20
-0.204215349875938
30
0
0
SPLINE
5
CD
100
AcDbEntity
8
1
62
256
6
ByLayer
370
-1
48
1
60
0
100
AcDbSpline
70
4
71
3
72
8
73
4
40
0
40
0
40
0
40
0
40
1
40
1
40
1
40
1
41
1
10
34.3076726876784
20
4.71616758248072
30
0
41
1
10
34.3072949402494
20
4.89621153322284
30
0
41
1
10
34.3069490759344
20
5.01061546828322
30
0
41
1
10
34.3066337683367
20
5.06212160020627
30
0
0
SPLINE
5
CE
100
AcDbEntity
8
1
62
256
6
ByLayer
370
-1
48
1
60
0
100
AcDbSpline
70
4
71
3
72
10
73
6
40
0
40
0
40
0
40
0
40
0.5
40
0.5
40
1
40
1
40
1
40
1
41
1
10
29.1096739471159
20
4.44473040419999
30
0
41
1
10
28.0416327684629
20
4.28665753196523
30
0
41
1
10
27.1567596832236
20
3.86690219810242
30
0
41
1
10
26.0200485583179
20
2.34699741185264
30
0
41
1
10
25.7131367617437
20
1.28089776320456
30
0
41
1
10
25.4142309045281
20
0.204215349875938
30
0
0
SPLINE
5
CF
100
AcDbEntity
8
1
62
256
6
ByLayer
370
-1
48
1
60
0
100
AcDbSpline
70
4
71
3
72
26
73
22
40
0
40
0
40
0
40
0
40
0.0015381969528611
40
0.0015381969528611
40
0.123060510335271
40
0.123060510335271
40
0.244582823745893
40
0.244582823745893
40
0.366105137199016
40
0.366105137199016
40
0.487627450731088
40
0.487627450731088
40
0.609149764443416
40
0.609149764443416
40
0.730672078706674
40
0.730672078706674
40
0.852194395919329
40
0.852194395919329
40
0.973716770813979
40
0.973716770813979
40
1
40
1
40
1
40
1
41
1
10
30.8585036212899
20
2.24919937371058
30
0
41
1
10
30.8585550605307
20
2.24929025299301
30
0
41
1
10
30.8586065944103
20
2.24938107540623
30
0
41
1
10
30.8627370237997
20
2.25664257432553
30
0
41
1
10
30.8674335817344
20
2.26350558683367
30
0
41
1
10
30.8778689043826
20
2.27633369266758
30
0
41
1
10
30.8836434599407
20
2.28234278355336
30
0
41
1
10
30.8960686828356
20
2.29330371126176
30
0
41
1
10
30.9027619659337
20
2.29829314163703
30
0
41
1
10
30.9168343845569
20
2.30708457394664
30
0
41
1
10
30.9242617853598
20
2.31091672854478
30
0
41
1
10
30.9395932633042
20
2.31729618581153
30
0
41
1
10
30.9475499240182
20
2.31986536860291
30
0
41
1
10
30.9637175983349
20
2.32365689672787
30
0
41
1
10
30.9719840634789
20
2.32489224615676
30
0
41
1
10
30.9885420079492
20
2.3259912696254
30
0
41
1
10
30.9968902773548
20
2.32585871304045
30
0
41
1
10
31.0133818052847
20
2.32423491874775
30
0
41
1
10
31.0215816252746
20
2.32273811150469
30
0
41
1
10
31.031293800112
20
2.32012199043891
30
0
41
1
10
31.0330120834701
20
2.3196261352264
30
0
41
1
10
31.0347209524584
20
2.3190996110547
30
0
0
SPLINE
5
D0
100
AcDbEntity
8
1
62
256
6
ByLayer
370
-1
48
1
60
0
100
AcDbSpline
70
4
71
3
72
16
73
12
40
0
40
0
40
0
40
0
40
0.10444690146187
40
0.10444690146187
40
0.417962260941795
40
0.417962260941795
40
0.697268721157494
40
0.697268721157494
40
0.944188975246839
40
0.944188975246839
40
1
40
1
40
1
40
1
41
1
10
36.0756449951208
20
-2.80883053128241
30
0
41
1
10
36.0796421592747
20
-2.81616794895263
30
0
41
1
10
36.0832329865859
20
-2.82378623512662
30
0
41
1
10
36.0956770928978
20
-2.85491819991174
30
0
41
1
10
36.1009987181754
20
-2.88072535291886
30
0
41
1
10
36.1012588654534
20
-2.92940850699387
30
0
41
1
10
36.0972205946441
20
-2.95305442549397
30
0
41
1
10
36.0816977384742
20
-2.99410864731152
30
0
41
1
10
36.0708792274606
20
-3.01250959330017
30
0
41
1
10
36.0543603987131
20
-3.0317281670402
30
0
41
1
10
36.0511429492998
20
-3.03517845794252
30
0
41
1
10
36.0477969180335
20
-3.03848636555949
30
0
0
SPLINE
5
D1
100
AcDbEntity
8
1
62
256
6
ByLayer
370
-1
48
1
60
0
100
AcDbSpline
70
4
71
3
72
12
73
8
40
0
40
0
40
0
40
0
40
0.249538270331561
40
0.249538270331561
40
0.591797214635532
40
0.591797214635532
40
1
40
1
40
1
40
1
41
1
10
34.8013589727163
20
-2.83610858739516
30
0
41
1
10
34.8186274590673
20
-2.85581390538016
30
0
41
1
10
34.8341453165219
20
-2.8775331746632
30
0
41
1
10
34.8655724026773
20
-2.93142636865176
30
0
41
1
10
34.87980165753
20
-2.96504139512308
30
0
41
1
10
34.9018033584707
20
-3.03936169301474
30
0
41
1
10
34.9081558343286
20
-3.08106504265854
30
0
41
1
10
34.9093078308397
20
-3.12194613680009
30
0
0
SPLINE
5
D2
100
AcDbEntity
8
1
62
256
6
ByLayer
370
-1
48
1
60
0
100
AcDbSpline
70
4
71
3
72
12
73
8
40
0
40
0
40
0
40
0
40
0.333606464995644
40
0.333606464995644
40
0.739432679440868
40
0.739432679440868
40
1
40
1
40
1
40
1
41
1
10
34.4930316546706
20
-2.71045102622861
30
0
41
1
10
34.5234384009293
20
-2.70802234475573
30
0
41
1
10
34.5544867622869
20
-2.70916490077747
30
0
41
1
10
34.622702262403
20
-2.72058630289661
30
0
41
1
10
34.6605748006238
20
-2.73304961519275
30
0
41
1
10
34.7189455924898
20
-2.76425796571971
30
0
41
1
10
34.7411633689099
20
-2.77936065886536
30
0
41
1
10
34.7616649578956
20
-2.79687047108502
30
0
0
SPLINE
5
D3
100
AcDbEntity
8
1
62
256
6
ByLayer
370
-1
48
1
60
0
100
AcDbSpline
70
4
71
3
72
20
73
16
40
0
40
0
40
0
40
0
40
0.0886525865283143
40
0.0886525865283143
40
0.289311521924523
40
0.289311521924523
40
0.452673718723757
40
0.452673718723757
40
0.616782044159235
40
0.616782044159235
40
0.771482967268537
40
0.771482967268537
40
0.992066667407805
40
0.992066667407805
40
1
40
1
40
1
40
1
41
1
10
34.557136598494
20
-1.80728177506481
30
0
41
1
10
34.5654646998744
20
-1.82132365606583
30
0
41
1
10
34.5728805565629
20
-1.83613467464014
30
0
41
1
10
34.5936432899042
20
-1.88655018333432
30
0
41
1
10
34.602932876716
20
-1.92567215603989
30
0
41
1
10
34.6076511442944
20
-2.00078683623127
30
0
41
1
10
34.6052946233244
20
-2.03687145057964
30
0
41
1
10
34.5910270105556
20
-2.10861722248671
30
0
41
1
10
34.5788507077916
20
-2.14520262153729
30
0
41
1
10
34.5477903738725
20
-2.21120210834624
30
0
41
1
10
34.5290229832615
20
-2.2416943125132
30
0
41
1
10
34.4782951482575
20
-2.30778486205483
30
0
41
1
10
34.4433003725082
20
-2.34130749515961
30
0
41
1
10
34.4046952057609
20
-2.36904777322673
30
0
41
1
10
34.4033349800264
20
-2.37001428754232
30
0
41
1
10
34.4019711635846
20
-2.37097252885968
30
0
0
SPLINE
5
D4
100
AcDbEntity
8
1
62
256
6
ByLayer
370
-1
48
1
60
0
100
AcDbSpline
70
4
71
3
72
12
73
8
40
0
40
0
40
0
40
0
40
0.455141173016116
40
0.455141173016116
40
0.838107451779389
40
0.838107451779389
40
1
40
1
40
1
40
1
41
1
10
36.139716773927
20
-1.90555609413235
30
0
41
1
10
36.0960698113822
20
-1.90188720704174
30
0
41
1
10
36.0511615913862
20
-1.89194664762743
30
0
41
1
10
35.9712503460831
20
-1.86167096110938
30
0
41
1
10
35.9349344949204
20
-1.84281343899886
30
0
41
1
10
35.8877652966075
20
-1.81000349990865
30
0
41
1
10
35.8741822573463
20
-1.79942494977686
30
0
41
1
10
35.8613328727307
20
-1.78821170342951
30
0
0
SPLINE
5
D5
100
AcDbEntity
8
1
62
256
6
ByLayer
370
-1
48
1
60
0
100
AcDbSpline
70
4
71
3
72
16
73
12
40
0
40
0
40
0
40
0
40
0.0552451464895653
40
0.0552451464895653
40
0.280003888083163
40
0.280003888083163
40
0.507086244432257
40
0.507086244432257
40
0.748198553166805
40
0.748198553166805
40
1
40
1
40
1
40
1
41
1
10
34.3200221051622
20
-2.58647474062405
30
0
41
1
10
34.3188407820413
20
-2.58203962309131
30
0
41
1
10
34.3178242869373
20
-2.57754189191681
30
0
41
1
10
34.3135587421136
20
-2.55468589309959
30
0
41
1
10
34.3129341909439
20
-2.53540879339278
30
0
41
1
10
34.3171546081808
20
-2.49785608573458
30
0
41
1
10
34.3220957086623
20
-2.47911306626773
30
0
41
1
10
34.336875943069
20
-2.44345139547195
30
0
41
1
10
34.3471661085719
20
-2.42626278545447
30
0
41
1
10
34.3716768803516
20
-2.39560840573228
30
0
41
1
10
34.386315522812
20
-2.3819724562529
30
0
41
1
10
34.4019711635846
20
-2.37097252885968
30
0
0
SPLINE
5
D6
100
AcDbEntity
8
1
62
256
6
ByLayer
370
-1
48
1
60
0
100
AcDbSpline
70
4
71
3
72
18
73
14
40
0
40
0
40
0
40
0
40
0.205309676807621
40
0.205309676807621
40
0.382271364781185
40
0.382271364781185
40
0.560964662340624
40
0.560964662340624
40
0.71611995548495
40
0.71611995548495
40
0.920879428180989
40
0.920879428180989
40
1
40
1
40
1
40
1
41
1
10
35.379992854833
20
-1.40409411544158
30
0
41
1
10
35.3575738888092
20
-1.43623523691221
30
0
41
1
10
35.32914692923
20
-1.46658090979557
30
0
41
1
10
35.2665732841544
20
-1.51599311618335
30
0
41
1
10
35.2329774382556
20
-1.53654855943807
30
0
41
1
10
35.1602663572034
20
-1.56935666809696
30
0
41
1
10
35.1199747406075
20
-1.58193969245369
30
0
41
1
10
35.0453476697367
20
-1.59552899133607
30
0
41
1
10
35.0100394117509
20
-1.5980404184125
30
0
41
1
10
34.9325316640595
20
-1.59536639602163
30
0
41
1
10
34.8903748498927
20
-1.58753265553184
30
0
41
1
10
34.837683169399
20
-1.56973710383198
30
0
41
1
10
34.8234359058755
20
-1.56397456282173
30
0
41
1
10
34.8097863285881
20
-1.55751065815588
30
0
0
SPLINE
5
D7
100
AcDbEntity
8
1
62
256
6
ByLayer
370
-1
48
1
60
0
100
AcDbSpline
70
4
71
3
72
16
73
12
40
0
40
0
40
0
40
0
40
0.0994029300452222
40
0.0994029300452222
40
0.408053884949462
40
0.408053884949462
40
0.687703224597117
40
0.687703224597117
40
0.935013966137568
40
0.935013966137568
40
1
40
1
40
1
40
1
41
1
10
36.1397167739267
20
-1.90555609413042
30
0
41
1
10
36.1473516926813
20
-1.90619787200507
30
0
41
1
10
36.1550324273537
20
-1.90727329688812
30
0
41
1
10
36.1862369506019
20
-1.91345592108837
30
0
41
1
10
36.2100750009081
20
-1.92254175268312
30
0
41
1
10
36.2510727530305
20
-1.94764632803006
30
0
41
1
10
36.2692652560983
20
-1.9633663093837
30
0
41
1
10
36.2969453335475
20
-1.99770635630014
30
0
41
1
10
36.3075785718867
20
-2.01629899994123
30
0
41
1
10
36.3165217581681
20
-2.04075919021392
30
0
41
1
10
36.3181643291744
20
-2.04596537791176
30
0
41
1
10
36.3195613692592
20
-2.05121037554585
30
0
0
SPLINE
5
D8
100
AcDbEntity
8
1
62
256
6
ByLayer
370
-1
48
1
60
0
100
AcDbSpline
70
4
71
3
72
14
73
10
40
0
40
0
40
0
40
0
40
0.227622305794707
40
0.227622305794707
40
0.521946788228249
40
0.521946788228249
40
0.788066516341096
40
0.788066516341096
40
1
40
1
40
1
40
1
41
1
10
34.5571365984936
20
-1.80728177506506
30
0
41
1
10
34.54933198355
20
-1.79412253632736
30
0
41
1
10
34.5433849805662
20
-1.77942433821917
30
0
41
1
10
34.535187130756
20
-1.74379607459835
30
0
41
1
10
34.5344548326119
20
-1.72167959551805
30
0
41
1
10
34.5416814774467
20
-1.67985030249284
30
0
41
1
10
34.5489649854955
20
-1.65947657523
30
0
41
1
10
34.5682479602977
20
-1.62586841038632
30
0
41
1
10
34.5791984271343
20
-1.61164345459761
30
0
41
1
10
34.5917865563879
20
-1.59919875061041
30
0
0
SPLINE
5
D9
100
AcDbEntity
8
1
62
256
6
ByLayer
370
-1
48
1
60
0
100
AcDbSpline
70
4
71
3
72
16
73
12
40
0
40
0
40
0
40
0
40
0.170818909470375
40
0.170818909470375
40
0.478002673204056
40
0.478002673204056
40
0.749879303755413
40
0.749879303755413
40
0.991542354020032
40
0.991542354020032
40
1
40
1
40
1
40
1
41
1
10
35.3799928548278
20
-1.40409411543933
30
0
41
1
10
35.3868258336045
20
-1.39429796334937
30
0
41
1
10
35.3948795582318
20
-1.38496494461734
30
0
41
1
10
35.4203306125212
20
-1.36109864037664
30
0
41
1
10
35.440637018462
20
-1.34793606232717
30
0
41
1
10
35.4830931978397
20
-1.33074188221224
30
0
41
1
10
35.5054361776712
20
-1.32560976721774
30
0
41
1
10
35.548013257627
20
-1.32320000431346
30
0
41
1
10
35.5688181691538
20
-1.32509852338487
30
0
41
1
10
35.5890866827921
20
-1.33014019627839
30
0
41
1
10
35.5897812440044
20
-1.33031695273672
30
0
41
1
10
35.5904745939669
20
-1.33049739606165
30
0
0
SPLINE
5
DA
100
AcDbEntity
8
1
62
256
6
ByLayer
370
-1
48
1
60
0
100
AcDbSpline
70
4
71
3
72
14
73
10
40
0
40
0
40
0
40
0
40
0.254895233954624
40
0.254895233954624
40
0.545817517572665
40
0.545817517572665
40
0.80908114341782
40
0.80908114341782
40
1
40
1
40
1
40
1
41
1
10
35.2527887387793
20
-3.21201819090757
30
0
41
1
10
35.243576946427
20
-3.22972898746485
30
0
41
1
10
35.2315321045621
20
-3.24631763078097
30
0
41
1
10
35.2008620819045
20
-3.27671345472876
30
0
41
1
10
35.1810142068166
20
-3.2902445321036
30
0
41
1
10
35.1397637951648
20
-3.30748432495596
30
0
41
1
10
35.1180492602412
20
-3.31222787709407
30
0
41
1
10
35.0806118961539
20
-3.31306546106421
30
0
41
1
10
35.0645319255893
20
-3.3112015452981
30
0
41
1
10
35.0491088804545
20
-3.30718772010823
30
0
0
SPLINE
5
DB
100
AcDbEntity
8
1
62
256
6
ByLayer
370
-1
48
1
60
0
100
AcDbSpline
70
4
71
3
72
18
73
14
40
0
40
0
40
0
40
0
40
0.199260747181189
40
0.199260747181189
40
0.377355775933783
40
0.377355775933783
40
0.557253692161955
40
0.557253692161955
40
0.712691781101662
40
0.712691781101662
40
0.916449106929448
40
0.916449106929448
40
1
40
1
40
1
40
1
41
1
10
36.0756449951181
20
-2.8088305312844
30
0
41
1
10
36.0549082496876
20
-2.77076500370421
30
0
41
1
10
36.0387754240513
20
-2.72894083084736
30
0
41
1
10
36.0202069563326
20
-2.64637978177237
30
0
41
1
10
36.0163918633224
20
-2.60503577943214
30
0
41
1
10
36.021019106562
20
-2.52343988628189
30
0
41
1
10
36.0297898879526
20
-2.48201274603775
30
0
41
1
10
36.0568746241199
20
-2.41219904957853
30
0
41
1
10
36.0740010075745
20
-2.38193885265184
30
0
41
1
10
36.1202184780224
20
-2.32118812920612
30
0
41
1
10
36.1520356057887
20
-2.29238916271925
30
0
41
1
10
36.2007495426793
20
-2.26069640591734
30
0
41
1
10
36.2155803299115
20
-2.25241278406207
30
0
41
1
10
36.2308104300277
20
-2.24513977748941
30
0
0
SPLINE
5
DC
100
AcDbEntity
8
1
62
256
6
ByLayer
370
-1
48
1
60
0
100
AcDbSpline
70
4
71
3
72
14
73
10
40
0
40
0
40
0
40
0
40
0.270214480673744
40
0.270214480673744
40
0.558657500140312
40
0.558657500140312
40
0.819821952015778
40
0.819821952015778
40
1
40
1
40
1
40
1
41
1
10
34.4930316546706
20
-2.71045102622864
30
0
41
1
10
34.4734268672046
20
-2.71201692162876
30
0
41
1
10
34.4532496788514
20
-2.71017771318421
30
0
41
1
10
34.4135703653689
20
-2.69888617675136
30
0
41
1
10
34.3935950120334
20
-2.68870459317554
30
0
41
1
10
34.3608066488949
20
-2.66205474086229
30
0
41
1
10
34.3470241800878
20
-2.64583896358221
30
0
41
1
10
34.3295353388315
20
-2.61483438779342
30
0
41
1
10
34.3238664500677
20
-2.60090781248311
30
0
41
1
10
34.3200221051622
20
-2.58647474062405
30
0
0
SPLINE
5
DD
100
AcDbEntity
8
1
62
256
6
ByLayer
370
-1
48
1
60
0
100
AcDbSpline
70
4
71
3
72
18
73
14
40
0
40
0
40
0
40
0
40
0.19937342766339
40
0.19937342766339
40
0.377448225409147
40
0.377448225409147
40
0.557324607256661
40
0.557324607256661
40
0.712757980992591
40
0.712757980992591
40
0.916534597543098
40
0.916534597543098
40
1
40
1
40
1
40
1
41
1
10
35.2527887387792
20
-3.21201819090751
30
0
41
1
10
35.2724646676498
20
-3.17418881308649
30
0
41
1
10
35.2979027552424
20
-3.13843382920746
30
0
41
1
10
35.3560131046438
20
-3.07953850469073
30
0
41
1
10
35.3883735518974
20
-3.05486973900108
30
0
41
1
10
35.45977566105
20
-3.01691679059672
30
0
41
1
10
35.5000220601351
20
-3.00332011882821
30
0
41
1
10
35.5755638625751
20
-2.99128625304351
30
0
41
1
10
35.6116793206007
20
-2.99083264281103
30
0
41
1
10
35.6914409641686
20
-3.00035171756915
30
0
41
1
10
35.7353096656892
20
-3.01359456943447
30
0
41
1
10
35.7916975649284
20
-3.04017846304453
30
0
41
1
10
35.8076696370582
20
-3.04895923015198
30
0
41
1
10
35.8229952650223
20
-3.05860164819472
30
0
0
SPLINE
5
DE
100
AcDbEntity
8
1
62
256
6
ByLayer
370
-1
48
1
60
0
100
AcDbSpline
70
4
71
3
72
16
73
12
40
0
40
0
40
0
40
0
40
0.163593071401643
40
0.163593071401643
40
0.387778886058912
40
0.387778886058912
40
0.620180931467205
40
0.620180931467205
40
0.871352087351858
40
0.871352087351858
40
1
40
1
40
1
40
1
41
1
10
36.3195613692592
20
-2.05121037554585
30
0
41
1
10
36.3230358501306
20
-2.06425484302284
30
0
41
1
10
36.3250053319966
20
-2.07767793460749
30
0
41
1
10
36.3259571844387
20
-2.10897718971114
30
0
41
1
10
36.3235426964144
20
-2.12706108711953
30
0
41
1
10
36.3133378423599
20
-2.16110190480771
30
0
41
1
10
36.3052421284564
20
-2.17739108762018
30
0
41
1
10
36.2840942982982
20
-2.20696182347581
30
0
41
1
10
36.2704482599906
20
-2.22027635797537
30
0
41
1
10
36.2475525933517
20
-2.23629489871362
30
0
41
1
10
36.2393315659837
20
-2.24107058048347
30
0
41
1
10
36.2308104300282
20
-2.24513977749058
30
0
0
SPLINE
5
DF
100
AcDbEntity
8
1
62
256
6
ByLayer
370
-1
48
1
60
0
100
AcDbSpline
70
4
71
3
72
14
73
10
40
0
40
0
40
0
40
0
40
0.046032592136349
40
0.046032592136349
40
0.382909072592939
40
0.382909072592939
40
0.829004063813318
40
0.829004063813318
40
1
40
1
40
1
40
1
41
1
10
35.8216388579095
20
-1.74897358711891
30
0
41
1
10
35.8184526544819
20
-1.74539771732313
30
0
41
1
10
35.8153366245999
20
-1.74178079339046
30
0
41
1
10
35.7902300782573
20
-1.71163370985607
30
0
41
1
10
35.771944590256
20
-1.68293235380273
30
0
41
1
10
35.7400924596912
20
-1.61593667887539
30
0
41
1
10
35.7292784334482
20
-1.57641892387372
30
0
41
1
10
35.7236778975396
20
-1.52331314273363
30
0
41
1
10
35.7230947850582
20
-1.50860594215422
30
0
41
1
10
35.7234405977578
20
-1.49406098356087
30
0
0
SPLINE
5
E0
100
AcDbEntity
8
1
62
256
6
ByLayer
370
-1
48
1
60
0
100
AcDbSpline
70
4
71
3
72
16
73
12
40
0
40
0
40
0
40
0
40
0.172503281985544
40
0.172503281985544
40
0.396784282473096
40
0.396784282473096
40
0.629746088302862
40
0.629746088302862
40
0.881844879168232
40
0.881844879168232
40
1
40
1
40
1
40
1
41
1
10
36.0477969180335
20
-3.03848636555949
30
0
41
1
10
36.0375641438263
20
-3.04860255068993
30
0
41
1
10
36.0259971096647
20
-3.05747379500505
30
0
41
1
10
35.9976670061207
20
-3.07407128925718
30
0
41
1
10
35.9800104071491
20
-3.08084143045511
30
0
41
1
10
35.9435597801977
20
-3.08862412470285
30
0
41
1
10
35.9242932450565
20
-3.08951947508507
30
0
41
1
10
35.885624286673
20
-3.08545218187928
30
0
41
1
10
35.8658555145341
20
-3.07997330709148
30
0
41
1
10
35.8391430313952
20
-3.06799996056955
30
0
41
1
10
35.8308804586329
20
-3.06356277170269
30
0
41
1
10
35.8229952650215
20
-3.05860164819589
30
0
0
SPLINE
5
E1
100
AcDbEntity
8
1
62
256
6
ByLayer
370
-1
48
1
60
0
100
AcDbSpline
70
4
71
3
72
18
73
14
40
0
40
0
40
0
40
0
40
0.0264309747931625
40
0.0264309747931625
40
0.251902842642993
40
0.251902842642993
40
0.478048781821696
40
0.478048781821696
40
0.716883767781572
40
0.716883767781572
40
0.977967646346399
40
0.977967646346399
40
1
40
1
40
1
40
1
41
1
10
34.5917865563879
20
-1.59919875061041
30
0
41
1
10
34.5933701947693
20
-1.59763315571689
30
0
41
1
10
34.5949816540632
20
-1.5960923377296
30
0
41
1
10
34.6104353152993
20
-1.58180081687576
30
0
41
1
10
34.6263589967651
20
-1.57078948756202
30
0
41
1
10
34.6597639056309
20
-1.55390421488013
30
0
41
1
10
34.6776714413522
20
-1.54781808717732
30
0
41
1
10
34.7140563986991
20
-1.54066991448727
30
0
41
1
10
34.7329634370793
20
-1.53980092890563
30
0
41
1
10
34.7702570808536
20
-1.54333011215965
30
0
41
1
10
34.7889032479223
20
-1.54824941076905
30
0
41
1
10
34.8069822094472
20
-1.55620640374366
30
0
41
1
10
34.8083908441391
20
-1.55684981142906
30
0
41
1
10
34.8097863285896
20
-1.55751065815426
30
0
0
SPLINE
5
E2
100
AcDbEntity
8
1
62
256
6
ByLayer
370
-1
48
1
60
0
100
AcDbSpline
70
4
71
3
72
16
73
12
40
0
40
0
40
0
40
0
40
0.217462413534468
40
0.217462413534468
40
0.442021425027321
40
0.442021425027321
40
0.677562518364624
40
0.677562518364624
40
0.934011939592828
40
0.934011939592828
40
1
40
1
40
1
40
1
41
1
10
35.5904745939669
20
-1.33049739606165
30
0
41
1
10
35.6080427096775
20
-1.33506947276643
30
0
41
1
10
35.6250394268665
20
-1.34214194593395
30
0
41
1
10
35.6558332480999
20
-1.36036367303782
30
0
41
1
10
35.6699050706966
20
-1.37186746559365
30
0
41
1
10
35.6936321194093
20
-1.39795097210805
30
0
41
1
10
35.7033503499173
20
-1.41296990027254
30
0
41
1
10
35.7176944668128
20
-1.44529657623977
30
0
41
1
10
35.7219920632938
20
-1.46308617976135
30
0
41
1
10
35.7234525932391
20
-1.48504436020505
30
0
41
1
10
35.7235474808023
20
-1.48956545908027
30
0
41
1
10
35.7234405977578
20
-1.49406098356087
30
0
0
SPLINE
5
E3
100
AcDbEntity
8
1
62
256
6
ByLayer
370
-1
48
1
60
0
100
AcDbSpline
70
4
71
3
72
18
73
14
40
0
40
0
40
0
40
0
40
0.0456533814301538
40
0.0456533814301538
40
0.269984057882627
40
0.269984057882627
40
0.496095687763111
40
0.496095687763111
40
0.735762294506309
40
0.735762294506309
40
0.998288031703304
40
0.998288031703304
40
1
40
1
40
1
40
1
41
1
10
35.0491088804545
20
-3.30718772010823
30
0
41
1
10
35.0453874181445
20
-3.30621921492442
30
0
41
1
10
35.041692510594
20
-3.30512544582396
30
0
41
1
10
35.0202299144399
20
-3.29799136261454
30
0
41
1
10
35.0031107959177
20
-3.28901410920525
30
0
41
1
10
34.9727863731063
20
-3.26651149600235
30
0
41
1
10
34.9592179065933
20
-3.25267541621062
30
0
41
1
10
34.9363917029806
20
-3.22139021339245
30
0
41
1
10
34.9271393048057
20
-3.2033944541285
30
0
41
1
10
34.9137283465766
20
-3.16463178464545
30
0
41
1
10
34.9099500249445
20
-3.14328497565683
30
0
41
1
10
34.909315739349
20
-3.1222220527354
30
0
41
1
10
34.9093117182831
20
-3.12208409115823
30
0
41
1
10
34.9093078308397
20
-3.12194613680009
30
0
0
SPLINE
5
E4
100
AcDbEntity
8
SK1
62
256
6
ByLayer
370
-1
48
1
60
0
100
AcDbSpline
70
4
71
3
72
22
73
18
40
0
40
0
40
0
40
0
40
0.250000000000001
40
0.250000000000001
40
0.375000000000003
40
0.375000000000003
40
0.500000000000006
40
0.500000000000006
40
0.531250000000007
40
0.531250000000007
40
0.562500000000009
40
0.562500000000009
40
0.625000000000007
40
0.625000000000007
40
0.750000000000005
40
0.750000000000005
40
1
40
1
40
1
40
1
41
1
10
-30.05
20
0.204215349875994
30
0
41
1
10
-30.4584173658861
20
0.204215349875994
30
0
41
1
10
-30.8667221047428
20
0.196763039806484
30
0
41
1
10
-31.4786574500243
20
0.167803329741048
30
0
41
1
10
-31.6823165528714
20
0.155331213204306
30
0
41
1
10
-32.0881416072518
20
0.117201738211236
30
0
41
1
10
-32.3215263011841
20
0.153024065834273
30
0
41
1
10
-32.526649850275
20
-0.0110937548652714
30
0
41
1
10
-32.439461113843
20
-0.0476159018251678
30
0
41
1
10
-32.3387112252005
20
-0.0749532783003986
30
0
41
1
10
-32.2874346483116
20
-0.0845555179086261
30
0
41
1
10
-32.1329017469481
20
-0.110191072964739
30
0
41
1
10
-32.0291364237662
20
-0.122128403615136
30
0
41
1
10
-31.7178483449742
20
-0.15293077509844
30
0
41
1
10
-31.5097013066031
20
-0.166021659542196
30
0
41
1
10
-30.8845245193121
20
-0.196489492264334
30
0
41
1
10
-30.4673002522227
20
-0.204215349875938
30
0
41
1
10
-30.05
20
-0.204215349875938
30
0
0
LINE
5
4A
100
AcDbEntity
8
80
62
256
6
ByLayer
370
-1
48
1
60
0
100
AcDbLine
10
0
20
0
30
0
11
-10
21
0
31
0
39
0
210
0
220
0
230
1
0
LINE
5
4B
100
AcDbEntity
8
81
62
256
6
ByLayer
370
-1
48
1
60
0
100
AcDbLine
10
39.95
20
-6.9
30
0
11
49.95
21
-6.9
31
0
39
0
210
0
220
0
230
1
0
LINE
5
4C
100
AcDbEntity
8
SK4
62
256
6
ByLayer
370
-1
48
0.05
60
0
100
AcDbLine
10
-91.3
20
0
30
0
11
44.543298
21
0
31
0
39
0
210
0
220
0
230
1
0
LINE
5
4E
100
AcDbEntity
8
4
62
256
6
ByLayer
370
-1
48
0.05
60
0
100
AcDbLine
10
0
20
0
30
0
11
44.543298
21
0
31
0
39
0
210
0
220
0
230
1
0
LINE
5
50
100
AcDbEntity
8
1
62
256
6
ByLayer
370
-1
48
1
60
0
100
AcDbLine
10
0
20
-4.99375
30
0
11
30.866772
21
-4.99375
31
0
39
0
210
0
220
0
230
1
0
LINE
5
51
100
AcDbEntity
8
1
62
256
6
ByLayer
370
-1
48
1
60
0
100
AcDbLine
10
30.057245
20
4.99375
30
0
11
0
21
4.99375
31
0
39
0
210
0
220
0
230
1
0
LINE
5
52
100
AcDbEntity
8
1
62
256
6
ByLayer
370
-1
48
1
60
0
100
AcDbLine
10
32.000001
20
4.99375
30
0
11
31.035631
21
4.99375
31
0
39
0
210
0
220
0
230
1
0
LINE
5
53
100
AcDbEntity
8
1
62
256
6
ByLayer
370
-1
48
1
60
0
100
AcDbLine
10
32.075001
20
4.91875
30
0
11
32.000001
21
4.99375
31
0
39
0
210
0
220
0
230
1
0
LINE
5
54
100
AcDbEntity
8
1
62
256
6
ByLayer
370
-1
48
1
60
0
100
AcDbLine
10
33.767975
20
4.91875
30
0
11
32.075001
21
4.91875
31
0
39
0
210
0
220
0
230
1
0
LINE
5
55
100
AcDbEntity
8
1
62
256
6
ByLayer
370
-1
48
1
60
0
100
AcDbLine
10
34.268705
20
5.080606
30
0
11
33.767975
21
4.91875
31
0
39
0
210
0
220
0
230
1
0
LINE
5
56
100
AcDbEntity
8
SK1
62
256
6
ByLayer
370
-1
48
1
60
0
100
AcDbLine
10
-85.8
20
4.99375
30
0
11
-86.3
21
4.49375
31
0
39
0
210
0
220
0
230
1
0
LINE
5
58
100
AcDbEntity
8
SK1
62
256
6
ByLayer
370
-1
48
1
60
0
100
AcDbLine
10
-86.3
20
-4.49375
30
0
11
-85.8
21
-4.99375
31
0
39
0
210
0
220
0
230
1
0
LINE
5
59
100
AcDbEntity
8
SK1
62
256
6
ByLayer
370
-1
48
1
60
0
100
AcDbLine
10
-85.8
20
-4.99375
30
0
11
0
21
-4.99375
31
0
39
0
210
0
220
0
230
1
0
LINE
5
5A
100
AcDbEntity
8
SK1
62
256
6
ByLayer
370
-1
48
1
60
0
100
AcDbLine
10
0
20
4.99375
30
0
11
-85.8
21
4.99375
31
0
39
0
210
0
220
0
230
1
0
LINE
5
5B
100
AcDbEntity
8
1
62
256
6
ByLayer
370
-1
48
1
60
0
100
AcDbLine
10
33.629587
20
-2.694703
30
0
11
33.665925
21
-2.809953
31
0
39
0
210
0
220
0
230
1
0
LINE
5
5C
100
AcDbEntity
8
1
62
256
6
ByLayer
370
-1
48
1
60
0
100
AcDbLine
10
36.956249
20
-1.772518
30
0
11
36.919911
21
-1.657268
31
0
39
0
210
0
220
0
230
1
0
LINE
5
5D
100
AcDbEntity
8
1
62
256
6
ByLayer
370
-1
48
1
60
0
100
AcDbLine
10
34.589518
20
-1.879956
30
0
11
34.544848
21
-1.738279
31
0
39
0
210
0
220
0
230
1
0
LINE
5
5E
100
AcDbEntity
8
1
62
256
6
ByLayer
370
-1
48
1
60
0
100
AcDbLine
10
35.695809
20
-1.467917
30
0
11
35.739724
21
-1.607197
31
0
39
0
210
0
220
0
230
1
0
LINE
5
5F
100
AcDbEntity
8
1
62
256
6
ByLayer
370
-1
48
1
60
0
100
AcDbLine
10
35.994641
20
-2.581946
30
0
11
36.039294
21
-2.723569
31
0
39
0
210
0
220
0
230
1
0
LINE
5
60
100
AcDbEntity
8
1
62
256
6
ByLayer
370
-1
48
1
60
0
100
AcDbLine
10
34.88748
20
-2.991226
30
0
11
34.843679
21
-2.852308
31
0
39
0
210
0
220
0
230
1
0
LINE
5
61
100
AcDbEntity
8
1
62
256
6
ByLayer
370
-1
48
1
60
0
100
AcDbLine
10
30.858585
20
2.249343
30
0
11
30.744406
21
2.048146
31
0
39
0
210
0
220
0
230
1
0
LINE
5
62
100
AcDbEntity
8
1
62
256
6
ByLayer
370
-1
48
1
60
0
100
AcDbLine
10
37.716514
20
0.224006
30
0
11
37.532786
21
0.311346
31
0
39
0
210
0
220
0
230
1
0
LINE
5
63
100
AcDbEntity
8
1
62
256
6
ByLayer
370
-1
48
1
60
0
100
AcDbLine
10
31.069255
20
2.313432
30
0
11
31.018666
21
2.323093
31
0
39
0
210
0
220
0
230
1
0
LINE
5
64
100
AcDbEntity
8
1
62
256
6
ByLayer
370
-1
48
1
60
0
100
AcDbLine
10
37.55388
20
0.488926
30
0
11
36.439718
21
4.022596
31
0
39
0
210
0
220
0
230
1
0
LINE
5
65
100
AcDbEntity
8
1
62
256
6
ByLayer
370
-1
48
1
60
0
100
AcDbLine
10
0
20
0.204215
30
0
11
25.414231
21
0.204215
31
0
39
0
210
0
220
0
230
1
0
LINE
5
66
100
AcDbEntity
8
1
62
256
6
ByLayer
370
-1
48
1
60
0
100
AcDbLine
10
34.989616
20
4.729281
30
0
11
34.306634
21
5.062122
31
0
39
0
210
0
220
0
230
1
0
LINE
5
67
100
AcDbEntity
8
1
62
256
6
ByLayer
370
-1
48
1
60
0
100
AcDbLine
10
27.575994
20
-4.943031
30
0
11
29.654756
21
2.742574
31
0
39
0
210
0
220
0
230
1
0
LINE
5
68
100
AcDbEntity
8
1
62
256
6
ByLayer
370
-1
48
1
60
0
100
AcDbLine
10
31.102983
20
-0.111415
30
0
11
31.315336
21
-0.176835
31
0
39
0
210
0
220
0
230
1
0
LINE
5
69
100
AcDbEntity
8
1
62
256
6
ByLayer
370
-1
48
1
60
0
100
AcDbLine
10
33.767975
20
4.91875
30
0
11
33.767975
21
4.528412
31
0
39
0
210
0
220
0
230
1
0
LINE
5
6A
100
AcDbEntity
8
1
62
256
6
ByLayer
370
-1
48
1
60
0
100
AcDbLine
10
0
20
-4.99375
30
0
11
0
21
-0.204215
31
0
39
0
210
0
220
0
230
1
0
LINE
5
6B
100
AcDbEntity
8
1
62
256
6
ByLayer
370
-1
48
1
60
0
100
AcDbLine
10
0
20
0.204215
30
0
11
0
21
4.99375
31
0
39
0
210
0
220
0
230
1
0
LINE
5
6C
100
AcDbEntity
8
1
62
256
6
ByLayer
370
-1
48
1
60
0
100
AcDbLine
10
32.075001
20
4.91875
30
0
11
32.075001
21
4.49351
31
0
39
0
210
0
220
0
230
1
0
LINE
5
6D
100
AcDbEntity
8
1
62
256
6
ByLayer
370
-1
48
1
60
0
100
AcDbLine
10
30.432813
20
0.312442
30
0
11
29.654756
21
2.742574
31
0
39
0
210
0
220
0
230
1
0
LINE
5
6E
100
AcDbEntity
8
1
62
256
6
ByLayer
370
-1
48
1
60
0
100
AcDbLine
10
31.21074
20
-0.453176
30
0
11
31.102983
21
-0.111415
31
0
39
0
210
0
220
0
230
1
0
LINE
5
6F
100
AcDbEntity
8
1
62
256
6
ByLayer
370
-1
48
1
60
0
100
AcDbLine
10
32.000001
20
4.99375
30
0
11
32.000001
21
4.56851
31
0
39
0
210
0
220
0
230
1
0
LINE
5
70
100
AcDbEntity
8
1
62
256
6
ByLayer
370
-1
48
1
60
0
100
AcDbLine
10
28.935764
20
4.993426
30
0
11
30.325056
21
0.654203
31
0
39
0
210
0
220
0
230
1
0
LINE
5
71
100
AcDbEntity
8
1
62
256
6
ByLayer
370
-1
48
1
60
0
100
AcDbLine
10
34.989616
20
4.729281
30
0
11
36.439718
21
4.022596
31
0
39
0
210
0
220
0
230
1
0
LINE
5
72
100
AcDbEntity
8
1
62
256
6
ByLayer
370
-1
48
1
60
0
100
AcDbLine
10
31.175733
20
4.551082
30
0
11
31.994141
21
1.994919
31
0
39
0
210
0
220
0
230
1
0
LINE
5
73
100
AcDbEntity
8
1
62
256
6
ByLayer
370
-1
48
1
60
0
100
AcDbLine
10
0
20
-0.204215
30
0
11
0
21
0.204215
31
0
39
0
210
0
220
0
230
1
0
LINE
5
74
100
AcDbEntity
8
1
62
256
6
ByLayer
370
-1
48
1
60
0
100
AcDbLine
10
25.301967
20
-0.204215
30
0
11
0
21
-0.204215
31
0
39
0
210
0
220
0
230
1
0
LINE
5
75
100
AcDbEntity
8
1
62
256
6
ByLayer
370
-1
48
1
60
0
100
AcDbLine
10
31.994141
20
1.994919
30
0
11
37.530705
21
0.289236
31
0
39
0
210
0
220
0
230
1
0
LINE
5
76
100
AcDbEntity
8
1
62
256
6
ByLayer
370
-1
48
1
60
0
100
AcDbLine
10
34.306634
20
5.062122
30
0
11
34.268705
21
5.080606
31
0
39
0
210
0
220
0
230
1
0
LINE
5
77
100
AcDbEntity
8
1
62
256
6
ByLayer
370
-1
48
1
60
0
100
AcDbLine
10
30.432813
20
0.312442
30
0
11
30.325056
21
0.654203
31
0
39
0
210
0
220
0
230
1
0
LINE
5
78
100
AcDbEntity
8
1
62
256
6
ByLayer
370
-1
48
1
60
0
100
AcDbLine
10
31.423094
20
-0.518597
30
0
11
31.21074
21
-0.453176
31
0
39
0
210
0
220
0
230
1
0
LINE
5
79
100
AcDbEntity
8
1
62
256
6
ByLayer
370
-1
48
1
60
0
100
AcDbLine
10
39.432916
20
-6.882339
30
0
11
32.980239
21
-4.894423
31
0
39
0
210
0
220
0
230
1
0
LINE
5
7A
100
AcDbEntity
8
1
62
256
6
ByLayer
370
-1
48
1
60
0
100
AcDbLine
10
32.722439
20
-4.639584
30
0
11
30.71122
21
1.739186
31
0
39
0
210
0
220
0
230
1
0
LINE
5
7B
100
AcDbEntity
8
1
62
256
6
ByLayer
370
-1
48
1
60
0
100
AcDbLine
10
31.034721
20
2.3191
30
0
11
31.085321
21
2.309437
31
0
39
0
210
0
220
0
230
1
0
LINE
5
7C
100
AcDbEntity
8
1
62
256
6
ByLayer
370
-1
48
1
60
0
100
AcDbLine
10
37.92091
20
-0.010044
30
0
11
39.932129
21
-6.388814
31
0
39
0
210
0
220
0
230
1
0
LINE
5
7D
100
AcDbEntity
8
1
62
256
6
ByLayer
370
-1
48
1
60
0
100
AcDbLine
10
31.210433
20
2.232711
30
0
11
31.034721
21
2.3191
31
0
39
0
210
0
220
0
230
1
0
LINE
5
7E
100
AcDbEntity
8
1
62
256
6
ByLayer
370
-1
48
1
60
0
100
AcDbLine
10
31.085321
20
2.309437
30
0
11
31.981882
21
2.033228
31
0
39
0
210
0
220
0
230
1
0
LINE
5
7F
100
AcDbEntity
8
1
62
256
6
ByLayer
370
-1
48
1
60
0
100
AcDbLine
10
31.210433
20
2.232711
30
0
11
37.66311
21
0.244795
31
0
39
0
210
0
220
0
230
1
0
LINE
5
80
100
AcDbEntity
8
1
62
256
6
ByLayer
370
-1
48
1
60
0
100
AcDbLine
10
37.532559
20
0.308981
30
0
11
37.66311
21
0.244795
31
0
39
0
210
0
220
0
230
1
0
LINE
5
81
100
AcDbEntity
8
1
62
256
6
ByLayer
370
-1
48
1
60
0
100
AcDbLine
10
34.759604
20
-2.70368
30
0
11
34.801359
21
-2.836109
31
0
39
0
210
0
220
0
230
1
0
LINE
5
82
100
AcDbEntity
8
1
62
256
6
ByLayer
370
-1
48
1
60
0
100
AcDbLine
10
36.184164
20
-2.097196
30
0
11
36.23081
21
-2.24514
31
0
39
0
210
0
220
0
230
1
0
LINE
5
83
100
AcDbEntity
8
1
62
256
6
ByLayer
370
-1
48
1
60
0
100
AcDbLine
10
34.761665
20
-2.79687
30
0
11
34.71991
21
-2.664442
31
0
39
0
210
0
220
0
230
1
0
LINE
5
84
100
AcDbEntity
8
1
62
256
6
ByLayer
370
-1
48
1
60
0
100
AcDbLine
10
34.446402
20
-2.56256
30
0
11
34.493032
21
-2.710451
31
0
39
0
210
0
220
0
230
1
0
LINE
5
85
100
AcDbEntity
8
1
62
256
6
ByLayer
370
-1
48
1
60
0
100
AcDbLine
10
35.776349
20
-2.910658
30
0
11
35.822995
21
-3.058602
31
0
39
0
210
0
220
0
230
1
0
LINE
5
86
100
AcDbEntity
8
1
62
256
6
ByLayer
370
-1
48
1
60
0
100
AcDbLine
10
34.539499
20
-1.751343
30
0
11
34.557137
21
-1.807282
31
0
39
0
210
0
220
0
230
1
0
LINE
5
87
100
AcDbEntity
8
1
62
256
6
ByLayer
370
-1
48
1
60
0
100
AcDbLine
10
35.206142
20
-3.064075
30
0
11
35.252789
21
-3.212018
31
0
39
0
210
0
220
0
230
1
0
LINE
5
88
100
AcDbEntity
8
1
62
256
6
ByLayer
370
-1
48
1
60
0
100
AcDbLine
10
35.69583
20
-1.406491
30
0
11
35.723441
21
-1.494061
31
0
39
0
210
0
220
0
230
1
0
LINE
5
89
100
AcDbEntity
8
SK1
62
256
6
ByLayer
370
-1
48
1
60
0
100
AcDbLine
10
-30.05
20
0.204215
30
0
11
0
21
0.204215
31
0
39
0
210
0
220
0
230
1
0
LINE
5
8A
100
AcDbEntity
8
SK1
62
256
6
ByLayer
370
-1
48
1
60
0
100
AcDbLine
10
-30.05
20
0.204215
30
0
11
-30.05
21
-0.204215
31
0
39
0
210
0
220
0
230
1
0
LINE
5
8B
100
AcDbEntity
8
SK1
62
256
6
ByLayer
370
-1
48
1
60
0
100
AcDbLine
10
0
20
-0.204215
30
0
11
0
21
0.204215
31
0
39
0
210
0
220
0
230
1
0
LINE
5
8C
100
AcDbEntity
8
SK1
62
256
6
ByLayer
370
-1
48
1
60
0
100
AcDbLine
10
0
20
-0.204215
30
0
11
-30.05
21
-0.204215
31
0
39
0
210
0
220
0
230
1
0
LINE
5
8D
100
AcDbEntity
8
SK1
62
256
6
ByLayer
370
-1
48
1
60
0
100
AcDbLine
10
0
20
-4.99375
30
0
11
0
21
-0.204215
31
0
39
0
210
0
220
0
230
1
0
LINE
5
8E
100
AcDbEntity
8
SK1
62
256
6
ByLayer
370
-1
48
1
60
0
100
AcDbLine
10
0
20
0.204215
30
0
11
0
21
4.99375
31
0
39
0
210
0
220
0
230
1
0
LINE
5
8F
100
AcDbEntity
8
SK1
62
256
6
ByLayer
370
-1
48
1
60
0
100
AcDbLine
10
-86.3
20
4.49375
30
0
11
-86.3
21
-4.49375
31
0
39
0
210
0
220
0
230
1
0
LINE
5
90
100
AcDbEntity
8
SK1
62
256
6
ByLayer
370
-1
48
1
60
0
100
AcDbLine
10
-85.8
20
4.99375
30
0
11
-85.8
21
-4.99375
31
0
39
0
210
0
220
0
230
1
0
LINE
5
91
100
AcDbEntity
8
2
62
256
6
ByLayer
370
-1
48
1
60
1
100
AcDbLine
10
39.95
20
0
30
0
11
39.951
21
0.001
31
0
39
0
210
0
220
0
230
1
0
MTEXT
5
E5
100
AcDbEntity
8
SK6
62
256
6
ByLayer
370
-1
48
1
60
0
100
AcDbMText
10
-19.8
20
13.377802
30
0
210
0
220
0
230
1
1
\W00.754;\fsimplex.shx,bigfont.shx;A10K-SDQCL 07-R 
40
3.5
41
0
44
1.084337
50
0
71
7
72
5
7
DEFAULT
0
DIMENSION
5
118
100
AcDbEntity
8
2
62
256
6
ByLayer
370
-3
48
1
60
0
100
AcDbDimension
2
DimnDraft3D1
10
52.2
20
0
30
0
11
52.2
21
-24.177368
31
0
70
32
71
5
72
1
41
1
210
0
220
0
230
1
3
Standard
100
AcDbAlignedDimension
13
41.95
23
-6.9
33
0
14
41.95
24
0
34
0
50
90
100
AcDbRotatedDimension
1001
ACAD
1000
DSTYLE
1002
{
1070
    74
1070
     0
1070
   279
1070
     0
1070
   172
1070
     1
1070
   173
1070
     1
1070
   340
1005
E6
1070
    77
1070
     1
1070
    73
1070
     0
1070
   171
1070
     4
1070
   274
1070
     4
1070
   177
1070
     2
1070
   176
1070
     2
1070
   178
1070
     7
1070
    78
1070
     8
1070
    41
1041
3.175
1070
   147
1041
2.25
1070
    42
1041
2.0
1070
    44
1041
2.0
1070
   140
1041
4.5
1070
   343
1005
119
1070
   344
1005
119
1002
}
0
DIMENSION
5
12E
100
AcDbEntity
8
SK2
62
256
6
ByLayer
370
-3
48
1
60
0
100
AcDbDimension
2
DimnDraft3D2
10
-96.05
20
4.99375
30
0
11
-96.05
21
15.24875
31
0
70
32
71
5
72
1
41
1
210
0
220
0
230
1
3
Standard
100
AcDbAlignedDimension
13
-88.3
23
-4.99375
33
0
14
-88.3
24
4.99375
34
0
50
90
100
AcDbRotatedDimension
1001
ACAD
1000
DSTYLE
1002
{
1070
    74
1070
     0
1070
   279
1070
     0
1070
   172
1070
     1
1070
   173
1070
     1
1070
   340
1005
E6
1070
    77
1070
     1
1070
    73
1070
     0
1070
   171
1070
     4
1070
   274
1070
     4
1070
   177
1070
     2
1070
   176
1070
     2
1070
   178
1070
     7
1070
    78
1070
     8
1070
    41
1041
3.175
1070
   147
1041
2.25
1070
    42
1041
2.0
1070
    44
1041
2.0
1070
   140
1041
4.5
1070
   343
1005
119
1070
   344
1005
119
1002
}
0
DIMENSION
5
13C
100
AcDbEntity
8
SK2
62
256
6
ByLayer
370
-3
48
1
60
0
100
AcDbDimension
2
DimnDraft3D3
10
39.95
20
-24.15
30
0
11
-29.427632
21
-24.15
31
0
70
32
71
5
72
1
41
1
210
0
220
0
230
1
3
Standard
100
AcDbAlignedDimension
13
-86.3
23
-6.99375
33
0
14
39.95
24
-8.9
34
0
50
0
100
AcDbRotatedDimension
1001
ACAD
1000
DSTYLE
1002
{
1070
   279
1070
     0
1070
   172
1070
     1
1070
   173
1070
     1
1070
   340
1005
E6
1070
    77
1070
     1
1070
    73
1070
     0
1070
   171
1070
     4
1070
   274
1070
     4
1070
   177
1070
     2
1070
   176
1070
     2
1070
   178
1070
     7
1070
    78
1070
     8
1070
    41
1041
3.175
1070
   147
1041
2.25
1070
    42
1041
2.0
1070
    44
1041
2.0
1070
   140
1041
4.5
1070
   343
1005
119
1070
   344
1005
119
1002
}
0
DIMENSION
5
14A
100
AcDbEntity
8
2
62
256
6
ByLayer
370
-3
48
1
60
0
100
AcDbDimension
2
DimnDraft3D4
10
77.700845
20
0
30
0
11
54.182409
21
37.788356
31
0
70
34
71
5
72
1
41
1
210
0
220
0
230
1
3
Standard
100
AcDb2LineAngularDimension
13
37.243648
23
1.683453
33
0
14
25.768336
24
38.078491
34
0
15
41.95
25
0
35
0
16
62.861582
26
34.214547
36
0
40
0
0
ENDSEC
0
SECTION
2
OBJECTS
0
DICTIONARY
5
17b
330
0
100
AcDbDictionary
280
0
281
1
3
ACAD_GROUP
350
17c
3
ACAD_MLINESTYLE
350
17d
0
DICTIONARY
5
17c
330
0
100
AcDbDictionary
280
0
281
1
0
DICTIONARY
5
17d
330
0
100
AcDbDictionary
280
0
281
1
3
Standard
350
18
0
MLINESTYLE
5
18
330
17d
100
AcDbMlineStyle
2
Standard
70
0
3

62
256
51
90
52
90
71
2
49
-0.5
62
256
6
ByLayer
49
0.5
62
256
6
ByLayer
0
RASTERVARIABLES
5
169
330

100
AcDbRasterVariables
90
0
70
1
71
1
72
1
0
ENDSEC
0
EOF
