0
SECTION
2
HEADER
9
$ACADVER
1
AC1015
9
$DWGCODEPAGE
3
ANSI_1252
9
$HANDSEED
5
17e
9
$ANGBASE
50
0
9
$ANGDIR
70
0
9
$ATTMODE
70
1
9
$AUNITS
70
0
9
$AUPREC
70
0
9
$CECOLOR
62
256
9
$CELTSCALE
40
1
9
$CELTYPE
6
ByLayer
9
$CELWEIGHT
370
-1
9
$CLAYER
8
0
9
$CMLJUST
70
0
9
$CMLSCALE
40
1
9
$CMLSTYLE
2
Standard
9
$DIMSTYLE
2
Standard
9
$TEXTSIZE
40
0.2
9
$TEXTSTYLE
7
Standard
9
$LUNITS
70
2
9
$LUPREC
70
4
9
$EXTNAMES
290
1
9
$INSUNITS
70
4
9
$LTSCALE
40
1
9
$LWDISPLAY
290
0
9
$PDMODE
70
0
9
$PDSIZE
40
0
9
$PLINEGEN
70
0
0
ENDSEC
0
SECTION
2
CLASSES
0
CLASS
1
RASTERVARIABLES
2
AcDbRasterVariables
3
ISM
90
0
280
0
281
0
0
ENDSEC
0
SECTION
2
TABLES
0
TABLE
2
VPORT
5
174
100
AcDbSymbolTable
0
VPORT
5
1
100
AcDbSymbolTableRecord
100
AcDbViewportTableRecord
2
*Active
70
0
10
0
20
0
11
1
21
1
12
-1
22
1
13
0
23
0
14
0.5
24
0.5
15
10
25
10
16
0
26
0
36
1
17
0
27
0
37
0
0
ENDTAB
0
TABLE
2
LTYPE
5
175
100
AcDbSymbolTable
0
LTYPE
5
14
100
AcDbSymbolTableRecord
100
AcDbLinetypeTableRecord
70
0
2
ByBlock
3

72
65
73
0
40
0
0
LTYPE
5
15
100
AcDbSymbolTableRecord
100
AcDbLinetypeTableRecord
70
0
2
ByLayer
3

72
65
73
0
40
0
0
LTYPE
5
16
100
AcDbSymbolTableRecord
100
AcDbLinetypeTableRecord
70
0
2
CONTINUOUS
3
Solid line
72
65
73
0
40
0
0
LTYPE
5
3B
100
AcDbSymbolTableRecord
100
AcDbLinetypeTableRecord
70
0
2
DASHED
3
__ __ __ __ __ __ __ __ __
72
65
73
2
40
25.72
49
12.86
74
0
49
-12.86
74
0
0
LTYPE
5
3C
100
AcDbSymbolTableRecord
100
AcDbLinetypeTableRecord
70
0
2
HIDDEN
3
_ _ _ _ _ _ _ _ _ _ _ _ _ _ _
72
65
73
2
40
0.5
49
0.25
74
0
49
-0.25
74
0
0
LTYPE
5
3D
100
AcDbSymbolTableRecord
100
AcDbLinetypeTableRecord
70
0
2
PHANTOM
3
____ _ _ ____ _ _ _____ _ _ ____
72
65
73
6
40
50.5
49
18
74
0
49
-6.5
74
0
49
6.5
74
0
49
-6.5
74
0
49
6.5
74
0
49
-6.5
74
0
0
LTYPE
5
3E
100
AcDbSymbolTableRecord
100
AcDbLinetypeTableRecord
70
0
2
CENTER
3
____ _ ____ _ ____ _ ____
72
65
73
4
40
47.5
49
22
74
0
49
-8.5
74
0
49
8.5
74
0
49
-8.5
74
0
0
LTYPE
5
3F
100
AcDbSymbolTableRecord
100
AcDbLinetypeTableRecord
70
0
2
DOT
3
.........................
72
65
73
2
40
10
49
0
74
0
49
-10
74
0
0
LTYPE
5
40
100
AcDbSymbolTableRecord
100
AcDbLinetypeTableRecord
70
0
2
DASHDOT
3
_._._._._._._._._._._._._._._._.
72
65
73
4
40
70
49
31
74
0
49
-13
74
0
49
13
74
0
49
-13
74
0
0
ENDTAB
0
TABLE
2
LAYER
5
176
100
AcDbSymbolTable
0
LAYER
5
10
100
AcDbSymbolTableRecord
100
AcDbLayerTableRecord
2
0
70
0
62
7
6
CONTINUOUS
290
1
370
-3
390
0
0
LAYER
5
42
100
AcDbSymbolTableRecord
100
AcDbLayerTableRecord
2
1
70
0
62
4
6
CONTINUOUS
290
1
370
-3
390
0
0
LAYER
5
44
100
AcDbSymbolTableRecord
100
AcDbLayerTableRecord
2
2
70
0
62
7
6
CONTINUOUS
290
1
370
-3
390
0
0
LAYER
5
46
100
AcDbSymbolTableRecord
100
AcDbLayerTableRecord
2
80
70
0
62
-6
6
CONTINUOUS
290
1
370
-3
390
0
0
LAYER
5
48
100
AcDbSymbolTableRecord
100
AcDbLayerTableRecord
2
81
70
0
62
-3
6
CONTINUOUS
290
1
370
-3
390
0
0
LAYER
5
4E
100
AcDbSymbolTableRecord
100
AcDbLayerTableRecord
2
4
70
0
62
-2
6
CENTER
290
1
370
-3
390
0
0
LAYER
5
160
100
AcDbSymbolTableRecord
100
AcDbLayerTableRecord
2
SK4
70
0
62
2
6
CENTER
290
1
370
-3
390
0
0
LAYER
5
161
100
AcDbSymbolTableRecord
100
AcDbLayerTableRecord
2
SK1
70
0
62
4
6
CONTINUOUS
290
1
370
-3
390
0
0
LAYER
5
162
100
AcDbSymbolTableRecord
100
AcDbLayerTableRecord
2
SK6
70
0
62
5
6
CONTINUOUS
290
1
370
-3
390
0
0
LAYER
5
163
100
AcDbSymbolTableRecord
100
AcDbLayerTableRecord
2
SK2
70
0
62
7
6
CONTINUOUS
290
1
370
-3
390
0
0
ENDTAB
0
TABLE
2
STYLE
5
177
100
AcDbSymbolTable
0
STYLE
5
11
100
AcDbSymbolTableRecord
100
AcDbTextStyleTableRecord
2
Standard
3
txt
70
0
71
0
40
0
41
1
42
0
50
0
0
STYLE
5
DC
100
AcDbSymbolTableRecord
100
AcDbTextStyleTableRecord
2
DEFAULT
3
simplex.shx
70
0
71
0
40
0
41
1
42
0
50
0
0
STYLE
5
FF
100
AcDbSymbolTableRecord
100
AcDbTextStyleTableRecord
2
DWGDirectTextStyle
3
SIMPLEX
70
0
71
0
40
0
41
1
42
0
50
0
0
ENDTAB
0
TABLE
2
DIMSTYLE
5
178
100
AcDbSymbolTable
100
AcDbDimStyleTable
0
DIMSTYLE
105
27
100
AcDbSymbolTableRecord
100
AcDbDimStyleTableRecord
2
Standard
70
0
3
<>
41
0.18
42
0.0625
44
0.18
140
0.18
147
0.09
73
0
74
0
77
1
271
2
275
0
278
52
280
0
340
11
0
ENDTAB
0
TABLE
2
VIEW
5
179
100
AcDbSymbolTable
0
ENDTAB
0
TABLE
2
UCS
5
17a
100
AcDbSymbolTable
0
ENDTAB
0
TABLE
2
APPID
5
17b
100
AcDbSymbolTable
0
APPID
5
12
100
AcDbSymbolTableRecord
100
AcDbRegAppTableRecord
2
ACAD
70
0
0
ENDTAB
0
TABLE
2
BLOCK_RECORD
5
17c
100
AcDbSymbolTable
0
BLOCK_RECORD
5
1F
100
AcDbSymbolTableRecord
100
AcDbBlockTableRecord
2
*Model_Space
340
0
70
0
0
BLOCK_RECORD
5
1B
100
AcDbSymbolTableRecord
100
AcDbBlockTableRecord
2
*Paper_Space
340
0
70
0
0
BLOCK_RECORD
5
23
100
AcDbSymbolTableRecord
100
AcDbBlockTableRecord
2
*Paper_Space0
340
0
70
0
0
BLOCK_RECORD
5
101
100
AcDbSymbolTableRecord
100
AcDbBlockTableRecord
2
DimnDraft3D1
340
0
70
0
0
BLOCK_RECORD
5
10F
100
AcDbSymbolTableRecord
100
AcDbBlockTableRecord
2
_CLOSED
340
0
70
0
0
BLOCK_RECORD
5
116
100
AcDbSymbolTableRecord
100
AcDbBlockTableRecord
2
DimnDraft3D2
340
0
70
0
0
BLOCK_RECORD
5
125
100
AcDbSymbolTableRecord
100
AcDbBlockTableRecord
2
DimnDraft3D3
340
0
70
0
0
BLOCK_RECORD
5
133
100
AcDbSymbolTableRecord
100
AcDbBlockTableRecord
2
DimnDraft3D4
340
0
70
0
0
ENDTAB
0
ENDSEC
0
SECTION
2
BLOCKS
0
BLOCK
5
20
100
AcDbEntity
8
0
100
AcDbBlockBegin
2
*Model_Space
70
0
10
0
20
0
30
0
3
*Model_Space
0
ENDBLK
5
21
100
AcDbEntity
8
0
100
AcDbBlockEnd
0
BLOCK
5
1C
100
AcDbEntity
8
0
100
AcDbBlockBegin
2
*Paper_Space
70
0
10
0
20
0
30
0
3
*Paper_Space
0
ENDBLK
5
1D
100
AcDbEntity
8
0
100
AcDbBlockEnd
0
BLOCK
5
24
100
AcDbEntity
8
0
100
AcDbBlockBegin
2
*Paper_Space0
70
0
10
0
20
0
30
0
3
*Paper_Space0
0
ENDBLK
5
25
100
AcDbEntity
8
0
100
AcDbBlockEnd
0
BLOCK
5
10C
100
AcDbEntity
8
0
100
AcDbBlockBegin
2
DimnDraft3D1
70
0
10
0
20
0
30
0
3
DimnDraft3D1
0
MTEXT
5
102
100
AcDbEntity
8
2
62
256
6
ByLayer
370
-1
48
1
60
0
100
AcDbMText
10
51.075
20
-22.052368
30
0
210
0
220
0
230
1
1
\W01.000;\fsimplex.shx,bigfont.shx;6.0 
40
4.5
41
0
44
1.084337
50
90
71
7
72
5
7
DEFAULT
0
LINE
5
103
100
AcDbEntity
8
2
62
256
6
ByLayer
370
-1
48
1
60
0
100
AcDbLine
10
41.95
20
-5.9
30
0
11
54.2
21
-5.9
31
0
39
0
210
0
220
0
230
1
0
LINE
5
104
100
AcDbEntity
8
2
62
256
6
ByLayer
370
-1
48
1
60
0
100
AcDbLine
10
41.95
20
0
30
0
11
54.2
21
0
31
0
39
0
210
0
220
0
230
1
0
LINE
5
105
100
AcDbEntity
8
2
62
256
6
ByLayer
370
-1
48
1
60
0
100
AcDbLine
10
52.2
20
11.25
30
0
11
52.2
21
-23.177368
31
0
39
0
210
0
220
0
230
1
0
LINE
5
106
100
AcDbEntity
8
2
62
256
6
ByLayer
370
-1
48
1
60
0
100
AcDbLine
10
52.2
20
-5.9
30
0
11
52.617997
21
-9.074998
31
0
39
0
210
0
220
0
230
1
0
LINE
5
107
100
AcDbEntity
8
2
62
256
6
ByLayer
370
-1
48
1
60
0
100
AcDbLine
10
52.2
20
-5.9
30
0
11
51.782003
21
-9.075002
31
0
39
0
210
0
220
0
230
1
0
LINE
5
108
100
AcDbEntity
8
2
62
256
6
ByLayer
370
-1
48
1
60
0
100
AcDbLine
10
52.617997
20
-9.074998
30
0
11
51.782003
21
-9.075002
31
0
39
0
210
0
220
0
230
1
0
LINE
5
109
100
AcDbEntity
8
2
62
256
6
ByLayer
370
-1
48
1
60
0
100
AcDbLine
10
52.2
20
0
30
0
11
51.782003
21
3.174998
31
0
39
0
210
0
220
0
230
1
0
LINE
5
10A
100
AcDbEntity
8
2
62
256
6
ByLayer
370
-1
48
1
60
0
100
AcDbLine
10
52.2
20
0
30
0
11
52.617997
21
3.175002
31
0
39
0
210
0
220
0
230
1
0
LINE
5
10B
100
AcDbEntity
8
2
62
256
6
ByLayer
370
-1
48
1
60
0
100
AcDbLine
10
51.782003
20
3.174998
30
0
11
52.617997
21
3.175002
31
0
39
0
210
0
220
0
230
1
0
ENDBLK
5
10D
100
AcDbEntity
8
0
100
AcDbBlockEnd
0
BLOCK
5
110
100
AcDbEntity
8
0
100
AcDbBlockBegin
2
_CLOSED
70
0
10
0
20
0
30
0
3
_CLOSED
0
LINE
5
112
100
AcDbEntity
8
0
62
256
6
ByLayer
370
-2
48
1
60
0
100
AcDbLine
10
-1
20
0.166667
30
0
11
0
21
0
31
0
39
0
210
0
220
0
230
1
0
LINE
5
113
100
AcDbEntity
8
0
62
256
6
ByLayer
370
-2
48
1
60
0
100
AcDbLine
10
0
20
0
30
0
11
-1
21
-0.166667
31
0
39
0
210
0
220
0
230
1
0
LINE
5
114
100
AcDbEntity
8
0
62
256
6
ByLayer
370
-2
48
1
60
0
100
AcDbLine
10
-1
20
0.166667
30
0
11
-1
21
-0.166667
31
0
39
0
210
0
220
0
230
1
0
LINE
5
115
100
AcDbEntity
8
0
62
256
6
ByLayer
370
-2
48
1
60
0
100
AcDbLine
10
0
20
0
30
0
11
-1
21
0
31
0
39
0
210
0
220
0
230
1
0
ENDBLK
5
111
100
AcDbEntity
8
0
100
AcDbBlockEnd
0
BLOCK
5
122
100
AcDbEntity
8
0
100
AcDbBlockBegin
2
DimnDraft3D2
70
0
10
0
20
0
30
0
3
DimnDraft3D2
0
MTEXT
5
117
100
AcDbEntity
8
SK2
62
256
6
ByLayer
370
-1
48
1
60
0
100
AcDbMText
10
-97.175
20
16.37375
30
0
210
0
220
0
230
1
1
\W01.000;\fsimplex.shx,bigfont.shx;%%c10 
40
4.5
41
0
44
1.084337
50
90
71
7
72
5
7
DEFAULT
0
LINE
5
119
100
AcDbEntity
8
SK2
62
256
6
ByLayer
370
-1
48
1
60
0
100
AcDbLine
10
-88.3
20
-4.99375
30
0
11
-98.05
21
-4.99375
31
0
39
0
210
0
220
0
230
1
0
LINE
5
11A
100
AcDbEntity
8
SK2
62
256
6
ByLayer
370
-1
48
1
60
0
100
AcDbLine
10
-88.3
20
4.99375
30
0
11
-98.05
21
4.99375
31
0
39
0
210
0
220
0
230
1
0
LINE
5
11B
100
AcDbEntity
8
SK2
62
256
6
ByLayer
370
-1
48
1
60
0
100
AcDbLine
10
-96.05
20
-4.99375
30
0
11
-96.05
21
23.692171
31
0
39
0
210
0
220
0
230
1
0
LINE
5
11C
100
AcDbEntity
8
SK2
62
256
6
ByLayer
370
-1
48
1
60
0
100
AcDbLine
10
-96.05
20
-4.99375
30
0
11
-96.467997
21
-1.818752
31
0
39
0
210
0
220
0
230
1
0
LINE
5
11D
100
AcDbEntity
8
SK2
62
256
6
ByLayer
370
-1
48
1
60
0
100
AcDbLine
10
-96.05
20
-4.99375
30
0
11
-95.632003
21
-1.818748
31
0
39
0
210
0
220
0
230
1
0
LINE
5
11E
100
AcDbEntity
8
SK2
62
256
6
ByLayer
370
-1
48
1
60
0
100
AcDbLine
10
-96.467997
20
-1.818752
30
0
11
-95.632003
21
-1.818748
31
0
39
0
210
0
220
0
230
1
0
LINE
5
11F
100
AcDbEntity
8
SK2
62
256
6
ByLayer
370
-1
48
1
60
0
100
AcDbLine
10
-96.05
20
4.99375
30
0
11
-95.632003
21
1.818752
31
0
39
0
210
0
220
0
230
1
0
LINE
5
120
100
AcDbEntity
8
SK2
62
256
6
ByLayer
370
-1
48
1
60
0
100
AcDbLine
10
-96.05
20
4.99375
30
0
11
-96.467997
21
1.818748
31
0
39
0
210
0
220
0
230
1
0
LINE
5
121
100
AcDbEntity
8
SK2
62
256
6
ByLayer
370
-1
48
1
60
0
100
AcDbLine
10
-95.632003
20
1.818752
30
0
11
-96.467997
21
1.818748
31
0
39
0
210
0
220
0
230
1
0
ENDBLK
5
123
100
AcDbEntity
8
0
100
AcDbBlockEnd
0
BLOCK
5
130
100
AcDbEntity
8
0
100
AcDbBlockBegin
2
DimnDraft3D3
70
0
10
0
20
0
30
0
3
DimnDraft3D3
0
MTEXT
5
126
100
AcDbEntity
8
SK2
62
256
6
ByLayer
370
-1
48
1
60
0
100
AcDbMText
10
-28.302632
20
-22.025
30
0
210
0
220
0
230
1
1
\W01.000;\fsimplex.shx,bigfont.shx;125.0 
40
4.5
41
0
44
1.084337
50
0
71
7
72
5
7
DEFAULT
0
LINE
5
127
100
AcDbEntity
8
SK2
62
256
6
ByLayer
370
-1
48
1
60
0
100
AcDbLine
10
-86.3
20
-6.99375
30
0
11
-86.3
21
-25.15
31
0
39
0
210
0
220
0
230
1
0
LINE
5
128
100
AcDbEntity
8
SK2
62
256
6
ByLayer
370
-1
48
1
60
0
100
AcDbLine
10
39.95
20
-7.9
30
0
11
39.95
21
-25.15
31
0
39
0
210
0
220
0
230
1
0
LINE
5
129
100
AcDbEntity
8
SK2
62
256
6
ByLayer
370
-1
48
1
60
0
100
AcDbLine
10
-86.3
20
-23.15
30
0
11
39.95
21
-23.15
31
0
39
0
210
0
220
0
230
1
0
LINE
5
12A
100
AcDbEntity
8
SK2
62
256
6
ByLayer
370
-1
48
1
60
0
100
AcDbLine
10
-86.3
20
-23.15
30
0
11
-83.125002
21
-22.732003
31
0
39
0
210
0
220
0
230
1
0
LINE
5
12B
100
AcDbEntity
8
SK2
62
256
6
ByLayer
370
-1
48
1
60
0
100
AcDbLine
10
-86.3
20
-23.15
30
0
11
-83.124998
21
-23.567997
31
0
39
0
210
0
220
0
230
1
0
LINE
5
12C
100
AcDbEntity
8
SK2
62
256
6
ByLayer
370
-1
48
1
60
0
100
AcDbLine
10
-83.125002
20
-22.732003
30
0
11
-83.124998
21
-23.567997
31
0
39
0
210
0
220
0
230
1
0
LINE
5
12D
100
AcDbEntity
8
SK2
62
256
6
ByLayer
370
-1
48
1
60
0
100
AcDbLine
10
39.95
20
-23.15
30
0
11
36.775002
21
-23.567997
31
0
39
0
210
0
220
0
230
1
0
LINE
5
12E
100
AcDbEntity
8
SK2
62
256
6
ByLayer
370
-1
48
1
60
0
100
AcDbLine
10
39.95
20
-23.15
30
0
11
36.774998
21
-22.732003
31
0
39
0
210
0
220
0
230
1
0
LINE
5
12F
100
AcDbEntity
8
SK2
62
256
6
ByLayer
370
-1
48
1
60
0
100
AcDbLine
10
36.775002
20
-23.567997
30
0
11
36.774998
21
-22.732003
31
0
39
0
210
0
220
0
230
1
0
ENDBLK
5
131
100
AcDbEntity
8
0
100
AcDbBlockEnd
0
BLOCK
5
13E
100
AcDbEntity
8
0
100
AcDbBlockBegin
2
DimnDraft3D4
70
0
10
0
20
0
30
0
3
DimnDraft3D4
0
MTEXT
5
134
100
AcDbEntity
8
2
62
256
6
ByLayer
370
-1
48
1
60
0
100
AcDbMText
10
61.948769
20
32.335899
30
0
210
0
220
0
230
1
1
\W01.000;\fsimplex.shx,bigfont.shx;95%%d0' 
40
4.5
41
0
44
1.084337
50
317.5
71
7
72
5
7
DEFAULT
0
LINE
5
135
100
AcDbEntity
8
2
62
256
6
ByLayer
370
-1
48
1
60
0
100
AcDbLine
10
39.252754
20
2.069558
30
0
11
35.954001
21
39.774475
31
0
39
0
210
0
220
0
230
1
0
LINE
5
136
100
AcDbEntity
8
2
62
256
6
ByLayer
370
-1
48
1
60
0
100
AcDbLine
10
41.95
20
0
30
0
11
79.360224
21
0
31
0
39
0
210
0
220
0
230
1
0
ARC
5
137
100
AcDbEntity
8
2
62
256
6
ByLayer
370
-1
48
1
60
0
100
AcDbCircle
39
0
10
39.433817
20
0
30
0
40
37.9264068640928
210
0
220
0
230
1
100
AcDbArc
50
0
51
95
0
LINE
5
138
100
AcDbEntity
8
2
62
256
6
ByLayer
370
-1
48
1
60
0
100
AcDbLine
10
36.128313
20
37.782085
30
0
11
39.268611
21
38.409669
31
0
39
0
210
0
220
0
230
1
0
LINE
5
139
100
AcDbEntity
8
2
62
256
6
ByLayer
370
-1
48
1
60
0
100
AcDbLine
10
36.128313
20
37.782085
30
0
11
39.324042
21
37.575515
31
0
39
0
210
0
220
0
230
1
0
LINE
5
13A
100
AcDbEntity
8
2
62
256
6
ByLayer
370
-1
48
1
60
0
100
AcDbLine
10
39.268611
20
38.409669
30
0
11
39.324042
21
37.575515
31
0
39
0
210
0
220
0
230
1
0
LINE
5
13B
100
AcDbEntity
8
2
62
256
6
ByLayer
370
-1
48
1
60
0
100
AcDbLine
10
77.360224
20
0
30
0
11
76.875914
21
3.165562
31
0
39
0
210
0
220
0
230
1
0
LINE
5
13C
100
AcDbEntity
8
2
62
256
6
ByLayer
370
-1
48
1
60
0
100
AcDbLine
10
77.360224
20
0
30
0
11
77.711724
21
3.183049
31
0
39
0
210
0
220
0
230
1
0
LINE
5
13D
100
AcDbEntity
8
2
62
256
6
ByLayer
370
-1
48
1
60
0
100
AcDbLine
10
76.875914
20
3.165562
30
0
11
77.711724
21
3.183049
31
0
39
0
210
0
220
0
230
1
0
ENDBLK
5
13F
100
AcDbEntity
8
0
100
AcDbBlockEnd
0
ENDSEC
0
SECTION
2
ENTITIES
0
ELLIPSE
5
8C
100
AcDbEntity
8
1
62
256
6
ByLayer
370
-1
48
1
60
0
100
AcDbEllipse
10
33.571855
20
0.547237
30
0
11
-0.947122328582245
21
0.453276179278092
31
0
210
0
220
0
230
1
40
0.990683
41
-2.36434468501049
42
-2.00088020241098
0
ELLIPSE
5
8D
100
AcDbEntity
8
1
62
256
6
ByLayer
370
-1
48
1
60
0
100
AcDbEllipse
10
33.715896
20
0.848212
30
0
11
-0.947122328582244
21
0.453276179278092
31
0
210
0
220
0
230
1
40
0.990683
41
0.187111447664729
42
1.39760640164704
0
ELLIPSE
5
8E
100
AcDbEntity
8
1
62
256
6
ByLayer
370
-1
48
1
60
0
100
AcDbEllipse
10
33.551646
20
0.505011
30
0
11
1.05166604758685
21
0.0181203130526761
31
0
210
0
220
0
230
-1
40
0.991306
41
2.93684981593455
42
-0.732642663642341
0
ELLIPSE
5
8F
100
AcDbEntity
8
1
62
256
6
ByLayer
370
-1
48
1
60
0
100
AcDbEllipse
10
33.734324
20
-0.449341
30
0
11
-1.12752658164553
21
0.539614499140587
31
0
210
0
220
0
230
1
40
0.990683
41
1.32079914199483
42
1.61456630906339
0
ELLIPSE
5
90
100
AcDbEntity
8
1
62
256
6
ByLayer
370
-1
48
1
60
0
100
AcDbEllipse
10
33.860728
20
-0.185221
30
0
11
-1.12752658164553
21
0.539614499140587
31
0
210
0
220
0
230
1
40
0.990683
41
0.355010532906216
42
1.4738173006625
0
ELLIPSE
5
91
100
AcDbEntity
8
1
62
256
6
ByLayer
370
-1
48
1
60
0
100
AcDbEllipse
10
32.817695
20
-0.024791
30
0
11
0.420442667702435
21
-5.00233356194326
31
0
210
0
220
0
230
-1
40
0.06923
41
-0.0936194965004387
42
-0.0155832777494898
0
ELLIPSE
5
92
100
AcDbEntity
8
1
62
256
6
ByLayer
370
-1
48
1
60
0
100
AcDbEllipse
10
33.698258
20
0.811358
30
0
11
0.947122328582244
21
-0.453276179278092
31
0
210
0
220
0
230
1
40
0.990683
41
-2.47673748094194
42
-1.7181534347889
0
ELLIPSE
5
93
100
AcDbEntity
8
1
62
256
6
ByLayer
370
-1
48
1
60
0
100
AcDbEllipse
10
33.714377
20
-0.491022
30
0
11
1.25198338998426
21
0.0215718012631229
31
0
210
0
220
0
230
-1
40
0.991306
41
2.28090584659545
42
-3.0364908514956
0
ELLIPSE
5
94
100
AcDbEntity
8
1
62
256
6
ByLayer
370
-1
48
1
60
0
100
AcDbEllipse
10
39.553811
20
-5.506131
30
0
11
0.357989689672484
21
-0.17132760347715
31
0
210
0
220
0
230
1
40
0.990683
41
-1.21578579388844
42
0.529543458105789
0
ELLIPSE
5
95
100
AcDbEntity
8
1
62
256
6
ByLayer
370
-1
48
1
60
0
100
AcDbEllipse
10
36.504377
20
-2.449764
30
0
11
-1.71807037976601
21
0.822238431055609
31
0
210
0
220
0
230
1
40
0.990683
41
0
42
6.28318530717959
0
ELLIPSE
5
96
100
AcDbEntity
8
1
62
256
6
ByLayer
370
-1
48
1
60
0
100
AcDbEllipse
10
33.454942
20
0.606602
30
0
11
0.357989689672484
21
-0.17132760347715
31
0
210
0
220
0
230
1
40
0.990683
41
1.92580685970124
42
-2.61204919548409
0
ELLIPSE
5
97
100
AcDbEntity
8
1
62
256
6
ByLayer
370
-1
48
1
60
0
100
AcDbEllipse
10
33.943263
20
-4.974934
30
0
11
0.357989689672471
21
-0.171327603477144
31
0
210
0
220
0
230
1
40
0.990683
41
-2.61204919548405
42
-1.21578579388858
0
ELLIPSE
5
98
100
AcDbEntity
8
1
62
256
6
ByLayer
370
-1
48
1
60
0
100
AcDbEllipse
10
36.535978
20
-2.383734
30
0
11
1.6969019594965
21
-0.812107595395256
31
0
210
0
220
0
230
1
40
0.990683
41
-2.6915695947349
42
-2.38284358682489E-16
0
ELLIPSE
5
99
100
AcDbEntity
8
1
62
256
6
ByLayer
370
-1
48
1
60
0
100
AcDbEllipse
10
36.535978
20
-2.383734
30
0
11
1.6969019594965
21
-0.812107595395256
31
0
210
0
220
0
230
1
40
0.990683
41
0
42
0.304626311794262
0
ELLIPSE
5
9A
100
AcDbEntity
8
1
62
256
6
ByLayer
370
-1
48
1
60
0
100
AcDbEllipse
10
36.535978
20
-2.383734
30
0
11
1.6969019594965
21
-0.812107595395256
31
0
210
0
220
0
230
1
40
0.990683
41
2.8369463054262
42
-2.6915695947349
0
ELLIPSE
5
9B
100
AcDbEntity
8
1
62
256
6
ByLayer
370
-1
48
1
60
0
100
AcDbEllipse
10
39.06549
20
0.075405
30
0
11
0.357989689672471
21
-0.171327603477144
31
0
210
0
220
0
230
1
40
0.990683
41
0.529543458105641
42
1.92580685970107
0
ELLIPSE
5
9C
100
AcDbEntity
8
1
62
256
6
ByLayer
370
-1
48
1
60
0
100
AcDbEllipse
10
36.550671
20
-2.353033
30
0
11
-1.62491431330972
21
0.777655567147108
31
0
210
0
220
0
230
1
40
0.990683
41
1.94885706722271
42
-2.69156981354479
0
ELLIPSE
5
9D
100
AcDbEntity
8
1
62
256
6
ByLayer
370
-1
48
1
60
0
100
AcDbEllipse
10
36.550671
20
-2.353033
30
0
11
-1.62491431330972
21
0.777655567147108
31
0
210
0
220
0
230
1
40
0.990683
41
-1.25762895198575
42
-2.48840933859515E-16
0
ELLIPSE
5
9E
100
AcDbEntity
8
1
62
256
6
ByLayer
370
-1
48
1
60
0
100
AcDbEllipse
10
36.550671
20
-2.353033
30
0
11
-1.62491431330972
21
0.777655567147108
31
0
210
0
220
0
230
1
40
0.990683
41
0
42
1.19261723863972
0
ELLIPSE
5
9F
100
AcDbEntity
8
1
62
256
6
ByLayer
370
-1
48
1
60
0
100
AcDbEllipse
10
36.550671
20
-2.353033
30
0
11
-1.62491431330972
21
0.777655567147108
31
0
210
0
220
0
230
1
40
0.990683
41
-2.6915698135448
42
-1.88388587403093
0
ELLIPSE
5
A0
100
AcDbEntity
8
1
62
256
6
ByLayer
370
-1
48
1
60
0
100
AcDbEllipse
10
36.508799
20
-2.440524
30
0
11
0.836868880851347
21
-0.400510807761082
31
0
210
0
220
0
230
1
40
0.990683
41
-1.12863010262135
42
-1.12840855995661
0
ELLIPSE
5
A1
100
AcDbEntity
8
1
62
256
6
ByLayer
370
-1
48
1
60
0
100
AcDbEllipse
10
36.327617
20
-3.198797
30
0
11
0.23383746419888
21
-0.0643414138795649
31
0
210
0
220
0
230
-1
40
0.477101
41
-2.99781888329579
42
-0.147858116413623
0
ELLIPSE
5
A2
100
AcDbEntity
8
1
62
256
6
ByLayer
370
-1
48
1
60
0
100
AcDbEllipse
10
36.505158
20
-2.448132
30
0
11
0.933637110665753
21
-0.446822389868366
31
0
210
0
220
0
230
1
40
0.990683
41
0.180477752098478
42
1.18388927389162
0
ELLIPSE
5
A3
100
AcDbEntity
8
1
62
256
6
ByLayer
370
-1
48
1
60
0
100
AcDbEllipse
10
36.56395
20
-2.325286
30
0
11
-0.713679225118338
21
0.341554393376018
31
0
210
0
220
0
230
1
40
0.990683
41
-0.131760224613804
42
0
0
ELLIPSE
5
A4
100
AcDbEntity
8
1
62
256
6
ByLayer
370
-1
48
1
60
0
100
AcDbEllipse
10
36.56395
20
-2.325286
30
0
11
-0.713679225118338
21
0.341554393376018
31
0
210
0
220
0
230
1
40
0.990683
41
0
42
-2.76078259862534
0
ELLIPSE
5
A5
100
AcDbEntity
8
1
62
256
6
ByLayer
370
-1
48
1
60
0
100
AcDbEllipse
10
36.56395
20
-2.325286
30
0
11
-0.713679225118338
21
0.341554393376018
31
0
210
0
220
0
230
1
40
0.990683
41
-1.07610332171273
42
-0.418234130295965
0
ELLIPSE
5
A6
100
AcDbEntity
8
1
62
256
6
ByLayer
370
-1
48
1
60
0
100
AcDbEllipse
10
36.56395
20
-2.325286
30
0
11
-0.713679225118338
21
0.341554393376018
31
0
210
0
220
0
230
1
40
0.990683
41
-2.28041341563668
42
-1.66122456018182
0
ELLIPSE
5
A7
100
AcDbEntity
8
1
62
256
6
ByLayer
370
-1
48
1
60
0
100
AcDbEllipse
10
36.508799
20
-2.440524
30
0
11
0.836868880851347
21
-0.400510807761082
31
0
210
0
220
0
230
1
40
0.990683
41
-1.65405516259022
42
-1.65200733555491
0
ELLIPSE
5
A8
100
AcDbEntity
8
1
62
256
6
ByLayer
370
-1
48
1
60
0
100
AcDbEllipse
10
36.505158
20
-2.448132
30
0
11
0.933637110665753
21
-0.446822389868366
31
0
210
0
220
0
230
1
40
0.990683
41
1.21933224486777
42
-2.9611151902747
0
ELLIPSE
5
A9
100
AcDbEntity
8
1
62
256
6
ByLayer
370
-1
48
1
60
0
100
AcDbEllipse
10
37.208234
20
-2.971034
30
0
11
0.171633893622865
21
0.168609371208887
31
0
210
0
220
0
230
-1
40
0.484786
41
-2.21306744873459
42
-0.125116077281199
0
ELLIPSE
5
AA
100
AcDbEntity
8
1
62
256
6
ByLayer
370
-1
48
1
60
0
100
AcDbEllipse
10
35.919666
20
-1.679538
30
0
11
0.171633893622881
21
0.168609371208917
31
0
210
0
220
0
230
-1
40
0.484786
41
0.142056967737437
42
0.928521961908893
0
ELLIPSE
5
AB
100
AcDbEntity
8
1
62
256
6
ByLayer
370
-1
48
1
60
0
100
AcDbEllipse
10
36.558071
20
-2.337571
30
0
11
1.55598668267083
21
-0.744668008814008
31
0
210
0
220
0
230
1
40
0.990683
41
0
42
3.14149465740317
0
ELLIPSE
5
AC
100
AcDbEntity
8
1
62
256
6
ByLayer
370
-1
48
1
60
0
100
AcDbEllipse
10
35.919079
20
-2.961107
30
0
11
0.164954849884683
21
-0.178253852775004
31
0
210
0
220
0
230
-1
40
0.496696
41
-0.211593064084411
42
2.56018907826503
0
ELLIPSE
5
AD
100
AcDbEntity
8
1
62
256
6
ByLayer
370
-1
48
1
60
0
100
AcDbEllipse
10
35.683548
20
-2.083962
30
0
11
0.0625222570820481
21
0.23214110263996
31
0
210
0
220
0
230
-1
40
0.506888
41
3.02732058538297
42
-1.37423296825313
0
ELLIPSE
5
AE
100
AcDbEntity
8
1
62
256
6
ByLayer
370
-1
48
1
60
0
100
AcDbEllipse
10
35.860286
20
-3.083953
30
0
11
0.164954854403446
21
-0.178253859763265
31
0
210
0
220
0
230
-1
40
0.496696
41
1.36755065788131
42
1.51952723475091
0
ELLIPSE
5
AF
100
AcDbEntity
8
1
62
256
6
ByLayer
370
-1
48
1
60
0
100
AcDbEllipse
10
36.56395
20
-2.325286
30
0
11
-0.836868880851347
21
0.400510807761082
31
0
210
0
220
0
230
1
40
0.990683
41
1.48753749099955
42
1.48958531803485
0
ELLIPSE
5
B0
100
AcDbEntity
8
1
62
256
6
ByLayer
370
-1
48
1
60
0
100
AcDbEllipse
10
36.79948
20
-3.202431
30
0
11
0.234126752389549
21
0.0598622499168016
31
0
210
0
220
0
230
-1
40
0.48054
41
0.845708954546078
42
-3.00154869159276
0
ELLIPSE
5
B1
100
AcDbEntity
8
1
62
256
6
ByLayer
370
-1
48
1
60
0
100
AcDbEllipse
10
35.683333
20
-2.553049
30
0
11
0.0632262973072276
21
-0.23286155427624
31
0
210
0
220
0
230
-1
40
0.481999
41
-3.01443545603599
42
-0.509829544516143
0
ELLIPSE
5
B2
100
AcDbEntity
8
1
62
256
6
ByLayer
370
-1
48
1
60
0
100
AcDbEllipse
10
36.508799
20
-2.440524
30
0
11
0.836868880851347
21
-0.400510807761082
31
0
210
0
220
0
230
1
40
0.990683
41
2.01296255096845
42
2.01318409363318
0
ELLIPSE
5
B3
100
AcDbEntity
8
1
62
256
6
ByLayer
370
-1
48
1
60
0
100
AcDbEllipse
10
36.56395
20
-2.325286
30
0
11
-0.836868880851347
21
0.400510807761082
31
0
210
0
220
0
230
1
40
0.990683
41
2.01296255096841
42
2.01318409363313
0
ELLIPSE
5
B4
100
AcDbEntity
8
1
62
256
6
ByLayer
370
-1
48
1
60
0
100
AcDbEllipse
10
36.508799
20
-2.440524
30
0
11
0.836868880851347
21
-0.400510807761082
31
0
210
0
220
0
230
1
40
0.990683
41
-0.605031327022998
42
-0.604809784358296
0
ELLIPSE
5
B5
100
AcDbEntity
8
1
62
256
6
ByLayer
370
-1
48
1
60
0
100
AcDbEllipse
10
36.508799
20
-2.440524
30
0
11
0.836868880851347
21
-0.400510807761082
31
0
210
0
220
0
230
1
40
0.990683
41
0.965764999771905
42
0.967812826807226
0
ELLIPSE
5
B6
100
AcDbEntity
8
1
62
256
6
ByLayer
370
-1
48
1
60
0
100
AcDbEllipse
10
37.150029
20
-1.812311
30
0
11
0.178597763746233
21
-0.164750288455119
31
0
210
0
220
0
230
-1
40
0.496231
41
-1.5117355058243
42
-1.35975892897437
0
ELLIPSE
5
B7
100
AcDbEntity
8
1
62
256
6
ByLayer
370
-1
48
1
60
0
100
AcDbEllipse
10
36.505158
20
-2.448132
30
0
11
1.17262764491137
21
-0.561199079106222
31
0
210
0
220
0
230
1
40
0.990683
41
0
42
6.28318530717959
0
ELLIPSE
5
B8
100
AcDbEntity
8
1
62
256
6
ByLayer
370
-1
48
1
60
0
100
AcDbEllipse
10
36.569829
20
-2.313001
30
0
11
0.713679225118343
21
-0.34155439337602
31
0
210
0
220
0
230
1
40
0.990683
41
-2.69156923219262
42
0
0
ELLIPSE
5
B9
100
AcDbEntity
8
1
62
256
6
ByLayer
370
-1
48
1
60
0
100
AcDbEllipse
10
36.569829
20
-2.313001
30
0
11
0.713679225118343
21
-0.34155439337602
31
0
210
0
220
0
230
1
40
0.990683
41
3.14158241516673
42
-2.69156923219261
0
ELLIPSE
5
BA
100
AcDbEntity
8
1
62
256
6
ByLayer
370
-1
48
1
60
0
100
AcDbEllipse
10
36.508799
20
-2.440524
30
0
11
0.836868880851347
21
-0.400510807761082
31
0
210
0
220
0
230
1
40
0.990683
41
2.53656132656678
42
2.53678286923149
0
ELLIPSE
5
BB
100
AcDbEntity
8
1
62
256
6
ByLayer
370
-1
48
1
60
0
100
AcDbEllipse
10
36.505158
20
-2.448132
30
0
11
0.933637110665753
21
-0.446822389868366
31
0
210
0
220
0
230
1
40
0.990683
41
-2.9611151902747
42
-1.90557458064714
0
ELLIPSE
5
BC
100
AcDbEntity
8
1
62
256
6
ByLayer
370
-1
48
1
60
0
100
AcDbEllipse
10
36.515383
20
-2.426766
30
0
11
1.55598668267084
21
-0.744668008814014
31
0
210
0
220
0
230
1
40
0.990683
41
0
42
6.28318530717959
0
ELLIPSE
5
BD
100
AcDbEntity
8
1
62
256
6
ByLayer
370
-1
48
1
60
0
100
AcDbEllipse
10
37.444352
20
-2.56661
30
0
11
0.0625223610871259
21
0.232141074259258
31
0
210
0
220
0
230
-1
40
0.506888
41
2.60785248334375
42
-3.02281006297111
0
ELLIPSE
5
BE
100
AcDbEntity
8
1
62
256
6
ByLayer
370
-1
48
1
60
0
100
AcDbEllipse
10
36.505158
20
-2.448132
30
0
11
0.933637110665753
21
-0.446822389868366
31
0
210
0
220
0
230
1
40
0.990683
41
-1.87013160967825
42
0.180477752098478
0
POINT
5
41
100
AcDbEntity
8
1
62
256
6
ByLayer
370
-1
48
1
60
0
100
AcDbPoint
10
-86.3
20
0
30
0
39
0
210
0
220
0
230
1
50
360
0
POINT
5
43
100
AcDbEntity
8
2
62
256
6
ByLayer
370
-1
48
1
60
0
100
AcDbPoint
10
39.95
20
5.9
30
0
39
0
210
0
220
0
230
1
50
360
0
POINT
5
45
100
AcDbEntity
8
80
62
256
6
ByLayer
370
-1
48
1
60
0
100
AcDbPoint
10
0
20
0
30
0
39
0
210
0
220
0
230
1
50
360
0
POINT
5
47
100
AcDbEntity
8
81
62
256
6
ByLayer
370
-1
48
1
60
0
100
AcDbPoint
10
39.95
20
-5.9
30
0
39
0
210
0
220
0
230
1
50
360
0
SPLINE
5
BF
100
AcDbEntity
8
1
62
256
6
ByLayer
370
-1
48
1
60
0
100
AcDbSpline
70
4
71
3
72
8
73
4
40
0
40
0
40
0
40
0
40
1
40
1
40
1
40
1
41
1
10
30.7456737244714
20
-4.91740758477812
30
0
41
1
10
30.7206745785011
20
-4.94234432246904
30
0
41
1
10
30.6956745655897
20
-4.9672802031738
30
0
41
1
10
30.6706737244714
20
-4.9922152650156
30
0
0
SPLINE
5
C0
100
AcDbEntity
8
1
62
256
6
ByLayer
370
-1
48
1
60
0
100
AcDbSpline
70
4
71
3
72
8
73
4
40
0
40
0
40
0
40
0
40
1
40
1
40
1
40
1
41
1
10
31.4048441820686
20
-4.9174075847784
30
0
41
1
10
32.0177236476229
20
-4.95362984709868
30
0
41
1
10
32.6306033301011
20
-4.98984849032155
30
0
41
1
10
33.2434832155245
20
-5.02606374667536
30
0
0
SPLINE
5
C1
100
AcDbEntity
8
1
62
256
6
ByLayer
370
-1
48
1
60
0
100
AcDbSpline
70
4
71
3
72
10
73
6
40
0
40
0
40
0
40
0
40
0.5
40
0.5
40
1
40
1
40
1
40
1
41
1
10
30.6706737244714
20
4.73672480757486
30
0
41
1
10
29.5189473922309
20
4.56558271967001
30
0
41
1
10
28.59531843224
20
4.1777512078913
30
0
41
1
10
27.2754578466021
20
2.57244257059591
30
0
41
1
10
26.881947593667
20
1.41799265767653
30
0
41
1
10
26.5260604004542
20
0.204215349876108
30
0
0
SPLINE
5
C2
100
AcDbEntity
8
1
62
256
6
ByLayer
370
-1
48
1
60
0
100
AcDbSpline
70
4
71
3
72
8
73
4
40
0
40
0
40
0
40
0
40
1
40
1
40
1
40
1
41
1
10
30.6706737244717
20
4.73672480757489
30
0
41
1
10
30.6956251143061
20
4.71614532338143
30
0
41
1
10
30.7206267613789
20
4.69538830922815
30
0
41
1
10
30.7456737244717
20
4.674463169749
30
0
0
SPLINE
5
C3
100
AcDbEntity
8
1
62
256
6
ByLayer
370
-1
48
1
60
0
100
AcDbSpline
70
4
71
3
72
8
73
4
40
0
40
0
40
0
40
0
40
1
40
1
40
1
40
1
41
1
10
33.2686708218824
20
-5.00249791033619
30
0
41
1
10
33.3634187242927
20
-5.00864434365369
30
0
41
1
10
33.458167141437
20
-5.01478196147909
30
0
41
1
10
33.5529160658668
20
-5.02091084931018
30
0
0
SPLINE
5
C4
100
AcDbEntity
8
1
62
256
6
ByLayer
370
-1
48
1
60
0
100
AcDbSpline
70
4
71
3
72
8
73
4
40
0
40
0
40
0
40
0
40
1
40
1
40
1
40
1
41
1
10
33.1445439507073
20
4.91024823147899
30
0
41
1
10
32.5535093505896
20
4.87532346603459
30
0
41
1
10
31.9733088757532
20
4.82519098911931
30
0
41
1
10
31.4048441820686
20
4.74584743781509
30
0
0
SPLINE
5
C5
100
AcDbEntity
8
1
62
256
6
ByLayer
370
-1
48
1
60
0
100
AcDbSpline
70
4
71
3
72
8
73
4
40
0
40
0
40
0
40
0
40
1
40
1
40
1
40
1
41
1
10
30.7456737244714
20
4.67446316974858
30
0
41
1
10
30.9600085627162
20
4.70432734233628
30
0
41
1
10
31.1805233669035
20
4.72758809488218
30
0
41
1
10
31.4048441820686
20
4.7458474378148
30
0
0
SPLINE
5
C6
100
AcDbEntity
8
1
62
256
6
ByLayer
370
-1
48
1
60
0
100
AcDbSpline
70
4
71
3
72
48
73
44
40
-0.0456671092033278
40
-0.0456671092033278
40
0
40
0
40
0.0629689622893864
40
0.0629689622893864
40
0.114953034106598
40
0.114953034106598
40
0.157531775329066
40
0.157531775329066
40
0.200509064164284
40
0.200509064164284
40
0.237774134644937
40
0.237774134644937
40
0.272882334017539
40
0.272882334017539
40
0.308972862056161
40
0.308972862056161
40
0.348249307729574
40
0.348249307729574
40
0.39307519577938
40
0.39307519577938
40
0.460187237046487
40
0.460187237046487
40
0.548676672831952
40
0.548676672831952
40
0.638899241893261
40
0.638899241893261
40
0.672549616514207
40
0.672549616514207
40
0.706589249046292
40
0.706589249046292
40
0.726319267523299
40
0.726319267523299
40
0.74628263423986
40
0.74628263423986
40
0.764065747382847
40
0.764065747382847
40
0.793659663318926
40
0.793659663318926
40
0.850640399435751
40
0.850640399435751
40
0.954332890796672
40
0.954332890796672
40
1
40
1
40
1.06296896228939
40
1.06296896228939
41
1
10
28.1185306792561
20
-0.781962664244304
30
0
41
1
10
27.9175225406821
20
-0.710009241357398
30
0
41
1
10
27.7980778818959
20
-0.687453346106565
30
0
41
1
10
27.583414684119
20
-0.696647047175361
30
0
41
1
10
27.485577124613
20
-0.72006124546914
30
0
41
1
10
27.3164475902039
20
-0.805239584574167
30
0
41
1
10
27.2418026799049
20
-0.860470868192266
30
0
41
1
10
27.1055775660804
20
-1.00180533949629
30
0
41
1
10
27.0420061345372
20
-1.0905772867653
30
0
41
1
10
26.9435094643191
20
-1.27370122096573
30
0
41
1
10
26.9044917849122
20
-1.36828416656792
30
0
41
1
10
26.8479452566344
20
-1.55306817755437
30
0
41
1
10
26.82854164946
20
-1.64559932860254
30
0
41
1
10
26.8079584189353
20
-1.82455747679555
30
0
41
1
10
26.8070289907067
20
-1.912986575822
30
0
41
1
10
26.8244865498182
20
-2.0816227088491
30
0
41
1
10
26.84476419706
20
-2.16249696051636
30
0
41
1
10
26.9083811636293
20
-2.313541201302
30
0
41
1
10
26.955242192853
20
-2.38246060400974
30
0
41
1
10
27.0952896823096
20
-2.52309534270273
30
0
41
1
10
27.2021372140747
20
-2.58220160457259
30
0
41
1
10
27.4781432435446
20
-2.67027683747509
30
0
41
1
10
27.6609564589595
20
-2.68631160942826
30
0
41
1
10
28.0487095379212
20
-2.66509846463211
30
0
41
1
10
28.260203068516
20
-2.6279171882419
30
0
41
1
10
28.5472837033543
20
-2.52782662858715
30
0
41
1
10
28.6261034514137
20
-2.49490152764969
30
0
41
1
10
28.7786755395356
20
-2.41276654708903
30
0
41
1
10
28.8541059457157
20
-2.36259641355193
30
0
41
1
10
28.9558076040926
20
-2.26285278863699
30
0
41
1
10
28.9898843635704
20
-2.22089989736082
30
0
41
1
10
29.042971762018
20
-2.12865684731324
30
0
41
1
10
29.0621850109234
20
-2.07695938858527
30
0
41
1
10
29.0803213781528
20
-1.9784954998064
30
0
41
1
10
29.0816348834164
20
-1.9307781174665
30
0
41
1
10
29.0703835495389
20
-1.80869010642775
30
0
41
1
10
29.0486166294639
20
-1.73527399780622
30
0
41
1
10
28.9660324091177
20
-1.53720183908851
30
0
41
1
10
28.8872280156354
20
-1.42166970154355
30
0
41
1
10
28.6491850349896
20
-1.13296419629324
30
0
41
1
10
28.4689381972149
20
-0.981215208462174
30
0
41
1
10
28.2025193562267
20
-0.822655011811634
30
0
41
1
10
28.1185306792561
20
-0.781962664244304
30
0
41
1
10
27.9175225406821
20
-0.710009241357398
30
0
0
SPLINE
5
C7
100
AcDbEntity
8
1
62
256
6
ByLayer
370
-1
48
1
60
0
100
AcDbSpline
70
4
71
3
72
12
73
8
40
0
40
0
40
0
40
0
40
0.0648664719622223
40
0.0648664719622223
40
0.536127564660952
40
0.536127564660952
40
1
40
1
40
1
40
1
41
1
10
26.5260604004542
20
0.204215349876108
30
0
41
1
10
26.5240352155509
20
0.195570133911389
30
0
41
1
10
26.5219632848177
20
0.186860264907352
30
0
41
1
10
26.5046256956449
20
0.115074820549722
30
0
41
1
10
26.4868329542375
20
0.0485014050706809
30
0
41
1
10
26.4492387101964
20
-0.0804600069682522
30
0
41
1
10
26.4290385032333
20
-0.144454823377686
30
0
41
1
10
26.4089848984823
20
-0.204215349875255
30
0
0
SPLINE
5
C8
100
AcDbEntity
8
1
62
256
6
ByLayer
370
-1
48
1
60
0
100
AcDbSpline
70
4
71
3
72
14
73
10
40
0
40
0
40
0
40
0
40
0.25
40
0.25
40
0.5
40
0.5
40
0.75
40
0.75
40
1
40
1
40
1
40
1
41
1
10
26.4089848984822
20
-0.204215349875284
30
0
41
1
10
26.1701308395928
20
-1.05580054490403
30
0
41
1
10
25.9472549692564
20
-1.90847842683053
30
0
41
1
10
25.7204091113052
20
-3.40171931956635
30
0
41
1
10
25.7383079710269
20
-4.03773739775991
30
0
41
1
10
26.4410083132435
20
-4.80362921540782
30
0
41
1
10
27.1161796106618
20
-4.92557937879329
30
0
41
1
10
28.6842258934245
20
-5.01082054500566
30
0
41
1
10
29.5746196083481
20
-4.99221526501577
30
0
41
1
10
30.4725253572668
20
-4.99221526501577
30
0
0
SPLINE
5
C9
100
AcDbEntity
8
1
62
256
6
ByLayer
370
-1
48
1
60
0
100
AcDbSpline
70
4
71
3
72
8
73
4
40
0
40
0
40
0
40
0
40
1
40
1
40
1
40
1
41
1
10
34.0148602331396
20
4.96167373206711
30
0
41
1
10
33.7247547609382
20
4.94453264491801
30
0
41
1
10
33.4346493329957
20
4.92739081911864
30
0
41
1
10
33.1445439507073
20
4.91024823147899
30
0
0
SPLINE
5
CA
100
AcDbEntity
8
1
62
256
6
ByLayer
370
-1
48
1
60
0
100
AcDbSpline
70
4
71
3
72
22
73
18
40
0
40
0
40
0
40
0
40
0.0986113538178946
40
0.0986113538178946
40
0.183915555260763
40
0.183915555260763
40
0.299837676735975
40
0.299837676735975
40
0.483761977387006
40
0.483761977387006
40
0.582276243943091
40
0.582276243943091
40
0.774222172395226
40
0.774222172395226
40
0.96577286203511
40
0.96577286203511
40
1
40
1
40
1
40
1
41
1
10
35.5796003816577
20
-2.43364875582466
30
0
41
1
10
35.5703089690832
20
-2.43392382551886
30
0
41
1
10
35.5608852756446
20
-2.43222074618461
30
0
41
1
10
35.5450049985603
20
-2.42538580930633
30
0
41
1
10
35.5381281635237
20
-2.42068599978774
30
0
41
1
10
35.5240908593032
20
-2.40736569468595
30
0
41
1
10
35.5174421110634
20
-2.39778823613992
30
0
41
1
10
35.5038979014606
20
-2.37133446643
30
0
41
1
10
35.4987141878769
20
-2.35301514851281
30
0
41
1
10
35.4939493940915
20
-2.32453325048348
30
0
41
1
10
35.4928766888751
20
-2.31438337806946
30
0
41
1
10
35.4911736193307
20
-2.28437798846832
30
0
41
1
10
35.4918939391407
20
-2.26428493412214
30
0
41
1
10
35.4961565682908
20
-2.22446508982537
30
0
41
1
10
35.4997157356132
20
-2.20460827361163
30
0
41
1
10
35.5053847544995
20
-2.1815636248451
30
0
41
1
10
35.5062861027338
20
-2.17807355862223
30
0
41
1
10
35.5072277741122
20
-2.17459304827955
30
0
0
SPLINE
5
CB
100
AcDbEntity
8
1
62
256
6
ByLayer
370
-1
48
1
60
0
100
AcDbSpline
70
4
71
3
72
22
73
18
40
0
40
0
40
0
40
0
40
0.167842784248488
40
0.167842784248488
40
0.33589803447162
40
0.33589803447162
40
0.454065247809217
40
0.454065247809217
40
0.642558083167308
40
0.642558083167308
40
0.75550876117553
40
0.75550876117553
40
0.870151412064714
40
0.870151412064714
40
0.967012982271637
40
0.967012982271637
40
1
40
1
40
1
40
1
41
1
10
37.2673814093205
20
-1.76016291335017
30
0
41
1
10
37.2777914552566
20
-1.77200030094667
30
0
41
1
10
37.2876313170257
20
-1.78434769069582
30
0
41
1
10
37.3058028628112
20
-1.80995133678343
30
0
41
1
10
37.3141769806158
20
-1.82326482723431
30
0
41
1
10
37.3266493332768
20
-1.84664519301711
30
0
41
1
10
37.3312980181631
20
-1.85654380043621
30
0
41
1
10
37.3414635247771
20
-1.88251857452408
30
0
41
1
10
37.3460462558371
20
-1.89917318800099
30
0
41
1
10
37.3481675284363
20
-1.92514408653918
30
0
41
1
10
37.3477550142476
20
-1.93491146457507
30
0
41
1
10
37.3436241413436
20
-1.952925235588
30
0
41
1
10
37.3397330258828
20
-1.96137969138206
30
0
41
1
10
37.3295959384307
20
-1.97381484968963
30
0
41
1
10
37.323697075255
20
-1.97844229948191
30
0
41
1
10
37.3149249666166
20
-1.98291580099308
30
0
41
1
10
37.3125909571305
20
-1.98392178104805
30
0
41
1
10
37.3101956946195
20
-1.98479168194015
30
0
0
SPLINE
5
CC
100
AcDbEntity
8
1
62
256
6
ByLayer
370
-1
48
1
60
0
100
AcDbSpline
70
4
71
3
72
34
73
30
40
0
40
0
40
0
40
0
40
0.0484619167057438
40
0.0484619167057438
40
0.123250895849108
40
0.123250895849108
40
0.183570929309644
40
0.183570929309644
40
0.243735544402842
40
0.243735544402842
40
0.303833391333715
40
0.303833391333715
40
0.401539481582443
40
0.401539481582443
40
0.499173133035678
40
0.499173133035678
40
0.596804264320314
40
0.596804264320314
40
0.692486849042296
40
0.692486849042296
40
0.773267829408509
40
0.773267829408509
40
0.8365556941294
40
0.8365556941294
40
0.884954691232747
40
0.884954691232747
40
0.961866476551725
40
0.961866476551725
40
1
40
1
40
1
40
1
41
1
10
35.5796003816577
20
-2.43364875582412
30
0
41
1
10
35.5880840280277
20
-2.43301780173903
30
0
41
1
10
35.596650681904
20
-2.43408377646327
30
0
41
1
10
35.6172419030075
20
-2.43980902716859
30
0
41
1
10
35.6290406433601
20
-2.44610135307579
30
0
41
1
10
35.6484710590387
20
-2.46000762637166
30
0
41
1
10
35.6566213828933
20
-2.46725083647638
30
0
41
1
10
35.6718017858084
20
-2.48296963677166
30
0
41
1
10
35.6788822073199
20
-2.49149605099314
30
0
41
1
10
35.692072153746
20
-2.50944101867773
30
0
41
1
10
35.6982088969085
20
-2.5188973368829
30
0
41
1
10
35.7131400419981
20
-2.54459026994761
30
0
41
1
10
35.7212699337103
20
-2.56148135408509
30
0
41
1
10
35.7353016805313
20
-2.596374216188
30
0
41
1
10
35.7412502123844
20
-2.61449632630499
30
0
41
1
10
35.7508842531529
20
-2.65139571937664
30
0
41
1
10
35.754600804995
20
-2.67029096581149
30
0
41
1
10
35.7595263619422
20
-2.70790614461063
30
0
41
1
10
35.7608034984466
20
-2.72674718546656
30
0
41
1
10
35.7606183454076
20
-2.76122421509976
30
0
41
1
10
35.7595525123288
20
-2.77700600006403
30
0
41
1
10
35.755478776279
20
-2.80455026387426
30
0
41
1
10
35.752929467618
20
-2.81651720575812
30
0
41
1
10
35.7467536553382
20
-2.83688414588031
30
0
41
1
10
35.7435037347236
20
-2.84551201041049
30
0
41
1
10
35.7333717137415
20
-2.86655285173393
30
0
41
1
10
35.7252616758803
20
-2.87866817874826
30
0
41
1
10
35.709847616576
20
-2.89258181565685
30
0
41
1
10
35.7040678848286
20
-2.89656701125568
30
0
41
1
10
35.6978633593555
20
-2.89949994910589
30
0
0
SPLINE
5
CD
100
AcDbEntity
8
1
62
256
6
ByLayer
370
-1
48
1
60
0
100
AcDbSpline
70
4
71
3
72
22
73
18
40
0
40
0
40
0
40
0
40
0.0991354884068857
40
0.0991354884068857
40
0.206229847800667
40
0.206229847800667
40
0.367627630833629
40
0.367627630833629
40
0.507529288583134
40
0.507529288583134
40
0.647011593782582
40
0.647011593782582
40
0.78633244895718
40
0.78633244895718
40
0.892876682575514
40
0.892876682575514
40
1
40
1
40
1
40
1
41
1
10
36.9761566271578
20
-1.63914696974277
30
0
41
1
10
36.9821410224133
20
-1.63340454592677
30
0
41
1
10
36.9898391766911
20
-1.6289363678539
30
0
41
1
10
37.0074689751596
20
-1.62299520634707
30
0
41
1
10
37.017759167936
20
-1.62164505198879
30
0
41
1
10
37.0437712295065
20
-1.62165232217262
30
0
41
1
10
37.0600793586403
20
-1.62459880265251
30
0
41
1
10
37.0895852217951
20
-1.63312897253474
30
0
41
1
10
37.103164785447
20
-1.63839098660435
30
0
41
1
10
37.1295201234887
20
-1.65057373504356
30
0
41
1
10
37.1423819446452
20
-1.65753329900917
30
0
41
1
10
37.1673098297962
20
-1.67270730286029
30
0
41
1
10
37.1794221760377
20
-1.68095056925907
30
0
41
1
10
37.200088359172
20
-1.69641482831869
30
0
41
1
10
37.2088263308379
20
-1.70343491625758
30
0
41
1
10
37.2258545234833
20
-1.71806388919666
30
0
41
1
10
37.2341538344366
20
-1.72568597119621
30
0
41
1
10
37.2421829936067
20
-1.73356486427843
30
0
0
SPLINE
5
CE
100
AcDbEntity
8
1
62
256
6
ByLayer
370
-1
48
1
60
0
100
AcDbSpline
70
4
71
3
72
34
73
30
40
0
40
0
40
0
40
0
40
0.0495805136006468
40
0.0495805136006468
40
0.129698637862946
40
0.129698637862946
40
0.194505892890836
40
0.194505892890836
40
0.259150175590198
40
0.259150175590198
40
0.323725661314029
40
0.323725661314029
40
0.42553419733553
40
0.42553419733553
40
0.527282435054665
40
0.527282435054665
40
0.629041292372136
40
0.629041292372136
40
0.724169483475256
40
0.724169483475256
40
0.802896330501553
40
0.802896330501553
40
0.863925138213287
40
0.863925138213287
40
0.910648821183612
40
0.910648821183612
40
0.947136701919298
40
0.947136701919298
40
1
40
1
40
1
40
1
41
1
10
36.5082745112422
20
-3.36123862831386
30
0
41
1
10
36.5082752490238
20
-3.35250856632609
30
0
41
1
10
36.5066221648111
20
-3.34374915613066
30
0
41
1
10
36.4993956124663
20
-3.32210769750921
30
0
41
1
10
36.4920116115703
20
-3.30955158440301
30
0
41
1
10
36.4761393111422
20
-3.28890623092349
30
0
41
1
10
36.4679920090304
20
-3.28025951211077
30
0
41
1
10
36.4504822647335
20
-3.26420376813522
30
0
41
1
10
36.4410625671744
20
-3.25674161092465
30
0
41
1
10
36.4213560345673
20
-3.24290131625804
30
0
41
1
10
36.411026877338
20
-3.23649414592117
30
0
41
1
10
36.383610885314
20
-3.22129583350898
30
0
41
1
10
36.365941681779
20
-3.21318600323704
30
0
41
1
10
36.3296711200433
20
-3.19938261290406
30
0
41
1
10
36.310943865614
20
-3.19364254121058
30
0
41
1
10
36.2730281245896
20
-3.18465218578209
30
0
41
1
10
36.2537135457052
20
-3.18137128687829
30
0
41
1
10
36.2163589299768
20
-3.1776709918218
30
0
41
1
10
36.1981961337439
20
-3.1770641422755
30
0
41
1
10
36.1654532611934
20
-3.17852785213734
30
0
41
1
10
36.1506993904161
20
-3.1801582062937
30
0
41
1
10
36.1252166704541
20
-3.18518112329377
30
0
41
1
10
36.1142614629574
20
-3.18810983805631
30
0
41
1
10
36.0957198384975
20
-3.19488663361278
30
0
41
1
10
36.0878996710061
20
-3.19837781935993
30
0
41
1
10
36.0747786453481
20
-3.20575929933517
30
0
41
1
10
36.0692690393454
20
-3.20941575480234
30
0
41
1
10
36.056884558907
20
-3.21944581127971
30
0
41
1
10
36.0503487179657
20
-3.22644686438724
30
0
41
1
10
36.0454396163314
20
-3.23437251965896
30
0
0
SPLINE
5
CF
100
AcDbEntity
8
1
62
256
6
ByLayer
370
-1
48
1
60
0
100
AcDbSpline
70
4
71
3
72
36
73
32
40
0
40
0
40
0
40
0
40
0.0492962859145789
40
0.0492962859145789
40
0.1289551210849
40
0.1289551210849
40
0.193390858861357
40
0.193390858861357
40
0.25766455857247
40
0.25766455857247
40
0.321869855696959
40
0.321869855696959
40
0.386043638223666
40
0.386043638223666
40
0.490448583703498
40
0.490448583703498
40
0.594841290248248
40
0.594841290248248
40
0.692807648700438
40
0.692807648700438
40
0.776462598778853
40
0.776462598778853
40
0.842223390286572
40
0.842223390286572
40
0.892525018755431
40
0.892525018755431
40
0.931489584935901
40
0.931489584935901
40
0.988987173585811
40
0.988987173585811
40
1
40
1
40
1
40
1
41
1
10
37.311144759168
20
-1.98643099641845
30
0
41
1
10
37.3044660348339
20
-1.99011058291916
30
0
41
1
10
37.2986011066517
20
-1.99522719680453
30
0
41
1
10
37.2856937500645
20
-2.01057962458506
30
0
41
1
10
37.2798116984827
20
-2.02224070932303
30
0
41
1
10
37.2719862127017
20
-2.04465614905732
30
0
41
1
10
37.2694508378215
20
-2.05534704883783
30
0
41
1
10
37.2658997470694
20
-2.07728210353943
30
0
41
1
10
37.2648720689485
20
-2.08859816038225
30
0
41
1
10
37.2640325382474
20
-2.11155553538521
30
0
41
1
10
37.2642194832967
20
-2.1232458170642
30
0
41
1
10
37.2656285211277
20
-2.14679851499096
30
0
41
1
10
37.2668533369482
20
-2.1586995374314
30
0
41
1
10
37.2712771575663
20
-2.18998765878979
30
0
41
1
10
37.2752456864655
20
-2.20952975157209
30
0
41
1
10
37.2853359064842
20
-2.24818923618321
30
0
41
1
10
37.2914932644721
20
-2.26744334476567
30
0
41
1
10
37.305444904404
20
-2.30382672086117
30
0
41
1
10
37.3131598561537
20
-2.32113551201164
30
0
41
1
10
37.329249408071
20
-2.35186757593232
30
0
41
1
10
37.3374106530907
20
-2.36558303670733
30
0
41
1
10
37.3534021688939
20
-2.38855872655657
30
0
41
1
10
37.3609738708116
20
-2.39820630518807
30
0
41
1
10
37.3753226427594
20
-2.4137900907339
30
0
41
1
10
37.3819060606663
20
-2.42010369357999
30
0
41
1
10
37.394213010261
20
-2.43003442944792
30
0
41
1
10
37.3998284542324
20
-2.4339616094444
30
0
41
1
10
37.4141487365558
20
-2.44212836664053
30
0
41
1
10
37.4232705290992
20
-2.44573953512173
30
0
41
1
10
37.4342246413126
20
-2.44748925447854
30
0
41
1
10
37.4360125518815
20
-2.44769472130531
30
0
41
1
10
37.4377984002656
20
-2.44781525829112
30
0
0
SPLINE
5
D0
100
AcDbEntity
8
1
62
256
6
ByLayer
370
-1
48
1
60
0
100
AcDbSpline
70
4
71
3
72
42
73
38
40
0
40
0
40
0
40
0
40
0.0453868446055248
40
0.0453868446055248
40
0.0855289172226907
40
0.0855289172226907
40
0.13675526075947
40
0.13675526075947
40
0.176187381923034
40
0.176187381923034
40
0.232899104725521
40
0.232899104725521
40
0.289415721421993
40
0.289415721421993
40
0.345854377934274
40
0.345854377934274
40
0.459254087222333
40
0.459254087222333
40
0.515653380606406
40
0.515653380606406
40
0.572053913253746
40
0.572053913253746
40
0.659762760606717
40
0.659762760606717
40
0.726494882950878
40
0.726494882950878
40
0.77821944168051
40
0.77821944168051
40
0.861348933301238
40
0.861348933301238
40
0.909456127369012
40
0.909456127369012
40
0.950205311078268
40
0.950205311078268
40
0.991117202000611
40
0.991117202000611
40
1
40
1
40
1
40
1
41
1
10
36.5084796964728
20
-3.36124020837749
30
0
41
1
10
36.5079128359015
20
-3.3700108021514
30
0
41
1
10
36.5090763775771
20
-3.37901767368172
30
0
41
1
10
36.514749652179
20
-3.39462202578736
30
0
41
1
10
36.5189170576808
20
-3.40156354887705
30
0
41
1
10
36.5306286393251
20
-3.41534414282131
30
0
41
1
10
36.5389162893236
20
-3.42187827061477
30
0
41
1
10
36.5547698645111
20
-3.4312672591702
30
0
41
1
10
36.5621793348529
20
-3.43470466992559
30
0
41
1
10
36.5807442315871
20
-3.44171558538642
30
0
41
1
10
36.592221300168
20
-3.44474119494484
30
0
41
1
10
36.6154191801085
20
-3.44911728918484
30
0
41
1
10
36.627218292525
20
-3.45048431078328
30
0
41
1
10
36.6508697258027
20
-3.4519321125504
30
0
41
1
10
36.6627645908641
20
-3.45201478728404
30
0
41
1
10
36.6984313648044
20
-3.45066319246442
30
0
41
1
10
36.7222664583517
20
-3.44763635426298
30
0
41
1
10
36.7573678984236
20
-3.44053647193675
30
0
41
1
10
36.7689739845671
20
-3.43773762658688
30
0
41
1
10
36.7919475745688
20
-3.43129962251317
30
0
41
1
10
36.803331713551
20
-3.42765585791801
30
0
41
1
10
36.8319977532591
20
-3.41726505345011
30
0
41
1
10
36.8491232265131
20
-3.40990078801568
30
0
41
1
10
36.8782186771156
20
-3.3949306401116
30
0
41
1
10
36.8904893206603
20
-3.38777802246707
30
0
41
1
10
36.9113111581128
20
-3.37371156397384
30
0
41
1
10
36.9201106046714
20
-3.3670827233737
30
0
41
1
10
36.9416518788448
20
-3.34847797526768
30
0
41
1
10
36.953912056262
20
-3.3354449292388
30
0
41
1
10
36.9686641334122
20
-3.31236320765217
30
0
41
1
10
36.9731520609697
20
-3.30318240358048
30
0
41
1
10
36.9783146250492
20
-3.28574070273939
30
0
41
1
10
36.9794814421317
20
-3.27737733480254
30
0
41
1
10
36.9787747621777
20
-3.26125218899119
30
0
41
1
10
36.9768698957283
20
-3.25329587837089
30
0
41
1
10
36.9730018629964
20
-3.24456109594038
30
0
41
1
10
36.9722424933657
20
-3.2430148208141
30
0
41
1
10
36.9714276774215
20
-3.2415032475754
30
0
0
SPLINE
5
D1
100
AcDbEntity
8
1
62
256
6
ByLayer
370
-1
48
1
60
0
100
AcDbSpline
70
4
71
3
72
36
73
32
40
0
40
0
40
0
40
0
40
0.0492962859085579
40
0.0492962859085579
40
0.128955121069262
40
0.128955121069262
40
0.193390858837952
40
0.193390858837952
40
0.257664558541317
40
0.257664558541317
40
0.321869855658058
40
0.321869855658058
40
0.386043638177038
40
0.386043638177038
40
0.490448583644153
40
0.490448583644153
40
0.594841290176189
40
0.594841290176189
40
0.692807648616383
40
0.692807648616383
40
0.776462598684471
40
0.776462598684471
40
0.842223390184045
40
0.842223390184045
40
0.89252501864668
40
0.89252501864668
40
0.931489584822357
40
0.931489584822357
40
0.988987173442039
40
0.988987173442039
40
1
40
1
40
1
40
1
41
1
10
36.0459932226731
20
-1.63964458498174
30
0
41
1
10
36.0501216273539
20
-1.64628647708847
30
0
41
1
10
36.0528251899094
20
-1.65375177100833
30
0
41
1
10
36.0567727851573
20
-1.67372425266637
30
0
41
1
10
36.0562888902704
20
-1.68686500789019
30
0
41
1
10
36.0522585815666
20
-1.71032073078535
30
0
41
1
10
36.049270482095
20
-1.72088753575838
30
0
41
1
10
36.0416634744589
20
-1.74171083679198
30
0
41
1
10
36.0370199538689
20
-1.75203576727722
30
0
41
1
10
36.0264803535501
20
-1.77233428898367
30
0
41
1
10
36.020561292162
20
-1.78235087387657
30
0
41
1
10
36.0077037078489
20
-1.80199299622882
30
0
41
1
10
36.0007437506548
20
-1.81165051820292
30
0
41
1
10
35.9813543219238
20
-1.83641127027136
30
0
41
1
10
35.9681506133855
20
-1.85124633909211
30
0
41
1
10
35.9399926716621
20
-1.87942174936745
30
0
41
1
10
35.924938878732
20
-1.89286174106582
30
0
41
1
10
35.8943900943295
20
-1.91704725625914
30
0
41
1
10
35.8788788560024
20
-1.92798959495246
30
0
41
1
10
35.849180811184
20
-1.94617097549471
30
0
41
1
10
35.8350421492026
20
-1.95377388413564
30
0
41
1
10
35.8092768549562
20
-1.96530375592079
30
0
41
1
10
35.7976895341629
20
-1.96969971959476
30
0
41
1
10
35.7770802463107
20
-1.97570126952755
30
0
41
1
10
35.7680426149304
20
-1.9777330393529
30
0
41
1
10
35.7520871086158
20
-1.97991684895908
30
0
41
1
10
35.7451100216688
20
-1.9803923328684
30
0
41
1
10
35.7282468618524
20
-1.98001150213915
30
0
41
1
10
35.7183055327872
20
-1.97839734278998
30
0
41
1
10
35.7076704958543
20
-1.97422933344569
30
0
41
1
10
35.705975024207
20
-1.97347998214261
30
0
41
1
10
35.7043241735265
20
-1.97265849715714
30
0
0
SPLINE
5
D2
100
AcDbEntity
8
1
62
256
6
ByLayer
370
-1
48
1
60
0
100
AcDbSpline
70
4
71
3
72
22
73
18
40
0
40
0
40
0
40
0
40
0.0986113538166911
40
0.0986113538166911
40
0.183915555259557
40
0.183915555259557
40
0.299837676728764
40
0.299837676728764
40
0.483761977366579
40
0.483761977366579
40
0.58227624391514
40
0.58227624391514
40
0.774222172354403
40
0.774222172354403
40
0.96577286198139
40
0.96577286198139
40
1
40
1
40
1
40
1
41
1
10
37.313075328603
20
-2.90880571435858
30
0
41
1
10
37.3206979132198
20
-2.91371702265374
30
0
41
1
10
37.3294276159503
20
-2.91698990938519
30
0
41
1
10
37.3461340328202
20
-2.91908720104408
30
0
41
1
10
37.3542442376227
20
-2.91849543835971
30
0
41
1
10
37.3726712799374
20
-2.91407382555761
30
0
41
1
10
37.3830407696026
20
-2.90916117868252
30
0
41
1
10
37.4076433369776
20
-2.89316369307531
30
0
41
1
10
37.4211645592214
20
-2.87997152189621
30
0
41
1
10
37.4394123521781
20
-2.85779752623802
30
0
41
1
10
37.4453889018491
20
-2.8495799012554
30
0
41
1
10
37.4618183892359
20
-2.82454476554847
30
0
41
1
10
37.4712502686177
20
-2.8068396073526
30
0
41
1
10
37.4875411944059
20
-2.77031679879406
30
0
41
1
10
37.4944511192524
20
-2.7513784474009
30
0
41
1
10
37.5011657232848
20
-2.72862040044001
30
0
41
1
10
37.5021463602249
20
-2.72515206777032
30
0
41
1
10
37.5030880305916
20
-2.72167155714448
30
0
0
SPLINE
5
D3
100
AcDbEntity
8
1
62
256
6
ByLayer
370
-1
48
1
60
0
100
AcDbSpline
70
4
71
3
72
42
73
38
40
0
40
0
40
0
40
0
40
0.0453868446055313
40
0.0453868446055313
40
0.085528917222716
40
0.085528917222716
40
0.136755260759484
40
0.136755260759484
40
0.176187381923033
40
0.176187381923033
40
0.232899104725527
40
0.232899104725527
40
0.289415721421982
40
0.289415721421982
40
0.345854377934257
40
0.345854377934257
40
0.459254087222277
40
0.459254087222277
40
0.515653380606306
40
0.515653380606306
40
0.572053913253645
40
0.572053913253645
40
0.659762760606613
40
0.659762760606613
40
0.726494882950815
40
0.726494882950815
40
0.778219441680438
40
0.778219441680438
40
0.861348933301172
40
0.861348933301172
40
0.909456127368956
40
0.909456127368956
40
0.950205311078233
40
0.950205311078233
40
0.991117202000602
40
0.991117202000602
40
1
40
1
40
1
40
1
41
1
10
36.0461709650648
20
-1.63954396443924
30
0
41
1
10
36.0415309290389
20
-1.63314553715682
30
0
41
1
10
36.0382843079267
20
-1.62572840414003
30
0
41
1
10
36.035842239483
20
-1.6111101913435
30
0
41
1
10
36.036186325651
20
-1.60381318920301
30
0
41
1
10
36.0398646318765
20
-1.58767684847646
30
0
41
1
10
36.0439911039135
20
-1.57871422273703
30
0
41
1
10
36.0533623623091
20
-1.56396224290023
30
0
41
1
10
36.0581938610607
20
-1.55779896108314
30
0
41
1
10
36.0710632023123
20
-1.5435989068705
30
0
41
1
10
36.0796432135071
20
-1.53583550795642
30
0
41
1
10
36.0978197412491
20
-1.52151145090733
30
0
41
1
10
36.1074766848641
20
-1.51490076469088
30
0
41
1
10
36.1274573740195
20
-1.50267825063102
30
0
41
1
10
36.1378173595178
20
-1.49704483955617
30
0
41
1
10
36.1696566618671
20
-1.48143925597495
30
0
41
1
10
36.1919630834799
20
-1.47271944996001
30
0
41
1
10
36.2261007677999
20
-1.46203041920219
30
0
41
1
10
36.2376079727279
20
-1.45886332768782
30
0
41
1
10
36.2608232216704
20
-1.4533252921035
30
0
41
1
10
36.2725480500719
20
-1.45095029803701
30
0
41
1
10
36.3026634305543
20
-1.44595702209912
30
0
41
1
10
36.3212177336274
20
-1.44391389980032
30
0
41
1
10
36.3539318721511
20
-1.44242020383993
30
0
41
1
10
36.3681352152725
20
-1.44246520409823
30
0
41
1
10
36.3931666185806
20
-1.44407570178095
30
0
41
1
10
36.4040748993076
20
-1.44530042660179
30
0
41
1
10
36.4319196200494
20
-1.45017051153164
30
0
41
1
10
36.4489413225917
20
-1.45486998787661
30
0
41
1
10
36.472953984759
20
-1.46627585728149
30
0
41
1
10
36.4812892124044
20
-1.47142288580449
30
0
41
1
10
36.4941540475562
20
-1.48266541754216
30
0
41
1
10
36.4991669759892
20
-1.488625455191
30
0
41
1
10
36.5062176637452
20
-1.50138972881291
30
0
41
1
10
36.508320170692
20
-1.5083573840524
30
0
41
1
10
36.5090560647399
20
-1.51676820780571
30
0
41
1
10
36.509120297608
20
-1.51828913265291
30
0
41
1
10
36.5091189460135
20
-1.51980700363717
30
0
0
SPLINE
5
D4
100
AcDbEntity
8
1
62
256
6
ByLayer
370
-1
48
1
60
0
100
AcDbSpline
70
4
71
3
72
24
73
20
40
0
40
0
40
0
40
0
40
0.157270274860754
40
0.157270274860754
40
0.348947819421941
40
0.348947819421941
40
0.44442388471173
40
0.44442388471173
40
0.539980603005733
40
0.539980603005733
40
0.635702979480979
40
0.635702979480979
40
0.713564009710499
40
0.713564009710499
40
0.838051309003855
40
0.838051309003855
40
0.924252902434054
40
0.924252902434054
40
1
40
1
40
1
40
1
41
1
10
35.5072277741122
20
-2.17459304827955
30
0
41
1
10
35.5115482219676
20
-2.15862424664468
30
0
41
1
10
35.5167216708921
20
-2.14282528267174
30
0
41
1
10
35.5300740963562
20
-2.10849938251073
30
0
41
1
10
35.5386940959491
20
-2.09002827255802
30
0
41
1
10
35.5537130022138
20
-2.06354995948666
30
0
41
1
10
35.5590765506145
20
-2.05491545166527
30
0
41
1
10
35.5705846347703
20
-2.03819019397818
30
0
41
1
10
35.5767456985604
20
-2.03007529734492
30
0
41
1
10
35.5899448271453
20
-2.0146335508561
30
0
41
1
10
35.5970151343667
20
-2.00727056454122
30
0
41
1
10
35.6107033537778
20
-1.99503490495806
30
0
41
1
10
35.6171957077592
20
-1.98992477722916
30
0
41
1
10
35.6347555585313
20
-1.97829462324475
30
0
41
1
10
35.6466055906994
20
-1.97254721475329
30
0
41
1
10
35.6669880563778
20
-1.96742886406852
30
0
41
1
10
35.675616899123
20
-1.96663458320452
30
0
41
1
10
35.6909808724884
20
-1.96801549178204
30
0
41
1
10
35.6979665928764
20
-1.96985214226089
30
0
41
1
10
35.7043241735265
20
-1.97265849715711
30
0
0
SPLINE
5
D5
100
AcDbEntity
8
1
62
256
6
ByLayer
370
-1
48
1
60
0
100
AcDbSpline
70
4
71
3
72
24
73
20
40
0
40
0
40
0
40
0
40
0.157270274760398
40
0.157270274760398
40
0.348947819267437
40
0.348947819267437
40
0.444423884530327
40
0.444423884530327
40
0.539980602797323
40
0.539980602797323
40
0.635702979245375
40
0.635702979245375
40
0.713564009483677
40
0.713564009483677
40
0.838051308771875
40
0.838051308771875
40
0.92425290218541
40
0.92425290218541
40
1
40
1
40
1
40
1
41
1
10
37.5030880305916
20
-2.72167155714448
30
0
41
1
10
37.5074084737974
20
-2.70570275424214
30
0
41
1
10
37.5109206698938
20
-2.68944842987869
30
0
41
1
10
37.5167616876313
20
-2.65306360314256
30
0
41
1
10
37.5186887302389
20
-2.63275790937388
30
0
41
1
10
37.5192011055402
20
-2.60230326013371
30
0
41
1
10
37.5189744419041
20
-2.59213643818629
30
0
41
1
10
37.5175916738863
20
-2.57187771258171
30
0
41
1
10
37.5164336292935
20
-2.56175659988858
30
0
41
1
10
37.512987960489
20
-2.54175240424712
30
0
41
1
10
37.5106911069693
20
-2.53182181716258
30
0
41
1
10
37.5052450081506
20
-2.51434131428016
30
0
41
1
10
37.5023187944017
20
-2.50664949478252
30
0
41
1
10
37.493322942352
20
-2.48774024685011
30
0
41
1
10
37.4862152817366
20
-2.47679640926367
30
0
41
1
10
37.4716475621824
20
-2.46209798143266
30
0
41
1
10
37.4648061888905
20
-2.45706321193867
30
0
41
1
10
37.4512548535405
20
-2.4505182429711
30
0
41
1
10
37.4445008805597
20
-2.44858875254391
30
0
41
1
10
37.4377984002658
20
-2.44781525828824
30
0
0
SPLINE
5
D6
100
AcDbEntity
8
1
62
256
6
ByLayer
370
-1
48
1
60
0
100
AcDbSpline
70
4
71
3
72
22
73
18
40
0
40
0
40
0
40
0
40
0.167842784246157
40
0.167842784246157
40
0.335898034470133
40
0.335898034470133
40
0.454065247808211
40
0.454065247808211
40
0.642558083166862
40
0.642558083166862
40
0.755508761174843
40
0.755508761174843
40
0.870151412063899
40
0.870151412063899
40
0.967012982270416
40
0.967012982270416
40
1
40
1
40
1
40
1
41
1
10
35.8068668241509
20
-3.20017981336989
30
0
41
1
10
35.8187240728903
20
-3.21059030902336
30
0
41
1
10
35.8311454852612
20
-3.22039237910775
30
0
41
1
10
35.8570323276857
20
-3.23838900937989
30
0
41
1
10
35.8705552108496
20
-3.24662599514781
30
0
41
1
10
35.8944543985985
20
-3.25873989648932
30
0
41
1
10
35.9046154499676
20
-3.263203501085
30
0
41
1
10
35.9314348310833
20
-3.27275813053609
30
0
41
1
10
35.948776739918
20
-3.27683263573337
30
0
41
1
10
35.9762800348434
20
-3.27777773755773
30
0
41
1
10
35.9867355147053
20
-3.27682964909928
30
0
41
1
10
36.0063570293175
20
-3.27142438699448
30
0
41
1
10
36.0157632175802
20
-3.26676816092285
30
0
41
1
10
36.0300643066783
20
-3.25510812182873
30
0
41
1
10
36.0356110154898
20
-3.24845063324415
30
0
41
1
10
36.0413006112026
20
-3.23866539411688
30
0
41
1
10
36.0426185682435
20
-3.2360706614019
30
0
41
1
10
36.0437983888332
20
-3.23341565392525
30
0
0
SPLINE
5
D7
100
AcDbEntity
8
1
62
256
6
ByLayer
370
-1
48
1
60
0
100
AcDbSpline
70
4
71
3
72
34
73
30
40
0
40
0
40
0
40
0
40
0.0493619475591509
40
0.0493619475591509
40
0.125539901664517
40
0.125539901664517
40
0.186980193980909
40
0.186980193980909
40
0.248262181512397
40
0.248262181512397
40
0.340547871918718
40
0.340547871918718
40
0.432709445704582
40
0.432709445704582
40
0.524833165866665
40
0.524833165866665
40
0.616962251766926
40
0.616962251766926
40
0.709145696793793
40
0.709145696793793
40
0.791292482820596
40
0.791292482820596
40
0.854807499469177
40
0.854807499469177
40
0.903519774516188
40
0.903519774516188
40
0.980968575571201
40
0.980968575571201
40
1
40
1
40
1
40
1
41
1
10
37.3130753286033
20
-2.90880571435798
30
0
41
1
10
37.3063067477352
20
-2.90399402381783
30
0
41
1
10
37.298614098798
20
-2.90060321600498
30
0
41
1
10
37.2785292463073
20
-2.89517888566402
30
0
41
1
10
37.2655022826543
20
-2.89466632175819
30
0
41
1
10
37.2422555438252
20
-2.8968745044827
30
0
41
1
10
37.2317907695463
20
-2.89901519295802
30
0
41
1
10
37.2111671966522
20
-2.90491988646349
30
0
41
1
10
37.2009406915697
20
-2.90870235753465
30
0
41
1
10
37.1757689698103
20
-2.91974533531476
30
0
41
1
10
37.1609316750212
20
-2.92784297768432
30
0
41
1
10
37.132230221075
20
-2.94613298198371
30
0
41
1
10
37.1182693263465
20
-2.95638956027395
30
0
41
1
10
37.0914681780766
20
-2.97859891733583
30
0
41
1
10
37.0785524874524
20
-2.99061521574916
30
0
41
1
10
37.0540692817809
20
-3.01606317419561
30
0
41
1
10
37.0424344575992
20
-3.02956429318854
30
0
41
1
10
37.0208426648146
20
-3.05776441502965
30
0
41
1
10
37.0108191273969
20
-3.07254756284698
30
0
41
1
10
36.9939485958047
20
-3.10145114748954
30
0
41
1
10
36.986820995162
20
-3.11555530673948
30
0
41
1
10
36.976315167182
20
-3.14112531253983
30
0
41
1
10
36.972426300901
20
-3.15253283054631
30
0
41
1
10
36.9673204283129
20
-3.17287210295405
30
0
41
1
10
36.9656812209252
20
-3.18181342264137
30
0
41
1
10
36.9635218757207
20
-3.20470968856941
30
0
41
1
10
36.9641792991814
20
-3.21901276247917
30
0
41
1
10
36.9690339342802
20
-3.23518917923801
30
0
41
1
10
36.9702118752894
20
-3.23835648389905
30
0
41
1
10
36.9716054198132
20
-3.24140262703293
30
0
0
SPLINE
5
D8
100
AcDbEntity
8
1
62
256
6
ByLayer
370
-1
48
1
60
0
100
AcDbSpline
70
4
71
3
72
22
73
18
40
0
40
0
40
0
40
0
40
0.0991354884056592
40
0.0991354884056592
40
0.206229847798169
40
0.206229847798169
40
0.36762763082922
40
0.36762763082922
40
0.507529288577045
40
0.507529288577045
40
0.647011593774835
40
0.647011593774835
40
0.786332448947774
40
0.786332448947774
40
0.892876682567382
40
0.892876682567382
40
1
40
1
40
1
40
1
41
1
10
35.6978633593555
20
-2.89949994910586
30
0
41
1
10
35.6911154956375
20
-2.90631109256222
30
0
41
1
10
35.6856625935251
20
-2.9148094015394
30
0
41
1
10
35.6779046383998
20
-2.93389968757859
30
0
41
1
10
35.6757093170419
20
-2.94485981860979
30
0
41
1
10
35.6738994616447
20
-2.9722985372922
30
0
41
1
10
35.6759794008339
20
-2.98927352127697
30
0
41
1
10
35.6831857970961
20
-3.01979019476067
30
0
41
1
10
35.6879417240014
20
-3.03375200968384
30
0
41
1
10
35.6992688072588
20
-3.06075209790672
30
0
41
1
10
35.7058763705587
20
-3.07387814394787
30
0
41
1
10
35.7204604704111
20
-3.09925076258276
30
0
41
1
10
35.7284649801562
20
-3.11154421378453
30
0
41
1
10
35.7435900903409
20
-3.13247177925217
30
0
41
1
10
35.7504903642075
20
-3.14130377370375
30
0
41
1
10
35.7649300792929
20
-3.15848489605
30
0
41
1
10
35.7724828748064
20
-3.16684301647126
30
0
41
1
10
35.7803181146086
20
-3.17491310734795
30
0
0
SPLINE
5
D9
100
AcDbEntity
8
1
62
256
6
ByLayer
370
-1
48
1
60
0
100
AcDbSpline
70
4
71
3
72
34
73
30
40
0
40
0
40
0
40
0
40
0.0489352209447952
40
0.0489352209447952
40
0.117200042217476
40
0.117200042217476
40
0.171506955646257
40
0.171506955646257
40
0.225668649239271
40
0.225668649239271
40
0.279765320459398
40
0.279765320459398
40
0.373225321592622
40
0.373225321592622
40
0.466583477789791
40
0.466583477789791
40
0.559915867375241
40
0.559915867375241
40
0.653268378335727
40
0.653268378335727
40
0.744703146931351
40
0.744703146931351
40
0.818565955739651
40
0.818565955739651
40
0.875584577609745
40
0.875584577609745
40
0.965112275153938
40
0.965112275153938
40
1
40
1
40
1
40
1
41
1
10
36.9761566271578
20
-1.63914696974277
30
0
41
1
10
36.9732173108894
20
-1.64608132743848
30
0
41
1
10
36.9685921829899
20
-1.65229525606725
30
0
41
1
10
36.9552320708634
20
-1.66479265660246
30
0
41
1
10
36.9454331134456
20
-1.67043026507642
30
0
41
1
10
36.9265011881537
20
-1.6781540593567
30
0
41
1
10
36.9174888839883
20
-1.68079176782408
30
0
41
1
10
36.8989252069513
20
-1.684806091394
30
0
41
1
10
36.8893140042574
20
-1.68619729582889
30
0
41
1
10
36.8697705366375
20
-1.68798710035045
30
0
41
1
10
36.8597986789862
20
-1.68838916662247
30
0
41
1
10
36.8323774745125
20
-1.68836082249226
30
0
41
1
10
36.8146344149047
20
-1.68712097744029
30
0
41
1
10
36.7791329097103
20
-1.6827007459768
30
0
41
1
10
36.7612551605227
20
-1.67950358225397
30
0
41
1
10
36.7258356527158
20
-1.67141680742517
30
0
41
1
10
36.708190569686
20
-1.66650313508859
30
0
41
1
10
36.6736141774025
20
-1.65509040910214
30
0
41
1
10
36.6565810836183
20
-1.6485585519566
30
0
41
1
10
36.6240420199681
20
-1.63405082659625
30
0
41
1
10
36.6084036620068
20
-1.62606303754851
30
0
41
1
10
36.5817470794958
20
-1.61010449077679
30
0
41
1
10
36.5703421621957
20
-1.60237989313097
30
0
41
1
10
36.5517177525004
20
-1.58757615945876
30
0
41
1
10
36.5440893740168
20
-1.58071176810762
30
0
41
1
10
36.5266708047129
20
-1.56212041062673
30
0
41
1
10
36.5177026104364
20
-1.54945075041147
30
0
41
1
10
36.5109856129726
20
-1.53074749853994
30
0
41
1
10
36.5097259932316
20
-1.52527208144406
30
0
41
1
10
36.5093241312446
20
-1.51980858371638
30
0
0
SPLINE
5
DA
100
AcDbEntity
8
SK1
62
256
6
ByLayer
370
-1
48
1
60
0
100
AcDbSpline
70
4
71
3
72
22
73
18
40
0
40
0
40
0
40
0
40
0.24999999999999
40
0.24999999999999
40
0.374999999999985
40
0.374999999999985
40
0.499999999999979
40
0.499999999999979
40
0.531249999999979
40
0.531249999999979
40
0.562499999999978
40
0.562499999999978
40
0.624999999999981
40
0.624999999999981
40
0.749999999999988
40
0.749999999999988
40
1
40
1
40
1
40
1
41
1
10
-30.05
20
0.204215349875994
30
0
41
1
10
-30.4584173658862
20
0.204215349875994
30
0
41
1
10
-30.866722104743
20
0.196763039806484
30
0
41
1
10
-31.4786574500246
20
0.167803329741019
30
0
41
1
10
-31.6823165528718
20
0.155331213204334
30
0
41
1
10
-32.0881416072523
20
0.117201738211236
30
0
41
1
10
-32.3215263011859
20
0.153024065835524
30
0
41
1
10
-32.526649850275
20
-0.0110937548661809
30
0
41
1
10
-32.4394611138425
20
-0.0476159018255089
30
0
41
1
10
-32.3387112251999
20
-0.0749532783005975
30
0
41
1
10
-32.287434648311
20
-0.0845555179087114
30
0
41
1
10
-32.1329017469475
20
-0.110191072964795
30
0
41
1
10
-32.0291364237657
20
-0.122128403615193
30
0
41
1
10
-31.7178483449737
20
-0.152930775098497
30
0
41
1
10
-31.5097013066027
20
-0.166021659542196
30
0
41
1
10
-30.8845245193119
20
-0.196489492264334
30
0
41
1
10
-30.4673002522226
20
-0.204215349875938
30
0
41
1
10
-30.05
20
-0.204215349875938
30
0
0
LINE
5
49
100
AcDbEntity
8
80
62
256
6
ByLayer
370
-1
48
1
60
0
100
AcDbLine
10
0
20
0
30
0
11
-10
21
0
31
0
39
0
210
0
220
0
230
1
0
LINE
5
4A
100
AcDbEntity
8
81
62
256
6
ByLayer
370
-1
48
1
60
0
100
AcDbLine
10
39.95
20
-5.9
30
0
11
49.95
21
-5.9
31
0
39
0
210
0
220
0
230
1
0
LINE
5
4B
100
AcDbEntity
8
SK4
62
256
6
ByLayer
370
-1
48
0.05
60
0
100
AcDbLine
10
-91.3
20
0
30
0
11
44.350032
21
0
31
0
39
0
210
0
220
0
230
1
0
LINE
5
4D
100
AcDbEntity
8
4
62
256
6
ByLayer
370
-1
48
0.05
60
0
100
AcDbLine
10
0
20
0
30
0
11
44.350032
21
0
31
0
39
0
210
0
220
0
230
1
0
LINE
5
4F
100
AcDbEntity
8
1
62
256
6
ByLayer
370
-1
48
1
60
0
100
AcDbLine
10
35.002084
20
-1.592903
30
0
11
34.959397
21
-1.682098
31
0
39
0
210
0
220
0
230
1
0
LINE
5
50
100
AcDbEntity
8
1
62
256
6
ByLayer
370
-1
48
1
60
0
100
AcDbLine
10
38.07137
20
-3.171434
30
0
11
38.114058
21
-3.082239
31
0
39
0
210
0
220
0
230
1
0
LINE
5
51
100
AcDbEntity
8
1
62
256
6
ByLayer
370
-1
48
1
60
0
100
AcDbLine
10
37.334608
20
-1.909142
30
0
11
37.281006
21
-2.021144
31
0
39
0
210
0
220
0
230
1
0
LINE
5
52
100
AcDbEntity
8
1
62
256
6
ByLayer
370
-1
48
1
60
0
100
AcDbLine
10
36.036013
20
-1.753643
30
0
11
36.087931
21
-1.64516
31
0
39
0
210
0
220
0
230
1
0
LINE
5
53
100
AcDbEntity
8
1
62
256
6
ByLayer
370
-1
48
1
60
0
100
AcDbLine
10
37.039969
20
-3.005411
30
0
11
36.988037
21
-3.113924
31
0
39
0
210
0
220
0
230
1
0
LINE
5
54
100
AcDbEntity
8
1
62
256
6
ByLayer
370
-1
48
1
60
0
100
AcDbLine
10
35.73972
20
-2.853368
30
0
11
35.793292
21
-2.74143
31
0
39
0
210
0
220
0
230
1
0
LINE
5
55
100
AcDbEntity
8
SK1
62
256
6
ByLayer
370
-1
48
1
60
0
100
AcDbLine
10
-85.8
20
-4.99375
30
0
11
0
21
-4.99375
31
0
39
0
210
0
220
0
230
1
0
LINE
5
57
100
AcDbEntity
8
SK1
62
256
6
ByLayer
370
-1
48
1
60
0
100
AcDbLine
10
0
20
4.99375
30
0
11
-85.8
21
4.99375
31
0
39
0
210
0
220
0
230
1
0
LINE
5
58
100
AcDbEntity
8
SK1
62
256
6
ByLayer
370
-1
48
1
60
0
100
AcDbLine
10
-85.8
20
4.99375
30
0
11
-86.3
21
4.49375
31
0
39
0
210
0
220
0
230
1
0
LINE
5
59
100
AcDbEntity
8
SK1
62
256
6
ByLayer
370
-1
48
1
60
0
100
AcDbLine
10
-86.3
20
-4.49375
30
0
11
-85.8
21
-4.99375
31
0
39
0
210
0
220
0
230
1
0
LINE
5
5A
100
AcDbEntity
8
1
62
256
6
ByLayer
370
-1
48
1
60
0
100
AcDbLine
10
0
20
-4.99375
30
0
11
29.340236
21
-4.99375
31
0
39
0
210
0
220
0
230
1
0
LINE
5
5B
100
AcDbEntity
8
1
62
256
6
ByLayer
370
-1
48
1
60
0
100
AcDbLine
10
30.670674
20
4.99375
30
0
11
0
21
4.99375
31
0
39
0
210
0
220
0
230
1
0
LINE
5
5C
100
AcDbEntity
8
1
62
256
6
ByLayer
370
-1
48
1
60
0
100
AcDbLine
10
30.745674
20
4.91875
30
0
11
30.670674
21
4.99375
31
0
39
0
210
0
220
0
230
1
0
LINE
5
5D
100
AcDbEntity
8
1
62
256
6
ByLayer
370
-1
48
1
60
0
100
AcDbLine
10
33.780185
20
5.059488
30
0
11
31.404844
21
4.91875
31
0
39
0
210
0
220
0
230
1
0
LINE
5
5E
100
AcDbEntity
8
1
62
256
6
ByLayer
370
-1
48
1
60
0
100
AcDbLine
10
31.404844
20
4.91875
30
0
11
30.745674
21
4.91875
31
0
39
0
210
0
220
0
230
1
0
LINE
5
5F
100
AcDbEntity
8
1
62
256
6
ByLayer
370
-1
48
1
60
0
100
AcDbLine
10
38.881313
20
0.488222
30
0
11
38.852221
21
0.820735
31
0
39
0
210
0
220
0
230
1
0
LINE
5
60
100
AcDbEntity
8
1
62
256
6
ByLayer
370
-1
48
1
60
0
100
AcDbLine
10
0
20
-4.99375
30
0
11
0
21
-0.204215
31
0
39
0
210
0
220
0
230
1
0
LINE
5
61
100
AcDbEntity
8
1
62
256
6
ByLayer
370
-1
48
1
60
0
100
AcDbLine
10
0
20
0.204215
30
0
11
0
21
4.99375
31
0
39
0
210
0
220
0
230
1
0
LINE
5
62
100
AcDbEntity
8
1
62
256
6
ByLayer
370
-1
48
1
60
0
100
AcDbLine
10
32.525598
20
0.275308
30
0
11
32.675826
21
0.589211
31
0
39
0
210
0
220
0
230
1
0
LINE
5
63
100
AcDbEntity
8
1
62
256
6
ByLayer
370
-1
48
1
60
0
100
AcDbLine
10
38.852221
20
0.820738
30
0
11
38.6593
21
3.025838
31
0
39
0
210
0
220
0
230
1
0
LINE
5
64
100
AcDbEntity
8
1
62
256
6
ByLayer
370
-1
48
1
60
0
100
AcDbLine
10
30.472525
20
-4.992215
30
0
11
30.670674
21
-4.992215
31
0
39
0
210
0
220
0
230
1
0
LINE
5
65
100
AcDbEntity
8
1
62
256
6
ByLayer
370
-1
48
1
60
0
100
AcDbLine
10
30.472525
20
-4.992215
30
0
11
33.144544
21
4.910248
31
0
39
0
210
0
220
0
230
1
0
LINE
5
66
100
AcDbEntity
8
1
62
256
6
ByLayer
370
-1
48
1
60
0
100
AcDbLine
10
26.408985
20
-0.204215
30
0
11
0
21
-0.204215
31
0
39
0
210
0
220
0
230
1
0
LINE
5
67
100
AcDbEntity
8
1
62
256
6
ByLayer
370
-1
48
1
60
0
100
AcDbLine
10
32.467058
20
-0.382273
30
0
11
32.617688
21
-0.067532
31
0
39
0
210
0
220
0
230
1
0
LINE
5
68
100
AcDbEntity
8
1
62
256
6
ByLayer
370
-1
48
1
60
0
100
AcDbLine
10
33.268671
20
-5.002498
30
0
11
32.937405
21
-1.398136
31
0
39
0
210
0
220
0
230
1
0
LINE
5
69
100
AcDbEntity
8
1
62
256
6
ByLayer
370
-1
48
1
60
0
100
AcDbLine
10
0
20
-0.204215
30
0
11
0
21
0.204215
31
0
39
0
210
0
220
0
230
1
0
LINE
5
6A
100
AcDbEntity
8
1
62
256
6
ByLayer
370
-1
48
1
60
0
100
AcDbLine
10
31.404844
20
4.91875
30
0
11
31.404844
21
4.745847
31
0
39
0
210
0
220
0
230
1
0
LINE
5
6B
100
AcDbEntity
8
1
62
256
6
ByLayer
370
-1
48
1
60
0
100
AcDbLine
10
0
20
0.204215
30
0
11
26.52606
21
0.204215
31
0
39
0
210
0
220
0
230
1
0
LINE
5
6C
100
AcDbEntity
8
1
62
256
6
ByLayer
370
-1
48
1
60
0
100
AcDbLine
10
34.01486
20
4.961674
30
0
11
38.6593
21
3.025838
31
0
39
0
210
0
220
0
230
1
0
LINE
5
6D
100
AcDbEntity
8
1
62
256
6
ByLayer
370
-1
48
1
60
0
100
AcDbLine
10
32.914403
20
-1.446198
30
0
11
33.243483
21
-5.026064
31
0
39
0
210
0
220
0
230
1
0
LINE
5
6E
100
AcDbEntity
8
1
62
256
6
ByLayer
370
-1
48
1
60
0
100
AcDbLine
10
30.745674
20
4.91875
30
0
11
30.745674
21
4.674463
31
0
39
0
210
0
220
0
230
1
0
LINE
5
6F
100
AcDbEntity
8
1
62
256
6
ByLayer
370
-1
48
1
60
0
100
AcDbLine
10
32.937405
20
-1.398136
30
0
11
32.914403
21
-1.446198
31
0
39
0
210
0
220
0
230
1
0
LINE
5
70
100
AcDbEntity
8
1
62
256
6
ByLayer
370
-1
48
1
60
0
100
AcDbLine
10
38.852221
20
0.820738
30
0
11
34.32145
21
1.215759
31
0
39
0
210
0
220
0
230
1
0
LINE
5
71
100
AcDbEntity
8
1
62
256
6
ByLayer
370
-1
48
1
60
0
100
AcDbLine
10
31.404844
20
-4.917408
30
0
11
30.745674
21
-4.917408
31
0
39
0
210
0
220
0
230
1
0
LINE
5
72
100
AcDbEntity
8
1
62
256
6
ByLayer
370
-1
48
1
60
0
100
AcDbLine
10
32.675826
20
0.589211
30
0
11
32.617688
21
-0.067532
31
0
39
0
210
0
220
0
230
1
0
LINE
5
73
100
AcDbEntity
8
1
62
256
6
ByLayer
370
-1
48
1
60
0
100
AcDbLine
10
30.670674
20
4.99375
30
0
11
30.670674
21
4.736725
31
0
39
0
210
0
220
0
230
1
0
LINE
5
74
100
AcDbEntity
8
1
62
256
6
ByLayer
370
-1
48
1
60
0
100
AcDbLine
10
32.467058
20
-0.382273
30
0
11
32.525598
21
0.275308
31
0
39
0
210
0
220
0
230
1
0
LINE
5
75
100
AcDbEntity
8
1
62
256
6
ByLayer
370
-1
48
1
60
0
100
AcDbLine
10
34.01486
20
4.961674
30
0
11
33.780185
21
5.059488
31
0
39
0
210
0
220
0
230
1
0
LINE
5
76
100
AcDbEntity
8
SK1
62
256
6
ByLayer
370
-1
48
1
60
0
100
AcDbLine
10
0
20
-0.204215
30
0
11
0
21
0.204215
31
0
39
0
210
0
220
0
230
1
0
LINE
5
77
100
AcDbEntity
8
SK1
62
256
6
ByLayer
370
-1
48
1
60
0
100
AcDbLine
10
-86.3
20
4.49375
30
0
11
-86.3
21
-4.49375
31
0
39
0
210
0
220
0
230
1
0
LINE
5
78
100
AcDbEntity
8
SK1
62
256
6
ByLayer
370
-1
48
1
60
0
100
AcDbLine
10
-85.8
20
4.99375
30
0
11
-85.8
21
-4.99375
31
0
39
0
210
0
220
0
230
1
0
LINE
5
79
100
AcDbEntity
8
1
62
256
6
ByLayer
370
-1
48
1
60
0
100
AcDbLine
10
39.1002
20
0.467497
30
0
11
33.489652
21
0.998695
31
0
39
0
210
0
220
0
230
1
0
LINE
5
7A
100
AcDbEntity
8
1
62
256
6
ByLayer
370
-1
48
1
60
0
100
AcDbLine
10
39.948508
20
-5.474843
30
0
11
39.460187
21
0.106693
31
0
39
0
210
0
220
0
230
1
0
LINE
5
7B
100
AcDbEntity
8
1
62
256
6
ByLayer
370
-1
48
1
60
0
100
AcDbLine
10
33.060246
20
0.575314
30
0
11
33.548567
21
-5.006222
31
0
39
0
210
0
220
0
230
1
0
LINE
5
7C
100
AcDbEntity
8
1
62
256
6
ByLayer
370
-1
48
1
60
0
100
AcDbLine
10
33.908553
20
-5.367026
30
0
11
39.519101
21
-5.898224
31
0
39
0
210
0
220
0
230
1
0
LINE
5
7D
100
AcDbEntity
8
1
62
256
6
ByLayer
370
-1
48
1
60
0
100
AcDbLine
10
37.368326
20
-2.79336
30
0
11
37.313075
21
-2.908806
31
0
39
0
210
0
220
0
230
1
0
LINE
5
7E
100
AcDbEntity
8
1
62
256
6
ByLayer
370
-1
48
1
60
0
100
AcDbLine
10
36.971549
20
-3.241249
30
0
11
36.971428
21
-3.241503
31
0
39
0
210
0
220
0
230
1
0
LINE
5
7F
100
AcDbEntity
8
1
62
256
6
ByLayer
370
-1
48
1
60
0
100
AcDbLine
10
36.098949
20
-3.118178
30
0
11
36.043798
21
-3.233416
31
0
39
0
210
0
220
0
230
1
0
LINE
5
80
100
AcDbEntity
8
1
62
256
6
ByLayer
370
-1
48
1
60
0
100
AcDbLine
10
35.634851
20
-2.318203
30
0
11
35.5796
21
-2.433649
31
0
39
0
210
0
220
0
230
1
0
LINE
5
81
100
AcDbEntity
8
1
62
256
6
ByLayer
370
-1
48
1
60
0
100
AcDbLine
10
36.563425
20
-3.246001
30
0
11
36.508275
21
-3.361239
31
0
39
0
210
0
220
0
230
1
0
LINE
5
82
100
AcDbEntity
8
1
62
256
6
ByLayer
370
-1
48
1
60
0
100
AcDbLine
10
36.101322
20
-1.524306
30
0
11
36.046171
21
-1.639544
31
0
39
0
210
0
220
0
230
1
0
LINE
5
83
100
AcDbEntity
8
1
62
256
6
ByLayer
370
-1
48
1
60
0
100
AcDbLine
10
36.56363
20
-3.246002
30
0
11
36.50848
21
-3.36124
31
0
39
0
210
0
220
0
230
1
0
LINE
5
84
100
AcDbEntity
8
1
62
256
6
ByLayer
370
-1
48
1
60
0
100
AcDbLine
10
37.346016
20
-1.909945
30
0
11
37.310196
21
-1.984792
31
0
39
0
210
0
220
0
230
1
0
LINE
5
85
100
AcDbEntity
8
1
62
256
6
ByLayer
370
-1
48
1
60
0
100
AcDbLine
10
36.10059
20
-3.119135
30
0
11
36.04544
21
-3.234373
31
0
39
0
210
0
220
0
230
1
0
LINE
5
86
100
AcDbEntity
8
SK1
62
256
6
ByLayer
370
-1
48
1
60
0
100
AcDbLine
10
-30.05
20
0.204215
30
0
11
0
21
0.204215
31
0
39
0
210
0
220
0
230
1
0
LINE
5
87
100
AcDbEntity
8
SK1
62
256
6
ByLayer
370
-1
48
1
60
0
100
AcDbLine
10
-30.05
20
0.204215
30
0
11
-30.05
21
-0.204215
31
0
39
0
210
0
220
0
230
1
0
LINE
5
88
100
AcDbEntity
8
SK1
62
256
6
ByLayer
370
-1
48
1
60
0
100
AcDbLine
10
0
20
-0.204215
30
0
11
-30.05
21
-0.204215
31
0
39
0
210
0
220
0
230
1
0
LINE
5
89
100
AcDbEntity
8
SK1
62
256
6
ByLayer
370
-1
48
1
60
0
100
AcDbLine
10
0
20
-4.99375
30
0
11
0
21
-0.204215
31
0
39
0
210
0
220
0
230
1
0
LINE
5
8A
100
AcDbEntity
8
SK1
62
256
6
ByLayer
370
-1
48
1
60
0
100
AcDbLine
10
0
20
0.204215
30
0
11
0
21
4.99375
31
0
39
0
210
0
220
0
230
1
0
LINE
5
8B
100
AcDbEntity
8
2
62
256
6
ByLayer
370
-1
48
1
60
1
100
AcDbLine
10
39.95
20
0
30
0
11
39.951
21
0.001
31
0
39
0
210
0
220
0
230
1
0
MTEXT
5
DB
100
AcDbEntity
8
SK6
62
256
6
ByLayer
370
-1
48
1
60
0
100
AcDbMText
10
-19.8
20
13.753671
30
0
210
0
220
0
230
1
1
\W00.752;\fsimplex.shx,bigfont.shx;A10K-SCLPL 06-R 
40
3.5
41
0
44
1.084337
50
0
71
7
72
5
7
DEFAULT
0
DIMENSION
5
10E
100
AcDbEntity
8
2
62
256
6
ByLayer
370
-3
48
1
60
0
100
AcDbDimension
2
DimnDraft3D1
10
52.2
20
0
30
0
11
52.2
21
-23.177368
31
0
70
32
71
5
72
1
41
1
210
0
220
0
230
1
3
Standard
100
AcDbAlignedDimension
13
41.95
23
-5.9
33
0
14
41.95
24
0
34
0
50
90
100
AcDbRotatedDimension
1001
ACAD
1000
DSTYLE
1002
{
1070
    74
1070
     0
1070
   279
1070
     0
1070
   172
1070
     1
1070
   173
1070
     1
1070
   340
1005
DC
1070
    77
1070
     1
1070
    73
1070
     0
1070
   171
1070
     4
1070
   274
1070
     4
1070
   177
1070
     2
1070
   176
1070
     2
1070
   178
1070
     7
1070
    78
1070
     8
1070
    41
1041
3.175
1070
   147
1041
2.25
1070
    42
1041
2.0
1070
    44
1041
2.0
1070
   140
1041
4.5
1070
   343
1005
10F
1070
   344
1005
10F
1002
}
0
DIMENSION
5
124
100
AcDbEntity
8
SK2
62
256
6
ByLayer
370
-3
48
1
60
0
100
AcDbDimension
2
DimnDraft3D2
10
-96.05
20
4.99375
30
0
11
-96.05
21
15.24875
31
0
70
32
71
5
72
1
41
1
210
0
220
0
230
1
3
Standard
100
AcDbAlignedDimension
13
-88.3
23
-4.99375
33
0
14
-88.3
24
4.99375
34
0
50
90
100
AcDbRotatedDimension
1001
ACAD
1000
DSTYLE
1002
{
1070
    74
1070
     0
1070
   279
1070
     0
1070
   172
1070
     1
1070
   173
1070
     1
1070
   340
1005
DC
1070
    77
1070
     1
1070
    73
1070
     0
1070
   171
1070
     4
1070
   274
1070
     4
1070
   177
1070
     2
1070
   176
1070
     2
1070
   178
1070
     7
1070
    78
1070
     8
1070
    41
1041
3.175
1070
   147
1041
2.25
1070
    42
1041
2.0
1070
    44
1041
2.0
1070
   140
1041
4.5
1070
   343
1005
10F
1070
   344
1005
10F
1002
}
0
DIMENSION
5
132
100
AcDbEntity
8
SK2
62
256
6
ByLayer
370
-3
48
1
60
0
100
AcDbDimension
2
DimnDraft3D3
10
39.95
20
-23.15
30
0
11
-29.427632
21
-23.15
31
0
70
32
71
5
72
1
41
1
210
0
220
0
230
1
3
Standard
100
AcDbAlignedDimension
13
-86.3
23
-6.99375
33
0
14
39.95
24
-7.9
34
0
50
0
100
AcDbRotatedDimension
1001
ACAD
1000
DSTYLE
1002
{
1070
   279
1070
     0
1070
   172
1070
     1
1070
   173
1070
     1
1070
   340
1005
DC
1070
    77
1070
     1
1070
    73
1070
     0
1070
   171
1070
     4
1070
   274
1070
     4
1070
   177
1070
     2
1070
   176
1070
     2
1070
   178
1070
     7
1070
    78
1070
     8
1070
    41
1041
3.175
1070
   147
1041
2.25
1070
    42
1041
2.0
1070
    44
1041
2.0
1070
   140
1041
4.5
1070
   343
1005
10F
1070
   344
1005
10F
1002
}
0
DIMENSION
5
140
100
AcDbEntity
8
2
62
256
6
ByLayer
370
-3
48
1
60
0
100
AcDbDimension
2
DimnDraft3D4
10
79.360224
20
0
30
0
11
61.879371
21
33.925375
31
0
70
34
71
5
72
1
41
1
210
0
220
0
230
1
3
Standard
100
AcDb2LineAngularDimension
13
39.252754
23
2.069558
33
0
14
35.954001
24
39.774475
34
0
15
41.95
25
0
35
0
16
68.096682
26
31.280028
36
0
40
0
0
ENDSEC
0
SECTION
2
OBJECTS
0
DICTIONARY
5
171
330
0
100
AcDbDictionary
280
0
281
1
3
ACAD_GROUP
350
172
3
ACAD_MLINESTYLE
350
173
0
DICTIONARY
5
172
330
0
100
AcDbDictionary
280
0
281
1
0
DICTIONARY
5
173
330
0
100
AcDbDictionary
280
0
281
1
3
Standard
350
18
0
MLINESTYLE
5
18
330
173
100
AcDbMlineStyle
2
Standard
70
0
3

62
256
51
90
52
90
71
2
49
-0.5
62
256
6
ByLayer
49
0.5
62
256
6
ByLayer
0
RASTERVARIABLES
5
15f
330

100
AcDbRasterVariables
90
0
70
1
71
1
72
1
0
ENDSEC
0
EOF
