0
SECTION
2
HEADER
9
$ACADVER
1
AC1015
9
$DWGCODEPAGE
3
ANSI_1252
9
$HANDSEED
5
1a9
9
$ANGBASE
50
0
9
$ANGDIR
70
0
9
$ATTMODE
70
1
9
$AUNITS
70
0
9
$AUPREC
70
0
9
$CECOLOR
62
256
9
$CELTSCALE
40
1
9
$CELTYPE
6
ByLayer
9
$CELWEIGHT
370
18
9
$CLAYER
8
0
9
$CMLJUST
70
0
9
$CMLSCALE
40
1
9
$CMLSTYLE
2
Standard
9
$DIMSTYLE
2
Standard
9
$TEXTSIZE
40
0.2
9
$TEXTSTYLE
7
Standard
9
$LUNITS
70
2
9
$LUPREC
70
4
9
$EXTNAMES
290
1
9
$INSUNITS
70
4
9
$LTSCALE
40
1
9
$LWDISPLAY
290
1
9
$PDMODE
70
0
9
$PDSIZE
40
0
9
$PLINEGEN
70
0
0
ENDSEC
0
SECTION
2
CLASSES
0
CLASS
1
RASTERVARIABLES
2
AcDbRasterVariables
3
ISM
90
0
280
0
281
0
0
ENDSEC
0
SECTION
2
TABLES
0
TABLE
2
VPORT
5
19f
100
AcDbSymbolTable
0
VPORT
5
1
100
AcDbSymbolTableRecord
100
AcDbViewportTableRecord
2
*Active
70
0
10
0
20
0
11
1
21
1
12
-1
22
1
13
0
23
0
14
0.5
24
0.5
15
10
25
10
16
0
26
0
36
1
17
0
27
0
37
0
0
ENDTAB
0
TABLE
2
LTYPE
5
1a0
100
AcDbSymbolTable
0
LTYPE
5
14
100
AcDbSymbolTableRecord
100
AcDbLinetypeTableRecord
70
0
2
ByBlock
3

72
65
73
0
40
0
0
LTYPE
5
15
100
AcDbSymbolTableRecord
100
AcDbLinetypeTableRecord
70
0
2
ByLayer
3

72
65
73
0
40
0
0
LTYPE
5
16
100
AcDbSymbolTableRecord
100
AcDbLinetypeTableRecord
70
0
2
CONTINUOUS
3
Solid line
72
65
73
0
40
0
0
LTYPE
5
6A
100
AcDbSymbolTableRecord
100
AcDbLinetypeTableRecord
70
0
2
CENTER
3
____ _ ____ _ ____ _ ____
72
65
73
4
40
47.5
49
22
74
0
49
-8.5
74
0
49
8.5
74
0
49
-8.5
74
0
0
LTYPE
5
6B
100
AcDbSymbolTableRecord
100
AcDbLinetypeTableRecord
70
0
2
DASHED
3
__ __ __ __ __ __ __ __ __
72
65
73
2
40
25.72
49
12.86
74
0
49
-12.86
74
0
0
ENDTAB
0
TABLE
2
LAYER
5
1a1
100
AcDbSymbolTable
0
LAYER
5
10
100
AcDbSymbolTableRecord
100
AcDbLayerTableRecord
2
0
70
0
62
7
6
CONTINUOUS
290
1
370
-3
390
0
0
LAYER
5
6D
100
AcDbSymbolTableRecord
100
AcDbLayerTableRecord
2
81
70
0
62
-3
6
CONTINUOUS
290
1
370
-3
390
0
0
LAYER
5
6F
100
AcDbSymbolTableRecord
100
AcDbLayerTableRecord
2
80
70
0
62
-6
6
CONTINUOUS
290
1
370
-3
390
0
0
LAYER
5
77
100
AcDbSymbolTableRecord
100
AcDbLayerTableRecord
2
4
70
0
62
-2
6
CENTER
290
1
370
-3
390
0
0
LAYER
5
7F
100
AcDbSymbolTableRecord
100
AcDbLayerTableRecord
2
1
70
0
62
4
6
CONTINUOUS
290
1
370
-3
390
0
0
LAYER
5
114
100
AcDbSymbolTableRecord
100
AcDbLayerTableRecord
2
2
70
0
62
7
6
CONTINUOUS
290
1
370
-3
390
0
0
LAYER
5
18a
100
AcDbSymbolTableRecord
100
AcDbLayerTableRecord
2
SK2
70
0
62
7
6
CONTINUOUS
290
1
370
-3
390
0
0
LAYER
5
18b
100
AcDbSymbolTableRecord
100
AcDbLayerTableRecord
2
SK3
70
0
62
1
6
DASHED
290
1
370
-3
390
0
0
LAYER
5
18c
100
AcDbSymbolTableRecord
100
AcDbLayerTableRecord
2
SK1
70
0
62
4
6
CONTINUOUS
290
1
370
-3
390
0
0
LAYER
5
18d
100
AcDbSymbolTableRecord
100
AcDbLayerTableRecord
2
SK4
70
0
62
2
6
CENTER
290
1
370
-3
390
0
0
LAYER
5
18e
100
AcDbSymbolTableRecord
100
AcDbLayerTableRecord
2
SK6
70
0
62
5
6
CONTINUOUS
290
1
370
-3
390
0
0
ENDTAB
0
TABLE
2
STYLE
5
1a2
100
AcDbSymbolTable
0
STYLE
5
11
100
AcDbSymbolTableRecord
100
AcDbTextStyleTableRecord
2
Standard
3
txt
70
0
71
0
40
0
41
1
42
0
50
0
0
STYLE
5
D2
100
AcDbSymbolTableRecord
100
AcDbTextStyleTableRecord
2
iso_b_vert
3
simplex.shx
70
0
71
0
40
0
41
1
42
0
50
0
0
STYLE
5
D3
100
AcDbSymbolTableRecord
100
AcDbTextStyleTableRecord
2
DWGDirectTextStyle
3
simplex
70
0
71
0
40
0
41
1
42
0
50
0
0
ENDTAB
0
TABLE
2
DIMSTYLE
5
1a3
100
AcDbSymbolTable
100
AcDbDimStyleTable
0
DIMSTYLE
105
27
100
AcDbSymbolTableRecord
100
AcDbDimStyleTableRecord
2
Standard
70
0
3
<>
41
0.18
42
0.0625
44
0.18
140
0.18
147
0.09
73
0
74
0
77
1
271
2
275
0
278
52
280
0
340
11
0
ENDTAB
0
TABLE
2
VIEW
5
1a4
100
AcDbSymbolTable
0
ENDTAB
0
TABLE
2
UCS
5
1a5
100
AcDbSymbolTable
0
ENDTAB
0
TABLE
2
APPID
5
1a6
100
AcDbSymbolTable
0
APPID
5
12
100
AcDbSymbolTableRecord
100
AcDbRegAppTableRecord
2
ACAD
70
0
0
ENDTAB
0
TABLE
2
BLOCK_RECORD
5
1a7
100
AcDbSymbolTable
0
BLOCK_RECORD
5
1F
100
AcDbSymbolTableRecord
100
AcDbBlockTableRecord
2
*Model_Space
340
0
70
0
0
BLOCK_RECORD
5
1B
100
AcDbSymbolTableRecord
100
AcDbBlockTableRecord
2
*Paper_Space
340
0
70
0
0
BLOCK_RECORD
5
23
100
AcDbSymbolTableRecord
100
AcDbBlockTableRecord
2
*Paper_Space0
340
0
70
0
0
BLOCK_RECORD
5
D7
100
AcDbSymbolTableRecord
100
AcDbBlockTableRecord
2
LABLE3D_1
340
0
70
0
0
BLOCK_RECORD
5
DD
100
AcDbSymbolTableRecord
100
AcDbBlockTableRecord
2
DimnDraft3D1
340
0
70
0
0
BLOCK_RECORD
5
E8
100
AcDbSymbolTableRecord
100
AcDbBlockTableRecord
2
DimnDraft3D2
340
0
70
0
0
BLOCK_RECORD
5
F3
100
AcDbSymbolTableRecord
100
AcDbBlockTableRecord
2
DimnDraft3D3
340
0
70
0
0
BLOCK_RECORD
5
FE
100
AcDbSymbolTableRecord
100
AcDbBlockTableRecord
2
DimnDraft3D4
340
0
70
0
0
BLOCK_RECORD
5
108
100
AcDbSymbolTableRecord
100
AcDbBlockTableRecord
2
DimnDraft3D5
340
0
70
0
0
BLOCK_RECORD
5
112
100
AcDbSymbolTableRecord
100
AcDbBlockTableRecord
2
DimnDraft3D6
340
0
70
0
0
BLOCK_RECORD
5
11D
100
AcDbSymbolTableRecord
100
AcDbBlockTableRecord
2
DimnDraft3D7
340
0
70
0
0
BLOCK_RECORD
5
127
100
AcDbSymbolTableRecord
100
AcDbBlockTableRecord
2
DimnDraft3D8
340
0
70
0
0
ENDTAB
0
ENDSEC
0
SECTION
2
BLOCKS
0
BLOCK
5
20
100
AcDbEntity
8
0
100
AcDbBlockBegin
2
*Model_Space
70
0
10
0
20
0
30
0
3
*Model_Space
0
ENDBLK
5
21
100
AcDbEntity
8
0
100
AcDbBlockEnd
0
BLOCK
5
1C
100
AcDbEntity
8
0
100
AcDbBlockBegin
2
*Paper_Space
70
0
10
0
20
0
30
0
3
*Paper_Space
0
ENDBLK
5
1D
100
AcDbEntity
8
0
100
AcDbBlockEnd
0
BLOCK
5
24
100
AcDbEntity
8
0
100
AcDbBlockBegin
2
*Paper_Space0
70
0
10
0
20
0
30
0
3
*Paper_Space0
0
ENDBLK
5
25
100
AcDbEntity
8
0
100
AcDbBlockEnd
0
BLOCK
5
DB
100
AcDbEntity
8
0
100
AcDbBlockBegin
2
LABLE3D_1
70
0
10
0
20
0
30
0
3
LABLE3D_1
0
MTEXT
5
D9
100
AcDbEntity
8
SK6
62
256
6
ByLayer
370
18
48
1
60
0
100
AcDbMText
10
-71.375
20
39.125
30
0
210
0
220
0
230
1
1
\W1.0000;
40
3.5
41
0
44
1.084337
50
0
71
7
72
5
7
iso_b_vert
0
ENDBLK
5
DC
100
AcDbEntity
8
0
100
AcDbBlockEnd
0
BLOCK
5
E5
100
AcDbEntity
8
0
100
AcDbBlockBegin
2
DimnDraft3D1
70
0
10
0
20
0
30
0
3
DimnDraft3D1
0
MTEXT
5
DE
100
AcDbEntity
8
SK2
62
256
6
ByLayer
370
18
48
1
60
0
100
AcDbMText
10
-106.6
20
0.461842
30
0
210
0
220
0
230
1
1
\W0.7150;63,5
40
4.5
41
0
44
1.084337
50
90
71
7
72
5
7
iso_b_vert
0
MTEXT
5
DF
100
AcDbEntity
8
SK2
62
256
6
ByLayer
370
18
48
1
60
0
100
AcDbMText
10
-106.6
20
-6.253002
30
0
210
0
220
0
230
1
1
%%c
40
4.5
41
0
44
1.084337
50
90
71
7
72
5
7
iso_b_vert
0
LINE
5
E0
100
AcDbEntity
8
SK2
62
256
6
ByLayer
370
13
48
1
60
0
100
AcDbLine
10
-1.5875
20
31.75
30
0
11
-106.35
21
31.75
31
0
39
0
210
0
220
0
230
1
0
LINE
5
E1
100
AcDbEntity
8
SK2
62
256
6
ByLayer
370
13
48
1
60
0
100
AcDbLine
10
-1.5875
20
-31.75
30
0
11
-106.35
21
-31.75
31
0
39
0
210
0
220
0
230
1
0
LINE
5
E2
100
AcDbEntity
8
SK2
62
256
6
ByLayer
370
13
48
1
60
0
100
AcDbLine
10
-104.35
20
31.75
30
0
11
-104.35
21
-31.75
31
0
39
0
210
0
220
0
230
1
0
SOLID
5
E3
100
AcDbEntity
8
SK2
62
256
6
ByLayer
370
13
48
1
60
0
100
AcDbTrace
10
-104.35
20
31.75
30
0
11
-103.352374
21
27.250004
31
0
12
-105.347626
22
27.249996
32
0
13
-104.35
23
31.75
33
0
39
0
210
0
220
0
230
1
0
SOLID
5
E4
100
AcDbEntity
8
SK2
62
256
6
ByLayer
370
13
48
1
60
0
100
AcDbTrace
10
-104.35
20
-31.75
30
0
11
-105.347626
21
-27.250004
31
0
12
-103.352374
22
-27.249996
32
0
13
-104.35
23
-31.75
33
0
39
0
210
0
220
0
230
1
0
ENDBLK
5
E6
100
AcDbEntity
8
0
100
AcDbBlockEnd
0
BLOCK
5
F0
100
AcDbEntity
8
0
100
AcDbBlockBegin
2
DimnDraft3D2
70
0
10
0
20
0
30
0
3
DimnDraft3D2
0
MTEXT
5
E9
100
AcDbEntity
8
SK2
62
256
6
ByLayer
370
18
48
1
60
0
100
AcDbMText
10
145
20
0.225
30
0
210
0
220
0
230
1
1
\W0.7383;25,4
40
4.5
41
0
44
1.084337
50
90
71
7
72
5
7
iso_b_vert
0
MTEXT
5
EA
100
AcDbEntity
8
SK2
62
256
6
ByLayer
370
18
48
1
60
0
100
AcDbMText
10
145
20
-6.489844
30
0
210
0
220
0
230
1
1
%%c
40
4.5
41
0
44
1.084337
50
90
71
7
72
5
7
iso_b_vert
0
LINE
5
EB
100
AcDbEntity
8
SK2
62
256
6
ByLayer
370
13
48
1
60
0
100
AcDbLine
10
96.5875
20
12.7
30
0
11
149.25
21
12.7
31
0
39
0
210
0
220
0
230
1
0
LINE
5
EC
100
AcDbEntity
8
SK2
62
256
6
ByLayer
370
13
48
1
60
0
100
AcDbLine
10
96.5875
20
-12.7
30
0
11
149.25
21
-12.7
31
0
39
0
210
0
220
0
230
1
0
LINE
5
ED
100
AcDbEntity
8
SK2
62
256
6
ByLayer
370
13
48
1
60
0
100
AcDbLine
10
147.25
20
23.95
30
0
11
147.25
21
-23.95
31
0
39
0
210
0
220
0
230
1
0
SOLID
5
EE
100
AcDbEntity
8
SK2
62
256
6
ByLayer
370
13
48
1
60
0
100
AcDbTrace
10
147.25
20
12.7
30
0
11
146.252374
21
17.199996
31
0
12
148.247626
22
17.200004
32
0
13
147.25
23
12.7
33
0
39
0
210
0
220
0
230
1
0
SOLID
5
EF
100
AcDbEntity
8
SK2
62
256
6
ByLayer
370
13
48
1
60
0
100
AcDbTrace
10
147.25
20
-12.7
30
0
11
148.247626
21
-17.199996
31
0
12
146.252374
22
-17.200004
32
0
13
147.25
23
-12.7
33
0
39
0
210
0
220
0
230
1
0
ENDBLK
5
F1
100
AcDbEntity
8
0
100
AcDbBlockEnd
0
BLOCK
5
FB
100
AcDbEntity
8
0
100
AcDbBlockBegin
2
DimnDraft3D3
70
0
10
0
20
0
30
0
3
DimnDraft3D3
0
MTEXT
5
F4
100
AcDbEntity
8
SK2
62
256
6
ByLayer
370
18
48
1
60
0
100
AcDbMText
10
167.25
20
3.686842
30
0
210
0
220
0
230
1
1
\W0.6740;50
40
4.5
41
0
44
1.084337
50
90
71
7
72
5
7
iso_b_vert
0
MTEXT
5
F5
100
AcDbEntity
8
SK2
62
256
6
ByLayer
370
18
48
1
60
0
100
AcDbMText
10
167
20
-5.285814
30
0
210
0
220
0
230
1
1
%%c
40
3.5
41
0
44
1.084337
50
90
71
7
72
5
7
iso_b_vert
0
LINE
5
F6
100
AcDbEntity
8
SK2
62
256
6
ByLayer
370
13
48
1
60
0
100
AcDbLine
10
96.5875
20
-25
30
0
11
171.25
21
-25
31
0
39
0
210
0
220
0
230
1
0
LINE
5
F7
100
AcDbEntity
8
SK2
62
256
6
ByLayer
370
13
48
1
60
0
100
AcDbLine
10
96.5875
20
25
30
0
11
171.25
21
25
31
0
39
0
210
0
220
0
230
1
0
LINE
5
F8
100
AcDbEntity
8
SK2
62
256
6
ByLayer
370
13
48
1
60
0
100
AcDbLine
10
169.25
20
-25
30
0
11
169.25
21
25
31
0
39
0
210
0
220
0
230
1
0
SOLID
5
F9
100
AcDbEntity
8
SK2
62
256
6
ByLayer
370
13
48
1
60
0
100
AcDbTrace
10
169.25
20
-25
30
0
11
168.252374
21
-20.500004
31
0
12
170.247626
22
-20.499996
32
0
13
169.25
23
-25
33
0
39
0
210
0
220
0
230
1
0
SOLID
5
FA
100
AcDbEntity
8
SK2
62
256
6
ByLayer
370
13
48
1
60
0
100
AcDbTrace
10
169.25
20
25
30
0
11
170.247626
21
20.500004
31
0
12
168.252374
22
20.499996
32
0
13
169.25
23
25
33
0
39
0
210
0
220
0
230
1
0
ENDBLK
5
FC
100
AcDbEntity
8
0
100
AcDbBlockEnd
0
BLOCK
5
105
100
AcDbEntity
8
0
100
AcDbBlockBegin
2
DimnDraft3D4
70
0
10
0
20
0
30
0
3
DimnDraft3D4
0
MTEXT
5
FF
100
AcDbEntity
8
SK2
62
256
6
ByLayer
370
18
48
1
60
0
100
AcDbMText
10
46.498684
20
-48.175708
30
0
210
0
220
0
230
1
1
\W0.7346;min 47-max 57
40
4.5
41
0
44
1.084337
50
0
71
7
72
5
7
iso_b_vert
0
LINE
5
100
100
AcDbEntity
8
SK2
62
256
6
ByLayer
370
13
48
1
60
0
100
AcDbLine
10
38
20
-14.2875
30
0
11
38
21
-51.300708
31
0
39
0
210
0
220
0
230
1
0
LINE
5
101
100
AcDbEntity
8
SK2
62
256
6
ByLayer
370
13
48
1
60
0
100
AcDbLine
10
95
20
-14.2875
30
0
11
95
21
-51.300708
31
0
39
0
210
0
220
0
230
1
0
LINE
5
102
100
AcDbEntity
8
SK2
62
256
6
ByLayer
370
13
48
1
60
0
100
AcDbLine
10
38
20
-49.300708
30
0
11
95
21
-49.300708
31
0
39
0
210
0
220
0
230
1
0
SOLID
5
103
100
AcDbEntity
8
SK2
62
256
6
ByLayer
370
13
48
1
60
0
100
AcDbTrace
10
38
20
-49.300708
30
0
11
42.499996
21
-48.303082
31
0
12
42.500004
22
-50.298334
32
0
13
38
23
-49.300708
33
0
39
0
210
0
220
0
230
1
0
SOLID
5
104
100
AcDbEntity
8
SK2
62
256
6
ByLayer
370
13
48
1
60
0
100
AcDbTrace
10
95
20
-49.300708
30
0
11
90.500004
21
-50.298334
31
0
12
90.499996
22
-48.303082
32
0
13
95
23
-49.300708
33
0
39
0
210
0
220
0
230
1
0
ENDBLK
5
106
100
AcDbEntity
8
0
100
AcDbBlockEnd
0
BLOCK
5
10F
100
AcDbEntity
8
0
100
AcDbBlockBegin
2
DimnDraft3D5
70
0
10
0
20
0
30
0
3
DimnDraft3D5
0
MTEXT
5
109
100
AcDbEntity
8
SK2
62
256
6
ByLayer
370
18
48
1
60
0
100
AcDbMText
10
85.074342
20
-38.175708
30
0
210
0
220
0
230
1
1
\W0.6463;12,9
40
4.5
41
0
44
1.084337
50
0
71
7
72
5
7
iso_b_vert
0
LINE
5
10A
100
AcDbEntity
8
SK2
62
256
6
ByLayer
370
13
48
1
60
0
100
AcDbLine
10
82.1
20
-26.5875
30
0
11
82.1
21
-41.300708
31
0
39
0
210
0
220
0
230
1
0
LINE
5
10B
100
AcDbEntity
8
SK2
62
256
6
ByLayer
370
13
48
1
60
0
100
AcDbLine
10
95
20
-26.5875
30
0
11
95
21
-41.300708
31
0
39
0
210
0
220
0
230
1
0
LINE
5
10C
100
AcDbEntity
8
SK2
62
256
6
ByLayer
370
13
48
1
60
0
100
AcDbLine
10
70.85
20
-39.300708
30
0
11
106.25
21
-39.300708
31
0
39
0
210
0
220
0
230
1
0
SOLID
5
10D
100
AcDbEntity
8
SK2
62
256
6
ByLayer
370
13
48
1
60
0
100
AcDbTrace
10
82.1
20
-39.300708
30
0
11
77.600004
21
-40.298334
31
0
12
77.599996
22
-38.303082
32
0
13
82.1
23
-39.300708
33
0
39
0
210
0
220
0
230
1
0
SOLID
5
10E
100
AcDbEntity
8
SK2
62
256
6
ByLayer
370
13
48
1
60
0
100
AcDbTrace
10
95
20
-39.300708
30
0
11
99.499996
21
-38.303082
31
0
12
99.500004
22
-40.298334
32
0
13
95
23
-39.300708
33
0
39
0
210
0
220
0
230
1
0
ENDBLK
5
110
100
AcDbEntity
8
0
100
AcDbBlockEnd
0
BLOCK
5
11A
100
AcDbEntity
8
0
100
AcDbBlockBegin
2
DimnDraft3D6
70
0
10
0
20
0
30
0
3
DimnDraft3D6
0
MTEXT
5
113
100
AcDbEntity
8
2
62
256
6
ByLayer
370
18
48
1
60
0
100
AcDbMText
10
45.936842
20
70.925708
30
0
210
0
220
0
230
1
1
\W0.6740;95
40
4.5
41
0
44
1.084337
50
0
71
7
72
5
7
iso_b_vert
0
LINE
5
115
100
AcDbEntity
8
2
62
256
6
ByLayer
370
13
48
1
60
0
100
AcDbLine
10
0
20
33.3375
30
0
11
0
21
71.800708
31
0
39
0
210
0
220
0
230
1
0
LINE
5
116
100
AcDbEntity
8
2
62
256
6
ByLayer
370
13
48
1
60
0
100
AcDbLine
10
95
20
26.5875
30
0
11
95
21
71.800708
31
0
39
0
210
0
220
0
230
1
0
LINE
5
117
100
AcDbEntity
8
2
62
256
6
ByLayer
370
13
48
1
60
0
100
AcDbLine
10
0
20
69.800708
30
0
11
95
21
69.800708
31
0
39
0
210
0
220
0
230
1
0
SOLID
5
118
100
AcDbEntity
8
2
62
256
6
ByLayer
370
13
48
1
60
0
100
AcDbTrace
10
0
20
69.800708
30
0
11
4.499996
21
70.798334
31
0
12
4.500004
22
68.803082
32
0
13
0
23
69.800708
33
0
39
0
210
0
220
0
230
1
0
SOLID
5
119
100
AcDbEntity
8
2
62
256
6
ByLayer
370
13
48
1
60
0
100
AcDbTrace
10
95
20
69.800708
30
0
11
90.500004
21
68.803082
31
0
12
90.499996
22
70.798334
32
0
13
95
23
69.800708
33
0
39
0
210
0
220
0
230
1
0
ENDBLK
5
11B
100
AcDbEntity
8
0
100
AcDbBlockEnd
0
BLOCK
5
124
100
AcDbEntity
8
0
100
AcDbBlockBegin
2
DimnDraft3D7
70
0
10
0
20
0
30
0
3
DimnDraft3D7
0
MTEXT
5
11E
100
AcDbEntity
8
SK2
62
256
6
ByLayer
370
18
48
1
60
0
100
AcDbMText
10
-38.163158
20
70.925708
30
0
210
0
220
0
230
1
1
\W0.7150;68,2
40
4.5
41
0
44
1.084337
50
0
71
7
72
5
7
iso_b_vert
0
LINE
5
11F
100
AcDbEntity
8
SK2
62
256
6
ByLayer
370
13
48
1
60
0
100
AcDbLine
10
0
20
23.8125
30
0
11
0
21
71.800708
31
0
39
0
210
0
220
0
230
1
0
LINE
5
120
100
AcDbEntity
8
SK2
62
256
6
ByLayer
370
13
48
1
60
0
100
AcDbLine
10
-68.25
20
13.7875
30
0
11
-68.25
21
71.800708
31
0
39
0
210
0
220
0
230
1
0
LINE
5
121
100
AcDbEntity
8
SK2
62
256
6
ByLayer
370
13
48
1
60
0
100
AcDbLine
10
0
20
69.800708
30
0
11
-68.25
21
69.800708
31
0
39
0
210
0
220
0
230
1
0
SOLID
5
122
100
AcDbEntity
8
SK2
62
256
6
ByLayer
370
13
48
1
60
0
100
AcDbTrace
10
0
20
69.800708
30
0
11
-4.499996
21
68.803082
31
0
12
-4.500004
22
70.798334
32
0
13
0
23
69.800708
33
0
39
0
210
0
220
0
230
1
0
SOLID
5
123
100
AcDbEntity
8
SK2
62
256
6
ByLayer
370
13
48
1
60
0
100
AcDbTrace
10
-68.25
20
69.800708
30
0
11
-63.750004
21
70.798334
31
0
12
-63.749996
22
68.803082
32
0
13
-68.25
23
69.800708
33
0
39
0
210
0
220
0
230
1
0
ENDBLK
5
125
100
AcDbEntity
8
0
100
AcDbBlockEnd
0
BLOCK
5
12E
100
AcDbEntity
8
0
100
AcDbBlockBegin
2
DimnDraft3D8
70
0
10
0
20
0
30
0
3
DimnDraft3D8
0
MTEXT
5
128
100
AcDbEntity
8
SK2
62
256
6
ByLayer
370
18
48
1
60
0
100
AcDbMText
10
4.367763
20
50.925708
30
0
210
0
220
0
230
1
1
\W0.6713;19,05
40
4.5
41
0
44
1.084337
50
0
71
7
72
5
7
iso_b_vert
0
LINE
5
129
100
AcDbEntity
8
SK2
62
256
6
ByLayer
370
13
48
1
60
0
100
AcDbLine
10
0
20
23.8125
30
0
11
0
21
51.800708
31
0
39
0
210
0
220
0
230
1
0
LINE
5
12A
100
AcDbEntity
8
SK2
62
256
6
ByLayer
370
13
48
1
60
0
100
AcDbLine
10
19.05
20
33.3375
30
0
11
19.05
21
51.800708
31
0
39
0
210
0
220
0
230
1
0
LINE
5
12B
100
AcDbEntity
8
SK2
62
256
6
ByLayer
370
13
48
1
60
0
100
AcDbLine
10
-11.25
20
49.800708
30
0
11
30.3
21
49.800708
31
0
39
0
210
0
220
0
230
1
0
SOLID
5
12C
100
AcDbEntity
8
SK2
62
256
6
ByLayer
370
13
48
1
60
0
100
AcDbTrace
10
0
20
49.800708
30
0
11
-4.499996
21
48.803082
31
0
12
-4.500004
22
50.798334
32
0
13
0
23
49.800708
33
0
39
0
210
0
220
0
230
1
0
SOLID
5
12D
100
AcDbEntity
8
SK2
62
256
6
ByLayer
370
13
48
1
60
0
100
AcDbTrace
10
19.05
20
49.800708
30
0
11
23.549996
21
50.798334
31
0
12
23.550004
22
48.803082
32
0
13
19.05
23
49.800708
33
0
39
0
210
0
220
0
230
1
0
ENDBLK
5
12F
100
AcDbEntity
8
0
100
AcDbBlockEnd
0
ENDSEC
0
SECTION
2
ENTITIES
0
ARC
5
B8
100
AcDbEntity
8
SK1
62
256
6
ByLayer
370
18
48
1
60
0
100
AcDbCircle
39
0
10
-67.25
20
11.406204
30
0
40
1
210
0
220
0
230
1
100
AcDbArc
50
98.297917
51
180
0
ARC
5
B9
100
AcDbEntity
8
SK1
62
256
6
ByLayer
370
18
48
1
60
0
100
AcDbCircle
39
0
10
-67.25
20
-11.406204
30
0
40
1
210
0
220
0
230
1
100
AcDbArc
50
180
51
261.702083
0
ARC
5
BA
100
AcDbEntity
8
1
62
256
6
ByLayer
370
18
48
1
60
0
100
AcDbCircle
39
0
10
-2.83
20
22.6
30
0
40
0.6
210
0
220
0
230
-1
100
AcDbArc
50
234.31361
51
270
0
ARC
5
BB
100
AcDbEntity
8
1
62
256
6
ByLayer
370
18
48
1
60
0
100
AcDbCircle
39
0
10
80.174219
20
-5
30
0
40
20
210
0
220
0
230
1
100
AcDbArc
50
270
51
281
0
ARC
5
BC
100
AcDbEntity
8
1
62
256
6
ByLayer
370
18
48
1
60
0
100
AcDbCircle
39
0
10
80.174219
20
5
30
0
40
20
210
0
220
0
230
1
100
AcDbArc
50
79
51
90
0
ARC
5
BD
100
AcDbEntity
8
1
62
256
6
ByLayer
370
18
48
1
60
0
100
AcDbCircle
39
0
10
93.8
20
-21.50329
30
0
40
1.20000000000002
210
0
220
0
230
1
100
AcDbArc
50
281
51
0
0
ARC
5
BE
100
AcDbEntity
8
1
62
256
6
ByLayer
370
18
48
1
60
0
100
AcDbCircle
39
0
10
93.8
20
21.50329
30
0
40
1.20000000000002
210
0
220
0
230
1
100
AcDbArc
50
0
51
79
0
ARC
5
BF
100
AcDbEntity
8
1
62
256
6
ByLayer
370
18
48
1
60
0
100
AcDbCircle
39
0
10
-2.83
20
-22.6
30
0
40
0.6
210
0
220
0
230
-1
100
AcDbArc
50
90
51
125.68639
0
POINT
5
6C
100
AcDbEntity
8
81
62
256
6
ByLayer
370
18
48
1
60
0
100
AcDbPoint
10
95
20
0
30
0
39
0
210
0
220
0
230
1
50
360
0
POINT
5
6E
100
AcDbEntity
8
80
62
256
6
ByLayer
370
18
48
1
60
0
100
AcDbPoint
10
0
20
0
30
0
39
0
210
0
220
0
230
1
50
360
0
POINT
5
70
100
AcDbEntity
8
SK2
62
256
6
ByLayer
370
18
48
1
60
1
100
AcDbPoint
10
0
20
31.75
30
0
39
0
210
0
220
0
230
1
50
360
0
POINT
5
72
100
AcDbEntity
8
SK2
62
256
6
ByLayer
370
18
48
1
60
1
100
AcDbPoint
10
0
20
-31.75
30
0
39
0
210
0
220
0
230
1
50
360
0
SPLINE
5
C0
100
AcDbEntity
8
1
62
256
6
ByLayer
370
18
48
1
60
0
100
AcDbSpline
70
4
71
3
72
8
73
4
40
0
40
0
40
0
40
0
40
1
40
1
40
1
40
1
41
1
10
3.97999999999999
20
-30.7007080537241
30
0
41
1
10
3.87998285050537
20
-30.5972725078436
30
0
41
1
10
3.77998267855068
20
-30.4938205426472
30
0
41
1
10
3.68000000000001
20
-30.3903516761488
30
0
0
SPLINE
5
C1
100
AcDbEntity
8
1
62
256
6
ByLayer
370
18
48
1
60
0
100
AcDbSpline
70
4
71
3
72
8
73
4
40
0
40
0
40
0
40
0
40
1
40
1
40
1
40
1
41
1
10
3.18000000000001
20
29.7326163497261
30
0
41
1
10
3.34581589349383
20
29.9531549471736
30
0
41
1
10
3.51249248176791
20
30.1723849714829
30
0
41
1
10
3.68000000000001
20
30.3903516761488
30
0
0
SPLINE
5
C2
100
AcDbEntity
8
1
62
256
6
ByLayer
370
18
48
1
60
0
100
AcDbSpline
70
4
71
3
72
8
73
4
40
0
40
0
40
0
40
0
40
1
40
1
40
1
40
1
41
1
10
14.6276101447486
20
-30.7007080537241
30
0
41
1
10
14.0920371762088
20
-29.7413634999837
30
0
41
1
10
13.5576921238336
20
-28.7813228916956
30
0
41
1
10
13.025
20
-27.8204082180394
30
0
0
SPLINE
5
C3
100
AcDbEntity
8
1
62
256
6
ByLayer
370
18
48
1
60
0
100
AcDbSpline
70
2053
71
3
72
88
73
84
40
0
40
0
40
0
40
0
40
0.0312500000000003
40
0.0312500000000003
40
0.0468750000000008
40
0.0468750000000008
40
0.0625000000000012
40
0.0625000000000012
40
0.0937500000000021
40
0.0937500000000021
40
0.125000000000003
40
0.125000000000003
40
0.156250000000004
40
0.156250000000004
40
0.171875000000004
40
0.171875000000004
40
0.187500000000004
40
0.203125000000005
40
0.203125000000005
40
0.218750000000005
40
0.218750000000005
40
0.250000000000005
40
0.250000000000005
40
0.281250000000004
40
0.281250000000004
40
0.312500000000004
40
0.312500000000004
40
0.328125000000004
40
0.328125000000004
40
0.343750000000003
40
0.343750000000003
40
0.375000000000003
40
0.375000000000003
40
0.406250000000003
40
0.406250000000003
40
0.421875000000002
40
0.421875000000002
40
0.437500000000002
40
0.437500000000002
40
0.468750000000003
40
0.468750000000003
40
0.500000000000003
40
0.500000000000003
40
0.531250000000003
40
0.531250000000003
40
0.546875000000004
40
0.546875000000004
40
0.562500000000004
40
0.578125000000004
40
0.578125000000004
40
0.593750000000004
40
0.593750000000004
40
0.625000000000005
40
0.625000000000005
40
0.656250000000005
40
0.656250000000005
40
0.687500000000005
40
0.687500000000005
40
0.703125000000005
40
0.703125000000005
40
0.718750000000005
40
0.718750000000005
40
0.750000000000004
40
0.750000000000004
40
0.781250000000003
40
0.781250000000003
40
0.796875000000003
40
0.796875000000003
40
0.812500000000003
40
0.812500000000003
40
0.843750000000002
40
0.843750000000002
40
0.875000000000002
40
0.875000000000002
40
0.906250000000001
40
0.906250000000001
40
0.921875000000001
40
0.921875000000001
40
0.937500000000001
40
0.937500000000001
40
0.968750000000001
40
0.968750000000001
40
1
40
1
40
1
40
1
41
1
10
11.1
20
21.5795652433444
30
0
41
1
10
11.2156436486558
20
21.5795652433444
30
0
41
1
10
11.3293491684152
20
21.5868170590465
30
0
41
1
10
11.4971204471595
20
21.6080769409865
30
0
41
1
10
11.5525762600459
20
21.6169059082093
30
0
41
1
10
11.6625309730753
20
21.6381077735026
30
0
41
1
10
11.7171731768741
20
21.6505390038365
30
0
41
1
10
11.8761093787396
20
21.6923484754088
30
0
41
1
10
11.97661348946
20
21.726379141412
30
0
41
1
10
12.1668218068396
20
21.8063712726592
30
0
41
1
10
12.2568581688324
20
21.8527403384244
30
0
41
1
10
12.4182488104059
20
21.9533977821635
30
0
41
1
10
12.4906794030909
20
22.0080433217925
30
0
41
1
10
12.5866287489616
20
22.0964034577556
30
0
41
1
10
12.6164109734125
20
22.126908792825
30
0
41
1
10
12.6703947985747
20
22.1886885795405
30
0
41
1
10
12.7191699331361
20
22.2515629399922
30
0
41
1
10
12.757680702436
20
22.3165321272154
30
0
41
1
10
12.7909867711997
20
22.3825375769727
30
0
41
1
10
12.8050924206389
20
22.4162408367256
30
0
41
1
10
12.8388150707851
20
22.5175012015333
30
0
41
1
10
12.8499384411518
20
22.584819925282
30
0
41
1
10
12.8500610541426
20
22.7190269264019
30
0
41
1
10
12.8386987382712
20
22.7866045734285
30
0
41
1
10
12.7940503878632
20
22.9163265559718
30
0
41
1
10
12.7610148646662
20
22.9788323379338
30
0
41
1
10
12.6952997643071
20
23.0691771718086
30
0
41
1
10
12.6705207501631
20
23.0988720827226
30
0
41
1
10
12.616353191525
20
23.1560347838285
30
0
41
1
10
12.5869537734544
20
23.1835703074111
30
0
41
1
10
12.491972067968
20
23.2631690437911
30
0
41
1
10
12.4196729410456
20
23.3122515212619
30
0
41
1
10
12.2563942186081
20
23.4024706100828
30
0
41
1
10
12.1679154246028
20
23.4422064917303
30
0
41
1
10
12.0258150931233
20
23.4940922983075
30
0
41
1
10
11.9768475525364
20
23.5101050423248
30
0
41
1
10
11.8756396767081
20
23.539546925452
30
0
41
1
10
11.8231847705582
20
23.5530089111821
30
0
41
1
10
11.6641754818039
20
23.5886714025434
30
0
41
1
10
11.5550944836564
20
23.6065099532329
30
0
41
1
10
11.3308454465806
20
23.6306269731958
30
0
41
1
10
11.2148456871712
20
23.6367915428572
30
0
41
1
10
10.9864107402863
20
23.6368355887493
30
0
41
1
10
10.8728759625123
20
23.6309146886554
30
0
41
1
10
10.7036195935303
20
23.6128784324323
30
0
41
1
10
10.6473587764642
20
23.60530281832
30
0
41
1
10
10.5376759137094
20
23.5873788940386
30
0
41
1
10
10.4301881243445
20
23.5666256544108
30
0
41
1
10
10.3270174509547
20
23.5402537416182
30
0
41
1
10
10.2260313272703
20
23.5110051471206
30
0
41
1
10
10.1763923604878
20
23.4948531005811
30
0
41
1
10
10.0326799146982
20
23.4425119786442
30
0
41
1
10
9.94451170368413
20
23.4028362492557
30
0
41
1
10
9.78301181199086
20
23.3138669281823
30
0
41
1
10
9.70906245171395
20
23.2639453573725
30
0
41
1
10
9.58182043110088
20
23.1574913704939
30
0
41
1
10
9.52799826501786
20
23.1008829135836
30
0
41
1
10
9.46202639082031
20
23.010664820852
30
0
41
1
10
9.44242936935885
20
22.9795210756726
30
0
41
1
10
9.40896754611504
20
22.9164597421791
30
0
41
1
10
9.39505259730259
20
22.8845348361559
30
0
41
1
10
9.36154716013959
20
22.7875772310636
30
0
41
1
10
9.35011585310747
20
22.7213695894678
30
0
41
1
10
9.34988588204354
20
22.5856305093101
30
0
41
1
10
9.36115329663039
20
22.5179850356123
30
0
41
1
10
9.39434993921694
20
22.4177258412713
30
0
41
1
10
9.40815142999986
20
22.3844625195832
30
0
41
1
10
9.44133648832707
20
22.3182745041978
30
0
41
1
10
9.46084042104002
20
22.2852063107232
30
0
41
1
10
9.52664377086188
20
22.1885807636702
30
0
41
1
10
9.58033058680081
20
22.1270421561201
30
0
41
1
10
9.70707017077629
20
22.0099097698556
30
0
41
1
10
9.78090112724371
20
21.9539967895102
30
0
41
1
10
9.94226026036759
20
21.8532220647926
30
0
41
1
10
10.0302621631543
20
21.807748888307
30
0
41
1
10
10.1734711795072
20
21.7472983865186
30
0
41
1
10
10.2231919707327
20
21.7284406014201
30
0
41
1
10
10.3242386380117
20
21.6942115377635
30
0
41
1
10
10.3758211630752
20
21.678721775716
30
0
41
1
10
10.5336933176592
20
21.6370913882903
30
0
41
1
10
10.6435537973904
20
21.6156850781908
30
0
41
1
10
10.8699414894856
20
21.5868181625507
30
0
41
1
10
10.9843563513442
20
21.5795652433444
30
0
41
1
10
11.1
20
21.5795652433444
30
0
0
SPLINE
5
C4
100
AcDbEntity
8
1
62
256
6
ByLayer
370
18
48
1
60
0
100
AcDbSpline
70
2053
71
3
72
88
73
84
40
0
40
0
40
0
40
0
40
0.0312499999999987
40
0.0312499999999987
40
0.0468749999999981
40
0.0468749999999981
40
0.0624999999999974
40
0.0624999999999974
40
0.0937499999999958
40
0.0937499999999958
40
0.124999999999994
40
0.124999999999994
40
0.156249999999993
40
0.156249999999993
40
0.171874999999992
40
0.171874999999992
40
0.187499999999992
40
0.203124999999991
40
0.203124999999991
40
0.218749999999991
40
0.218749999999991
40
0.24999999999999
40
0.24999999999999
40
0.28124999999999
40
0.28124999999999
40
0.312499999999989
40
0.312499999999989
40
0.328124999999989
40
0.328124999999989
40
0.343749999999989
40
0.343749999999989
40
0.374999999999989
40
0.374999999999989
40
0.406249999999989
40
0.406249999999989
40
0.421874999999989
40
0.421874999999989
40
0.437499999999989
40
0.437499999999989
40
0.46874999999999
40
0.46874999999999
40
0.49999999999999
40
0.49999999999999
40
0.531249999999991
40
0.531249999999991
40
0.546874999999991
40
0.546874999999991
40
0.562499999999992
40
0.578124999999992
40
0.578124999999992
40
0.593749999999992
40
0.593749999999992
40
0.624999999999993
40
0.624999999999993
40
0.656249999999994
40
0.656249999999994
40
0.687499999999994
40
0.687499999999994
40
0.703124999999994
40
0.703124999999994
40
0.718749999999995
40
0.718749999999995
40
0.749999999999995
40
0.749999999999995
40
0.781249999999995
40
0.781249999999995
40
0.796874999999995
40
0.796874999999995
40
0.812499999999995
40
0.812499999999995
40
0.843749999999996
40
0.843749999999996
40
0.874999999999997
40
0.874999999999997
40
0.906249999999998
40
0.906249999999998
40
0.921874999999998
40
0.921874999999998
40
0.937499999999999
40
0.937499999999999
40
0.968749999999999
40
0.968749999999999
40
1
40
1
40
1
40
1
41
1
10
11.1
20
26.0665877911445
30
0
41
1
10
11.2156436486558
20
26.0665877911445
30
0
41
1
10
11.3293491684152
20
26.0624411240861
30
0
41
1
10
11.4971204471595
20
26.0502030169955
30
0
41
1
10
11.5525762600459
20
26.0451121526261
30
0
41
1
10
11.6625309730753
20
26.0328390828423
30
0
41
1
10
11.717173176874
20
26.0256225774702
30
0
41
1
10
11.8761093787396
20
26.0012312671302
30
0
41
1
10
11.97661348946
20
25.9812417405596
30
0
41
1
10
12.1668218068396
20
25.9335628799081
30
0
41
1
10
12.2568581688324
20
25.9056170213558
30
0
41
1
10
12.4182488104059
20
25.8438687253976
30
0
41
1
10
12.4906794030909
20
25.8098604635538
30
0
41
1
10
12.5866287489616
20
25.7537511375396
30
0
41
1
10
12.6164109734125
20
25.734203265771
30
0
41
1
10
12.6703947985747
20
25.6942132264003
30
0
41
1
10
12.7191699331361
20
25.6531233745276
30
0
41
1
10
12.757680702436
20
25.6097945809681
30
0
41
1
10
12.7909867711997
20
25.5653005982706
30
0
41
1
10
12.8050924206388
20
25.5423449282395
30
0
41
1
10
12.8388150707851
20
25.4726146953442
30
0
41
1
10
12.8499384411518
20
25.4252569931469
30
0
41
1
10
12.8500610541426
20
25.328773410371
30
0
41
1
10
12.8386987382712
20
25.2791185036332
30
0
41
1
10
12.7940503878632
20
25.181775458552
30
0
41
1
10
12.7610148646662
20
25.1338505563076
30
0
41
1
10
12.6952997643071
20
25.0632431926747
30
0
41
1
10
12.6705207501631
20
25.0398006413777
30
0
41
1
10
12.616353191525
20
24.9942557230716
30
0
41
1
10
12.5869537734543
20
24.9721031811502
30
0
41
1
10
12.491972067968
20
24.9075214733203
30
0
41
1
10
12.4196729410456
20
24.8669471878454
30
0
41
1
10
12.2563942186081
20
24.7913265847567
30
0
41
1
10
12.1679154246028
20
24.7574594855929
30
0
41
1
10
12.0258150931233
20
24.7127945396193
30
0
41
1
10
11.9768475525364
20
24.6989240315752
30
0
41
1
10
11.8756396767081
20
24.673304617109
30
0
41
1
10
11.8231847705582
20
24.6615264067409
30
0
41
1
10
11.6641754818039
20
24.6302124290199
30
0
41
1
10
11.5550944836564
20
24.6143912571473
30
0
41
1
10
11.3308454465806
20
24.5929561632186
30
0
41
1
10
11.2148456871712
20
24.5874435842356
30
0
41
1
10
10.9864107402863
20
24.5874042739746
30
0
41
1
10
10.8728759625123
20
24.5926996518712
30
0
41
1
10
10.7036195935303
20
24.6087313627004
30
0
41
1
10
10.6473587764642
20
24.6154544861265
30
0
41
1
10
10.5376759137094
20
24.631305143418
30
0
41
1
10
10.4301881243445
20
24.6496105885325
30
0
41
1
10
10.3270174509547
20
24.6726872029836
30
0
41
1
10
10.2260313272703
20
24.6981430264356
30
0
41
1
10
10.1763923604878
20
24.7121375302011
30
0
41
1
10
10.0326799146982
20
24.7572005788346
30
0
41
1
10
9.94451170368413
20
24.791011811121
30
0
41
1
10
9.78301181199086
20
24.8656012886708
30
0
41
1
10
9.70906245171398
20
24.9068857399495
30
0
41
1
10
9.58182043110091
20
24.9932678993447
30
0
41
1
10
9.52799826501786
20
25.0384467548108
30
0
41
1
10
9.46202639082031
20
25.1089807949684
30
0
41
1
10
9.44242936935888
20
25.1330950094825
30
0
41
1
10
9.40896754611506
20
25.1814139940591
30
0
41
1
10
9.39505259730259
20
25.2056279142623
30
0
41
1
10
9.36154716013959
20
25.2783964268398
30
0
41
1
10
9.3501158531075
20
25.3270725806959
30
0
41
1
10
9.34988588204357
20
25.4246905201612
30
0
41
1
10
9.36115329663039
20
25.4722701553696
30
0
41
1
10
9.39434993921697
20
25.5413278545177
30
0
41
1
10
9.40815142999986
20
25.5639940895115
30
0
41
1
10
9.44133648832707
20
25.6086284852321
30
0
41
1
10
9.46084042104005
20
25.6306896467161
30
0
41
1
10
9.52664377086188
20
25.6945065411947
30
0
41
1
10
9.58033058680081
20
25.7342832152356
30
0
41
1
10
9.70707017077629
20
25.80868707068
30
0
41
1
10
9.78090112724374
20
25.8434977274125
30
0
41
1
10
9.94226026036759
20
25.9053250056532
30
0
41
1
10
10.0302621631543
20
25.9327362585649
30
0
41
1
10
10.1734711795072
20
25.9687755841761
30
0
41
1
10
10.2231919707327
20
25.979941153698
30
0
41
1
10
10.3242386380117
20
26.0001080905258
30
0
41
1
10
10.3758211630752
20
26.0091803361027
30
0
41
1
10
10.5336933176592
20
26.0334690599939
30
0
41
1
10
10.6435537973904
20
26.0458229828224
30
0
41
1
10
10.8699414894856
20
26.0624409420866
30
0
41
1
10
10.9843563513442
20
26.0665877911445
30
0
41
1
10
11.1
20
26.0665877911445
30
0
0
SPLINE
5
C5
100
AcDbEntity
8
1
62
256
6
ByLayer
370
18
48
1
60
0
100
AcDbSpline
70
4
71
3
72
8
73
4
40
0
40
0
40
0
40
0
40
1
40
1
40
1
40
1
41
1
10
3.68000000000001
20
-30.3903516761488
30
0
41
1
10
3.51249248176791
20
-30.1723849714829
30
0
41
1
10
3.34581589349383
20
-29.9531549471736
30
0
41
1
10
3.18000000000001
20
-29.7326163497261
30
0
0
SPLINE
5
C6
100
AcDbEntity
8
1
62
256
6
ByLayer
370
18
48
1
60
0
100
AcDbSpline
70
4
71
3
72
8
73
4
40
0
40
0
40
0
40
0
40
1
40
1
40
1
40
1
41
1
10
9.17499999999998
20
27.8204082180394
30
0
41
1
10
8.64230076016787
20
28.7813357281299
30
0
41
1
10
8.10795825340139
20
29.7413716866898
30
0
41
1
10
7.57238985525137
20
30.7007080537241
30
0
0
SPLINE
5
C7
100
AcDbEntity
8
1
62
256
6
ByLayer
370
18
48
1
60
0
100
AcDbSpline
70
4
71
3
72
8
73
4
40
0
40
0
40
0
40
0
40
1
40
1
40
1
40
1
41
1
10
9.17499999999998
20
-27.8204082180394
30
0
41
1
10
8.64230787616643
20
-28.7813228916956
30
0
41
1
10
8.10796282379116
20
-29.7413634999837
30
0
41
1
10
7.57238985525137
20
-30.7007080537241
30
0
0
SPLINE
5
C8
100
AcDbEntity
8
1
62
256
6
ByLayer
370
18
48
1
60
0
100
AcDbSpline
70
4
71
3
72
28
73
24
40
0
40
0
40
0
40
0
40
0.124999999999999
40
0.124999999999999
40
0.187499999999998
40
0.187499999999998
40
0.249999999999998
40
0.249999999999998
40
0.374999999999997
40
0.374999999999997
40
0.437499999999997
40
0.437499999999997
40
0.499999999999997
40
0.499999999999997
40
0.624999999999998
40
0.624999999999998
40
0.687499999999998
40
0.687499999999998
40
0.749999999999998
40
0.749999999999998
40
0.874999999999999
40
0.874999999999999
40
1
40
1
40
1
40
1
41
1
10
24.18
20
-24.6623392037333
30
0
41
1
10
24.18
20
-24.6184323652258
30
0
41
1
10
24.1540430637397
20
-24.5710189254252
30
0
41
1
10
24.0783628019543
20
-24.4951776022136
30
0
41
1
10
24.0469643877149
20
-24.4691107393295
30
0
41
1
10
23.9716355889659
20
-24.4155055930004
30
0
41
1
10
23.9274511699032
20
-24.3878476635222
30
0
41
1
10
23.7785812039017
20
-24.3045733328011
30
0
41
1
10
23.6573220387679
20
-24.2482204309823
30
0
41
1
10
23.4428024563555
20
-24.1638590325933
30
0
41
1
10
23.3658174835963
20
-24.1357695566493
30
0
41
1
10
23.2004427801288
20
-24.0799465381724
30
0
41
1
10
23.113388437946
20
-24.052666240617
30
0
41
1
10
22.8395276283002
20
-23.9731394446359
30
0
41
1
10
22.6401213017444
20
-23.9231654640116
30
0
41
1
10
22.3147313528105
20
-23.8547984629509
30
0
41
1
10
22.2012232552868
20
-23.8330206145461
30
0
41
1
10
21.9698210681182
20
-23.7929434526535
30
0
41
1
10
21.8515929011609
20
-23.7745518027931
30
0
41
1
10
21.4893899310751
20
-23.7246488065823
30
0
41
1
10
21.2379752697119
20
-23.6983702583755
30
0
41
1
10
20.7137914070281
20
-23.6623488240313
30
0
41
1
10
20.4482330714586
20
-23.6531387980538
30
0
41
1
10
20.18
20
-23.6531387980538
30
0
0
SPLINE
5
C9
100
AcDbEntity
8
1
62
256
6
ByLayer
370
18
48
1
60
0
100
AcDbSpline
70
4
71
3
72
8
73
4
40
0
40
0
40
0
40
0
40
1
40
1
40
1
40
1
41
1
10
14.6276101447486
20
30.7007080537241
30
0
41
1
10
14.0920417465986
20
29.7413716866898
30
0
41
1
10
13.5576992398321
20
28.7813357281299
30
0
41
1
10
13.025
20
27.8204082180394
30
0
0
SPLINE
5
CA
100
AcDbEntity
8
1
62
256
6
ByLayer
370
18
48
1
60
0
100
AcDbSpline
70
4
71
3
72
8
73
4
40
0
40
0
40
0
40
0
40
1
40
1
40
1
40
1
41
1
10
19.05
20
-29.8726208257662
30
0
41
1
10
18.7834607900348
20
-30.1487729784862
30
0
41
1
10
18.5167907478998
20
-30.4247989043001
30
0
41
1
10
18.25
20
-30.7007080537241
30
0
0
SPLINE
5
CB
100
AcDbEntity
8
1
62
256
6
ByLayer
370
18
48
1
60
0
100
AcDbSpline
70
2053
71
3
72
88
73
84
40
0
40
0
40
0
40
0
40
0.0312499999999997
40
0.0312499999999997
40
0.0468749999999998
40
0.0468749999999998
40
0.0624999999999999
40
0.0624999999999999
40
0.0937499999999998
40
0.0937499999999998
40
0.125
40
0.125
40
0.15625
40
0.15625
40
0.171875
40
0.171875
40
0.187499999999999
40
0.203124999999999
40
0.203124999999999
40
0.218749999999999
40
0.218749999999999
40
0.25
40
0.25
40
0.28125
40
0.28125
40
0.312500000000001
40
0.312500000000001
40
0.328125000000001
40
0.328125000000001
40
0.343750000000001
40
0.343750000000001
40
0.375000000000001
40
0.375000000000001
40
0.406250000000001
40
0.406250000000001
40
0.421875000000001
40
0.421875000000001
40
0.437500000000001
40
0.437500000000001
40
0.468750000000001
40
0.468750000000001
40
0.500000000000001
40
0.500000000000001
40
0.531250000000002
40
0.531250000000002
40
0.546875000000002
40
0.546875000000002
40
0.562500000000002
40
0.578125000000002
40
0.578125000000002
40
0.593750000000002
40
0.593750000000002
40
0.625000000000002
40
0.625000000000002
40
0.656250000000002
40
0.656250000000002
40
0.687500000000002
40
0.687500000000002
40
0.703125000000001
40
0.703125000000001
40
0.718750000000001
40
0.718750000000001
40
0.75
40
0.75
40
0.78125
40
0.78125
40
0.796874999999999
40
0.796874999999999
40
0.812499999999999
40
0.812499999999999
40
0.843749999999999
40
0.843749999999999
40
0.875
40
0.875
40
0.90625
40
0.90625
40
0.921875
40
0.921875
40
0.9375
40
0.9375
40
0.96875
40
0.96875
40
1
40
1
40
1
40
1
41
1
10
11.1
20
17.7787518246465
30
0
41
1
10
11.2156436486558
20
17.7787518246465
30
0
41
1
10
11.3293491684152
20
17.78754205415
30
0
41
1
10
11.4971204471595
20
17.8133298222392
30
0
41
1
10
11.5525762600459
20
17.8240410255757
30
0
41
1
10
11.6625309730753
20
17.8497733342314
30
0
41
1
10
11.7171731768741
20
17.8648653526791
30
0
41
1
10
11.8761093787396
20
17.9156499982124
30
0
41
1
10
11.97661348946
20
17.9570157116121
30
0
41
1
10
12.1668218068396
20
18.0544004291999
30
0
41
1
10
12.2568581688324
20
18.1109186198402
30
0
41
1
10
12.4182488104059
20
18.2338441007344
30
0
41
1
10
12.4906794030909
20
18.3006846696702
30
0
41
1
10
12.5866287489616
20
18.4090079174121
30
0
41
1
10
12.6164109734125
20
18.4464438535179
30
0
41
1
10
12.6703947876613
20
18.5223472022724
30
0
41
1
10
12.7191699331361
20
18.5996806379695
30
0
41
1
10
12.757680702436
20
18.6797804709199
30
0
41
1
10
12.7909867711997
20
18.7612613301548
30
0
41
1
10
12.8050924206389
20
18.8029181243567
30
0
41
1
10
12.8388150707852
20
18.9282405754566
30
0
41
1
10
12.8499384411518
20
19.011774236856
30
0
41
1
10
12.8500610541426
20
19.1787592444599
30
0
41
1
10
12.8386987382712
20
19.2630756208562
30
0
41
1
10
12.7940503878632
20
19.4253711468827
30
0
41
1
10
12.7610148646662
20
19.5037949842739
30
0
41
1
10
12.6952997643071
20
19.6174393056628
30
0
41
1
10
12.6705207501631
20
19.6548436631458
30
0
41
1
10
12.616353191525
20
19.7269382420442
30
0
41
1
10
12.5869537734544
20
19.761713062636
30
0
41
1
10
12.491972067968
20
19.8623575678938
30
0
41
1
10
12.4196729410456
20
19.9245813529743
30
0
41
1
10
12.2563942186081
20
20.0391826394582
30
0
41
1
10
12.1679154246028
20
20.0897797343764
30
0
41
1
10
12.0258150931233
20
20.1559442713126
30
0
41
1
10
11.9768475525364
20
20.1763824595912
30
0
41
1
10
11.8756396767081
20
20.2139865854394
30
0
41
1
10
11.8231847705582
20
20.2311946332523
30
0
41
1
10
11.6641754818039
20
20.2768053519464
30
0
41
1
10
11.5550944836564
20
20.2996544732526
30
0
41
1
10
11.3308454465806
20
20.3305555123064
30
0
41
1
10
11.2148456871712
20
20.3384614670293
30
0
41
1
10
10.9864107402863
20
20.3385179382975
30
0
41
1
10
10.8728759625123
20
20.3309243335582
30
0
41
1
10
10.7036195935303
20
20.3078142967239
30
0
41
1
10
10.6473587764642
20
20.2981098851678
30
0
41
1
10
10.5376759355204
20
20.275161500897
30
0
41
1
10
10.4301881243445
20
20.2486009843275
30
0
41
1
10
10.3270174509547
20
20.2148898697848
30
0
41
1
10
10.2260313272703
20
20.1775316142801
30
0
41
1
10
10.1763923604878
20
20.1569148980433
30
0
41
1
10
10.0326799146982
20
20.090168402795
30
0
41
1
10
9.94451170368413
20
20.0396489051459
30
0
41
1
10
9.78301181199083
20
19.926631561691
30
0
41
1
10
9.70906245171395
20
19.8633404199026
30
0
41
1
10
9.58182043110088
20
19.728737631973
30
0
41
1
10
9.52799826501786
20
19.6573255961637
30
0
41
1
10
9.46202639082031
20
19.5438350887899
30
0
41
1
10
9.44242936935888
20
19.5047087455792
30
0
41
1
10
9.40896754611504
20
19.4255948307141
30
0
41
1
10
9.39505259730259
20
19.3855973056092
30
0
41
1
10
9.36154716013957
20
19.2642908131516
30
0
41
1
10
9.35011585310747
20
19.1816776998242
30
0
41
1
10
9.34988588204354
20
19.0127792443536
30
0
41
1
10
9.36115329663039
20
18.9288418595068
30
0
41
1
10
9.39434993921694
20
18.8047547969721
30
0
41
1
10
9.40815142999986
20
18.7636395327267
30
0
41
1
10
9.44133648832707
20
18.6819295198419
30
0
41
1
10
9.46084042104002
20
18.6411584411038
30
0
41
1
10
9.52664377086188
20
18.522165931743
30
0
41
1
10
9.58033058680081
20
18.4465714300554
30
0
41
1
10
9.70707017077629
20
18.3029702247426
30
0
41
1
10
9.78090112724374
20
18.2345763956828
30
0
41
1
10
9.94226026036756
20
18.1115061531649
30
0
41
1
10
10.0302621631543
20
18.0560787782183
30
0
41
1
10
10.1734711795072
20
17.9824828248826
30
0
41
1
10
10.2231919707327
20
17.9595410704945
30
0
41
1
10
10.3242386380117
20
17.9179209163909
30
0
41
1
10
10.3758211630752
20
17.8990982154375
30
0
41
1
10
10.5336933176592
20
17.8485306854805
30
0
41
1
10
10.6435537973904
20
17.8225584256189
30
0
41
1
10
10.8699414894856
20
17.7875432937996
30
0
41
1
10
10.9843563513442
20
17.7787518246465
30
0
41
1
10
11.1
20
17.7787518246465
30
0
0
SPLINE
5
CC
100
AcDbEntity
8
1
62
256
6
ByLayer
370
18
48
1
60
0
100
AcDbSpline
70
4
71
3
72
8
73
4
40
0
40
0
40
0
40
0
40
1
40
1
40
1
40
1
41
1
10
3.68000000000001
20
30.3903516761488
30
0
41
1
10
3.77998267855068
20
30.4938205426472
30
0
41
1
10
3.87998285050537
20
30.5972725078436
30
0
41
1
10
3.97999999999999
20
30.7007080537241
30
0
0
SPLINE
5
CD
100
AcDbEntity
8
1
62
256
6
ByLayer
370
18
48
1
60
0
100
AcDbSpline
70
4
71
3
72
22
73
18
40
0
40
0
40
0
40
0
40
0.125
40
0.125
40
0.25
40
0.25
40
0.375
40
0.375
40
0.5
40
0.5
40
0.625
40
0.625
40
0.75
40
0.75
40
0.875
40
0.875
40
1
40
1
40
1
40
1
41
1
10
20.05
20
-23.6531387980538
30
0
41
1
10
19.9821437683643
20
-23.6531387980538
30
0
41
1
10
19.9155332667366
20
-23.6603631040084
30
0
41
1
10
19.7846854516903
20
-23.6885744394635
30
0
41
1
10
19.7197562622465
20
-23.7099550654403
30
0
41
1
10
19.5972632298394
20
-23.7650165789742
30
0
41
1
10
19.5393673206288
20
-23.798590923296
30
0
41
1
10
19.4301598535201
20
-23.877615998437
30
0
41
1
10
19.3794459246375
20
-23.9228133278022
30
0
41
1
10
19.2886063012597
20
-24.0211435064016
30
0
41
1
10
19.2477020026571
20
-24.0750572319764
30
0
41
1
10
19.1767310081602
20
-24.1899180487469
30
0
41
1
10
19.1471091953407
20
-24.2499596562503
30
0
41
1
10
19.099065258998
20
-24.3750302847456
30
0
41
1
10
19.0805931514951
20
-24.4406422278472
30
0
41
1
10
19.0561623640482
20
-24.5729886617788
30
0
41
1
10
19.05
20
-24.6399490543056
30
0
41
1
10
19.05
20
-24.70771084095
30
0
0
SPLINE
5
CE
100
AcDbEntity
8
1
62
256
6
ByLayer
370
18
48
1
60
0
100
AcDbSpline
70
4
71
3
72
8
73
4
40
0
40
0
40
0
40
0
40
1
40
1
40
1
40
1
41
1
10
18.25
20
30.7007080537241
30
0
41
1
10
18.5167907478998
20
30.4247989043001
30
0
41
1
10
18.7834607900348
20
30.1487729784862
30
0
41
1
10
19.05
20
29.8726208257662
30
0
0
SPLINE
5
CF
100
AcDbEntity
8
1
62
256
6
ByLayer
370
18
48
1
60
0
100
AcDbSpline
70
4
71
3
72
26
73
22
40
0
40
0
40
0
40
0
40
0.277016499826218
40
0.277016499826218
40
0.457762374869664
40
0.457762374869664
40
0.63850824991311
40
0.63850824991311
40
0.728881187434833
40
0.728881187434833
40
0.819254124956556
40
0.819254124956556
40
0.864440593717417
40
0.864440593717417
40
0.909627062478278
40
0.909627062478278
40
0.954813531239139
40
0.954813531239139
40
0.97740676561957
40
0.97740676561957
40
1
40
1
40
1
40
1
41
1
10
19.1389179999899
20
24.82
30
0
41
1
10
19.1734332398599
20
24.82
30
0
41
1
10
19.2169989543587
20
24.82
30
0
41
1
10
19.3028010493339
20
24.82
30
0
41
1
10
19.3403024304536
20
24.82
30
0
41
1
10
19.4236455789499
20
24.82
30
0
41
1
10
19.4693630059766
20
24.82
30
0
41
1
10
19.5472085207286
20
24.82
30
0
41
1
10
19.5747145456712
20
24.82
30
0
41
1
10
19.6343972427459
20
24.82
30
0
41
1
10
19.6664397297589
20
24.82
30
0
41
1
10
19.7207788199799
20
24.82
30
0
41
1
10
19.7399298164066
20
24.82
30
0
41
1
10
19.7815454410525
20
24.82
30
0
41
1
10
19.8039515463112
20
24.82
30
0
41
1
10
19.8546816614865
20
24.82
30
0
41
1
10
19.8826236306911
20
24.82
30
0
41
1
10
19.9349325100743
20
24.82
30
0
41
1
10
19.9542856730666
20
24.82
30
0
41
1
10
19.9986312298904
20
24.82
30
0
41
1
10
20.0238214835928
20
24.82
30
0
41
1
10
20.05
20
24.82
30
0
0
SPLINE
5
D0
100
AcDbEntity
8
1
62
256
6
ByLayer
370
18
48
1
60
0
100
AcDbSpline
70
2053
71
3
72
122
73
118
40
0
40
0
40
0
40
0
40
0.0312500000000012
40
0.0312500000000012
40
0.0468750000000017
40
0.0468750000000017
40
0.0625000000000023
40
0.0625000000000023
40
0.0937500000000035
40
0.0937500000000035
40
0.109375000000004
40
0.109375000000004
40
0.117187500000004
40
0.117187500000004
40
0.125000000000004
40
0.125000000000004
40
0.156250000000005
40
0.156250000000005
40
0.164062500000005
40
0.164062500000005
40
0.171875000000006
40
0.171875000000006
40
0.187500000000006
40
0.187500000000006
40
0.203125000000006
40
0.203125000000006
40
0.210937500000007
40
0.210937500000007
40
0.218750000000007
40
0.218750000000007
40
0.250000000000007
40
0.250000000000007
40
0.265625000000007
40
0.265625000000007
40
0.281250000000008
40
0.281250000000008
40
0.312500000000008
40
0.312500000000008
40
0.343750000000009
40
0.343750000000009
40
0.35937500000001
40
0.35937500000001
40
0.375000000000011
40
0.375000000000011
40
0.406250000000012
40
0.406250000000012
40
0.414062500000012
40
0.414062500000012
40
0.421875000000013
40
0.421875000000013
40
0.437500000000013
40
0.437500000000013
40
0.453125000000013
40
0.453125000000013
40
0.468750000000014
40
0.468750000000014
40
0.500000000000014
40
0.500000000000014
40
0.515625000000014
40
0.515625000000014
40
0.531250000000014
40
0.531250000000014
40
0.562500000000014
40
0.562500000000014
40
0.578125000000014
40
0.578125000000014
40
0.593750000000014
40
0.593750000000014
40
0.625000000000014
40
0.625000000000014
40
0.640625000000013
40
0.640625000000013
40
0.656250000000013
40
0.656250000000013
40
0.687500000000012
40
0.687500000000012
40
0.695312500000012
40
0.695312500000012
40
0.703125000000012
40
0.703125000000012
40
0.718750000000011
40
0.718750000000011
40
0.726562500000011
40
0.726562500000011
40
0.734375000000011
40
0.734375000000011
40
0.750000000000011
40
0.750000000000011
40
0.76562500000001
40
0.76562500000001
40
0.77343750000001
40
0.77343750000001
40
0.78125000000001
40
0.78125000000001
40
0.796875000000009
40
0.796875000000009
40
0.804687500000009
40
0.804687500000009
40
0.812500000000009
40
0.812500000000009
40
0.843750000000008
40
0.843750000000008
40
0.859375000000007
40
0.859375000000007
40
0.875000000000006
40
0.875000000000006
40
0.906250000000004
40
0.906250000000004
40
0.921875000000004
40
0.921875000000004
40
0.937500000000003
40
0.937500000000003
40
0.968750000000001
40
0.968750000000001
40
0.984375000000001
40
0.984375000000001
40
1
40
1
40
1
40
1
41
1
10
24.25
20
-22.1719981057188
30
0
41
1
10
24.25
20
-22.3436325686877
30
0
41
1
10
24.2807603309104
20
-22.5055193852686
30
0
41
1
10
24.3746404335631
20
-22.7345295042364
30
0
41
1
10
24.4139363379976
20
-22.8085589168804
30
0
41
1
10
24.5094206447492
20
-22.9520940020448
30
0
41
1
10
24.5660150321866
20
-23.0219700408183
30
0
41
1
10
24.7594495782886
20
-23.2213073979324
30
0
41
1
10
24.9194763019029
20
-23.3409674564691
30
0
41
1
10
25.2076318363254
20
-23.5031825747361
30
0
41
1
10
25.3117498982195
20
-23.5543628703508
30
0
41
1
10
25.480713877843
20
-23.6270133135193
30
0
41
1
10
25.539361077335
20
-23.65060959809
30
0
41
1
10
25.6597184712021
20
-23.6959567754786
30
0
41
1
10
25.7214958498691
20
-23.7177472301324
30
0
41
1
10
26.0382828548991
20
-23.8225371401621
30
0
41
1
10
26.3167601917806
20
-23.8931737889766
30
0
41
1
10
26.6969781664946
20
-23.9677072450136
30
0
41
1
10
26.7746427345727
20
-23.9819182086678
30
0
41
1
10
26.9332982618482
20
-24.0089865526097
30
0
41
1
10
27.0142350219427
20
-24.0218272343225
30
0
41
1
10
27.2589586847199
20
-24.0579296693128
30
0
41
1
10
27.4256539344061
20
-24.0789585332798
30
0
41
1
10
27.7659849105487
20
-24.1155535313361
30
0
41
1
10
27.9396206202404
20
-24.131118777148
30
0
41
1
10
28.2053403423324
20
-24.1506133891059
30
0
41
1
10
28.2947930824547
20
-24.1564672223642
30
0
41
1
10
28.4754907832454
20
-24.1669005469723
30
0
41
1
10
28.5670226590999
20
-24.1714905776676
30
0
41
1
10
29.0245999668159
20
-24.1910615087362
30
0
41
1
10
29.391377013377
20
-24.1962461581468
30
0
41
1
10
29.942588017612
20
-24.1891527596189
30
0
41
1
10
30.1269736786803
20
-24.1842511252453
30
0
41
1
10
30.4940942566362
20
-24.1691530954975
30
0
41
1
10
30.674412838104
20
-24.1590687477641
30
0
41
1
10
31.2059832979963
20
-24.1210794378705
30
0
41
1
10
31.5479529266931
20
-24.0855889047641
30
0
41
1
10
32.2062759643333
20
-23.9900571427694
30
0
41
1
10
32.511050792751
20
-23.9316241149377
30
0
41
1
10
32.9325480761952
20
-23.8255391593879
30
0
41
1
10
33.0671150892957
20
-23.7870708394152
30
0
41
1
10
33.324171542842
20
-23.703157536233
30
0
41
1
10
33.4453589217249
20
-23.6580925007405
30
0
41
1
10
33.7837900161842
20
-23.5145456141038
30
0
41
1
10
33.9779565131469
20
-23.4071766681806
30
0
41
1
10
34.1825715673694
20
-23.2559269976742
30
0
41
1
10
34.2216501460413
20
-23.2247458009112
30
0
41
1
10
34.2952455639325
20
-23.1612179015278
30
0
41
1
10
34.3298424967357
20
-23.1288224638499
30
0
41
1
10
34.4272429145394
20
-23.0297132168923
30
0
41
1
10
34.4836698112377
20
-22.9610778945522
30
0
41
1
10
34.5802701212683
20
-22.8184964326328
30
0
41
1
10
34.6204415666525
20
-22.744550471845
30
0
41
1
10
34.6848653684315
20
-22.5911143679432
30
0
41
1
10
34.7091327301427
20
-22.5112905863719
30
0
41
1
10
34.7574492843202
20
-22.2672861890605
30
0
41
1
10
34.7578687884942
20
-22.0977135047387
30
0
41
1
10
34.7145769290606
20
-21.8330849348209
30
0
41
1
10
34.6927742243066
20
-21.7431635126459
30
0
41
1
10
34.6344639572554
20
-21.5599081932524
30
0
41
1
10
34.59819479361
20
-21.4673891953257
30
0
41
1
10
34.4695161791209
20
-21.1887976199405
30
0
41
1
10
34.3572291852887
20
-21.0010527357568
30
0
41
1
10
34.1495899313541
20
-20.7176774916614
30
0
41
1
10
34.0737963972697
20
-20.6229322766626
30
0
41
1
10
33.9085365536522
20
-20.4331797087664
30
0
41
1
10
33.8200258718855
20
-20.3392818118432
30
0
41
1
10
33.5374502671278
20
-20.0616380578931
30
0
41
1
10
33.3263410447698
20
-19.8815998221858
30
0
41
1
10
32.9724866496592
20
-19.6227558689718
30
0
41
1
10
32.8482882617697
20
-19.5383640466777
30
0
41
1
10
32.5861147059618
20
-19.3743225044742
30
0
41
1
10
32.4479698322639
20
-19.2946729491366
30
0
41
1
10
32.0201391448838
20
-19.0696907483942
30
0
41
1
10
31.7145945556463
20
-18.9362731750512
30
0
41
1
10
31.3019188692324
20
-18.7975933774515
30
0
41
1
10
31.2175303107657
20
-18.7711999805165
30
0
41
1
10
31.0470880877577
20
-18.7220068604386
30
0
41
1
10
30.9610954756323
20
-18.6992084005143
30
0
41
1
10
30.7007601752179
20
-18.6363896323859
30
0
41
1
10
30.5240665294533
20
-18.6019339741287
30
0
41
1
10
30.2540386477692
20
-18.5623150995358
30
0
41
1
10
30.1631965551245
20
-18.5511224322969
30
0
41
1
10
29.979778790131
20
-18.5329579961767
30
0
41
1
10
29.8868145850065
20
-18.5259713951573
30
0
41
1
10
29.608475166407
20
-18.5118159945352
30
0
41
1
10
29.4240029623931
20
-18.5113674100313
30
0
41
1
10
29.0571574585928
20
-18.5278251348505
30
0
41
1
10
28.8747843164935
20
-18.5447324090974
30
0
41
1
10
28.6027829211178
20
-18.5828485994605
30
0
41
1
10
28.5120537861446
20
-18.5977460217251
30
0
41
1
10
28.332851718721
20
-18.6314376999454
30
0
41
1
10
28.244503781113
20
-18.6501883408144
30
0
41
1
10
27.9830202175526
20
-18.7117839649844
30
0
41
1
10
27.8134340552626
20
-18.7599583881751
30
0
41
1
10
27.5655887637772
20
-18.8417052355908
30
0
41
1
10
27.4840655179615
20
-18.8705388576403
30
0
41
1
10
27.3231387768821
20
-18.931219402675
30
0
41
1
10
27.2435701014432
20
-18.9631447530159
30
0
41
1
10
26.8551305775565
20
-19.1280999845422
30
0
41
1
10
26.5710590950293
20
-19.2778394167542
30
0
41
1
10
26.1778005684433
20
-19.5212426358982
30
0
41
1
10
26.0522635261472
20
-19.6055645510394
30
0
41
1
10
25.8118137871055
20
-19.7797828412785
30
0
41
1
10
25.6976930837027
20
-19.8691423200298
30
0
41
1
10
25.3755315049596
20
-20.1402681586995
30
0
41
1
10
25.1860464007238
20
-20.3260531958247
30
0
41
1
10
24.9374470330604
20
-20.6093595802517
30
0
41
1
10
24.8603297299339
20
-20.7049459293276
30
0
41
1
10
24.720065725551
20
-20.8948559766251
30
0
41
1
10
24.6567402440347
20
-20.9893220680515
30
0
41
1
10
24.4867450710225
20
-21.2709109354574
30
0
41
1
10
24.3998701284201
20
-21.4562065181058
30
0
41
1
10
24.3109578972466
20
-21.7295520920078
30
0
41
1
10
24.2882314483476
20
-21.8201431478343
30
0
41
1
10
24.2577535242362
20
-21.9985261025432
30
0
41
1
10
24.25
20
-22.0861808742344
30
0
41
1
10
24.25
20
-22.1719981057188
30
0
0
INSERT
5
DA
100
AcDbEntity
8
SK6
62
256
6
ByLayer
370
18
48
1
60
0
100
AcDbBlockReference
2
LABLE3D_1
10
0
20
0
30
0
41
1
42
1
43
1
50
0
210
0
220
0
230
1
0
LINE
5
73
100
AcDbEntity
8
SK3
62
256
6
ByLayer
370
18
48
0.05
60
0
100
AcDbLine
10
38
20
11.2
30
0
11
38
21
-11.2
31
0
39
0
210
0
220
0
230
1
0
LINE
5
75
100
AcDbEntity
8
SK3
62
256
6
ByLayer
370
18
48
0.05
60
0
100
AcDbLine
10
39.5
20
-12.7
30
0
11
95
21
-12.7
31
0
39
0
210
0
220
0
230
1
0
LINE
5
76
100
AcDbEntity
8
4
62
256
6
ByLayer
370
18
48
0.05
60
0
100
AcDbLine
10
95
20
0
30
0
11
0
21
0
31
0
39
0
210
0
220
0
230
1
0
LINE
5
78
100
AcDbEntity
8
80
62
256
6
ByLayer
370
18
48
1
60
0
100
AcDbLine
10
0
20
0
30
0
11
-10.875929
21
0
31
0
39
0
210
0
220
0
230
1
0
LINE
5
79
100
AcDbEntity
8
81
62
256
6
ByLayer
370
18
48
1
60
0
100
AcDbLine
10
95
20
0
30
0
11
99.742527
21
0
31
0
39
0
210
0
220
0
230
1
0
LINE
5
7A
100
AcDbEntity
8
SK3
62
256
6
ByLayer
370
18
48
0.05
60
0
100
AcDbLine
10
95
20
12.7
30
0
11
39.5
21
12.7
31
0
39
0
210
0
220
0
230
1
0
LINE
5
7B
100
AcDbEntity
8
SK3
62
256
6
ByLayer
370
18
48
0.05
60
0
100
AcDbLine
10
39.5
20
12.7
30
0
11
38
21
11.2
31
0
39
0
210
0
220
0
230
1
0
LINE
5
7C
100
AcDbEntity
8
SK3
62
256
6
ByLayer
370
18
48
0.05
60
0
100
AcDbLine
10
38
20
-11.2
30
0
11
39.5
21
-12.7
31
0
39
0
210
0
220
0
230
1
0
LINE
5
7D
100
AcDbEntity
8
SK3
62
256
6
ByLayer
370
18
48
0.05
60
0
100
AcDbLine
10
39.5
20
-12.7
30
0
11
39.5
21
12.7
31
0
39
0
210
0
220
0
230
1
0
LINE
5
7E
100
AcDbEntity
8
1
62
256
6
ByLayer
370
18
48
1
60
0
100
AcDbLine
10
34.5
20
-22.315
30
0
11
34.5
21
-21.297
31
0
39
0
210
0
220
0
230
1
0
LINE
5
80
100
AcDbEntity
8
1
62
256
6
ByLayer
370
18
48
1
60
0
100
AcDbLine
10
24.5
20
-21.26518
30
0
11
24.5
21
-22.315
31
0
39
0
210
0
220
0
230
1
0
LINE
5
81
100
AcDbEntity
8
1
62
256
6
ByLayer
370
18
48
1
60
0
100
AcDbLine
10
80.174219
20
25
30
0
11
24.18
21
25
31
0
39
0
210
0
220
0
230
1
0
LINE
5
82
100
AcDbEntity
8
1
62
256
6
ByLayer
370
18
48
1
60
0
100
AcDbLine
10
24.18
20
-25
30
0
11
80.174219
21
-25
31
0
39
0
210
0
220
0
230
1
0
LINE
5
83
100
AcDbEntity
8
1
62
256
6
ByLayer
370
18
48
1
60
0
100
AcDbLine
10
83.990399
20
-24.632544
30
0
11
94.028971
21
-22.681243
31
0
39
0
210
0
220
0
230
1
0
LINE
5
84
100
AcDbEntity
8
1
62
256
6
ByLayer
370
18
48
1
60
0
100
AcDbLine
10
94.028971
20
22.681243
30
0
11
83.990399
21
24.632544
31
0
39
0
210
0
220
0
230
1
0
LINE
5
85
100
AcDbEntity
8
1
62
256
6
ByLayer
370
18
48
1
60
0
100
AcDbLine
10
0.7
20
-22.327093
30
0
11
1.266542
21
-22
31
0
39
0
210
0
220
0
230
1
0
LINE
5
86
100
AcDbEntity
8
1
62
256
6
ByLayer
370
18
48
1
60
0
100
AcDbLine
10
1.266542
20
22
30
0
11
0.7
21
22.327093
31
0
39
0
210
0
220
0
230
1
0
LINE
5
87
100
AcDbEntity
8
SK1
62
256
6
ByLayer
370
18
48
1
60
0
100
AcDbLine
10
0
20
22.225
30
0
11
-67.39432
21
12.395735
31
0
39
0
210
0
220
0
230
1
0
LINE
5
89
100
AcDbEntity
8
SK1
62
256
6
ByLayer
370
18
48
1
60
0
100
AcDbLine
10
-67.39432
20
-12.395735
30
0
11
0
21
-22.225
31
0
39
0
210
0
220
0
230
1
0
LINE
5
8A
100
AcDbEntity
8
1
62
256
6
ByLayer
370
18
48
1
60
0
100
AcDbLine
10
2.83
20
22
30
0
11
1.266542
21
22
31
0
39
0
210
0
220
0
230
1
0
LINE
5
8B
100
AcDbEntity
8
1
62
256
6
ByLayer
370
18
48
1
60
0
100
AcDbLine
10
1.266542
20
-22
30
0
11
2.83
21
-22
31
0
39
0
210
0
220
0
230
1
0
LINE
5
8C
100
AcDbEntity
8
1
62
256
6
ByLayer
370
18
48
1
60
0
100
AcDbLine
10
0.7
20
22.327093
30
0
11
0
21
22.225
31
0
39
0
210
0
220
0
230
1
0
LINE
5
8D
100
AcDbEntity
8
1
62
256
6
ByLayer
370
18
48
1
60
0
100
AcDbLine
10
0
20
-22.225
30
0
11
0.7
21
-22.327093
31
0
39
0
210
0
220
0
230
1
0
LINE
5
8E
100
AcDbEntity
8
SK4
62
256
6
ByLayer
370
18
48
0.05
60
0
100
AcDbLine
10
-78.25
20
0
30
0
11
105
21
0
31
0
39
0
210
0
220
0
230
1
0
LINE
5
90
100
AcDbEntity
8
SK1
62
256
6
ByLayer
370
18
48
1
60
0
100
AcDbLine
10
-68.25
20
11.406204
30
0
11
-68.25
21
-11.406204
31
0
39
0
210
0
220
0
230
1
0
LINE
5
91
100
AcDbEntity
8
SK1
62
256
6
ByLayer
370
13
48
1
60
0
100
AcDbLine
10
-67.39432
20
-12.395735
30
0
11
-67.39432
21
0
31
0
39
0
210
0
220
0
230
1
0
LINE
5
92
100
AcDbEntity
8
SK1
62
256
6
ByLayer
370
13
48
1
60
0
100
AcDbLine
10
-67.39432
20
0
30
0
11
-67.39432
21
12.395735
31
0
39
0
210
0
220
0
230
1
0
LINE
5
93
100
AcDbEntity
8
SK1
62
256
6
ByLayer
370
18
48
1
60
0
100
AcDbLine
10
0
20
-22.225
30
0
11
0
21
22.225
31
0
39
0
210
0
220
0
230
1
0
LINE
5
94
100
AcDbEntity
8
1
62
256
6
ByLayer
370
18
48
1
60
0
100
AcDbLine
10
14.62761
20
-30.700708
30
0
11
18.25
21
-30.700708
31
0
39
0
210
0
220
0
230
1
0
LINE
5
95
100
AcDbEntity
8
1
62
256
6
ByLayer
370
13
48
1
60
0
100
AcDbLine
10
83.990399
20
-24.632544
30
0
11
83.990399
21
0
31
0
39
0
210
0
220
0
230
1
0
LINE
5
96
100
AcDbEntity
8
1
62
256
6
ByLayer
370
13
48
1
60
0
100
AcDbLine
10
83.990399
20
0
30
0
11
83.990399
21
24.632544
31
0
39
0
210
0
220
0
230
1
0
LINE
5
97
100
AcDbEntity
8
1
62
256
6
ByLayer
370
18
48
1
60
0
100
AcDbLine
10
24.18
20
24.82
30
0
11
24.18
21
25
31
0
39
0
210
0
220
0
230
1
0
LINE
5
98
100
AcDbEntity
8
1
62
256
6
ByLayer
370
18
48
1
60
0
100
AcDbLine
10
18.25
20
-30.700708
30
0
11
18.25
21
30.700708
31
0
39
0
210
0
220
0
230
1
0
LINE
5
99
100
AcDbEntity
8
1
62
256
6
ByLayer
370
18
48
1
60
0
100
AcDbLine
10
0.7
20
0
30
0
11
0.7
21
-22.327093
31
0
39
0
210
0
220
0
230
1
0
LINE
5
9A
100
AcDbEntity
8
1
62
256
6
ByLayer
370
18
48
1
60
0
100
AcDbLine
10
0.7
20
22.327093
30
0
11
0.7
21
0
31
0
39
0
210
0
220
0
230
1
0
LINE
5
9B
100
AcDbEntity
8
1
62
256
6
ByLayer
370
18
48
1
60
0
100
AcDbLine
10
14.62761
20
30.700708
30
0
11
18.25
21
30.700708
31
0
39
0
210
0
220
0
230
1
0
LINE
5
9C
100
AcDbEntity
8
1
62
256
6
ByLayer
370
18
48
1
60
0
100
AcDbLine
10
24.18
20
24.82
30
0
11
20.05
21
24.82
31
0
39
0
210
0
220
0
230
1
0
LINE
5
9D
100
AcDbEntity
8
1
62
256
6
ByLayer
370
18
48
1
60
0
100
AcDbLine
10
3.98
20
-30.700708
30
0
11
7.57239
21
-30.700708
31
0
39
0
210
0
220
0
230
1
0
LINE
5
9E
100
AcDbEntity
8
1
62
256
6
ByLayer
370
18
48
1
60
0
100
AcDbLine
10
20.05
20
-23.653139
30
0
11
20.18
21
-23.653139
31
0
39
0
210
0
220
0
230
1
0
LINE
5
9F
100
AcDbEntity
8
1
62
256
6
ByLayer
370
18
48
1
60
0
100
AcDbLine
10
1.266542
20
0
30
0
11
1.266542
21
-22
31
0
39
0
210
0
220
0
230
1
0
LINE
5
A0
100
AcDbEntity
8
1
62
256
6
ByLayer
370
18
48
1
60
0
100
AcDbLine
10
1.266542
20
22
30
0
11
1.266542
21
0
31
0
39
0
210
0
220
0
230
1
0
LINE
5
A1
100
AcDbEntity
8
1
62
256
6
ByLayer
370
18
48
1
60
0
100
AcDbLine
10
7.57239
20
-30.700708
30
0
11
7.57239
21
30.700708
31
0
39
0
210
0
220
0
230
1
0
LINE
5
A2
100
AcDbEntity
8
1
62
256
6
ByLayer
370
18
48
1
60
0
100
AcDbLine
10
13.025
20
26.804309
30
0
11
9.175
21
26.804309
31
0
39
0
210
0
220
0
230
1
0
LINE
5
A3
100
AcDbEntity
8
1
62
256
6
ByLayer
370
13
48
1
60
0
100
AcDbLine
10
94.028971
20
-22.681243
30
0
11
94.028971
21
22.681243
31
0
39
0
210
0
220
0
230
1
0
LINE
5
A4
100
AcDbEntity
8
1
62
256
6
ByLayer
370
18
48
1
60
0
100
AcDbLine
10
14.62761
20
30.700708
30
0
11
14.62761
21
-30.700708
31
0
39
0
210
0
220
0
230
1
0
LINE
5
A5
100
AcDbEntity
8
1
62
256
6
ByLayer
370
18
48
1
60
0
100
AcDbLine
10
3.18
20
-29.732616
30
0
11
3.18
21
29.732616
31
0
39
0
210
0
220
0
230
1
0
LINE
5
A6
100
AcDbEntity
8
1
62
256
6
ByLayer
370
18
48
1
60
0
100
AcDbLine
10
0
20
-22.225
30
0
11
0
21
22.225
31
0
39
0
210
0
220
0
230
1
0
LINE
5
A7
100
AcDbEntity
8
1
62
256
6
ByLayer
370
18
48
1
60
0
100
AcDbLine
10
13.025
20
27.820408
30
0
11
13.025
21
-27.820408
31
0
39
0
210
0
220
0
230
1
0
LINE
5
A8
100
AcDbEntity
8
1
62
256
6
ByLayer
370
18
48
1
60
0
100
AcDbLine
10
9.175
20
27.820408
30
0
11
9.175
21
-27.820408
31
0
39
0
210
0
220
0
230
1
0
LINE
5
A9
100
AcDbEntity
8
1
62
256
6
ByLayer
370
13
48
1
60
0
100
AcDbLine
10
20.05
20
24.82
30
0
11
20.05
21
-23.653139
31
0
39
0
210
0
220
0
230
1
0
LINE
5
AA
100
AcDbEntity
8
1
62
256
6
ByLayer
370
13
48
1
60
0
100
AcDbLine
10
2.83
20
-22
30
0
11
2.83
21
22
31
0
39
0
210
0
220
0
230
1
0
LINE
5
AB
100
AcDbEntity
8
1
62
256
6
ByLayer
370
18
48
1
60
0
100
AcDbLine
10
3.98
20
30.700708
30
0
11
7.57239
21
30.700708
31
0
39
0
210
0
220
0
230
1
0
LINE
5
AC
100
AcDbEntity
8
1
62
256
6
ByLayer
370
18
48
1
60
0
100
AcDbLine
10
19.05
20
29.872621
30
0
11
19.05
21
-29.872621
31
0
39
0
210
0
220
0
230
1
0
LINE
5
AD
100
AcDbEntity
8
1
62
256
6
ByLayer
370
18
48
1
60
0
100
AcDbLine
10
95
20
-21.50329
30
0
11
95
21
21.50329
31
0
39
0
210
0
220
0
230
1
0
LINE
5
AE
100
AcDbEntity
8
1
62
256
6
ByLayer
370
18
48
1
60
0
100
AcDbLine
10
3.98
20
30.700708
30
0
11
3.98
21
-30.700708
31
0
39
0
210
0
220
0
230
1
0
LINE
5
AF
100
AcDbEntity
8
1
62
256
6
ByLayer
370
18
48
1
60
0
100
AcDbLine
10
24.18
20
-24.662339
30
0
11
24.18
21
-25
31
0
39
0
210
0
220
0
230
1
0
LINE
5
B0
100
AcDbEntity
8
1
62
256
6
ByLayer
370
18
48
1
60
0
100
AcDbLine
10
13.025
20
-26.804309
30
0
11
9.175
21
-26.804309
31
0
39
0
210
0
220
0
230
1
0
LINE
5
B1
100
AcDbEntity
8
1
62
256
6
ByLayer
370
13
48
1
60
0
100
AcDbLine
10
80.174219
20
-25
30
0
11
80.174219
21
25
31
0
39
0
210
0
220
0
230
1
0
LINE
5
B2
100
AcDbEntity
8
1
62
256
6
ByLayer
370
18
48
1
60
0
100
AcDbLine
10
25.405
20
-23.22
30
0
11
33.595
21
-23.22
31
0
39
0
210
0
220
0
230
1
0
LINE
5
B3
100
AcDbEntity
8
1
62
256
6
ByLayer
370
18
48
1
60
0
100
AcDbLine
10
24.5
20
-22.315
30
0
11
34.5
21
-22.315
31
0
39
0
210
0
220
0
230
1
0
LINE
5
B4
100
AcDbEntity
8
1
62
256
6
ByLayer
370
13
48
1
60
0
100
AcDbLine
10
33.58
20
-23.22
30
0
11
33.58
21
-21.296875
31
0
39
0
210
0
220
0
230
1
0
LINE
5
B5
100
AcDbEntity
8
1
62
256
6
ByLayer
370
13
48
1
60
0
100
AcDbLine
10
25.42
20
-23.22
30
0
11
25.42
21
-21.265156
31
0
39
0
210
0
220
0
230
1
0
LINE
5
B6
100
AcDbEntity
8
1
62
256
6
ByLayer
370
18
48
1
60
0
100
AcDbLine
10
33.595
20
-23.22
30
0
11
34.5
21
-22.315
31
0
39
0
210
0
220
0
230
1
0
LINE
5
B7
100
AcDbEntity
8
1
62
256
6
ByLayer
370
18
48
1
60
0
100
AcDbLine
10
24.5
20
-22.315
30
0
11
25.405
21
-23.22
31
0
39
0
210
0
220
0
230
1
0
MTEXT
5
D1
100
AcDbEntity
8
SK6
62
256
6
ByLayer
370
18
48
1
60
0
100
AcDbMText
10
-7.125
20
-46.125
30
0
210
0
220
0
230
1
1
\W0.7684;930-V40-S-A25-095
40
3.5
41
0
44
1.084337
50
0
71
7
72
5
7
iso_b_vert
0
MTEXT
5
D5
100
AcDbEntity
8
SK6
62
256
6
ByLayer
370
18
48
1
60
0
100
AcDbMText
10
-72.434211
20
39.125
30
0
210
0
220
0
230
1
1
\W0.2969; 
40
3.5
41
0
44
1.084337
50
0
71
7
72
5
7
iso_b_vert
0
MTEXT
5
D6
100
AcDbEntity
8
SK6
62
256
6
ByLayer
370
18
48
1
60
0
100
AcDbMText
10
-125.440789
20
39.125
30
0
210
0
220
0
230
1
1
\W0.7888;ISO40-ASME B5.50-2009
40
3.5
41
0
44
1.084337
50
0
71
7
72
5
7
iso_b_vert
0
DIMENSION
5
E7
100
AcDbEntity
8
SK2
62
256
6
ByLayer
370
13
48
1
60
0
100
AcDbDimension
2
DimnDraft3D1
10
-106.35
20
-31.75
30
0
11
-107.725
21
-0.663158
31
0
70
33
71
5
72
1
41
1
210
0
220
0
230
1
3
Standard
100
AcDbAlignedDimension
13
-1.5875
23
31.75
33
0
14
-1.5875
24
-31.75
34
0
1001
ACAD
1000
DSTYLE
1002
{
1070
   279
1070
     0
1070
    74
1070
     0
1070
   173
1070
     1
1070
   340
1005
D2
1070
   271
1070
     2
1070
   272
1070
     2
1070
    77
1070
     1
1070
    73
1070
     0
1070
   171
1070
     3
1070
   274
1070
     4
1070
   177
1070
     2
1070
   176
1070
     2
1070
   178
1070
     2
1070
    78
1070
     8
1070
    48
1040
-0.005
1070
    41
1041
4.5
1070
   147
1041
2.25
1070
    42
1041
1.5875
1070
    44
1041
2.0
1070
   140
1041
4.5
1070
   343
1005
0
1070
   344
1005
0
1002
}
0
DIMENSION
5
F2
100
AcDbEntity
8
SK2
62
256
6
ByLayer
370
13
48
1
60
0
100
AcDbDimension
2
DimnDraft3D2
10
149.25
20
-12.7
30
0
11
143.875
21
-0.9
31
0
70
33
71
5
72
1
41
1
210
0
220
0
230
1
3
Standard
100
AcDbAlignedDimension
13
96.5875
23
12.7
33
0
14
96.5875
24
-12.7
34
0
1001
ACAD
1000
DSTYLE
1002
{
1070
   279
1070
     0
1070
    74
1070
     0
1070
   173
1070
     1
1070
   340
1005
D2
1070
   271
1070
     2
1070
   272
1070
     2
1070
    77
1070
     1
1070
    73
1070
     0
1070
   171
1070
     3
1070
   274
1070
     4
1070
   177
1070
     2
1070
   176
1070
     2
1070
   178
1070
     2
1070
    78
1070
     8
1070
    48
1040
-0.005
1070
    41
1041
4.5
1070
   147
1041
2.25
1070
    42
1041
1.5875
1070
    44
1041
2.0
1070
   140
1041
4.5
1070
   343
1005
0
1070
   344
1005
0
1002
}
0
DIMENSION
5
FD
100
AcDbEntity
8
SK2
62
256
6
ByLayer
370
13
48
1
60
0
100
AcDbDimension
2
DimnDraft3D3
10
169.25
20
25
30
0
11
169.25
21
-7.938158
31
0
70
32
71
5
72
1
41
1
210
0
220
0
230
1
3
Standard
100
AcDbAlignedDimension
13
96.5875
23
-25
33
0
14
96.5875
24
25
34
0
50
90
100
AcDbRotatedDimension
1001
ACAD
1000
DSTYLE
1002
{
1070
    74
1070
     0
1070
   279
1070
     0
1070
   172
1070
     1
1070
   173
1070
     1
1070
   340
1005
D2
1070
   271
1070
     1
1070
   272
1070
     2
1070
    77
1070
     1
1070
    73
1070
     0
1070
   171
1070
     3
1070
   274
1070
     4
1070
   177
1070
     2
1070
   176
1070
     2
1070
   178
1070
     2
1070
    78
1070
     8
1070
    48
1040
-0.005
1070
    41
1041
4.5
1070
   147
1041
2.25
1070
    42
1041
1.5875
1070
    44
1041
2.0
1070
   140
1041
4.5
1070
   343
1005
0
1070
   344
1005
0
1002
}
0
DIMENSION
5
107
100
AcDbEntity
8
SK2
62
256
6
ByLayer
370
13
48
1
60
0
100
AcDbDimension
2
DimnDraft3D4
10
95
20
-49.300708
30
0
11
45.373684
21
-49.300708
31
0
70
32
71
5
72
1
41
1
210
0
220
0
230
1
3
Standard
100
AcDbAlignedDimension
13
38
23
-14.2875
33
0
14
95
24
-14.2875
34
0
50
0
100
AcDbRotatedDimension
1001
ACAD
1000
DSTYLE
1002
{
1070
   279
1070
     0
1070
   172
1070
     1
1070
   173
1070
     1
1070
   340
1005
D2
1070
   271
1070
     0
1070
   272
1070
     2
1070
    77
1070
     1
1070
    73
1070
     0
1070
   171
1070
     3
1070
   274
1070
     4
1070
   177
1070
     2
1070
   176
1070
     2
1070
   178
1070
     2
1070
    78
1070
     8
1070
    48
1040
-0.005
1070
    41
1041
4.5
1070
   147
1041
2.25
1070
    42
1041
1.5875
1070
    44
1041
2.0
1070
   140
1041
4.5
1070
   343
1005
0
1070
   344
1005
0
1002
}
0
DIMENSION
5
111
100
AcDbEntity
8
SK2
62
256
6
ByLayer
370
13
48
1
60
0
100
AcDbDimension
2
DimnDraft3D5
10
95
20
-39.300708
30
0
11
83.949342
21
-39.300708
31
0
70
32
71
5
72
1
41
1
210
0
220
0
230
1
3
Standard
100
AcDbAlignedDimension
13
82.1
23
-26.5875
33
0
14
95
24
-26.5875
34
0
50
0
100
AcDbRotatedDimension
1001
ACAD
1000
DSTYLE
1002
{
1070
   279
1070
     0
1070
   172
1070
     1
1070
   173
1070
     1
1070
   340
1005
D2
1070
   271
1070
     1
1070
   272
1070
     2
1070
    77
1070
     1
1070
    73
1070
     0
1070
   171
1070
     3
1070
   274
1070
     4
1070
   177
1070
     2
1070
   176
1070
     2
1070
   178
1070
     2
1070
    78
1070
     8
1070
    48
1040
-0.005
1070
    41
1041
4.5
1070
   147
1041
2.25
1070
    42
1041
1.5875
1070
    44
1041
2.0
1070
   140
1041
4.5
1070
   343
1005
0
1070
   344
1005
0
1002
}
0
DIMENSION
5
11C
100
AcDbEntity
8
2
62
256
6
ByLayer
370
13
48
1
60
0
100
AcDbDimension
2
DimnDraft3D6
10
95
20
69.800708
30
0
11
44.811842
21
69.800708
31
0
70
32
71
5
72
1
41
1
210
0
220
0
230
1
3
Standard
100
AcDbAlignedDimension
13
0
23
33.3375
33
0
14
95
24
26.5875
34
0
50
0
100
AcDbRotatedDimension
1001
ACAD
1000
DSTYLE
1002
{
1070
   279
1070
     0
1070
   172
1070
     1
1070
   173
1070
     1
1070
   340
1005
D2
1070
   271
1070
     1
1070
   272
1070
     2
1070
    77
1070
     1
1070
    73
1070
     0
1070
   171
1070
     3
1070
   274
1070
     4
1070
   177
1070
     2
1070
   176
1070
     2
1070
   178
1070
     2
1070
    78
1070
     8
1070
    48
1040
-0.005
1070
    41
1041
4.5
1070
   147
1041
2.25
1070
    42
1041
1.5875
1070
    44
1041
2.0
1070
   140
1041
4.5
1070
   343
1005
0
1070
   344
1005
0
1002
}
0
DIMENSION
5
126
100
AcDbEntity
8
SK2
62
256
6
ByLayer
370
13
48
1
60
0
100
AcDbDimension
2
DimnDraft3D7
10
-68.25
20
69.800708
30
0
11
-39.288158
21
69.800708
31
0
70
32
71
5
72
1
41
1
210
0
220
0
230
1
3
Standard
100
AcDbAlignedDimension
13
0
23
23.8125
33
0
14
-68.25
24
13.7875
34
0
50
0
100
AcDbRotatedDimension
1001
ACAD
1000
DSTYLE
1002
{
1070
   279
1070
     0
1070
   172
1070
     1
1070
   173
1070
     1
1070
   340
1005
D2
1070
   271
1070
     1
1070
   272
1070
     2
1070
    77
1070
     1
1070
    73
1070
     0
1070
   171
1070
     3
1070
   274
1070
     4
1070
   177
1070
     2
1070
   176
1070
     2
1070
   178
1070
     2
1070
    78
1070
     8
1070
    48
1040
-0.005
1070
    41
1041
4.5
1070
   147
1041
2.25
1070
    42
1041
1.5875
1070
    44
1041
2.0
1070
   140
1041
4.5
1070
   343
1005
0
1070
   344
1005
0
1002
}
0
DIMENSION
5
130
100
AcDbEntity
8
SK2
62
256
6
ByLayer
370
13
48
1
60
0
100
AcDbDimension
2
DimnDraft3D8
10
19.05
20
49.800708
30
0
11
3.242763
21
49.800708
31
0
70
32
71
5
72
1
41
1
210
0
220
0
230
1
3
Standard
100
AcDbAlignedDimension
13
0
23
23.8125
33
0
14
19.05
24
33.3375
34
0
50
0
100
AcDbRotatedDimension
1001
ACAD
1000
DSTYLE
1002
{
1070
   279
1070
     0
1070
   172
1070
     1
1070
   173
1070
     1
1070
   340
1005
D2
1070
   271
1070
     2
1070
   272
1070
     2
1070
    77
1070
     1
1070
    73
1070
     0
1070
   171
1070
     3
1070
   274
1070
     4
1070
   177
1070
     2
1070
   176
1070
     2
1070
   178
1070
     2
1070
    78
1070
     8
1070
    48
1040
-0.005
1070
    41
1041
4.5
1070
   147
1041
2.25
1070
    42
1041
1.5875
1070
    44
1041
2.0
1070
   140
1041
4.5
1070
   343
1005
0
1070
   344
1005
0
1002
}
0
ENDSEC
0
SECTION
2
OBJECTS
0
DICTIONARY
5
19c
330
0
100
AcDbDictionary
280
0
281
1
3
ACAD_GROUP
350
19d
3
ACAD_MLINESTYLE
350
19e
0
DICTIONARY
5
19d
330
0
100
AcDbDictionary
280
0
281
1
0
DICTIONARY
5
19e
330
0
100
AcDbDictionary
280
0
281
1
3
Standard
350
18
0
MLINESTYLE
5
18
330
19e
100
AcDbMlineStyle
2
Standard
70
0
3

62
256
51
90
52
90
71
2
49
-0.5
62
256
6
ByLayer
49
0.5
62
256
6
ByLayer
0
RASTERVARIABLES
5
189
330

100
AcDbRasterVariables
90
0
70
1
71
1
72
1
0
ENDSEC
0
EOF
