0
SECTION
2
HEADER
9
$ACADVER
1
AC1015
9
$DWGCODEPAGE
3
ANSI_1252
9
$HANDSEED
5
19b
9
$ANGBASE
50
0
9
$ANGDIR
70
0
9
$ATTMODE
70
1
9
$AUNITS
70
0
9
$AUPREC
70
0
9
$CECOLOR
62
256
9
$CELTSCALE
40
1
9
$CELTYPE
6
ByLayer
9
$CELWEIGHT
370
-1
9
$CLAYER
8
0
9
$CMLJUST
70
0
9
$CMLSCALE
40
1
9
$CMLSTYLE
2
Standard
9
$DIMSTYLE
2
Standard
9
$TEXTSIZE
40
0.2
9
$TEXTSTYLE
7
Standard
9
$LUNITS
70
2
9
$LUPREC
70
4
9
$EXTNAMES
290
1
9
$INSUNITS
70
4
9
$LTSCALE
40
1
9
$LWDISPLAY
290
0
9
$PDMODE
70
0
9
$PDSIZE
40
0
9
$PLINEGEN
70
0
0
ENDSEC
0
SECTION
2
CLASSES
0
CLASS
1
RASTERVARIABLES
2
AcDbRasterVariables
3
ISM
90
0
280
0
281
0
0
ENDSEC
0
SECTION
2
TABLES
0
TABLE
2
VPORT
5
191
100
AcDbSymbolTable
0
VPORT
5
1
100
AcDbSymbolTableRecord
100
AcDbViewportTableRecord
2
*Active
70
0
10
0
20
0
11
1
21
1
12
-1
22
1
13
0
23
0
14
0.5
24
0.5
15
10
25
10
16
0
26
0
36
1
17
0
27
0
37
0
0
ENDTAB
0
TABLE
2
LTYPE
5
192
100
AcDbSymbolTable
0
LTYPE
5
14
100
AcDbSymbolTableRecord
100
AcDbLinetypeTableRecord
70
0
2
ByBlock
3

72
65
73
0
40
0
0
LTYPE
5
15
100
AcDbSymbolTableRecord
100
AcDbLinetypeTableRecord
70
0
2
ByLayer
3

72
65
73
0
40
0
0
LTYPE
5
16
100
AcDbSymbolTableRecord
100
AcDbLinetypeTableRecord
70
0
2
CONTINUOUS
3
Solid line
72
65
73
0
40
0
0
LTYPE
5
3B
100
AcDbSymbolTableRecord
100
AcDbLinetypeTableRecord
70
0
2
DASHED
3
__ __ __ __ __ __ __ __ __
72
65
73
2
40
25.72
49
12.86
74
0
49
-12.86
74
0
0
LTYPE
5
3C
100
AcDbSymbolTableRecord
100
AcDbLinetypeTableRecord
70
0
2
HIDDEN
3
_ _ _ _ _ _ _ _ _ _ _ _ _ _ _
72
65
73
2
40
0.5
49
0.25
74
0
49
-0.25
74
0
0
LTYPE
5
3D
100
AcDbSymbolTableRecord
100
AcDbLinetypeTableRecord
70
0
2
PHANTOM
3
____ _ _ ____ _ _ _____ _ _ ____
72
65
73
6
40
50.5
49
18
74
0
49
-6.5
74
0
49
6.5
74
0
49
-6.5
74
0
49
6.5
74
0
49
-6.5
74
0
0
LTYPE
5
3E
100
AcDbSymbolTableRecord
100
AcDbLinetypeTableRecord
70
0
2
CENTER
3
____ _ ____ _ ____ _ ____
72
65
73
4
40
47.5
49
22
74
0
49
-8.5
74
0
49
8.5
74
0
49
-8.5
74
0
0
LTYPE
5
3F
100
AcDbSymbolTableRecord
100
AcDbLinetypeTableRecord
70
0
2
DOT
3
.........................
72
65
73
2
40
10
49
0
74
0
49
-10
74
0
0
LTYPE
5
40
100
AcDbSymbolTableRecord
100
AcDbLinetypeTableRecord
70
0
2
DASHDOT
3
_._._._._._._._._._._._._._._._.
72
65
73
4
40
70
49
31
74
0
49
-13
74
0
49
13
74
0
49
-13
74
0
0
ENDTAB
0
TABLE
2
LAYER
5
193
100
AcDbSymbolTable
0
LAYER
5
10
100
AcDbSymbolTableRecord
100
AcDbLayerTableRecord
2
0
70
0
62
7
6
CONTINUOUS
290
1
370
-3
390
0
0
LAYER
5
42
100
AcDbSymbolTableRecord
100
AcDbLayerTableRecord
2
80
70
0
62
-6
6
CONTINUOUS
290
1
370
-3
390
0
0
LAYER
5
44
100
AcDbSymbolTableRecord
100
AcDbLayerTableRecord
2
81
70
0
62
-3
6
CONTINUOUS
290
1
370
-3
390
0
0
LAYER
5
4C
100
AcDbSymbolTableRecord
100
AcDbLayerTableRecord
2
4
70
0
62
-2
6
CENTER
290
1
370
-3
390
0
0
LAYER
5
56
100
AcDbSymbolTableRecord
100
AcDbLayerTableRecord
2
1
70
0
62
4
6
CONTINUOUS
290
1
370
-3
390
0
0
LAYER
5
101
100
AcDbSymbolTableRecord
100
AcDbLayerTableRecord
2
2
70
0
62
7
6
CONTINUOUS
290
1
370
-3
390
0
0
LAYER
5
17c
100
AcDbSymbolTableRecord
100
AcDbLayerTableRecord
2
SK2
70
0
62
7
6
CONTINUOUS
290
1
370
-3
390
0
0
LAYER
5
17d
100
AcDbSymbolTableRecord
100
AcDbLayerTableRecord
2
SK3
70
0
62
1
6
DASHED
290
1
370
-3
390
0
0
LAYER
5
17e
100
AcDbSymbolTableRecord
100
AcDbLayerTableRecord
2
SK4
70
0
62
2
6
CENTER
290
1
370
-3
390
0
0
LAYER
5
17f
100
AcDbSymbolTableRecord
100
AcDbLayerTableRecord
2
SK1
70
0
62
4
6
CONTINUOUS
290
1
370
-3
390
0
0
LAYER
5
180
100
AcDbSymbolTableRecord
100
AcDbLayerTableRecord
2
SK6
70
0
62
5
6
CONTINUOUS
290
1
370
-3
390
0
0
ENDTAB
0
TABLE
2
STYLE
5
194
100
AcDbSymbolTable
0
STYLE
5
11
100
AcDbSymbolTableRecord
100
AcDbTextStyleTableRecord
2
Standard
3
txt
70
0
71
0
40
0
41
1
42
0
50
0
0
STYLE
5
C6
100
AcDbSymbolTableRecord
100
AcDbTextStyleTableRecord
2
DEFAULT
3
simplex.shx
70
0
71
0
40
0
41
1
42
0
50
0
0
STYLE
5
E9
100
AcDbSymbolTableRecord
100
AcDbTextStyleTableRecord
2
DWGDirectTextStyle
3
SIMPLEX
70
0
71
0
40
0
41
1
42
0
50
0
0
ENDTAB
0
TABLE
2
DIMSTYLE
5
195
100
AcDbSymbolTable
100
AcDbDimStyleTable
0
DIMSTYLE
105
27
100
AcDbSymbolTableRecord
100
AcDbDimStyleTableRecord
2
Standard
70
0
3
<>
41
0.18
42
0.0625
44
0.18
140
0.18
147
0.09
73
0
74
0
77
1
271
2
275
0
278
52
280
0
340
11
0
ENDTAB
0
TABLE
2
VIEW
5
196
100
AcDbSymbolTable
0
ENDTAB
0
TABLE
2
UCS
5
197
100
AcDbSymbolTable
0
ENDTAB
0
TABLE
2
APPID
5
198
100
AcDbSymbolTable
0
APPID
5
12
100
AcDbSymbolTableRecord
100
AcDbRegAppTableRecord
2
ACAD
70
0
0
ENDTAB
0
TABLE
2
BLOCK_RECORD
5
199
100
AcDbSymbolTable
0
BLOCK_RECORD
5
1F
100
AcDbSymbolTableRecord
100
AcDbBlockTableRecord
2
*Model_Space
340
0
70
0
0
BLOCK_RECORD
5
1B
100
AcDbSymbolTableRecord
100
AcDbBlockTableRecord
2
*Paper_Space
340
0
70
0
0
BLOCK_RECORD
5
23
100
AcDbSymbolTableRecord
100
AcDbBlockTableRecord
2
*Paper_Space0
340
0
70
0
0
BLOCK_RECORD
5
C4
100
AcDbSymbolTableRecord
100
AcDbBlockTableRecord
2
LABLE3D_1
340
0
70
0
0
BLOCK_RECORD
5
F4
100
AcDbSymbolTableRecord
100
AcDbBlockTableRecord
2
DimnDraft3D1
340
0
70
0
0
BLOCK_RECORD
5
FF
100
AcDbSymbolTableRecord
100
AcDbBlockTableRecord
2
DimnDraft3D2
340
0
70
0
0
BLOCK_RECORD
5
10A
100
AcDbSymbolTableRecord
100
AcDbBlockTableRecord
2
DimnDraft3D3
340
0
70
0
0
BLOCK_RECORD
5
114
100
AcDbSymbolTableRecord
100
AcDbBlockTableRecord
2
DimnDraft3D4
340
0
70
0
0
BLOCK_RECORD
5
11E
100
AcDbSymbolTableRecord
100
AcDbBlockTableRecord
2
DimnDraft3D5
340
0
70
0
0
BLOCK_RECORD
5
128
100
AcDbSymbolTableRecord
100
AcDbBlockTableRecord
2
DimnDraft3D6
340
0
70
0
0
BLOCK_RECORD
5
132
100
AcDbSymbolTableRecord
100
AcDbBlockTableRecord
2
DimnDraft3D7
340
0
70
0
0
BLOCK_RECORD
5
13C
100
AcDbSymbolTableRecord
100
AcDbBlockTableRecord
2
DimnDraft3D8
340
0
70
0
0
BLOCK_RECORD
5
147
100
AcDbSymbolTableRecord
100
AcDbBlockTableRecord
2
DimnDraft3D9
340
0
70
0
0
BLOCK_RECORD
5
152
100
AcDbSymbolTableRecord
100
AcDbBlockTableRecord
2
DimnDraft3D10
340
0
70
0
0
ENDTAB
0
ENDSEC
0
SECTION
2
BLOCKS
0
BLOCK
5
20
100
AcDbEntity
8
0
100
AcDbBlockBegin
2
*Model_Space
70
0
10
0
20
0
30
0
3
*Model_Space
0
ENDBLK
5
21
100
AcDbEntity
8
0
100
AcDbBlockEnd
0
BLOCK
5
1C
100
AcDbEntity
8
0
100
AcDbBlockBegin
2
*Paper_Space
70
0
10
0
20
0
30
0
3
*Paper_Space
0
ENDBLK
5
1D
100
AcDbEntity
8
0
100
AcDbBlockEnd
0
BLOCK
5
24
100
AcDbEntity
8
0
100
AcDbBlockBegin
2
*Paper_Space0
70
0
10
0
20
0
30
0
3
*Paper_Space0
0
ENDBLK
5
25
100
AcDbEntity
8
0
100
AcDbBlockEnd
0
BLOCK
5
EF
100
AcDbEntity
8
0
100
AcDbBlockBegin
2
LABLE3D_1
70
0
10
0
20
0
30
0
3
LABLE3D_1
0
MTEXT
5
C5
100
AcDbEntity
8
SK6
62
256
6
ByLayer
370
-1
48
1
60
0
100
AcDbMText
10
-104.725
20
56.1
30
0
210
0
220
0
230
1
1
\W01.000;\fsimplex.shx,bigfont.shx; 
40
3.5
41
0
44
1.084337
50
0
71
7
72
5
7
DEFAULT
0
LINE
5
EB
100
AcDbEntity
8
SK6
62
256
6
ByLayer
370
-1
48
1
60
0
100
AcDbLine
10
-104.1
20
58.725
30
0
11
-97.023077
21
58.725
31
0
39
0
210
0
220
0
230
1
0
LINE
5
EC
100
AcDbEntity
8
SK6
62
256
6
ByLayer
370
-1
48
1
60
0
100
AcDbLine
10
-71.573827
20
23.911665
30
0
11
-97.023077
21
58.725
31
0
39
0
210
0
220
0
230
1
0
SOLID
5
ED
100
AcDbEntity
8
SK6
62
256
6
ByLayer
370
-1
48
1
60
0
100
AcDbTrace
10
-71.573827
20
23.911665
30
0
11
-75.034872
21
26.95574
31
0
12
-73.42412
22
28.133241
32
0
13
-71.573827
23
23.911665
33
0
39
0
210
0
220
0
230
1
0
ENDBLK
5
F0
100
AcDbEntity
8
0
100
AcDbBlockEnd
0
BLOCK
5
FC
100
AcDbEntity
8
0
100
AcDbBlockBegin
2
DimnDraft3D1
70
0
10
0
20
0
30
0
3
DimnDraft3D1
0
MTEXT
5
F5
100
AcDbEntity
8
SK2
62
256
6
ByLayer
370
-1
48
1
60
0
100
AcDbMText
10
-139.95
20
-1.308553
30
0
210
0
220
0
230
1
1
\W01.000;\fsimplex.shx,bigfont.shx;97,45 
40
4.5
41
0
44
1.084337
50
90
71
7
72
5
7
DEFAULT
0
MTEXT
5
F6
100
AcDbEntity
8
SK2
62
256
6
ByLayer
370
-1
48
1
60
0
100
AcDbMText
10
-139.95
20
-10.308553
30
0
210
0
220
0
230
1
1
\W01.000;\fsimplex.shx,bigfont.shx;%%c 
40
4.5
41
0
44
1.084337
50
90
71
7
72
5
7
DEFAULT
0
LINE
5
F7
100
AcDbEntity
8
SK2
62
256
6
ByLayer
370
-1
48
1
60
0
100
AcDbLine
10
-1.5875
20
48.725
30
0
11
-139.7
21
48.725
31
0
39
0
210
0
220
0
230
1
0
LINE
5
F8
100
AcDbEntity
8
SK2
62
256
6
ByLayer
370
-1
48
1
60
0
100
AcDbLine
10
-1.5875
20
-48.725
30
0
11
-139.7
21
-48.725
31
0
39
0
210
0
220
0
230
1
0
LINE
5
F9
100
AcDbEntity
8
SK2
62
256
6
ByLayer
370
-1
48
1
60
0
100
AcDbLine
10
-137.7
20
48.725
30
0
11
-137.7
21
-48.725
31
0
39
0
210
0
220
0
230
1
0
SOLID
5
FA
100
AcDbEntity
8
SK2
62
256
6
ByLayer
370
-1
48
1
60
0
100
AcDbTrace
10
-137.7
20
48.725
30
0
11
-136.702374
21
44.225004
31
0
12
-138.697626
22
44.224996
32
0
13
-137.7
23
48.725
33
0
39
0
210
0
220
0
230
1
0
SOLID
5
FB
100
AcDbEntity
8
SK2
62
256
6
ByLayer
370
-1
48
1
60
0
100
AcDbTrace
10
-137.7
20
-48.725
30
0
11
-138.697626
21
-44.225004
31
0
12
-136.702374
22
-44.224996
32
0
13
-137.7
23
-48.725
33
0
39
0
210
0
220
0
230
1
0
ENDBLK
5
FD
100
AcDbEntity
8
0
100
AcDbBlockEnd
0
BLOCK
5
107
100
AcDbEntity
8
0
100
AcDbBlockBegin
2
DimnDraft3D2
70
0
10
0
20
0
30
0
3
DimnDraft3D2
0
MTEXT
5
100
100
AcDbEntity
8
2
62
256
6
ByLayer
370
-1
48
1
60
0
100
AcDbMText
10
42.996053
20
87.265138
30
0
210
0
220
0
230
1
1
\W01.000;\fsimplex.shx,bigfont.shx;89 
40
4.5
41
0
44
1.084337
50
0
71
7
72
5
7
DEFAULT
0
LINE
5
102
100
AcDbEntity
8
2
62
256
6
ByLayer
370
-1
48
1
60
0
100
AcDbLine
10
0
20
50.3125
30
0
11
0
21
88.140138
31
0
39
0
210
0
220
0
230
1
0
LINE
5
103
100
AcDbEntity
8
2
62
256
6
ByLayer
370
-1
48
1
60
0
100
AcDbLine
10
89
20
22.5875
30
0
11
89
21
88.140138
31
0
39
0
210
0
220
0
230
1
0
LINE
5
104
100
AcDbEntity
8
2
62
256
6
ByLayer
370
-1
48
1
60
0
100
AcDbLine
10
0
20
86.140138
30
0
11
89
21
86.140138
31
0
39
0
210
0
220
0
230
1
0
SOLID
5
105
100
AcDbEntity
8
2
62
256
6
ByLayer
370
-1
48
1
60
0
100
AcDbTrace
10
0
20
86.140138
30
0
11
4.499996
21
87.137764
31
0
12
4.500004
22
85.142512
32
0
13
0
23
86.140138
33
0
39
0
210
0
220
0
230
1
0
SOLID
5
106
100
AcDbEntity
8
2
62
256
6
ByLayer
370
-1
48
1
60
0
100
AcDbTrace
10
89
20
86.140138
30
0
11
84.500004
21
85.142512
31
0
12
84.499996
22
87.137764
32
0
13
89
23
86.140138
33
0
39
0
210
0
220
0
230
1
0
ENDBLK
5
108
100
AcDbEntity
8
0
100
AcDbBlockEnd
0
BLOCK
5
111
100
AcDbEntity
8
0
100
AcDbBlockBegin
2
DimnDraft3D3
70
0
10
0
20
0
30
0
3
DimnDraft3D3
0
MTEXT
5
10B
100
AcDbEntity
8
SK2
62
256
6
ByLayer
370
-1
48
1
60
0
100
AcDbMText
10
80.058553
20
-54.516555
30
0
210
0
220
0
230
1
1
\W01.000;\fsimplex.shx,bigfont.shx;16 
40
4.5
41
0
44
1.084337
50
0
71
7
72
5
7
DEFAULT
0
LINE
5
10C
100
AcDbEntity
8
SK2
62
256
6
ByLayer
370
-1
48
1
60
0
100
AcDbLine
10
73
20
-22.5875
30
0
11
73
21
-57.641555
31
0
39
0
210
0
220
0
230
1
0
LINE
5
10D
100
AcDbEntity
8
SK2
62
256
6
ByLayer
370
-1
48
1
60
0
100
AcDbLine
10
89
20
-22.5875
30
0
11
89
21
-57.641555
31
0
39
0
210
0
220
0
230
1
0
LINE
5
10E
100
AcDbEntity
8
SK2
62
256
6
ByLayer
370
-1
48
1
60
0
100
AcDbLine
10
61.75
20
-55.641555
30
0
11
100.25
21
-55.641555
31
0
39
0
210
0
220
0
230
1
0
SOLID
5
10F
100
AcDbEntity
8
SK2
62
256
6
ByLayer
370
-1
48
1
60
0
100
AcDbTrace
10
73
20
-55.641555
30
0
11
68.500004
21
-56.639181
31
0
12
68.499996
22
-54.643929
32
0
13
73
23
-55.641555
33
0
39
0
210
0
220
0
230
1
0
SOLID
5
110
100
AcDbEntity
8
SK2
62
256
6
ByLayer
370
-1
48
1
60
0
100
AcDbTrace
10
89
20
-55.641555
30
0
11
93.499996
21
-54.643929
31
0
12
93.500004
22
-56.639181
32
0
13
89
23
-55.641555
33
0
39
0
210
0
220
0
230
1
0
ENDBLK
5
112
100
AcDbEntity
8
0
100
AcDbBlockEnd
0
BLOCK
5
11B
100
AcDbEntity
8
0
100
AcDbBlockBegin
2
DimnDraft3D4
70
0
10
0
20
0
30
0
3
DimnDraft3D4
0
MTEXT
5
115
100
AcDbEntity
8
SK2
62
256
6
ByLayer
370
-1
48
1
60
0
100
AcDbMText
10
4.515789
20
67.265138
30
0
210
0
220
0
230
1
1
\W01.000;\fsimplex.shx,bigfont.shx;19,05 
40
4.5
41
0
44
1.084337
50
0
71
7
72
5
7
DEFAULT
0
LINE
5
116
100
AcDbEntity
8
SK2
62
256
6
ByLayer
370
-1
48
1
60
0
100
AcDbLine
10
0
20
36.5125
30
0
11
0
21
68.140138
31
0
39
0
210
0
220
0
230
1
0
LINE
5
117
100
AcDbEntity
8
SK2
62
256
6
ByLayer
370
-1
48
1
60
0
100
AcDbLine
10
19.05
20
50.3125
30
0
11
19.05
21
68.140138
31
0
39
0
210
0
220
0
230
1
0
LINE
5
118
100
AcDbEntity
8
SK2
62
256
6
ByLayer
370
-1
48
1
60
0
100
AcDbLine
10
-11.25
20
66.140138
30
0
11
30.3
21
66.140138
31
0
39
0
210
0
220
0
230
1
0
SOLID
5
119
100
AcDbEntity
8
SK2
62
256
6
ByLayer
370
-1
48
1
60
0
100
AcDbTrace
10
0
20
66.140138
30
0
11
-4.499996
21
65.142512
31
0
12
-4.500004
22
67.137764
32
0
13
0
23
66.140138
33
0
39
0
210
0
220
0
230
1
0
SOLID
5
11A
100
AcDbEntity
8
SK2
62
256
6
ByLayer
370
-1
48
1
60
0
100
AcDbTrace
10
19.05
20
66.140138
30
0
11
23.549996
21
67.137764
31
0
12
23.550004
22
65.142512
32
0
13
19.05
23
66.140138
33
0
39
0
210
0
220
0
230
1
0
ENDBLK
5
11C
100
AcDbEntity
8
0
100
AcDbBlockEnd
0
BLOCK
5
125
100
AcDbEntity
8
0
100
AcDbBlockBegin
2
DimnDraft3D5
70
0
10
0
20
0
30
0
3
DimnDraft3D5
0
MTEXT
5
11F
100
AcDbEntity
8
SK2
62
256
6
ByLayer
370
-1
48
1
60
0
100
AcDbMText
10
62.558553
20
67.265138
30
0
210
0
220
0
230
1
1
\W01.000;\fsimplex.shx,bigfont.shx;51 
40
4.5
41
0
44
1.084337
50
0
71
7
72
5
7
DEFAULT
0
LINE
5
120
100
AcDbEntity
8
SK2
62
256
6
ByLayer
370
-1
48
1
60
0
100
AcDbLine
10
89
20
22.5875
30
0
11
89
21
68.140138
31
0
39
0
210
0
220
0
230
1
0
LINE
5
121
100
AcDbEntity
8
SK2
62
256
6
ByLayer
370
-1
48
1
60
0
100
AcDbLine
10
38
20
22.5875
30
0
11
38
21
68.140138
31
0
39
0
210
0
220
0
230
1
0
LINE
5
122
100
AcDbEntity
8
SK2
62
256
6
ByLayer
370
-1
48
1
60
0
100
AcDbLine
10
89
20
66.140138
30
0
11
38
21
66.140138
31
0
39
0
210
0
220
0
230
1
0
SOLID
5
123
100
AcDbEntity
8
SK2
62
256
6
ByLayer
370
-1
48
1
60
0
100
AcDbTrace
10
89
20
66.140138
30
0
11
84.500004
21
65.142512
31
0
12
84.499996
22
67.137764
32
0
13
89
23
66.140138
33
0
39
0
210
0
220
0
230
1
0
SOLID
5
124
100
AcDbEntity
8
SK2
62
256
6
ByLayer
370
-1
48
1
60
0
100
AcDbTrace
10
38
20
66.140138
30
0
11
42.499996
21
67.137764
31
0
12
42.500004
22
65.142512
32
0
13
38
23
66.140138
33
0
39
0
210
0
220
0
230
1
0
ENDBLK
5
126
100
AcDbEntity
8
0
100
AcDbBlockEnd
0
BLOCK
5
12F
100
AcDbEntity
8
0
100
AcDbBlockBegin
2
DimnDraft3D6
70
0
10
0
20
0
30
0
3
DimnDraft3D6
0
MTEXT
5
129
100
AcDbEntity
8
SK2
62
256
6
ByLayer
370
-1
48
1
60
0
100
AcDbMText
10
-55.246711
20
87.265138
30
0
210
0
220
0
230
1
1
\W01.000;\fsimplex.shx,bigfont.shx;101,6 
40
4.5
41
0
44
1.084337
50
0
71
7
72
5
7
DEFAULT
0
LINE
5
12A
100
AcDbEntity
8
SK2
62
256
6
ByLayer
370
-1
48
1
60
0
100
AcDbLine
10
0
20
36.5125
30
0
11
0
21
88.140138
31
0
39
0
210
0
220
0
230
1
0
LINE
5
12B
100
AcDbEntity
8
SK2
62
256
6
ByLayer
370
-1
48
1
60
0
100
AcDbLine
10
-101.6
20
13.7875
30
0
11
-101.6
21
88.140138
31
0
39
0
210
0
220
0
230
1
0
LINE
5
12C
100
AcDbEntity
8
SK2
62
256
6
ByLayer
370
-1
48
1
60
0
100
AcDbLine
10
0
20
86.140138
30
0
11
-101.6
21
86.140138
31
0
39
0
210
0
220
0
230
1
0
SOLID
5
12D
100
AcDbEntity
8
SK2
62
256
6
ByLayer
370
-1
48
1
60
0
100
AcDbTrace
10
0
20
86.140138
30
0
11
-4.499996
21
85.142512
31
0
12
-4.500004
22
87.137764
32
0
13
0
23
86.140138
33
0
39
0
210
0
220
0
230
1
0
SOLID
5
12E
100
AcDbEntity
8
SK2
62
256
6
ByLayer
370
-1
48
1
60
0
100
AcDbTrace
10
-101.6
20
86.140138
30
0
11
-97.100004
21
87.137764
31
0
12
-97.099996
22
85.142512
32
0
13
-101.6
23
86.140138
33
0
39
0
210
0
220
0
230
1
0
ENDBLK
5
130
100
AcDbEntity
8
0
100
AcDbBlockEnd
0
BLOCK
5
139
100
AcDbEntity
8
0
100
AcDbBlockBegin
2
DimnDraft3D7
70
0
10
0
20
0
30
0
3
DimnDraft3D7
0
MTEXT
5
133
100
AcDbEntity
8
SK2
62
256
6
ByLayer
370
-1
48
1
60
0
100
AcDbMText
10
45.008553
20
-64.516555
30
0
210
0
220
0
230
1
1
\W01.000;\fsimplex.shx,bigfont.shx;min 41-max 51 
40
4.5
41
0
44
1.084337
50
0
71
7
72
5
7
DEFAULT
0
LINE
5
134
100
AcDbEntity
8
SK2
62
256
6
ByLayer
370
-1
48
1
60
0
100
AcDbLine
10
38
20
-11.5875
30
0
11
38
21
-67.641555
31
0
39
0
210
0
220
0
230
1
0
LINE
5
135
100
AcDbEntity
8
SK2
62
256
6
ByLayer
370
-1
48
1
60
0
100
AcDbLine
10
89
20
-11.5875
30
0
11
89
21
-67.641555
31
0
39
0
210
0
220
0
230
1
0
LINE
5
136
100
AcDbEntity
8
SK2
62
256
6
ByLayer
370
-1
48
1
60
0
100
AcDbLine
10
26.75
20
-65.641555
30
0
11
100.25
21
-65.641555
31
0
39
0
210
0
220
0
230
1
0
SOLID
5
137
100
AcDbEntity
8
SK2
62
256
6
ByLayer
370
-1
48
1
60
0
100
AcDbTrace
10
38
20
-65.641555
30
0
11
33.500004
21
-66.639181
31
0
12
33.499996
22
-64.643929
32
0
13
38
23
-65.641555
33
0
39
0
210
0
220
0
230
1
0
SOLID
5
138
100
AcDbEntity
8
SK2
62
256
6
ByLayer
370
-1
48
1
60
0
100
AcDbTrace
10
89
20
-65.641555
30
0
11
93.499996
21
-64.643929
31
0
12
93.500004
22
-66.639181
32
0
13
89
23
-65.641555
33
0
39
0
210
0
220
0
230
1
0
ENDBLK
5
13A
100
AcDbEntity
8
0
100
AcDbBlockEnd
0
BLOCK
5
144
100
AcDbEntity
8
0
100
AcDbBlockBegin
2
DimnDraft3D8
70
0
10
0
20
0
30
0
3
DimnDraft3D8
0
MTEXT
5
13D
100
AcDbEntity
8
SK2
62
256
6
ByLayer
370
-1
48
1
60
0
100
AcDbMText
10
151.25
20
3.509211
30
0
210
0
220
0
230
1
1
\W01.000;\fsimplex.shx,bigfont.shx;42 
40
4.5
41
0
44
1.084337
50
90
71
7
72
5
7
DEFAULT
0
MTEXT
5
13E
100
AcDbEntity
8
SK2
62
256
6
ByLayer
370
-1
48
1
60
0
100
AcDbMText
10
151
20
-7.240789
30
0
210
0
220
0
230
1
1
\W01.000;\fsimplex.shx,bigfont.shx;%%c 
40
3.5
41
0
44
1.084337
50
90
71
7
72
5
7
DEFAULT
0
LINE
5
13F
100
AcDbEntity
8
SK2
62
256
6
ByLayer
370
-1
48
1
60
0
100
AcDbLine
10
90.5875
20
-21
30
0
11
155.25
21
-21
31
0
39
0
210
0
220
0
230
1
0
LINE
5
140
100
AcDbEntity
8
SK2
62
256
6
ByLayer
370
-1
48
1
60
0
100
AcDbLine
10
90.5875
20
21
30
0
11
155.25
21
21
31
0
39
0
210
0
220
0
230
1
0
LINE
5
141
100
AcDbEntity
8
SK2
62
256
6
ByLayer
370
-1
48
1
60
0
100
AcDbLine
10
153.25
20
-21
30
0
11
153.25
21
21
31
0
39
0
210
0
220
0
230
1
0
SOLID
5
142
100
AcDbEntity
8
SK2
62
256
6
ByLayer
370
-1
48
1
60
0
100
AcDbTrace
10
153.25
20
-21
30
0
11
152.252374
21
-16.500004
31
0
12
154.247626
22
-16.499996
32
0
13
153.25
23
-21
33
0
39
0
210
0
220
0
230
1
0
SOLID
5
143
100
AcDbEntity
8
SK2
62
256
6
ByLayer
370
-1
48
1
60
0
100
AcDbTrace
10
153.25
20
21
30
0
11
154.247626
21
16.500004
31
0
12
152.252374
22
16.499996
32
0
13
153.25
23
21
33
0
39
0
210
0
220
0
230
1
0
ENDBLK
5
145
100
AcDbEntity
8
0
100
AcDbBlockEnd
0
BLOCK
5
14F
100
AcDbEntity
8
0
100
AcDbBlockBegin
2
DimnDraft3D9
70
0
10
0
20
0
30
0
3
DimnDraft3D9
0
MTEXT
5
148
100
AcDbEntity
8
SK2
62
256
6
ByLayer
370
-1
48
1
60
0
100
AcDbMText
10
139.25
20
3.746053
30
0
210
0
220
0
230
1
1
\W01.000;\fsimplex.shx,bigfont.shx;20 
40
4.5
41
0
44
1.084337
50
90
71
7
72
5
7
DEFAULT
0
MTEXT
5
149
100
AcDbEntity
8
SK2
62
256
6
ByLayer
370
-1
48
1
60
0
100
AcDbMText
10
139
20
-7.003947
30
0
210
0
220
0
230
1
1
\W01.000;\fsimplex.shx,bigfont.shx;%%c 
40
3.5
41
0
44
1.084337
50
90
71
7
72
5
7
DEFAULT
0
LINE
5
14A
100
AcDbEntity
8
SK2
62
256
6
ByLayer
370
-1
48
1
60
0
100
AcDbLine
10
90.5875
20
10
30
0
11
143.25
21
10
31
0
39
0
210
0
220
0
230
1
0
LINE
5
14B
100
AcDbEntity
8
SK2
62
256
6
ByLayer
370
-1
48
1
60
0
100
AcDbLine
10
90.5875
20
-10
30
0
11
143.25
21
-10
31
0
39
0
210
0
220
0
230
1
0
LINE
5
14C
100
AcDbEntity
8
SK2
62
256
6
ByLayer
370
-1
48
1
60
0
100
AcDbLine
10
141.25
20
21.25
30
0
11
141.25
21
-21.25
31
0
39
0
210
0
220
0
230
1
0
SOLID
5
14D
100
AcDbEntity
8
SK2
62
256
6
ByLayer
370
-1
48
1
60
0
100
AcDbTrace
10
141.25
20
10
30
0
11
140.252374
21
14.499996
31
0
12
142.247626
22
14.500004
32
0
13
141.25
23
10
33
0
39
0
210
0
220
0
230
1
0
SOLID
5
14E
100
AcDbEntity
8
SK2
62
256
6
ByLayer
370
-1
48
1
60
0
100
AcDbTrace
10
141.25
20
-10
30
0
11
142.247626
21
-14.499996
31
0
12
140.252374
22
-14.500004
32
0
13
141.25
23
-10
33
0
39
0
210
0
220
0
230
1
0
ENDBLK
5
150
100
AcDbEntity
8
0
100
AcDbBlockEnd
0
BLOCK
5
15A
100
AcDbEntity
8
0
100
AcDbBlockBegin
2
DimnDraft3D10
70
0
10
0
20
0
30
0
3
DimnDraft3D10
0
MTEXT
5
153
100
AcDbEntity
8
SK2
62
256
6
ByLayer
370
-1
48
1
60
0
100
AcDbMText
10
171.25
20
3.746053
30
0
210
0
220
0
230
1
1
\W01.000;\fsimplex.shx,bigfont.shx;50 
40
4.5
41
0
44
1.084337
50
90
71
7
72
5
7
DEFAULT
0
MTEXT
5
154
100
AcDbEntity
8
SK2
62
256
6
ByLayer
370
-1
48
1
60
0
100
AcDbMText
10
171
20
-7.003947
30
0
210
0
220
0
230
1
1
\W01.000;\fsimplex.shx,bigfont.shx;%%c 
40
3.5
41
0
44
1.084337
50
90
71
7
72
5
7
DEFAULT
0
LINE
5
155
100
AcDbEntity
8
SK2
62
256
6
ByLayer
370
-1
48
1
60
0
100
AcDbLine
10
39.5875
20
25
30
0
11
175.25
21
25
31
0
39
0
210
0
220
0
230
1
0
LINE
5
156
100
AcDbEntity
8
SK2
62
256
6
ByLayer
370
-1
48
1
60
0
100
AcDbLine
10
39.5875
20
-25
30
0
11
175.25
21
-25
31
0
39
0
210
0
220
0
230
1
0
LINE
5
157
100
AcDbEntity
8
SK2
62
256
6
ByLayer
370
-1
48
1
60
0
100
AcDbLine
10
173.25
20
25
30
0
11
173.25
21
-25
31
0
39
0
210
0
220
0
230
1
0
SOLID
5
158
100
AcDbEntity
8
SK2
62
256
6
ByLayer
370
-1
48
1
60
0
100
AcDbTrace
10
173.25
20
25
30
0
11
174.247626
21
20.500004
31
0
12
172.252374
22
20.499996
32
0
13
173.25
23
25
33
0
39
0
210
0
220
0
230
1
0
SOLID
5
159
100
AcDbEntity
8
SK2
62
256
6
ByLayer
370
-1
48
1
60
0
100
AcDbTrace
10
173.25
20
-25
30
0
11
172.252374
21
-20.500004
31
0
12
174.247626
22
-20.499996
32
0
13
173.25
23
-25
33
0
39
0
210
0
220
0
230
1
0
ENDBLK
5
15B
100
AcDbEntity
8
0
100
AcDbBlockEnd
0
ENDSEC
0
SECTION
2
ENTITIES
0
ARC
5
A1
100
AcDbEntity
8
1
62
256
6
ByLayer
370
-1
48
1
60
0
100
AcDbCircle
39
0
10
-1.3
20
35.125
30
0
40
0.5
210
0
220
0
230
-1
100
AcDbArc
50
246.421412
51
270
0
ARC
5
A2
100
AcDbEntity
8
1
62
256
6
ByLayer
370
-1
48
1
60
0
100
AcDbCircle
39
0
10
-1.3
20
-35.125
30
0
40
0.5
210
0
220
0
230
-1
100
AcDbArc
50
90
51
113.578588
0
ARC
5
A3
100
AcDbEntity
8
1
62
256
6
ByLayer
370
-1
48
1
60
0
100
AcDbCircle
39
0
10
-21.55
20
-27.5
30
0
40
2.5
210
0
220
0
230
-1
100
AcDbArc
50
0
51
90
0
ARC
5
A4
100
AcDbEntity
8
1
62
256
6
ByLayer
370
-1
48
1
60
0
100
AcDbCircle
39
0
10
-21.55
20
27.5
30
0
40
2.5
210
0
220
0
230
-1
100
AcDbArc
50
270
51
0
0
ARC
5
A5
100
AcDbEntity
8
1
62
256
6
ByLayer
370
-1
48
1
60
0
100
AcDbCircle
39
0
10
35.843912
20
24
30
0
40
1
210
0
220
0
230
1
100
AcDbArc
50
20
51
90
0
ARC
5
A6
100
AcDbEntity
8
1
62
256
6
ByLayer
370
-1
48
1
60
0
100
AcDbCircle
39
0
10
35.843912
20
-24
30
0
40
1
210
0
220
0
230
1
100
AcDbArc
50
270
51
340
0
ARC
5
A7
100
AcDbEntity
8
1
62
256
6
ByLayer
370
-1
48
1
60
0
100
AcDbCircle
39
0
10
-39.750519
20
-23.5
30
0
40
2.5
210
0
220
0
230
-1
100
AcDbArc
50
20
51
90
0
ARC
5
A8
100
AcDbEntity
8
1
62
256
6
ByLayer
370
-1
48
1
60
0
100
AcDbCircle
39
0
10
-39.750519
20
23.5
30
0
40
2.5
210
0
220
0
230
-1
100
AcDbArc
50
270
51
340
0
ARC
5
A9
100
AcDbEntity
8
1
62
256
6
ByLayer
370
-1
48
1
60
0
100
AcDbCircle
39
0
10
71.776748
20
1
30
0
40
20
210
0
220
0
230
1
100
AcDbArc
50
83
51
90
0
ARC
5
AA
100
AcDbEntity
8
1
62
256
6
ByLayer
370
-1
48
1
60
0
100
AcDbCircle
39
0
10
71.776748
20
-1
30
0
40
20
210
0
220
0
230
1
100
AcDbArc
50
270
51
277
0
ARC
5
AB
100
AcDbEntity
8
1
62
256
6
ByLayer
370
-1
48
1
60
0
100
AcDbCircle
39
0
10
87.8
20
-17.973777
30
0
40
1.19999999999999
210
0
220
0
230
1
100
AcDbArc
50
277
51
0
0
ARC
5
AC
100
AcDbEntity
8
1
62
256
6
ByLayer
370
-1
48
1
60
0
100
AcDbCircle
39
0
10
87.8
20
17.973777
30
0
40
1.19999999999999
210
0
220
0
230
1
100
AcDbArc
50
0
51
83
0
ARC
5
AD
100
AcDbEntity
8
SK1
62
256
6
ByLayer
370
-1
48
1
60
0
100
AcDbCircle
39
0
10
-99.1
20
17.94535
30
0
40
2.5
210
0
220
0
230
1
100
AcDbArc
50
98.297778
51
180
0
ARC
5
AE
100
AcDbEntity
8
SK1
62
256
6
ByLayer
370
-1
48
1
60
0
100
AcDbCircle
39
0
10
-99.1
20
-17.94535
30
0
40
2.5
210
0
220
0
230
1
100
AcDbArc
50
180
51
261.702222
0
ELLIPSE
5
AF
100
AcDbEntity
8
1
62
256
6
ByLayer
370
-1
48
1
60
0
100
AcDbEllipse
10
17.1025
20
0
30
0
11
-8.95034173613799E-15
21
-48.7250002593415
31
0
210
0
220
0
230
1
40
1
41
-0.304369954969638
42
-0.267999066138742
0
ELLIPSE
5
B0
100
AcDbEntity
8
1
62
256
6
ByLayer
370
-1
48
1
60
0
100
AcDbEllipse
10
17.102501
20
-2E-06
30
0
11
13.7283614567473
21
-46.7510202160126
31
0
210
0
220
0
230
1
40
1
41
3.12397223673618
42
-3.12284218217197
0
POINT
5
41
100
AcDbEntity
8
80
62
256
6
ByLayer
370
-1
48
1
60
0
100
AcDbPoint
10
0
20
0
30
0
39
0
210
0
220
0
230
1
50
360
0
POINT
5
43
100
AcDbEntity
8
81
62
256
6
ByLayer
370
-1
48
1
60
0
100
AcDbPoint
10
89
20
0
30
0
39
0
210
0
220
0
230
1
50
360
0
POINT
5
45
100
AcDbEntity
8
SK2
62
256
6
ByLayer
370
-1
48
1
60
1
100
AcDbPoint
10
0
20
48.725
30
0
39
0
210
0
220
0
230
1
50
360
0
POINT
5
47
100
AcDbEntity
8
SK2
62
256
6
ByLayer
370
-1
48
1
60
1
100
AcDbPoint
10
0
20
-48.725
30
0
39
0
210
0
220
0
230
1
50
360
0
SPLINE
5
B1
100
AcDbEntity
8
1
62
256
6
ByLayer
370
-1
48
1
60
0
100
AcDbSpline
70
4
71
3
72
12
73
8
40
0
40
0
40
0
40
0
40
0.250000000000002
40
0.250000000000002
40
0.500000000000004
40
0.500000000000004
40
1
40
1
40
1
40
1
41
1
10
18.55
20
-46.8466993879102
30
0
41
1
10
18.5127408256894
20
-46.8690119614669
30
0
41
1
10
18.4740616966571
20
-46.8888627426426
30
0
41
1
10
18.3937736003167
20
-46.9234848095461
30
0
41
1
10
18.3519936340927
20
-46.9382691065043
30
0
41
1
10
18.2252103056264
20
-46.9736333767017
30
0
41
1
10
18.1369967747356
20
-46.985648008195
30
0
41
1
10
18.05
20
-46.985648008195
30
0
0
SPLINE
5
B2
100
AcDbEntity
8
1
62
256
6
ByLayer
370
-1
48
1
60
0
100
AcDbSpline
70
4
71
3
72
8
73
4
40
0
40
0
40
0
40
0
40
1
40
1
40
1
40
1
41
1
10
14.3331615074619
20
46.985648008195
30
0
41
1
10
13.8964943143064
20
46.201319828429
30
0
41
1
10
13.4604099870949
20
45.4166648448567
30
0
41
1
10
13.025
20
44.6316317693424
30
0
0
SPLINE
5
B3
100
AcDbEntity
8
1
62
256
6
ByLayer
370
-1
48
1
60
0
100
AcDbSpline
70
4
71
3
72
20
73
16
40
0
40
0
40
0
40
0
40
0.25
40
0.25
40
0.5
40
0.5
40
0.625
40
0.625
40
0.75
40
0.75
40
0.875
40
0.875
40
0.9375
40
0.9375
40
1
40
1
40
1
40
1
41
1
10
2.49999999999952
20
46.4854022113393
30
0
41
1
10
2.37855986799875
20
46.4472541166002
30
0
41
1
10
2.26199443147775
20
46.3876662115247
30
0
41
1
10
2.03817383293853
20
46.2275420959166
30
0
41
1
10
1.93502049034385
20
46.129893916426
30
0
41
1
10
1.79561288762142
20
45.9553460576934
30
0
41
1
10
1.75135855146266
20
45.8917513270327
30
0
41
1
10
1.67105659757982
20
45.7560705663876
30
0
41
1
10
1.63500630064291
20
45.6842385585428
30
0
41
1
10
1.57292678968125
20
45.5308199581717
30
0
41
1
10
1.54693632559275
20
45.4488552487342
30
0
41
1
10
1.51972901026593
20
45.3222574401304
30
0
41
1
10
1.51254587551242
20
45.2792469601151
30
0
41
1
10
1.50264149292673
20
45.1913068132722
30
0
41
1
10
1.5
20
45.1467115785817
30
0
41
1
10
1.5
20
45.1025234188731
30
0
0
SPLINE
5
B4
100
AcDbEntity
8
1
62
256
6
ByLayer
370
-1
48
1
60
0
100
AcDbSpline
70
4
71
3
72
24
73
20
40
0
40
0
40
0
40
0
40
0.125
40
0.125
40
0.25
40
0.25
40
0.375
40
0.375
40
0.5
40
0.5
40
0.625
40
0.625
40
0.75
40
0.75
40
0.874999999999999
40
0.874999999999999
40
0.9375
40
0.9375
40
1
40
1
40
1
40
1
41
1
10
1.49999499949999
20
29.85
30
0
41
1
10
1.50000500050001
20
29.85
30
0
41
1
10
1.50505632298504
20
29.85
30
0
41
1
10
1.52565947444216
20
29.85
30
0
41
1
10
1.54101753844654
20
29.85
30
0
41
1
10
1.58204200318903
20
29.85
30
0
41
1
10
1.60769688429437
20
29.85
30
0
41
1
10
1.67057050868039
20
29.85
30
0
41
1
10
1.70800264138535
20
29.85
30
0
41
1
10
1.79310423358658
20
29.85
30
0
41
1
10
1.84101413752319
20
29.85
30
0
41
1
10
1.94958881757324
20
29.85
30
0
41
1
10
2.00888642200812
20
29.85
30
0
41
1
10
2.13706863735078
20
29.85
30
0
41
1
10
2.20705174637863
20
29.85
30
0
41
1
10
2.31429824175251
20
29.85
30
0
41
1
10
2.35062492221951
20
29.85
30
0
41
1
10
2.42448160994058
20
29.85
30
0
41
1
10
2.46233145029208
20
29.85
30
0
41
1
10
2.5
20
29.85
30
0
0
SPLINE
5
B5
100
AcDbEntity
8
1
62
256
6
ByLayer
370
-1
48
1
60
0
100
AcDbSpline
70
4
71
3
72
8
73
4
40
0
40
0
40
0
40
0
40
1
40
1
40
1
40
1
41
1
10
14.3331615074619
20
-46.985648008195
30
0
41
1
10
13.896491947075
20
-46.2013155764808
30
0
41
1
10
13.4604048315294
20
-45.4166555495038
30
0
41
1
10
13.025
20
-44.6316317693424
30
0
0
SPLINE
5
B6
100
AcDbEntity
8
1
62
256
6
ByLayer
370
-1
48
1
60
0
100
AcDbSpline
70
4
71
3
72
20
73
16
40
0
40
0
40
0
40
0
40
0.25
40
0.25
40
0.5
40
0.5
40
0.625
40
0.625
40
0.75
40
0.75
40
0.875
40
0.875
40
0.9375
40
0.9375
40
1
40
1
40
1
40
1
41
1
10
2.49999999999997
20
-46.4854022113395
30
0
41
1
10
2.37855986799914
20
-46.4472541166004
30
0
41
1
10
2.26199443147812
20
-46.387666211525
30
0
41
1
10
2.03817383293878
20
-46.2275420959169
30
0
41
1
10
1.93502049034407
20
-46.1298939164263
30
0
41
1
10
1.79561288762159
20
-45.9553460576936
30
0
41
1
10
1.7513585514628
20
-45.8917513270329
30
0
41
1
10
1.67105659757991
20
-45.7560705663878
30
0
41
1
10
1.635006300643
20
-45.6842385585429
30
0
41
1
10
1.5729267896813
20
-45.5308199581719
30
0
41
1
10
1.54693632559278
20
-45.4488552487343
30
0
41
1
10
1.51972901026596
20
-45.3222574401305
30
0
41
1
10
1.51254587551242
20
-45.2792469601152
30
0
41
1
10
1.50264149292673
20
-45.1913068132723
30
0
41
1
10
1.5
20
-45.1467115785817
30
0
41
1
10
1.5
20
-45.1025234188731
30
0
0
SPLINE
5
B7
100
AcDbEntity
8
1
62
256
6
ByLayer
370
-1
48
1
60
0
100
AcDbSpline
70
4
71
3
72
8
73
4
40
0
40
0
40
0
40
0
40
1
40
1
40
1
40
1
41
1
10
9.17499999999998
20
44.6316317693424
30
0
41
1
10
8.73959001290507
20
45.4166648448567
30
0
41
1
10
8.30350568569358
20
46.201319828429
30
0
41
1
10
7.86683849253808
20
46.985648008195
30
0
0
SPLINE
5
B8
100
AcDbEntity
8
1
62
256
6
ByLayer
370
-1
48
1
60
0
100
AcDbSpline
70
4
71
3
72
12
73
8
40
0
40
0
40
0
40
0
40
0.499999999999995
40
0.499999999999995
40
0.749999999999997
40
0.749999999999997
40
1
40
1
40
1
40
1
41
1
10
18.55
20
46.8466993879102
30
0
41
1
10
18.4746833516725
20
46.8918025950249
30
0
41
1
10
18.3946356603237
20
46.9263783884607
30
0
41
1
10
18.2672253937918
20
46.9619120978752
30
0
41
1
10
18.2238751842048
20
46.9708555715446
30
0
41
1
10
18.1372722262454
20
46.9826836721836
30
0
41
1
10
18.0937480258462
20
46.9856480081951
30
0
41
1
10
18.0499999999996
20
46.9856480081951
30
0
0
SPLINE
5
B9
100
AcDbEntity
8
1
62
256
6
ByLayer
370
-1
48
1
60
0
100
AcDbSpline
70
4
71
3
72
8
73
4
40
0
40
0
40
0
40
0
40
1
40
1
40
1
40
1
41
1
10
9.17499999999998
20
-44.6316317693424
30
0
41
1
10
8.73959516847066
20
-45.4166555495038
30
0
41
1
10
8.30350805292497
20
-46.2013155764808
30
0
41
1
10
7.86683849253808
20
-46.985648008195
30
0
0
SPLINE
5
BA
100
AcDbEntity
8
1
62
256
6
ByLayer
370
-1
48
1
60
0
100
AcDbSpline
70
4
71
3
72
24
73
20
40
0
40
0
40
0
40
0
40
0.125
40
0.125
40
0.25
40
0.25
40
0.375
40
0.375
40
0.5
40
0.5
40
0.625
40
0.625
40
0.75
40
0.75
40
0.875000000000001
40
0.875000000000001
40
0.9375
40
0.9375
40
1
40
1
40
1
40
1
41
1
10
1.5
20
37.2377916235644
30
0
41
1
10
1.5
20
37.3121412139801
30
0
41
1
10
1.50505632298504
20
37.3869943529888
30
0
41
1
10
1.52565947444216
20
37.5355722329689
30
0
41
1
10
1.54101753844654
20
37.6082872292638
30
0
41
1
10
1.58204200318903
20
37.7505085242901
30
0
41
1
10
1.60769688429437
20
37.8200184087618
30
0
41
1
10
1.67057050868039
20
37.9554386701082
30
0
41
1
10
1.70800264138535
20
38.021414866548
30
0
41
1
10
1.79310423358658
20
38.1438145666492
30
0
41
1
10
1.84101413752319
20
38.2009418295785
30
0
41
1
10
1.94958881757324
20
38.3055034495002
30
0
41
1
10
2.00888642200812
20
38.3515105742438
30
0
41
1
10
2.13706863735078
20
38.4281893864592
30
0
41
1
10
2.20705174637863
20
38.4591109120609
30
0
41
1
10
2.31429824175251
20
38.4899341442302
30
0
41
1
10
2.35062492221951
20
38.4977655602303
30
0
41
1
10
2.42448160994058
20
38.5083410378514
30
0
41
1
10
2.46233145029208
20
38.5110779516752
30
0
41
1
10
2.5
20
38.5110779516752
30
0
0
SPLINE
5
BB
100
AcDbEntity
8
1
62
256
6
ByLayer
370
-1
48
1
60
0
100
AcDbSpline
70
4
71
3
72
8
73
4
40
0
40
0
40
0
40
0
40
1
40
1
40
1
40
1
41
1
10
7.86683849253808
20
38.5110779516752
30
0
41
1
10
8.3083000553242
20
37.5436476269089
30
0
41
1
10
8.74467082598238
20
36.5737280025764
30
0
41
1
10
9.17500000000001
20
35.6010471846569
30
0
0
SPLINE
5
BC
100
AcDbEntity
8
1
62
256
6
ByLayer
370
-1
48
1
60
0
100
AcDbSpline
70
4
71
3
72
18
73
14
40
0
40
0
40
0
40
0
40
0.125000000000003
40
0.125000000000003
40
0.250000000000006
40
0.250000000000006
40
0.375000000000008
40
0.375000000000008
40
0.500000000000011
40
0.500000000000011
40
0.750000000000006
40
0.750000000000006
40
1
40
1
40
1
40
1
41
1
10
19.05
20
-45.8044606861603
30
0
41
1
10
19.05
20
-45.8597817041904
30
0
41
1
10
19.0458115305281
20
-45.914274939299
30
0
41
1
10
19.0304331187673
20
-46.0217509316125
30
0
41
1
10
19.0191154045975
20
-46.0749874098063
30
0
41
1
10
18.991189561833
20
-46.1768537142374
30
0
41
1
10
18.9745397313226
20
-46.2259361552558
30
0
41
1
10
18.9366743998154
20
-46.3209562575147
30
0
41
1
10
18.9153041047874
20
-46.3671565902656
30
0
41
1
10
18.8461216102585
20
-46.4993001181468
30
0
41
1
10
18.793680608103
20
-46.5786161002885
30
0
41
1
10
18.6788241271583
20
-46.7233901370801
30
0
41
1
10
18.6160618545513
20
-46.7889436627629
30
0
41
1
10
18.55
20
-46.8466993879103
30
0
0
SPLINE
5
BD
100
AcDbEntity
8
1
62
256
6
ByLayer
370
-1
48
1
60
0
100
AcDbSpline
70
4
71
3
72
24
73
20
40
0
40
0
40
0
40
0
40
0.0625458671624444
40
0.0625458671624444
40
0.125091734324889
40
0.125091734324889
40
0.250183468649775
40
0.250183468649775
40
0.375275202974661
40
0.375275202974661
40
0.500366937299548
40
0.500366937299548
40
0.625458671624434
40
0.625458671624434
40
0.750550405949321
40
0.750550405949321
40
0.875642140274207
40
0.875642140274207
40
1
40
1
40
1
40
1
41
1
10
18.05
20
29.85
30
0
41
1
10
18.0873498329033
20
29.85
30
0
41
1
10
18.1252504470733
20
29.85
30
0
41
1
10
18.1993258385087
20
29.85
30
0
41
1
10
18.235739418569
20
29.85
30
0
41
1
10
18.3431875039723
20
29.85
30
0
41
1
10
18.4128883912491
20
29.85
30
0
41
1
10
18.5409528000483
20
29.85
30
0
41
1
10
18.6008098549009
20
29.85
30
0
41
1
10
18.7085794865175
20
29.85
30
0
41
1
10
18.7566207953578
20
29.85
30
0
41
1
10
18.8424094198612
20
29.85
30
0
41
1
10
18.8792410137628
20
29.85
30
0
41
1
10
18.9417989914295
20
29.85
30
0
41
1
10
18.967662609558
20
29.85
30
0
41
1
10
19.0092063619519
20
29.85
30
0
41
1
10
19.0245742686391
20
29.85
30
0
41
1
10
19.0448655124865
20
29.85
30
0
41
1
10
19.0499511523759
20
29.8500000000001
30
0
41
1
10
19.0499950000005
20
29.8499999999999
30
0
0
SPLINE
5
BE
100
AcDbEntity
8
1
62
256
6
ByLayer
370
-1
48
1
60
0
100
AcDbSpline
70
4
71
3
72
8
73
4
40
0
40
0
40
0
40
0
40
1
40
1
40
1
40
1
41
1
10
13.025
20
29.85
30
0
41
1
10
13.4553291740176
20
29.85
30
0
41
1
10
13.8916999446758
20
29.85
30
0
41
1
10
14.3331615074619
20
29.85
30
0
0
SPLINE
5
BF
100
AcDbEntity
8
1
62
256
6
ByLayer
370
-1
48
1
60
0
100
AcDbSpline
70
4
71
3
72
8
73
4
40
0
40
0
40
0
40
0
40
1
40
1
40
1
40
1
41
1
10
13.025
20
35.6010471846569
30
0
41
1
10
13.4553291740176
20
36.5737280025764
30
0
41
1
10
13.8916999446758
20
37.5436476269089
30
0
41
1
10
14.3331615074619
20
38.5110779516752
30
0
0
SPLINE
5
C0
100
AcDbEntity
8
1
62
256
6
ByLayer
370
-1
48
1
60
0
100
AcDbSpline
70
4
71
3
72
18
73
14
40
0
40
0
40
0
40
0
40
0.125000000000003
40
0.125000000000003
40
0.250000000000006
40
0.250000000000006
40
0.375000000000009
40
0.375000000000009
40
0.500000000000013
40
0.500000000000013
40
0.750000000000006
40
0.750000000000006
40
1
40
1
40
1
40
1
41
1
10
19.05
20
45.8044606861603
30
0
41
1
10
19.05
20
45.8597817041904
30
0
41
1
10
19.0458115305281
20
45.914274939299
30
0
41
1
10
19.0304331187673
20
46.0217509316125
30
0
41
1
10
19.0191154045975
20
46.0749874098062
30
0
41
1
10
18.991189561833
20
46.1768537142374
30
0
41
1
10
18.9745397313226
20
46.2259361552557
30
0
41
1
10
18.9366743998154
20
46.3209562575147
30
0
41
1
10
18.9153041047874
20
46.3671565902656
30
0
41
1
10
18.8461216102585
20
46.4993001181468
30
0
41
1
10
18.793680608103
20
46.5786161002885
30
0
41
1
10
18.6788241271583
20
46.7233901370801
30
0
41
1
10
18.6160618545513
20
46.7889436627629
30
0
41
1
10
18.55
20
46.8466993879103
30
0
0
SPLINE
5
C1
100
AcDbEntity
8
1
62
256
6
ByLayer
370
-1
48
1
60
0
100
AcDbSpline
70
4
71
3
72
116
73
112
40
-0.0312500000000001
40
-0.0312500000000001
40
0
40
0
40
0.0312499999999998
40
0.0312499999999998
40
0.0624999999999996
40
0.0624999999999996
40
0.0781249999999995
40
0.0781249999999995
40
0.0937499999999994
40
0.0937499999999994
40
0.124999999999999
40
0.124999999999999
40
0.140624999999999
40
0.140624999999999
40
0.156249999999999
40
0.156249999999999
40
0.187499999999999
40
0.187499999999999
40
0.203124999999998
40
0.203124999999998
40
0.218749999999998
40
0.218749999999998
40
0.234374999999998
40
0.234374999999998
40
0.249999999999997
40
0.249999999999997
40
0.265624999999997
40
0.265624999999997
40
0.273437499999997
40
0.273437499999997
40
0.281249999999996
40
0.281249999999996
40
0.312499999999995
40
0.312499999999995
40
0.328124999999995
40
0.328124999999995
40
0.343749999999995
40
0.343749999999995
40
0.359374999999995
40
0.359374999999995
40
0.367187499999995
40
0.367187499999995
40
0.374999999999994
40
0.374999999999994
40
0.406249999999994
40
0.406249999999994
40
0.421874999999995
40
0.421874999999995
40
0.437499999999995
40
0.437499999999995
40
0.468749999999996
40
0.468749999999996
40
0.484374999999996
40
0.484374999999996
40
0.499999999999996
40
0.499999999999996
40
0.531249999999997
40
0.531249999999997
40
0.546874999999997
40
0.546874999999997
40
0.554687499999997
40
0.554687499999997
40
0.562499999999997
40
0.562499999999997
40
0.593749999999997
40
0.593749999999997
40
0.609374999999997
40
0.609374999999997
40
0.624999999999997
40
0.624999999999997
40
0.656249999999997
40
0.656249999999997
40
0.671874999999997
40
0.671874999999997
40
0.687499999999997
40
0.687499999999997
40
0.718749999999997
40
0.718749999999997
40
0.726562499999997
40
0.726562499999997
40
0.734374999999997
40
0.734374999999997
40
0.749999999999998
40
0.749999999999998
40
0.765624999999998
40
0.765624999999998
40
0.773437499999998
40
0.773437499999998
40
0.781249999999999
40
0.781249999999999
40
0.812499999999999
40
0.812499999999999
40
0.828124999999999
40
0.828124999999999
40
0.843749999999999
40
0.843749999999999
40
0.859374999999999
40
0.859374999999999
40
0.874999999999999
40
0.874999999999999
40
0.906249999999999
40
0.906249999999999
40
0.921874999999999
40
0.921874999999999
40
0.9375
40
0.9375
40
0.953125
40
0.953125
40
0.96875
40
0.96875
40
1
40
1
40
1.03125
40
1.03125
41
1
10
24.75
20
-22.3689735770985
30
0
41
1
10
24.75
20
-22.0269721837477
30
0
41
1
10
24.7808118367499
20
-21.8516038646982
30
0
41
1
10
24.897169414056
20
-21.4928356821103
30
0
41
1
10
24.9827580809529
20
-21.3094312274767
30
0
41
1
10
25.1518430597583
20
-21.0291187891908
30
0
41
1
10
25.2152014910297
20
-20.9345912722457
30
0
41
1
10
25.3553665736649
20
-20.7449833198463
30
0
41
1
10
25.4315098401822
20
-20.65075765397
30
0
41
1
10
25.6778460022029
20
-20.370262601346
30
0
41
1
10
25.8657376530849
20
-20.1861018942244
30
0
41
1
10
26.1854982948819
20
-19.9169915079185
30
0
41
1
10
26.2984535378123
20
-19.8284923204688
30
0
41
1
10
26.5382379394257
20
-19.654655296318
30
0
41
1
10
26.6639063242046
20
-19.570194465134
30
0
41
1
10
27.0565632918573
20
-19.3270148649863
30
0
41
1
10
27.3398982392076
20
-19.1775783779899
30
0
41
1
10
27.803818344975
20
-18.9800382770534
30
0
41
1
10
27.9654302284704
20
-18.9186435238087
30
0
41
1
10
28.2949597461164
20
-18.8094121915628
30
0
41
1
10
28.4637751307593
20
-18.7611493882127
30
0
41
1
10
28.8101048343194
20
-18.6787323988437
30
0
41
1
10
28.98761576778
20
-18.6445730359237
30
0
41
1
10
29.3522783770783
20
-18.5922501732288
30
0
41
1
10
29.535239695257
20
-18.5747197064666
30
0
41
1
10
29.9014476012168
20
-18.5569770849292
30
0
41
1
10
30.0848536389219
20
-18.5567423394031
30
0
41
1
10
30.3604202104996
20
-18.5694721331936
30
0
41
1
10
30.4523521023057
20
-18.5758976292735
30
0
41
1
10
30.6363708079591
20
-18.5931586391864
30
0
41
1
10
30.7284705047993
20
-18.6040190375094
30
0
41
1
10
31.1819944515331
20
-18.6682298008096
30
0
41
1
10
31.5287447680452
20
-18.7515094612535
30
0
41
1
10
32.0277555523022
20
-18.9161272110853
30
0
41
1
10
32.1880433930809
20
-18.9768571479792
30
0
41
1
10
32.4959817817426
20
-19.1074266755417
30
0
41
1
10
32.6439810723101
20
-19.1773897198841
30
0
41
1
10
32.929090105528
20
-19.3253185310103
30
0
41
1
10
33.0661960555891
20
-19.4032881304753
30
0
41
1
10
33.2641303463912
20
-19.5255128013299
30
0
41
1
10
33.3289341612827
20
-19.5672191997514
30
0
41
1
10
33.4548467301121
20
-19.6515023116912
30
0
41
1
10
33.5160843054314
20
-19.6941522371341
30
0
41
1
10
33.8140934775844
20
-19.9096538707997
30
0
41
1
10
34.0266258648349
20
-20.0891356568017
30
0
41
1
10
34.3105374469153
20
-20.3651902095549
30
0
41
1
10
34.3993020016819
20
-20.4583718935429
30
0
41
1
10
34.5651201539336
20
-20.6466699174982
30
0
41
1
10
34.6420342313054
20
-20.7417077256121
30
0
41
1
10
34.8515772356646
20
-21.0244594624021
30
0
41
1
10
34.9646545176185
20
-21.2113809218543
30
0
41
1
10
35.0944024258772
20
-21.488137136812
30
0
41
1
10
35.130960336625
20
-21.5797915309133
30
0
41
1
10
35.1901215778256
20
-21.7617629535306
30
0
41
1
10
35.2126690476976
20
-21.8521984731513
30
0
41
1
10
35.2574700939512
20
-22.1162802378457
30
0
41
1
10
35.2577484039918
20
-22.2844341082227
30
0
41
1
10
35.2118091833094
20
-22.5250398147826
30
0
41
1
10
35.1887247176963
20
-22.6033026347834
30
0
41
1
10
35.1417288858271
20
-22.7178032675465
30
0
41
1
10
35.1239985312072
20
-22.7554877916361
30
0
41
1
10
35.0842405533515
20
-22.8298935796753
30
0
41
1
10
35.0621780710927
20
-22.8666405982052
30
0
41
1
10
34.9422259785377
20
-23.0458195781292
30
0
41
1
10
34.814803626082
20
-23.1764323890899
30
0
41
1
10
34.5750346162963
20
-23.3554711442162
30
0
41
1
10
34.4869590711903
20
-23.4123272616252
30
0
41
1
10
34.2936140109905
20
-23.5206501593255
30
0
41
1
10
34.187592899445
20
-23.5723938374389
30
0
41
1
10
33.8497688655685
20
-23.7165917956997
30
0
41
1
10
33.5975931531294
20
-23.7989484055413
30
0
41
1
10
33.1783687058758
20
-23.9053944932108
30
0
41
1
10
33.0317287887925
20
-23.9380111608451
30
0
41
1
10
32.7240900400858
20
-23.9978174061644
30
0
41
1
10
32.5660274781634
20
-24.0244417906595
30
0
41
1
10
32.0795085871336
20
-24.0956364628028
30
0
41
1
10
31.7388586999772
20
-24.1316560595129
30
0
41
1
10
31.2919433052646
20
-24.1641223896767
30
0
41
1
10
31.2014348449306
20
-24.1699753963868
30
0
41
1
10
31.0205407863304
20
-24.1802939391217
30
0
41
1
10
30.9298755894619
20
-24.1847815437132
30
0
41
1
10
30.6572366683596
20
-24.1963091299307
30
0
41
1
10
30.4746214482184
20
-24.2014235200694
30
0
41
1
10
30.1076929082595
20
-24.2066930453745
30
0
41
1
10
29.9233796926732
20
-24.2068484882223
30
0
41
1
10
29.6456014966281
20
-24.2032634232413
30
0
41
1
10
29.5525152123642
20
-24.2014201526781
30
0
41
1
10
29.3678609166826
20
-24.1964683493305
30
0
41
1
10
29.276175803126
20
-24.1933624872764
30
0
41
1
10
28.8208974803505
20
-24.174691965837
30
0
41
1
10
28.4666391187692
20
-24.1498910562464
30
0
41
1
10
27.9503182231511
20
-24.0957944536837
30
0
41
1
10
27.7804593705438
20
-24.0748207653568
30
0
41
1
10
27.4539896882097
20
-24.0276557466055
30
0
41
1
10
27.2963174906176
20
-24.0013707174811
30
0
41
1
10
26.9918617243255
20
-23.9429553356829
30
0
41
1
10
26.8450788757653
20
-23.9108256557021
30
0
41
1
10
26.5625084181347
20
-23.8400471931447
30
0
41
1
10
26.4262189872192
20
-23.8011867347441
30
0
41
1
10
26.0428474623778
20
-23.6764246220391
30
0
41
1
10
25.8181854037569
20
-23.5818536017634
30
0
41
1
10
25.5255477061855
20
-23.4199792128268
30
0
41
1
10
25.43504376974
20
-23.3623275373821
30
0
41
1
10
25.2719621209118
20
-23.2418245780615
30
0
41
1
10
25.1991393352666
20
-23.1789328745088
30
0
41
1
10
25.0700345804998
20
-23.0476537191928
30
0
41
1
10
25.0137553241169
20
-22.9792664033101
30
0
41
1
10
24.9172979624391
20
-22.836723300135
30
0
41
1
10
24.8770378035468
20
-22.7623576268481
30
0
41
1
10
24.7809143313512
20
-22.5315419326316
30
0
41
1
10
24.75
20
-22.3689735770985
30
0
41
1
10
24.75
20
-22.0269721837477
30
0
0
SPLINE
5
C2
100
AcDbEntity
8
1
62
256
6
ByLayer
370
-1
48
1
60
0
100
AcDbSpline
70
4
71
3
72
24
73
20
40
0
40
0
40
0
40
0
40
0.062500000000001
40
0.062500000000001
40
0.125000000000002
40
0.125000000000002
40
0.250000000000002
40
0.250000000000002
40
0.375000000000001
40
0.375000000000001
40
0.500000000000001
40
0.500000000000001
40
0.625000000000001
40
0.625000000000001
40
0.750000000000001
40
0.750000000000001
40
0.875
40
0.875
40
1
40
1
40
1
40
1
41
1
10
18.05
20
38.5110779516752
30
0
41
1
10
18.0873498329033
20
38.5110779516752
30
0
41
1
10
18.1252504470733
20
38.5083718116755
30
0
41
1
10
18.1993258385087
20
38.4977801710271
30
0
41
1
10
18.235739418569
20
38.4899284415963
30
0
41
1
10
18.3431875039723
20
38.4590318853741
30
0
41
1
10
18.4128883912491
20
38.4282038849305
30
0
41
1
10
18.5409528000482
20
38.3516179411486
30
0
41
1
10
18.6008098549009
20
38.3051189894718
30
0
41
1
10
18.7085794865175
20
38.201333708324
30
0
41
1
10
18.7566207953578
20
38.1442229769622
30
0
41
1
10
18.8424094198612
20
38.0208092618357
30
0
41
1
10
18.8792410137628
20
37.9557390404173
30
0
41
1
10
18.9417989914295
20
37.8212086347043
30
0
41
1
10
18.967662609558
20
37.7515094599359
30
0
41
1
10
19.0092063619519
20
37.6075340804891
30
0
41
1
10
19.0245742686391
20
37.5341503648294
30
0
41
1
10
19.0449252088291
20
37.3868609845721
30
0
41
1
10
19.05
20
37.3126219620441
30
0
41
1
10
19.05
20
37.2377916235644
30
0
0
SPLINE
5
C3
100
AcDbEntity
8
1
62
256
6
ByLayer
370
-1
48
1
60
0
100
AcDbSpline
70
4
71
3
72
8
73
4
40
0
40
0
40
0
40
0
40
1
40
1
40
1
40
1
41
1
10
7.86683849253808
20
29.85
30
0
41
1
10
8.3083000553242
20
29.85
30
0
41
1
10
8.74467082598238
20
29.85
30
0
41
1
10
9.17499999999998
20
29.85
30
0
0
INSERT
5
EE
100
AcDbEntity
8
SK6
62
256
6
ByLayer
370
-1
48
1
60
0
100
AcDbBlockReference
2
LABLE3D_1
10
0
20
0
30
0
41
1
42
1
43
1
50
0
210
0
220
0
230
1
0
LINE
5
48
100
AcDbEntity
8
SK3
62
256
6
ByLayer
370
-1
48
0.05
60
0
100
AcDbLine
10
38
20
8.5
30
0
11
38
21
-8.5
31
0
39
0
210
0
220
0
230
1
0
LINE
5
4A
100
AcDbEntity
8
SK3
62
256
6
ByLayer
370
-1
48
0.05
60
0
100
AcDbLine
10
39.5
20
-10
30
0
11
89
21
-10
31
0
39
0
210
0
220
0
230
1
0
LINE
5
4B
100
AcDbEntity
8
4
62
256
6
ByLayer
370
-1
48
0.05
60
0
100
AcDbLine
10
89
20
0
30
0
11
0
21
0
31
0
39
0
210
0
220
0
230
1
0
LINE
5
4D
100
AcDbEntity
8
80
62
256
6
ByLayer
370
-1
48
1
60
0
100
AcDbLine
10
0
20
0
30
0
11
-10.875929
21
0
31
0
39
0
210
0
220
0
230
1
0
LINE
5
4E
100
AcDbEntity
8
SK3
62
256
6
ByLayer
370
-1
48
0.05
60
0
100
AcDbLine
10
89
20
10
30
0
11
39.5
21
10
31
0
39
0
210
0
220
0
230
1
0
LINE
5
4F
100
AcDbEntity
8
SK3
62
256
6
ByLayer
370
-1
48
0.05
60
0
100
AcDbLine
10
39.5
20
10
30
0
11
38
21
8.5
31
0
39
0
210
0
220
0
230
1
0
LINE
5
50
100
AcDbEntity
8
SK3
62
256
6
ByLayer
370
-1
48
0.05
60
0
100
AcDbLine
10
38
20
-8.5
30
0
11
39.5
21
-10
31
0
39
0
210
0
220
0
230
1
0
LINE
5
51
100
AcDbEntity
8
SK3
62
256
6
ByLayer
370
-1
48
0.05
60
0
100
AcDbLine
10
39.5
20
-10
30
0
11
39.5
21
10
31
0
39
0
210
0
220
0
230
1
0
LINE
5
52
100
AcDbEntity
8
81
62
256
6
ByLayer
370
-1
48
1
60
0
100
AcDbLine
10
89
20
0
30
0
11
93.742527
21
0
31
0
39
0
210
0
220
0
230
1
0
LINE
5
53
100
AcDbEntity
8
SK4
62
256
6
ByLayer
370
-1
48
0.05
60
0
100
AcDbLine
10
-111.6
20
0
30
0
11
99
21
0
31
0
39
0
210
0
220
0
230
1
0
LINE
5
55
100
AcDbEntity
8
1
62
256
6
ByLayer
370
-1
48
1
60
0
100
AcDbLine
10
14.333162
20
46.985648
30
0
11
14.333162
21
38.511078
31
0
39
0
210
0
220
0
230
1
0
LINE
5
57
100
AcDbEntity
8
1
62
256
6
ByLayer
370
-1
48
1
60
0
100
AcDbLine
10
13.025
20
-44.631632
30
0
11
13.025
21
29.85
31
0
39
0
210
0
220
0
230
1
0
LINE
5
58
100
AcDbEntity
8
1
62
256
6
ByLayer
370
-1
48
1
60
0
100
AcDbLine
10
9.175
20
29.85
30
0
11
13.025
21
29.85
31
0
39
0
210
0
220
0
230
1
0
LINE
5
59
100
AcDbEntity
8
1
62
256
6
ByLayer
370
-1
48
1
60
0
100
AcDbLine
10
13.025
20
35.601047
30
0
11
13.025
21
44.631632
31
0
39
0
210
0
220
0
230
1
0
LINE
5
5A
100
AcDbEntity
8
1
62
256
6
ByLayer
370
-1
48
1
60
0
100
AcDbLine
10
37.401287
20
-22.64495
30
0
11
37.401287
21
22.64495
31
0
39
0
210
0
220
0
230
1
0
LINE
5
5B
100
AcDbEntity
8
1
62
256
6
ByLayer
370
-1
48
1
60
0
100
AcDbLine
10
39.750519
20
-21
30
0
11
39.750519
21
0
31
0
39
0
210
0
220
0
230
1
0
LINE
5
5C
100
AcDbEntity
8
1
62
256
6
ByLayer
370
-1
48
1
60
0
100
AcDbLine
10
39.750519
20
0
30
0
11
39.750519
21
21
31
0
39
0
210
0
220
0
230
1
0
LINE
5
5D
100
AcDbEntity
8
1
62
256
6
ByLayer
370
-1
48
1
60
0
100
AcDbLine
10
0
20
-34.925
30
0
11
0
21
34.925
31
0
39
0
210
0
220
0
230
1
0
LINE
5
5E
100
AcDbEntity
8
1
62
256
6
ByLayer
370
-1
48
1
60
0
100
AcDbLine
10
7.866838
20
38.511078
30
0
11
7.866838
21
46.985648
31
0
39
0
210
0
220
0
230
1
0
LINE
5
5F
100
AcDbEntity
8
1
62
256
6
ByLayer
370
-1
48
1
60
0
100
AcDbLine
10
1.5
20
-45.102523
30
0
11
1.5
21
29.85
31
0
39
0
210
0
220
0
230
1
0
LINE
5
60
100
AcDbEntity
8
1
62
256
6
ByLayer
370
-1
48
1
60
0
100
AcDbLine
10
74.214134
20
-20.850923
30
0
11
74.214134
21
0
31
0
39
0
210
0
220
0
230
1
0
LINE
5
61
100
AcDbEntity
8
1
62
256
6
ByLayer
370
-1
48
1
60
0
100
AcDbLine
10
74.214134
20
0
30
0
11
74.214134
21
20.850923
31
0
39
0
210
0
220
0
230
1
0
LINE
5
62
100
AcDbEntity
8
1
62
256
6
ByLayer
370
-1
48
1
60
0
100
AcDbLine
10
35.843912
20
25
30
0
11
35.843912
21
-25
31
0
39
0
210
0
220
0
230
1
0
LINE
5
63
100
AcDbEntity
8
1
62
256
6
ByLayer
370
-1
48
1
60
0
100
AcDbLine
10
14.333162
20
29.85
30
0
11
14.333162
21
-46.985648
31
0
39
0
210
0
220
0
230
1
0
LINE
5
64
100
AcDbEntity
8
1
62
256
6
ByLayer
370
-1
48
1
60
0
100
AcDbLine
10
13.025
20
34.339882
30
0
11
13.025
21
35.601047
31
0
39
0
210
0
220
0
230
1
0
LINE
5
65
100
AcDbEntity
8
1
62
256
6
ByLayer
370
-1
48
1
60
0
100
AcDbLine
10
13.025
20
43.632276
30
0
11
9.175
21
43.632276
31
0
39
0
210
0
220
0
230
1
0
LINE
5
66
100
AcDbEntity
8
1
62
256
6
ByLayer
370
-1
48
1
60
0
100
AcDbLine
10
9.175
20
35.601047
30
0
11
9.175
21
34.339882
31
0
39
0
210
0
220
0
230
1
0
LINE
5
67
100
AcDbEntity
8
1
62
256
6
ByLayer
370
-1
48
1
60
0
100
AcDbLine
10
9.175
20
35.601047
30
0
11
9.175
21
44.631632
31
0
39
0
210
0
220
0
230
1
0
LINE
5
68
100
AcDbEntity
8
1
62
256
6
ByLayer
370
-1
48
1
60
0
100
AcDbLine
10
9.175
20
34.339882
30
0
11
13.025
21
34.339882
31
0
39
0
210
0
220
0
230
1
0
LINE
5
69
100
AcDbEntity
8
1
62
256
6
ByLayer
370
-1
48
1
60
0
100
AcDbLine
10
2.5
20
46.485402
30
0
11
2.5
21
38.511078
31
0
39
0
210
0
220
0
230
1
0
LINE
5
6A
100
AcDbEntity
8
1
62
256
6
ByLayer
370
-1
48
1
60
0
100
AcDbLine
10
36.783604
20
24.34202
30
0
11
36.783604
21
-24.34202
31
0
39
0
210
0
220
0
230
1
0
LINE
5
6B
100
AcDbEntity
8
1
62
256
6
ByLayer
370
-1
48
1
60
0
100
AcDbLine
10
71.776748
20
21
30
0
11
71.776748
21
-21
31
0
39
0
210
0
220
0
230
1
0
LINE
5
6C
100
AcDbEntity
8
1
62
256
6
ByLayer
370
-1
48
1
60
0
100
AcDbLine
10
19.05
20
45.804461
30
0
11
19.05
21
37.237792
31
0
39
0
210
0
220
0
230
1
0
LINE
5
6D
100
AcDbEntity
8
1
62
256
6
ByLayer
370
-1
48
1
60
0
100
AcDbLine
10
4.2
20
46.985648
30
0
11
7.866838
21
46.985648
31
0
39
0
210
0
220
0
230
1
0
LINE
5
6E
100
AcDbEntity
8
1
62
256
6
ByLayer
370
-1
48
1
60
0
100
AcDbLine
10
21.55
20
-25
30
0
11
21.55
21
0
31
0
39
0
210
0
220
0
230
1
0
LINE
5
6F
100
AcDbEntity
8
1
62
256
6
ByLayer
370
-1
48
1
60
0
100
AcDbLine
10
21.55
20
0
30
0
11
21.55
21
25
31
0
39
0
210
0
220
0
230
1
0
LINE
5
70
100
AcDbEntity
8
1
62
256
6
ByLayer
370
-1
48
1
60
0
100
AcDbLine
10
18.05
20
29.85
30
0
11
14.333162
21
29.85
31
0
39
0
210
0
220
0
230
1
0
LINE
5
71
100
AcDbEntity
8
1
62
256
6
ByLayer
370
-1
48
1
60
0
100
AcDbLine
10
7.866838
20
-46.985648
30
0
11
7.866838
21
29.85
31
0
39
0
210
0
220
0
230
1
0
LINE
5
72
100
AcDbEntity
8
1
62
256
6
ByLayer
370
-1
48
1
60
0
100
AcDbLine
10
19.05
20
29.85
30
0
11
19.05
21
37.237792
31
0
39
0
210
0
220
0
230
1
0
LINE
5
73
100
AcDbEntity
8
1
62
256
6
ByLayer
370
-1
48
1
60
0
100
AcDbLine
10
18.05
20
38.511078
30
0
11
18.05
21
46.985648
31
0
39
0
210
0
220
0
230
1
0
LINE
5
74
100
AcDbEntity
8
1
62
256
6
ByLayer
370
-1
48
1
60
0
100
AcDbLine
10
7.866838
20
29.85
30
0
11
2.5
21
29.85
31
0
39
0
210
0
220
0
230
1
0
LINE
5
75
100
AcDbEntity
8
1
62
256
6
ByLayer
370
-1
48
1
60
0
100
AcDbLine
10
0.428444
20
0
30
0
11
0.428444
21
-34.625
31
0
39
0
210
0
220
0
230
1
0
LINE
5
76
100
AcDbEntity
8
1
62
256
6
ByLayer
370
-1
48
1
60
0
100
AcDbLine
10
0.428444
20
34.625
30
0
11
0.428444
21
0
31
0
39
0
210
0
220
0
230
1
0
LINE
5
77
100
AcDbEntity
8
1
62
256
6
ByLayer
370
-1
48
1
60
0
100
AcDbLine
10
18.05
20
-46.985648
30
0
11
18.05
21
29.85
31
0
39
0
210
0
220
0
230
1
0
LINE
5
78
100
AcDbEntity
8
1
62
256
6
ByLayer
370
-1
48
1
60
0
100
AcDbLine
10
1.5
20
37.237792
30
0
11
1.5
21
29.85
31
0
39
0
210
0
220
0
230
1
0
LINE
5
79
100
AcDbEntity
8
1
62
256
6
ByLayer
370
-1
48
1
60
0
100
AcDbLine
10
1.3
20
34.625
30
0
11
1.3
21
-34.625
31
0
39
0
210
0
220
0
230
1
0
LINE
5
7A
100
AcDbEntity
8
1
62
256
6
ByLayer
370
-1
48
1
60
0
100
AcDbLine
10
2.5
20
29.85
30
0
11
2.5
21
-46.485402
31
0
39
0
210
0
220
0
230
1
0
LINE
5
7B
100
AcDbEntity
8
1
62
256
6
ByLayer
370
-1
48
1
60
0
100
AcDbLine
10
14.333162
20
-46.985648
30
0
11
18.05
21
-46.985648
31
0
39
0
210
0
220
0
230
1
0
LINE
5
7C
100
AcDbEntity
8
1
62
256
6
ByLayer
370
-1
48
1
60
0
100
AcDbLine
10
18.05
20
38.511078
30
0
11
14.333162
21
38.511078
31
0
39
0
210
0
220
0
230
1
0
LINE
5
7D
100
AcDbEntity
8
1
62
256
6
ByLayer
370
-1
48
1
60
0
100
AcDbLine
10
1.5
20
37.237792
30
0
11
1.5
21
45.102523
31
0
39
0
210
0
220
0
230
1
0
LINE
5
7E
100
AcDbEntity
8
1
62
256
6
ByLayer
370
-1
48
1
60
0
100
AcDbLine
10
7.866838
20
38.511078
30
0
11
2.5
21
38.511078
31
0
39
0
210
0
220
0
230
1
0
LINE
5
7F
100
AcDbEntity
8
1
62
256
6
ByLayer
370
-1
48
1
60
0
100
AcDbLine
10
87.946243
20
-19.164832
30
0
11
87.946243
21
19.164832
31
0
39
0
210
0
220
0
230
1
0
LINE
5
80
100
AcDbEntity
8
1
62
256
6
ByLayer
370
-1
48
1
60
0
100
AcDbLine
10
9.175
20
-44.631632
30
0
11
9.175
21
29.85
31
0
39
0
210
0
220
0
230
1
0
LINE
5
81
100
AcDbEntity
8
1
62
256
6
ByLayer
370
-1
48
1
60
0
100
AcDbLine
10
4.2
20
-46.985648
30
0
11
7.866838
21
-46.985648
31
0
39
0
210
0
220
0
230
1
0
LINE
5
82
100
AcDbEntity
8
1
62
256
6
ByLayer
370
-1
48
1
60
0
100
AcDbLine
10
14.333162
20
46.985648
30
0
11
18.05
21
46.985648
31
0
39
0
210
0
220
0
230
1
0
LINE
5
83
100
AcDbEntity
8
1
62
256
6
ByLayer
370
-1
48
1
60
0
100
AcDbLine
10
13.025
20
-43.632276
30
0
11
9.175
21
-43.632276
31
0
39
0
210
0
220
0
230
1
0
LINE
5
84
100
AcDbEntity
8
1
62
256
6
ByLayer
370
-1
48
1
60
0
100
AcDbLine
10
19.05
20
29.85
30
0
11
19.05
21
-45.804461
31
0
39
0
210
0
220
0
230
1
0
LINE
5
85
100
AcDbEntity
8
1
62
256
6
ByLayer
370
-1
48
1
60
0
100
AcDbLine
10
89
20
-17.973777
30
0
11
89
21
17.973777
31
0
39
0
210
0
220
0
230
1
0
LINE
5
86
100
AcDbEntity
8
SK1
62
256
6
ByLayer
370
-1
48
1
60
0
100
AcDbLine
10
-99.460795
20
-20.419179
30
0
11
-99.460795
21
0
31
0
39
0
210
0
220
0
230
1
0
LINE
5
88
100
AcDbEntity
8
SK1
62
256
6
ByLayer
370
-1
48
1
60
0
100
AcDbLine
10
-99.460795
20
0
30
0
11
-99.460795
21
20.419179
31
0
39
0
210
0
220
0
230
1
0
LINE
5
89
100
AcDbEntity
8
SK1
62
256
6
ByLayer
370
-1
48
1
60
0
100
AcDbLine
10
-101.6
20
17.94535
30
0
11
-101.6
21
-17.94535
31
0
39
0
210
0
220
0
230
1
0
LINE
5
8A
100
AcDbEntity
8
SK1
62
256
6
ByLayer
370
-1
48
1
60
0
100
AcDbLine
10
0
20
-34.925
30
0
11
0
21
34.925
31
0
39
0
210
0
220
0
230
1
0
LINE
5
8B
100
AcDbEntity
8
1
62
256
6
ByLayer
370
-1
48
1
60
0
100
AcDbLine
10
34.08
20
-22.5
30
0
11
25.92
21
-22.5
31
0
39
0
210
0
220
0
230
1
0
LINE
5
8C
100
AcDbEntity
8
1
62
256
6
ByLayer
370
-1
48
1
60
0
100
AcDbLine
10
35
20
-21.58
30
0
11
25
21
-21.58
31
0
39
0
210
0
220
0
230
1
0
LINE
5
8D
100
AcDbEntity
8
1
62
256
6
ByLayer
370
-1
48
1
60
0
100
AcDbLine
10
25
20
-21.58
30
0
11
25.92
21
-22.5
31
0
39
0
210
0
220
0
230
1
0
LINE
5
8E
100
AcDbEntity
8
1
62
256
6
ByLayer
370
-1
48
1
60
0
100
AcDbLine
10
0
20
-34.925
30
0
11
0.428444
21
-34.625
31
0
39
0
210
0
220
0
230
1
0
LINE
5
8F
100
AcDbEntity
8
1
62
256
6
ByLayer
370
-1
48
1
60
0
100
AcDbLine
10
0.428444
20
34.625
30
0
11
0
21
34.925
31
0
39
0
210
0
220
0
230
1
0
LINE
5
90
100
AcDbEntity
8
1
62
256
6
ByLayer
370
-1
48
1
60
0
100
AcDbLine
10
1.3
20
34.625
30
0
11
0.428444
21
34.625
31
0
39
0
210
0
220
0
230
1
0
LINE
5
91
100
AcDbEntity
8
1
62
256
6
ByLayer
370
-1
48
1
60
0
100
AcDbLine
10
0.428444
20
-34.625
30
0
11
1.3
21
-34.625
31
0
39
0
210
0
220
0
230
1
0
LINE
5
92
100
AcDbEntity
8
1
62
256
6
ByLayer
370
-1
48
1
60
0
100
AcDbLine
10
21.55
20
-25
30
0
11
35.843912
21
-25
31
0
39
0
210
0
220
0
230
1
0
LINE
5
93
100
AcDbEntity
8
1
62
256
6
ByLayer
370
-1
48
1
60
0
100
AcDbLine
10
35.843912
20
25
30
0
11
21.55
21
25
31
0
39
0
210
0
220
0
230
1
0
LINE
5
94
100
AcDbEntity
8
1
62
256
6
ByLayer
370
-1
48
1
60
0
100
AcDbLine
10
36.783604
20
-24.34202
30
0
11
37.401287
21
-22.64495
31
0
39
0
210
0
220
0
230
1
0
LINE
5
95
100
AcDbEntity
8
1
62
256
6
ByLayer
370
-1
48
1
60
0
100
AcDbLine
10
37.401287
20
22.64495
30
0
11
36.783604
21
24.34202
31
0
39
0
210
0
220
0
230
1
0
LINE
5
96
100
AcDbEntity
8
1
62
256
6
ByLayer
370
-1
48
1
60
0
100
AcDbLine
10
39.750519
20
-21
30
0
11
71.776748
21
-21
31
0
39
0
210
0
220
0
230
1
0
LINE
5
97
100
AcDbEntity
8
1
62
256
6
ByLayer
370
-1
48
1
60
0
100
AcDbLine
10
71.776748
20
21
30
0
11
39.750519
21
21
31
0
39
0
210
0
220
0
230
1
0
LINE
5
98
100
AcDbEntity
8
1
62
256
6
ByLayer
370
-1
48
1
60
0
100
AcDbLine
10
74.214134
20
-20.850923
30
0
11
87.946243
21
-19.164832
31
0
39
0
210
0
220
0
230
1
0
LINE
5
99
100
AcDbEntity
8
1
62
256
6
ByLayer
370
-1
48
1
60
0
100
AcDbLine
10
87.946243
20
19.164832
30
0
11
74.214134
21
20.850923
31
0
39
0
210
0
220
0
230
1
0
LINE
5
9A
100
AcDbEntity
8
1
62
256
6
ByLayer
370
-1
48
1
60
0
100
AcDbLine
10
35
20
-21.58
30
0
11
35
21
-21.316059
31
0
39
0
210
0
220
0
230
1
0
LINE
5
9B
100
AcDbEntity
8
1
62
256
6
ByLayer
370
-1
48
1
60
0
100
AcDbLine
10
25
20
-21.341119
30
0
11
25
21
-21.58
31
0
39
0
210
0
220
0
230
1
0
LINE
5
9C
100
AcDbEntity
8
1
62
256
6
ByLayer
370
-1
48
1
60
0
100
AcDbLine
10
34.08
20
-22.5
30
0
11
35
21
-21.58
31
0
39
0
210
0
220
0
230
1
0
LINE
5
9D
100
AcDbEntity
8
SK1
62
256
6
ByLayer
370
-1
48
1
60
0
100
AcDbLine
10
0
20
34.925
30
0
11
-99.460795
21
20.419179
31
0
39
0
210
0
220
0
230
1
0
LINE
5
9E
100
AcDbEntity
8
SK1
62
256
6
ByLayer
370
-1
48
1
60
0
100
AcDbLine
10
-99.460795
20
-20.419179
30
0
11
0
21
-34.925
31
0
39
0
210
0
220
0
230
1
0
LINE
5
9F
100
AcDbEntity
8
1
62
256
6
ByLayer
370
-1
48
1
60
0
100
AcDbLine
10
25.92
20
-22.5
30
0
11
25.92
21
-21.341063
31
0
39
0
210
0
220
0
230
1
0
LINE
5
A0
100
AcDbEntity
8
1
62
256
6
ByLayer
370
-1
48
1
60
0
100
AcDbLine
10
34.08
20
-22.5
30
0
11
34.08
21
-21.315938
31
0
39
0
210
0
220
0
230
1
0
MTEXT
5
F1
100
AcDbEntity
8
SK6
62
256
6
ByLayer
370
-1
48
1
60
0
100
AcDbMText
10
-105.738158
20
56.1
30
0
210
0
220
0
230
1
1
\W01.000;\fsimplex.shx,bigfont.shx;  
40
3.5
41
0
44
1.084337
50
0
71
7
72
5
7
DEFAULT
0
MTEXT
5
F2
100
AcDbEntity
8
SK6
62
256
6
ByLayer
370
-1
48
1
60
0
100
AcDbMText
10
-162.088158
20
56.1
30
0
210
0
220
0
230
1
1
\W00.756;\fsimplex.shx,bigfont.shx;ISO7388-1-AD50 BIG-PLUS 
40
3.5
41
0
44
1.084337
50
0
71
7
72
5
7
DEFAULT
0
MTEXT
5
F3
100
AcDbEntity
8
SK6
62
256
6
ByLayer
370
-1
48
1
60
0
100
AcDbMText
10
-7.125
20
-63.1
30
0
210
0
220
0
230
1
1
\W00.719;\fsimplex.shx,bigfont.shx;930-IB50-S-20-089 
40
3.5
41
0
44
1.084337
50
0
71
7
72
5
7
DEFAULT
0
DIMENSION
5
FE
100
AcDbEntity
8
SK2
62
256
6
ByLayer
370
-3
48
1
60
0
100
AcDbDimension
2
DimnDraft3D1
10
-139.7
20
-48.725
30
0
11
-141.075
21
-2.433553
31
0
70
33
71
5
72
1
41
1
210
0
220
0
230
1
3
Standard
100
AcDbAlignedDimension
13
-1.5875
23
48.725
33
0
14
-1.5875
24
-48.725
34
0
1001
ACAD
1000
DSTYLE
1002
{
1070
   279
1070
     0
1070
    74
1070
     0
1070
   173
1070
     1
1070
   340
1005
C6
1070
   271
1070
     2
1070
   272
1070
     2
1070
    77
1070
     1
1070
    73
1070
     0
1070
   171
1070
     3
1070
   274
1070
     4
1070
   177
1070
     2
1070
   176
1070
     2
1070
   178
1070
     2
1070
    78
1070
     8
1070
    48
1040
-0.005
1070
    41
1041
4.5
1070
   147
1041
2.25
1070
    42
1041
1.5875
1070
    44
1041
2.0
1070
   140
1041
4.5
1070
   343
1005
0
1070
   344
1005
0
1002
}
0
DIMENSION
5
109
100
AcDbEntity
8
2
62
256
6
ByLayer
370
-3
48
1
60
0
100
AcDbDimension
2
DimnDraft3D2
10
89
20
86.140138
30
0
11
41.871053
21
86.140138
31
0
70
32
71
5
72
1
41
1
210
0
220
0
230
1
3
Standard
100
AcDbAlignedDimension
13
0
23
50.3125
33
0
14
89
24
22.5875
34
0
50
0
100
AcDbRotatedDimension
1001
ACAD
1000
DSTYLE
1002
{
1070
   279
1070
     0
1070
   172
1070
     1
1070
   173
1070
     1
1070
   340
1005
C6
1070
   271
1070
     1
1070
   272
1070
     2
1070
    77
1070
     1
1070
    73
1070
     0
1070
   171
1070
     3
1070
   274
1070
     4
1070
   177
1070
     2
1070
   176
1070
     2
1070
   178
1070
     2
1070
    78
1070
     8
1070
    48
1040
-0.005
1070
    41
1041
4.5
1070
   147
1041
2.25
1070
    42
1041
1.5875
1070
    44
1041
2.0
1070
   140
1041
4.5
1070
   343
1005
0
1070
   344
1005
0
1002
}
0
DIMENSION
5
113
100
AcDbEntity
8
SK2
62
256
6
ByLayer
370
-3
48
1
60
0
100
AcDbDimension
2
DimnDraft3D3
10
89
20
-55.641555
30
0
11
78.933553
21
-55.641555
31
0
70
32
71
5
72
1
41
1
210
0
220
0
230
1
3
Standard
100
AcDbAlignedDimension
13
73
23
-22.5875
33
0
14
89
24
-22.5875
34
0
50
0
100
AcDbRotatedDimension
1001
ACAD
1000
DSTYLE
1002
{
1070
   279
1070
     0
1070
   172
1070
     1
1070
   173
1070
     1
1070
   340
1005
C6
1070
   271
1070
     1
1070
   272
1070
     2
1070
    77
1070
     1
1070
    73
1070
     0
1070
   171
1070
     3
1070
   274
1070
     4
1070
   177
1070
     2
1070
   176
1070
     2
1070
   178
1070
     2
1070
    78
1070
     8
1070
    48
1040
-0.005
1070
    41
1041
4.5
1070
   147
1041
2.25
1070
    42
1041
1.5875
1070
    44
1041
2.0
1070
   140
1041
4.5
1070
   343
1005
0
1070
   344
1005
0
1002
}
0
DIMENSION
5
11D
100
AcDbEntity
8
SK2
62
256
6
ByLayer
370
-3
48
1
60
0
100
AcDbDimension
2
DimnDraft3D4
10
19.05
20
66.140138
30
0
11
3.390789
21
66.140138
31
0
70
32
71
5
72
1
41
1
210
0
220
0
230
1
3
Standard
100
AcDbAlignedDimension
13
0
23
36.5125
33
0
14
19.05
24
50.3125
34
0
50
0
100
AcDbRotatedDimension
1001
ACAD
1000
DSTYLE
1002
{
1070
   279
1070
     0
1070
   172
1070
     1
1070
   173
1070
     1
1070
   340
1005
C6
1070
   271
1070
     2
1070
   272
1070
     2
1070
    77
1070
     1
1070
    73
1070
     0
1070
   171
1070
     3
1070
   274
1070
     4
1070
   177
1070
     2
1070
   176
1070
     2
1070
   178
1070
     2
1070
    78
1070
     8
1070
    48
1040
-0.005
1070
    41
1041
4.5
1070
   147
1041
2.25
1070
    42
1041
1.5875
1070
    44
1041
2.0
1070
   140
1041
4.5
1070
   343
1005
0
1070
   344
1005
0
1002
}
0
DIMENSION
5
127
100
AcDbEntity
8
SK2
62
256
6
ByLayer
370
-3
48
1
60
0
100
AcDbDimension
2
DimnDraft3D5
10
38
20
66.140138
30
0
11
61.433553
21
66.140138
31
0
70
32
71
5
72
1
41
1
210
0
220
0
230
1
3
Standard
100
AcDbAlignedDimension
13
89
23
22.5875
33
0
14
38
24
22.5875
34
0
50
0
100
AcDbRotatedDimension
1001
ACAD
1000
DSTYLE
1002
{
1070
   279
1070
     0
1070
   172
1070
     1
1070
   173
1070
     1
1070
   340
1005
C6
1070
   271
1070
     1
1070
   272
1070
     2
1070
    77
1070
     1
1070
    73
1070
     0
1070
   171
1070
     3
1070
   274
1070
     4
1070
   177
1070
     2
1070
   176
1070
     2
1070
   178
1070
     2
1070
    78
1070
     8
1070
    48
1040
-0.005
1070
    41
1041
4.5
1070
   147
1041
2.25
1070
    42
1041
1.5875
1070
    44
1041
2.0
1070
   140
1041
4.5
1070
   343
1005
0
1070
   344
1005
0
1002
}
0
DIMENSION
5
131
100
AcDbEntity
8
SK2
62
256
6
ByLayer
370
-3
48
1
60
0
100
AcDbDimension
2
DimnDraft3D6
10
-101.6
20
86.140138
30
0
11
-56.371711
21
86.140138
31
0
70
32
71
5
72
1
41
1
210
0
220
0
230
1
3
Standard
100
AcDbAlignedDimension
13
0
23
36.5125
33
0
14
-101.6
24
13.7875
34
0
50
0
100
AcDbRotatedDimension
1001
ACAD
1000
DSTYLE
1002
{
1070
   279
1070
     0
1070
   172
1070
     1
1070
   173
1070
     1
1070
   340
1005
C6
1070
   271
1070
     1
1070
   272
1070
     2
1070
    77
1070
     1
1070
    73
1070
     0
1070
   171
1070
     3
1070
   274
1070
     4
1070
   177
1070
     2
1070
   176
1070
     2
1070
   178
1070
     2
1070
    78
1070
     8
1070
    48
1040
-0.005
1070
    41
1041
4.5
1070
   147
1041
2.25
1070
    42
1041
1.5875
1070
    44
1041
2.0
1070
   140
1041
4.5
1070
   343
1005
0
1070
   344
1005
0
1002
}
0
DIMENSION
5
13B
100
AcDbEntity
8
SK2
62
256
6
ByLayer
370
-3
48
1
60
0
100
AcDbDimension
2
DimnDraft3D7
10
89
20
-65.641555
30
0
11
43.883553
21
-65.641555
31
0
70
32
71
5
72
1
41
1
210
0
220
0
230
1
3
Standard
100
AcDbAlignedDimension
13
38
23
-11.5875
33
0
14
89
24
-11.5875
34
0
50
0
100
AcDbRotatedDimension
1001
ACAD
1000
DSTYLE
1002
{
1070
   279
1070
     0
1070
   172
1070
     1
1070
   173
1070
     1
1070
   340
1005
C6
1070
   271
1070
     0
1070
   272
1070
     2
1070
    77
1070
     1
1070
    73
1070
     0
1070
   171
1070
     3
1070
   274
1070
     4
1070
   177
1070
     2
1070
   176
1070
     2
1070
   178
1070
     2
1070
    78
1070
     8
1070
    48
1040
-0.005
1070
    41
1041
4.5
1070
   147
1041
2.25
1070
    42
1041
1.5875
1070
    44
1041
2.0
1070
   140
1041
4.5
1070
   343
1005
0
1070
   344
1005
0
1002
}
0
DIMENSION
5
146
100
AcDbEntity
8
SK2
62
256
6
ByLayer
370
-3
48
1
60
0
100
AcDbDimension
2
DimnDraft3D8
10
153.25
20
21
30
0
11
153.25
21
-8.115789
31
0
70
32
71
5
72
1
41
1
210
0
220
0
230
1
3
Standard
100
AcDbAlignedDimension
13
90.5875
23
-21
33
0
14
90.5875
24
21
34
0
50
90
100
AcDbRotatedDimension
1001
ACAD
1000
DSTYLE
1002
{
1070
    74
1070
     0
1070
   279
1070
     0
1070
   172
1070
     1
1070
   173
1070
     1
1070
   340
1005
C6
1070
   271
1070
     1
1070
   272
1070
     2
1070
    77
1070
     1
1070
    73
1070
     0
1070
   171
1070
     3
1070
   274
1070
     4
1070
   177
1070
     2
1070
   176
1070
     2
1070
   178
1070
     2
1070
    78
1070
     8
1070
    48
1040
-0.005
1070
    41
1041
4.5
1070
   147
1041
2.25
1070
    42
1041
1.5875
1070
    44
1041
2.0
1070
   140
1041
4.5
1070
   343
1005
0
1070
   344
1005
0
1002
}
0
DIMENSION
5
151
100
AcDbEntity
8
SK2
62
256
6
ByLayer
370
-3
48
1
60
0
100
AcDbDimension
2
DimnDraft3D9
10
141.25
20
-10
30
0
11
141.25
21
-7.878947
31
0
70
32
71
5
72
1
41
1
210
0
220
0
230
1
3
Standard
100
AcDbAlignedDimension
13
90.5875
23
10
33
0
14
90.5875
24
-10
34
0
50
90
100
AcDbRotatedDimension
1001
ACAD
1000
DSTYLE
1002
{
1070
    74
1070
     0
1070
   279
1070
     0
1070
   172
1070
     1
1070
   173
1070
     1
1070
   340
1005
C6
1070
   271
1070
     1
1070
   272
1070
     2
1070
    77
1070
     1
1070
    73
1070
     0
1070
   171
1070
     3
1070
   274
1070
     4
1070
   177
1070
     2
1070
   176
1070
     2
1070
   178
1070
     2
1070
    78
1070
     8
1070
    48
1040
-0.005
1070
    41
1041
4.5
1070
   147
1041
2.25
1070
    42
1041
1.5875
1070
    44
1041
2.0
1070
   140
1041
4.5
1070
   343
1005
0
1070
   344
1005
0
1002
}
0
DIMENSION
5
15C
100
AcDbEntity
8
SK2
62
256
6
ByLayer
370
-3
48
1
60
0
100
AcDbDimension
2
DimnDraft3D10
10
173.25
20
-25
30
0
11
173.25
21
-7.878947
31
0
70
32
71
5
72
1
41
1
210
0
220
0
230
1
3
Standard
100
AcDbAlignedDimension
13
39.5875
23
25
33
0
14
39.5875
24
-25
34
0
50
90
100
AcDbRotatedDimension
1001
ACAD
1000
DSTYLE
1002
{
1070
    74
1070
     0
1070
   279
1070
     0
1070
   172
1070
     1
1070
   173
1070
     1
1070
   340
1005
C6
1070
   271
1070
     1
1070
   272
1070
     2
1070
    77
1070
     1
1070
    73
1070
     0
1070
   171
1070
     3
1070
   274
1070
     4
1070
   177
1070
     2
1070
   176
1070
     2
1070
   178
1070
     2
1070
    78
1070
     8
1070
    48
1040
-0.005
1070
    41
1041
4.5
1070
   147
1041
2.25
1070
    42
1041
1.5875
1070
    44
1041
2.0
1070
   140
1041
4.5
1070
   343
1005
0
1070
   344
1005
0
1002
}
0
ENDSEC
0
SECTION
2
OBJECTS
0
DICTIONARY
5
18e
330
0
100
AcDbDictionary
280
0
281
1
3
ACAD_GROUP
350
18f
3
ACAD_MLINESTYLE
350
190
0
DICTIONARY
5
18f
330
0
100
AcDbDictionary
280
0
281
1
0
DICTIONARY
5
190
330
0
100
AcDbDictionary
280
0
281
1
3
Standard
350
18
0
MLINESTYLE
5
18
330
190
100
AcDbMlineStyle
2
Standard
70
0
3

62
256
51
90
52
90
71
2
49
-0.5
62
256
6
ByLayer
49
0.5
62
256
6
ByLayer
0
RASTERVARIABLES
5
17b
330

100
AcDbRasterVariables
90
0
70
1
71
1
72
1
0
ENDSEC
0
EOF
