0
SECTION
2
HEADER
9
$ACADVER
1
AC1015
9
$DWGCODEPAGE
3
ANSI_1252
9
$HANDSEED
5
17f
9
$ANGBASE
50
0
9
$ANGDIR
70
0
9
$ATTMODE
70
1
9
$AUNITS
70
0
9
$AUPREC
70
0
9
$CECOLOR
62
256
9
$CELTSCALE
40
1
9
$CELTYPE
6
ByLayer
9
$CELWEIGHT
370
-1
9
$CLAYER
8
0
9
$CMLJUST
70
0
9
$CMLSCALE
40
1
9
$CMLSTYLE
2
Standard
9
$DIMSTYLE
2
Standard
9
$TEXTSIZE
40
0.2
9
$TEXTSTYLE
7
Standard
9
$LUNITS
70
2
9
$LUPREC
70
4
9
$EXTNAMES
290
1
9
$INSUNITS
70
4
9
$LTSCALE
40
1
9
$LWDISPLAY
290
0
9
$PDMODE
70
0
9
$PDSIZE
40
0
9
$PLINEGEN
70
0
0
ENDSEC
0
SECTION
2
CLASSES
0
CLASS
1
RASTERVARIABLES
2
AcDbRasterVariables
3
ISM
90
0
280
0
281
0
0
ENDSEC
0
SECTION
2
TABLES
0
TABLE
2
VPORT
5
175
100
AcDbSymbolTable
0
VPORT
5
1
100
AcDbSymbolTableRecord
100
AcDbViewportTableRecord
2
*Active
70
0
10
0
20
0
11
1
21
1
12
-1
22
1
13
0
23
0
14
0.5
24
0.5
15
10
25
10
16
0
26
0
36
1
17
0
27
0
37
0
0
ENDTAB
0
TABLE
2
LTYPE
5
176
100
AcDbSymbolTable
0
LTYPE
5
14
100
AcDbSymbolTableRecord
100
AcDbLinetypeTableRecord
70
0
2
ByBlock
3

72
65
73
0
40
0
0
LTYPE
5
15
100
AcDbSymbolTableRecord
100
AcDbLinetypeTableRecord
70
0
2
ByLayer
3

72
65
73
0
40
0
0
LTYPE
5
16
100
AcDbSymbolTableRecord
100
AcDbLinetypeTableRecord
70
0
2
CONTINUOUS
3
Solid line
72
65
73
0
40
0
0
LTYPE
5
3C
100
AcDbSymbolTableRecord
100
AcDbLinetypeTableRecord
70
0
2
DASHED
3
__ __ __ __ __ __ __ __ __
72
65
73
2
40
25.72
49
12.86
74
0
49
-12.86
74
0
0
LTYPE
5
3D
100
AcDbSymbolTableRecord
100
AcDbLinetypeTableRecord
70
0
2
HIDDEN
3
_ _ _ _ _ _ _ _ _ _ _ _ _ _ _
72
65
73
2
40
0.5
49
0.25
74
0
49
-0.25
74
0
0
LTYPE
5
3E
100
AcDbSymbolTableRecord
100
AcDbLinetypeTableRecord
70
0
2
PHANTOM
3
____ _ _ ____ _ _ _____ _ _ ____
72
65
73
6
40
50.5
49
18
74
0
49
-6.5
74
0
49
6.5
74
0
49
-6.5
74
0
49
6.5
74
0
49
-6.5
74
0
0
LTYPE
5
3F
100
AcDbSymbolTableRecord
100
AcDbLinetypeTableRecord
70
0
2
CENTER
3
____ _ ____ _ ____ _ ____
72
65
73
4
40
47.5
49
22
74
0
49
-8.5
74
0
49
8.5
74
0
49
-8.5
74
0
0
LTYPE
5
40
100
AcDbSymbolTableRecord
100
AcDbLinetypeTableRecord
70
0
2
DOT
3
.........................
72
65
73
2
40
10
49
0
74
0
49
-10
74
0
0
LTYPE
5
41
100
AcDbSymbolTableRecord
100
AcDbLinetypeTableRecord
70
0
2
DASHDOT
3
_._._._._._._._._._._._._._._._.
72
65
73
4
40
70
49
31
74
0
49
-13
74
0
49
13
74
0
49
-13
74
0
0
ENDTAB
0
TABLE
2
LAYER
5
177
100
AcDbSymbolTable
0
LAYER
5
10
100
AcDbSymbolTableRecord
100
AcDbLayerTableRecord
2
0
70
0
62
7
6
CONTINUOUS
290
1
370
-3
390
0
0
LAYER
5
43
100
AcDbSymbolTableRecord
100
AcDbLayerTableRecord
2
80
70
0
62
-6
6
CONTINUOUS
290
1
370
-3
390
0
0
LAYER
5
45
100
AcDbSymbolTableRecord
100
AcDbLayerTableRecord
2
81
70
0
62
-3
6
CONTINUOUS
290
1
370
-3
390
0
0
LAYER
5
4D
100
AcDbSymbolTableRecord
100
AcDbLayerTableRecord
2
4
70
0
62
-2
6
CENTER
290
1
370
-3
390
0
0
LAYER
5
57
100
AcDbSymbolTableRecord
100
AcDbLayerTableRecord
2
1
70
0
62
4
6
CONTINUOUS
290
1
370
-3
390
0
0
LAYER
5
E6
100
AcDbSymbolTableRecord
100
AcDbLayerTableRecord
2
2
70
0
62
7
6
CONTINUOUS
290
1
370
-3
390
0
0
LAYER
5
160
100
AcDbSymbolTableRecord
100
AcDbLayerTableRecord
2
SK2
70
0
62
7
6
CONTINUOUS
290
1
370
-3
390
0
0
LAYER
5
161
100
AcDbSymbolTableRecord
100
AcDbLayerTableRecord
2
SK3
70
0
62
1
6
DASHED
290
1
370
-3
390
0
0
LAYER
5
162
100
AcDbSymbolTableRecord
100
AcDbLayerTableRecord
2
SK4
70
0
62
2
6
CENTER
290
1
370
-3
390
0
0
LAYER
5
163
100
AcDbSymbolTableRecord
100
AcDbLayerTableRecord
2
SK1
70
0
62
4
6
CONTINUOUS
290
1
370
-3
390
0
0
LAYER
5
164
100
AcDbSymbolTableRecord
100
AcDbLayerTableRecord
2
SK6
70
0
62
5
6
CONTINUOUS
290
1
370
-3
390
0
0
ENDTAB
0
TABLE
2
STYLE
5
178
100
AcDbSymbolTable
0
STYLE
5
11
100
AcDbSymbolTableRecord
100
AcDbTextStyleTableRecord
2
Standard
3
txt
70
0
71
0
40
0
41
1
42
0
50
0
0
STYLE
5
C3
100
AcDbSymbolTableRecord
100
AcDbTextStyleTableRecord
2
DEFAULT
3
simplex.shx
70
0
71
0
40
0
41
1
42
0
50
0
0
STYLE
5
C4
100
AcDbSymbolTableRecord
100
AcDbTextStyleTableRecord
2
DWGDirectTextStyle
3
SIMPLEX
70
0
71
0
40
0
41
1
42
0
50
0
0
ENDTAB
0
TABLE
2
DIMSTYLE
5
179
100
AcDbSymbolTable
100
AcDbDimStyleTable
0
DIMSTYLE
105
27
100
AcDbSymbolTableRecord
100
AcDbDimStyleTableRecord
2
Standard
70
0
3
<>
41
0.18
42
0.0625
44
0.18
140
0.18
147
0.09
73
0
74
0
77
1
271
2
275
0
278
52
280
0
340
11
0
ENDTAB
0
TABLE
2
VIEW
5
17a
100
AcDbSymbolTable
0
ENDTAB
0
TABLE
2
UCS
5
17b
100
AcDbSymbolTable
0
ENDTAB
0
TABLE
2
APPID
5
17c
100
AcDbSymbolTable
0
APPID
5
12
100
AcDbSymbolTableRecord
100
AcDbRegAppTableRecord
2
ACAD
70
0
0
ENDTAB
0
TABLE
2
BLOCK_RECORD
5
17d
100
AcDbSymbolTable
0
BLOCK_RECORD
5
1F
100
AcDbSymbolTableRecord
100
AcDbBlockTableRecord
2
*Model_Space
340
0
70
0
0
BLOCK_RECORD
5
1B
100
AcDbSymbolTableRecord
100
AcDbBlockTableRecord
2
*Paper_Space
340
0
70
0
0
BLOCK_RECORD
5
23
100
AcDbSymbolTableRecord
100
AcDbBlockTableRecord
2
*Paper_Space0
340
0
70
0
0
BLOCK_RECORD
5
C1
100
AcDbSymbolTableRecord
100
AcDbBlockTableRecord
2
LABLE3D_1
340
0
70
0
0
BLOCK_RECORD
5
CF
100
AcDbSymbolTableRecord
100
AcDbBlockTableRecord
2
DimnDraft3D1
340
0
70
0
0
BLOCK_RECORD
5
D9
100
AcDbSymbolTableRecord
100
AcDbBlockTableRecord
2
DimnDraft3D2
340
0
70
0
0
BLOCK_RECORD
5
E4
100
AcDbSymbolTableRecord
100
AcDbBlockTableRecord
2
DimnDraft3D3
340
0
70
0
0
BLOCK_RECORD
5
EF
100
AcDbSymbolTableRecord
100
AcDbBlockTableRecord
2
DimnDraft3D4
340
0
70
0
0
BLOCK_RECORD
5
F9
100
AcDbSymbolTableRecord
100
AcDbBlockTableRecord
2
DimnDraft3D5
340
0
70
0
0
BLOCK_RECORD
5
103
100
AcDbSymbolTableRecord
100
AcDbBlockTableRecord
2
DimnDraft3D6
340
0
70
0
0
BLOCK_RECORD
5
10D
100
AcDbSymbolTableRecord
100
AcDbBlockTableRecord
2
DimnDraft3D7
340
0
70
0
0
BLOCK_RECORD
5
118
100
AcDbSymbolTableRecord
100
AcDbBlockTableRecord
2
DimnDraft3D8
340
0
70
0
0
ENDTAB
0
ENDSEC
0
SECTION
2
BLOCKS
0
BLOCK
5
20
100
AcDbEntity
8
0
100
AcDbBlockBegin
2
*Model_Space
70
0
10
0
20
0
30
0
3
*Model_Space
0
ENDBLK
5
21
100
AcDbEntity
8
0
100
AcDbBlockEnd
0
BLOCK
5
1C
100
AcDbEntity
8
0
100
AcDbBlockBegin
2
*Paper_Space
70
0
10
0
20
0
30
0
3
*Paper_Space
0
ENDBLK
5
1D
100
AcDbEntity
8
0
100
AcDbBlockEnd
0
BLOCK
5
24
100
AcDbEntity
8
0
100
AcDbBlockBegin
2
*Paper_Space0
70
0
10
0
20
0
30
0
3
*Paper_Space0
0
ENDBLK
5
25
100
AcDbEntity
8
0
100
AcDbBlockEnd
0
BLOCK
5
CA
100
AcDbEntity
8
0
100
AcDbBlockBegin
2
LABLE3D_1
70
0
10
0
20
0
30
0
3
LABLE3D_1
0
MTEXT
5
C2
100
AcDbEntity
8
SK6
62
256
6
ByLayer
370
-1
48
1
60
0
100
AcDbMText
10
-104.725
20
56.1
30
0
210
0
220
0
230
1
1
\W01.000;\fsimplex.shx,bigfont.shx;\P
40
3.5
41
0
44
1.084337
50
0
71
7
72
5
7
DEFAULT
0
LINE
5
C6
100
AcDbEntity
8
SK6
62
256
6
ByLayer
370
-1
48
1
60
0
100
AcDbLine
10
-104.1
20
58.725
30
0
11
-97.023077
21
58.725
31
0
39
0
210
0
220
0
230
1
0
LINE
5
C7
100
AcDbEntity
8
SK6
62
256
6
ByLayer
370
-1
48
1
60
0
100
AcDbLine
10
-71.573827
20
23.911665
30
0
11
-97.023077
21
58.725
31
0
39
0
210
0
220
0
230
1
0
SOLID
5
C8
100
AcDbEntity
8
SK6
62
256
6
ByLayer
370
-1
48
1
60
0
100
AcDbTrace
10
-71.573827
20
23.911665
30
0
11
-75.034872
21
26.95574
31
0
12
-73.42412
22
28.133241
32
0
13
-71.573827
23
23.911665
33
0
39
0
210
0
220
0
230
1
0
ENDBLK
5
CB
100
AcDbEntity
8
0
100
AcDbBlockEnd
0
BLOCK
5
D6
100
AcDbEntity
8
0
100
AcDbBlockBegin
2
DimnDraft3D1
70
0
10
0
20
0
30
0
3
DimnDraft3D1
0
MTEXT
5
D0
100
AcDbEntity
8
SK2
62
256
6
ByLayer
370
-1
48
1
60
0
100
AcDbMText
10
64.242763
20
-64.523096
30
0
210
0
220
0
230
1
1
\W01.000;\fsimplex.shx,bigfont.shx;18,8\P
40
4.5
41
0
44
1.084337
50
0
71
7
72
5
7
DEFAULT
0
LINE
5
D1
100
AcDbEntity
8
SK2
62
256
6
ByLayer
370
-1
48
1
60
0
100
AcDbLine
10
58.2
20
-39.5875
30
0
11
58.2
21
-67.648096
31
0
39
0
210
0
220
0
230
1
0
LINE
5
D2
100
AcDbEntity
8
SK2
62
256
6
ByLayer
370
-1
48
1
60
0
100
AcDbLine
10
77
20
-39.5875
30
0
11
77
21
-67.648096
31
0
39
0
210
0
220
0
230
1
0
LINE
5
D3
100
AcDbEntity
8
SK2
62
256
6
ByLayer
370
-1
48
1
60
0
100
AcDbLine
10
46.95
20
-65.648096
30
0
11
88.25
21
-65.648096
31
0
39
0
210
0
220
0
230
1
0
SOLID
5
D4
100
AcDbEntity
8
SK2
62
256
6
ByLayer
370
-1
48
1
60
0
100
AcDbTrace
10
58.2
20
-65.648096
30
0
11
53.700004
21
-66.645722
31
0
12
53.699996
22
-64.65047
32
0
13
58.2
23
-65.648096
33
0
39
0
210
0
220
0
230
1
0
SOLID
5
D5
100
AcDbEntity
8
SK2
62
256
6
ByLayer
370
-1
48
1
60
0
100
AcDbTrace
10
77
20
-65.648096
30
0
11
81.499996
21
-64.65047
31
0
12
81.500004
22
-66.645722
32
0
13
77
23
-65.648096
33
0
39
0
210
0
220
0
230
1
0
ENDBLK
5
D7
100
AcDbEntity
8
0
100
AcDbBlockEnd
0
BLOCK
5
E1
100
AcDbEntity
8
0
100
AcDbBlockBegin
2
DimnDraft3D2
70
0
10
0
20
0
30
0
3
DimnDraft3D2
0
MTEXT
5
DA
100
AcDbEntity
8
SK2
62
256
6
ByLayer
370
-1
48
1
60
0
100
AcDbMText
10
-139.95
20
0.343421
30
0
210
0
220
0
230
1
1
\W01.000;\fsimplex.shx,bigfont.shx;97,4\P
40
4.5
41
0
44
1.084337
50
90
71
7
72
5
7
DEFAULT
0
MTEXT
5
DB
100
AcDbEntity
8
SK2
62
256
6
ByLayer
370
-1
48
1
60
0
100
AcDbMText
10
-139.95
20
-8.656579
30
0
210
0
220
0
230
1
1
\W01.000;\fsimplex.shx,bigfont.shx;%%c\P
40
4.5
41
0
44
1.084337
50
90
71
7
72
5
7
DEFAULT
0
LINE
5
DC
100
AcDbEntity
8
SK2
62
256
6
ByLayer
370
-1
48
1
60
0
100
AcDbLine
10
-1.5875
20
48.725
30
0
11
-139.7
21
48.725
31
0
39
0
210
0
220
0
230
1
0
LINE
5
DD
100
AcDbEntity
8
SK2
62
256
6
ByLayer
370
-1
48
1
60
0
100
AcDbLine
10
-1.5875
20
-48.725
30
0
11
-139.7
21
-48.725
31
0
39
0
210
0
220
0
230
1
0
LINE
5
DE
100
AcDbEntity
8
SK2
62
256
6
ByLayer
370
-1
48
1
60
0
100
AcDbLine
10
-137.7
20
48.725
30
0
11
-137.7
21
-48.725
31
0
39
0
210
0
220
0
230
1
0
SOLID
5
DF
100
AcDbEntity
8
SK2
62
256
6
ByLayer
370
-1
48
1
60
0
100
AcDbTrace
10
-137.7
20
48.725
30
0
11
-136.702374
21
44.225004
31
0
12
-138.697626
22
44.224996
32
0
13
-137.7
23
48.725
33
0
39
0
210
0
220
0
230
1
0
SOLID
5
E0
100
AcDbEntity
8
SK2
62
256
6
ByLayer
370
-1
48
1
60
0
100
AcDbTrace
10
-137.7
20
-48.725
30
0
11
-138.697626
21
-44.225004
31
0
12
-136.702374
22
-44.224996
32
0
13
-137.7
23
-48.725
33
0
39
0
210
0
220
0
230
1
0
ENDBLK
5
E2
100
AcDbEntity
8
0
100
AcDbBlockEnd
0
BLOCK
5
EC
100
AcDbEntity
8
0
100
AcDbBlockBegin
2
DimnDraft3D3
70
0
10
0
20
0
30
0
3
DimnDraft3D3
0
MTEXT
5
E5
100
AcDbEntity
8
2
62
256
6
ByLayer
370
-1
48
1
60
0
100
AcDbMText
10
36.996053
20
87.273103
30
0
210
0
220
0
230
1
1
\W01.000;\fsimplex.shx,bigfont.shx;77\P
40
4.5
41
0
44
1.084337
50
0
71
7
72
5
7
DEFAULT
0
LINE
5
E7
100
AcDbEntity
8
2
62
256
6
ByLayer
370
-1
48
1
60
0
100
AcDbLine
10
0
20
36.5125
30
0
11
0
21
88.148103
31
0
39
0
210
0
220
0
230
1
0
LINE
5
E8
100
AcDbEntity
8
2
62
256
6
ByLayer
370
-1
48
1
60
0
100
AcDbLine
10
77
20
39.5875
30
0
11
77
21
88.148103
31
0
39
0
210
0
220
0
230
1
0
LINE
5
E9
100
AcDbEntity
8
2
62
256
6
ByLayer
370
-1
48
1
60
0
100
AcDbLine
10
0
20
86.148103
30
0
11
77
21
86.148103
31
0
39
0
210
0
220
0
230
1
0
SOLID
5
EA
100
AcDbEntity
8
2
62
256
6
ByLayer
370
-1
48
1
60
0
100
AcDbTrace
10
0
20
86.148103
30
0
11
4.499996
21
87.145729
31
0
12
4.500004
22
85.150477
32
0
13
0
23
86.148103
33
0
39
0
210
0
220
0
230
1
0
SOLID
5
EB
100
AcDbEntity
8
2
62
256
6
ByLayer
370
-1
48
1
60
0
100
AcDbTrace
10
77
20
86.148103
30
0
11
72.500004
21
85.150477
31
0
12
72.499996
22
87.145729
32
0
13
77
23
86.148103
33
0
39
0
210
0
220
0
230
1
0
ENDBLK
5
ED
100
AcDbEntity
8
0
100
AcDbBlockEnd
0
BLOCK
5
F6
100
AcDbEntity
8
0
100
AcDbBlockBegin
2
DimnDraft3D4
70
0
10
0
20
0
30
0
3
DimnDraft3D4
0
MTEXT
5
F0
100
AcDbEntity
8
SK2
62
256
6
ByLayer
370
-1
48
1
60
0
100
AcDbMText
10
4.515789
20
67.273103
30
0
210
0
220
0
230
1
1
\W01.000;\fsimplex.shx,bigfont.shx;19,05\P
40
4.5
41
0
44
1.084337
50
0
71
7
72
5
7
DEFAULT
0
LINE
5
F1
100
AcDbEntity
8
SK2
62
256
6
ByLayer
370
-1
48
1
60
0
100
AcDbLine
10
0
20
36.5125
30
0
11
0
21
68.148103
31
0
39
0
210
0
220
0
230
1
0
LINE
5
F2
100
AcDbEntity
8
SK2
62
256
6
ByLayer
370
-1
48
1
60
0
100
AcDbLine
10
19.05
20
50.3125
30
0
11
19.05
21
68.148103
31
0
39
0
210
0
220
0
230
1
0
LINE
5
F3
100
AcDbEntity
8
SK2
62
256
6
ByLayer
370
-1
48
1
60
0
100
AcDbLine
10
-11.25
20
66.148103
30
0
11
30.3
21
66.148103
31
0
39
0
210
0
220
0
230
1
0
SOLID
5
F4
100
AcDbEntity
8
SK2
62
256
6
ByLayer
370
-1
48
1
60
0
100
AcDbTrace
10
0
20
66.148103
30
0
11
-4.499996
21
65.150477
31
0
12
-4.500004
22
67.145729
32
0
13
0
23
66.148103
33
0
39
0
210
0
220
0
230
1
0
SOLID
5
F5
100
AcDbEntity
8
SK2
62
256
6
ByLayer
370
-1
48
1
60
0
100
AcDbTrace
10
19.05
20
66.148103
30
0
11
23.549996
21
67.145729
31
0
12
23.550004
22
65.150477
32
0
13
19.05
23
66.148103
33
0
39
0
210
0
220
0
230
1
0
ENDBLK
5
F7
100
AcDbEntity
8
0
100
AcDbBlockEnd
0
BLOCK
5
100
100
AcDbEntity
8
0
100
AcDbBlockBegin
2
DimnDraft3D5
70
0
10
0
20
0
30
0
3
DimnDraft3D5
0
MTEXT
5
FA
100
AcDbEntity
8
SK2
62
256
6
ByLayer
370
-1
48
1
60
0
100
AcDbMText
10
-55.246711
20
87.273103
30
0
210
0
220
0
230
1
1
\W01.000;\fsimplex.shx,bigfont.shx;101,6\P
40
4.5
41
0
44
1.084337
50
0
71
7
72
5
7
DEFAULT
0
LINE
5
FB
100
AcDbEntity
8
SK2
62
256
6
ByLayer
370
-1
48
1
60
0
100
AcDbLine
10
0
20
36.5125
30
0
11
0
21
88.148103
31
0
39
0
210
0
220
0
230
1
0
LINE
5
FC
100
AcDbEntity
8
SK2
62
256
6
ByLayer
370
-1
48
1
60
0
100
AcDbLine
10
-101.6
20
13.7875
30
0
11
-101.6
21
88.148103
31
0
39
0
210
0
220
0
230
1
0
LINE
5
FD
100
AcDbEntity
8
SK2
62
256
6
ByLayer
370
-1
48
1
60
0
100
AcDbLine
10
0
20
86.148103
30
0
11
-101.6
21
86.148103
31
0
39
0
210
0
220
0
230
1
0
SOLID
5
FE
100
AcDbEntity
8
SK2
62
256
6
ByLayer
370
-1
48
1
60
0
100
AcDbTrace
10
0
20
86.148103
30
0
11
-4.499996
21
85.150477
31
0
12
-4.500004
22
87.145729
32
0
13
0
23
86.148103
33
0
39
0
210
0
220
0
230
1
0
SOLID
5
FF
100
AcDbEntity
8
SK2
62
256
6
ByLayer
370
-1
48
1
60
0
100
AcDbTrace
10
-101.6
20
86.148103
30
0
11
-97.100004
21
87.145729
31
0
12
-97.099996
22
85.150477
32
0
13
-101.6
23
86.148103
33
0
39
0
210
0
220
0
230
1
0
ENDBLK
5
101
100
AcDbEntity
8
0
100
AcDbBlockEnd
0
BLOCK
5
10A
100
AcDbEntity
8
0
100
AcDbBlockBegin
2
DimnDraft3D6
70
0
10
0
20
0
30
0
3
DimnDraft3D6
0
MTEXT
5
104
100
AcDbEntity
8
SK2
62
256
6
ByLayer
370
-1
48
1
60
0
100
AcDbMText
10
28.245395
20
-74.523096
30
0
210
0
220
0
230
1
1
\W01.000;\fsimplex.shx,bigfont.shx;min 51-max 61\P
40
4.5
41
0
44
1.084337
50
0
71
7
72
5
7
DEFAULT
0
LINE
5
105
100
AcDbEntity
8
SK2
62
256
6
ByLayer
370
-1
48
1
60
0
100
AcDbLine
10
77
20
-17.5875
30
0
11
77
21
-77.648096
31
0
39
0
210
0
220
0
230
1
0
LINE
5
106
100
AcDbEntity
8
SK2
62
256
6
ByLayer
370
-1
48
1
60
0
100
AcDbLine
10
16
20
-17.5875
30
0
11
16
21
-77.648096
31
0
39
0
210
0
220
0
230
1
0
LINE
5
107
100
AcDbEntity
8
SK2
62
256
6
ByLayer
370
-1
48
1
60
0
100
AcDbLine
10
77
20
-75.648096
30
0
11
16
21
-75.648096
31
0
39
0
210
0
220
0
230
1
0
SOLID
5
108
100
AcDbEntity
8
SK2
62
256
6
ByLayer
370
-1
48
1
60
0
100
AcDbTrace
10
77
20
-75.648096
30
0
11
72.500004
21
-76.645722
31
0
12
72.499996
22
-74.65047
32
0
13
77
23
-75.648096
33
0
39
0
210
0
220
0
230
1
0
SOLID
5
109
100
AcDbEntity
8
SK2
62
256
6
ByLayer
370
-1
48
1
60
0
100
AcDbTrace
10
16
20
-75.648096
30
0
11
20.499996
21
-74.65047
31
0
12
20.500004
22
-76.645722
32
0
13
16
23
-75.648096
33
0
39
0
210
0
220
0
230
1
0
ENDBLK
5
10B
100
AcDbEntity
8
0
100
AcDbBlockEnd
0
BLOCK
5
115
100
AcDbEntity
8
0
100
AcDbBlockBegin
2
DimnDraft3D7
70
0
10
0
20
0
30
0
3
DimnDraft3D7
0
MTEXT
5
10E
100
AcDbEntity
8
SK2
62
256
6
ByLayer
370
-1
48
1
60
0
100
AcDbMText
10
133.25
20
3.746053
30
0
210
0
220
0
230
1
1
\W01.000;\fsimplex.shx,bigfont.shx;76\P
40
4.5
41
0
44
1.084337
50
90
71
7
72
5
7
DEFAULT
0
MTEXT
5
10F
100
AcDbEntity
8
SK2
62
256
6
ByLayer
370
-1
48
1
60
0
100
AcDbMText
10
133
20
-7.003947
30
0
210
0
220
0
230
1
1
\W01.000;\fsimplex.shx,bigfont.shx;%%c\P
40
3.5
41
0
44
1.084337
50
90
71
7
72
5
7
DEFAULT
0
LINE
5
110
100
AcDbEntity
8
SK2
62
256
6
ByLayer
370
-1
48
1
60
0
100
AcDbLine
10
59.7875
20
-38
30
0
11
137.25
21
-38
31
0
39
0
210
0
220
0
230
1
0
LINE
5
111
100
AcDbEntity
8
SK2
62
256
6
ByLayer
370
-1
48
1
60
0
100
AcDbLine
10
59.7875
20
38
30
0
11
137.25
21
38
31
0
39
0
210
0
220
0
230
1
0
LINE
5
112
100
AcDbEntity
8
SK2
62
256
6
ByLayer
370
-1
48
1
60
0
100
AcDbLine
10
135.25
20
-38
30
0
11
135.25
21
38
31
0
39
0
210
0
220
0
230
1
0
SOLID
5
113
100
AcDbEntity
8
SK2
62
256
6
ByLayer
370
-1
48
1
60
0
100
AcDbTrace
10
135.25
20
-38
30
0
11
134.252374
21
-33.500004
31
0
12
136.247626
22
-33.499996
32
0
13
135.25
23
-38
33
0
39
0
210
0
220
0
230
1
0
SOLID
5
114
100
AcDbEntity
8
SK2
62
256
6
ByLayer
370
-1
48
1
60
0
100
AcDbTrace
10
135.25
20
38
30
0
11
136.247626
21
33.500004
31
0
12
134.252374
22
33.499996
32
0
13
135.25
23
38
33
0
39
0
210
0
220
0
230
1
0
ENDBLK
5
116
100
AcDbEntity
8
0
100
AcDbBlockEnd
0
BLOCK
5
120
100
AcDbEntity
8
0
100
AcDbBlockBegin
2
DimnDraft3D8
70
0
10
0
20
0
30
0
3
DimnDraft3D8
0
MTEXT
5
119
100
AcDbEntity
8
SK2
62
256
6
ByLayer
370
-1
48
1
60
0
100
AcDbMText
10
117.25
20
3.746053
30
0
210
0
220
0
230
1
1
\W01.000;\fsimplex.shx,bigfont.shx;32\P
40
4.5
41
0
44
1.084337
50
90
71
7
72
5
7
DEFAULT
0
MTEXT
5
11A
100
AcDbEntity
8
SK2
62
256
6
ByLayer
370
-1
48
1
60
0
100
AcDbMText
10
117
20
-7.003947
30
0
210
0
220
0
230
1
1
\W01.000;\fsimplex.shx,bigfont.shx;%%c\P
40
3.5
41
0
44
1.084337
50
90
71
7
72
5
7
DEFAULT
0
LINE
5
11B
100
AcDbEntity
8
SK2
62
256
6
ByLayer
370
-1
48
1
60
0
100
AcDbLine
10
78.5875
20
16
30
0
11
121.25
21
16
31
0
39
0
210
0
220
0
230
1
0
LINE
5
11C
100
AcDbEntity
8
SK2
62
256
6
ByLayer
370
-1
48
1
60
0
100
AcDbLine
10
78.5875
20
-16
30
0
11
121.25
21
-16
31
0
39
0
210
0
220
0
230
1
0
LINE
5
11D
100
AcDbEntity
8
SK2
62
256
6
ByLayer
370
-1
48
1
60
0
100
AcDbLine
10
119.25
20
16
30
0
11
119.25
21
-16
31
0
39
0
210
0
220
0
230
1
0
SOLID
5
11E
100
AcDbEntity
8
SK2
62
256
6
ByLayer
370
-1
48
1
60
0
100
AcDbTrace
10
119.25
20
16
30
0
11
120.247626
21
11.500004
31
0
12
118.252374
22
11.499996
32
0
13
119.25
23
16
33
0
39
0
210
0
220
0
230
1
0
SOLID
5
11F
100
AcDbEntity
8
SK2
62
256
6
ByLayer
370
-1
48
1
60
0
100
AcDbTrace
10
119.25
20
-16
30
0
11
118.252374
21
-11.500004
31
0
12
120.247626
22
-11.499996
32
0
13
119.25
23
-16
33
0
39
0
210
0
220
0
230
1
0
ENDBLK
5
121
100
AcDbEntity
8
0
100
AcDbBlockEnd
0
ENDSEC
0
SECTION
2
ENTITIES
0
ARC
5
9F
100
AcDbEntity
8
SK1
62
256
6
ByLayer
370
-1
48
1
60
0
100
AcDbCircle
39
0
10
-99.1
20
17.94535
30
0
40
2.5
210
0
220
0
230
1
100
AcDbArc
50
98.297778
51
180
0
ARC
5
A0
100
AcDbEntity
8
SK1
62
256
6
ByLayer
370
-1
48
1
60
0
100
AcDbCircle
39
0
10
-99.1
20
-17.94535
30
0
40
2.5
210
0
220
0
230
1
100
AcDbArc
50
180
51
261.702222
0
ARC
5
A1
100
AcDbEntity
8
1
62
256
6
ByLayer
370
-1
48
1
60
0
100
AcDbCircle
39
0
10
56.097915
20
-18
30
0
40
20
210
0
220
0
230
1
100
AcDbArc
50
270
51
282
0
ARC
5
A2
100
AcDbEntity
8
1
62
256
6
ByLayer
370
-1
48
1
60
0
100
AcDbCircle
39
0
10
56.097915
20
18
30
0
40
20
210
0
220
0
230
1
100
AcDbArc
50
78
51
90
0
ARC
5
A3
100
AcDbEntity
8
1
62
256
6
ByLayer
370
-1
48
1
60
0
100
AcDbCircle
39
0
10
-2.9
20
-35.3
30
0
40
0.6
210
0
220
0
230
-1
100
AcDbArc
50
90
51
120.00093
0
ARC
5
A4
100
AcDbEntity
8
1
62
256
6
ByLayer
370
-1
48
1
60
0
100
AcDbCircle
39
0
10
-2.9
20
35.3
30
0
40
0.6
210
0
220
0
230
-1
100
AcDbArc
50
239.99907
51
270
0
ARC
5
A5
100
AcDbEntity
8
1
62
256
6
ByLayer
370
-1
48
1
60
0
100
AcDbCircle
39
0
10
75.8
20
-33.032196
30
0
40
1.2
210
0
220
0
230
1
100
AcDbArc
50
282
51
0
0
ARC
5
A6
100
AcDbEntity
8
1
62
256
6
ByLayer
370
-1
48
1
60
0
100
AcDbCircle
39
0
10
75.8
20
33.032196
30
0
40
1.2
210
0
220
0
230
1
100
AcDbArc
50
0
51
78
0
POINT
5
42
100
AcDbEntity
8
80
62
256
6
ByLayer
370
-1
48
1
60
0
100
AcDbPoint
10
0
20
0
30
0
39
0
210
0
220
0
230
1
50
360
0
POINT
5
44
100
AcDbEntity
8
81
62
256
6
ByLayer
370
-1
48
1
60
0
100
AcDbPoint
10
77
20
0
30
0
39
0
210
0
220
0
230
1
50
360
0
POINT
5
46
100
AcDbEntity
8
SK2
62
256
6
ByLayer
370
-1
48
1
60
1
100
AcDbPoint
10
0
20
48.725
30
0
39
0
210
0
220
0
230
1
50
360
0
POINT
5
48
100
AcDbEntity
8
SK2
62
256
6
ByLayer
370
-1
48
1
60
1
100
AcDbPoint
10
0
20
-48.725
30
0
39
0
210
0
220
0
230
1
50
360
0
SPLINE
5
A7
100
AcDbEntity
8
1
62
256
6
ByLayer
370
-1
48
1
60
0
100
AcDbSpline
70
4
71
3
72
12
73
8
40
0
40
0
40
0
40
0
40
0.5
40
0.5
40
0.75
40
0.75
40
1
40
1
40
1
40
1
41
1
10
4.19999999999999
20
46.985648008195
30
0
41
1
10
4.11173203798956
20
46.985648008195
30
0
41
1
10
4.02535588929427
20
46.9737369314367
30
0
41
1
10
3.8985584958406
20
46.9384500352652
30
0
41
1
10
3.85665798261385
20
46.923650723809
30
0
41
1
10
3.77626587777459
20
46.8890240046127
30
0
41
1
10
3.73745387568363
20
46.8691285579498
30
0
41
1
10
3.70000000001286
20
46.8466993879179
30
0
0
SPLINE
5
A8
100
AcDbEntity
8
1
62
256
6
ByLayer
370
-1
48
1
60
0
100
AcDbSpline
70
4
71
3
72
8
73
4
40
0
40
0
40
0
40
0
40
1
40
1
40
1
40
1
41
1
10
9.17499999999998
20
-44.6316317693424
30
0
41
1
10
8.73959516856226
20
-45.4166555493386
30
0
41
1
10
8.30350805310374
20
-46.2013155761596
30
0
41
1
10
7.86683849253808
20
-46.985648008195
30
0
0
SPLINE
5
A9
100
AcDbEntity
8
1
62
256
6
ByLayer
370
-1
48
1
60
0
100
AcDbSpline
70
4
71
3
72
10
73
6
40
0
40
0
40
0
40
0
40
0.610211058098507
40
0.610211058098507
40
1
40
1
40
1
40
1
41
1
10
25.25
20
-27.8991039282626
30
0
41
1
10
25.25
20
-28.1810557447249
30
0
41
1
10
25.2763687745202
20
-28.4551805593329
30
0
41
1
10
25.3659619288437
20
-28.8917755436573
30
0
41
1
10
25.4123996344351
20
-29.0588113896631
30
0
41
1
10
25.4715946730387
20
-29.2226684000945
30
0
0
SPLINE
5
AA
100
AcDbEntity
8
1
62
256
6
ByLayer
370
-1
48
1
60
0
100
AcDbSpline
70
4
71
3
72
52
73
48
40
0
40
0
40
0
40
0
40
0.0409080004001709
40
0.0409080004001709
40
0.0903468695099951
40
0.0903468695099951
40
0.115066304064907
40
0.115066304064907
40
0.139785738619819
40
0.139785738619819
40
0.238663476839464
40
0.238663476839464
40
0.263382911394374
40
0.263382911394374
40
0.288102345949285
40
0.288102345949285
40
0.337541215059107
40
0.337541215059107
40
0.386980084168929
40
0.386980084168929
40
0.41169951872384
40
0.41169951872384
40
0.436418953278751
40
0.436418953278751
40
0.535296691498394
40
0.535296691498394
40
0.560016126053304
40
0.560016126053304
40
0.584735560608215
40
0.584735560608215
40
0.634174429718036
40
0.634174429718036
40
0.683613298827857
40
0.683613298827857
40
0.733052167937678
40
0.733052167937678
40
0.782491037047499
40
0.782491037047499
40
0.83192990615732
40
0.83192990615732
40
0.881368775267141
40
0.881368775267141
40
0.906088209822053
40
0.906088209822053
40
0.930807644376964
40
0.930807644376964
40
1
40
1
40
1
40
1
41
1
10
25.8217792692063
20
-29.9269975571765
30
0
41
1
10
25.8853017952233
20
-30.0245990173454
30
0
41
1
10
25.9543119768272
20
-30.1197256603261
30
0
41
1
10
26.1194192329708
20
-30.3243563214815
30
0
41
1
10
26.2181584578076
20
-30.4327229112467
30
0
41
1
10
26.3799267132443
20
-30.5897581660008
30
0
41
1
10
26.4361304631909
20
-30.6411829369599
30
0
41
1
10
26.5533433445635
20
-30.7421579222436
30
0
41
1
10
26.6145306356553
20
-30.7918353184219
30
0
41
1
10
26.9298895553279
20
-31.0329570827385
30
0
41
1
10
27.2131290566095
20
-31.2040757900176
30
0
41
1
10
27.6102815116724
20
-31.3905770235401
30
0
41
1
10
27.6918902238633
20
-31.4264933813272
30
0
41
1
10
27.8596829146323
20
-31.495489704638
30
0
41
1
10
27.9459388475257
20
-31.5285741447138
30
0
41
1
10
28.2078387521396
20
-31.622064550419
30
0
41
1
10
28.3878448652159
20
-31.6772663268946
30
0
41
1
10
28.7587900628511
20
-31.7737488591132
30
0
41
1
10
28.9497260214046
20
-31.8150328770487
30
0
41
1
10
29.2447603300134
20
-31.8662698876784
30
0
41
1
10
29.3445473185347
20
-31.8815619559014
30
0
41
1
10
29.5471325282068
20
-31.9084546386187
30
0
41
1
10
29.6495038566281
20
-31.9199812186848
30
0
41
1
10
30.1603452074548
20
-31.9674521114613
30
0
41
1
10
30.5717007482657
20
-31.9742897646264
30
0
41
1
10
31.0893150983057
20
-31.9433164147577
30
0
41
1
10
31.1929791290308
20
-31.935090906596
30
0
41
1
10
31.3973066038324
20
-31.9148788301437
30
0
41
1
10
31.4983979087584
20
-31.9028715540927
30
0
41
1
10
31.798540742372
20
-31.8612529848919
30
0
41
1
10
31.9944721027346
20
-31.8260684438739
30
0
41
1
10
32.378178040689
20
-31.7407825770245
30
0
41
1
10
32.5670645222179
20
-31.6902586045921
30
0
41
1
10
32.9277246496201
20
-31.5765509655248
30
0
41
1
10
33.1003041025665
20
-31.5132962347778
30
0
41
1
10
33.4309089444694
20
-31.3742593596145
30
0
41
1
10
33.5889292327154
20
-31.2984738450353
30
0
41
1
10
33.8907885983945
20
-31.1341415201558
30
0
41
1
10
34.0323127987595
20
-31.0468375375965
30
0
41
1
10
34.2973218935851
20
-30.862880809114
30
0
41
1
10
34.4209644193079
20
-30.7661344468564
30
0
41
1
10
34.5939544359406
20
-30.613917199718
30
0
41
1
10
34.6495342290173
20
-30.56199311908
30
0
41
1
10
34.75661463283
20
-30.4557616247855
30
0
41
1
10
34.8081862131085
20
-30.401361797572
30
0
41
1
10
34.9949006047615
20
-30.1919785402963
30
0
41
1
10
35.1144911383934
20
-30.0313928337677
30
0
41
1
10
35.2179252540282
20
-29.864606664219
30
0
0
SPLINE
5
AB
100
AcDbEntity
8
1
62
256
6
ByLayer
370
-1
48
1
60
0
100
AcDbSpline
70
4
71
3
72
14
73
10
40
0
40
0
40
0
40
0
40
0.0134897570195416
40
0.0134897570195416
40
0.303934208486565
40
0.303934208486565
40
0.884823111420607
40
0.884823111420607
40
1
40
1
40
1
40
1
41
1
10
35.5047261904779
20
-29.2861644660006
30
0
41
1
10
35.5070175424316
20
-29.2801862502023
30
0
41
1
10
35.5092920295463
20
-29.274202434153
30
0
41
1
10
35.5601579169789
20
-29.1392584563506
30
0
41
1
10
35.6006380282918
20
-29.0086984735586
30
0
41
1
10
35.6998440819597
20
-28.6122498542066
30
0
41
1
10
35.736491878704
20
-28.341600300438
30
0
41
1
10
35.7489741559842
20
-28.0096934825064
30
0
41
1
10
35.7500015195866
20
-27.9545239311081
30
0
41
1
10
35.7500019689361
20
-27.8991042854547
30
0
0
SPLINE
5
AC
100
AcDbEntity
8
1
62
256
6
ByLayer
370
-1
48
1
60
0
100
AcDbSpline
70
4
71
3
72
68
73
64
40
0
40
0
40
0
40
0
40
0.017957862625672
40
0.017957862625672
40
0.0477167152733798
40
0.0477167152733798
40
0.107234420568796
40
0.107234420568796
40
0.166752125864213
40
0.166752125864213
40
0.196510978511921
40
0.196510978511921
40
0.226269831159629
40
0.226269831159629
40
0.285787536455046
40
0.285787536455046
40
0.315546389102755
40
0.315546389102755
40
0.345305241750463
40
0.345305241750463
40
0.375064094398172
40
0.375064094398172
40
0.389943520722026
40
0.389943520722026
40
0.40482294704588
40
0.40482294704588
40
0.434581799693587
40
0.434581799693587
40
0.44946122601744
40
0.44946122601744
40
0.464340652341294
40
0.464340652341294
40
0.494099504989
40
0.494099504989
40
0.508978931312853
40
0.508978931312853
40
0.523858357636706
40
0.523858357636706
40
0.553617210284412
40
0.553617210284412
40
0.583376062932118
40
0.583376062932118
40
0.613134915579824
40
0.613134915579824
40
0.628014341903678
40
0.628014341903678
40
0.642893768227531
40
0.642893768227531
40
0.702411473522942
40
0.702411473522942
40
0.732170326170648
40
0.732170326170648
40
0.761929178818354
40
0.761929178818354
40
0.821446884113765
40
0.821446884113765
40
0.851205736761471
40
0.851205736761471
40
0.880964589409177
40
0.880964589409177
40
0.940482294704589
40
0.940482294704589
40
1
40
1
40
1
40
1
41
1
10
35.750001968936
20
-27.8991042845786
30
0
41
1
10
35.7500026527059
20
-27.8147708187559
30
0
41
1
10
35.7476253652799
20
-27.7298582228513
30
0
41
1
10
35.7350942833781
20
-27.5026880678132
30
0
41
1
10
35.7207756428022
20
-27.3589539802423
30
0
41
1
10
35.6594007955736
20
-26.9273093787832
30
0
41
1
10
35.5942497842533
20
-26.6386432847968
30
0
41
1
10
35.4183277813819
20
-26.0597679892962
30
0
41
1
10
35.3075686159535
20
-25.7695529276196
30
0
41
1
10
35.1059318020504
20
-25.3337682939936
30
0
41
1
10
35.0325908043504
20
-25.1881747600776
30
0
41
1
10
34.8752508575724
20
-24.9004522882544
30
0
41
1
10
34.791099089482
20
-24.7579406930907
30
0
41
1
10
34.5215689764179
20
-24.3349839467584
30
0
41
1
10
34.3194056213942
20
-24.0589856276896
30
0
41
1
10
33.9758033121626
20
-23.6578776818829
30
0
41
1
10
33.8544838498965
20
-23.5263496887287
30
0
41
1
10
33.5960185564999
20
-23.2688238457937
30
0
41
1
10
33.4604586865891
20
-23.1444216330367
30
0
41
1
10
33.1752245229722
20
-22.9062051327554
30
0
41
1
10
33.0255325660795
20
-22.7923428673813
30
0
41
1
10
32.7883649256235
20
-22.6313165247127
30
0
41
1
10
32.7071948488861
20
-22.5792767821897
30
0
41
1
10
32.5401407022991
20
-22.4789121470696
30
0
41
1
10
32.4543373715622
20
-22.4306649549043
30
0
41
1
10
32.1927215697422
20
-22.2941066575927
30
0
41
1
10
32.0116828105652
20
-22.2132704136414
30
0
41
1
10
31.728413355354
20
-22.1104200047981
30
0
41
1
10
31.6320305011407
20
-22.0792160923575
30
0
41
1
10
31.4349274758934
20
-22.0236764557774
30
0
41
1
10
31.3341645620351
20
-21.9993906723348
30
0
41
1
10
31.0313341512563
20
-21.9391513950797
30
0
41
1
10
30.8266997843752
20
-21.915155971363
30
0
41
1
10
30.5153545062786
20
-21.9051405487512
30
0
41
1
10
30.4102280840701
20
-21.906184611964
30
0
41
1
10
30.2018589132153
20
-21.9170993076287
30
0
41
1
10
30.0987595754526
20
-21.9268961900094
30
0
41
1
10
29.7925471814968
20
-21.9686000163832
30
0
41
1
10
29.5925103460359
20
-22.0127878365955
30
0
41
1
10
29.2000017822535
20
-22.1310787853851
30
0
41
1
10
29.0125421818978
20
-22.2036517127889
30
0
41
1
10
28.6540255552216
20
-22.3694133476525
30
0
41
1
10
28.4825794867712
20
-22.4627610195792
30
0
41
1
10
28.2353989433088
20
-22.615825037366
30
0
41
1
10
28.1545272099799
20
-22.6691542927001
30
0
41
1
10
27.9978023110357
20
-22.7784848891556
30
0
41
1
10
27.9217088650351
20
-22.834622443896
30
0
41
1
10
27.5514668912877
20
-23.121795642328
30
0
41
1
10
27.2873695291112
20
-23.3718364539067
30
0
41
1
10
26.9274022257747
20
-23.7674381656885
30
0
41
1
10
26.8131911588884
20
-23.9033345222319
30
0
41
1
10
26.5988681686457
20
-24.1776356193489
30
0
41
1
10
26.4985082740962
20
-24.316240179913
30
0
41
1
10
26.2157950491976
20
-24.7355086669611
30
0
41
1
10
26.051631507713
20
-25.0195684982784
30
0
41
1
10
25.8382040945414
20
-25.4504216298395
30
0
41
1
10
25.7725818954731
20
-25.5948505258969
30
0
41
1
10
25.6522892543987
20
-25.885156856914
30
0
41
1
10
25.597492312379
20
-26.0314327878506
30
0
41
1
10
25.450854596791
20
-26.4691678495608
30
0
41
1
10
25.376765961277
20
-26.758667814656
30
0
41
1
10
25.276347615973
20
-27.3326520695088
30
0
41
1
10
25.25
20
-27.6171521118004
30
0
41
1
10
25.25
20
-27.8991039282626
30
0
0
SPLINE
5
AD
100
AcDbEntity
8
1
62
256
6
ByLayer
370
-1
48
1
60
0
100
AcDbSpline
70
4
71
3
72
26
73
22
40
0
40
0
40
0
40
0
40
0.149164303598307
40
0.149164303598307
40
0.22374645539746
40
0.22374645539746
40
0.298328607196613
40
0.298328607196613
40
0.44749291079492
40
0.44749291079492
40
0.522075062594074
40
0.522075062594074
40
0.596657214393227
40
0.596657214393227
40
0.745821517991535
40
0.745821517991535
40
0.820403669790689
40
0.820403669790689
40
0.894985821589843
40
0.894985821589843
40
1
40
1
40
1
40
1
41
1
10
25.5
20
-37.3678403677547
30
0
41
1
10
25.5
20
-37.2946417693227
30
0
41
1
10
25.4611379750045
20
-37.2163777771835
30
0
41
1
10
25.3478996418152
20
-37.0921646942847
30
0
41
1
10
25.3009248269084
20
-37.0496250358827
30
0
41
1
10
25.1882479910549
20
-36.9624251553162
30
0
41
1
10
25.1221529618382
20
-36.9175614466049
30
0
41
1
10
24.8993790827451
20
-36.7827859840898
30
0
41
1
10
24.7179243268191
20
-36.6920365542283
30
0
41
1
10
24.3969225711976
20
-36.5566556028569
30
0
41
1
10
24.2817254702163
20
-36.5116575890195
30
0
41
1
10
24.0342682428525
20
-36.4223606924494
30
0
41
1
10
23.9037043332243
20
-36.3786854571132
30
0
41
1
10
23.4933735586932
20
-36.2516537308908
30
0
41
1
10
23.1945656342083
20
-36.1720245990822
30
0
41
1
10
22.7069028234604
20
-36.0632214705198
30
0
41
1
10
22.5366871137058
20
-36.0285663859325
30
0
41
1
10
22.1892021557695
20
-35.9647517727517
30
0
41
1
10
22.0116671327459
20
-35.9354898225074
30
0
41
1
10
21.5751025666761
20
-35.8717884451029
30
0
41
1
10
21.3124370195311
20
-35.8400764953949
30
0
41
1
10
21.0419949458509
20
-35.8145839302866
30
0
0
SPLINE
5
AE
100
AcDbEntity
8
1
62
256
6
ByLayer
370
-1
48
1
60
0
100
AcDbSpline
70
4
71
3
72
8
73
4
40
0
40
0
40
0
40
0
40
1
40
1
40
1
40
1
41
1
10
13.025
20
29.85
30
0
41
1
10
13.4553296848113
20
29.85
30
0
41
1
10
13.8916999104335
20
29.85
30
0
41
1
10
14.3331615074619
20
29.85
30
0
0
SPLINE
5
AF
100
AcDbEntity
8
1
62
256
6
ByLayer
370
-1
48
1
60
0
100
AcDbSpline
70
4
71
3
72
8
73
4
40
0
40
0
40
0
40
0
40
1
40
1
40
1
40
1
41
1
10
14.3331615074619
20
-46.985648008195
30
0
41
1
10
13.8964919468962
20
-46.2013155761596
30
0
41
1
10
13.4604048314377
20
-45.4166555493386
30
0
41
1
10
13.025
20
-44.6316317693424
30
0
0
SPLINE
5
B0
100
AcDbEntity
8
1
62
256
6
ByLayer
370
-1
48
1
60
0
100
AcDbSpline
70
4
71
3
72
8
73
4
40
0
40
0
40
0
40
0
40
1
40
1
40
1
40
1
41
1
10
7.86683849253808
20
29.85
30
0
41
1
10
8.3083000895665
20
29.85
30
0
41
1
10
8.7446703151887
20
29.85
30
0
41
1
10
9.17499999999998
20
29.85
30
0
0
SPLINE
5
B1
100
AcDbEntity
8
1
62
256
6
ByLayer
370
-1
48
1
60
0
100
AcDbSpline
70
4
71
3
72
27
73
23
40
0
40
0
40
0
40
0
40
0.124999999999998
40
0.124999999999998
40
0.187499999999998
40
0.187499999999998
40
0.249999999999997
40
0.249999999999997
40
0.374999999999997
40
0.374999999999997
40
0.437499999999995
40
0.437499999999995
40
0.499999999999994
40
0.562499999999992
40
0.562499999999992
40
0.624999999999991
40
0.624999999999991
40
0.749999999999994
40
0.749999999999994
40
0.874999999999997
40
0.874999999999997
40
1
40
1
40
1
40
1
41
1
10
21.55
20
-35.7424886339774
30
0
41
1
10
21.3800086743201
20
-35.7424886339774
30
0
41
1
10
21.2131681322558
20
-35.7607305836588
30
0
41
1
10
20.9674045725259
20
-35.8141310530036
30
0
41
1
10
20.8862388521358
20
-35.8363050979329
30
0
41
1
10
20.7254499885519
20
-35.8895841773567
30
0
41
1
10
20.6463184483931
20
-35.920578707124
30
0
41
1
10
20.4165025952594
20
-36.0246540866488
30
0
41
1
10
20.2717170051339
20
-36.109230714744
30
0
41
1
10
20.0669363243952
20
-36.2584528460879
30
0
41
1
10
20.0006852498274
20
-36.3120820075123
30
0
41
1
10
19.8751238053665
20
-36.4244843421237
30
0
41
1
10
19.7557397344325
20
-36.5425375405556
30
0
41
1
10
19.648320295774
20
-36.671535602101
30
0
41
1
10
19.5468651230992
20
-36.8059895834992
30
0
41
1
10
19.4989035058805
20
-36.8763224424681
30
0
41
1
10
19.3661917732956
20
-37.0923160874254
30
0
41
1
10
19.2922978921922
20
-37.2428485468249
30
0
41
1
10
19.1724156077921
20
-37.5564238929476
30
0
41
1
10
19.1263272873947
20
-37.7208746995246
30
0
41
1
10
19.0653887297127
20
-38.0523322327279
30
0
41
1
10
19.05
20
-38.2200454647008
30
0
41
1
10
19.05
20
-38.3897837158534
30
0
0
SPLINE
5
B2
100
AcDbEntity
8
1
62
256
6
ByLayer
370
-1
48
1
60
0
100
AcDbSpline
70
4
71
3
72
12
73
8
40
0
40
0
40
0
40
0
40
0.250000000000004
40
0.250000000000004
40
0.500000000000009
40
0.500000000000009
40
1
40
1
40
1
40
1
41
1
10
4.19999999999999
20
-46.985648008195
30
0
41
1
10
4.15652081201344
20
-46.985648008195
30
0
41
1
10
4.11310639208821
20
-46.9827200322283
30
0
41
1
10
4.02640926662116
20
-46.9709096555179
30
0
41
1
10
3.98301144875802
20
-46.9619583153972
30
0
41
1
10
3.85610649332543
20
-46.9266247574474
30
0
41
1
10
3.77456179924593
20
-46.8913505553336
30
0
41
1
10
3.69999999999879
20
-46.8466993879095
30
0
0
SPLINE
5
B3
100
AcDbEntity
8
1
62
256
6
ByLayer
370
-1
48
1
60
0
100
AcDbSpline
70
4
71
3
72
24
73
20
40
0
40
0
40
0
40
0
40
0.0625458671624444
40
0.0625458671624444
40
0.125091734324889
40
0.125091734324889
40
0.250183468649775
40
0.250183468649775
40
0.375275202974661
40
0.375275202974661
40
0.500366937299548
40
0.500366937299548
40
0.625458671624434
40
0.625458671624434
40
0.750550405949321
40
0.750550405949321
40
0.875642140274207
40
0.875642140274207
40
1
40
1
40
1
40
1
41
1
10
18.05
20
29.85
30
0
41
1
10
18.0873498329033
20
29.85
30
0
41
1
10
18.1252504470733
20
29.85
30
0
41
1
10
18.1993258385087
20
29.85
30
0
41
1
10
18.235739418569
20
29.85
30
0
41
1
10
18.3431875039723
20
29.85
30
0
41
1
10
18.4128883912491
20
29.85
30
0
41
1
10
18.5409528000483
20
29.85
30
0
41
1
10
18.6008098549009
20
29.85
30
0
41
1
10
18.7085794865175
20
29.85
30
0
41
1
10
18.7566207953578
20
29.85
30
0
41
1
10
18.8424094198612
20
29.85
30
0
41
1
10
18.8792410137628
20
29.85
30
0
41
1
10
18.9417989914295
20
29.85
30
0
41
1
10
18.967662609558
20
29.85
30
0
41
1
10
19.0092063619519
20
29.85
30
0
41
1
10
19.0245742686391
20
29.85
30
0
41
1
10
19.0448655124865
20
29.85
30
0
41
1
10
19.0499511523758
20
29.85
30
0
41
1
10
19.0499950000004
20
29.85
30
0
0
SPLINE
5
B4
100
AcDbEntity
8
1
62
256
6
ByLayer
370
-1
48
1
60
0
100
AcDbSpline
70
4
71
3
72
24
73
20
40
0
40
0
40
0
40
0
40
0.062500000000001
40
0.062500000000001
40
0.125000000000002
40
0.125000000000002
40
0.250000000000002
40
0.250000000000002
40
0.375000000000001
40
0.375000000000001
40
0.500000000000001
40
0.500000000000001
40
0.625000000000001
40
0.625000000000001
40
0.750000000000001
40
0.750000000000001
40
0.875
40
0.875
40
1
40
1
40
1
40
1
41
1
10
18.05
20
38.5110779516752
30
0
41
1
10
18.0873498329033
20
38.5110779516752
30
0
41
1
10
18.1252504470733
20
38.5083718116755
30
0
41
1
10
18.1993258385087
20
38.4977801710271
30
0
41
1
10
18.235739418569
20
38.4899284415963
30
0
41
1
10
18.3431875039723
20
38.4590318853741
30
0
41
1
10
18.4128883912491
20
38.4282038849305
30
0
41
1
10
18.5409528000482
20
38.3516179411486
30
0
41
1
10
18.6008098549009
20
38.3051189894718
30
0
41
1
10
18.7085794865175
20
38.201333708324
30
0
41
1
10
18.7566207953578
20
38.1442229769622
30
0
41
1
10
18.8424094198612
20
38.0208092618357
30
0
41
1
10
18.8792410137628
20
37.9557390404173
30
0
41
1
10
18.9417989914295
20
37.8212086347043
30
0
41
1
10
18.967662609558
20
37.7515094599359
30
0
41
1
10
19.0092063619519
20
37.6075340804892
30
0
41
1
10
19.0245742686391
20
37.5341503648294
30
0
41
1
10
19.0449252088291
20
37.3868609845721
30
0
41
1
10
19.05
20
37.3126219620441
30
0
41
1
10
19.05
20
37.2377916235644
30
0
0
SPLINE
5
B5
100
AcDbEntity
8
1
62
256
6
ByLayer
370
-1
48
1
60
0
100
AcDbSpline
70
4
71
3
72
28
73
24
40
0
40
0
40
0
40
0
40
0.25
40
0.25
40
0.499999999999999
40
0.499999999999999
40
0.624999999999999
40
0.624999999999999
40
0.749999999999999
40
0.749999999999999
40
0.812499999999999
40
0.812499999999999
40
0.874999999999999
40
0.874999999999999
40
0.906249999999998
40
0.906249999999998
40
0.937499999999998
40
0.937499999999998
40
0.953124999999999
40
0.953124999999999
40
0.968749999999999
40
0.968749999999999
40
1
40
1
40
1
40
1
41
1
10
19.19620589233
20
37.5
30
0
41
1
10
19.2673802568023
20
37.5
30
0
41
1
10
19.3614991854355
20
37.5
30
0
41
1
10
19.5911264741059
20
37.5
30
0
41
1
10
19.7262874823809
20
37.5
30
0
41
1
10
19.9655952542628
20
37.5
30
0
41
1
10
20.0515339962607
20
37.5
30
0
41
1
10
20.2401737487243
20
37.5
30
0
41
1
10
20.3427548637613
20
37.5
30
0
41
1
10
20.5168229015013
20
37.5
30
0
41
1
10
20.5783573877742
20
37.5
30
0
41
1
10
20.7117988448714
20
37.5
30
0
41
1
10
20.7837485035577
20
37.5
30
0
41
1
10
20.9051076203796
20
37.5
30
0
41
1
10
20.9477928243929
20
37.5
30
0
41
1
10
21.0400769444003
20
37.5
30
0
41
1
10
21.089937159533
20
37.5
30
0
41
1
10
21.1725487471574
20
37.5
30
0
41
1
10
21.201326746182
20
37.5
30
0
41
1
10
21.262329305833
20
37.5
30
0
41
1
10
21.2946957997585
20
37.5
30
0
41
1
10
21.3960393967255
20
37.5
30
0
41
1
10
21.4718924309201
20
37.5
30
0
41
1
10
21.55
20
37.5
30
0
0
SPLINE
5
B6
100
AcDbEntity
8
1
62
256
6
ByLayer
370
-1
48
1
60
0
100
AcDbSpline
70
4
71
3
72
22
73
18
40
0
40
0
40
0
40
0
40
0.125
40
0.125
40
0.25
40
0.25
40
0.375
40
0.375
40
0.5
40
0.5
40
0.625
40
0.625
40
0.75
40
0.75
40
0.875
40
0.875
40
1
40
1
40
1
40
1
41
1
10
19.05
20
45.9478086392594
30
0
41
1
10
19.05
20
46.0151079272561
30
0
41
1
10
19.0437620456085
20
46.0813663409022
30
0
41
1
10
19.0192471911761
20
46.2118743318112
30
0
41
1
10
19.000729414702
20
46.2767029799477
30
0
41
1
10
18.9518827740136
20
46.4013623411436
30
0
41
1
10
18.9219199751053
20
46.4606169490918
30
0
41
1
10
18.8509616765978
20
46.5730016975396
30
0
41
1
10
18.8093974082031
20
46.6266469730887
30
0
41
1
10
18.7177583559626
20
46.7234873814326
30
0
41
1
10
18.667671733821
20
46.7670012733658
30
0
41
1
10
18.5587732520142
20
46.8439967684266
30
0
41
1
10
18.4996729762275
20
46.8774102607821
30
0
41
1
10
18.3779184157777
20
46.9306988158918
30
0
41
1
10
18.314646662452
20
46.9510923204926
30
0
41
1
10
18.183084397247
20
46.9787778585523
30
0
41
1
10
18.1164406253237
20
46.985648008195
30
0
41
1
10
18.05
20
46.985648008195
30
0
0
SPLINE
5
B7
100
AcDbEntity
8
1
62
256
6
ByLayer
370
-1
48
1
60
0
100
AcDbSpline
70
4
71
3
72
8
73
4
40
0
40
0
40
0
40
0
40
1
40
1
40
1
40
1
41
1
10
7.86683849253808
20
38.5110779516752
30
0
41
1
10
8.3083000895665
20
37.5436475518694
30
0
41
1
10
8.7446703151887
20
36.5737291571326
30
0
41
1
10
9.17499999999998
20
35.6010471846569
30
0
0
SPLINE
5
B8
100
AcDbEntity
8
1
62
256
6
ByLayer
370
-1
48
1
60
0
100
AcDbSpline
70
4
71
3
72
8
73
4
40
0
40
0
40
0
40
0
40
1
40
1
40
1
40
1
41
1
10
14.3331615074619
20
46.985648008195
30
0
41
1
10
13.8964943143287
20
46.2013198284689
30
0
41
1
10
13.4604099871182
20
45.4166648448987
30
0
41
1
10
13.025
20
44.6316317693424
30
0
0
SPLINE
5
B9
100
AcDbEntity
8
1
62
256
6
ByLayer
370
-1
48
1
60
0
100
AcDbSpline
70
4
71
3
72
8
73
4
40
0
40
0
40
0
40
0
40
1
40
1
40
1
40
1
41
1
10
13.025
20
35.6010471846569
30
0
41
1
10
13.4553296848113
20
36.5737291571326
30
0
41
1
10
13.8916999104335
20
37.5436475518694
30
0
41
1
10
14.3331615074619
20
38.5110779516752
30
0
0
SPLINE
5
BA
100
AcDbEntity
8
1
62
256
6
ByLayer
370
-1
48
1
60
0
100
AcDbSpline
70
4
71
3
72
20
73
16
40
0
40
0
40
0
40
0
40
0.125000000000001
40
0.125000000000001
40
0.250000000000001
40
0.250000000000001
40
0.375000000000002
40
0.375000000000002
40
0.500000000000003
40
0.500000000000003
40
0.625000000000003
40
0.625000000000003
40
0.750000000000004
40
0.750000000000004
40
1
40
1
40
1
40
1
41
1
10
19.05
20
-45.9478086392594
30
0
41
1
10
19.05
20
-46.0141682581852
30
0
41
1
10
19.0437988032662
20
-46.08129679592
30
0
41
1
10
19.0190718287179
20
-46.2126810476269
30
0
41
1
10
19.0007762669643
20
-46.2764484747199
30
0
41
1
10
18.9524056121575
20
-46.4001613861152
30
0
41
1
10
18.9218896982041
20
-46.4606893021078
30
0
41
1
10
18.8507739486138
20
-46.5732745487939
30
0
41
1
10
18.8101930539321
20
-46.6256803638486
30
0
41
1
10
18.7187644446826
20
-46.7225475379273
30
0
41
1
10
18.6675839017424
20
-46.7670472857624
30
0
41
1
10
18.5591832999898
20
-46.8437228890134
30
0
41
1
10
18.5014832040326
20
-46.8765093940119
30
0
41
1
10
18.3173761227625
20
-46.9574101796654
30
0
41
1
10
18.1827374568354
20
-46.985648008195
30
0
41
1
10
18.05
20
-46.985648008195
30
0
0
SPLINE
5
BB
100
AcDbEntity
8
1
62
256
6
ByLayer
370
-1
48
1
60
0
100
AcDbSpline
70
4
71
3
72
22
73
18
40
0
40
0
40
0
40
0
40
0.125
40
0.125
40
0.25
40
0.25
40
0.375
40
0.375
40
0.5
40
0.5
40
0.625
40
0.625
40
0.75
40
0.75
40
0.875
40
0.875
40
1
40
1
40
1
40
1
41
1
10
3.19999999999999
20
37.2377916235644
30
0
41
1
10
3.19999999999999
20
37.3127126123841
30
0
41
1
10
3.20516117432302
20
37.3877551565346
30
0
41
1
10
3.22555843232223
20
37.5348388984027
30
0
41
1
10
3.24078216448422
20
37.6073584195788
30
0
41
1
10
3.28192683323721
20
37.7502211316137
30
0
41
1
10
3.30815671537823
20
37.8211849494905
30
0
41
1
10
3.37127428047432
20
37.9567750731603
30
0
41
1
10
3.4080337975779
20
38.0214705705603
30
0
41
1
10
3.49318948992519
20
38.1439262812523
30
0
41
1
10
3.54215667459036
20
38.2021335235593
30
0
41
1
10
3.64980379465121
20
38.3056179340437
30
0
41
1
10
3.70866971259378
20
38.3514461699293
30
0
41
1
10
3.83846221079617
20
38.4289571985152
30
0
41
1
10
3.90660827425367
20
38.4589327569662
30
0
41
1
10
4.04945486982527
20
38.5000886848892
30
0
41
1
10
4.12540141988833
20
38.5110779516752
30
0
41
1
10
4.19999999999999
20
38.5110779516752
30
0
0
SPLINE
5
BC
100
AcDbEntity
8
1
62
256
6
ByLayer
370
-1
48
1
60
0
100
AcDbSpline
70
4
71
3
72
22
73
18
40
0
40
0
40
0
40
0
40
0.125
40
0.125
40
0.25
40
0.25
40
0.375
40
0.375
40
0.5
40
0.5
40
0.625
40
0.625
40
0.75
40
0.75
40
0.875
40
0.875
40
1
40
1
40
1
40
1
41
1
10
3.19999499949998
20
29.85
30
0
41
1
10
3.2000050005
20
29.85
30
0
41
1
10
3.20516117432302
20
29.85
30
0
41
1
10
3.22555843232223
20
29.85
30
0
41
1
10
3.24078216448422
20
29.85
30
0
41
1
10
3.28192683323721
20
29.85
30
0
41
1
10
3.30815671537823
20
29.85
30
0
41
1
10
3.37127428047432
20
29.85
30
0
41
1
10
3.4080337975779
20
29.85
30
0
41
1
10
3.49318948992519
20
29.85
30
0
41
1
10
3.54215667459036
20
29.85
30
0
41
1
10
3.64980379465121
20
29.85
30
0
41
1
10
3.70866971259378
20
29.85
30
0
41
1
10
3.83846221079617
20
29.85
30
0
41
1
10
3.90660827425367
20
29.85
30
0
41
1
10
4.04945486982527
20
29.85
30
0
41
1
10
4.12540141988833
20
29.85
30
0
41
1
10
4.19999999999999
20
29.85
30
0
0
SPLINE
5
BD
100
AcDbEntity
8
1
62
256
6
ByLayer
370
-1
48
1
60
0
100
AcDbSpline
70
4
71
3
72
10
73
6
40
0
40
0
40
0
40
0
40
0.5
40
0.5
40
1
40
1
40
1
40
1
41
1
10
19.05
20
38.3897837158534
30
0
41
1
10
19.05
20
38.2374824300722
30
0
41
1
10
19.0624103131283
20
38.0872203599708
30
0
41
1
10
19.1111009681124
20
37.7906184525398
30
0
41
1
10
19.1473788592731
20
37.6442782125211
30
0
41
1
10
19.19620589233
20
37.5
30
0
0
SPLINE
5
BE
100
AcDbEntity
8
1
62
256
6
ByLayer
370
-1
48
1
60
0
100
AcDbSpline
70
4
71
3
72
8
73
4
40
0
40
0
40
0
40
0
40
1
40
1
40
1
40
1
41
1
10
9.17500000000001
20
44.6316317693424
30
0
41
1
10
8.73959001288179
20
45.4166648448987
30
0
41
1
10
8.30350568567133
20
46.2013198284689
30
0
41
1
10
7.86683849253808
20
46.985648008195
30
0
0
SPLINE
5
BF
100
AcDbEntity
8
1
62
256
6
ByLayer
370
-1
48
1
60
0
100
AcDbSpline
70
4
71
3
72
18
73
14
40
0
40
0
40
0
40
0
40
0.250000000000006
40
0.250000000000006
40
0.500000000000013
40
0.500000000000013
40
0.62500000000001
40
0.62500000000001
40
0.750000000000006
40
0.750000000000006
40
0.875000000000003
40
0.875000000000003
40
1
40
1
40
1
40
1
41
1
10
3.70000000000724
20
46.8466993879165
30
0
41
1
10
3.63392372927109
20
46.7889310591696
30
0
41
1
10
3.57189604110621
20
46.7242023308358
30
0
41
1
10
3.45680850984979
20
46.5793271856206
30
0
41
1
10
3.40331982333635
20
46.4983174164244
30
0
41
1
10
3.33456226178288
20
46.3668588605031
30
0
41
1
10
3.31347157388669
20
46.3212950641447
30
0
41
1
10
3.27552551475611
20
46.2261272355201
30
0
41
1
10
3.25857583793086
20
46.1761275972036
30
0
41
1
10
3.23065486086838
20
46.0740175814885
30
0
41
1
10
3.21957824797698
20
46.0217836445952
30
0
41
1
10
3.2042194709224
20
45.9145381985804
30
0
41
1
10
3.19999999999999
20
45.8591171255432
30
0
41
1
10
3.19999999999999
20
45.8044606861602
30
0
0
SPLINE
5
C0
100
AcDbEntity
8
1
62
256
6
ByLayer
370
-1
48
1
60
0
100
AcDbSpline
70
4
71
3
72
18
73
14
40
0
40
0
40
0
40
0
40
0.25
40
0.25
40
0.5
40
0.5
40
0.625
40
0.625
40
0.75
40
0.75
40
0.875
40
0.875
40
1
40
1
40
1
40
1
41
1
10
3.69999999999897
20
-46.8466993879093
30
0
41
1
10
3.63392372926384
20
-46.7889310591624
30
0
41
1
10
3.57189604109993
20
-46.7242023308288
30
0
41
1
10
3.45680850984527
20
-46.5793271856141
30
0
41
1
10
3.40331982333268
20
-46.4983174164183
30
0
41
1
10
3.33456226178038
20
-46.3668588604979
30
0
41
1
10
3.31347157388458
20
-46.3212950641398
30
0
41
1
10
3.27552551475466
20
-46.226127235516
30
0
41
1
10
3.25857583792973
20
-46.1761275971999
30
0
41
1
10
3.23065486086779
20
-46.0740175814857
30
0
41
1
10
3.21957824797661
20
-46.021783644593
30
0
41
1
10
3.20421947092231
20
-45.9145381985793
30
0
41
1
10
3.19999999999999
20
-45.8591171255427
30
0
41
1
10
3.19999999999999
20
-45.8044606861602
30
0
0
INSERT
5
C9
100
AcDbEntity
8
SK6
62
256
6
ByLayer
370
-1
48
1
60
0
100
AcDbBlockReference
2
LABLE3D_1
10
0
20
0
30
0
41
1
42
1
43
1
50
0
210
0
220
0
230
1
0
LINE
5
49
100
AcDbEntity
8
SK3
62
256
6
ByLayer
370
-1
48
0.05
60
0
100
AcDbLine
10
16
20
-14.5
30
0
11
16
21
14.5
31
0
39
0
210
0
220
0
230
1
0
LINE
5
4B
100
AcDbEntity
8
SK3
62
256
6
ByLayer
370
-1
48
0.05
60
0
100
AcDbLine
10
17.5
20
-16
30
0
11
77
21
-16
31
0
39
0
210
0
220
0
230
1
0
LINE
5
4C
100
AcDbEntity
8
4
62
256
6
ByLayer
370
-1
48
0.05
60
0
100
AcDbLine
10
77
20
0
30
0
11
0
21
0
31
0
39
0
210
0
220
0
230
1
0
LINE
5
4E
100
AcDbEntity
8
80
62
256
6
ByLayer
370
-1
48
1
60
0
100
AcDbLine
10
0
20
0
30
0
11
-10.875929
21
0
31
0
39
0
210
0
220
0
230
1
0
LINE
5
4F
100
AcDbEntity
8
SK3
62
256
6
ByLayer
370
-1
48
0.05
60
0
100
AcDbLine
10
16
20
14.5
30
0
11
17.5
21
16
31
0
39
0
210
0
220
0
230
1
0
LINE
5
50
100
AcDbEntity
8
SK3
62
256
6
ByLayer
370
-1
48
0.05
60
0
100
AcDbLine
10
16
20
-14.5
30
0
11
17.5
21
-16
31
0
39
0
210
0
220
0
230
1
0
LINE
5
51
100
AcDbEntity
8
SK3
62
256
6
ByLayer
370
-1
48
0.05
60
0
100
AcDbLine
10
17.5
20
16
30
0
11
17.5
21
-16
31
0
39
0
210
0
220
0
230
1
0
LINE
5
52
100
AcDbEntity
8
SK3
62
256
6
ByLayer
370
-1
48
0.05
60
0
100
AcDbLine
10
77
20
16
30
0
11
17.5
21
16
31
0
39
0
210
0
220
0
230
1
0
LINE
5
53
100
AcDbEntity
8
81
62
256
6
ByLayer
370
-1
48
1
60
0
100
AcDbLine
10
77
20
0
30
0
11
81.742527
21
0
31
0
39
0
210
0
220
0
230
1
0
LINE
5
54
100
AcDbEntity
8
SK4
62
256
6
ByLayer
370
-1
48
0.05
60
0
100
AcDbLine
10
-111.6
20
0
30
0
11
87
21
0
31
0
39
0
210
0
220
0
230
1
0
LINE
5
56
100
AcDbEntity
8
1
62
256
6
ByLayer
370
-1
48
1
60
0
100
AcDbLine
10
7.866838
20
29.85
30
0
11
4.2
21
29.85
31
0
39
0
210
0
220
0
230
1
0
LINE
5
58
100
AcDbEntity
8
1
62
256
6
ByLayer
370
-1
48
1
60
0
100
AcDbLine
10
13.025
20
34.339882
30
0
11
13.025
21
35.601047
31
0
39
0
210
0
220
0
230
1
0
LINE
5
59
100
AcDbEntity
8
1
62
256
6
ByLayer
370
-1
48
1
60
0
100
AcDbLine
10
13.025
20
35.601047
30
0
11
13.025
21
44.631632
31
0
39
0
210
0
220
0
230
1
0
LINE
5
5A
100
AcDbEntity
8
1
62
256
6
ByLayer
370
-1
48
1
60
0
100
AcDbLine
10
21.55
20
37.5
30
0
11
21.55
21
-35.742489
31
0
39
0
210
0
220
0
230
1
0
LINE
5
5B
100
AcDbEntity
8
1
62
256
6
ByLayer
370
-1
48
1
60
0
100
AcDbLine
10
4.2
20
46.985648
30
0
11
4.2
21
38.511078
31
0
39
0
210
0
220
0
230
1
0
LINE
5
5C
100
AcDbEntity
8
1
62
256
6
ByLayer
370
-1
48
1
60
0
100
AcDbLine
10
9.175
20
35.601047
30
0
11
9.175
21
34.339882
31
0
39
0
210
0
220
0
230
1
0
LINE
5
5D
100
AcDbEntity
8
1
62
256
6
ByLayer
370
-1
48
1
60
0
100
AcDbLine
10
2.9
20
-34.7
30
0
11
2.9
21
34.7
31
0
39
0
210
0
220
0
230
1
0
LINE
5
5E
100
AcDbEntity
8
1
62
256
6
ByLayer
370
-1
48
1
60
0
100
AcDbLine
10
13.025
20
-43.632276
30
0
11
9.175
21
-43.632276
31
0
39
0
210
0
220
0
230
1
0
LINE
5
5F
100
AcDbEntity
8
1
62
256
6
ByLayer
370
-1
48
1
60
0
100
AcDbLine
10
1.266539
20
0
30
0
11
1.266539
21
-34.7
31
0
39
0
210
0
220
0
230
1
0
LINE
5
60
100
AcDbEntity
8
1
62
256
6
ByLayer
370
-1
48
1
60
0
100
AcDbLine
10
1.266539
20
34.7
30
0
11
1.266539
21
0
31
0
39
0
210
0
220
0
230
1
0
LINE
5
61
100
AcDbEntity
8
1
62
256
6
ByLayer
370
-1
48
1
60
0
100
AcDbLine
10
19.05
20
29.85
30
0
11
19.05
21
37.237792
31
0
39
0
210
0
220
0
230
1
0
LINE
5
62
100
AcDbEntity
8
1
62
256
6
ByLayer
370
-1
48
1
60
0
100
AcDbLine
10
4.2
20
29.85
30
0
11
4.2
21
-46.985648
31
0
39
0
210
0
220
0
230
1
0
LINE
5
63
100
AcDbEntity
8
1
62
256
6
ByLayer
370
-1
48
1
60
0
100
AcDbLine
10
9.175
20
34.339882
30
0
11
13.025
21
34.339882
31
0
39
0
210
0
220
0
230
1
0
LINE
5
64
100
AcDbEntity
8
1
62
256
6
ByLayer
370
-1
48
1
60
0
100
AcDbLine
10
19.05
20
45.947809
30
0
11
19.05
21
37.237792
31
0
39
0
210
0
220
0
230
1
0
LINE
5
65
100
AcDbEntity
8
1
62
256
6
ByLayer
370
-1
48
1
60
0
100
AcDbLine
10
25.5
20
-37.36784
30
0
11
25.5
21
-38
31
0
39
0
210
0
220
0
230
1
0
LINE
5
66
100
AcDbEntity
8
1
62
256
6
ByLayer
370
-1
48
1
60
0
100
AcDbLine
10
13.025
20
-44.631632
30
0
11
13.025
21
29.85
31
0
39
0
210
0
220
0
230
1
0
LINE
5
67
100
AcDbEntity
8
1
62
256
6
ByLayer
370
-1
48
1
60
0
100
AcDbLine
10
9.175
20
-44.631632
30
0
11
9.175
21
29.85
31
0
39
0
210
0
220
0
230
1
0
LINE
5
68
100
AcDbEntity
8
1
62
256
6
ByLayer
370
-1
48
1
60
0
100
AcDbLine
10
14.333162
20
46.985648
30
0
11
18.05
21
46.985648
31
0
39
0
210
0
220
0
230
1
0
LINE
5
69
100
AcDbEntity
8
1
62
256
6
ByLayer
370
-1
48
1
60
0
100
AcDbLine
10
3.2
20
-45.804461
30
0
11
3.2
21
29.85
31
0
39
0
210
0
220
0
230
1
0
LINE
5
6A
100
AcDbEntity
8
1
62
256
6
ByLayer
370
-1
48
1
60
0
100
AcDbLine
10
3.2
20
37.237792
30
0
11
3.2
21
45.804461
31
0
39
0
210
0
220
0
230
1
0
LINE
5
6B
100
AcDbEntity
8
1
62
256
6
ByLayer
370
-1
48
1
60
0
100
AcDbLine
10
3.2
20
37.237792
30
0
11
3.2
21
29.85
31
0
39
0
210
0
220
0
230
1
0
LINE
5
6C
100
AcDbEntity
8
1
62
256
6
ByLayer
370
-1
48
1
60
0
100
AcDbLine
10
7.866838
20
38.511078
30
0
11
4.2
21
38.511078
31
0
39
0
210
0
220
0
230
1
0
LINE
5
6D
100
AcDbEntity
8
1
62
256
6
ByLayer
370
-1
48
1
60
0
100
AcDbLine
10
14.333162
20
-46.985648
30
0
11
18.05
21
-46.985648
31
0
39
0
210
0
220
0
230
1
0
LINE
5
6E
100
AcDbEntity
8
1
62
256
6
ByLayer
370
-1
48
1
60
0
100
AcDbLine
10
56.097915
20
-38
30
0
11
56.097915
21
38
31
0
39
0
210
0
220
0
230
1
0
LINE
5
6F
100
AcDbEntity
8
1
62
256
6
ByLayer
370
-1
48
1
60
0
100
AcDbLine
10
18.05
20
-46.985648
30
0
11
18.05
21
29.85
31
0
39
0
210
0
220
0
230
1
0
LINE
5
70
100
AcDbEntity
8
1
62
256
6
ByLayer
370
-1
48
1
60
0
100
AcDbLine
10
19.05
20
29.85
30
0
11
19.05
21
-45.947809
31
0
39
0
210
0
220
0
230
1
0
LINE
5
71
100
AcDbEntity
8
1
62
256
6
ByLayer
370
-1
48
1
60
0
100
AcDbLine
10
7.866838
20
-46.985648
30
0
11
7.866838
21
29.85
31
0
39
0
210
0
220
0
230
1
0
LINE
5
72
100
AcDbEntity
8
1
62
256
6
ByLayer
370
-1
48
1
60
0
100
AcDbLine
10
18.05
20
29.85
30
0
11
14.333162
21
29.85
31
0
39
0
210
0
220
0
230
1
0
LINE
5
73
100
AcDbEntity
8
1
62
256
6
ByLayer
370
-1
48
1
60
0
100
AcDbLine
10
0
20
-34.925
30
0
11
0
21
34.925
31
0
39
0
210
0
220
0
230
1
0
LINE
5
74
100
AcDbEntity
8
1
62
256
6
ByLayer
370
-1
48
1
60
0
100
AcDbLine
10
18.05
20
38.511078
30
0
11
14.333162
21
38.511078
31
0
39
0
210
0
220
0
230
1
0
LINE
5
75
100
AcDbEntity
8
1
62
256
6
ByLayer
370
-1
48
1
60
0
100
AcDbLine
10
76.049494
20
-34.205973
30
0
11
76.049494
21
34.205973
31
0
39
0
210
0
220
0
230
1
0
LINE
5
76
100
AcDbEntity
8
1
62
256
6
ByLayer
370
-1
48
1
60
0
100
AcDbLine
10
14.333162
20
46.985648
30
0
11
14.333162
21
38.511078
31
0
39
0
210
0
220
0
230
1
0
LINE
5
77
100
AcDbEntity
8
1
62
256
6
ByLayer
370
-1
48
1
60
0
100
AcDbLine
10
9.175
20
35.601047
30
0
11
9.175
21
44.631632
31
0
39
0
210
0
220
0
230
1
0
LINE
5
78
100
AcDbEntity
8
1
62
256
6
ByLayer
370
-1
48
1
60
0
100
AcDbLine
10
25.5
20
37.5
30
0
11
25.5
21
38
31
0
39
0
210
0
220
0
230
1
0
LINE
5
79
100
AcDbEntity
8
1
62
256
6
ByLayer
370
-1
48
1
60
0
100
AcDbLine
10
13.025
20
43.632276
30
0
11
9.175
21
43.632276
31
0
39
0
210
0
220
0
230
1
0
LINE
5
7A
100
AcDbEntity
8
1
62
256
6
ByLayer
370
-1
48
1
60
0
100
AcDbLine
10
4.2
20
46.985648
30
0
11
7.866838
21
46.985648
31
0
39
0
210
0
220
0
230
1
0
LINE
5
7B
100
AcDbEntity
8
1
62
256
6
ByLayer
370
-1
48
1
60
0
100
AcDbLine
10
18.05
20
38.511078
30
0
11
18.05
21
46.985648
31
0
39
0
210
0
220
0
230
1
0
LINE
5
7C
100
AcDbEntity
8
1
62
256
6
ByLayer
370
-1
48
1
60
0
100
AcDbLine
10
77
20
-33.032196
30
0
11
77
21
33.032196
31
0
39
0
210
0
220
0
230
1
0
LINE
5
7D
100
AcDbEntity
8
1
62
256
6
ByLayer
370
-1
48
1
60
0
100
AcDbLine
10
0.7
20
0
30
0
11
0.7
21
-35.027091
31
0
39
0
210
0
220
0
230
1
0
LINE
5
7E
100
AcDbEntity
8
1
62
256
6
ByLayer
370
-1
48
1
60
0
100
AcDbLine
10
0.7
20
35.027091
30
0
11
0.7
21
0
31
0
39
0
210
0
220
0
230
1
0
LINE
5
7F
100
AcDbEntity
8
1
62
256
6
ByLayer
370
-1
48
1
60
0
100
AcDbLine
10
14.333162
20
29.85
30
0
11
14.333162
21
-46.985648
31
0
39
0
210
0
220
0
230
1
0
LINE
5
80
100
AcDbEntity
8
1
62
256
6
ByLayer
370
-1
48
1
60
0
100
AcDbLine
10
7.866838
20
38.511078
30
0
11
7.866838
21
46.985648
31
0
39
0
210
0
220
0
230
1
0
LINE
5
81
100
AcDbEntity
8
1
62
256
6
ByLayer
370
-1
48
1
60
0
100
AcDbLine
10
4.2
20
-46.985648
30
0
11
7.866838
21
-46.985648
31
0
39
0
210
0
220
0
230
1
0
LINE
5
82
100
AcDbEntity
8
1
62
256
6
ByLayer
370
-1
48
1
60
0
100
AcDbLine
10
60.256149
20
-37.562952
30
0
11
60.256149
21
0
31
0
39
0
210
0
220
0
230
1
0
LINE
5
83
100
AcDbEntity
8
1
62
256
6
ByLayer
370
-1
48
1
60
0
100
AcDbLine
10
60.256149
20
0
30
0
11
60.256149
21
37.562952
31
0
39
0
210
0
220
0
230
1
0
LINE
5
84
100
AcDbEntity
8
1
62
256
6
ByLayer
370
-1
48
1
60
0
100
AcDbLine
10
25.5
20
37.5
30
0
11
21.55
21
37.5
31
0
39
0
210
0
220
0
230
1
0
LINE
5
85
100
AcDbEntity
8
1
62
256
6
ByLayer
370
-1
48
1
60
0
100
AcDbLine
10
9.175
20
29.85
30
0
11
13.025
21
29.85
31
0
39
0
210
0
220
0
230
1
0
LINE
5
86
100
AcDbEntity
8
SK1
62
256
6
ByLayer
370
-1
48
1
60
0
100
AcDbLine
10
0
20
-34.925
30
0
11
0
21
34.925
31
0
39
0
210
0
220
0
230
1
0
LINE
5
88
100
AcDbEntity
8
SK1
62
256
6
ByLayer
370
-1
48
1
60
0
100
AcDbLine
10
-101.6
20
17.94535
30
0
11
-101.6
21
-17.94535
31
0
39
0
210
0
220
0
230
1
0
LINE
5
89
100
AcDbEntity
8
SK1
62
256
6
ByLayer
370
-1
48
1
60
0
100
AcDbLine
10
-99.460795
20
-20.419179
30
0
11
-99.460795
21
0
31
0
39
0
210
0
220
0
230
1
0
LINE
5
8A
100
AcDbEntity
8
SK1
62
256
6
ByLayer
370
-1
48
1
60
0
100
AcDbLine
10
-99.460795
20
0
30
0
11
-99.460795
21
20.419179
31
0
39
0
210
0
220
0
230
1
0
LINE
5
8B
100
AcDbEntity
8
1
62
256
6
ByLayer
370
-1
48
1
60
0
100
AcDbLine
10
35.5
20
-29.58
30
0
11
25.5
21
-29.58
31
0
39
0
210
0
220
0
230
1
0
LINE
5
8C
100
AcDbEntity
8
1
62
256
6
ByLayer
370
-1
48
1
60
0
100
AcDbLine
10
34.58
20
-30.5
30
0
11
26.42
21
-30.5
31
0
39
0
210
0
220
0
230
1
0
LINE
5
8D
100
AcDbEntity
8
SK1
62
256
6
ByLayer
370
-1
48
1
60
0
100
AcDbLine
10
0
20
34.925
30
0
11
-99.460795
21
20.419179
31
0
39
0
210
0
220
0
230
1
0
LINE
5
8E
100
AcDbEntity
8
SK1
62
256
6
ByLayer
370
-1
48
1
60
0
100
AcDbLine
10
-99.460795
20
-20.419179
30
0
11
0
21
-34.925
31
0
39
0
210
0
220
0
230
1
0
LINE
5
8F
100
AcDbEntity
8
1
62
256
6
ByLayer
370
-1
48
1
60
0
100
AcDbLine
10
56.097915
20
38
30
0
11
25.5
21
38
31
0
39
0
210
0
220
0
230
1
0
LINE
5
90
100
AcDbEntity
8
1
62
256
6
ByLayer
370
-1
48
1
60
0
100
AcDbLine
10
25.5
20
-38
30
0
11
56.097915
21
-38
31
0
39
0
210
0
220
0
230
1
0
LINE
5
91
100
AcDbEntity
8
1
62
256
6
ByLayer
370
-1
48
1
60
0
100
AcDbLine
10
60.256149
20
-37.562952
30
0
11
76.049494
21
-34.205973
31
0
39
0
210
0
220
0
230
1
0
LINE
5
92
100
AcDbEntity
8
1
62
256
6
ByLayer
370
-1
48
1
60
0
100
AcDbLine
10
76.049494
20
34.205973
30
0
11
60.256149
21
37.562952
31
0
39
0
210
0
220
0
230
1
0
LINE
5
93
100
AcDbEntity
8
1
62
256
6
ByLayer
370
-1
48
1
60
0
100
AcDbLine
10
0.7
20
35.027091
30
0
11
0
21
34.925
31
0
39
0
210
0
220
0
230
1
0
LINE
5
94
100
AcDbEntity
8
1
62
256
6
ByLayer
370
-1
48
1
60
0
100
AcDbLine
10
0
20
-34.925
30
0
11
0.7
21
-35.027091
31
0
39
0
210
0
220
0
230
1
0
LINE
5
95
100
AcDbEntity
8
1
62
256
6
ByLayer
370
-1
48
1
60
0
100
AcDbLine
10
0.7
20
-35.027091
30
0
11
1.266539
21
-34.7
31
0
39
0
210
0
220
0
230
1
0
LINE
5
96
100
AcDbEntity
8
1
62
256
6
ByLayer
370
-1
48
1
60
0
100
AcDbLine
10
1.266539
20
34.7
30
0
11
0.7
21
35.027091
31
0
39
0
210
0
220
0
230
1
0
LINE
5
97
100
AcDbEntity
8
1
62
256
6
ByLayer
370
-1
48
1
60
0
100
AcDbLine
10
2.9
20
34.7
30
0
11
1.266539
21
34.7
31
0
39
0
210
0
220
0
230
1
0
LINE
5
98
100
AcDbEntity
8
1
62
256
6
ByLayer
370
-1
48
1
60
0
100
AcDbLine
10
1.266539
20
-34.7
30
0
11
2.9
21
-34.7
31
0
39
0
210
0
220
0
230
1
0
LINE
5
99
100
AcDbEntity
8
1
62
256
6
ByLayer
370
-1
48
1
60
0
100
AcDbLine
10
35.5
20
-29.58
30
0
11
35.5
21
-26.328067
31
0
39
0
210
0
220
0
230
1
0
LINE
5
9A
100
AcDbEntity
8
1
62
256
6
ByLayer
370
-1
48
1
60
0
100
AcDbLine
10
25.5
20
-26.387296
30
0
11
25.5
21
-29.58
31
0
39
0
210
0
220
0
230
1
0
LINE
5
9B
100
AcDbEntity
8
1
62
256
6
ByLayer
370
-1
48
1
60
0
100
AcDbLine
10
25.5
20
-29.58
30
0
11
26.42
21
-30.5
31
0
39
0
210
0
220
0
230
1
0
LINE
5
9C
100
AcDbEntity
8
1
62
256
6
ByLayer
370
-1
48
1
60
0
100
AcDbLine
10
34.58
20
-30.5
30
0
11
35.5
21
-29.58
31
0
39
0
210
0
220
0
230
1
0
LINE
5
9D
100
AcDbEntity
8
1
62
256
6
ByLayer
370
-1
48
1
60
0
100
AcDbLine
10
26.42
20
-30.5
30
0
11
26.42
21
-26.38725
31
0
39
0
210
0
220
0
230
1
0
LINE
5
9E
100
AcDbEntity
8
1
62
256
6
ByLayer
370
-1
48
1
60
0
100
AcDbLine
10
34.58
20
-30.5
30
0
11
34.58
21
-26.328
31
0
39
0
210
0
220
0
230
1
0
MTEXT
5
CC
100
AcDbEntity
8
SK6
62
256
6
ByLayer
370
-1
48
1
60
0
100
AcDbMText
10
-105.738158
20
56.1
30
0
210
0
220
0
230
1
1
\W01.000;\fsimplex.shx,bigfont.shx; \P
40
3.5
41
0
44
1.084337
50
0
71
7
72
5
7
DEFAULT
0
MTEXT
5
CD
100
AcDbEntity
8
SK6
62
256
6
ByLayer
370
-1
48
1
60
0
100
AcDbMText
10
-139.144737
20
56.1
30
0
210
0
220
0
230
1
1
\W00.742;\fsimplex.shx,bigfont.shx;ISO7388-1-AD50\P
40
3.5
41
0
44
1.084337
50
0
71
7
72
5
7
DEFAULT
0
MTEXT
5
CE
100
AcDbEntity
8
SK6
62
256
6
ByLayer
370
-1
48
1
60
0
100
AcDbMText
10
-22.125
20
-69.1
30
0
210
0
220
0
230
1
1
\W00.713;\fsimplex.shx,bigfont.shx;930-I50-HD-32-077\P
40
3.5
41
0
44
1.084337
50
0
71
7
72
5
7
DEFAULT
0
DIMENSION
5
D8
100
AcDbEntity
8
SK2
62
256
6
ByLayer
370
-3
48
1
60
0
100
AcDbDimension
2
DimnDraft3D1
10
77
20
-65.648096
30
0
11
63.117763
21
-65.648096
31
0
70
32
71
5
72
1
41
1
210
0
220
0
230
1
3
Standard
100
AcDbAlignedDimension
13
58.2
23
-39.5875
33
0
14
77
24
-39.5875
34
0
50
0
100
AcDbRotatedDimension
1001
ACAD
1000
DSTYLE
1002
{
1070
   279
1070
     0
1070
   172
1070
     1
1070
   173
1070
     1
1070
   340
1005
C3
1070
   271
1070
     1
1070
   272
1070
     2
1070
    77
1070
     1
1070
    73
1070
     0
1070
   171
1070
     3
1070
   274
1070
     4
1070
   177
1070
     2
1070
   176
1070
     2
1070
   178
1070
     2
1070
    78
1070
     8
1070
    48
1040
-0.005
1070
    41
1041
4.5
1070
   147
1041
2.25
1070
    42
1041
1.5875
1070
    44
1041
2.0
1070
   140
1041
4.5
1070
   343
1005
0
1070
   344
1005
0
1002
}
0
DIMENSION
5
E3
100
AcDbEntity
8
SK2
62
256
6
ByLayer
370
-3
48
1
60
0
100
AcDbDimension
2
DimnDraft3D2
10
-139.7
20
-48.725
30
0
11
-141.075
21
-0.781579
31
0
70
33
71
5
72
1
41
1
210
0
220
0
230
1
3
Standard
100
AcDbAlignedDimension
13
-1.5875
23
48.725
33
0
14
-1.5875
24
-48.725
34
0
1001
ACAD
1000
DSTYLE
1002
{
1070
   279
1070
     0
1070
    74
1070
     0
1070
   173
1070
     1
1070
   340
1005
C3
1070
   271
1070
     1
1070
   272
1070
     2
1070
    77
1070
     1
1070
    73
1070
     0
1070
   171
1070
     3
1070
   274
1070
     4
1070
   177
1070
     2
1070
   176
1070
     2
1070
   178
1070
     2
1070
    78
1070
     8
1070
    48
1040
-0.005
1070
    41
1041
4.5
1070
   147
1041
2.25
1070
    42
1041
1.5875
1070
    44
1041
2.0
1070
   140
1041
4.5
1070
   343
1005
0
1070
   344
1005
0
1002
}
0
DIMENSION
5
EE
100
AcDbEntity
8
2
62
256
6
ByLayer
370
-3
48
1
60
0
100
AcDbDimension
2
DimnDraft3D3
10
77
20
86.148103
30
0
11
35.871053
21
86.148103
31
0
70
32
71
5
72
1
41
1
210
0
220
0
230
1
3
Standard
100
AcDbAlignedDimension
13
0
23
36.5125
33
0
14
77
24
39.5875
34
0
50
0
100
AcDbRotatedDimension
1001
ACAD
1000
DSTYLE
1002
{
1070
   279
1070
     0
1070
   172
1070
     1
1070
   173
1070
     1
1070
   340
1005
C3
1070
   271
1070
     1
1070
   272
1070
     2
1070
    77
1070
     1
1070
    73
1070
     0
1070
   171
1070
     3
1070
   274
1070
     4
1070
   177
1070
     2
1070
   176
1070
     2
1070
   178
1070
     2
1070
    78
1070
     8
1070
    48
1040
-0.005
1070
    41
1041
4.5
1070
   147
1041
2.25
1070
    42
1041
1.5875
1070
    44
1041
2.0
1070
   140
1041
4.5
1070
   343
1005
0
1070
   344
1005
0
1002
}
0
DIMENSION
5
F8
100
AcDbEntity
8
SK2
62
256
6
ByLayer
370
-3
48
1
60
0
100
AcDbDimension
2
DimnDraft3D4
10
19.05
20
66.148103
30
0
11
3.390789
21
66.148103
31
0
70
32
71
5
72
1
41
1
210
0
220
0
230
1
3
Standard
100
AcDbAlignedDimension
13
0
23
36.5125
33
0
14
19.05
24
50.3125
34
0
50
0
100
AcDbRotatedDimension
1001
ACAD
1000
DSTYLE
1002
{
1070
   279
1070
     0
1070
   172
1070
     1
1070
   173
1070
     1
1070
   340
1005
C3
1070
   271
1070
     2
1070
   272
1070
     2
1070
    77
1070
     1
1070
    73
1070
     0
1070
   171
1070
     3
1070
   274
1070
     4
1070
   177
1070
     2
1070
   176
1070
     2
1070
   178
1070
     2
1070
    78
1070
     8
1070
    48
1040
-0.005
1070
    41
1041
4.5
1070
   147
1041
2.25
1070
    42
1041
1.5875
1070
    44
1041
2.0
1070
   140
1041
4.5
1070
   343
1005
0
1070
   344
1005
0
1002
}
0
DIMENSION
5
102
100
AcDbEntity
8
SK2
62
256
6
ByLayer
370
-3
48
1
60
0
100
AcDbDimension
2
DimnDraft3D5
10
-101.6
20
86.148103
30
0
11
-56.371711
21
86.148103
31
0
70
32
71
5
72
1
41
1
210
0
220
0
230
1
3
Standard
100
AcDbAlignedDimension
13
0
23
36.5125
33
0
14
-101.6
24
13.7875
34
0
50
0
100
AcDbRotatedDimension
1001
ACAD
1000
DSTYLE
1002
{
1070
   279
1070
     0
1070
   172
1070
     1
1070
   173
1070
     1
1070
   340
1005
C3
1070
   271
1070
     1
1070
   272
1070
     2
1070
    77
1070
     1
1070
    73
1070
     0
1070
   171
1070
     3
1070
   274
1070
     4
1070
   177
1070
     2
1070
   176
1070
     2
1070
   178
1070
     2
1070
    78
1070
     8
1070
    48
1040
-0.005
1070
    41
1041
4.5
1070
   147
1041
2.25
1070
    42
1041
1.5875
1070
    44
1041
2.0
1070
   140
1041
4.5
1070
   343
1005
0
1070
   344
1005
0
1002
}
0
DIMENSION
5
10C
100
AcDbEntity
8
SK2
62
256
6
ByLayer
370
-3
48
1
60
0
100
AcDbDimension
2
DimnDraft3D6
10
16
20
-75.648096
30
0
11
27.120395
21
-75.648096
31
0
70
32
71
5
72
1
41
1
210
0
220
0
230
1
3
Standard
100
AcDbAlignedDimension
13
77
23
-17.5875
33
0
14
16
24
-17.5875
34
0
50
0
100
AcDbRotatedDimension
1001
ACAD
1000
DSTYLE
1002
{
1070
   279
1070
     0
1070
   172
1070
     1
1070
   173
1070
     1
1070
   340
1005
C3
1070
   271
1070
     0
1070
   272
1070
     2
1070
    77
1070
     1
1070
    73
1070
     0
1070
   171
1070
     3
1070
   274
1070
     4
1070
   177
1070
     2
1070
   176
1070
     2
1070
   178
1070
     2
1070
    78
1070
     8
1070
    48
1040
-0.005
1070
    41
1041
4.5
1070
   147
1041
2.25
1070
    42
1041
1.5875
1070
    44
1041
2.0
1070
   140
1041
4.5
1070
   343
1005
0
1070
   344
1005
0
1002
}
0
DIMENSION
5
117
100
AcDbEntity
8
SK2
62
256
6
ByLayer
370
-3
48
1
60
0
100
AcDbDimension
2
DimnDraft3D7
10
135.25
20
38
30
0
11
135.25
21
-7.878947
31
0
70
32
71
5
72
1
41
1
210
0
220
0
230
1
3
Standard
100
AcDbAlignedDimension
13
59.7875
23
-38
33
0
14
59.7875
24
38
34
0
50
90
100
AcDbRotatedDimension
1001
ACAD
1000
DSTYLE
1002
{
1070
    74
1070
     0
1070
   279
1070
     0
1070
   172
1070
     1
1070
   173
1070
     1
1070
   340
1005
C3
1070
   271
1070
     1
1070
   272
1070
     2
1070
    77
1070
     1
1070
    73
1070
     0
1070
   171
1070
     3
1070
   274
1070
     4
1070
   177
1070
     2
1070
   176
1070
     2
1070
   178
1070
     2
1070
    78
1070
     8
1070
    48
1040
-0.005
1070
    41
1041
4.5
1070
   147
1041
2.25
1070
    42
1041
1.5875
1070
    44
1041
2.0
1070
   140
1041
4.5
1070
   343
1005
0
1070
   344
1005
0
1002
}
0
DIMENSION
5
122
100
AcDbEntity
8
SK2
62
256
6
ByLayer
370
-3
48
1
60
0
100
AcDbDimension
2
DimnDraft3D8
10
119.25
20
-16
30
0
11
119.25
21
-7.878947
31
0
70
32
71
5
72
1
41
1
210
0
220
0
230
1
3
Standard
100
AcDbAlignedDimension
13
78.5875
23
16
33
0
14
78.5875
24
-16
34
0
50
90
100
AcDbRotatedDimension
1001
ACAD
1000
DSTYLE
1002
{
1070
    74
1070
     0
1070
   279
1070
     0
1070
   172
1070
     1
1070
   173
1070
     1
1070
   340
1005
C3
1070
   271
1070
     1
1070
   272
1070
     2
1070
    77
1070
     1
1070
    73
1070
     0
1070
   171
1070
     3
1070
   274
1070
     4
1070
   177
1070
     2
1070
   176
1070
     2
1070
   178
1070
     2
1070
    78
1070
     8
1070
    48
1040
-0.005
1070
    41
1041
4.5
1070
   147
1041
2.25
1070
    42
1041
1.5875
1070
    44
1041
2.0
1070
   140
1041
4.5
1070
   343
1005
0
1070
   344
1005
0
1002
}
0
ENDSEC
0
SECTION
2
OBJECTS
0
DICTIONARY
5
172
330
0
100
AcDbDictionary
280
0
281
1
3
ACAD_GROUP
350
173
3
ACAD_MLINESTYLE
350
174
0
DICTIONARY
5
173
330
0
100
AcDbDictionary
280
0
281
1
0
DICTIONARY
5
174
330
0
100
AcDbDictionary
280
0
281
1
3
Standard
350
18
0
MLINESTYLE
5
18
330
174
100
AcDbMlineStyle
2
Standard
70
0
3

62
256
51
90
52
90
71
2
49
-0.5
62
256
6
ByLayer
49
0.5
62
256
6
ByLayer
0
RASTERVARIABLES
5
15f
330

100
AcDbRasterVariables
90
0
70
1
71
1
72
1
0
ENDSEC
0
EOF
