0
SECTION
2
HEADER
9
$ACADVER
1
AC1015
9
$DWGCODEPAGE
3
ANSI_1252
9
$HANDSEED
5
193
9
$ANGBASE
50
0
9
$ANGDIR
70
0
9
$ATTMODE
70
1
9
$AUNITS
70
0
9
$AUPREC
70
0
9
$CECOLOR
62
256
9
$CELTSCALE
40
1
9
$CELTYPE
6
ByLayer
9
$CELWEIGHT
370
-1
9
$CLAYER
8
0
9
$CMLJUST
70
0
9
$CMLSCALE
40
1
9
$CMLSTYLE
2
Standard
9
$DIMSTYLE
2
Standard
9
$TEXTSIZE
40
0.2
9
$TEXTSTYLE
7
Standard
9
$LUNITS
70
2
9
$LUPREC
70
4
9
$EXTNAMES
290
1
9
$INSUNITS
70
4
9
$LTSCALE
40
1
9
$LWDISPLAY
290
0
9
$PDMODE
70
0
9
$PDSIZE
40
0
9
$PLINEGEN
70
0
0
ENDSEC
0
SECTION
2
CLASSES
0
CLASS
1
RASTERVARIABLES
2
AcDbRasterVariables
3
ISM
90
0
280
0
281
0
0
ENDSEC
0
SECTION
2
TABLES
0
TABLE
2
VPORT
5
189
100
AcDbSymbolTable
0
VPORT
5
1
100
AcDbSymbolTableRecord
100
AcDbViewportTableRecord
2
*Active
70
0
10
0
20
0
11
1
21
1
12
-1
22
1
13
0
23
0
14
0.5
24
0.5
15
10
25
10
16
0
26
0
36
1
17
0
27
0
37
0
0
ENDTAB
0
TABLE
2
LTYPE
5
18a
100
AcDbSymbolTable
0
LTYPE
5
14
100
AcDbSymbolTableRecord
100
AcDbLinetypeTableRecord
70
0
2
ByBlock
3

72
65
73
0
40
0
0
LTYPE
5
15
100
AcDbSymbolTableRecord
100
AcDbLinetypeTableRecord
70
0
2
ByLayer
3

72
65
73
0
40
0
0
LTYPE
5
16
100
AcDbSymbolTableRecord
100
AcDbLinetypeTableRecord
70
0
2
CONTINUOUS
3
Solid line
72
65
73
0
40
0
0
LTYPE
5
3B
100
AcDbSymbolTableRecord
100
AcDbLinetypeTableRecord
70
0
2
DASHED
3
__ __ __ __ __ __ __ __ __
72
65
73
2
40
25.72
49
12.86
74
0
49
-12.86
74
0
0
LTYPE
5
3C
100
AcDbSymbolTableRecord
100
AcDbLinetypeTableRecord
70
0
2
HIDDEN
3
_ _ _ _ _ _ _ _ _ _ _ _ _ _ _
72
65
73
2
40
0.5
49
0.25
74
0
49
-0.25
74
0
0
LTYPE
5
3D
100
AcDbSymbolTableRecord
100
AcDbLinetypeTableRecord
70
0
2
PHANTOM
3
____ _ _ ____ _ _ _____ _ _ ____
72
65
73
6
40
50.5
49
18
74
0
49
-6.5
74
0
49
6.5
74
0
49
-6.5
74
0
49
6.5
74
0
49
-6.5
74
0
0
LTYPE
5
3E
100
AcDbSymbolTableRecord
100
AcDbLinetypeTableRecord
70
0
2
CENTER
3
____ _ ____ _ ____ _ ____
72
65
73
4
40
47.5
49
22
74
0
49
-8.5
74
0
49
8.5
74
0
49
-8.5
74
0
0
LTYPE
5
3F
100
AcDbSymbolTableRecord
100
AcDbLinetypeTableRecord
70
0
2
DOT
3
.........................
72
65
73
2
40
10
49
0
74
0
49
-10
74
0
0
LTYPE
5
40
100
AcDbSymbolTableRecord
100
AcDbLinetypeTableRecord
70
0
2
DASHDOT
3
_._._._._._._._._._._._._._._._.
72
65
73
4
40
70
49
31
74
0
49
-13
74
0
49
13
74
0
49
-13
74
0
0
ENDTAB
0
TABLE
2
LAYER
5
18b
100
AcDbSymbolTable
0
LAYER
5
10
100
AcDbSymbolTableRecord
100
AcDbLayerTableRecord
2
0
70
0
62
7
6
CONTINUOUS
290
1
370
-3
390
0
0
LAYER
5
42
100
AcDbSymbolTableRecord
100
AcDbLayerTableRecord
2
80
70
0
62
-6
6
CONTINUOUS
290
1
370
-3
390
0
0
LAYER
5
44
100
AcDbSymbolTableRecord
100
AcDbLayerTableRecord
2
81
70
0
62
-3
6
CONTINUOUS
290
1
370
-3
390
0
0
LAYER
5
4C
100
AcDbSymbolTableRecord
100
AcDbLayerTableRecord
2
4
70
0
62
-2
6
CENTER
290
1
370
-3
390
0
0
LAYER
5
56
100
AcDbSymbolTableRecord
100
AcDbLayerTableRecord
2
1
70
0
62
4
6
CONTINUOUS
290
1
370
-3
390
0
0
LAYER
5
103
100
AcDbSymbolTableRecord
100
AcDbLayerTableRecord
2
2
70
0
62
7
6
CONTINUOUS
290
1
370
-3
390
0
0
LAYER
5
174
100
AcDbSymbolTableRecord
100
AcDbLayerTableRecord
2
SK2
70
0
62
7
6
CONTINUOUS
290
1
370
-3
390
0
0
LAYER
5
175
100
AcDbSymbolTableRecord
100
AcDbLayerTableRecord
2
SK3
70
0
62
1
6
DASHED
290
1
370
-3
390
0
0
LAYER
5
176
100
AcDbSymbolTableRecord
100
AcDbLayerTableRecord
2
SK4
70
0
62
2
6
CENTER
290
1
370
-3
390
0
0
LAYER
5
177
100
AcDbSymbolTableRecord
100
AcDbLayerTableRecord
2
SK1
70
0
62
4
6
CONTINUOUS
290
1
370
-3
390
0
0
LAYER
5
178
100
AcDbSymbolTableRecord
100
AcDbLayerTableRecord
2
SK6
70
0
62
5
6
CONTINUOUS
290
1
370
-3
390
0
0
ENDTAB
0
TABLE
2
STYLE
5
18c
100
AcDbSymbolTable
0
STYLE
5
11
100
AcDbSymbolTableRecord
100
AcDbTextStyleTableRecord
2
Standard
3
txt
70
0
71
0
40
0
41
1
42
0
50
0
0
STYLE
5
C8
100
AcDbSymbolTableRecord
100
AcDbTextStyleTableRecord
2
DEFAULT
3
simplex.shx
70
0
71
0
40
0
41
1
42
0
50
0
0
STYLE
5
EB
100
AcDbSymbolTableRecord
100
AcDbTextStyleTableRecord
2
DWGDirectTextStyle
3
SIMPLEX
70
0
71
0
40
0
41
1
42
0
50
0
0
ENDTAB
0
TABLE
2
DIMSTYLE
5
18d
100
AcDbSymbolTable
100
AcDbDimStyleTable
0
DIMSTYLE
105
27
100
AcDbSymbolTableRecord
100
AcDbDimStyleTableRecord
2
Standard
70
0
3
<>
41
0.18
42
0.0625
44
0.18
140
0.18
147
0.09
73
0
74
0
77
1
271
2
275
0
278
52
280
0
340
11
0
ENDTAB
0
TABLE
2
VIEW
5
18e
100
AcDbSymbolTable
0
ENDTAB
0
TABLE
2
UCS
5
18f
100
AcDbSymbolTable
0
ENDTAB
0
TABLE
2
APPID
5
190
100
AcDbSymbolTable
0
APPID
5
12
100
AcDbSymbolTableRecord
100
AcDbRegAppTableRecord
2
ACAD
70
0
0
ENDTAB
0
TABLE
2
BLOCK_RECORD
5
191
100
AcDbSymbolTable
0
BLOCK_RECORD
5
1F
100
AcDbSymbolTableRecord
100
AcDbBlockTableRecord
2
*Model_Space
340
0
70
0
0
BLOCK_RECORD
5
1B
100
AcDbSymbolTableRecord
100
AcDbBlockTableRecord
2
*Paper_Space
340
0
70
0
0
BLOCK_RECORD
5
23
100
AcDbSymbolTableRecord
100
AcDbBlockTableRecord
2
*Paper_Space0
340
0
70
0
0
BLOCK_RECORD
5
C6
100
AcDbSymbolTableRecord
100
AcDbBlockTableRecord
2
LABLE3D_1
340
0
70
0
0
BLOCK_RECORD
5
F6
100
AcDbSymbolTableRecord
100
AcDbBlockTableRecord
2
DimnDraft3D1
340
0
70
0
0
BLOCK_RECORD
5
101
100
AcDbSymbolTableRecord
100
AcDbBlockTableRecord
2
DimnDraft3D2
340
0
70
0
0
BLOCK_RECORD
5
10C
100
AcDbSymbolTableRecord
100
AcDbBlockTableRecord
2
DimnDraft3D3
340
0
70
0
0
BLOCK_RECORD
5
116
100
AcDbSymbolTableRecord
100
AcDbBlockTableRecord
2
DimnDraft3D4
340
0
70
0
0
BLOCK_RECORD
5
120
100
AcDbSymbolTableRecord
100
AcDbBlockTableRecord
2
DimnDraft3D5
340
0
70
0
0
BLOCK_RECORD
5
12A
100
AcDbSymbolTableRecord
100
AcDbBlockTableRecord
2
DimnDraft3D6
340
0
70
0
0
BLOCK_RECORD
5
134
100
AcDbSymbolTableRecord
100
AcDbBlockTableRecord
2
DimnDraft3D7
340
0
70
0
0
BLOCK_RECORD
5
13F
100
AcDbSymbolTableRecord
100
AcDbBlockTableRecord
2
DimnDraft3D8
340
0
70
0
0
BLOCK_RECORD
5
14A
100
AcDbSymbolTableRecord
100
AcDbBlockTableRecord
2
DimnDraft3D9
340
0
70
0
0
ENDTAB
0
ENDSEC
0
SECTION
2
BLOCKS
0
BLOCK
5
20
100
AcDbEntity
8
0
100
AcDbBlockBegin
2
*Model_Space
70
0
10
0
20
0
30
0
3
*Model_Space
0
ENDBLK
5
21
100
AcDbEntity
8
0
100
AcDbBlockEnd
0
BLOCK
5
1C
100
AcDbEntity
8
0
100
AcDbBlockBegin
2
*Paper_Space
70
0
10
0
20
0
30
0
3
*Paper_Space
0
ENDBLK
5
1D
100
AcDbEntity
8
0
100
AcDbBlockEnd
0
BLOCK
5
24
100
AcDbEntity
8
0
100
AcDbBlockBegin
2
*Paper_Space0
70
0
10
0
20
0
30
0
3
*Paper_Space0
0
ENDBLK
5
25
100
AcDbEntity
8
0
100
AcDbBlockEnd
0
BLOCK
5
F1
100
AcDbEntity
8
0
100
AcDbBlockBegin
2
LABLE3D_1
70
0
10
0
20
0
30
0
3
LABLE3D_1
0
MTEXT
5
C7
100
AcDbEntity
8
SK6
62
256
6
ByLayer
370
-1
48
1
60
0
100
AcDbMText
10
-71.375
20
39.125
30
0
210
0
220
0
230
1
1
\W01.000;\fsimplex.shx,bigfont.shx; 
40
3.5
41
0
44
1.084337
50
0
71
7
72
5
7
DEFAULT
0
LINE
5
ED
100
AcDbEntity
8
SK6
62
256
6
ByLayer
370
-1
48
1
60
0
100
AcDbLine
10
-70.75
20
41.75
30
0
11
-63.673077
21
41.75
31
0
39
0
210
0
220
0
230
1
0
LINE
5
EE
100
AcDbEntity
8
SK6
62
256
6
ByLayer
370
-1
48
1
60
0
100
AcDbLine
10
-38.223827
20
16.650166
30
0
11
-63.673077
21
41.75
31
0
39
0
210
0
220
0
230
1
0
SOLID
5
EF
100
AcDbEntity
8
SK6
62
256
6
ByLayer
370
-1
48
1
60
0
100
AcDbTrace
10
-38.223827
20
16.650166
30
0
11
-42.128259
21
19.099786
31
0
12
-40.727194
22
20.520366
32
0
13
-38.223827
23
16.650166
33
0
39
0
210
0
220
0
230
1
0
ENDBLK
5
F2
100
AcDbEntity
8
0
100
AcDbBlockEnd
0
BLOCK
5
FE
100
AcDbEntity
8
0
100
AcDbBlockBegin
2
DimnDraft3D1
70
0
10
0
20
0
30
0
3
DimnDraft3D1
0
MTEXT
5
F7
100
AcDbEntity
8
SK2
62
256
6
ByLayer
370
-1
48
1
60
0
100
AcDbMText
10
-106.6
20
0.580263
30
0
210
0
220
0
230
1
1
\W01.000;\fsimplex.shx,bigfont.shx;63,5 
40
4.5
41
0
44
1.084337
50
90
71
7
72
5
7
DEFAULT
0
MTEXT
5
F8
100
AcDbEntity
8
SK2
62
256
6
ByLayer
370
-1
48
1
60
0
100
AcDbMText
10
-106.6
20
-8.419737
30
0
210
0
220
0
230
1
1
\W01.000;\fsimplex.shx,bigfont.shx;%%c 
40
4.5
41
0
44
1.084337
50
90
71
7
72
5
7
DEFAULT
0
LINE
5
F9
100
AcDbEntity
8
SK2
62
256
6
ByLayer
370
-1
48
1
60
0
100
AcDbLine
10
-1.5875
20
31.75
30
0
11
-106.35
21
31.75
31
0
39
0
210
0
220
0
230
1
0
LINE
5
FA
100
AcDbEntity
8
SK2
62
256
6
ByLayer
370
-1
48
1
60
0
100
AcDbLine
10
-1.5875
20
-31.75
30
0
11
-106.35
21
-31.75
31
0
39
0
210
0
220
0
230
1
0
LINE
5
FB
100
AcDbEntity
8
SK2
62
256
6
ByLayer
370
-1
48
1
60
0
100
AcDbLine
10
-104.35
20
31.75
30
0
11
-104.35
21
-31.75
31
0
39
0
210
0
220
0
230
1
0
SOLID
5
FC
100
AcDbEntity
8
SK2
62
256
6
ByLayer
370
-1
48
1
60
0
100
AcDbTrace
10
-104.35
20
31.75
30
0
11
-103.352374
21
27.250004
31
0
12
-105.347626
22
27.249996
32
0
13
-104.35
23
31.75
33
0
39
0
210
0
220
0
230
1
0
SOLID
5
FD
100
AcDbEntity
8
SK2
62
256
6
ByLayer
370
-1
48
1
60
0
100
AcDbTrace
10
-104.35
20
-31.75
30
0
11
-105.347626
21
-27.250004
31
0
12
-103.352374
22
-27.249996
32
0
13
-104.35
23
-31.75
33
0
39
0
210
0
220
0
230
1
0
ENDBLK
5
FF
100
AcDbEntity
8
0
100
AcDbBlockEnd
0
BLOCK
5
109
100
AcDbEntity
8
0
100
AcDbBlockBegin
2
DimnDraft3D2
70
0
10
0
20
0
30
0
3
DimnDraft3D2
0
MTEXT
5
102
100
AcDbEntity
8
2
62
256
6
ByLayer
370
-1
48
1
60
0
100
AcDbMText
10
48.906579
20
70.984279
30
0
210
0
220
0
230
1
1
\W01.000;\fsimplex.shx,bigfont.shx;103 
40
4.5
41
0
44
1.084337
50
0
71
7
72
5
7
DEFAULT
0
LINE
5
104
100
AcDbEntity
8
2
62
256
6
ByLayer
370
-1
48
1
60
0
100
AcDbLine
10
0
20
23.8125
30
0
11
0
21
71.859279
31
0
39
0
210
0
220
0
230
1
0
LINE
5
105
100
AcDbEntity
8
2
62
256
6
ByLayer
370
-1
48
1
60
0
100
AcDbLine
10
103
20
12.5875
30
0
11
103
21
71.859279
31
0
39
0
210
0
220
0
230
1
0
LINE
5
106
100
AcDbEntity
8
2
62
256
6
ByLayer
370
-1
48
1
60
0
100
AcDbLine
10
0
20
69.859279
30
0
11
103
21
69.859279
31
0
39
0
210
0
220
0
230
1
0
SOLID
5
107
100
AcDbEntity
8
2
62
256
6
ByLayer
370
-1
48
1
60
0
100
AcDbTrace
10
0
20
69.859279
30
0
11
4.499996
21
70.856905
31
0
12
4.500004
22
68.861653
32
0
13
0
23
69.859279
33
0
39
0
210
0
220
0
230
1
0
SOLID
5
108
100
AcDbEntity
8
2
62
256
6
ByLayer
370
-1
48
1
60
0
100
AcDbTrace
10
103
20
69.859279
30
0
11
98.500004
21
68.861653
31
0
12
98.499996
22
70.856905
32
0
13
103
23
69.859279
33
0
39
0
210
0
220
0
230
1
0
ENDBLK
5
10A
100
AcDbEntity
8
0
100
AcDbBlockEnd
0
BLOCK
5
113
100
AcDbEntity
8
0
100
AcDbBlockBegin
2
DimnDraft3D3
70
0
10
0
20
0
30
0
3
DimnDraft3D3
0
MTEXT
5
10D
100
AcDbEntity
8
SK2
62
256
6
ByLayer
370
-1
48
1
60
0
100
AcDbMText
10
4.515789
20
40.984279
30
0
210
0
220
0
230
1
1
\W01.000;\fsimplex.shx,bigfont.shx;19,05 
40
4.5
41
0
44
1.084337
50
0
71
7
72
5
7
DEFAULT
0
LINE
5
10E
100
AcDbEntity
8
SK2
62
256
6
ByLayer
370
-1
48
1
60
0
100
AcDbLine
10
0
20
23.8125
30
0
11
0
21
41.859279
31
0
39
0
210
0
220
0
230
1
0
LINE
5
10F
100
AcDbEntity
8
SK2
62
256
6
ByLayer
370
-1
48
1
60
0
100
AcDbLine
10
19.05
20
33.3375
30
0
11
19.05
21
41.859279
31
0
39
0
210
0
220
0
230
1
0
LINE
5
110
100
AcDbEntity
8
SK2
62
256
6
ByLayer
370
-1
48
1
60
0
100
AcDbLine
10
-11.25
20
39.859279
30
0
11
30.3
21
39.859279
31
0
39
0
210
0
220
0
230
1
0
SOLID
5
111
100
AcDbEntity
8
SK2
62
256
6
ByLayer
370
-1
48
1
60
0
100
AcDbTrace
10
0
20
39.859279
30
0
11
-4.499996
21
38.861653
31
0
12
-4.500004
22
40.856905
32
0
13
0
23
39.859279
33
0
39
0
210
0
220
0
230
1
0
SOLID
5
112
100
AcDbEntity
8
SK2
62
256
6
ByLayer
370
-1
48
1
60
0
100
AcDbTrace
10
19.05
20
39.859279
30
0
11
23.549996
21
40.856905
31
0
12
23.550004
22
38.861653
32
0
13
19.05
23
39.859279
33
0
39
0
210
0
220
0
230
1
0
ENDBLK
5
114
100
AcDbEntity
8
0
100
AcDbBlockEnd
0
BLOCK
5
11D
100
AcDbEntity
8
0
100
AcDbBlockBegin
2
DimnDraft3D4
70
0
10
0
20
0
30
0
3
DimnDraft3D4
0
MTEXT
5
117
100
AcDbEntity
8
SK2
62
256
6
ByLayer
370
-1
48
1
60
0
100
AcDbMText
10
68.996053
20
40.984279
30
0
210
0
220
0
230
1
1
\W01.000;\fsimplex.shx,bigfont.shx;65 
40
4.5
41
0
44
1.084337
50
0
71
7
72
5
7
DEFAULT
0
LINE
5
118
100
AcDbEntity
8
SK2
62
256
6
ByLayer
370
-1
48
1
60
0
100
AcDbLine
10
103
20
12.5875
30
0
11
103
21
41.859279
31
0
39
0
210
0
220
0
230
1
0
LINE
5
119
100
AcDbEntity
8
SK2
62
256
6
ByLayer
370
-1
48
1
60
0
100
AcDbLine
10
38
20
12.5875
30
0
11
38
21
41.859279
31
0
39
0
210
0
220
0
230
1
0
LINE
5
11A
100
AcDbEntity
8
SK2
62
256
6
ByLayer
370
-1
48
1
60
0
100
AcDbLine
10
103
20
39.859279
30
0
11
38
21
39.859279
31
0
39
0
210
0
220
0
230
1
0
SOLID
5
11B
100
AcDbEntity
8
SK2
62
256
6
ByLayer
370
-1
48
1
60
0
100
AcDbTrace
10
103
20
39.859279
30
0
11
98.500004
21
38.861653
31
0
12
98.499996
22
40.856905
32
0
13
103
23
39.859279
33
0
39
0
210
0
220
0
230
1
0
SOLID
5
11C
100
AcDbEntity
8
SK2
62
256
6
ByLayer
370
-1
48
1
60
0
100
AcDbTrace
10
38
20
39.859279
30
0
11
42.499996
21
40.856905
31
0
12
42.500004
22
38.861653
32
0
13
38
23
39.859279
33
0
39
0
210
0
220
0
230
1
0
ENDBLK
5
11E
100
AcDbEntity
8
0
100
AcDbBlockEnd
0
BLOCK
5
127
100
AcDbEntity
8
0
100
AcDbBlockBegin
2
DimnDraft3D5
70
0
10
0
20
0
30
0
3
DimnDraft3D5
0
MTEXT
5
121
100
AcDbEntity
8
SK2
62
256
6
ByLayer
370
-1
48
1
60
0
100
AcDbMText
10
-38.044737
20
70.984279
30
0
210
0
220
0
230
1
1
\W01.000;\fsimplex.shx,bigfont.shx;68,2 
40
4.5
41
0
44
1.084337
50
0
71
7
72
5
7
DEFAULT
0
LINE
5
122
100
AcDbEntity
8
SK2
62
256
6
ByLayer
370
-1
48
1
60
0
100
AcDbLine
10
0
20
23.8125
30
0
11
0
21
71.859279
31
0
39
0
210
0
220
0
230
1
0
LINE
5
123
100
AcDbEntity
8
SK2
62
256
6
ByLayer
370
-1
48
1
60
0
100
AcDbLine
10
-68.25
20
13.7875
30
0
11
-68.25
21
71.859279
31
0
39
0
210
0
220
0
230
1
0
LINE
5
124
100
AcDbEntity
8
SK2
62
256
6
ByLayer
370
-1
48
1
60
0
100
AcDbLine
10
0
20
69.859279
30
0
11
-68.25
21
69.859279
31
0
39
0
210
0
220
0
230
1
0
SOLID
5
125
100
AcDbEntity
8
SK2
62
256
6
ByLayer
370
-1
48
1
60
0
100
AcDbTrace
10
0
20
69.859279
30
0
11
-4.499996
21
68.861653
31
0
12
-4.500004
22
70.856905
32
0
13
0
23
69.859279
33
0
39
0
210
0
220
0
230
1
0
SOLID
5
126
100
AcDbEntity
8
SK2
62
256
6
ByLayer
370
-1
48
1
60
0
100
AcDbTrace
10
-68.25
20
69.859279
30
0
11
-63.750004
21
70.856905
31
0
12
-63.749996
22
68.861653
32
0
13
-68.25
23
69.859279
33
0
39
0
210
0
220
0
230
1
0
ENDBLK
5
128
100
AcDbEntity
8
0
100
AcDbBlockEnd
0
BLOCK
5
131
100
AcDbEntity
8
0
100
AcDbBlockBegin
2
DimnDraft3D6
70
0
10
0
20
0
30
0
3
DimnDraft3D6
0
MTEXT
5
12B
100
AcDbEntity
8
SK2
62
256
6
ByLayer
370
-1
48
1
60
0
100
AcDbMText
10
60.383553
20
-38.227695
30
0
210
0
220
0
230
1
1
\W01.000;\fsimplex.shx,bigfont.shx;min 36-max 46 
40
4.5
41
0
44
1.084337
50
0
71
7
72
5
7
DEFAULT
0
LINE
5
12C
100
AcDbEntity
8
SK2
62
256
6
ByLayer
370
-1
48
1
60
0
100
AcDbLine
10
103
20
-7.5875
30
0
11
103
21
-41.352695
31
0
39
0
210
0
220
0
230
1
0
LINE
5
12D
100
AcDbEntity
8
SK2
62
256
6
ByLayer
370
-1
48
1
60
0
100
AcDbLine
10
57
20
-7.5875
30
0
11
57
21
-41.352695
31
0
39
0
210
0
220
0
230
1
0
LINE
5
12E
100
AcDbEntity
8
SK2
62
256
6
ByLayer
370
-1
48
1
60
0
100
AcDbLine
10
114.25
20
-39.352695
30
0
11
45.75
21
-39.352695
31
0
39
0
210
0
220
0
230
1
0
SOLID
5
12F
100
AcDbEntity
8
SK2
62
256
6
ByLayer
370
-1
48
1
60
0
100
AcDbTrace
10
103
20
-39.352695
30
0
11
107.499996
21
-38.355069
31
0
12
107.500004
22
-40.350321
32
0
13
103
23
-39.352695
33
0
39
0
210
0
220
0
230
1
0
SOLID
5
130
100
AcDbEntity
8
SK2
62
256
6
ByLayer
370
-1
48
1
60
0
100
AcDbTrace
10
57
20
-39.352695
30
0
11
52.500004
21
-40.350321
31
0
12
52.499996
22
-38.355069
32
0
13
57
23
-39.352695
33
0
39
0
210
0
220
0
230
1
0
ENDBLK
5
132
100
AcDbEntity
8
0
100
AcDbBlockEnd
0
BLOCK
5
13C
100
AcDbEntity
8
0
100
AcDbBlockBegin
2
DimnDraft3D7
70
0
10
0
20
0
30
0
3
DimnDraft3D7
0
MTEXT
5
135
100
AcDbEntity
8
SK2
62
256
6
ByLayer
370
-1
48
1
60
0
100
AcDbMText
10
145.25
20
3.746053
30
0
210
0
220
0
230
1
1
\W01.000;\fsimplex.shx,bigfont.shx;22 
40
4.5
41
0
44
1.084337
50
90
71
7
72
5
7
DEFAULT
0
MTEXT
5
136
100
AcDbEntity
8
SK2
62
256
6
ByLayer
370
-1
48
1
60
0
100
AcDbMText
10
145
20
-7.003947
30
0
210
0
220
0
230
1
1
\W01.000;\fsimplex.shx,bigfont.shx;%%c 
40
3.5
41
0
44
1.084337
50
90
71
7
72
5
7
DEFAULT
0
LINE
5
137
100
AcDbEntity
8
SK2
62
256
6
ByLayer
370
-1
48
1
60
0
100
AcDbLine
10
104.5875
20
-11
30
0
11
149.25
21
-11
31
0
39
0
210
0
220
0
230
1
0
LINE
5
138
100
AcDbEntity
8
SK2
62
256
6
ByLayer
370
-1
48
1
60
0
100
AcDbLine
10
104.5875
20
11
30
0
11
149.25
21
11
31
0
39
0
210
0
220
0
230
1
0
LINE
5
139
100
AcDbEntity
8
SK2
62
256
6
ByLayer
370
-1
48
1
60
0
100
AcDbLine
10
147.25
20
-22.25
30
0
11
147.25
21
22.25
31
0
39
0
210
0
220
0
230
1
0
SOLID
5
13A
100
AcDbEntity
8
SK2
62
256
6
ByLayer
370
-1
48
1
60
0
100
AcDbTrace
10
147.25
20
-11
30
0
11
148.247626
21
-15.499996
31
0
12
146.252374
22
-15.500004
32
0
13
147.25
23
-11
33
0
39
0
210
0
220
0
230
1
0
SOLID
5
13B
100
AcDbEntity
8
SK2
62
256
6
ByLayer
370
-1
48
1
60
0
100
AcDbTrace
10
147.25
20
11
30
0
11
146.252374
21
15.499996
31
0
12
148.247626
22
15.500004
32
0
13
147.25
23
11
33
0
39
0
210
0
220
0
230
1
0
ENDBLK
5
13D
100
AcDbEntity
8
0
100
AcDbBlockEnd
0
BLOCK
5
147
100
AcDbEntity
8
0
100
AcDbBlockBegin
2
DimnDraft3D8
70
0
10
0
20
0
30
0
3
DimnDraft3D8
0
MTEXT
5
140
100
AcDbEntity
8
SK2
62
256
6
ByLayer
370
-1
48
1
60
0
100
AcDbMText
10
136.25
20
28.625
30
0
210
0
220
0
230
1
1
\W01.000;\fsimplex.shx,bigfont.shx;12 
40
4.5
41
0
44
1.084337
50
90
71
7
72
5
7
DEFAULT
0
MTEXT
5
141
100
AcDbEntity
8
SK2
62
256
6
ByLayer
370
-1
48
1
60
0
100
AcDbMText
10
136
20
17.875
30
0
210
0
220
0
230
1
1
\W01.000;\fsimplex.shx,bigfont.shx;%%c 
40
3.5
41
0
44
1.084337
50
90
71
7
72
5
7
DEFAULT
0
LINE
5
142
100
AcDbEntity
8
SK2
62
256
6
ByLayer
370
-1
48
1
60
0
100
AcDbLine
10
104.5875
20
6
30
0
11
140.25
21
6
31
0
39
0
210
0
220
0
230
1
0
LINE
5
143
100
AcDbEntity
8
SK2
62
256
6
ByLayer
370
-1
48
1
60
0
100
AcDbLine
10
104.5875
20
-6
30
0
11
140.25
21
-6
31
0
39
0
210
0
220
0
230
1
0
LINE
5
144
100
AcDbEntity
8
SK2
62
256
6
ByLayer
370
-1
48
1
60
0
100
AcDbLine
10
138.25
20
-6
30
0
11
138.25
21
31.632895
31
0
39
0
210
0
220
0
230
1
0
SOLID
5
145
100
AcDbEntity
8
SK2
62
256
6
ByLayer
370
-1
48
1
60
0
100
AcDbTrace
10
138.25
20
6
30
0
11
139.247626
21
1.500004
31
0
12
137.252374
22
1.499996
32
0
13
138.25
23
6
33
0
39
0
210
0
220
0
230
1
0
SOLID
5
146
100
AcDbEntity
8
SK2
62
256
6
ByLayer
370
-1
48
1
60
0
100
AcDbTrace
10
138.25
20
-6
30
0
11
137.252374
21
-1.500004
31
0
12
139.247626
22
-1.499996
32
0
13
138.25
23
-6
33
0
39
0
210
0
220
0
230
1
0
ENDBLK
5
148
100
AcDbEntity
8
0
100
AcDbBlockEnd
0
BLOCK
5
152
100
AcDbEntity
8
0
100
AcDbBlockBegin
2
DimnDraft3D9
70
0
10
0
20
0
30
0
3
DimnDraft3D9
0
MTEXT
5
14B
100
AcDbEntity
8
SK2
62
256
6
ByLayer
370
-1
48
1
60
0
100
AcDbMText
10
155.25
20
3.509211
30
0
210
0
220
0
230
1
1
\W01.000;\fsimplex.shx,bigfont.shx;40 
40
4.5
41
0
44
1.084337
50
90
71
7
72
5
7
DEFAULT
0
MTEXT
5
14C
100
AcDbEntity
8
SK2
62
256
6
ByLayer
370
-1
48
1
60
0
100
AcDbMText
10
155
20
-7.240789
30
0
210
0
220
0
230
1
1
\W01.000;\fsimplex.shx,bigfont.shx;%%c 
40
3.5
41
0
44
1.084337
50
90
71
7
72
5
7
DEFAULT
0
LINE
5
14D
100
AcDbEntity
8
SK2
62
256
6
ByLayer
370
-1
48
1
60
0
100
AcDbLine
10
39.5875
20
20
30
0
11
159.25
21
20
31
0
39
0
210
0
220
0
230
1
0
LINE
5
14E
100
AcDbEntity
8
SK2
62
256
6
ByLayer
370
-1
48
1
60
0
100
AcDbLine
10
39.5875
20
-20
30
0
11
159.25
21
-20
31
0
39
0
210
0
220
0
230
1
0
LINE
5
14F
100
AcDbEntity
8
SK2
62
256
6
ByLayer
370
-1
48
1
60
0
100
AcDbLine
10
157.25
20
20
30
0
11
157.25
21
-20
31
0
39
0
210
0
220
0
230
1
0
SOLID
5
150
100
AcDbEntity
8
SK2
62
256
6
ByLayer
370
-1
48
1
60
0
100
AcDbTrace
10
157.25
20
20
30
0
11
158.247626
21
15.500004
31
0
12
156.252374
22
15.499996
32
0
13
157.25
23
20
33
0
39
0
210
0
220
0
230
1
0
SOLID
5
151
100
AcDbEntity
8
SK2
62
256
6
ByLayer
370
-1
48
1
60
0
100
AcDbTrace
10
157.25
20
-20
30
0
11
156.252374
21
-15.500004
31
0
12
158.247626
22
-15.499996
32
0
13
157.25
23
-20
33
0
39
0
210
0
220
0
230
1
0
ENDBLK
5
153
100
AcDbEntity
8
0
100
AcDbBlockEnd
0
ENDSEC
0
SECTION
2
ENTITIES
0
ARC
5
A4
100
AcDbEntity
8
1
62
256
6
ByLayer
370
-1
48
1
60
0
100
AcDbCircle
39
0
10
102.2
20
-9.969571
30
0
40
0.799999999999997
210
0
220
0
230
1
100
AcDbArc
50
282
51
0
0
ARC
5
A5
100
AcDbEntity
8
1
62
256
6
ByLayer
370
-1
48
1
60
0
100
AcDbCircle
39
0
10
-42.195498
20
16
30
0
40
5
210
0
220
0
230
-1
100
AcDbArc
50
270
51
350
0
ARC
5
A6
100
AcDbEntity
8
SK1
62
256
6
ByLayer
370
-1
48
1
60
0
100
AcDbCircle
39
0
10
-67.25
20
11.406204
30
0
40
1
210
0
220
0
230
1
100
AcDbArc
50
98.297917
51
180
0
ARC
5
A7
100
AcDbEntity
8
SK1
62
256
6
ByLayer
370
-1
48
1
60
0
100
AcDbCircle
39
0
10
-67.25
20
-11.406204
30
0
40
1
210
0
220
0
230
1
100
AcDbArc
50
180
51
261.702083
0
ARC
5
A8
100
AcDbEntity
8
1
62
256
6
ByLayer
370
-1
48
1
60
0
100
AcDbCircle
39
0
10
-2.85
20
-22.6
30
0
40
0.600000000000001
210
0
220
0
230
-1
100
AcDbArc
50
90
51
125.68639
0
ARC
5
A9
100
AcDbEntity
8
1
62
256
6
ByLayer
370
-1
48
1
60
0
100
AcDbCircle
39
0
10
-2.85
20
22.6
30
0
40
0.600000000000001
210
0
220
0
230
-1
100
AcDbArc
50
234.31361
51
270
0
ARC
5
AA
100
AcDbEntity
8
1
62
256
6
ByLayer
370
-1
48
1
60
0
100
AcDbCircle
39
0
10
-21.55
20
-22.5
30
0
40
2.5
210
0
220
0
230
-1
100
AcDbArc
50
0
51
90
0
ARC
5
AB
100
AcDbEntity
8
1
62
256
6
ByLayer
370
-1
48
1
60
0
100
AcDbCircle
39
0
10
-21.55
20
22.5
30
0
40
2.5
210
0
220
0
230
-1
100
AcDbArc
50
270
51
0
0
ARC
5
AC
100
AcDbEntity
8
1
62
256
6
ByLayer
370
-1
48
1
60
0
100
AcDbCircle
39
0
10
35.573958
20
19
30
0
40
1
210
0
220
0
230
1
100
AcDbArc
50
10
51
90
0
ARC
5
AD
100
AcDbEntity
8
1
62
256
6
ByLayer
370
-1
48
1
60
0
100
AcDbCircle
39
0
10
35.573958
20
-19
30
0
40
1
210
0
220
0
230
1
100
AcDbArc
50
270
51
350
0
ARC
5
AE
100
AcDbEntity
8
1
62
256
6
ByLayer
370
-1
48
1
60
0
100
AcDbCircle
39
0
10
-42.195498
20
-16
30
0
40
5
210
0
220
0
230
-1
100
AcDbArc
50
10
51
90
0
ARC
5
AF
100
AcDbEntity
8
1
62
256
6
ByLayer
370
-1
48
1
60
0
100
AcDbCircle
39
0
10
102.2
20
9.969571
30
0
40
0.799999999999997
210
0
220
0
230
1
100
AcDbArc
50
0
51
78
0
POINT
5
41
100
AcDbEntity
8
80
62
256
6
ByLayer
370
-1
48
1
60
0
100
AcDbPoint
10
0
20
0
30
0
39
0
210
0
220
0
230
1
50
360
0
POINT
5
43
100
AcDbEntity
8
81
62
256
6
ByLayer
370
-1
48
1
60
0
100
AcDbPoint
10
103
20
0
30
0
39
0
210
0
220
0
230
1
50
360
0
POINT
5
45
100
AcDbEntity
8
SK2
62
256
6
ByLayer
370
-1
48
1
60
1
100
AcDbPoint
10
0
20
31.75
30
0
39
0
210
0
220
0
230
1
50
360
0
POINT
5
47
100
AcDbEntity
8
SK2
62
256
6
ByLayer
370
-1
48
1
60
1
100
AcDbPoint
10
0
20
-31.75
30
0
39
0
210
0
220
0
230
1
50
360
0
SPLINE
5
B0
100
AcDbEntity
8
1
62
256
6
ByLayer
370
-1
48
1
60
0
100
AcDbSpline
70
4
71
3
72
8
73
4
40
0
40
0
40
0
40
0
40
1
40
1
40
1
40
1
41
1
10
9.17500000000001
20
-27.8308227937021
30
0
41
1
10
8.64422021665359
20
-28.7882598650043
30
0
41
1
10
8.11180169070482
20
-29.7448289144208
30
0
41
1
10
7.57816335794328
20
-30.7007080537241
30
0
0
SPLINE
5
B1
100
AcDbEntity
8
1
62
256
6
ByLayer
370
-1
48
1
60
0
100
AcDbSpline
70
4
71
3
72
20
73
16
40
0
40
0
40
0
40
0
40
0.125
40
0.125
40
0.25
40
0.25
40
0.375
40
0.375
40
0.5
40
0.5
40
0.625
40
0.625
40
0.75
40
0.75
40
1
40
1
40
1
40
1
41
1
10
18.05
20
18.35
30
0
41
1
10
18.1233029805178
20
18.35
30
0
41
1
10
18.1958467426518
20
18.35
30
0
41
1
10
18.3388037257524
20
18.35
30
0
41
1
10
18.4063026144014
20
18.35
30
0
41
1
10
18.5341878908257
20
18.35
30
0
41
1
10
18.5939555892112
20
18.35
30
0
41
1
10
18.7019482389055
20
18.35
30
0
41
1
10
18.7512163330266
20
18.35
30
0
41
1
10
18.8375912556248
20
18.35
30
0
41
1
10
18.8750236752913
20
18.35
30
0
41
1
10
18.939446292382
20
18.35
30
0
41
1
10
18.966033877438
20
18.35
30
0
41
1
10
19.0292051183637
20
18.35
30
0
41
1
10
19.0500110011
20
18.35
30
0
41
1
10
19.049995249525
20
18.35
30
0
0
SPLINE
5
B2
100
AcDbEntity
8
1
62
256
6
ByLayer
370
-1
48
1
60
0
100
AcDbSpline
70
4
71
3
72
20
73
16
40
0
40
0
40
0
40
0
40
0.125
40
0.125
40
0.25
40
0.25
40
0.375
40
0.375
40
0.5
40
0.5
40
0.625
40
0.625
40
0.75
40
0.75
40
1
40
1
40
1
40
1
41
1
10
18.05
20
25.9102296400476
30
0
41
1
10
18.1233029805178
20
25.9102296400476
30
0
41
1
10
18.1958467426518
20
25.9004451846742
30
0
41
1
10
18.3388037257524
20
25.8614277920455
30
0
41
1
10
18.4063026144014
20
25.8330299568726
30
0
41
1
10
18.5341878908257
20
25.7603472723029
30
0
41
1
10
18.5939555892112
20
25.7161628430997
30
0
41
1
10
18.7019482389055
20
25.6171273311932
30
0
41
1
10
18.7512163330266
20
25.5613002951829
30
0
41
1
10
18.8375912556248
20
25.4426697983162
30
0
41
1
10
18.8750236752913
20
25.3797278363224
30
0
41
1
10
18.939446292382
20
25.2472634301376
30
0
41
1
10
18.966033877438
20
25.1783899810753
30
0
41
1
10
19.0292051183637
20
24.9683516383951
30
0
41
1
10
19.05
20
24.8205704949931
30
0
41
1
10
19.05
20
24.6746833819605
30
0
0
SPLINE
5
B3
100
AcDbEntity
8
1
62
256
6
ByLayer
370
-1
48
1
60
0
100
AcDbSpline
70
4
71
3
72
24
73
20
40
0
40
0
40
0
40
0
40
0.25
40
0.25
40
0.375000000000003
40
0.375000000000003
40
0.500000000000005
40
0.500000000000005
40
0.625000000000008
40
0.625000000000008
40
0.687500000000008
40
0.687500000000008
40
0.750000000000007
40
0.750000000000007
40
0.875000000000003
40
0.875000000000003
40
0.937500000000001
40
0.937500000000001
40
1
40
1
40
1
40
1
41
1
10
3.19999499949998
20
18.35
30
0
41
1
10
3.2000050005
20
18.35
30
0
41
1
10
3.22042019854391
20
18.35
30
0
41
1
10
3.28379898616916
20
18.35
30
0
41
1
10
3.31060847021161
20
18.35
30
0
41
1
10
3.37457108623511
20
18.35
30
0
41
1
10
3.41186880045444
20
18.35
30
0
41
1
10
3.49858443806966
20
18.35
30
0
41
1
10
3.54774390533333
20
18.35
30
0
41
1
10
3.62865536975949
20
18.35
30
0
41
1
10
3.65692590125516
20
18.35
30
0
41
1
10
3.71628163879183
20
18.35
30
0
41
1
10
3.74757709319911
20
18.35
30
0
41
1
10
3.84356486786356
20
18.35
30
0
41
1
10
3.91080464214869
20
18.35
30
0
41
1
10
4.01694324936526
20
18.35
30
0
41
1
10
4.05353541823672
20
18.35
30
0
41
1
10
4.12678122474168
20
18.35
30
0
41
1
10
4.16339505781175
20
18.35
30
0
41
1
10
4.19999999999999
20
18.35
30
0
0
SPLINE
5
B4
100
AcDbEntity
8
1
62
256
6
ByLayer
370
-1
48
1
60
0
100
AcDbSpline
70
4
71
3
72
8
73
4
40
0
40
0
40
0
40
0
40
1
40
1
40
1
40
1
41
1
10
14.6218366420567
20
-30.7007080537241
30
0
41
1
10
14.0881983092952
20
-29.7448289144208
30
0
41
1
10
13.5557797833464
20
-28.7882598650044
30
0
41
1
10
13.025
20
-27.8308227937021
30
0
0
SPLINE
5
B5
100
AcDbEntity
8
1
62
256
6
ByLayer
370
-1
48
1
60
0
100
AcDbSpline
70
4
71
3
72
8
73
4
40
0
40
0
40
0
40
0
40
1
40
1
40
1
40
1
41
1
10
9.17499999999998
20
27.8308227937021
30
0
41
1
10
8.64421352244412
20
28.7882719402275
30
0
41
1
10
8.11179696690326
20
29.7448373759257
30
0
41
1
10
7.57816335794328
20
30.7007080537241
30
0
0
SPLINE
5
B6
100
AcDbEntity
8
1
62
256
6
ByLayer
370
-1
48
1
60
0
100
AcDbSpline
70
4
71
3
72
24
73
20
40
0
40
0
40
0
40
0
40
0.250000000000008
40
0.250000000000008
40
0.375000000000009
40
0.375000000000009
40
0.50000000000001
40
0.50000000000001
40
0.625000000000011
40
0.625000000000011
40
0.68750000000001
40
0.68750000000001
40
0.750000000000009
40
0.750000000000009
40
0.875000000000005
40
0.875000000000005
40
0.937500000000002
40
0.937500000000002
40
1
40
1
40
1
40
1
41
1
10
3.19999999999999
20
24.6746833819605
30
0
41
1
10
3.19999999999999
20
24.8224319091937
30
0
41
1
10
3.22042019854391
20
24.9668119769603
30
0
41
1
10
3.28379898616916
20
25.1779799783182
30
0
41
1
10
3.31060847021161
20
25.2473248273178
30
0
41
1
10
3.37457108623511
20
25.3789455184171
30
0
41
1
10
3.41186880045444
20
25.4418611580014
30
0
41
1
10
3.49858443806966
20
25.5610931593058
30
0
41
1
10
3.54774390533333
20
25.6167978411617
30
0
41
1
10
3.62865536975949
20
25.6910688536878
30
0
41
1
10
3.65692590125514
20
25.7144088240541
30
0
41
1
10
3.71628163879183
20
25.7580207986444
30
0
41
1
10
3.74757709319911
20
25.7783910710132
30
0
41
1
10
3.84356486786356
20
25.832973766503
30
0
41
1
10
3.91080464214869
20
25.8612163467265
30
0
41
1
10
4.01694324936526
20
25.890340476746
30
0
41
1
10
4.05353541823672
20
25.8978547360975
30
0
41
1
10
4.12678122474168
20
25.9077744644654
30
0
41
1
10
4.16339505781175
20
25.9102296400476
30
0
41
1
10
4.19999999999999
20
25.9102296400476
30
0
0
SPLINE
5
B7
100
AcDbEntity
8
1
62
256
6
ByLayer
370
-1
48
1
60
0
100
AcDbSpline
70
4
71
3
72
18
73
14
40
0
40
0
40
0
40
0
40
0.125
40
0.125
40
0.250000000000001
40
0.250000000000001
40
0.375000000000001
40
0.375000000000001
40
0.500000000000002
40
0.500000000000002
40
0.750000000000001
40
0.750000000000001
40
1
40
1
40
1
40
1
41
1
10
19.05
20
29.5243708654393
30
0
41
1
10
19.05
20
29.5795348974716
30
0
41
1
10
19.0458265205271
20
29.6339356398796
30
0
41
1
10
19.0305003972825
20
29.7411339552404
30
0
41
1
10
19.0192157855593
20
29.7942478154836
30
0
41
1
10
18.9913489205699
20
29.895880663839
30
0
41
1
10
18.9747301032133
20
29.9448358358747
30
0
41
1
10
18.9369210856151
20
30.0395777342206
30
0
41
1
10
18.9155780497581
20
30.0856238780952
30
0
41
1
10
18.8464151004478
20
30.2173328452536
30
0
41
1
10
18.7939651344751
20
30.2962773041105
30
0
41
1
10
18.679010870065
20
30.4401160750689
30
0
41
1
10
18.6161600526845
20
30.5050955035754
30
0
41
1
10
18.55
20
30.5621340441525
30
0
0
SPLINE
5
B8
100
AcDbEntity
8
1
62
256
6
ByLayer
370
-1
48
1
60
0
100
AcDbSpline
70
4
71
3
72
18
73
14
40
0
40
0
40
0
40
0
40
0.25
40
0.25
40
0.5
40
0.5
40
0.625
40
0.625
40
0.75
40
0.75
40
0.875
40
0.875
40
1
40
1
40
1
40
1
41
1
10
3.69999999999999
20
-30.5621340441525
30
0
41
1
10
3.63382134379037
20
-30.5050794649254
30
0
41
1
10
3.57173027252489
20
-30.4409422291715
30
0
41
1
10
3.45656609346386
20
-30.2970421159459
30
0
41
1
10
3.4030505931452
20
-30.2163914066269
30
0
41
1
10
3.33431781986434
20
-30.0853872426918
30
0
41
1
10
3.31324564583176
20
-30.0399635985119
30
0
41
1
10
3.27534753748756
20
-29.9450621144116
30
0
41
1
10
3.25842572555521
20
-29.8951842566222
30
0
41
1
10
3.23056134747259
20
-29.7933074905563
30
0
41
1
10
3.21951518149874
20
-29.7411923495078
30
0
41
1
10
3.204203670357
20
-29.6341972297608
30
0
41
1
10
3.19999999999999
20
-29.5789021591156
30
0
41
1
10
3.19999999999999
20
-29.5243708654393
30
0
0
SPLINE
5
B9
100
AcDbEntity
8
1
62
256
6
ByLayer
370
-1
48
1
60
0
100
AcDbSpline
70
4
71
3
72
10
73
6
40
0
40
0
40
0
40
0
40
0.499999999999999
40
0.499999999999999
40
1
40
1
40
1
40
1
41
1
10
4.19999999999999
20
-30.7007080537241
30
0
41
1
10
4.11198462162758
20
-30.7007080537241
30
0
41
1
10
4.02380634291555
20
-30.6885177563288
30
0
41
1
10
3.85538296873926
20
-30.641536085239
30
0
41
1
10
3.77551825630931
20
-30.6072380299748
30
0
41
1
10
3.69999999999999
20
-30.5621340441525
30
0
0
SPLINE
5
BA
100
AcDbEntity
8
1
62
256
6
ByLayer
370
-1
48
1
60
0
100
AcDbSpline
70
4
71
3
72
65
73
61
40
0
40
0
40
0
40
0
40
0.0556034392314839
40
0.0556034392314839
40
0.0834051588472258
40
0.0834051588472258
40
0.111206878462968
40
0.111206878462968
40
0.166810317694452
40
0.166810317694452
40
0.194612037310194
40
0.194612037310194
40
0.222413756925936
40
0.222413756925936
40
0.27801719615742
40
0.27801719615742
40
0.305818915773162
40
0.305818915773162
40
0.319719775581033
40
0.319719775581033
40
0.333620635388905
40
0.333620635388905
40
0.38922407462039
40
0.38922407462039
40
0.403124934428261
40
0.403124934428261
40
0.417025794236132
40
0.417025794236132
40
0.444827513851874
40
0.472629233467616
40
0.472629233467616
40
0.500430953083359
40
0.500430953083359
40
0.556034392314844
40
0.556034392314844
40
0.583836111930586
40
0.583836111930586
40
0.611637831546328
40
0.611637831546328
40
0.63943955116207
40
0.63943955116207
40
0.667241270777812
40
0.667241270777812
40
0.722844710009296
40
0.722844710009296
40
0.750646429625038
40
0.750646429625038
40
0.77844814924078
40
0.77844814924078
40
0.834051588472264
40
0.834051588472264
40
0.861853308088007
40
0.861853308088007
40
0.889655027703749
40
0.889655027703749
40
0.945258466935234
40
0.945258466935234
40
0.973060186550976
40
0.973060186550976
40
1
40
1
40
1
40
1
41
1
10
23.75
20
-18.7349939951952
30
0
41
1
10
23.75
20
-18.6085995310791
30
0
41
1
10
23.7823610660596
20
-18.4751367433755
30
0
41
1
10
23.8747459878285
20
-18.265233816874
30
0
41
1
10
23.9129085368476
20
-18.1936484095645
30
0
41
1
10
24.0038465132537
20
-18.0474054644727
30
0
41
1
10
24.0568270679601
20
-17.9724923314845
30
0
41
1
10
24.2367241348385
20
-17.7451810005512
30
0
41
1
10
24.3826321689525
20
-17.5921646743776
30
0
41
1
10
24.6391955612061
20
-17.3627207199621
30
0
41
1
10
24.7310501711457
20
-17.2862601882809
30
0
41
1
10
24.9278383645669
20
-17.1338905872394
30
0
41
1
10
25.0333371124928
20
-17.0576128782552
30
0
41
1
10
25.3658613535573
20
-16.8337948042639
30
0
41
1
10
25.6082400879961
20
-16.6912556948297
30
0
41
1
10
26.0049028490457
20
-16.4919803908614
30
0
41
1
10
26.1426831090466
20
-16.4279986722226
30
0
41
1
10
26.3584239043168
20
-16.3365227925288
30
0
41
1
10
26.4318529900345
20
-16.3067825393192
30
0
41
1
10
26.5819170329531
20
-16.248976916329
30
0
41
1
10
26.6587001745505
20
-16.2208686453634
30
0
41
1
10
27.0463271909753
20
-16.0866063421679
30
0
41
1
10
27.3713434914785
20
-15.9977960607309
30
0
41
1
10
27.7986312238582
20
-15.9158213161912
30
0
41
1
10
27.8851502481194
20
-15.900889799042
30
0
41
1
10
28.0604177361178
20
-15.8741506447422
30
0
41
1
10
28.1489061520711
20
-15.8623967821432
30
0
41
1
10
28.4139117838445
20
-15.8324618157196
30
0
41
1
10
28.7683346542949
20
-15.8063777704421
30
0
41
1
10
29.1249138763944
20
-15.8082005352456
30
0
41
1
10
29.4825929477076
20
-15.8242442502062
30
0
41
1
10
29.6630263607178
20
-15.8395809409185
30
0
41
1
10
30.1912554464934
20
-15.9052696086803
30
0
41
1
10
30.5300572330159
20
-15.9750136906831
30
0
41
1
10
31.020127422263
20
-16.1123821532963
30
0
41
1
10
31.1789978859971
20
-16.1632958385003
30
0
41
1
10
31.4849278168126
20
-16.2727497478626
30
0
41
1
10
31.6325981200368
20
-16.3314624928851
30
0
41
1
10
31.9180646530782
20
-16.455701115029
30
0
41
1
10
32.0561006820943
20
-16.5213547645572
30
0
41
1
10
32.3216151433909
20
-16.6580534646241
30
0
41
1
10
32.4478692571451
20
-16.7284410246014
30
0
41
1
10
32.8085914025421
20
-16.9443045999176
30
0
41
1
10
33.0252088578037
20
-17.0944132570042
30
0
41
1
10
33.3160966232704
20
-17.3249905723561
30
0
41
1
10
33.4069709984686
20
-17.4025285602552
30
0
41
1
10
33.574521401313
20
-17.5563761297293
30
0
41
1
10
33.6515805007749
20
-17.632985328913
30
0
41
1
10
33.8629410518799
20
-17.861276882158
30
0
41
1
10
33.9776375611794
20
-18.0114044972848
30
0
41
1
10
34.1079236358911
20
-18.2316319998875
30
0
41
1
10
34.1438669474487
20
-18.3034826721211
30
0
41
1
10
34.2003288601782
20
-18.4428533180143
30
0
41
1
10
34.2209561378913
20
-18.5105554503913
30
0
41
1
10
34.2597467036458
20
-18.7076214916933
30
0
41
1
10
34.2550682817458
20
-18.8309478204891
30
0
41
1
10
34.1970801918853
20
-19.0034705114082
30
0
41
1
10
34.1693403877307
20
-19.0582506097665
30
0
41
1
10
34.0987775254615
20
-19.1599380327567
30
0
41
1
10
34.0563910352634
20
-19.207217922313
30
0
41
1
10
34.0062567115028
20
-19.2518981221085
30
0
0
SPLINE
5
BB
100
AcDbEntity
8
1
62
256
6
ByLayer
370
-1
48
1
60
0
100
AcDbSpline
70
4
71
3
72
14
73
10
40
0
40
0
40
0
40
0
40
0.0464083986368857
40
0.0464083986368857
40
0.364272265757924
40
0.364272265757924
40
0.68213613287896
40
0.68213613287896
40
1
40
1
40
1
40
1
41
1
10
23.9950875551489
20
-19.2530912521597
30
0
41
1
10
23.9873927554554
20
-19.246260405741
30
0
41
1
10
23.9798856354515
20
-19.2393742592189
30
0
41
1
10
23.9224929406921
20
-19.1849405721566
30
0
41
1
10
23.8812223111867
20
-19.1349301830767
30
0
41
1
10
23.8154228362628
20
-19.0297354105751
30
0
41
1
10
23.7908964114077
20
-18.9745512520497
30
0
41
1
10
23.7581848394373
20
-18.8588348145774
30
0
41
1
10
23.75
20
-18.7981912272533
30
0
41
1
10
23.75
20
-18.7349939951952
30
0
0
SPLINE
5
BC
100
AcDbEntity
8
1
62
256
6
ByLayer
370
-1
48
1
60
0
100
AcDbSpline
70
4
71
3
72
12
73
8
40
0
40
0
40
0
40
0
40
0.250000000000003
40
0.250000000000003
40
0.500000000000007
40
0.500000000000007
40
1
40
1
40
1
40
1
41
1
10
18.55
20
30.5621340441525
30
0
41
1
10
18.5122795012594
20
30.5846629652844
30
0
41
1
10
18.4728447015493
20
30.604769547857
30
0
41
1
10
18.3926369412244
20
30.6391399827739
30
0
41
1
10
18.3515871466707
20
30.6535784033012
30
0
41
1
10
18.2255845122922
20
30.6886082424532
30
0
41
1
10
18.1370928527996
20
30.7007080537241
30
0
41
1
10
18.05
20
30.7007080537241
30
0
0
SPLINE
5
BD
100
AcDbEntity
8
1
62
256
6
ByLayer
370
-1
48
1
60
0
100
AcDbSpline
70
4
71
3
72
8
73
4
40
0
40
0
40
0
40
0
40
1
40
1
40
1
40
1
41
1
10
7.57816335794328
20
18.35
30
0
41
1
10
8.12136720141484
20
18.35
30
0
41
1
10
8.65506910506031
20
18.35
30
0
41
1
10
9.17499999999998
20
18.35
30
0
0
SPLINE
5
BE
100
AcDbEntity
8
1
62
256
6
ByLayer
370
-1
48
1
60
0
100
AcDbSpline
70
4
71
3
72
18
73
14
40
0
40
0
40
0
40
0
40
0.125000000000001
40
0.125000000000001
40
0.250000000000002
40
0.250000000000002
40
0.375000000000004
40
0.375000000000004
40
0.500000000000005
40
0.500000000000005
40
0.750000000000002
40
0.750000000000002
40
1
40
1
40
1
40
1
41
1
10
19.05
20
-29.5243708654393
30
0
41
1
10
19.05
20
-29.5795348974716
30
0
41
1
10
19.0458265205271
20
-29.6339356398796
30
0
41
1
10
19.0305003972825
20
-29.7411339552404
30
0
41
1
10
19.0192157855593
20
-29.7942478154836
30
0
41
1
10
18.9913489205699
20
-29.895880663839
30
0
41
1
10
18.9747301032133
20
-29.9448358358747
30
0
41
1
10
18.9369210856151
20
-30.0395777342206
30
0
41
1
10
18.9155780497581
20
-30.0856238780952
30
0
41
1
10
18.8464151004478
20
-30.2173328452536
30
0
41
1
10
18.793965134475
20
-30.2962773041105
30
0
41
1
10
18.6790108700651
20
-30.4401160750689
30
0
41
1
10
18.6161600526845
20
-30.5050955035754
30
0
41
1
10
18.55
20
-30.5621340441525
30
0
0
SPLINE
5
BF
100
AcDbEntity
8
1
62
256
6
ByLayer
370
-1
48
1
60
0
100
AcDbSpline
70
4
71
3
72
18
73
14
40
0
40
0
40
0
40
0
40
0.250000000000001
40
0.250000000000001
40
0.500000000000002
40
0.500000000000002
40
0.625000000000001
40
0.625000000000001
40
0.750000000000001
40
0.750000000000001
40
0.875
40
0.875
40
1
40
1
40
1
40
1
41
1
10
3.69999999999925
20
30.5621340441518
30
0
41
1
10
3.63382134378972
20
30.5050794649247
30
0
41
1
10
3.57173027252432
20
30.4409422291709
30
0
41
1
10
3.45656609346344
20
30.2970421159454
30
0
41
1
10
3.40305059314485
20
30.2163914066264
30
0
41
1
10
3.33431781986411
20
30.0853872426913
30
0
41
1
10
3.31324564583156
20
30.0399635985114
30
0
41
1
10
3.27534753748745
20
29.9450621144112
30
0
41
1
10
3.25842572555513
20
29.8951842566219
30
0
41
1
10
3.23056134747253
20
29.793307490556
30
0
41
1
10
3.21951518149868
20
29.7411923495076
30
0
41
1
10
3.204203670357
20
29.6341972297607
30
0
41
1
10
3.19999999999999
20
29.5789021591156
30
0
41
1
10
3.19999999999999
20
29.5243708654393
30
0
0
SPLINE
5
C0
100
AcDbEntity
8
1
62
256
6
ByLayer
370
-1
48
1
60
0
100
AcDbSpline
70
4
71
3
72
10
73
6
40
0
40
0
40
0
40
0
40
0.5
40
0.5
40
1
40
1
40
1
40
1
41
1
10
4.19999999999999
20
30.7007080537241
30
0
41
1
10
4.11212912566609
20
30.7007080537241
30
0
41
1
10
4.0257301927987
20
30.6889353569765
30
0
41
1
10
3.85588267673134
20
30.6417928485663
30
0
41
1
10
3.77512131257697
20
30.6070009516134
30
0
41
1
10
3.69999999999865
20
30.5621340441517
30
0
0
SPLINE
5
C1
100
AcDbEntity
8
1
62
256
6
ByLayer
370
-1
48
1
60
0
100
AcDbSpline
70
4
71
3
72
12
73
8
40
0
40
0
40
0
40
0
40
0.500000000000003
40
0.500000000000003
40
0.750000000000001
40
0.750000000000001
40
1
40
1
40
1
40
1
41
1
10
18.55
20
-30.5621340441525
30
0
41
1
10
18.4753000916348
20
-30.6067492640013
30
0
41
1
10
18.3935600371111
20
-30.6419671217485
30
0
41
1
10
18.2667072415305
20
-30.6771466825115
30
0
41
1
10
18.2233455182132
20
-30.686049667513
30
0
41
1
10
18.1368621602617
20
-30.697786021456
30
0
41
1
10
18.0934938684323
20
-30.7007080537241
30
0
41
1
10
18.05
20
-30.7007080537241
30
0
0
SPLINE
5
C2
100
AcDbEntity
8
1
62
256
6
ByLayer
370
-1
48
1
60
0
100
AcDbSpline
70
4
71
3
72
8
73
4
40
0
40
0
40
0
40
0
40
1
40
1
40
1
40
1
41
1
10
13.025
20
22.4357131015363
30
0
41
1
10
13.5449308949397
20
23.5991093499129
30
0
41
1
10
14.0786327985852
20
24.7573182519451
30
0
41
1
10
14.6218366420567
20
25.9102296400476
30
0
0
SPLINE
5
C3
100
AcDbEntity
8
1
62
256
6
ByLayer
370
-1
48
1
60
0
100
AcDbSpline
70
4
71
3
72
8
73
4
40
0
40
0
40
0
40
0
40
1
40
1
40
1
40
1
41
1
10
14.6218366420567
20
30.7007080537241
30
0
41
1
10
14.0882030330967
20
29.7448373759257
30
0
41
1
10
13.5557864775559
20
28.7882719402275
30
0
41
1
10
13.025
20
27.8308227937021
30
0
0
SPLINE
5
C4
100
AcDbEntity
8
1
62
256
6
ByLayer
370
-1
48
1
60
0
100
AcDbSpline
70
4
71
3
72
8
73
4
40
0
40
0
40
0
40
0
40
1
40
1
40
1
40
1
41
1
10
13.025
20
18.35
30
0
41
1
10
13.5449308949397
20
18.35
30
0
41
1
10
14.0786327985852
20
18.35
30
0
41
1
10
14.6218366420567
20
18.35
30
0
0
SPLINE
5
C5
100
AcDbEntity
8
1
62
256
6
ByLayer
370
-1
48
1
60
0
100
AcDbSpline
70
4
71
3
72
8
73
4
40
0
40
0
40
0
40
0
40
1
40
1
40
1
40
1
41
1
10
7.57816335794328
20
25.9102296400476
30
0
41
1
10
8.12136720141484
20
24.7573182519451
30
0
41
1
10
8.65506910506031
20
23.5991093499129
30
0
41
1
10
9.17499999999998
20
22.4357131015363
30
0
0
INSERT
5
F0
100
AcDbEntity
8
SK6
62
256
6
ByLayer
370
-1
48
1
60
0
100
AcDbBlockReference
2
LABLE3D_1
10
0
20
0
30
0
41
1
42
1
43
1
50
0
210
0
220
0
230
1
0
LINE
5
48
100
AcDbEntity
8
SK3
62
256
6
ByLayer
370
-1
48
0.05
60
0
100
AcDbLine
10
103
20
6
30
0
11
58.5
21
6
31
0
39
0
210
0
220
0
230
1
0
LINE
5
4A
100
AcDbEntity
8
SK3
62
256
6
ByLayer
370
-1
48
0.05
60
0
100
AcDbLine
10
57
20
4.5
30
0
11
57
21
-4.5
31
0
39
0
210
0
220
0
230
1
0
LINE
5
4B
100
AcDbEntity
8
4
62
256
6
ByLayer
370
-1
48
0.05
60
0
100
AcDbLine
10
103
20
0
30
0
11
0
21
0
31
0
39
0
210
0
220
0
230
1
0
LINE
5
4D
100
AcDbEntity
8
80
62
256
6
ByLayer
370
-1
48
1
60
0
100
AcDbLine
10
0
20
0
30
0
11
-10.875929
21
0
31
0
39
0
210
0
220
0
230
1
0
LINE
5
4E
100
AcDbEntity
8
SK3
62
256
6
ByLayer
370
-1
48
0.05
60
0
100
AcDbLine
10
58.5
20
-6
30
0
11
103
21
-6
31
0
39
0
210
0
220
0
230
1
0
LINE
5
4F
100
AcDbEntity
8
SK3
62
256
6
ByLayer
370
-1
48
0.05
60
0
100
AcDbLine
10
58.5
20
6
30
0
11
57
21
4.5
31
0
39
0
210
0
220
0
230
1
0
LINE
5
50
100
AcDbEntity
8
SK3
62
256
6
ByLayer
370
-1
48
0.05
60
0
100
AcDbLine
10
57
20
-4.5
30
0
11
58.5
21
-6
31
0
39
0
210
0
220
0
230
1
0
LINE
5
51
100
AcDbEntity
8
SK3
62
256
6
ByLayer
370
-1
48
0.05
60
0
100
AcDbLine
10
58.5
20
-6
30
0
11
58.5
21
6
31
0
39
0
210
0
220
0
230
1
0
LINE
5
52
100
AcDbEntity
8
81
62
256
6
ByLayer
370
-1
48
1
60
0
100
AcDbLine
10
103
20
0
30
0
11
107.742527
21
0
31
0
39
0
210
0
220
0
230
1
0
LINE
5
53
100
AcDbEntity
8
SK4
62
256
6
ByLayer
370
-1
48
0.05
60
0
100
AcDbLine
10
-78.25
20
0
30
0
11
113
21
0
31
0
39
0
210
0
220
0
230
1
0
LINE
5
55
100
AcDbEntity
8
1
62
256
6
ByLayer
370
-1
48
1
60
0
100
AcDbLine
10
9.175
20
-27.830823
30
0
11
9.175
21
18.35
31
0
39
0
210
0
220
0
230
1
0
LINE
5
57
100
AcDbEntity
8
1
62
256
6
ByLayer
370
-1
48
1
60
0
100
AcDbLine
10
13.025
20
-26.804309
30
0
11
9.175
21
-26.804309
31
0
39
0
210
0
220
0
230
1
0
LINE
5
58
100
AcDbEntity
8
1
62
256
6
ByLayer
370
-1
48
1
60
0
100
AcDbLine
10
14.621837
20
-30.700708
30
0
11
18.05
21
-30.700708
31
0
39
0
210
0
220
0
230
1
0
LINE
5
59
100
AcDbEntity
8
1
62
256
6
ByLayer
370
-1
48
1
60
0
100
AcDbLine
10
18.05
20
25.91023
30
0
11
14.621837
21
25.91023
31
0
39
0
210
0
220
0
230
1
0
LINE
5
5A
100
AcDbEntity
8
1
62
256
6
ByLayer
370
-1
48
1
60
0
100
AcDbLine
10
9.175
20
22.435713
30
0
11
9.175
21
21.148936
31
0
39
0
210
0
220
0
230
1
0
LINE
5
5B
100
AcDbEntity
8
1
62
256
6
ByLayer
370
-1
48
1
60
0
100
AcDbLine
10
2.85
20
-22
30
0
11
2.85
21
22
31
0
39
0
210
0
220
0
230
1
0
LINE
5
5C
100
AcDbEntity
8
1
62
256
6
ByLayer
370
-1
48
1
60
0
100
AcDbLine
10
13.025
20
22.435713
30
0
11
13.025
21
27.830823
31
0
39
0
210
0
220
0
230
1
0
LINE
5
5D
100
AcDbEntity
8
1
62
256
6
ByLayer
370
-1
48
1
60
0
100
AcDbLine
10
37.271459
20
-15.131759
30
0
11
37.271459
21
15.131759
31
0
39
0
210
0
220
0
230
1
0
LINE
5
5E
100
AcDbEntity
8
1
62
256
6
ByLayer
370
-1
48
1
60
0
100
AcDbLine
10
0.7
20
0
30
0
11
0.7
21
-22.327093
31
0
39
0
210
0
220
0
230
1
0
LINE
5
5F
100
AcDbEntity
8
1
62
256
6
ByLayer
370
-1
48
1
60
0
100
AcDbLine
10
0.7
20
22.327093
30
0
11
0.7
21
0
31
0
39
0
210
0
220
0
230
1
0
LINE
5
60
100
AcDbEntity
8
1
62
256
6
ByLayer
370
-1
48
1
60
0
100
AcDbLine
10
4.2
20
30.700708
30
0
11
7.578163
21
30.700708
31
0
39
0
210
0
220
0
230
1
0
LINE
5
61
100
AcDbEntity
8
1
62
256
6
ByLayer
370
-1
48
1
60
0
100
AcDbLine
10
4.2
20
-30.700708
30
0
11
7.578163
21
-30.700708
31
0
39
0
210
0
220
0
230
1
0
LINE
5
62
100
AcDbEntity
8
1
62
256
6
ByLayer
370
-1
48
1
60
0
100
AcDbLine
10
18.05
20
18.35
30
0
11
14.621837
21
18.35
31
0
39
0
210
0
220
0
230
1
0
LINE
5
63
100
AcDbEntity
8
1
62
256
6
ByLayer
370
-1
48
1
60
0
100
AcDbLine
10
3.2
20
-29.524371
30
0
11
3.2
21
18.35
31
0
39
0
210
0
220
0
230
1
0
LINE
5
64
100
AcDbEntity
8
1
62
256
6
ByLayer
370
-1
48
1
60
0
100
AcDbLine
10
9.175
20
21.148936
30
0
11
13.025
21
21.148936
31
0
39
0
210
0
220
0
230
1
0
LINE
5
65
100
AcDbEntity
8
1
62
256
6
ByLayer
370
-1
48
1
60
0
100
AcDbLine
10
7.578163
20
18.35
30
0
11
4.2
21
18.35
31
0
39
0
210
0
220
0
230
1
0
LINE
5
66
100
AcDbEntity
8
1
62
256
6
ByLayer
370
-1
48
1
60
0
100
AcDbLine
10
13.025
20
26.804309
30
0
11
9.175
21
26.804309
31
0
39
0
210
0
220
0
230
1
0
LINE
5
67
100
AcDbEntity
8
1
62
256
6
ByLayer
370
-1
48
1
60
0
100
AcDbLine
10
19.05
20
18.35
30
0
11
19.05
21
-29.524371
31
0
39
0
210
0
220
0
230
1
0
LINE
5
68
100
AcDbEntity
8
1
62
256
6
ByLayer
370
-1
48
1
60
0
100
AcDbLine
10
0
20
-22.225
30
0
11
0
21
22.225
31
0
39
0
210
0
220
0
230
1
0
LINE
5
69
100
AcDbEntity
8
1
62
256
6
ByLayer
370
-1
48
1
60
0
100
AcDbLine
10
103
20
-9.969571
30
0
11
103
21
9.969571
31
0
39
0
210
0
220
0
230
1
0
LINE
5
6A
100
AcDbEntity
8
1
62
256
6
ByLayer
370
-1
48
1
60
0
100
AcDbLine
10
4.2
20
18.35
30
0
11
4.2
21
-30.700708
31
0
39
0
210
0
220
0
230
1
0
LINE
5
6B
100
AcDbEntity
8
1
62
256
6
ByLayer
370
-1
48
1
60
0
100
AcDbLine
10
1.266542
20
0
30
0
11
1.266542
21
-22
31
0
39
0
210
0
220
0
230
1
0
LINE
5
6C
100
AcDbEntity
8
1
62
256
6
ByLayer
370
-1
48
1
60
0
100
AcDbLine
10
1.266542
20
22
30
0
11
1.266542
21
0
31
0
39
0
210
0
220
0
230
1
0
LINE
5
6D
100
AcDbEntity
8
1
62
256
6
ByLayer
370
-1
48
1
60
0
100
AcDbLine
10
13.025
20
-27.830823
30
0
11
13.025
21
18.35
31
0
39
0
210
0
220
0
230
1
0
LINE
5
6E
100
AcDbEntity
8
1
62
256
6
ByLayer
370
-1
48
1
60
0
100
AcDbLine
10
36.558765
20
19.173648
30
0
11
36.558765
21
-19.173648
31
0
39
0
210
0
220
0
230
1
0
LINE
5
6F
100
AcDbEntity
8
1
62
256
6
ByLayer
370
-1
48
1
60
0
100
AcDbLine
10
102.366329
20
-10.752089
30
0
11
102.366329
21
10.752089
31
0
39
0
210
0
220
0
230
1
0
LINE
5
70
100
AcDbEntity
8
1
62
256
6
ByLayer
370
-1
48
1
60
0
100
AcDbLine
10
9.175
20
18.35
30
0
11
13.025
21
18.35
31
0
39
0
210
0
220
0
230
1
0
LINE
5
71
100
AcDbEntity
8
1
62
256
6
ByLayer
370
-1
48
1
60
0
100
AcDbLine
10
3.2
20
24.674683
30
0
11
3.2
21
29.524371
31
0
39
0
210
0
220
0
230
1
0
LINE
5
72
100
AcDbEntity
8
1
62
256
6
ByLayer
370
-1
48
1
60
0
100
AcDbLine
10
18.05
20
25.91023
30
0
11
18.05
21
30.700708
31
0
39
0
210
0
220
0
230
1
0
LINE
5
73
100
AcDbEntity
8
1
62
256
6
ByLayer
370
-1
48
1
60
0
100
AcDbLine
10
21.55
20
-20
30
0
11
21.55
21
0
31
0
39
0
210
0
220
0
230
1
0
LINE
5
74
100
AcDbEntity
8
1
62
256
6
ByLayer
370
-1
48
1
60
0
100
AcDbLine
10
21.55
20
0
30
0
11
21.55
21
20
31
0
39
0
210
0
220
0
230
1
0
LINE
5
75
100
AcDbEntity
8
1
62
256
6
ByLayer
370
-1
48
1
60
0
100
AcDbLine
10
7.578163
20
25.91023
30
0
11
7.578163
21
30.700708
31
0
39
0
210
0
220
0
230
1
0
LINE
5
76
100
AcDbEntity
8
1
62
256
6
ByLayer
370
-1
48
1
60
0
100
AcDbLine
10
7.578163
20
-30.700708
30
0
11
7.578163
21
18.35
31
0
39
0
210
0
220
0
230
1
0
LINE
5
77
100
AcDbEntity
8
1
62
256
6
ByLayer
370
-1
48
1
60
0
100
AcDbLine
10
19.05
20
18.35
30
0
11
19.05
21
24.674683
31
0
39
0
210
0
220
0
230
1
0
LINE
5
78
100
AcDbEntity
8
1
62
256
6
ByLayer
370
-1
48
1
60
0
100
AcDbLine
10
19.05
20
29.524371
30
0
11
19.05
21
24.674683
31
0
39
0
210
0
220
0
230
1
0
LINE
5
79
100
AcDbEntity
8
1
62
256
6
ByLayer
370
-1
48
1
60
0
100
AcDbLine
10
42.195498
20
-11
30
0
11
42.195498
21
0
31
0
39
0
210
0
220
0
230
1
0
LINE
5
7A
100
AcDbEntity
8
1
62
256
6
ByLayer
370
-1
48
1
60
0
100
AcDbLine
10
42.195498
20
0
30
0
11
42.195498
21
11
31
0
39
0
210
0
220
0
230
1
0
LINE
5
7B
100
AcDbEntity
8
1
62
256
6
ByLayer
370
-1
48
1
60
0
100
AcDbLine
10
7.578163
20
25.91023
30
0
11
4.2
21
25.91023
31
0
39
0
210
0
220
0
230
1
0
LINE
5
7C
100
AcDbEntity
8
1
62
256
6
ByLayer
370
-1
48
1
60
0
100
AcDbLine
10
3.2
20
24.674683
30
0
11
3.2
21
18.35
31
0
39
0
210
0
220
0
230
1
0
LINE
5
7D
100
AcDbEntity
8
1
62
256
6
ByLayer
370
-1
48
1
60
0
100
AcDbLine
10
14.621837
20
30.700708
30
0
11
14.621837
21
25.91023
31
0
39
0
210
0
220
0
230
1
0
LINE
5
7E
100
AcDbEntity
8
1
62
256
6
ByLayer
370
-1
48
1
60
0
100
AcDbLine
10
101.2
20
-11
30
0
11
101.2
21
11
31
0
39
0
210
0
220
0
230
1
0
LINE
5
7F
100
AcDbEntity
8
1
62
256
6
ByLayer
370
-1
48
1
60
0
100
AcDbLine
10
9.175
20
22.435713
30
0
11
9.175
21
27.830823
31
0
39
0
210
0
220
0
230
1
0
LINE
5
80
100
AcDbEntity
8
1
62
256
6
ByLayer
370
-1
48
1
60
0
100
AcDbLine
10
14.621837
20
30.700708
30
0
11
18.05
21
30.700708
31
0
39
0
210
0
220
0
230
1
0
LINE
5
81
100
AcDbEntity
8
1
62
256
6
ByLayer
370
-1
48
1
60
0
100
AcDbLine
10
14.621837
20
18.35
30
0
11
14.621837
21
-30.700708
31
0
39
0
210
0
220
0
230
1
0
LINE
5
82
100
AcDbEntity
8
1
62
256
6
ByLayer
370
-1
48
1
60
0
100
AcDbLine
10
35.573958
20
20
30
0
11
35.573958
21
-20
31
0
39
0
210
0
220
0
230
1
0
LINE
5
83
100
AcDbEntity
8
1
62
256
6
ByLayer
370
-1
48
1
60
0
100
AcDbLine
10
18.05
20
-30.700708
30
0
11
18.05
21
18.35
31
0
39
0
210
0
220
0
230
1
0
LINE
5
84
100
AcDbEntity
8
1
62
256
6
ByLayer
370
-1
48
1
60
0
100
AcDbLine
10
4.2
20
30.700708
30
0
11
4.2
21
25.91023
31
0
39
0
210
0
220
0
230
1
0
LINE
5
85
100
AcDbEntity
8
1
62
256
6
ByLayer
370
-1
48
1
60
0
100
AcDbLine
10
13.025
20
21.148936
30
0
11
13.025
21
22.435713
31
0
39
0
210
0
220
0
230
1
0
LINE
5
86
100
AcDbEntity
8
SK1
62
256
6
ByLayer
370
-1
48
1
60
0
100
AcDbLine
10
-68.25
20
11.406204
30
0
11
-68.25
21
-11.406204
31
0
39
0
210
0
220
0
230
1
0
LINE
5
88
100
AcDbEntity
8
SK1
62
256
6
ByLayer
370
-1
48
1
60
0
100
AcDbLine
10
0
20
-22.225
30
0
11
0
21
22.225
31
0
39
0
210
0
220
0
230
1
0
LINE
5
89
100
AcDbEntity
8
SK1
62
256
6
ByLayer
370
-1
48
1
60
0
100
AcDbLine
10
-67.39432
20
-12.395735
30
0
11
-67.39432
21
0
31
0
39
0
210
0
220
0
230
1
0
LINE
5
8A
100
AcDbEntity
8
SK1
62
256
6
ByLayer
370
-1
48
1
60
0
100
AcDbLine
10
-67.39432
20
0
30
0
11
-67.39432
21
12.395735
31
0
39
0
210
0
220
0
230
1
0
LINE
5
8B
100
AcDbEntity
8
1
62
256
6
ByLayer
370
-1
48
1
60
0
100
AcDbLine
10
33.08
20
-22
30
0
11
24.92
21
-22
31
0
39
0
210
0
220
0
230
1
0
LINE
5
8C
100
AcDbEntity
8
1
62
256
6
ByLayer
370
-1
48
1
60
0
100
AcDbLine
10
34
20
-21.08
30
0
11
24
21
-21.08
31
0
39
0
210
0
220
0
230
1
0
LINE
5
8D
100
AcDbEntity
8
1
62
256
6
ByLayer
370
-1
48
1
60
0
100
AcDbLine
10
42.195498
20
-11
30
0
11
101.2
21
-11
31
0
39
0
210
0
220
0
230
1
0
LINE
5
8E
100
AcDbEntity
8
1
62
256
6
ByLayer
370
-1
48
1
60
0
100
AcDbLine
10
102.366329
20
10.752089
30
0
11
101.2
21
11
31
0
39
0
210
0
220
0
230
1
0
LINE
5
8F
100
AcDbEntity
8
1
62
256
6
ByLayer
370
-1
48
1
60
0
100
AcDbLine
10
101.2
20
-11
30
0
11
102.366329
21
-10.752089
31
0
39
0
210
0
220
0
230
1
0
LINE
5
90
100
AcDbEntity
8
SK1
62
256
6
ByLayer
370
-1
48
1
60
0
100
AcDbLine
10
0
20
22.225
30
0
11
-67.39432
21
12.395735
31
0
39
0
210
0
220
0
230
1
0
LINE
5
91
100
AcDbEntity
8
SK1
62
256
6
ByLayer
370
-1
48
1
60
0
100
AcDbLine
10
-67.39432
20
-12.395735
30
0
11
0
21
-22.225
31
0
39
0
210
0
220
0
230
1
0
LINE
5
92
100
AcDbEntity
8
1
62
256
6
ByLayer
370
-1
48
1
60
0
100
AcDbLine
10
101.2
20
11
30
0
11
42.195498
21
11
31
0
39
0
210
0
220
0
230
1
0
LINE
5
93
100
AcDbEntity
8
1
62
256
6
ByLayer
370
-1
48
1
60
0
100
AcDbLine
10
0.7
20
22.327093
30
0
11
0
21
22.225
31
0
39
0
210
0
220
0
230
1
0
LINE
5
94
100
AcDbEntity
8
1
62
256
6
ByLayer
370
-1
48
1
60
0
100
AcDbLine
10
0
20
-22.225
30
0
11
0.7
21
-22.327093
31
0
39
0
210
0
220
0
230
1
0
LINE
5
95
100
AcDbEntity
8
1
62
256
6
ByLayer
370
-1
48
1
60
0
100
AcDbLine
10
0.7
20
-22.327093
30
0
11
1.266542
21
-22
31
0
39
0
210
0
220
0
230
1
0
LINE
5
96
100
AcDbEntity
8
1
62
256
6
ByLayer
370
-1
48
1
60
0
100
AcDbLine
10
1.266542
20
22
30
0
11
0.7
21
22.327093
31
0
39
0
210
0
220
0
230
1
0
LINE
5
97
100
AcDbEntity
8
1
62
256
6
ByLayer
370
-1
48
1
60
0
100
AcDbLine
10
2.85
20
22
30
0
11
1.266542
21
22
31
0
39
0
210
0
220
0
230
1
0
LINE
5
98
100
AcDbEntity
8
1
62
256
6
ByLayer
370
-1
48
1
60
0
100
AcDbLine
10
1.266542
20
-22
30
0
11
2.85
21
-22
31
0
39
0
210
0
220
0
230
1
0
LINE
5
99
100
AcDbEntity
8
1
62
256
6
ByLayer
370
-1
48
1
60
0
100
AcDbLine
10
21.55
20
-20
30
0
11
24.000029
21
-20
31
0
39
0
210
0
220
0
230
1
0
LINE
5
9A
100
AcDbEntity
8
1
62
256
6
ByLayer
370
-1
48
1
60
0
100
AcDbLine
10
33.999987
20
-20
30
0
11
35.573958
21
-20
31
0
39
0
210
0
220
0
230
1
0
LINE
5
9B
100
AcDbEntity
8
1
62
256
6
ByLayer
370
-1
48
1
60
0
100
AcDbLine
10
35.573958
20
20
30
0
11
21.55
21
20
31
0
39
0
210
0
220
0
230
1
0
LINE
5
9C
100
AcDbEntity
8
1
62
256
6
ByLayer
370
-1
48
1
60
0
100
AcDbLine
10
36.558765
20
-19.173648
30
0
11
37.271459
21
-15.131759
31
0
39
0
210
0
220
0
230
1
0
LINE
5
9D
100
AcDbEntity
8
1
62
256
6
ByLayer
370
-1
48
1
60
0
100
AcDbLine
10
37.271459
20
15.131759
30
0
11
36.558765
21
19.173648
31
0
39
0
210
0
220
0
230
1
0
LINE
5
9E
100
AcDbEntity
8
1
62
256
6
ByLayer
370
-1
48
1
60
0
100
AcDbLine
10
34
20
-21.08
30
0
11
34
21
-18.075525
31
0
39
0
210
0
220
0
230
1
0
LINE
5
9F
100
AcDbEntity
8
1
62
256
6
ByLayer
370
-1
48
1
60
0
100
AcDbLine
10
24
20
-18.080567
30
0
11
24
21
-21.08
31
0
39
0
210
0
220
0
230
1
0
LINE
5
A0
100
AcDbEntity
8
1
62
256
6
ByLayer
370
-1
48
1
60
0
100
AcDbLine
10
24
20
-21.08
30
0
11
24.92
21
-22
31
0
39
0
210
0
220
0
230
1
0
LINE
5
A1
100
AcDbEntity
8
1
62
256
6
ByLayer
370
-1
48
1
60
0
100
AcDbLine
10
33.08
20
-22
30
0
11
34
21
-21.08
31
0
39
0
210
0
220
0
230
1
0
LINE
5
A2
100
AcDbEntity
8
1
62
256
6
ByLayer
370
-1
48
1
60
0
100
AcDbLine
10
24.92
20
-22
30
0
11
24.92
21
-18.0805
31
0
39
0
210
0
220
0
230
1
0
LINE
5
A3
100
AcDbEntity
8
1
62
256
6
ByLayer
370
-1
48
1
60
0
100
AcDbLine
10
33.08
20
-22
30
0
11
33.08
21
-18.075438
31
0
39
0
210
0
220
0
230
1
0
MTEXT
5
F3
100
AcDbEntity
8
SK6
62
256
6
ByLayer
370
-1
48
1
60
0
100
AcDbMText
10
-72.388158
20
39.125
30
0
210
0
220
0
230
1
1
\W01.000;\fsimplex.shx,bigfont.shx;  
40
3.5
41
0
44
1.084337
50
0
71
7
72
5
7
DEFAULT
0
MTEXT
5
F4
100
AcDbEntity
8
SK6
62
256
6
ByLayer
370
-1
48
1
60
0
100
AcDbMText
10
-106.163158
20
39.125
30
0
210
0
220
0
230
1
1
\W00.751;\fsimplex.shx,bigfont.shx;ISO7388-1-AD40 
40
3.5
41
0
44
1.084337
50
0
71
7
72
5
7
DEFAULT
0
MTEXT
5
F5
100
AcDbEntity
8
SK6
62
256
6
ByLayer
370
-1
48
1
60
0
100
AcDbMText
10
-2.125
20
-46.125
30
0
210
0
220
0
230
1
1
\W00.682;\fsimplex.shx,bigfont.shx;930-I40-P-12-103 
40
3.5
41
0
44
1.084337
50
0
71
7
72
5
7
DEFAULT
0
DIMENSION
5
100
100
AcDbEntity
8
SK2
62
256
6
ByLayer
370
-3
48
1
60
0
100
AcDbDimension
2
DimnDraft3D1
10
-106.35
20
-31.75
30
0
11
-107.725
21
-0.544737
31
0
70
33
71
5
72
1
41
1
210
0
220
0
230
1
3
Standard
100
AcDbAlignedDimension
13
-1.5875
23
31.75
33
0
14
-1.5875
24
-31.75
34
0
1001
ACAD
1000
DSTYLE
1002
{
1070
   279
1070
     0
1070
    74
1070
     0
1070
   173
1070
     1
1070
   340
1005
C8
1070
   271
1070
     2
1070
   272
1070
     2
1070
    77
1070
     1
1070
    73
1070
     0
1070
   171
1070
     3
1070
   274
1070
     4
1070
   177
1070
     2
1070
   176
1070
     2
1070
   178
1070
     2
1070
    78
1070
     8
1070
    48
1040
-0.005
1070
    41
1041
4.5
1070
   147
1041
2.25
1070
    42
1041
1.5875
1070
    44
1041
2.0
1070
   140
1041
4.5
1070
   343
1005
0
1070
   344
1005
0
1002
}
0
DIMENSION
5
10B
100
AcDbEntity
8
2
62
256
6
ByLayer
370
-3
48
1
60
0
100
AcDbDimension
2
DimnDraft3D2
10
103
20
69.859279
30
0
11
47.781579
21
69.859279
31
0
70
32
71
5
72
1
41
1
210
0
220
0
230
1
3
Standard
100
AcDbAlignedDimension
13
0
23
23.8125
33
0
14
103
24
12.5875
34
0
50
0
100
AcDbRotatedDimension
1001
ACAD
1000
DSTYLE
1002
{
1070
   279
1070
     0
1070
   172
1070
     1
1070
   173
1070
     1
1070
   340
1005
C8
1070
   271
1070
     1
1070
   272
1070
     2
1070
    77
1070
     1
1070
    73
1070
     0
1070
   171
1070
     3
1070
   274
1070
     4
1070
   177
1070
     2
1070
   176
1070
     2
1070
   178
1070
     2
1070
    78
1070
     8
1070
    48
1040
-0.005
1070
    41
1041
4.5
1070
   147
1041
2.25
1070
    42
1041
1.5875
1070
    44
1041
2.0
1070
   140
1041
4.5
1070
   343
1005
0
1070
   344
1005
0
1002
}
0
DIMENSION
5
115
100
AcDbEntity
8
SK2
62
256
6
ByLayer
370
-3
48
1
60
0
100
AcDbDimension
2
DimnDraft3D3
10
19.05
20
39.859279
30
0
11
3.390789
21
39.859279
31
0
70
32
71
5
72
1
41
1
210
0
220
0
230
1
3
Standard
100
AcDbAlignedDimension
13
0
23
23.8125
33
0
14
19.05
24
33.3375
34
0
50
0
100
AcDbRotatedDimension
1001
ACAD
1000
DSTYLE
1002
{
1070
   279
1070
     0
1070
   172
1070
     1
1070
   173
1070
     1
1070
   340
1005
C8
1070
   271
1070
     2
1070
   272
1070
     2
1070
    77
1070
     1
1070
    73
1070
     0
1070
   171
1070
     3
1070
   274
1070
     4
1070
   177
1070
     2
1070
   176
1070
     2
1070
   178
1070
     2
1070
    78
1070
     8
1070
    48
1040
-0.005
1070
    41
1041
4.5
1070
   147
1041
2.25
1070
    42
1041
1.5875
1070
    44
1041
2.0
1070
   140
1041
4.5
1070
   343
1005
0
1070
   344
1005
0
1002
}
0
DIMENSION
5
11F
100
AcDbEntity
8
SK2
62
256
6
ByLayer
370
-3
48
1
60
0
100
AcDbDimension
2
DimnDraft3D4
10
38
20
39.859279
30
0
11
67.871053
21
39.859279
31
0
70
32
71
5
72
1
41
1
210
0
220
0
230
1
3
Standard
100
AcDbAlignedDimension
13
103
23
12.5875
33
0
14
38
24
12.5875
34
0
50
0
100
AcDbRotatedDimension
1001
ACAD
1000
DSTYLE
1002
{
1070
   279
1070
     0
1070
   172
1070
     1
1070
   173
1070
     1
1070
   340
1005
C8
1070
   271
1070
     1
1070
   272
1070
     2
1070
    77
1070
     1
1070
    73
1070
     0
1070
   171
1070
     3
1070
   274
1070
     4
1070
   177
1070
     2
1070
   176
1070
     2
1070
   178
1070
     2
1070
    78
1070
     8
1070
    48
1040
-0.005
1070
    41
1041
4.5
1070
   147
1041
2.25
1070
    42
1041
1.5875
1070
    44
1041
2.0
1070
   140
1041
4.5
1070
   343
1005
0
1070
   344
1005
0
1002
}
0
DIMENSION
5
129
100
AcDbEntity
8
SK2
62
256
6
ByLayer
370
-3
48
1
60
0
100
AcDbDimension
2
DimnDraft3D5
10
-68.25
20
69.859279
30
0
11
-39.169737
21
69.859279
31
0
70
32
71
5
72
1
41
1
210
0
220
0
230
1
3
Standard
100
AcDbAlignedDimension
13
0
23
23.8125
33
0
14
-68.25
24
13.7875
34
0
50
0
100
AcDbRotatedDimension
1001
ACAD
1000
DSTYLE
1002
{
1070
   279
1070
     0
1070
   172
1070
     1
1070
   173
1070
     1
1070
   340
1005
C8
1070
   271
1070
     1
1070
   272
1070
     2
1070
    77
1070
     1
1070
    73
1070
     0
1070
   171
1070
     3
1070
   274
1070
     4
1070
   177
1070
     2
1070
   176
1070
     2
1070
   178
1070
     2
1070
    78
1070
     8
1070
    48
1040
-0.005
1070
    41
1041
4.5
1070
   147
1041
2.25
1070
    42
1041
1.5875
1070
    44
1041
2.0
1070
   140
1041
4.5
1070
   343
1005
0
1070
   344
1005
0
1002
}
0
DIMENSION
5
133
100
AcDbEntity
8
SK2
62
256
6
ByLayer
370
-3
48
1
60
0
100
AcDbDimension
2
DimnDraft3D6
10
57
20
-39.352695
30
0
11
59.258553
21
-39.352695
31
0
70
32
71
5
72
1
41
1
210
0
220
0
230
1
3
Standard
100
AcDbAlignedDimension
13
103
23
-7.5875
33
0
14
57
24
-7.5875
34
0
50
0
100
AcDbRotatedDimension
1001
ACAD
1000
DSTYLE
1002
{
1070
   279
1070
     0
1070
   172
1070
     1
1070
   173
1070
     1
1070
   340
1005
C8
1070
   271
1070
     0
1070
   272
1070
     2
1070
    77
1070
     1
1070
    73
1070
     0
1070
   171
1070
     3
1070
   274
1070
     4
1070
   177
1070
     2
1070
   176
1070
     2
1070
   178
1070
     2
1070
    78
1070
     8
1070
    48
1040
-0.005
1070
    41
1041
4.5
1070
   147
1041
2.25
1070
    42
1041
1.5875
1070
    44
1041
2.0
1070
   140
1041
4.5
1070
   343
1005
0
1070
   344
1005
0
1002
}
0
DIMENSION
5
13E
100
AcDbEntity
8
SK2
62
256
6
ByLayer
370
-3
48
1
60
0
100
AcDbDimension
2
DimnDraft3D7
10
147.25
20
11
30
0
11
147.25
21
-7.878947
31
0
70
32
71
5
72
1
41
1
210
0
220
0
230
1
3
Standard
100
AcDbAlignedDimension
13
104.5875
23
-11
33
0
14
104.5875
24
11
34
0
50
90
100
AcDbRotatedDimension
1001
ACAD
1000
DSTYLE
1002
{
1070
    74
1070
     0
1070
   279
1070
     0
1070
   172
1070
     1
1070
   173
1070
     1
1070
   340
1005
C8
1070
   271
1070
     1
1070
   272
1070
     2
1070
    77
1070
     1
1070
    73
1070
     0
1070
   171
1070
     3
1070
   274
1070
     4
1070
   177
1070
     2
1070
   176
1070
     2
1070
   178
1070
     2
1070
    78
1070
     8
1070
    48
1040
-0.005
1070
    41
1041
4.5
1070
   147
1041
2.25
1070
    42
1041
1.5875
1070
    44
1041
2.0
1070
   140
1041
4.5
1070
   343
1005
0
1070
   344
1005
0
1002
}
0
DIMENSION
5
149
100
AcDbEntity
8
SK2
62
256
6
ByLayer
370
-3
48
1
60
0
100
AcDbDimension
2
DimnDraft3D8
10
138.25
20
-6
30
0
11
138.25
21
17
31
0
70
32
71
5
72
1
41
1
210
0
220
0
230
1
3
Standard
100
AcDbAlignedDimension
13
104.5875
23
6
33
0
14
104.5875
24
-6
34
0
50
90
100
AcDbRotatedDimension
1001
ACAD
1000
DSTYLE
1002
{
1070
    74
1070
     0
1070
   279
1070
     0
1070
   172
1070
     1
1070
   173
1070
     1
1070
   340
1005
C8
1070
   271
1070
     1
1070
   272
1070
     2
1070
    77
1070
     1
1070
    73
1070
     0
1070
   171
1070
     3
1070
   274
1070
     4
1070
   177
1070
     2
1070
   176
1070
     2
1070
   178
1070
     2
1070
    78
1070
     8
1070
    48
1040
-0.005
1070
    41
1041
4.5
1070
   147
1041
2.25
1070
    42
1041
1.5875
1070
    44
1041
2.0
1070
   140
1041
4.5
1070
   343
1005
0
1070
   344
1005
0
1002
}
0
DIMENSION
5
154
100
AcDbEntity
8
SK2
62
256
6
ByLayer
370
-3
48
1
60
0
100
AcDbDimension
2
DimnDraft3D9
10
157.25
20
-20
30
0
11
157.25
21
-8.115789
31
0
70
32
71
5
72
1
41
1
210
0
220
0
230
1
3
Standard
100
AcDbAlignedDimension
13
39.5875
23
20
33
0
14
39.5875
24
-20
34
0
50
90
100
AcDbRotatedDimension
1001
ACAD
1000
DSTYLE
1002
{
1070
    74
1070
     0
1070
   279
1070
     0
1070
   172
1070
     1
1070
   173
1070
     1
1070
   340
1005
C8
1070
   271
1070
     1
1070
   272
1070
     2
1070
    77
1070
     1
1070
    73
1070
     0
1070
   171
1070
     3
1070
   274
1070
     4
1070
   177
1070
     2
1070
   176
1070
     2
1070
   178
1070
     2
1070
    78
1070
     8
1070
    48
1040
-0.005
1070
    41
1041
4.5
1070
   147
1041
2.25
1070
    42
1041
1.5875
1070
    44
1041
2.0
1070
   140
1041
4.5
1070
   343
1005
0
1070
   344
1005
0
1002
}
0
ENDSEC
0
SECTION
2
OBJECTS
0
DICTIONARY
5
186
330
0
100
AcDbDictionary
280
0
281
1
3
ACAD_GROUP
350
187
3
ACAD_MLINESTYLE
350
188
0
DICTIONARY
5
187
330
0
100
AcDbDictionary
280
0
281
1
0
DICTIONARY
5
188
330
0
100
AcDbDictionary
280
0
281
1
3
Standard
350
18
0
MLINESTYLE
5
18
330
188
100
AcDbMlineStyle
2
Standard
70
0
3

62
256
51
90
52
90
71
2
49
-0.5
62
256
6
ByLayer
49
0.5
62
256
6
ByLayer
0
RASTERVARIABLES
5
173
330

100
AcDbRasterVariables
90
0
70
1
71
1
72
1
0
ENDSEC
0
EOF
