0
SECTION
2
HEADER
9
$ACADVER
1
AC1015
9
$DWGCODEPAGE
3
ANSI_1252
9
$HANDSEED
5
193
9
$ANGBASE
50
0
9
$ANGDIR
70
0
9
$ATTMODE
70
1
9
$AUNITS
70
0
9
$AUPREC
70
0
9
$CECOLOR
62
256
9
$CELTSCALE
40
1
9
$CELTYPE
6
ByLayer
9
$CELWEIGHT
370
-1
9
$CLAYER
8
0
9
$CMLJUST
70
0
9
$CMLSCALE
40
1
9
$CMLSTYLE
2
Standard
9
$DIMSTYLE
2
Standard
9
$TEXTSIZE
40
0.2
9
$TEXTSTYLE
7
Standard
9
$LUNITS
70
2
9
$LUPREC
70
4
9
$EXTNAMES
290
1
9
$INSUNITS
70
4
9
$LTSCALE
40
1
9
$LWDISPLAY
290
0
9
$PDMODE
70
0
9
$PDSIZE
40
0
9
$PLINEGEN
70
0
0
ENDSEC
0
SECTION
2
CLASSES
0
CLASS
1
RASTERVARIABLES
2
AcDbRasterVariables
3
ISM
90
0
280
0
281
0
0
ENDSEC
0
SECTION
2
TABLES
0
TABLE
2
VPORT
5
189
100
AcDbSymbolTable
0
VPORT
5
1
100
AcDbSymbolTableRecord
100
AcDbViewportTableRecord
2
*Active
70
0
10
0
20
0
11
1
21
1
12
-1
22
1
13
0
23
0
14
0.5
24
0.5
15
10
25
10
16
0
26
0
36
1
17
0
27
0
37
0
0
ENDTAB
0
TABLE
2
LTYPE
5
18a
100
AcDbSymbolTable
0
LTYPE
5
14
100
AcDbSymbolTableRecord
100
AcDbLinetypeTableRecord
70
0
2
ByBlock
3

72
65
73
0
40
0
0
LTYPE
5
15
100
AcDbSymbolTableRecord
100
AcDbLinetypeTableRecord
70
0
2
ByLayer
3

72
65
73
0
40
0
0
LTYPE
5
16
100
AcDbSymbolTableRecord
100
AcDbLinetypeTableRecord
70
0
2
CONTINUOUS
3
Solid line
72
65
73
0
40
0
0
LTYPE
5
3B
100
AcDbSymbolTableRecord
100
AcDbLinetypeTableRecord
70
0
2
DASHED
3
__ __ __ __ __ __ __ __ __
72
65
73
2
40
25.72
49
12.86
74
0
49
-12.86
74
0
0
LTYPE
5
3C
100
AcDbSymbolTableRecord
100
AcDbLinetypeTableRecord
70
0
2
HIDDEN
3
_ _ _ _ _ _ _ _ _ _ _ _ _ _ _
72
65
73
2
40
0.5
49
0.25
74
0
49
-0.25
74
0
0
LTYPE
5
3D
100
AcDbSymbolTableRecord
100
AcDbLinetypeTableRecord
70
0
2
PHANTOM
3
____ _ _ ____ _ _ _____ _ _ ____
72
65
73
6
40
50.5
49
18
74
0
49
-6.5
74
0
49
6.5
74
0
49
-6.5
74
0
49
6.5
74
0
49
-6.5
74
0
0
LTYPE
5
3E
100
AcDbSymbolTableRecord
100
AcDbLinetypeTableRecord
70
0
2
CENTER
3
____ _ ____ _ ____ _ ____
72
65
73
4
40
47.5
49
22
74
0
49
-8.5
74
0
49
8.5
74
0
49
-8.5
74
0
0
LTYPE
5
3F
100
AcDbSymbolTableRecord
100
AcDbLinetypeTableRecord
70
0
2
DOT
3
.........................
72
65
73
2
40
10
49
0
74
0
49
-10
74
0
0
LTYPE
5
40
100
AcDbSymbolTableRecord
100
AcDbLinetypeTableRecord
70
0
2
DASHDOT
3
_._._._._._._._._._._._._._._._.
72
65
73
4
40
70
49
31
74
0
49
-13
74
0
49
13
74
0
49
-13
74
0
0
ENDTAB
0
TABLE
2
LAYER
5
18b
100
AcDbSymbolTable
0
LAYER
5
10
100
AcDbSymbolTableRecord
100
AcDbLayerTableRecord
2
0
70
0
62
7
6
CONTINUOUS
290
1
370
-3
390
0
0
LAYER
5
42
100
AcDbSymbolTableRecord
100
AcDbLayerTableRecord
2
80
70
0
62
-6
6
CONTINUOUS
290
1
370
-3
390
0
0
LAYER
5
44
100
AcDbSymbolTableRecord
100
AcDbLayerTableRecord
2
81
70
0
62
-3
6
CONTINUOUS
290
1
370
-3
390
0
0
LAYER
5
4C
100
AcDbSymbolTableRecord
100
AcDbLayerTableRecord
2
4
70
0
62
-2
6
CENTER
290
1
370
-3
390
0
0
LAYER
5
56
100
AcDbSymbolTableRecord
100
AcDbLayerTableRecord
2
1
70
0
62
4
6
CONTINUOUS
290
1
370
-3
390
0
0
LAYER
5
103
100
AcDbSymbolTableRecord
100
AcDbLayerTableRecord
2
2
70
0
62
7
6
CONTINUOUS
290
1
370
-3
390
0
0
LAYER
5
174
100
AcDbSymbolTableRecord
100
AcDbLayerTableRecord
2
SK2
70
0
62
7
6
CONTINUOUS
290
1
370
-3
390
0
0
LAYER
5
175
100
AcDbSymbolTableRecord
100
AcDbLayerTableRecord
2
SK3
70
0
62
1
6
DASHED
290
1
370
-3
390
0
0
LAYER
5
176
100
AcDbSymbolTableRecord
100
AcDbLayerTableRecord
2
SK4
70
0
62
2
6
CENTER
290
1
370
-3
390
0
0
LAYER
5
177
100
AcDbSymbolTableRecord
100
AcDbLayerTableRecord
2
SK1
70
0
62
4
6
CONTINUOUS
290
1
370
-3
390
0
0
LAYER
5
178
100
AcDbSymbolTableRecord
100
AcDbLayerTableRecord
2
SK6
70
0
62
5
6
CONTINUOUS
290
1
370
-3
390
0
0
ENDTAB
0
TABLE
2
STYLE
5
18c
100
AcDbSymbolTable
0
STYLE
5
11
100
AcDbSymbolTableRecord
100
AcDbTextStyleTableRecord
2
Standard
3
txt
70
0
71
0
40
0
41
1
42
0
50
0
0
STYLE
5
C5
100
AcDbSymbolTableRecord
100
AcDbTextStyleTableRecord
2
DEFAULT
3
simplex.shx
70
0
71
0
40
0
41
1
42
0
50
0
0
STYLE
5
E8
100
AcDbSymbolTableRecord
100
AcDbTextStyleTableRecord
2
DWGDirectTextStyle
3
SIMPLEX
70
0
71
0
40
0
41
1
42
0
50
0
0
ENDTAB
0
TABLE
2
DIMSTYLE
5
18d
100
AcDbSymbolTable
100
AcDbDimStyleTable
0
DIMSTYLE
105
27
100
AcDbSymbolTableRecord
100
AcDbDimStyleTableRecord
2
Standard
70
0
3
<>
41
0.18
42
0.0625
44
0.18
140
0.18
147
0.09
73
0
74
0
77
1
271
2
275
0
278
52
280
0
340
11
0
ENDTAB
0
TABLE
2
VIEW
5
18e
100
AcDbSymbolTable
0
ENDTAB
0
TABLE
2
UCS
5
18f
100
AcDbSymbolTable
0
ENDTAB
0
TABLE
2
APPID
5
190
100
AcDbSymbolTable
0
APPID
5
12
100
AcDbSymbolTableRecord
100
AcDbRegAppTableRecord
2
ACAD
70
0
0
ENDTAB
0
TABLE
2
BLOCK_RECORD
5
191
100
AcDbSymbolTable
0
BLOCK_RECORD
5
1F
100
AcDbSymbolTableRecord
100
AcDbBlockTableRecord
2
*Model_Space
340
0
70
0
0
BLOCK_RECORD
5
1B
100
AcDbSymbolTableRecord
100
AcDbBlockTableRecord
2
*Paper_Space
340
0
70
0
0
BLOCK_RECORD
5
23
100
AcDbSymbolTableRecord
100
AcDbBlockTableRecord
2
*Paper_Space0
340
0
70
0
0
BLOCK_RECORD
5
EC
100
AcDbSymbolTableRecord
100
AcDbBlockTableRecord
2
DimnDraft3D1
340
0
70
0
0
BLOCK_RECORD
5
F7
100
AcDbSymbolTableRecord
100
AcDbBlockTableRecord
2
DimnDraft3D2
340
0
70
0
0
BLOCK_RECORD
5
101
100
AcDbSymbolTableRecord
100
AcDbBlockTableRecord
2
DimnDraft3D3
340
0
70
0
0
BLOCK_RECORD
5
10C
100
AcDbSymbolTableRecord
100
AcDbBlockTableRecord
2
DimnDraft3D4
340
0
70
0
0
BLOCK_RECORD
5
116
100
AcDbSymbolTableRecord
100
AcDbBlockTableRecord
2
DimnDraft3D5
340
0
70
0
0
BLOCK_RECORD
5
120
100
AcDbSymbolTableRecord
100
AcDbBlockTableRecord
2
DimnDraft3D6
340
0
70
0
0
BLOCK_RECORD
5
12A
100
AcDbSymbolTableRecord
100
AcDbBlockTableRecord
2
DimnDraft3D7
340
0
70
0
0
BLOCK_RECORD
5
134
100
AcDbSymbolTableRecord
100
AcDbBlockTableRecord
2
DimnDraft3D8
340
0
70
0
0
BLOCK_RECORD
5
13F
100
AcDbSymbolTableRecord
100
AcDbBlockTableRecord
2
DimnDraft3D9
340
0
70
0
0
BLOCK_RECORD
5
14A
100
AcDbSymbolTableRecord
100
AcDbBlockTableRecord
2
DimnDraft3D10
340
0
70
0
0
ENDTAB
0
ENDSEC
0
SECTION
2
BLOCKS
0
BLOCK
5
20
100
AcDbEntity
8
0
100
AcDbBlockBegin
2
*Model_Space
70
0
10
0
20
0
30
0
3
*Model_Space
0
ENDBLK
5
21
100
AcDbEntity
8
0
100
AcDbBlockEnd
0
BLOCK
5
1C
100
AcDbEntity
8
0
100
AcDbBlockBegin
2
*Paper_Space
70
0
10
0
20
0
30
0
3
*Paper_Space
0
ENDBLK
5
1D
100
AcDbEntity
8
0
100
AcDbBlockEnd
0
BLOCK
5
24
100
AcDbEntity
8
0
100
AcDbBlockBegin
2
*Paper_Space0
70
0
10
0
20
0
30
0
3
*Paper_Space0
0
ENDBLK
5
25
100
AcDbEntity
8
0
100
AcDbBlockEnd
0
BLOCK
5
F4
100
AcDbEntity
8
0
100
AcDbBlockBegin
2
DimnDraft3D1
70
0
10
0
20
0
30
0
3
DimnDraft3D1
0
MTEXT
5
ED
100
AcDbEntity
8
SK2
62
256
6
ByLayer
370
-1
48
1
60
0
100
AcDbMText
10
-78.35
20
2.996053
30
0
210
0
220
0
230
1
1
\W01.000;\fsimplex.shx,bigfont.shx;80 
40
4.5
41
0
44
1.084337
50
90
71
7
72
5
7
DEFAULT
0
MTEXT
5
EE
100
AcDbEntity
8
SK2
62
256
6
ByLayer
370
-1
48
1
60
0
100
AcDbMText
10
-78.35
20
-6.003947
30
0
210
0
220
0
230
1
1
\W01.000;\fsimplex.shx,bigfont.shx;%%c 
40
4.5
41
0
44
1.084337
50
90
71
7
72
5
7
DEFAULT
0
LINE
5
EF
100
AcDbEntity
8
SK2
62
256
6
ByLayer
370
-1
48
1
60
0
100
AcDbLine
10
-1.5875
20
-39.9925
30
0
11
-78.1
21
-39.9925
31
0
39
0
210
0
220
0
230
1
0
LINE
5
F0
100
AcDbEntity
8
SK2
62
256
6
ByLayer
370
-1
48
1
60
0
100
AcDbLine
10
-1.5875
20
39.9925
30
0
11
-78.1
21
39.9925
31
0
39
0
210
0
220
0
230
1
0
LINE
5
F1
100
AcDbEntity
8
SK2
62
256
6
ByLayer
370
-1
48
1
60
0
100
AcDbLine
10
-76.1
20
-39.9925
30
0
11
-76.1
21
39.9925
31
0
39
0
210
0
220
0
230
1
0
SOLID
5
F2
100
AcDbEntity
8
SK2
62
256
6
ByLayer
370
-1
48
1
60
0
100
AcDbTrace
10
-76.1
20
-39.9925
30
0
11
-77.097626
21
-35.492504
31
0
12
-75.102374
22
-35.492496
32
0
13
-76.1
23
-39.9925
33
0
39
0
210
0
220
0
230
1
0
SOLID
5
F3
100
AcDbEntity
8
SK2
62
256
6
ByLayer
370
-1
48
1
60
0
100
AcDbTrace
10
-76.1
20
39.9925
30
0
11
-75.102374
21
35.492504
31
0
12
-77.097626
22
35.492496
32
0
13
-76.1
23
39.9925
33
0
39
0
210
0
220
0
230
1
0
ENDBLK
5
F5
100
AcDbEntity
8
0
100
AcDbBlockEnd
0
BLOCK
5
FE
100
AcDbEntity
8
0
100
AcDbBlockBegin
2
DimnDraft3D2
70
0
10
0
20
0
30
0
3
DimnDraft3D2
0
MTEXT
5
F8
100
AcDbEntity
8
SK2
62
256
6
ByLayer
370
-1
48
1
60
0
100
AcDbMText
10
75.996053
20
69.2175
30
0
210
0
220
0
230
1
1
\W01.000;\fsimplex.shx,bigfont.shx;85 
40
4.5
41
0
44
1.084337
50
0
71
7
72
5
7
DEFAULT
0
LINE
5
F9
100
AcDbEntity
8
SK2
62
256
6
ByLayer
370
-1
48
1
60
0
100
AcDbLine
10
35
20
21.5875
30
0
11
35
21
70.0925
31
0
39
0
210
0
220
0
230
1
0
LINE
5
FA
100
AcDbEntity
8
SK2
62
256
6
ByLayer
370
-1
48
1
60
0
100
AcDbLine
10
120
20
7.5875
30
0
11
120
21
70.0925
31
0
39
0
210
0
220
0
230
1
0
LINE
5
FB
100
AcDbEntity
8
SK2
62
256
6
ByLayer
370
-1
48
1
60
0
100
AcDbLine
10
35
20
68.0925
30
0
11
120
21
68.0925
31
0
39
0
210
0
220
0
230
1
0
SOLID
5
FC
100
AcDbEntity
8
SK2
62
256
6
ByLayer
370
-1
48
1
60
0
100
AcDbTrace
10
35
20
68.0925
30
0
11
39.499996
21
69.090126
31
0
12
39.500004
22
67.094874
32
0
13
35
23
68.0925
33
0
39
0
210
0
220
0
230
1
0
SOLID
5
FD
100
AcDbEntity
8
SK2
62
256
6
ByLayer
370
-1
48
1
60
0
100
AcDbTrace
10
120
20
68.0925
30
0
11
115.500004
21
67.094874
31
0
12
115.499996
22
69.090126
32
0
13
120
23
68.0925
33
0
39
0
210
0
220
0
230
1
0
ENDBLK
5
FF
100
AcDbEntity
8
0
100
AcDbBlockEnd
0
BLOCK
5
109
100
AcDbEntity
8
0
100
AcDbBlockBegin
2
DimnDraft3D3
70
0
10
0
20
0
30
0
3
DimnDraft3D3
0
MTEXT
5
102
100
AcDbEntity
8
2
62
256
6
ByLayer
370
-1
48
1
60
0
100
AcDbMText
10
57.406579
20
80.2175
30
0
210
0
220
0
230
1
1
\W01.000;\fsimplex.shx,bigfont.shx;120 
40
4.5
41
0
44
1.084337
50
0
71
7
72
5
7
DEFAULT
0
LINE
5
104
100
AcDbEntity
8
2
62
256
6
ByLayer
370
-1
48
1
60
0
100
AcDbLine
10
0
20
23.6425
30
0
11
0
21
81.0925
31
0
39
0
210
0
220
0
230
1
0
LINE
5
105
100
AcDbEntity
8
2
62
256
6
ByLayer
370
-1
48
1
60
0
100
AcDbLine
10
120
20
12.5875
30
0
11
120
21
81.0925
31
0
39
0
210
0
220
0
230
1
0
LINE
5
106
100
AcDbEntity
8
2
62
256
6
ByLayer
370
-1
48
1
60
0
100
AcDbLine
10
0
20
79.0925
30
0
11
120
21
79.0925
31
0
39
0
210
0
220
0
230
1
0
SOLID
5
107
100
AcDbEntity
8
2
62
256
6
ByLayer
370
-1
48
1
60
0
100
AcDbTrace
10
0
20
79.0925
30
0
11
4.499996
21
80.090126
31
0
12
4.500004
22
78.094874
32
0
13
0
23
79.0925
33
0
39
0
210
0
220
0
230
1
0
SOLID
5
108
100
AcDbEntity
8
2
62
256
6
ByLayer
370
-1
48
1
60
0
100
AcDbTrace
10
120
20
79.0925
30
0
11
115.500004
21
78.094874
31
0
12
115.499996
22
80.090126
32
0
13
120
23
79.0925
33
0
39
0
210
0
220
0
230
1
0
ENDBLK
5
10A
100
AcDbEntity
8
0
100
AcDbBlockEnd
0
BLOCK
5
113
100
AcDbEntity
8
0
100
AcDbBlockBegin
2
DimnDraft3D4
70
0
10
0
20
0
30
0
3
DimnDraft3D4
0
MTEXT
5
10D
100
AcDbEntity
8
SK2
62
256
6
ByLayer
370
-1
48
1
60
0
100
AcDbMText
10
13.496053
20
60.2175
30
0
210
0
220
0
230
1
1
\W01.000;\fsimplex.shx,bigfont.shx;30 
40
4.5
41
0
44
1.084337
50
0
71
7
72
5
7
DEFAULT
0
LINE
5
10E
100
AcDbEntity
8
SK2
62
256
6
ByLayer
370
-1
48
1
60
0
100
AcDbLine
10
0
20
23.6425
30
0
11
0
21
61.0925
31
0
39
0
210
0
220
0
230
1
0
LINE
5
10F
100
AcDbEntity
8
SK2
62
256
6
ByLayer
370
-1
48
1
60
0
100
AcDbLine
10
30
20
41.58
30
0
11
30
21
61.0925
31
0
39
0
210
0
220
0
230
1
0
LINE
5
110
100
AcDbEntity
8
SK2
62
256
6
ByLayer
370
-1
48
1
60
0
100
AcDbLine
10
0
20
59.0925
30
0
11
30
21
59.0925
31
0
39
0
210
0
220
0
230
1
0
SOLID
5
111
100
AcDbEntity
8
SK2
62
256
6
ByLayer
370
-1
48
1
60
0
100
AcDbTrace
10
0
20
59.0925
30
0
11
4.499996
21
60.090126
31
0
12
4.500004
22
58.094874
32
0
13
0
23
59.0925
33
0
39
0
210
0
220
0
230
1
0
SOLID
5
112
100
AcDbEntity
8
SK2
62
256
6
ByLayer
370
-1
48
1
60
0
100
AcDbTrace
10
30
20
59.0925
30
0
11
25.500004
21
58.094874
31
0
12
25.499996
22
60.090126
32
0
13
30
23
59.0925
33
0
39
0
210
0
220
0
230
1
0
ENDBLK
5
114
100
AcDbEntity
8
0
100
AcDbBlockEnd
0
BLOCK
5
11D
100
AcDbEntity
8
0
100
AcDbBlockBegin
2
DimnDraft3D5
70
0
10
0
20
0
30
0
3
DimnDraft3D5
0
MTEXT
5
117
100
AcDbEntity
8
SK2
62
256
6
ByLayer
370
-1
48
1
60
0
100
AcDbMText
10
85.996053
20
50.2175
30
0
210
0
220
0
230
1
1
\W01.000;\fsimplex.shx,bigfont.shx;65 
40
4.5
41
0
44
1.084337
50
0
71
7
72
5
7
DEFAULT
0
LINE
5
118
100
AcDbEntity
8
SK2
62
256
6
ByLayer
370
-1
48
1
60
0
100
AcDbLine
10
120
20
12.5875
30
0
11
120
21
51.0925
31
0
39
0
210
0
220
0
230
1
0
LINE
5
119
100
AcDbEntity
8
SK2
62
256
6
ByLayer
370
-1
48
1
60
0
100
AcDbLine
10
55
20
12.5875
30
0
11
55
21
51.0925
31
0
39
0
210
0
220
0
230
1
0
LINE
5
11A
100
AcDbEntity
8
SK2
62
256
6
ByLayer
370
-1
48
1
60
0
100
AcDbLine
10
120
20
49.0925
30
0
11
55
21
49.0925
31
0
39
0
210
0
220
0
230
1
0
SOLID
5
11B
100
AcDbEntity
8
SK2
62
256
6
ByLayer
370
-1
48
1
60
0
100
AcDbTrace
10
120
20
49.0925
30
0
11
115.500004
21
48.094874
31
0
12
115.499996
22
50.090126
32
0
13
120
23
49.0925
33
0
39
0
210
0
220
0
230
1
0
SOLID
5
11C
100
AcDbEntity
8
SK2
62
256
6
ByLayer
370
-1
48
1
60
0
100
AcDbTrace
10
55
20
49.0925
30
0
11
59.499996
21
50.090126
31
0
12
59.500004
22
48.094874
32
0
13
55
23
49.0925
33
0
39
0
210
0
220
0
230
1
0
ENDBLK
5
11E
100
AcDbEntity
8
0
100
AcDbBlockEnd
0
BLOCK
5
127
100
AcDbEntity
8
0
100
AcDbBlockBegin
2
DimnDraft3D6
70
0
10
0
20
0
30
0
3
DimnDraft3D6
0
MTEXT
5
121
100
AcDbEntity
8
SK2
62
256
6
ByLayer
370
-1
48
1
60
0
100
AcDbMText
10
-25.740789
20
80.2175
30
0
210
0
220
0
230
1
1
\W01.000;\fsimplex.shx,bigfont.shx;48 
40
4.5
41
0
44
1.084337
50
0
71
7
72
5
7
DEFAULT
0
LINE
5
122
100
AcDbEntity
8
SK2
62
256
6
ByLayer
370
-1
48
1
60
0
100
AcDbLine
10
0
20
23.6425
30
0
11
0
21
81.0925
31
0
39
0
210
0
220
0
230
1
0
LINE
5
123
100
AcDbEntity
8
SK2
62
256
6
ByLayer
370
-1
48
1
60
0
100
AcDbLine
10
-48
20
29.9875
30
0
11
-48
21
81.0925
31
0
39
0
210
0
220
0
230
1
0
LINE
5
124
100
AcDbEntity
8
SK2
62
256
6
ByLayer
370
-1
48
1
60
0
100
AcDbLine
10
0
20
79.0925
30
0
11
-48
21
79.0925
31
0
39
0
210
0
220
0
230
1
0
SOLID
5
125
100
AcDbEntity
8
SK2
62
256
6
ByLayer
370
-1
48
1
60
0
100
AcDbTrace
10
0
20
79.0925
30
0
11
-4.499996
21
78.094874
31
0
12
-4.500004
22
80.090126
32
0
13
0
23
79.0925
33
0
39
0
210
0
220
0
230
1
0
SOLID
5
126
100
AcDbEntity
8
SK2
62
256
6
ByLayer
370
-1
48
1
60
0
100
AcDbTrace
10
-48
20
79.0925
30
0
11
-43.500004
21
80.090126
31
0
12
-43.499996
22
78.094874
32
0
13
-48
23
79.0925
33
0
39
0
210
0
220
0
230
1
0
ENDBLK
5
128
100
AcDbEntity
8
0
100
AcDbBlockEnd
0
BLOCK
5
131
100
AcDbEntity
8
0
100
AcDbBlockBegin
2
DimnDraft3D7
70
0
10
0
20
0
30
0
3
DimnDraft3D7
0
MTEXT
5
12B
100
AcDbEntity
8
SK2
62
256
6
ByLayer
370
-1
48
1
60
0
100
AcDbMText
10
77.383553
20
-47.4675
30
0
210
0
220
0
230
1
1
\W01.000;\fsimplex.shx,bigfont.shx;min 36-max 46 
40
4.5
41
0
44
1.084337
50
0
71
7
72
5
7
DEFAULT
0
LINE
5
12C
100
AcDbEntity
8
SK2
62
256
6
ByLayer
370
-1
48
1
60
0
100
AcDbLine
10
120
20
-7.5875
30
0
11
120
21
-50.5925
31
0
39
0
210
0
220
0
230
1
0
LINE
5
12D
100
AcDbEntity
8
SK2
62
256
6
ByLayer
370
-1
48
1
60
0
100
AcDbLine
10
74
20
-7.5875
30
0
11
74
21
-50.5925
31
0
39
0
210
0
220
0
230
1
0
LINE
5
12E
100
AcDbEntity
8
SK2
62
256
6
ByLayer
370
-1
48
1
60
0
100
AcDbLine
10
131.25
20
-48.5925
30
0
11
62.75
21
-48.5925
31
0
39
0
210
0
220
0
230
1
0
SOLID
5
12F
100
AcDbEntity
8
SK2
62
256
6
ByLayer
370
-1
48
1
60
0
100
AcDbTrace
10
120
20
-48.5925
30
0
11
124.499996
21
-47.594874
31
0
12
124.500004
22
-49.590126
32
0
13
120
23
-48.5925
33
0
39
0
210
0
220
0
230
1
0
SOLID
5
130
100
AcDbEntity
8
SK2
62
256
6
ByLayer
370
-1
48
1
60
0
100
AcDbTrace
10
74
20
-48.5925
30
0
11
69.500004
21
-49.590126
31
0
12
69.499996
22
-47.594874
32
0
13
74
23
-48.5925
33
0
39
0
210
0
220
0
230
1
0
ENDBLK
5
132
100
AcDbEntity
8
0
100
AcDbBlockEnd
0
BLOCK
5
13C
100
AcDbEntity
8
0
100
AcDbBlockBegin
2
DimnDraft3D8
70
0
10
0
20
0
30
0
3
DimnDraft3D8
0
MTEXT
5
135
100
AcDbEntity
8
SK2
62
256
6
ByLayer
370
-1
48
1
60
0
100
AcDbMText
10
172.25
20
3.746053
30
0
210
0
220
0
230
1
1
\W01.000;\fsimplex.shx,bigfont.shx;22 
40
4.5
41
0
44
1.084337
50
90
71
7
72
5
7
DEFAULT
0
MTEXT
5
136
100
AcDbEntity
8
SK2
62
256
6
ByLayer
370
-1
48
1
60
0
100
AcDbMText
10
172
20
-7.003947
30
0
210
0
220
0
230
1
1
\W01.000;\fsimplex.shx,bigfont.shx;%%c 
40
3.5
41
0
44
1.084337
50
90
71
7
72
5
7
DEFAULT
0
LINE
5
137
100
AcDbEntity
8
SK2
62
256
6
ByLayer
370
-1
48
1
60
0
100
AcDbLine
10
121.5875
20
-11
30
0
11
176.25
21
-11
31
0
39
0
210
0
220
0
230
1
0
LINE
5
138
100
AcDbEntity
8
SK2
62
256
6
ByLayer
370
-1
48
1
60
0
100
AcDbLine
10
121.5875
20
11
30
0
11
176.25
21
11
31
0
39
0
210
0
220
0
230
1
0
LINE
5
139
100
AcDbEntity
8
SK2
62
256
6
ByLayer
370
-1
48
1
60
0
100
AcDbLine
10
174.25
20
-22.25
30
0
11
174.25
21
22.25
31
0
39
0
210
0
220
0
230
1
0
SOLID
5
13A
100
AcDbEntity
8
SK2
62
256
6
ByLayer
370
-1
48
1
60
0
100
AcDbTrace
10
174.25
20
-11
30
0
11
175.247626
21
-15.499996
31
0
12
173.252374
22
-15.500004
32
0
13
174.25
23
-11
33
0
39
0
210
0
220
0
230
1
0
SOLID
5
13B
100
AcDbEntity
8
SK2
62
256
6
ByLayer
370
-1
48
1
60
0
100
AcDbTrace
10
174.25
20
11
30
0
11
173.252374
21
15.499996
31
0
12
175.247626
22
15.500004
32
0
13
174.25
23
11
33
0
39
0
210
0
220
0
230
1
0
ENDBLK
5
13D
100
AcDbEntity
8
0
100
AcDbBlockEnd
0
BLOCK
5
147
100
AcDbEntity
8
0
100
AcDbBlockBegin
2
DimnDraft3D9
70
0
10
0
20
0
30
0
3
DimnDraft3D9
0
MTEXT
5
140
100
AcDbEntity
8
SK2
62
256
6
ByLayer
370
-1
48
1
60
0
100
AcDbMText
10
153.25
20
28.625
30
0
210
0
220
0
230
1
1
\W01.000;\fsimplex.shx,bigfont.shx;12 
40
4.5
41
0
44
1.084337
50
90
71
7
72
5
7
DEFAULT
0
MTEXT
5
141
100
AcDbEntity
8
SK2
62
256
6
ByLayer
370
-1
48
1
60
0
100
AcDbMText
10
153
20
17.875
30
0
210
0
220
0
230
1
1
\W01.000;\fsimplex.shx,bigfont.shx;%%c 
40
3.5
41
0
44
1.084337
50
90
71
7
72
5
7
DEFAULT
0
LINE
5
142
100
AcDbEntity
8
SK2
62
256
6
ByLayer
370
-1
48
1
60
0
100
AcDbLine
10
121.5875
20
6
30
0
11
157.25
21
6
31
0
39
0
210
0
220
0
230
1
0
LINE
5
143
100
AcDbEntity
8
SK2
62
256
6
ByLayer
370
-1
48
1
60
0
100
AcDbLine
10
121.5875
20
-6
30
0
11
157.25
21
-6
31
0
39
0
210
0
220
0
230
1
0
LINE
5
144
100
AcDbEntity
8
SK2
62
256
6
ByLayer
370
-1
48
1
60
0
100
AcDbLine
10
155.25
20
-6
30
0
11
155.25
21
31.632895
31
0
39
0
210
0
220
0
230
1
0
SOLID
5
145
100
AcDbEntity
8
SK2
62
256
6
ByLayer
370
-1
48
1
60
0
100
AcDbTrace
10
155.25
20
6
30
0
11
156.247626
21
1.500004
31
0
12
154.252374
22
1.499996
32
0
13
155.25
23
6
33
0
39
0
210
0
220
0
230
1
0
SOLID
5
146
100
AcDbEntity
8
SK2
62
256
6
ByLayer
370
-1
48
1
60
0
100
AcDbTrace
10
155.25
20
-6
30
0
11
154.252374
21
-1.500004
31
0
12
156.247626
22
-1.499996
32
0
13
155.25
23
-6
33
0
39
0
210
0
220
0
230
1
0
ENDBLK
5
148
100
AcDbEntity
8
0
100
AcDbBlockEnd
0
BLOCK
5
152
100
AcDbEntity
8
0
100
AcDbBlockBegin
2
DimnDraft3D10
70
0
10
0
20
0
30
0
3
DimnDraft3D10
0
MTEXT
5
14B
100
AcDbEntity
8
SK2
62
256
6
ByLayer
370
-1
48
1
60
0
100
AcDbMText
10
182.25
20
3.509211
30
0
210
0
220
0
230
1
1
\W01.000;\fsimplex.shx,bigfont.shx;40 
40
4.5
41
0
44
1.084337
50
90
71
7
72
5
7
DEFAULT
0
MTEXT
5
14C
100
AcDbEntity
8
SK2
62
256
6
ByLayer
370
-1
48
1
60
0
100
AcDbMText
10
182
20
-7.240789
30
0
210
0
220
0
230
1
1
\W01.000;\fsimplex.shx,bigfont.shx;%%c 
40
3.5
41
0
44
1.084337
50
90
71
7
72
5
7
DEFAULT
0
LINE
5
14D
100
AcDbEntity
8
SK2
62
256
6
ByLayer
370
-1
48
1
60
0
100
AcDbLine
10
56.5875
20
20
30
0
11
186.25
21
20
31
0
39
0
210
0
220
0
230
1
0
LINE
5
14E
100
AcDbEntity
8
SK2
62
256
6
ByLayer
370
-1
48
1
60
0
100
AcDbLine
10
56.5875
20
-20
30
0
11
186.25
21
-20
31
0
39
0
210
0
220
0
230
1
0
LINE
5
14F
100
AcDbEntity
8
SK2
62
256
6
ByLayer
370
-1
48
1
60
0
100
AcDbLine
10
184.25
20
20
30
0
11
184.25
21
-20
31
0
39
0
210
0
220
0
230
1
0
SOLID
5
150
100
AcDbEntity
8
SK2
62
256
6
ByLayer
370
-1
48
1
60
0
100
AcDbTrace
10
184.25
20
20
30
0
11
185.247626
21
15.500004
31
0
12
183.252374
22
15.499996
32
0
13
184.25
23
20
33
0
39
0
210
0
220
0
230
1
0
SOLID
5
151
100
AcDbEntity
8
SK2
62
256
6
ByLayer
370
-1
48
1
60
0
100
AcDbTrace
10
184.25
20
-20
30
0
11
183.252374
21
-15.500004
31
0
12
185.247626
22
-15.499996
32
0
13
184.25
23
-20
33
0
39
0
210
0
220
0
230
1
0
ENDBLK
5
153
100
AcDbEntity
8
0
100
AcDbBlockEnd
0
ENDSEC
0
SECTION
2
ENTITIES
0
ARC
5
8D
100
AcDbEntity
8
SK1
62
256
6
ByLayer
370
-1
48
1
60
0
100
AcDbCircle
39
0
10
0.6
20
-29.6
30
0
40
1.00000000000001
210
0
220
0
230
-1
100
AcDbArc
50
113.578178
51
126.869898
0
ARC
5
8E
100
AcDbEntity
8
SK1
62
256
6
ByLayer
370
-1
48
1
60
0
100
AcDbCircle
39
0
10
0.6
20
29.6
30
0
40
1.00000000000001
210
0
220
0
230
-1
100
AcDbArc
50
233.130102
51
246.421822
0
ARC
5
8F
100
AcDbEntity
8
1
62
256
6
ByLayer
370
-1
48
1
60
0
100
AcDbCircle
39
0
10
29.219295
20
38.9925
30
0
40
1
210
0
220
0
230
1
100
AcDbArc
50
14.041301
51
90
0
ARC
5
90
100
AcDbEntity
8
1
62
256
6
ByLayer
370
-1
48
1
60
0
100
AcDbCircle
39
0
10
29.219295
20
-38.9925
30
0
40
1
210
0
220
0
230
1
100
AcDbArc
50
270
51
345.958699
0
ARC
5
91
100
AcDbEntity
8
1
62
256
6
ByLayer
370
-1
48
1
60
0
100
AcDbCircle
39
0
10
-36.951763
20
-22.5
30
0
40
2.5
210
0
220
0
230
-1
100
AcDbArc
50
14.041301
51
90
0
ARC
5
92
100
AcDbEntity
8
1
62
256
6
ByLayer
370
-1
48
1
60
0
100
AcDbCircle
39
0
10
-36.951763
20
22.5
30
0
40
2.5
210
0
220
0
230
-1
100
AcDbArc
50
270
51
345.958699
0
ARC
5
93
100
AcDbEntity
8
1
62
256
6
ByLayer
370
-1
48
1
60
0
100
AcDbCircle
39
0
10
52.573958
20
19
30
0
40
1
210
0
220
0
230
1
100
AcDbArc
50
10
51
90
0
ARC
5
94
100
AcDbEntity
8
1
62
256
6
ByLayer
370
-1
48
1
60
0
100
AcDbCircle
39
0
10
52.573958
20
-19
30
0
40
1
210
0
220
0
230
1
100
AcDbArc
50
270
51
350
0
ARC
5
95
100
AcDbEntity
8
1
62
256
6
ByLayer
370
-1
48
1
60
0
100
AcDbCircle
39
0
10
-59.195498
20
-16
30
0
40
5
210
0
220
0
230
-1
100
AcDbArc
50
10
51
90
0
ARC
5
96
100
AcDbEntity
8
1
62
256
6
ByLayer
370
-1
48
1
60
0
100
AcDbCircle
39
0
10
-59.195498
20
16
30
0
40
5
210
0
220
0
230
-1
100
AcDbArc
50
270
51
350
0
ARC
5
97
100
AcDbEntity
8
1
62
256
6
ByLayer
370
-1
48
1
60
0
100
AcDbCircle
39
0
10
119.2
20
-9.969571
30
0
40
0.800000000000011
210
0
220
0
230
1
100
AcDbArc
50
282
51
0
0
ARC
5
98
100
AcDbEntity
8
1
62
256
6
ByLayer
370
-1
48
1
60
0
100
AcDbCircle
39
0
10
119.2
20
9.969571
30
0
40
0.800000000000011
210
0
220
0
230
1
100
AcDbArc
50
0
51
78
0
ELLIPSE
5
99
100
AcDbEntity
8
1
62
256
6
ByLayer
370
-1
48
1
60
0
100
AcDbEllipse
10
-6.763884
20
0
30
0
11
18.7313229778598
21
39.4760951495689
31
0
210
0
220
0
230
1
40
0.341999
41
-1.08757134593653
42
-0.16147442646169
0
ELLIPSE
5
9A
100
AcDbEntity
8
1
62
256
6
ByLayer
370
-1
48
1
60
0
100
AcDbEllipse
10
-6.763884
20
0
30
0
11
18.7313229778577
21
-39.4760951495664
31
0
210
0
220
0
230
1
40
0.341999
41
0.161474426461699
42
1.08757134593658
0
ELLIPSE
5
9B
100
AcDbEntity
8
1
62
256
6
ByLayer
370
-1
48
1
60
0
100
AcDbEllipse
10
30.763884
20
0
30
0
11
18.7313229778579
21
39.4760951495667
31
0
210
0
220
0
230
1
40
0.341999
41
2.05402130765322
42
2.98011822712809
0
ELLIPSE
5
9C
100
AcDbEntity
8
1
62
256
6
ByLayer
370
-1
48
1
60
0
100
AcDbEllipse
10
30.763884
20
0
30
0
11
18.731322977858
21
-39.4760951495667
31
0
210
0
220
0
230
1
40
0.341999
41
-2.98011822712809
42
-2.05402130765322
0
POINT
5
41
100
AcDbEntity
8
80
62
256
6
ByLayer
370
-1
48
1
60
0
100
AcDbPoint
10
0
20
0
30
0
39
0
210
0
220
0
230
1
50
360
0
POINT
5
43
100
AcDbEntity
8
81
62
256
6
ByLayer
370
-1
48
1
60
0
100
AcDbPoint
10
120
20
0
30
0
39
0
210
0
220
0
230
1
50
360
0
POINT
5
45
100
AcDbEntity
8
SK2
62
256
6
ByLayer
370
-1
48
1
60
1
100
AcDbPoint
10
0
20
-39.9925
30
0
39
0
210
0
220
0
230
1
50
360
0
POINT
5
47
100
AcDbEntity
8
SK2
62
256
6
ByLayer
370
-1
48
1
60
1
100
AcDbPoint
10
0
20
39.9925
30
0
39
0
210
0
220
0
230
1
50
360
0
SPLINE
5
9D
100
AcDbEntity
8
1
62
256
6
ByLayer
370
-1
48
1
60
0
100
AcDbSpline
70
4
71
3
72
16
73
12
40
0
40
0
40
0
40
0
40
0.124999999999996
40
0.124999999999996
40
0.249999999999993
40
0.249999999999993
40
0.499999999999995
40
0.499999999999995
40
0.749999999999998
40
0.749999999999998
40
1
40
1
40
1
40
1
41
1
10
13.4613248654052
20
-38.1039075155887
30
0
41
1
10
13.4930043841442
20
-38.1039075155887
30
0
41
1
10
13.5238437926537
20
-38.1018981407971
30
0
41
1
10
13.5821014670137
20
-38.0946945321385
30
0
41
1
10
13.608590771567
20
-38.0896735075627
30
0
41
1
10
13.6823985515643
20
-38.0716475332225
30
0
41
1
10
13.7213132957645
20
-38.0565570602146
30
0
41
1
10
13.7876957382845
20
-38.0239182471714
30
0
41
1
10
13.8143964377725
20
-38.0065795761866
30
0
41
1
10
13.8599769580327
20
-37.970541904041
30
0
41
1
10
13.8787545631594
20
-37.9517751509677
30
0
41
1
10
13.8943375672975
20
-37.9326327035368
30
0
0
SPLINE
5
9E
100
AcDbEntity
8
1
62
256
6
ByLayer
370
-1
48
1
60
0
100
AcDbSpline
70
4
71
3
72
114
73
110
40
-0.0312499999999991
40
-0.0312499999999991
40
0
40
0
40
0.0312500000000002
40
0.0312500000000002
40
0.0468750000000002
40
0.0468750000000002
40
0.0625000000000003
40
0.0625000000000003
40
0.0937500000000006
40
0.0937500000000006
40
0.109375000000001
40
0.109375000000001
40
0.125000000000001
40
0.140625000000001
40
0.140625000000001
40
0.148437500000001
40
0.148437500000001
40
0.156250000000001
40
0.156250000000001
40
0.187500000000001
40
0.187500000000001
40
0.195312500000002
40
0.195312500000002
40
0.203125000000002
40
0.203125000000002
40
0.218750000000002
40
0.218750000000002
40
0.234375000000002
40
0.234375000000002
40
0.250000000000002
40
0.250000000000002
40
0.281250000000002
40
0.281250000000002
40
0.296875000000003
40
0.296875000000003
40
0.312500000000003
40
0.312500000000003
40
0.343750000000003
40
0.343750000000003
40
0.359375000000003
40
0.359375000000003
40
0.375000000000003
40
0.375000000000003
40
0.406250000000003
40
0.406250000000003
40
0.421875000000003
40
0.421875000000003
40
0.437500000000004
40
0.437500000000004
40
0.468750000000004
40
0.468750000000004
40
0.500000000000004
40
0.500000000000004
40
0.515625000000004
40
0.515625000000004
40
0.523437500000003
40
0.523437500000003
40
0.531250000000003
40
0.531250000000003
40
0.562500000000003
40
0.562500000000003
40
0.578125000000003
40
0.578125000000003
40
0.585937500000003
40
0.585937500000003
40
0.593750000000003
40
0.593750000000003
40
0.625000000000004
40
0.625000000000004
40
0.632812500000004
40
0.632812500000004
40
0.640625000000004
40
0.640625000000004
40
0.656250000000004
40
0.656250000000004
40
0.671875000000004
40
0.671875000000004
40
0.679687500000004
40
0.679687500000004
40
0.687500000000004
40
0.687500000000004
40
0.718750000000004
40
0.718750000000004
40
0.734375000000004
40
0.734375000000004
40
0.750000000000004
40
0.750000000000004
40
0.781250000000004
40
0.781250000000004
40
0.796875000000003
40
0.796875000000003
40
0.812500000000003
40
0.828125000000003
40
0.828125000000003
40
0.843750000000003
40
0.843750000000003
40
0.875000000000003
40
0.875000000000003
40
0.890625000000002
40
0.890625000000002
40
0.906250000000002
40
0.906250000000002
40
0.937500000000002
40
0.937500000000002
40
0.953125000000001
40
0.953125000000001
40
0.968750000000001
40
0.968750000000001
40
1
40
1
40
1.03125
40
1.03125
41
1
10
8.95481610367412
20
-4.64293247434773
30
0
41
1
10
8.33635171312764
20
-4.23285790991977
30
0
41
1
10
8.05076781623131
20
-4.00148731281425
30
0
41
1
10
7.65806820481532
20
-3.61450383852881
30
0
41
1
10
7.53309151956873
20
-3.47873044153653
30
0
41
1
10
7.29596701016058
20
-3.19339851160771
30
0
41
1
10
7.18563291866263
20
-3.04603438805432
30
0
41
1
10
6.87885757260219
20
-2.59007732659427
30
0
41
1
10
6.70638710673856
20
-2.26776577812984
30
0
41
1
10
6.49841513342898
20
-1.75515245304552
30
0
41
1
10
6.43747794616709
20
-1.57854333781464
30
0
41
1
10
6.33613606091683
20
-1.22391182962269
30
0
41
1
10
6.25442518959792
20
-0.866102286101381
30
0
41
1
10
6.21154154044834
20
-0.50200115415538
30
0
41
1
10
6.19422480952736
20
-0.226518445841862
30
0
41
1
10
6.19093155765512
20
-0.134288989018188
30
0
41
1
10
6.18941038094437
20
0.0509911643051453
30
0
41
1
10
6.19120541601691
20
0.144267173658705
30
0
41
1
10
6.2128320882
20
0.607084323523878
30
0
41
1
10
6.27000417964055
20
0.96966980051954
30
0
41
1
10
6.38952531289732
20
1.4136714022419
30
0
41
1
10
6.41585588115467
20
1.50200574870439
30
0
41
1
10
6.47341893969451
20
1.6777336045555
30
0
41
1
10
6.50475487878265
20
1.76538237953554
30
0
41
1
10
6.60537197384909
20
2.02470368774911
30
0
41
1
10
6.68110868414064
20
2.19262324412989
30
0
41
1
10
6.8491093106835
20
2.51900864625964
30
0
41
1
10
6.94137582215561
20
2.67747298280614
30
0
41
1
10
7.14218800976872
20
2.98510862424649
30
0
41
1
10
7.25093174673609
20
3.13452336303453
30
0
41
1
10
7.60070693361982
20
3.56711996799672
30
0
41
1
10
7.85908310085946
20
3.82767352072233
30
0
41
1
10
8.28189642061579
20
4.17974017913491
30
0
41
1
10
8.42875739725358
20
4.29058155283357
30
0
41
1
10
8.73444446209109
20
4.49913800502864
30
0
41
1
10
8.89251965624115
20
4.59624281960402
30
0
41
1
10
9.37538877416722
20
4.86278375508738
30
0
41
1
10
9.71127593801793
20
5.00943350497076
30
0
41
1
10
10.2357388282054
20
5.1837566844153
30
0
41
1
10
10.4149341148562
20
5.23438665826333
30
0
41
1
10
10.774966695442
20
5.31865087449216
30
0
41
1
10
10.9558109642348
20
5.35240229503677
30
0
41
1
10
11.5007583340138
20
5.42924139257931
30
0
41
1
10
11.8672551019231
20
5.44812899955173
30
0
41
1
10
12.4219093377149
20
5.42685572625362
30
0
41
1
10
12.6074856967313
20
5.41133812888202
30
0
41
1
10
12.9728363635063
20
5.36422988745025
30
0
41
1
10
13.1535579527504
20
5.33262607232592
30
0
41
1
10
13.6899363504577
20
5.21395143252144
30
0
41
1
10
14.0398624159919
20
5.10325116689549
30
0
41
1
10
14.7235259669886
20
4.81488386164054
30
0
41
1
10
15.0473173758054
20
4.64129783707151
30
0
41
1
10
15.5043157016299
20
4.3386125401083
30
0
41
1
10
15.6519606831805
20
4.2305635735537
30
0
41
1
10
15.8661746051644
20
4.05739327818131
30
0
41
1
10
15.9363681171924
20
3.99781697677827
30
0
41
1
10
16.0742668172668
20
3.87485273842239
30
0
41
1
10
16.1421309209064
20
3.81129636845523
30
0
41
1
10
16.4715222159026
20
3.48718868182971
30
0
41
1
10
16.7057227629997
20
3.20615850971331
30
0
41
1
10
17.0128447444055
20
2.75168538062366
30
0
41
1
10
17.1078030496147
20
2.59466747769926
30
0
41
1
10
17.2385665438194
20
2.35042204028554
30
0
41
1
10
17.2803267364835
20
2.26728176096196
30
0
41
1
10
17.3591232002041
20
2.09946246567071
30
0
41
1
10
17.3961399172986
20
2.01487028430626
30
0
41
1
10
17.5694737819419
20
1.58853917848896
30
0
41
1
10
17.670900142146
20
1.23679126782628
30
0
41
1
10
17.7500371128744
20
0.783406520513552
30
0
41
1
10
17.7634595074987
20
0.692038137939022
30
0
41
1
10
17.7853710729974
20
0.507882637784263
30
0
41
1
10
17.7938517042593
20
0.414959947422574
30
0
41
1
10
17.811513625396
20
0.137632311744511
30
0
41
1
10
17.8131054954578
20
-0.0464744335097294
30
0
41
1
10
17.796478114246
20
-0.413173548469615
30
0
41
1
10
17.7782576453778
20
-0.595765825515912
30
0
41
1
10
17.7360206090198
20
-0.868515277493742
30
0
41
1
10
17.7194525411782
20
-0.959241582945566
30
0
41
1
10
17.6812727973553
20
-1.14030898018254
30
0
41
1
10
17.6595828872629
20
-1.23092474041067
30
0
41
1
10
17.5393634220271
20
-1.67907153937071
30
0
41
1
10
17.4063669508681
20
-2.02143233127933
30
0
41
1
10
17.1547255230516
20
-2.5121612714392
30
0
41
1
10
17.0618434520065
20
-2.67226885091426
30
0
41
1
10
16.8592688011365
20
-2.98314298384054
30
0
41
1
10
16.7507995797141
20
-3.13212332670193
30
0
41
1
10
16.4049042105154
20
-3.56068766273378
30
0
41
1
10
16.147182621442
20
-3.8220666528093
30
0
41
1
10
15.7202632515506
20
-4.17813304734699
30
0
41
1
10
15.5724965492138
20
-4.2896166861475
30
0
41
1
10
15.2689956205044
20
-4.49689867004139
30
0
41
1
10
14.9567424153985
20
-4.68915034402974
30
0
41
1
10
14.6273514747208
20
-4.85204086571977
30
0
41
1
10
14.2893309078338
20
-5.00017831180287
30
0
41
1
10
14.1153219999418
20
-5.06703184273266
30
0
41
1
10
13.5899490143521
20
-5.24177046876838
30
0
41
1
10
13.2327980314524
20
-5.32541664526522
30
0
41
1
10
12.6869755166873
20
-5.40296092745035
30
0
41
1
10
12.5033407394772
20
-5.42076702348376
30
0
41
1
10
12.1325887817242
20
-5.43985533626156
30
0
41
1
10
11.947258263019
20
-5.44100118645608
30
0
41
1
10
11.3957810944658
20
-5.41989062709501
30
0
41
1
10
11.0322347620109
20
-5.37340489137767
30
0
41
1
10
10.4931204694351
20
-5.2546136171764
30
0
41
1
10
10.3137675619929
20
-5.2065593717372
30
0
41
1
10
9.96052109918185
20
-5.09429722799672
30
0
41
1
10
9.78754934527822
20
-5.03045864445761
30
0
41
1
10
9.27942720970773
20
-4.81612010423581
30
0
41
1
10
8.95481610367412
20
-4.64293247434773
30
0
41
1
10
8.33635171312764
20
-4.23285790991977
30
0
0
SPLINE
5
9F
100
AcDbEntity
8
1
62
256
6
ByLayer
370
-1
48
1
60
0
100
AcDbSpline
70
4
71
3
72
16
73
12
40
0
40
0
40
0
40
0
40
0.250000000000001
40
0.250000000000001
40
0.500000000000003
40
0.500000000000003
40
0.750000000000004
40
0.750000000000004
40
0.875000000000002
40
0.875000000000002
40
1
40
1
40
1
40
1
41
1
10
10.1056624327026
20
-37.9326327035368
30
0
41
1
10
10.1212396880092
20
-37.9517680889979
30
0
41
1
10
10.1398668123525
20
-37.9703945264567
30
0
41
1
10
10.1853497156777
20
-38.006402518097
30
0
41
1
10
10.2122796645752
20
-38.0239074233331
30
0
41
1
10
10.2787401043961
20
-38.0565820453266
30
0
41
1
10
10.318345997643
20
-38.0718260854011
30
0
41
1
10
10.3909747265731
20
-38.0895690316827
30
0
41
1
10
10.4180012136541
20
-38.0947020541105
30
0
41
1
10
10.4757987624982
20
-38.1018590942697
30
0
41
1
10
10.5070464559854
20
-38.1039075155887
30
0
41
1
10
10.5386751345948
20
-38.1039075155888
30
0
0
SPLINE
5
A0
100
AcDbEntity
8
1
62
256
6
ByLayer
370
-1
48
1
60
0
100
AcDbSpline
70
4
71
3
72
16
73
12
40
0
40
0
40
0
40
0
40
0.249999999999998
40
0.249999999999998
40
0.499999999999997
40
0.499999999999997
40
0.749999999999995
40
0.749999999999995
40
0.874999999999997
40
0.874999999999997
40
1
40
1
40
1
40
1
41
1
10
13.8943375672974
20
-12.6694685140526
30
0
41
1
10
13.8787603119908
20
-12.6121768014972
30
0
41
1
10
13.8601331876475
20
-12.5559751939942
30
0
41
1
10
13.8146502843223
20
-12.446555394942
30
0
41
1
10
13.7877203354248
20
-12.3929545608874
30
0
41
1
10
13.7212598956039
20
-12.2922504657915
30
0
41
1
10
13.681654002357
20
-12.2449016457062
30
0
41
1
10
13.6090252734269
20
-12.1895513705667
30
0
41
1
10
13.581998786346
20
-12.1734904658288
30
0
41
1
10
13.5242012375018
20
-12.151071075156
30
0
41
1
10
13.4929535440147
20
-12.1446403114073
30
0
41
1
10
13.4613248654052
20
-12.1446403114073
30
0
0
SPLINE
5
A1
100
AcDbEntity
8
1
62
256
6
ByLayer
370
-1
48
1
60
0
100
AcDbSpline
70
4
71
3
72
16
73
12
40
0
40
0
40
0
40
0
40
0.25
40
0.25
40
0.500000000000001
40
0.500000000000001
40
0.750000000000001
40
0.750000000000001
40
0.875
40
0.875
40
1
40
1
40
1
40
1
41
1
10
13.8943375672974
20
37.9326327035368
30
0
41
1
10
13.8787603119908
20
37.9517680889979
30
0
41
1
10
13.8601331876475
20
37.9703945264567
30
0
41
1
10
13.8146502843223
20
38.006402518097
30
0
41
1
10
13.7877203354248
20
38.0239074233331
30
0
41
1
10
13.7212598956039
20
38.0565820453266
30
0
41
1
10
13.681654002357
20
38.0718260854011
30
0
41
1
10
13.6090252734269
20
38.0895690316827
30
0
41
1
10
13.581998786346
20
38.0947020541105
30
0
41
1
10
13.5242012375018
20
38.1018590942697
30
0
41
1
10
13.4929535440147
20
38.1039075155888
30
0
41
1
10
13.4613248654052
20
38.1039075155888
30
0
0
SPLINE
5
A2
100
AcDbEntity
8
1
62
256
6
ByLayer
370
-1
48
1
60
0
100
AcDbSpline
70
4
71
3
72
16
73
12
40
0
40
0
40
0
40
0
40
0.124999999999998
40
0.124999999999998
40
0.249999999999997
40
0.249999999999997
40
0.499999999999998
40
0.499999999999998
40
0.749999999999999
40
0.749999999999999
40
1
40
1
40
1
40
1
41
1
10
10.5386751345948
20
-12.1446403114075
30
0
41
1
10
10.5069956158558
20
-12.1446403114075
30
0
41
1
10
10.4761562073463
20
-12.1509487115313
30
0
41
1
10
10.4178985329863
20
-12.1735140787285
30
0
41
1
10
10.391409228433
20
-12.1892253976938
30
0
41
1
10
10.3176014484357
20
-12.2454587578454
30
0
41
1
10
10.2786867042355
20
-12.292327568872
30
0
41
1
10
10.2123042617155
20
-12.3929211032043
30
0
41
1
10
10.1856035622276
20
-12.4460149533517
30
0
41
1
10
10.1400230419673
20
-12.5555297305022
30
0
41
1
10
10.1212454368406
20
-12.6121556578237
30
0
41
1
10
10.1056624327025
20
-12.6694685140526
30
0
0
SPLINE
5
A3
100
AcDbEntity
8
1
62
256
6
ByLayer
370
-1
48
1
60
0
100
AcDbSpline
70
4
71
3
72
16
73
12
40
0
40
0
40
0
40
0
40
0.250000000000001
40
0.250000000000001
40
0.500000000000003
40
0.500000000000003
40
0.750000000000004
40
0.750000000000004
40
0.875000000000002
40
0.875000000000002
40
1
40
1
40
1
40
1
41
1
10
10.1056624327026
20
12.6694685140527
30
0
41
1
10
10.1212396880092
20
12.6121768014972
30
0
41
1
10
10.1398668123526
20
12.5559751939942
30
0
41
1
10
10.1853497156777
20
12.446555394942
30
0
41
1
10
10.2122796645752
20
12.3929545608874
30
0
41
1
10
10.2787401043961
20
12.2922504657915
30
0
41
1
10
10.318345997643
20
12.2449016457062
30
0
41
1
10
10.3909747265732
20
12.1895513705667
30
0
41
1
10
10.4180012136541
20
12.1734904658288
30
0
41
1
10
10.4757987624982
20
12.151071075156
30
0
41
1
10
10.5070464559854
20
12.1446403114074
30
0
41
1
10
10.5386751345948
20
12.1446403114074
30
0
0
SPLINE
5
A4
100
AcDbEntity
8
1
62
256
6
ByLayer
370
-1
48
1
60
0
100
AcDbSpline
70
4
71
3
72
65
73
61
40
0
40
0
40
0
40
0
40
0.0556034392313128
40
0.0556034392313128
40
0.0834051588469691
40
0.0834051588469691
40
0.111206878462625
40
0.111206878462625
40
0.166810317693938
40
0.166810317693938
40
0.194612037309595
40
0.194612037309595
40
0.222413756925252
40
0.222413756925252
40
0.278017196156565
40
0.278017196156565
40
0.305818915772222
40
0.305818915772222
40
0.319719775580049
40
0.319719775580049
40
0.333620635387878
40
0.333620635387878
40
0.389224074619191
40
0.389224074619191
40
0.40312493442702
40
0.40312493442702
40
0.417025794234849
40
0.417025794234849
40
0.444827513850506
40
0.472629233466164
40
0.472629233466164
40
0.500430953081822
40
0.500430953081822
40
0.556034392313136
40
0.556034392313136
40
0.583836111928793
40
0.583836111928793
40
0.61163783154445
40
0.61163783154445
40
0.639439551160107
40
0.639439551160107
40
0.667241270775764
40
0.667241270775764
40
0.722844710007078
40
0.722844710007078
40
0.750646429622734
40
0.750646429622734
40
0.778448149238391
40
0.778448149238391
40
0.834051588469705
40
0.834051588469705
40
0.861853308085362
40
0.861853308085362
40
0.889655027701018
40
0.889655027701018
40
0.945258466932332
40
0.945258466932332
40
0.973060186547989
40
0.973060186547989
40
1
40
1
40
1
40
1
41
1
10
40.75
20
-18.7349939951952
30
0
41
1
10
40.75
20
-18.6085995310791
30
0
41
1
10
40.7823610660595
20
-18.4751367433755
30
0
41
1
10
40.8747459878285
20
-18.2652338168739
30
0
41
1
10
40.9129085368476
20
-18.1936484095645
30
0
41
1
10
41.0038465132537
20
-18.0474054644727
30
0
41
1
10
41.0568270679601
20
-17.9724923314844
30
0
41
1
10
41.2367241348385
20
-17.7451810005512
30
0
41
1
10
41.3826321689525
20
-17.5921646743776
30
0
41
1
10
41.6391955612061
20
-17.3627207199621
30
0
41
1
10
41.7310501711457
20
-17.2862601882809
30
0
41
1
10
41.9278383645668
20
-17.1338905872394
30
0
41
1
10
42.0333371124928
20
-17.0576128782552
30
0
41
1
10
42.3658613535573
20
-16.8337948042638
30
0
41
1
10
42.608240087996
20
-16.6912556948297
30
0
41
1
10
43.0049028490457
20
-16.4919803908614
30
0
41
1
10
43.1426831090466
20
-16.4279986722226
30
0
41
1
10
43.3584239043167
20
-16.3365227925288
30
0
41
1
10
43.4318529900345
20
-16.3067825393192
30
0
41
1
10
43.5819170329531
20
-16.248976916329
30
0
41
1
10
43.6587001745505
20
-16.2208686453634
30
0
41
1
10
44.0463271909753
20
-16.0866063421679
30
0
41
1
10
44.3713434914785
20
-15.9977960607309
30
0
41
1
10
44.7986312238582
20
-15.9158213161912
30
0
41
1
10
44.8851502481194
20
-15.900889799042
30
0
41
1
10
45.0604177361178
20
-15.8741506447422
30
0
41
1
10
45.1489061520711
20
-15.8623967821432
30
0
41
1
10
45.4139117838445
20
-15.8324618157196
30
0
41
1
10
45.7683346542948
20
-15.8063777704421
30
0
41
1
10
46.1249138763943
20
-15.8082005352456
30
0
41
1
10
46.4825929477076
20
-15.8242442502062
30
0
41
1
10
46.6630263607177
20
-15.8395809409185
30
0
41
1
10
47.1912554464934
20
-15.9052696086803
30
0
41
1
10
47.5300572330159
20
-15.9750136906831
30
0
41
1
10
48.020127422263
20
-16.1123821532963
30
0
41
1
10
48.1789978859971
20
-16.1632958385003
30
0
41
1
10
48.4849278168126
20
-16.2727497478626
30
0
41
1
10
48.6325981200368
20
-16.331462492885
30
0
41
1
10
48.9180646530782
20
-16.455701115029
30
0
41
1
10
49.0561006820943
20
-16.5213547645572
30
0
41
1
10
49.3216151433908
20
-16.658053464624
30
0
41
1
10
49.4478692571451
20
-16.7284410246013
30
0
41
1
10
49.8085914025421
20
-16.9443045999176
30
0
41
1
10
50.0252088578036
20
-17.0944132570042
30
0
41
1
10
50.3160966232704
20
-17.3249905723561
30
0
41
1
10
50.4069709984686
20
-17.4025285602552
30
0
41
1
10
50.574521401313
20
-17.5563761297292
30
0
41
1
10
50.6515805007749
20
-17.632985328913
30
0
41
1
10
50.8629410518799
20
-17.861276882158
30
0
41
1
10
50.9776375611794
20
-18.0114044972847
30
0
41
1
10
51.1079236358911
20
-18.2316319998875
30
0
41
1
10
51.1438669474487
20
-18.3034826721211
30
0
41
1
10
51.2003288601782
20
-18.4428533180143
30
0
41
1
10
51.2209561378913
20
-18.5105554503913
30
0
41
1
10
51.2597467036458
20
-18.7076214916933
30
0
41
1
10
51.2550682817457
20
-18.8309478204891
30
0
41
1
10
51.1970801918853
20
-19.0034705114082
30
0
41
1
10
51.1693403877307
20
-19.0582506097665
30
0
41
1
10
51.0987775254576
20
-19.1599380327624
30
0
41
1
10
51.0563910352537
20
-19.2072179223237
30
0
41
1
10
51.0062567114856
20
-19.2518981221238
30
0
0
SPLINE
5
A5
100
AcDbEntity
8
1
62
256
6
ByLayer
370
-1
48
1
60
0
100
AcDbSpline
70
4
71
3
72
14
73
10
40
0
40
0
40
0
40
0
40
0.0464084793878014
40
0.0464084793878014
40
0.364272319591868
40
0.364272319591868
40
0.682136159795933
40
0.682136159795933
40
1
40
1
40
1
40
1
41
1
10
40.9950875972706
20
-19.2530912895521
30
0
41
1
10
40.9873927828517
20
-19.2462604308711
30
0
41
1
10
40.9798856487934
20
-19.2393742718728
30
0
41
1
10
40.9224929406921
20
-19.1849405721565
30
0
41
1
10
40.8812223111866
20
-19.1349301830767
30
0
41
1
10
40.8154228362628
20
-19.0297354105751
30
0
41
1
10
40.7908964114077
20
-18.9745512520497
30
0
41
1
10
40.7581848394373
20
-18.8588348145774
30
0
41
1
10
40.75
20
-18.7981912272533
30
0
41
1
10
40.75
20
-18.7349939951952
30
0
0
SPLINE
5
A6
100
AcDbEntity
8
1
62
256
6
ByLayer
370
-1
48
1
60
0
100
AcDbSpline
70
4
71
3
72
16
73
12
40
0
40
0
40
0
40
0
40
0.125000000000001
40
0.125000000000001
40
0.250000000000001
40
0.250000000000001
40
0.500000000000001
40
0.500000000000001
40
0.75
40
0.75
40
1
40
1
40
1
40
1
41
1
10
10.5386751345948
20
38.1039075155887
30
0
41
1
10
10.5069956158558
20
38.1039075155887
30
0
41
1
10
10.4761562073463
20
38.1018981407971
30
0
41
1
10
10.4178985329863
20
38.0946945321385
30
0
41
1
10
10.391409228433
20
38.0896735075627
30
0
41
1
10
10.3176014484357
20
38.0716475332225
30
0
41
1
10
10.2786867042355
20
38.0565570602145
30
0
41
1
10
10.2123042617155
20
38.0239182471714
30
0
41
1
10
10.1856035622276
20
38.0065795761866
30
0
41
1
10
10.1400230419673
20
37.970541904041
30
0
41
1
10
10.1212454368406
20
37.9517751509677
30
0
41
1
10
10.1056624327025
20
37.9326327035368
30
0
0
SPLINE
5
A7
100
AcDbEntity
8
1
62
256
6
ByLayer
370
-1
48
1
60
0
100
AcDbSpline
70
4
71
3
72
16
73
12
40
0
40
0
40
0
40
0
40
0.125000000000001
40
0.125000000000001
40
0.250000000000001
40
0.250000000000001
40
0.500000000000001
40
0.500000000000001
40
0.75
40
0.75
40
1
40
1
40
1
40
1
41
1
10
13.4613248654052
20
12.1446403114075
30
0
41
1
10
13.4930043841442
20
12.1446403114075
30
0
41
1
10
13.5238437926537
20
12.1509487115313
30
0
41
1
10
13.5821014670137
20
12.1735140787285
30
0
41
1
10
13.608590771567
20
12.1892253976938
30
0
41
1
10
13.6823985515643
20
12.2454587578454
30
0
41
1
10
13.7213132957645
20
12.2923275688719
30
0
41
1
10
13.7876957382845
20
12.3929211032042
30
0
41
1
10
13.8143964377725
20
12.4460149533517
30
0
41
1
10
13.8599769580327
20
12.5555297305022
30
0
41
1
10
13.8787545631594
20
12.6121556578237
30
0
41
1
10
13.8943375672975
20
12.6694685140526
30
0
0
SPLINE
5
A8
100
AcDbEntity
8
SK1
62
256
6
ByLayer
370
-1
48
1
60
0
100
AcDbSpline
70
4
71
3
72
26
73
22
40
0
40
0
40
0
40
0
40
0.03125
40
0.03125
40
0.0625
40
0.0625
40
0.09375
40
0.09375
40
0.125
40
0.125
40
0.187500000000001
40
0.187500000000001
40
0.250000000000001
40
0.250000000000001
40
0.375000000000001
40
0.375000000000001
40
0.500000000000001
40
0.500000000000001
40
0.750000000000001
40
0.750000000000001
40
1
40
1
40
1
40
1
41
1
10
-0.394976888875306
20
-5.88246902087485
30
0
41
1
10
-0.411243448014119
20
-5.89637723850254
30
0
41
1
10
-0.428449793960169
20
-5.90912350803339
30
0
41
1
10
-0.465564082935259
20
-5.93128976964647
30
0
41
1
10
-0.485501260594077
20
-5.94064321807932
30
0
41
1
10
-0.527078862046864
20
-5.9536734064022
30
0
41
1
10
-0.54943832014493
20
-5.95743908997451
30
0
41
1
10
-0.593606088483796
20
-5.95779086324137
30
0
41
1
10
-0.615789294920631
20
-5.95446545286362
30
0
41
1
10
-0.67960812367815
20
-5.93550756082408
30
0
41
1
10
-0.717332651322977
20
-5.91177816162445
30
0
41
1
10
-0.78301501207946
20
-5.85691368285347
30
0
41
1
10
-0.811905746604026
20
-5.82506288928445
30
0
41
1
10
-0.889505535911781
20
-5.72578032377567
30
0
41
1
10
-0.930486085809775
20
-5.65396988322564
30
0
41
1
10
-1.00381992840016
20
-5.50558272391768
30
0
41
1
10
-1.03559750467298
20
-5.42886588385051
30
0
41
1
10
-1.12127825547446
20
-5.19728125876003
30
0
41
1
10
-1.16642207539593
20
-5.03942758364943
30
0
41
1
10
-1.24501063644411
20
-4.7194490432102
30
0
41
1
10
-1.27807953909775
20
-4.55724063340085
30
0
41
1
10
-1.30710678118655
20
-4.39323915389218
30
0
0
SPLINE
5
A9
100
AcDbEntity
8
SK1
62
256
6
ByLayer
370
-1
48
1
60
0
100
AcDbSpline
70
4
71
3
72
11
73
7
40
0
40
0
40
0
40
0
40
0.157840789594725
40
0.476541632891153
40
0.79524247618758
40
1
40
1
40
1
40
1
41
1
10
-0.394976888875277
20
27.1987923911124
30
0
41
1
10
-0.394976888875277
20
27.2053581271127
30
0
41
1
10
-0.394976888875277
20
27.2245496739058
30
0
41
1
10
-0.394976888875277
20
27.2534374285165
30
0
41
1
10
-0.394976888875277
20
27.2797081509146
30
0
41
1
10
-0.394976888875277
20
27.2938900242095
30
0
41
1
10
-0.394976888875249
20
27.2991143911124
30
0
0
SPLINE
5
AA
100
AcDbEntity
8
SK1
62
256
6
ByLayer
370
-1
48
1
60
0
100
AcDbSpline
70
4
71
3
72
53
73
49
40
0
40
0
40
0
40
0
40
0.0153712183278197
40
0.033945797014557
40
0.0525203757012944
40
0.0710949543880317
40
0.089669533074769
40
0.108244111761506
40
0.126818690448244
40
0.145393269134981
40
0.182542426508456
40
0.21969158388193
40
0.238266162568668
40
0.256840741255405
40
0.275415319942142
40
0.29398989862888
40
0.312564477315617
40
0.331139056002354
40
0.349713634689092
40
0.368288213375829
40
0.405437370749304
40
0.424011949436041
40
0.442586528122778
40
0.461161106809516
40
0.479735685496253
40
0.49831026418299
40
0.516884842869728
40
0.535459421556465
40
0.554034000243202
40
0.57260857892994
40
0.591183157616677
40
0.609757736303414
40
0.619045025646783
40
0.628332314990152
40
0.646906893676889
40
0.665481472363626
40
0.702630629737101
40
0.739779787110576
40
0.758354365797313
40
0.77692894448405
40
0.814078101857525
40
0.851227259231
40
0.888376416604474
40
0.906950995291212
40
0.925525573977949
40
0.962674731351424
40
0.999823888724898
40
1
40
1
40
1
40
1
41
1
10
-0.394976888875277
20
27.3653838086703
30
0
41
1
10
-0.394976888875277
20
27.3654109937148
30
0
41
1
10
-0.394976888875277
20
27.3644316966209
30
0
41
1
10
-0.394976888875277
20
27.3594269183726
30
0
41
1
10
-0.394976888875277
20
27.3501457877119
30
0
41
1
10
-0.394976888875277
20
27.3369711539198
30
0
41
1
10
-0.394976888875277
20
27.3199753370632
30
0
41
1
10
-0.394976888875277
20
27.2992282088757
30
0
41
1
10
-0.394976888875277
20
27.27479540739
30
0
41
1
10
-0.394976888875277
20
27.2373773347495
30
0
41
1
10
-0.394976888875277
20
27.1817216262674
30
0
41
1
10
-0.394976888875277
20
27.1145655761239
30
0
41
1
10
-0.394976888875277
20
27.0541148220588
30
0
41
1
10
-0.394976888875277
20
27.0054853645575
30
0
41
1
10
-0.394976888875277
20
26.953598130865
30
0
41
1
10
-0.394976888875277
20
26.8984983126749
30
0
41
1
10
-0.394976888875277
20
26.8402262313527
30
0
41
1
10
-0.394976888875277
20
26.7788231109009
30
0
41
1
10
-0.394976888875277
20
26.7143277379811
30
0
41
1
10
-0.394976888875277
20
26.6242375656596
30
0
41
1
10
-0.394976888875277
20
26.5281744083644
30
0
41
1
10
-0.394976888875277
20
26.4261397788477
30
0
41
1
10
-0.394976888875277
20
26.3467113117502
30
0
41
1
10
-0.394976888875277
20
26.2643925590692
30
0
41
1
10
-0.394976888875277
20
26.1792140698964
30
0
41
1
10
-0.394976888875277
20
26.0912052473129
30
0
41
1
10
-0.394976888875277
20
26.0003919407076
30
0
41
1
10
-0.394976888875277
20
25.90680231755
30
0
41
1
10
-0.394976888875277
20
25.810462475175
30
0
41
1
10
-0.394976888875277
20
25.7113956543375
30
0
41
1
10
-0.394976888875277
20
25.609627837172
30
0
41
1
10
-0.394976888875277
20
25.5226042889744
30
0
41
1
10
-0.394976888875277
20
25.4516306650615
30
0
41
1
10
-0.394976888875277
20
25.3797753879955
30
0
41
1
10
-0.394976888875277
20
25.2883442684716
30
0
41
1
10
-0.394976888875277
20
25.1385155212165
30
0
41
1
10
-0.394976888875277
20
24.9448199373791
30
0
41
1
10
-0.394976888875277
20
24.7426176812545
30
0
41
1
10
-0.394976888875277
20
24.5757644878036
30
0
41
1
10
-0.394976888875277
20
24.4055794218944
30
0
41
1
10
-0.394976888875277
20
24.1867224773567
30
0
41
1
10
-0.394976888875277
20
23.9142591485119
30
0
41
1
10
-0.394976888875277
20
23.6791846777825
30
0
41
1
10
-0.394976888875277
20
23.4862798848862
30
0
41
1
10
-0.394976888875277
20
23.2902077684041
30
0
41
1
10
-0.394976888875277
20
23.0393009244131
30
0
41
1
10
-0.394976888875277
20
22.8318250551666
30
0
41
1
10
-0.394976888875277
20
22.7262861618306
30
0
41
1
10
-0.394976888875249
20
22.7257881645664
30
0
0
SPLINE
5
AB
100
AcDbEntity
8
SK1
62
256
6
ByLayer
370
-1
48
1
60
0
100
AcDbSpline
70
4
71
3
72
65
73
61
40
0
40
0
40
0
40
0
40
0.0277156630743439
40
0.0555633423408402
40
0.0834110216073362
40
0.111258700873832
40
0.12518254050708
40
0.139106380140329
40
0.166954059406825
40
0.194801738673321
40
0.222649417939817
40
0.236573257573065
40
0.250497097206313
40
0.278344776472809
40
0.306192455739305
40
0.320116295372554
40
0.334040135005802
40
0.361887814272298
40
0.389735493538794
40
0.403659333172042
40
0.41758317280529
40
0.445430852071786
40
0.459354691705034
40
0.473278531338283
40
0.480240451154906
40
0.487202370971531
40
0.501126210604779
40
0.515050050238027
40
0.528973889871275
40
0.542897729504523
40
0.556821569137771
40
0.570745408771019
40
0.584669248404267
40
0.598593088037515
40
0.612516927670763
40
0.64036460693726
40
0.654288446570507
40
0.668212286203756
40
0.682136125837004
40
0.696059965470252
40
0.7099838051035
40
0.723907644736748
40
0.751755324003244
40
0.77960300326974
40
0.793526842902988
40
0.807450682536236
40
0.821374522169484
40
0.835298361802733
40
0.849222201435981
40
0.863146041069229
40
0.877069880702477
40
0.890993720335725
40
0.904917559968973
40
0.918841399602221
40
0.932765239235469
40
0.946689078868717
40
0.960612918501965
40
0.974536758135213
40
0.988460597768461
40
1
40
1
40
1
40
1
41
1
10
-0.394976888875277
20
22.7257881645683
30
0
41
1
10
-0.394976888875277
20
22.6212379261151
30
0
41
1
10
-0.394976888875277
20
22.4085794725498
30
0
41
1
10
-0.394976888875277
20
22.0802205832225
30
0
41
1
10
-0.394976888875277
20
21.7422733615616
30
0
41
1
10
-0.394976888875277
20
21.453205904272
30
0
41
1
10
-0.394976888875277
20
21.2174142726431
30
0
41
1
10
-0.394976888875277
20
20.9786637899232
30
0
41
1
10
-0.394976888875277
20
20.6748062117951
30
0
41
1
10
-0.394976888875277
20
20.3013474418474
30
0
41
1
10
-0.394976888875277
20
19.9829235092941
30
0
41
1
10
-0.394976888875277
20
19.7237678579095
30
0
41
1
10
-0.394976888875277
20
19.4617376778078
30
0
41
1
10
-0.394976888875277
20
19.1289452116702
30
0
41
1
10
-0.394976888875277
20
18.789032857947
30
0
41
1
10
-0.394976888875277
20
18.5127557060901
30
0
41
1
10
-0.394976888875277
20
18.2336536051105
30
0
41
1
10
-0.394976888875277
20
17.8796208110748
30
0
41
1
10
-0.394976888875277
20
17.5185779629222
30
0
41
1
10
-0.394976888875277
20
17.2254485445637
30
0
41
1
10
-0.394976888875277
20
16.9295332745893
30
0
41
1
10
-0.394976888875277
20
16.6296334809576
30
0
41
1
10
-0.394976888875277
20
16.3253883940748
30
0
41
1
10
-0.394976888875277
20
16.1335794000815
30
0
41
1
10
-0.394976888875277
20
15.9790378411121
30
0
41
1
10
-0.394976888875277
20
15.8238065102557
30
0
41
1
10
-0.394976888875277
20
15.6285504084944
30
0
41
1
10
-0.394976888875277
20
15.3921387609621
30
0
41
1
10
-0.394976888875277
20
15.1536644316209
30
0
41
1
10
-0.394976888875277
20
14.9131307556186
30
0
41
1
10
-0.394976888875277
20
14.6705410876498
30
0
41
1
10
-0.394976888875277
20
14.4258961509421
30
0
41
1
10
-0.394976888875277
20
14.1791991341329
30
0
41
1
10
-0.394976888875277
20
13.9304519502906
30
0
41
1
10
-0.394976888875277
20
13.595980784257
30
0
41
1
10
-0.394976888875277
20
13.2576504503011
30
0
41
1
10
-0.394976888875277
20
12.9149897871743
30
0
41
1
10
-0.394976888875277
20
12.656013614478
30
0
41
1
10
-0.394976888875277
20
12.3949946525974
30
0
41
1
10
-0.394976888875277
20
12.1319348240102
30
0
41
1
10
-0.394976888875277
20
11.8668345044804
30
0
41
1
10
-0.394976888875277
20
11.51055947116
30
0
41
1
10
-0.394976888875277
20
11.0603255640274
30
0
41
1
10
-0.394976888875277
20
10.6032942253079
30
0
41
1
10
-0.394976888875277
20
10.2334171055167
30
0
41
1
10
-0.394976888875277
20
9.95404991412451
30
0
41
1
10
-0.394976888875277
20
9.67264656600767
30
0
41
1
10
-0.394976888875277
20
9.3892080699232
30
0
41
1
10
-0.394976888875277
20
9.10373490192168
30
0
41
1
10
-0.394976888875277
20
8.81622850233529
30
0
41
1
10
-0.394976888875277
20
8.52669000819793
30
0
41
1
10
-0.394976888875277
20
8.23512137696338
30
0
41
1
10
-0.394976888875277
20
7.94152469111091
30
0
41
1
10
-0.394976888875277
20
7.64590290818538
30
0
41
1
10
-0.394976888875277
20
7.34825961897883
30
0
41
1
10
-0.394976888875277
20
7.04859942112893
30
0
41
1
10
-0.394976888875277
20
6.74692777135016
30
0
41
1
10
-0.394976888875277
20
6.44325210311729
30
0
41
1
10
-0.394976888875277
20
6.15502928738749
30
0
41
1
10
-0.394976888875277
20
5.96764092579403
30
0
41
1
10
-0.394976888875277
20
5.88246916452653
30
0
0
SPLINE
5
AC
100
AcDbEntity
8
SK1
62
256
6
ByLayer
370
-1
48
1
60
0
100
AcDbSpline
70
4
71
3
72
24
73
20
40
0
40
0
40
0
40
0
40
0.0625000000000028
40
0.0625000000000028
40
0.0937500000000027
40
0.0937500000000027
40
0.125000000000003
40
0.125000000000003
40
0.187500000000002
40
0.187500000000002
40
0.250000000000002
40
0.250000000000002
40
0.375000000000002
40
0.375000000000002
40
0.500000000000002
40
0.500000000000002
40
0.750000000000001
40
0.750000000000001
40
1
40
1
40
1
40
1
41
1
10
-0.394976888875277
20
5.88246916452653
30
0
41
1
10
-0.382350069157496
20
5.87167298403497
30
0
41
1
10
-0.366613896349804
20
5.8632777751138
30
0
41
1
10
-0.341634356786017
20
5.86524569625416
30
0
41
1
10
-0.333397011620349
20
5.86838955924895
30
0
41
1
10
-0.318988631583096
20
5.87770695780821
30
0
41
1
10
-0.312743382214592
20
5.88369895138621
30
0
41
1
10
-0.296018369933165
20
5.9034087902277
30
0
41
1
10
-0.287605201971928
20
5.91851163137145
30
0
41
1
10
-0.273097316105805
20
5.94954123300332
30
0
41
1
10
-0.267167369392297
20
5.96542317564109
30
0
41
1
10
-0.251432668896854
20
6.01363187356216
30
0
41
1
10
-0.243675661567977
20
6.0465714751119
30
0
41
1
10
-0.230718056341743
20
6.11291108254409
30
0
41
1
10
-0.225653098735933
20
6.14608265895711
30
0
41
1
10
-0.212997246629698
20
6.24556878217302
30
0
41
1
10
-0.20791279892299
20
6.31185420825182
30
0
41
1
10
-0.201370158980382
20
6.44430304126888
30
0
41
1
10
-0.200000000000188
20
6.51046842154392
30
0
41
1
10
-0.200000000000188
20
6.57657338511689
30
0
0
SPLINE
5
AD
100
AcDbEntity
8
SK1
62
256
6
ByLayer
370
-1
48
1
60
0
100
AcDbSpline
70
4
71
3
72
22
73
18
40
0
40
0
40
0
40
0
40
0.147507722006736
40
0.147507722006736
40
0.360630791505061
40
0.360630791505061
40
0.573753861003386
40
0.573753861003386
40
0.680315395752544
40
0.680315395752544
40
0.786876930501702
40
0.786876930501702
40
0.840157697876277
40
0.840157697876277
40
0.893438465250851
40
0.893438465250851
40
1
40
1
40
1
40
1
41
1
10
-0.213863237039249
20
27.3627555380504
30
0
41
1
10
-0.216055329570167
20
27.3548849693441
30
0
41
1
10
-0.218588400566802
20
27.3468679367279
30
0
41
1
10
-0.225773716901443
20
27.3268678454446
30
0
41
1
10
-0.230865818535278
20
27.3147403187153
30
0
41
1
10
-0.243817167560252
20
27.289649547607
30
0
41
1
10
-0.251609006750698
20
27.2766750832789
30
0
41
1
10
-0.267310756234394
20
27.2565651682759
30
0
41
1
10
-0.273218934106438
20
27.2497441426328
30
0
41
1
10
-0.287581776151455
20
27.2357375224533
30
0
41
1
10
-0.296059131080398
20
27.2284328994368
30
0
41
1
10
-0.312820518203694
20
27.2176202393924
30
0
41
1
10
-0.319036303829932
20
27.2140876538149
30
0
41
1
10
-0.33338540960608
20
27.2075198335421
30
0
41
1
10
-0.341627525584755
20
27.2045217689256
30
0
41
1
10
-0.36664076998602
20
27.1981793002157
30
0
41
1
10
-0.382346753396263
20
27.1976982552738
30
0
41
1
10
-0.394976888875476
20
27.1987923911108
30
0
0
SPLINE
5
AE
100
AcDbEntity
8
SK1
62
256
6
ByLayer
370
-1
48
1
60
0
100
AcDbSpline
70
4
71
3
72
16
73
12
40
0
40
0
40
0
40
0
40
0.106797390823888
40
0.106797390823888
40
0.509989969267866
40
0.509989969267866
40
0.711586258489855
40
0.711586258489855
40
0.913182547711844
40
0.913182547711844
40
1
40
1
40
1
40
1
41
1
10
-0.202436025306667
20
-20.9920824850873
30
0
41
1
10
-0.203046968381045
20
-21.0041231198005
30
0
41
1
10
-0.203781910584752
20
-21.016107181492
30
0
41
1
10
-0.207931557952747
20
-21.07304943449
30
0
41
1
10
-0.213034753906641
20
-21.1172556348418
30
0
41
1
10
-0.225773717958418
20
-21.1816297574384
30
0
41
1
10
-0.230865811746185
20
-21.202695832108
30
0
41
1
10
-0.243817136428191
20
-21.2436902841714
30
0
41
1
10
-0.25160895409843
20
-21.2636789837452
30
0
41
1
10
-0.266584752396256
20
-21.2902444316144
30
0
41
1
10
-0.271592919569201
20
-21.2979894631738
30
0
41
1
10
-0.277484001970407
20
-21.3053135589991
30
0
0
SPLINE
5
AF
100
AcDbEntity
8
SK1
62
256
6
ByLayer
370
-1
48
1
60
0
100
AcDbSpline
70
4
71
3
72
297
73
293
40
0
40
0
40
0
40
0
40
0.0006234392829065
40
0.0041651174581106
40
0.0077067956333147
40
0.0112484738085188
40
0.0147901519837229
40
0.0183318301589269
40
0.0254151865093351
40
0.0324985428597432
40
0.0360402210349473
40
0.0395818992101514
40
0.0431235773853555
40
0.0466652555605596
40
0.0502069337357636
40
0.0537486119109677
40
0.0572902900861718
40
0.0608319682613759
40
0.067915324611784
40
0.0714570027869881
40
0.0749986809621922
40
0.0785403591373963
40
0.0820820373126003
40
0.0856237154878044
40
0.0891653936630085
40
0.0927070718382126
40
0.0962487500134166
40
0.0997904281886207
40
0.103332106363825
40
0.106873784539029
40
0.108644623626631
40
0.110415462714233
40
0.113957140889437
40
0.117498819064641
40
0.124582175415049
40
0.131665531765457
40
0.135207209940661
40
0.138748888115866
40
0.145832244466274
40
0.152915600816682
40
0.15999895716709
40
0.163540635342294
40
0.167082313517498
40
0.174165669867906
40
0.181249026218315
40
0.188332382568723
40
0.195415738919131
40
0.202499095269539
40
0.209582451619947
40
0.213124129795151
40
0.216665807970355
40
0.223749164320763
40
0.230832520671172
40
0.23791587702158
40
0.241457555196784
40
0.244999233371988
40
0.252082589722396
40
0.259165946072804
40
0.262707624248008
40
0.266249302423212
40
0.273332658773621
40
0.280416015124029
40
0.283957693299233
40
0.287499371474437
40
0.294582727824845
40
0.298124406000049
40
0.301666084175253
40
0.303436923262855
40
0.305207762350457
40
0.308749440525661
40
0.312291118700865
40
0.31583279687607
40
0.319374475051273
40
0.322916153226478
40
0.326457831401682
40
0.329999509576886
40
0.33354118775209
40
0.337082865927294
40
0.344166222277702
40
0.347707900452906
40
0.35124957862811
40
0.354791256803314
40
0.358332934978518
40
0.361874613153722
40
0.365416291328927
40
0.372499647679335
40
0.379583004029743
40
0.383124682204947
40
0.386666360380151
40
0.390208038555355
40
0.393749716730559
40
0.397291394905763
40
0.400833073080967
40
0.404374751256171
40
0.407916429431376
40
0.41145810760658
40
0.414999785781784
40
0.418541463956988
40
0.422083142132192
40
0.425624820307396
40
0.4291664984826
40
0.432708176657804
40
0.436249854833008
40
0.43802069392061
40
0.439791533008212
40
0.443333211183416
40
0.44687488935862
40
0.448645728446222
40
0.450416567533824
40
0.453958245709028
40
0.45572908479663
40
0.457499923884233
40
0.458385343428034
40
0.459270762971835
40
0.461041602059437
40
0.462812441147039
40
0.464583280234641
40
0.466354119322243
40
0.468124958409845
40
0.469895797497447
40
0.470781217041248
40
0.471666636585049
40
0.47255205612885
40
0.473437475672651
40
0.474322895216452
40
0.475208314760253
40
0.476979153847855
40
0.477864573391656
40
0.478749992935457
40
0.480520832023059
40
0.48140625156686
40
0.482291671110661
40
0.484062510198263
40
0.484947929742064
40
0.485833349285865
40
0.487604188373467
40
0.489375027461069
40
0.491145866548671
40
0.492031286092472
40
0.492916705636273
40
0.493802125180074
40
0.494687544723875
40
0.495572964267676
40
0.496458383811477
40
0.497343803355278
40
0.49822922289908
40
0.499114642442881
40
0.500000061986681
40
0.500885481530483
40
0.501770901074284
40
0.502656320618085
40
0.503541740161886
40
0.504427159705687
40
0.505312579249488
40
0.506197998793289
40
0.50708341833709
40
0.507968837880891
40
0.508854257424692
40
0.510625096512294
40
0.512395935599896
40
0.514166774687498
40
0.515052194231299
40
0.5159376137751
40
0.517708452862702
40
0.518593872406503
40
0.519479291950304
40
0.521250131037906
40
0.522135550581707
40
0.523020970125508
40
0.52479180921311
40
0.525677228756911
40
0.526562648300712
40
0.527448067844513
40
0.528333487388314
40
0.529218906932115
40
0.530104326475916
40
0.531875165563518
40
0.53364600465112
40
0.535416843738722
40
0.537187682826324
40
0.538958521913926
40
0.540729361001528
40
0.541614780545329
40
0.54250020008913
40
0.544271039176732
40
0.546041878264335
40
0.549583556439539
40
0.551354395527141
40
0.553125234614743
40
0.556666912789947
40
0.560208590965151
40
0.561979430052753
40
0.563750269140355
40
0.567291947315559
40
0.570833625490763
40
0.574375303665967
40
0.577916981841171
40
0.581458660016375
40
0.585000338191579
40
0.588542016366783
40
0.592083694541988
40
0.595625372717192
40
0.599167050892396
40
0.6027087290676
40
0.606250407242804
40
0.609792085418008
40
0.613333763593212
40
0.616875441768416
40
0.62041711994362
40
0.623958798118824
40
0.627500476294028
40
0.634583832644437
40
0.638125510819641
40
0.641667188994845
40
0.645208867170049
40
0.648750545345253
40
0.652292223520457
40
0.655833901695661
40
0.662917258046069
40
0.666458936221273
40
0.670000614396477
40
0.673542292571681
40
0.677083970746885
40
0.68062564892209
40
0.684167327097294
40
0.687709005272498
40
0.691250683447702
40
0.694792361622906
40
0.69833403979811
40
0.701875717973314
40
0.705417396148518
40
0.712500752498926
40
0.71604243067413
40
0.719584108849334
40
0.726667465199743
40
0.733750821550151
40
0.737292499725355
40
0.740834177900559
40
0.747917534250967
40
0.755000890601375
40
0.758542568776579
40
0.762084246951783
40
0.769167603302191
40
0.7762509596526
40
0.783334316003008
40
0.786875994178212
40
0.790417672353416
40
0.797501028703824
40
0.804584385054232
40
0.81166774140464
40
0.818751097755049
40
0.825834454105457
40
0.832917810455865
40
0.836459488631069
40
0.840001166806273
40
0.847084523156681
40
0.854167879507089
40
0.861251235857497
40
0.864792914032702
40
0.868334592207906
40
0.875417948558314
40
0.882501304908722
40
0.886042983083926
40
0.88958466125913
40
0.896668017609538
40
0.900209695784742
40
0.903751373959946
40
0.907293052135151
40
0.910834730310355
40
0.914376408485559
40
0.917918086660763
40
0.921459764835967
40
0.925001443011171
40
0.928543121186375
40
0.932084799361579
40
0.939168155711987
40
0.942709833887191
40
0.946251512062395
40
0.949793190237599
40
0.953334868412803
40
0.956876546588008
40
0.960418224763212
40
0.963959902938416
40
0.96750158111362
40
0.974584937464028
40
0.981668293814436
40
0.98520997198964
40
0.988751650164844
40
0.992293328340048
40
0.995835006515252
40
0.999376684690457
40
1
40
1
40
1
40
1
41
1
10
-2.20000000000002
20
27.5060506696344
30
0
41
1
10
-2.20000000000002
20
27.5054288335933
30
0
41
1
10
-2.19999999999999
20
27.5011389346202
30
0
41
1
10
-2.19999999999999
20
27.4915322439685
30
0
41
1
10
-2.19999999999999
20
27.4744481367885
30
0
41
1
10
-2.19999999999999
20
27.4535951162672
30
0
41
1
10
-2.19999999999999
20
27.4290396962773
30
0
41
1
10
-2.19999999999999
20
27.3914487450129
30
0
41
1
10
-2.19999999999999
20
27.335511616751
30
0
41
1
10
-2.19999999999999
20
27.2680242938405
30
0
41
1
10
-2.19999999999999
20
27.2073129452677
30
0
41
1
10
-2.19999999999999
20
27.1584629254513
30
0
41
1
10
-2.19999999999999
20
27.1063432629947
30
0
41
1
10
-2.19999999999999
20
27.0509995322117
30
0
41
1
10
-2.19999999999999
20
26.9924724007358
30
0
41
1
10
-2.19999999999999
20
26.9308035073645
30
0
41
1
10
-2.19999999999999
20
26.8660318549495
30
0
41
1
10
-2.19999999999999
20
26.7755840284526
30
0
41
1
10
-2.19999999999999
20
26.6790690105836
30
0
41
1
10
-2.19999999999999
20
26.5766398127168
30
0
41
1
10
-2.19999999999999
20
26.4968867532828
30
0
41
1
10
-2.19999999999999
20
26.414234345797
30
0
41
1
10
-2.19999999999999
20
26.3287134555965
30
0
41
1
10
-2.19999999999999
20
26.2403534869032
30
0
41
1
10
-2.19999999999999
20
26.1491804877762
30
0
41
1
10
-2.19999999999999
20
26.0552228914818
30
0
41
1
10
-2.19999999999999
20
25.9585067097828
30
0
41
1
10
-2.19999999999999
20
25.8590554134204
30
0
41
1
10
-2.19999999999999
20
25.7568951729796
30
0
41
1
10
-2.19999999999999
20
25.6695210442987
30
0
41
1
10
-2.19999999999999
20
25.5982933540586
30
0
41
1
10
-2.19999999999999
20
25.5261818034759
30
0
41
1
10
-2.19999999999999
20
25.4343867299332
30
0
41
1
10
-2.19999999999999
20
25.284028449355
30
0
41
1
10
-2.19999999999999
20
25.0895715317904
30
0
41
1
10
-2.19999999999999
20
24.8865804660961
30
0
41
1
10
-2.19999999999999
20
24.7191499291268
30
0
41
1
10
-2.19999999999999
20
24.5483785892839
30
0
41
1
10
-2.19999999999999
20
24.3286812886663
30
0
41
1
10
-2.19999999999999
20
24.0552273098675
30
0
41
1
10
-2.19999999999999
20
23.8192595747193
30
0
41
1
10
-2.19999999999999
20
23.625702822842
30
0
41
1
10
-2.19999999999999
20
23.4289695970825
30
0
41
1
10
-2.19999999999999
20
23.1771173063638
30
0
41
1
10
-2.19999999999999
20
22.865528155817
30
0
41
1
10
-2.19999999999999
20
22.5446620300357
30
0
41
1
10
-2.19999999999999
20
22.2146097450714
30
0
41
1
10
-2.19999999999999
20
21.8754567939979
30
0
41
1
10
-2.19999999999999
20
21.5853057487131
30
0
41
1
10
-2.19999999999999
20
21.348724524242
30
0
41
1
10
-2.19999999999999
20
21.1091737057829
30
0
41
1
10
-2.19999999999999
20
20.8041728408687
30
0
41
1
10
-2.19999999999999
20
20.4293723348014
30
0
41
1
10
-2.19999999999999
20
20.1097427976019
30
0
41
1
10
-2.19999999999999
20
19.8497084000872
30
0
41
1
10
-2.19999999999999
20
19.5867870400026
30
0
41
1
10
-2.19999999999999
20
19.2527208742123
30
0
41
1
10
-2.19999999999999
20
18.9115004820266
30
0
41
1
10
-2.19999999999999
20
18.6342692782274
30
0
41
1
10
-2.19999999999999
20
18.3541989021743
30
0
41
1
10
-2.19999999999999
20
17.9987810562909
30
0
41
1
10
-2.19999999999999
20
17.6363146514327
30
0
41
1
10
-2.19999999999999
20
17.342145790273
30
0
41
1
10
-2.19999999999999
20
17.0451744942955
30
0
41
1
10
-2.19999999999999
20
16.7439793214723
30
0
41
1
10
-2.19999999999999
20
16.4386305854399
30
0
41
1
10
-2.19999999999999
20
16.2460368243143
30
0
41
1
10
-2.19999999999999
20
16.0909280537241
30
0
41
1
10
-2.19999999999999
20
15.9351247349383
30
0
41
1
10
-2.19999999999999
20
15.7390582874331
30
0
41
1
10
-2.19999999999999
20
15.5017057162253
30
0
41
1
10
-2.19999999999999
20
15.2622749109486
30
0
41
1
10
-2.19999999999999
20
15.0207692194115
30
0
41
1
10
-2.19999999999999
20
14.7771909058554
30
0
41
1
10
-2.19999999999999
20
14.5315403640059
30
0
41
1
10
-2.19999999999999
20
14.2838204496865
30
0
41
1
10
-2.19999999999999
20
14.0340319983603
30
0
41
1
10
-2.19999999999999
20
13.6982347575132
30
0
41
1
10
-2.19999999999999
20
13.3582704108556
30
0
41
1
10
-2.19999999999999
20
13.0142109423232
30
0
41
1
10
-2.19999999999999
20
12.7540926975445
30
0
41
1
10
-2.19999999999999
20
12.491909102254
30
0
41
1
10
-2.19999999999999
20
12.2276612824087
30
0
41
1
10
-2.19999999999999
20
11.9613483314474
30
0
41
1
10
-2.19999999999999
20
11.6035237684601
30
0
41
1
10
-2.19999999999999
20
11.1510479282636
30
0
41
1
10
-2.19999999999999
20
10.6916821947193
30
0
41
1
10
-2.19999999999999
20
10.3200777862056
30
0
41
1
10
-2.19999999999999
20
10.0392927830108
30
0
41
1
10
-2.19999999999999
20
9.75643631256762
30
0
41
1
10
-2.19999999999999
20
9.47150741663737
30
0
41
1
10
-2.19999999999999
20
9.18450458163332
30
0
41
1
10
-2.19999999999999
20
8.89542705327116
30
0
41
1
10
-2.19999999999999
20
8.60427351086133
30
0
41
1
10
-2.19999999999999
20
8.31104332875668
30
0
41
1
10
-2.19999999999999
20
8.01573570434201
30
0
41
1
10
-2.19999999999999
20
7.71835052760531
30
0
41
1
10
-2.19999999999999
20
7.41888792583902
30
0
41
1
10
-2.19999999999999
20
7.11734871686417
30
0
41
1
10
-2.19999999999999
20
6.81373435160455
30
0
41
1
10
-2.19999999999999
20
6.50804761437217
30
0
41
1
10
-2.19999999999999
20
6.20029192554162
30
0
41
1
10
-2.19999999999999
20
5.9420983893643
30
0
41
1
10
-2.19999999999999
20
5.73453666635555
30
0
41
1
10
-2.19999999999999
20
5.5262910261637
30
0
41
1
10
-2.19999999999999
20
5.2646764075686
30
0
41
1
10
-2.19999999999999
20
5.00136826964859
30
0
41
1
10
-2.19999999999999
20
4.78973719162454
30
0
41
1
10
-2.19999999999999
20
4.5774371918485
30
0
41
1
10
-2.19999999999999
20
4.3640968112588
30
0
41
1
10
-2.19999999999999
20
4.14981698400791
30
0
41
1
10
-2.19999999999999
20
4.01546868863096
30
0
41
1
10
-2.19999999999999
20
3.90776230457831
30
0
41
1
10
-2.19999999999999
20
3.7998956890315
30
0
41
1
10
-2.19999999999999
20
3.66474577486338
30
0
41
1
10
-2.19999999999999
20
3.50210371592672
30
0
41
1
10
-2.19999999999999
20
3.33899661229887
30
0
41
1
10
-2.19999999999999
20
3.17543128081249
30
0
41
1
10
-2.19999999999999
20
3.01141672767267
30
0
41
1
10
-2.19999999999999
20
2.87436211322455
30
0
41
1
10
-2.19999999999999
20
2.76452001856484
30
0
41
1
10
-2.19999999999999
20
2.68202546661414
30
0
41
1
10
-2.19999999999999
20
2.59942633274221
30
0
41
1
10
-2.19999999999999
20
2.51672422226801
30
0
41
1
10
-2.19999999999999
20
2.43392090537259
30
0
41
1
10
-2.19999999999999
20
2.32339362702302
30
0
41
1
10
-2.19999999999999
20
2.21264124345481
30
0
41
1
10
-2.19999999999999
20
2.1017319037741
30
0
41
1
10
-2.19999999999999
20
1.99070061185216
30
0
41
1
10
-2.19999999999999
20
1.87945967457651
30
0
41
1
10
-2.19999999999999
20
1.76808196044797
30
0
41
1
10
-2.19999999999999
20
1.65659534610089
30
0
41
1
10
-2.19999999999999
20
1.54491819828837
30
0
41
1
10
-2.19999999999999
20
1.43312830574621
30
0
41
1
10
-2.19999999999999
20
1.32124507985105
30
0
41
1
10
-2.19999999999999
20
1.18119882266058
30
0
41
1
10
-2.19999999999999
20
1.0129186171477
30
0
41
1
10
-2.19999999999999
20
0.872498995392078
30
0
41
1
10
-2.19999999999999
20
0.760095827222472
30
0
41
1
10
-2.19999999999999
20
0.675743919086329
30
0
41
1
10
-2.19999999999999
20
0.591356022200159
30
0
41
1
10
-2.19999999999999
20
0.506936438011195
30
0
41
1
10
-2.19999999999999
20
0.422489242090819
30
0
41
1
10
-2.19999999999999
20
0.338019061527263
30
0
41
1
10
-2.19999999999999
20
0.253530604877341
30
0
41
1
10
-2.19999999999999
20
0.169028167934272
30
0
41
1
10
-2.19999999999999
20
0.0845163058477283
30
0
41
1
10
-2.19999999999999
20
2.9737635E-09
30
0
41
1
10
-2.19999999999999
20
-0.0845162996800468
30
0
41
1
10
-2.19999999999999
20
-0.169028161239794
30
0
41
1
10
-2.19999999999999
20
-0.253530597556249
30
0
41
1
10
-2.19999999999999
20
-0.338019053908852
30
0
41
1
10
-2.19999999999999
20
-0.422489234806477
30
0
41
1
10
-2.19999999999999
20
-0.506936431545654
30
0
41
1
10
-2.19999999999999
20
-0.591356016553533
30
0
41
1
10
-2.19999999999999
20
-0.675743913418643
30
0
41
1
10
-2.19999999999999
20
-0.760095820637474
30
0
41
1
10
-2.19999999999999
20
-0.87249898691482
30
0
41
1
10
-2.19999999999999
20
-1.01291860933941
30
0
41
1
10
-2.19999999999999
20
-1.18119881783468
30
0
41
1
10
-2.19999999999999
20
-1.32124507363099
30
0
41
1
10
-2.19999999999999
20
-1.43312829673272
30
0
41
1
10
-2.19999999999999
20
-1.54491818810743
30
0
41
1
10
-2.19999999999999
20
-1.65659533844251
30
0
41
1
10
-2.19999999999999
20
-1.76808195565891
30
0
41
1
10
-2.19999999999999
20
-1.87945966995704
30
0
41
1
10
-2.19999999999999
20
-1.9907006034768
30
0
41
1
10
-2.19999999999999
20
-2.10173189222928
30
0
41
1
10
-2.19999999999999
20
-2.21264123208616
30
0
41
1
10
-2.19999999999999
20
-2.32339361988261
30
0
41
1
10
-2.19999999999999
20
-2.43392090149777
30
0
41
1
10
-2.19999999999999
20
-2.51672421834661
30
0
41
1
10
-2.19999999999999
20
-2.5994263263795
30
0
41
1
10
-2.19999999999999
20
-2.68202545651479
30
0
41
1
10
-2.19999999999999
20
-2.76452000553434
30
0
41
1
10
-2.19999999999999
20
-2.87436209926597
30
0
41
1
10
-2.19999999999999
20
-3.01141672008131
30
0
41
1
10
-2.19999999999999
20
-3.17543127927689
30
0
41
1
10
-2.19999999999999
20
-3.33899660464965
30
0
41
1
10
-2.19999999999999
20
-3.5021036988395
30
0
41
1
10
-2.19999999999999
20
-3.66474576021935
30
0
41
1
10
-2.19999999999999
20
-3.79989568244895
30
0
41
1
10
-2.19999999999999
20
-3.90776230194615
30
0
41
1
10
-2.19999999999999
20
-4.01546868648907
30
0
41
1
10
-2.19999999999999
20
-4.14981697452481
30
0
41
1
10
-2.19999999999999
20
-4.36409678795761
30
0
41
1
10
-2.19999999999999
20
-4.57743718277371
30
0
41
1
10
-2.19999999999999
20
-4.78973719244794
30
0
41
1
10
-2.19999999999999
20
-5.00136826160576
30
0
41
1
10
-2.19999999999999
20
-5.2646763781224
30
0
41
1
10
-2.19999999999999
20
-5.52629101970234
30
0
41
1
10
-2.19999999999999
20
-5.73453666830338
30
0
41
1
10
-2.19999999999999
20
-5.94209838158557
30
0
41
1
10
-2.19999999999999
20
-6.20029189348728
30
0
41
1
10
-2.19999999999999
20
-6.50804760816206
30
0
41
1
10
-2.19999999999999
20
-6.81373435633816
30
0
41
1
10
-2.19999999999999
20
-7.11734869113025
30
0
41
1
10
-2.19999999999999
20
-7.41888794723957
30
0
41
1
10
-2.19999999999999
20
-7.71835058358695
30
0
41
1
10
-2.19999999999999
20
-8.01573561602433
30
0
41
1
10
-2.19999999999999
20
-8.31104318061551
30
0
41
1
10
-2.19999999999999
20
-8.60427356074339
30
0
41
1
10
-2.19999999999999
20
-8.8954271911569
30
0
41
1
10
-2.19999999999999
20
-9.1845043611271
30
0
41
1
10
-2.19999999999999
20
-9.47150729415071
30
0
41
1
10
-2.19999999999999
20
-9.7564363484619
30
0
41
1
10
-2.19999999999999
20
-10.0392928286736
30
0
41
1
10
-2.19999999999999
20
-10.3200778010582
30
0
41
1
10
-2.19999999999999
20
-10.5987925508876
30
0
41
1
10
-2.19999999999999
20
-10.8754383363526
30
0
41
1
10
-2.19999999999999
20
-11.2415269571056
30
0
41
1
10
-2.19999999999999
20
-11.6035238164173
30
0
41
1
10
-2.19999999999999
20
-11.9613483258762
30
0
41
1
10
-2.19999999999999
20
-12.2276612856809
30
0
41
1
10
-2.19999999999999
20
-12.4919091491304
30
0
41
1
10
-2.19999999999999
20
-12.7540927464655
30
0
41
1
10
-2.19999999999999
20
-13.0142109860464
30
0
41
1
10
-2.19999999999999
20
-13.3582704046987
30
0
41
1
10
-2.19999999999999
20
-13.6982347944475
30
0
41
1
10
-2.19999999999999
20
-14.034031998634
30
0
41
1
10
-2.19999999999999
20
-14.2838204606995
30
0
41
1
10
-2.19999999999999
20
-14.5315403886931
30
0
41
1
10
-2.19999999999999
20
-14.7771908994275
30
0
41
1
10
-2.19999999999999
20
-15.0207692449601
30
0
41
1
10
-2.19999999999999
20
-15.2622748554345
30
0
41
1
10
-2.19999999999999
20
-15.501705604915
30
0
41
1
10
-2.19999999999999
20
-15.73905841291
30
0
41
1
10
-2.19999999999999
20
-15.9743322626435
30
0
41
1
10
-2.19999999999999
20
-16.2075239950657
30
0
41
1
10
-2.19999999999999
20
-16.4386302461311
30
0
41
1
10
-2.19999999999999
20
-16.7439792746615
30
0
41
1
10
-2.19999999999999
20
-17.0451745383014
30
0
41
1
10
-2.19999999999999
20
-17.342145790903
30
0
41
1
10
-2.19999999999999
20
-17.636314655197
30
0
41
1
10
-2.19999999999999
20
-17.9987810588702
30
0
41
1
10
-2.19999999999999
20
-18.3541988970414
30
0
41
1
10
-2.19999999999999
20
-18.634269279738
30
0
41
1
10
-2.19999999999999
20
-18.9115004851851
30
0
41
1
10
-2.19999999999999
20
-19.2527208752522
30
0
41
1
10
-2.19999999999999
20
-19.5867870393815
30
0
41
1
10
-2.19999999999999
20
-19.8497084005983
30
0
41
1
10
-2.19999999999999
20
-20.1097428027781
30
0
41
1
10
-2.19999999999999
20
-20.4293723340896
30
0
41
1
10
-2.19999999999999
20
-20.8041728419317
30
0
41
1
10
-2.19999999999999
20
-21.1091737088127
30
0
41
1
10
-2.19999999999999
20
-21.3487245268705
30
0
41
1
10
-2.19999999999999
20
-21.5853057494763
30
0
41
1
10
-2.19999999999999
20
-21.8754567982465
30
0
41
1
10
-2.19999999999999
20
-22.2146097463897
30
0
41
1
10
-2.19999999999999
20
-22.5446620340323
30
0
41
1
10
-2.19999999999999
20
-22.8655281588585
30
0
41
1
10
-2.19999999999999
20
-23.1771173076971
30
0
41
1
10
-2.19999999999999
20
-23.4289696038095
30
0
41
1
10
-2.19999999999999
20
-23.6257028262786
30
0
41
1
10
-2.19999999999999
20
-23.8192595766845
30
0
41
1
10
-2.19999999999999
20
-24.055227314874
30
0
41
1
10
-2.19999999999999
20
-24.3286812980358
30
0
41
1
10
-2.19999999999999
20
-24.5483785868417
30
0
41
1
10
-2.19999999999999
20
-24.7191499364504
30
0
41
1
10
-2.19999999999999
20
-24.8865804716972
30
0
41
1
10
-2.19999999999999
20
-25.0895715372854
30
0
41
1
10
-2.19999999999999
20
-25.2840285001251
30
0
41
1
10
-2.19999999999999
20
-25.4343865772609
30
0
41
1
10
-2.19999999999999
20
-25.5812511874436
30
0
41
1
10
-2.19999999999999
20
-25.7228460886287
30
0
41
1
10
-2.19999999999999
20
-25.8590558590047
30
0
41
1
10
-2.19999999999999
20
-25.9585066378384
30
0
41
1
10
-2.19999999999999
20
-26.0552227938057
30
0
41
1
10
-2.19999999999999
20
-26.1491804785364
30
0
41
1
10
-2.19999999999999
20
-26.2403534959289
30
0
41
1
10
-2.19999999999999
20
-26.3287134281848
30
0
41
1
10
-2.19999999999999
20
-26.4142343357678
30
0
41
1
10
-2.19999999999999
20
-26.496886760278
30
0
41
1
10
-2.19999999999999
20
-26.5766397788825
30
0
41
1
10
-2.19999999999999
20
-26.6790690300398
30
0
41
1
10
-2.19999999999999
20
-26.7755839801004
30
0
41
1
10
-2.19999999999999
20
-26.8660318680525
30
0
41
1
10
-2.19999999999999
20
-26.9308034813114
30
0
41
1
10
-2.19999999999999
20
-26.9924723817988
30
0
41
1
10
-2.19999999999999
20
-27.0509995447849
30
0
41
1
10
-2.19999999999999
20
-27.1063432161342
30
0
41
1
10
-2.19999999999999
20
-27.1584628619196
30
0
41
1
10
-2.19999999999999
20
-27.2073128739481
30
0
41
1
10
-2.19999999999999
20
-27.2680242980374
30
0
41
1
10
-2.19999999999999
20
-27.3355116051596
30
0
41
1
10
-2.19999999999999
20
-27.391448663995
30
0
41
1
10
-2.19999999999999
20
-27.4290397313646
30
0
41
1
10
-2.19999999999999
20
-27.4535951682728
30
0
41
1
10
-2.19999999999999
20
-27.4744481426486
30
0
41
1
10
-2.19999999999999
20
-27.4915322394785
30
0
41
1
10
-2.19999999999999
20
-27.5011388092262
30
0
41
1
10
-2.19999999999999
20
-27.5054286108323
30
0
41
1
10
-2.19999999999996
20
-27.5060503314707
30
0
0
SPLINE
5
B0
100
AcDbEntity
8
SK1
62
256
6
ByLayer
370
-1
48
1
60
0
100
AcDbSpline
70
4
71
3
72
24
73
20
40
0
40
0
40
0
40
0
40
0.0752939423204728
40
0.0752939423204728
40
0.112940913480707
40
0.112940913480707
40
0.15058788464094
40
0.15058788464094
40
0.225881826961408
40
0.225881826961408
40
0.301175769281875
40
0.301175769281875
40
0.45176365392281
40
0.45176365392281
40
0.602351538563746
40
0.602351538563746
40
0.903527307845618
40
0.903527307845618
40
1
40
1
40
1
40
1
41
1
10
-0.394976888875277
20
21.3163207485063
30
0
41
1
10
-0.38234996551526
20
21.32602285181
30
0
41
1
10
-0.366613785015971
20
21.3349047707578
30
0
41
1
10
-0.341634362270156
20
21.3392717772514
30
0
41
1
10
-0.333397050192815
20
21.3391210512548
30
0
41
1
10
-0.318988537079122
20
21.3364012870416
30
0
41
1
10
-0.312743268224239
20
21.333964955833
30
0
41
1
10
-0.296018017563938
20
21.3250563044761
30
0
41
1
10
-0.287604805032601
20
21.3171963488634
30
0
41
1
10
-0.273096778868705
20
21.3003253911432
30
0
41
1
10
-0.267166824035058
20
21.2913089199108
30
0
41
1
10
-0.251432168957734
20
21.2633000291642
30
0
41
1
10
-0.243675296395367
20
21.2433169025037
30
0
41
1
10
-0.230717856606475
20
21.2021501855169
30
0
41
1
10
-0.225652972908108
20
21.1810894553265
30
0
41
1
10
-0.212997240785569
20
21.1169238357485
30
0
41
1
10
-0.207912783550995
20
21.0728446192846
30
0
41
1
10
-0.203593604068516
20
21.0135059896819
30
0
41
1
10
-0.202740804494084
20
20.9990190862213
30
0
41
1
10
-0.202065620906183
20
20.9844471039241
30
0
0
SPLINE
5
B1
100
AcDbEntity
8
SK1
62
256
6
ByLayer
370
-1
48
1
60
0
100
AcDbSpline
70
4
71
3
72
299
73
295
40
0
40
0
40
0
40
0
40
0.0016934798375903
40
0.0052027747488442
40
0.0087120696600982
40
0.0122213645713522
40
0.0157306594826061
40
0.0192399543938601
40
0.0227492493051141
40
0.029767839127622
40
0.0367864289501299
40
0.0402957238613839
40
0.0438050187726379
40
0.0473143136838918
40
0.0508236085951458
40
0.0543329035063998
40
0.0578421984176537
40
0.0613514933289077
40
0.0648607882401617
40
0.0718793780626696
40
0.0753886729739236
40
0.0788979678851776
40
0.0824072627964315
40
0.0859165577076855
40
0.0894258526189394
40
0.0929351475301935
40
0.0964444424414474
40
0.0999537373527014
40
0.103463032263955
40
0.106972327175209
40
0.110481622086463
40
0.11223626954209
40
0.113990916997717
40
0.117500211908971
40
0.121009506820225
40
0.128028096642733
40
0.135046686465241
40
0.138555981376495
40
0.142065276287749
40
0.149083866110257
40
0.156102455932765
40
0.163121045755273
40
0.166630340666527
40
0.170139635577781
40
0.177158225400289
40
0.184176815222797
40
0.191195405045305
40
0.198213994867813
40
0.20523258469032
40
0.212251174512828
40
0.215760469424082
40
0.219269764335336
40
0.226288354157844
40
0.233306943980352
40
0.24032553380286
40
0.243834828714114
40
0.247344123625368
40
0.254362713447876
40
0.261381303270384
40
0.264890598181638
40
0.268399893092892
40
0.2754184829154
40
0.282437072737908
40
0.285946367649162
40
0.289455662560416
40
0.296474252382924
40
0.299983547294178
40
0.303492842205432
40
0.305247489661059
40
0.307002137116686
40
0.31051143202794
40
0.314020726939193
40
0.317530021850447
40
0.321039316761702
40
0.324548611672956
40
0.32805790658421
40
0.331567201495463
40
0.335076496406717
40
0.338585791317971
40
0.345604381140479
40
0.349113676051733
40
0.352622970962987
40
0.356132265874241
40
0.359641560785495
40
0.363150855696749
40
0.366660150608003
40
0.373678740430511
40
0.380697330253019
40
0.384206625164273
40
0.387715920075527
40
0.391225214986781
40
0.394734509898035
40
0.398243804809289
40
0.401753099720543
40
0.405262394631797
40
0.408771689543051
40
0.412280984454305
40
0.415790279365559
40
0.419299574276813
40
0.422808869188066
40
0.426318164099321
40
0.429827459010575
40
0.433336753921829
40
0.436846048833082
40
0.438600696288709
40
0.440355343744336
40
0.44386463865559
40
0.447373933566844
40
0.449128581022471
40
0.450883228478098
40
0.454392523389352
40
0.456147170844979
40
0.457901818300606
40
0.45877914202842
40
0.459656465756233
40
0.46141111321186
40
0.463165760667487
40
0.464920408123114
40
0.466675055578741
40
0.468429703034368
40
0.470184350489995
40
0.471061674217809
40
0.471938997945622
40
0.472816321673436
40
0.473693645401249
40
0.474570969129063
40
0.475448292856876
40
0.477202940312503
40
0.478080264040317
40
0.47895758776813
40
0.480712235223757
40
0.481589558951571
40
0.482466882679384
40
0.484221530135011
40
0.485098853862824
40
0.485976177590638
40
0.487730825046265
40
0.489485472501892
40
0.491240119957519
40
0.492117443685333
40
0.492994767413146
40
0.49387209114096
40
0.494749414868773
40
0.495626738596587
40
0.4965040623244
40
0.497381386052213
40
0.498258709780027
40
0.499136033507841
40
0.500013357235654
40
0.500890680963467
40
0.501768004691281
40
0.502645328419094
40
0.503522652146908
40
0.504399975874721
40
0.505277299602535
40
0.506154623330348
40
0.507031947058162
40
0.507909270785975
40
0.508786594513789
40
0.510541241969416
40
0.512295889425043
40
0.51405053688067
40
0.514927860608483
40
0.515805184336297
40
0.517559831791924
40
0.518437155519737
40
0.519314479247551
40
0.521069126703178
40
0.521946450430991
40
0.522823774158805
40
0.524578421614432
40
0.525455745342245
40
0.526333069070059
40
0.527210392797872
40
0.528087716525686
40
0.528965040253499
40
0.529842363981313
40
0.53159701143694
40
0.533351658892567
40
0.535106306348194
40
0.53686095380382
40
0.538615601259448
40
0.540370248715075
40
0.541247572442888
40
0.542124896170701
40
0.543879543626329
40
0.545634191081956
40
0.54914348599321
40
0.550898133448837
40
0.552652780904463
40
0.556162075815717
40
0.559671370726971
40
0.561426018182598
40
0.563180665638225
40
0.566689960549479
40
0.570199255460733
40
0.573708550371987
40
0.577217845283241
40
0.580727140194495
40
0.584236435105749
40
0.587745730017003
40
0.591255024928257
40
0.594764319839511
40
0.598273614750765
40
0.601782909662019
40
0.605292204573273
40
0.608801499484527
40
0.612310794395781
40
0.615820089307035
40
0.619329384218289
40
0.622838679129543
40
0.626347974040797
40
0.633366563863305
40
0.636875858774559
40
0.640385153685813
40
0.643894448597066
40
0.647403743508321
40
0.650913038419574
40
0.654422333330829
40
0.661440923153336
40
0.66495021806459
40
0.668459512975844
40
0.671968807887098
40
0.675478102798352
40
0.678987397709606
40
0.68249669262086
40
0.686005987532114
40
0.689515282443368
40
0.693024577354622
40
0.696533872265876
40
0.70004316717713
40
0.703552462088384
40
0.710571051910892
40
0.714080346822146
40
0.7175896417334
40
0.724608231555908
40
0.731626821378416
40
0.73513611628967
40
0.738645411200924
40
0.745664001023432
40
0.75268259084594
40
0.756191885757194
40
0.759701180668448
40
0.766719770490956
40
0.773738360313463
40
0.780756950135971
40
0.784266245047225
40
0.787775539958479
40
0.794794129780987
40
0.801812719603495
40
0.808831309426003
40
0.815849899248511
40
0.822868489071019
40
0.829887078893527
40
0.833396373804781
40
0.836905668716035
40
0.843924258538543
40
0.850942848361051
40
0.857961438183559
40
0.861470733094813
40
0.864980028006067
40
0.871998617828575
40
0.879017207651082
40
0.882526502562337
40
0.886035797473591
40
0.893054387296098
40
0.896563682207352
40
0.900072977118606
40
0.90358227202986
40
0.907091566941114
40
0.910600861852368
40
0.914110156763622
40
0.917619451674876
40
0.92112874658613
40
0.924638041497384
40
0.928147336408638
40
0.935165926231146
40
0.9386752211424
40
0.942184516053654
40
0.945693810964908
40
0.949203105876162
40
0.952712400787416
40
0.95622169569867
40
0.959730990609924
40
0.963240285521178
40
0.970258875343686
40
0.977277465166194
40
0.980786760077447
40
0.984296054988702
40
0.987805349899956
40
0.99131464481121
40
0.994823939722464
40
0.998333234633718
40
1
40
1
40
1
40
1
41
1
10
-48
20
25.5377836811371
30
0
41
1
10
-48
20
25.5369757168141
30
0
41
1
10
-48
20
25.534045481129
30
0
41
1
10
-48
20
25.526853527344
30
0
41
1
10
-48
20
25.5145008149315
30
0
41
1
10
-48
20
25.498546052428
30
0
41
1
10
-48
20
25.4790475285131
30
0
41
1
10
-48
20
25.4560605539616
30
0
41
1
10
-48
20
25.4206809385044
30
0
41
1
10
-48
20
25.3683435244347
30
0
41
1
10
-48
20
25.3050935983469
30
0
41
1
10
-48
20
25.2477155824513
30
0
41
1
10
-48
20
25.2016868330385
30
0
41
1
10
-48
20
25.152540227847
30
0
41
1
10
-48
20
25.1003164469937
30
0
41
1
10
-48
20
25.0450517289096
30
0
41
1
10
-48
20
24.9867824066374
30
0
41
1
10
-48
20
24.9255447176865
30
0
41
1
10
-48
20
24.839671739525
30
0
41
1
10
-48
20
24.7489365887333
30
0
41
1
10
-48
20
24.6515544180899
30
0
41
1
10
-48
20
24.5759533043403
30
0
41
1
10
-48
20
24.4975687629489
30
0
41
1
10
-48
20
24.4164276140701
30
0
41
1
10
-48
20
24.3325592473395
30
0
41
1
10
-48
20
24.2459871695687
30
0
41
1
10
-48
20
24.1567364141525
30
0
41
1
10
-48
20
24.0648340874221
30
0
41
1
10
-48
20
23.9703007183102
30
0
41
1
10
-48
20
23.8731600668768
30
0
41
1
10
-48
20
23.7902703050809
30
0
41
1
10
-48
20
23.7222924438482
30
0
41
1
10
-48
20
23.653458955013
30
0
41
1
10
-48
20
23.5663193127548
30
0
41
1
10
-48
20
23.4227344317565
30
0
41
1
10
-48
20
23.2380159335195
30
0
41
1
10
-48
20
23.0451147378601
30
0
41
1
10
-48
20
22.8850691532134
30
0
41
1
10
-48
20
22.7217969969803
30
0
41
1
10
-48
20
22.5128489113235
30
0
41
1
10
-48
20
22.2520665958364
30
0
41
1
10
-48
20
22.0275248400849
30
0
41
1
10
-48
20
21.8423074664778
30
0
41
1
10
-48
20
21.6540306628311
30
0
41
1
10
-48
20
21.4142718291048
30
0
41
1
10
-48
20
21.1168973606635
30
0
41
1
10
-48
20
20.8106419723679
30
0
41
1
10
-48
20
20.4956027387563
30
0
41
1
10
-48
20
20.1718725887445
30
0
41
1
10
-48
20
19.8955820016259
30
0
41
1
10
-48
20
19.6691006662323
30
0
41
1
10
-48
20
19.4397871520623
30
0
41
1
10
-48
20
19.149410368202
30
0
41
1
10
-48
20
18.7917723606454
30
0
41
1
10
-48
20
18.4875640285875
30
0
41
1
10
-48
20
18.2387699032321
30
0
41
1
10
-48
20
17.9872478599777
30
0
41
1
10
-48
20
17.6694739204115
30
0
41
1
10
-48
20
17.3449849911693
30
0
41
1
10
-48
20
17.0799573159189
30
0
41
1
10
-48
20
16.8122724002143
30
0
41
1
10
-48
20
16.4745711156787
30
0
41
1
10
-48
20
16.1303137979014
30
0
41
1
10
-48
20
15.8494407221551
30
0
41
1
10
-48
20
15.5659773316764
30
0
41
1
10
-48
20
15.2813516937416
30
0
41
1
10
-48
20
14.9901200233614
30
0
41
1
10
-48
20
14.8075644243928
30
0
41
1
10
-48
20
14.6597110063681
30
0
41
1
10
-48
20
14.5112241351638
30
0
41
1
10
-48
20
14.325523032543
30
0
41
1
10
-48
20
14.100206062781
30
0
41
1
10
-48
20
13.8730097919851
30
0
41
1
10
-48
20
13.6439374060174
30
0
41
1
10
-48
20
13.4130051173935
30
0
41
1
10
-48
20
13.180217534584
30
0
41
1
10
-48
20
12.9455817705228
30
0
41
1
10
-48
20
12.7091124446063
30
0
41
1
10
-48
20
12.3902773743984
30
0
41
1
10
-48
20
12.0712141126493
30
0
41
1
10
-48
20
11.7450471308309
30
0
41
1
10
-48
20
11.499537429511
30
0
41
1
10
-48
20
11.2522509655356
30
0
41
1
10
-48
20
11.0031990533662
30
0
41
1
10
-48
20
10.7523971889997
30
0
41
1
10
-48
20
10.4143930662711
30
0
41
1
10
-48
20
9.99059437973426
30
0
41
1
10
-48
20
9.56108850247725
30
0
41
1
10
-48
20
9.21157829691111
30
0
41
1
10
-48
20
8.94892889623651
30
0
41
1
10
-48
20
8.68465969448141
30
0
41
1
10
-48
20
8.41879489376456
30
0
41
1
10
-48
20
8.1513584304715
30
0
41
1
10
-48
20
7.88237762223332
30
0
41
1
10
-48
20
7.61188258574541
30
0
41
1
10
-48
20
7.33990573648225
30
0
41
1
10
-48
20
7.06648317582801
30
0
41
1
10
-48
20
6.79165403169532
30
0
41
1
10
-48
20
6.51546273390829
30
0
41
1
10
-48
20
6.23795844891293
30
0
41
1
10
-48
20
5.95919386675251
30
0
41
1
10
-48
20
5.67923124039956
30
0
41
1
10
-48
20
5.39813608998188
30
0
41
1
10
-48
20
5.16409942590656
30
0
41
1
10
-48
20
4.97430334712462
30
0
41
1
10
-48
20
4.7842335597642
30
0
41
1
10
-48
20
4.54886462907328
30
0
41
1
10
-48
20
4.31277534686873
30
0
41
1
10
-48
20
4.12122851639981
30
0
41
1
10
-48
20
3.92953181194159
30
0
41
1
10
-48
20
3.74171250564351
30
0
41
1
10
-48
20
3.54939053469457
30
0
41
1
10
-48
20
3.43078723702686
30
0
41
1
10
-48
20
3.33452834177101
30
0
41
1
10
-48
20
3.23827071234683
30
0
41
1
10
-48
20
3.11968323888183
30
0
41
1
10
-48
20
2.9763972576242
30
0
41
1
10
-48
20
2.83312966280695
30
0
41
1
10
-48
20
2.68989995735709
30
0
41
1
10
-48
20
2.54673093615281
30
0
41
1
10
-48
20
2.42835340498934
30
0
41
1
10
-48
20
2.33210483961736
30
0
41
1
10
-48
20
2.26063536694386
30
0
41
1
10
-48
20
2.18920496049071
30
0
41
1
10
-48
20
2.11781396766756
30
0
41
1
10
-48
20
2.04645318736363
30
0
41
1
10
-48
20
1.95042373572571
30
0
41
1
10
-48
20
1.85738517673588
30
0
41
1
10
-48
20
1.76148268994555
30
0
41
1
10
-48
20
1.66566845968211
30
0
41
1
10
-48
20
1.57300568038053
30
0
41
1
10
-48
20
1.47735113591224
30
0
41
1
10
-48
20
1.38179732051373
30
0
41
1
10
-48
20
1.28954369165814
30
0
41
1
10
-48
20
1.19416572492489
30
0
41
1
10
-48
20
1.09890005736773
30
0
41
1
10
-48
20
0.98245221211539
30
0
41
1
10
-48
20
0.841586183466262
30
0
41
1
10
-48
20
0.725505983440371
30
0
41
1
10
-48
20
0.630667457966069
30
0
41
1
10
-48
20
0.560480352627565
30
0
41
1
10
-48
20
0.490320947144568
30
0
41
1
10
-48
20
0.420191796768449
30
0
41
1
10
-48
20
0.350113667187827
30
0
41
1
10
-48
20
0.280062256420109
30
0
41
1
10
-48
20
0.210017157782517
30
0
41
1
10
-48
20
0.139999797922002
30
0
41
1
10
-48
20
0.0700069276308
30
0
41
1
10
-48
20
4.76035495E-08
30
0
41
1
10
-48
20
-0.070006852265891
30
0
41
1
10
-48
20
-0.139999771278355
30
0
41
1
10
-48
20
-0.210017192178867
30
0
41
1
10
-48
20
-0.280062327764426
30
0
41
1
10
-48
20
-0.350113717602739
30
0
41
1
10
-48
20
-0.420191773132984
30
0
41
1
10
-48
20
-0.490320831948736
30
0
41
1
10
-48
20
-0.560480204117283
30
0
41
1
10
-48
20
-0.630667364061651
30
0
41
1
10
-48
20
-0.725506055183985
30
0
41
1
10
-48
20
-0.841586301072937
30
0
41
1
10
-48
20
-0.982452087600734
30
0
41
1
10
-48
20
-1.0988998543464
30
0
41
1
10
-48
20
-1.19416572065762
30
0
41
1
10
-48
20
-1.28954388060518
30
0
41
1
10
-48
20
-1.38179747741995
30
0
41
1
10
-48
20
-1.47735105462405
30
0
41
1
10
-48
20
-1.57300541448592
30
0
41
1
10
-48
20
-1.66566826608278
30
0
41
1
10
-48
20
-1.7614827566702
30
0
41
1
10
-48
20
-1.85738542747043
30
0
41
1
10
-48
20
-1.95042391104269
30
0
41
1
10
-48
20
-2.04645309751422
30
0
41
1
10
-48
20
-2.11781369872008
30
0
41
1
10
-48
20
-2.1892046545733
30
0
41
1
10
-48
20
-2.26063516689573
30
0
41
1
10
-48
20
-2.33210483720984
30
0
41
1
10
-48
20
-2.42835363712962
30
0
41
1
10
-48
20
-2.54673116818745
30
0
41
1
10
-48
20
-2.68989982354518
30
0
41
1
10
-48
20
-2.83312933609361
30
0
41
1
10
-48
20
-2.97639722386972
30
0
41
1
10
-48
20
-3.11968351915573
30
0
41
1
10
-48
20
-3.23827092858158
30
0
41
1
10
-48
20
-3.33452833265792
30
0
41
1
10
-48
20
-3.43078700052166
30
0
41
1
10
-48
20
-3.54939021067565
30
0
41
1
10
-48
20
-3.74171256557347
30
0
41
1
10
-48
20
-3.92953209444403
30
0
41
1
10
-48
20
-4.12122845571991
30
0
41
1
10
-48
20
-4.31277503954939
30
0
41
1
10
-48
20
-4.54886466434414
30
0
41
1
10
-48
20
-4.78423382727124
30
0
41
1
10
-48
20
-4.97430327353658
30
0
41
1
10
-48
20
-5.16409912297942
30
0
41
1
10
-48
20
-5.39813607390266
30
0
41
1
10
-48
20
-5.67923146024086
30
0
41
1
10
-48
20
-5.95919374753973
30
0
41
1
10
-48
20
-6.23795855201797
30
0
41
1
10
-48
20
-6.51546317325875
30
0
41
1
10
-48
20
-6.79165340259817
30
0
41
1
10
-48
20
-7.06648207689202
30
0
41
1
10
-48
20
-7.33990643048304
30
0
41
1
10
-48
20
-7.61188395990186
30
0
41
1
10
-48
20
-7.88237631719019
30
0
41
1
10
-48
20
-8.15135709229654
30
0
41
1
10
-48
20
-8.41879605362203
30
0
41
1
10
-48
20
-8.68466042952298
30
0
41
1
10
-48
20
-8.94892880419638
30
0
41
1
10
-48
20
-9.211578053919
30
0
41
1
10
-48
20
-9.47258829745539
30
0
41
1
10
-48
20
-9.73193781693988
30
0
41
1
10
-48
20
-10.0769274508059
30
0
41
1
10
-48
20
-10.414392862813
30
0
41
1
10
-48
20
-10.7523970809122
30
0
41
1
10
-48
20
-11.0031992619305
30
0
41
1
10
-48
20
-11.2522511703231
30
0
41
1
10
-48
20
-11.4995374559565
30
0
41
1
10
-48
20
-11.7450470242589
30
0
41
1
10
-48
20
-12.0712140924269
30
0
41
1
10
-48
20
-12.3902774266109
30
0
41
1
10
-48
20
-12.7091123929266
30
0
41
1
10
-48
20
-12.9455818593715
30
0
41
1
10
-48
20
-13.180217502072
30
0
41
1
10
-48
20
-13.4130051102497
30
0
41
1
10
-48
20
-13.6439372705323
30
0
41
1
10
-48
20
-13.8730093523109
30
0
41
1
10
-48
20
-14.1002065298018
30
0
41
1
10
-48
20
-14.3255243550819
30
0
41
1
10
-48
20
-14.5489565829083
30
0
41
1
10
-48
20
-14.770489234737
30
0
41
1
10
-48
20
-14.9901189866895
30
0
41
1
10
-48
20
-15.281352479629
30
0
41
1
10
-48
20
-15.5659774253293
30
0
41
1
10
-48
20
-15.8494406493609
30
0
41
1
10
-48
20
-16.1303138068004
30
0
41
1
10
-48
20
-16.4745711051771
30
0
41
1
10
-48
20
-16.8122723965627
30
0
41
1
10
-48
20
-17.0799573317746
30
0
41
1
10
-48
20
-17.3449849938592
30
0
41
1
10
-48
20
-17.6694739164695
30
0
41
1
10
-48
20
-17.9872478593116
30
0
41
1
10
-48
20
-18.2387699128343
30
0
41
1
10
-48
20
-18.4875640333771
30
0
41
1
10
-48
20
-18.7917723547731
30
0
41
1
10
-48
20
-19.1494103733366
30
0
41
1
10
-48
20
-19.4397871566124
30
0
41
1
10
-48
20
-19.669100665748
30
0
41
1
10
-48
20
-19.895582003726
30
0
41
1
10
-48
20
-20.1718725940103
30
0
41
1
10
-48
20
-20.4956027399135
30
0
41
1
10
-48
20
-20.8106419777062
30
0
41
1
10
-48
20
-21.1168973616587
30
0
41
1
10
-48
20
-21.4142718340937
30
0
41
1
10
-48
20
-21.6540306704864
30
0
41
1
10
-48
20
-21.8423074648877
30
0
41
1
10
-48
20
-22.0275248431941
30
0
41
1
10
-48
20
-22.2520666060929
30
0
41
1
10
-48
20
-22.5128489142549
30
0
41
1
10
-48
20
-22.7217969951793
30
0
41
1
10
-48
20
-22.8850691676056
30
0
41
1
10
-48
20
-23.0451147420465
30
0
41
1
10
-48
20
-23.2380159650749
30
0
41
1
10
-48
20
-23.4227343577602
30
0
41
1
10
-48
20
-23.56631942935
30
0
41
1
10
-48
20
-23.706527651766
30
0
41
1
10
-48
20
-23.8403627529258
30
0
41
1
10
-48
20
-23.9703009446161
30
0
41
1
10
-48
20
-24.0648335402233
30
0
41
1
10
-48
20
-24.1567363770153
30
0
41
1
10
-48
20
-24.245987247992
30
0
41
1
10
-48
20
-24.332559240169
30
0
41
1
10
-48
20
-24.4164275727652
30
0
41
1
10
-48
20
-24.4975687788098
30
0
41
1
10
-48
20
-24.5759532931461
30
0
41
1
10
-48
20
-24.6515543847243
30
0
41
1
10
-48
20
-24.7489365992492
30
0
41
1
10
-48
20
-24.8396716901456
30
0
41
1
10
-48
20
-24.9255447336429
30
0
41
1
10
-48
20
-24.9867823634066
30
0
41
1
10
-48
20
-25.0450517307762
30
0
41
1
10
-48
20
-25.100316444055
30
0
41
1
10
-48
20
-25.1525401455548
30
0
41
1
10
-48
20
-25.2016867590414
30
0
41
1
10
-48
20
-25.2477155324426
30
0
41
1
10
-48
20
-25.3050936187466
30
0
41
1
10
-48
20
-25.3683434953549
30
0
41
1
10
-48
20
-25.4206808727754
30
0
41
1
10
-48
20
-25.4560606117695
30
0
41
1
10
-48
20
-25.479047573671
30
0
41
1
10
-48
20
-25.4985460495789
30
0
41
1
10
-48
20
-25.5145008161446
30
0
41
1
10
-48
20
-25.5268535709615
30
0
41
1
10
-48
20
-25.5340234494167
30
0
41
1
10
-48
20
-25.536945580444
30
0
41
1
10
-48
20
-25.5377453185789
30
0
0
SPLINE
5
B2
100
AcDbEntity
8
SK1
62
256
6
ByLayer
370
-1
48
1
60
0
100
AcDbSpline
70
4
71
3
72
297
73
293
40
0
40
0
40
0
40
0
40
0.0034181036906438
40
0.0069399593738687
40
0.0104618150570935
40
0.0139836707403185
40
0.0175055264235434
40
0.0210273821067683
40
0.028071093473218
40
0.0351148048396679
40
0.0386366605228928
40
0.0421585162061177
40
0.0456803718893426
40
0.0492022275725674
40
0.0527240832557924
40
0.0562459389390173
40
0.0597677946222421
40
0.0632896503054671
40
0.0703333616719169
40
0.0738552173551418
40
0.0773770730383667
40
0.0808989287215915
40
0.0844207844048164
40
0.0879426400880413
40
0.0914644957712663
40
0.0949863514544912
40
0.098508207137716
40
0.102030062820941
40
0.105551918504166
40
0.109073774187391
40
0.110834702029003
40
0.112595629870616
40
0.11611748555384
40
0.119639341237066
40
0.126683052603515
40
0.133726763969965
40
0.13724861965319
40
0.140770475336415
40
0.147814186702865
40
0.154857898069314
40
0.161901609435764
40
0.165423465118989
40
0.168945320802214
40
0.175989032168664
40
0.183032743535114
40
0.190076454901563
40
0.197120166268013
40
0.204163877634463
40
0.211207589000913
40
0.214729444684138
40
0.218251300367363
40
0.225295011733812
40
0.232338723100262
40
0.239382434466712
40
0.242904290149937
40
0.246426145833162
40
0.253469857199612
40
0.260513568566061
40
0.264035424249286
40
0.267557279932511
40
0.274600991298961
40
0.281644702665411
40
0.285166558348636
40
0.288688414031861
40
0.295732125398311
40
0.299253981081535
40
0.30277583676476
40
0.304536764606373
40
0.306297692447985
40
0.30981954813121
40
0.313341403814435
40
0.31686325949766
40
0.320385115180885
40
0.32390697086411
40
0.327428826547335
40
0.33095068223056
40
0.334472537913784
40
0.337994393597009
40
0.345038104963459
40
0.348559960646684
40
0.352081816329909
40
0.355603672013134
40
0.359125527696359
40
0.362647383379584
40
0.366169239062808
40
0.373212950429258
40
0.380256661795708
40
0.383778517478933
40
0.387300373162158
40
0.390822228845383
40
0.394344084528608
40
0.397865940211833
40
0.401387795895057
40
0.404909651578282
40
0.408431507261507
40
0.411953362944732
40
0.415475218627957
40
0.418997074311182
40
0.422518929994407
40
0.426040785677632
40
0.429562641360857
40
0.433084497044081
40
0.436606352727306
40
0.438367280568919
40
0.440128208410531
40
0.443650064093756
40
0.447171919776981
40
0.448932847618593
40
0.450693775460206
40
0.454215631143431
40
0.455976558985043
40
0.457737486826656
40
0.458617950747462
40
0.459498414668268
40
0.461259342509881
40
0.463020270351493
40
0.464781198193105
40
0.466542126034718
40
0.46830305387633
40
0.470063981717943
40
0.470944445638749
40
0.471824909559555
40
0.472705373480362
40
0.473585837401168
40
0.474466301321974
40
0.47534676524278
40
0.477107693084393
40
0.477988157005199
40
0.478868620926005
40
0.480629548767618
40
0.481510012688424
40
0.48239047660923
40
0.484151404450842
40
0.485031868371649
40
0.485912332292455
40
0.487673260134067
40
0.48943418797568
40
0.491195115817292
40
0.492075579738099
40
0.492956043658905
40
0.493836507579711
40
0.494716971500517
40
0.495597435421324
40
0.49647789934213
40
0.497358363262936
40
0.498238827183742
40
0.499119291104548
40
0.499999755025355
40
0.500880218946161
40
0.501760682866967
40
0.502641146787773
40
0.503521610708579
40
0.504402074629386
40
0.505282538550192
40
0.506163002470998
40
0.507043466391804
40
0.507923930312611
40
0.508804394233417
40
0.510565322075029
40
0.512326249916642
40
0.514087177758254
40
0.51496764167906
40
0.515848105599867
40
0.517609033441479
40
0.518489497362285
40
0.519369961283092
40
0.521130889124704
40
0.52201135304551
40
0.522891816966316
40
0.524652744807929
40
0.525533208728735
40
0.526413672649541
40
0.527294136570348
40
0.528174600491154
40
0.52905506441196
40
0.529935528332766
40
0.531696456174379
40
0.533457384015991
40
0.535218311857604
40
0.536979239699216
40
0.538740167540828
40
0.540501095382441
40
0.541381559303247
40
0.542262023224053
40
0.544022951065666
40
0.545783878907278
40
0.549305734590503
40
0.551066662432116
40
0.552827590273728
40
0.556349445956953
40
0.559871301640178
40
0.56163222948179
40
0.563393157323403
40
0.566915013006628
40
0.570436868689853
40
0.573958724373077
40
0.577480580056302
40
0.581002435739527
40
0.584524291422752
40
0.588046147105977
40
0.591568002789202
40
0.595089858472427
40
0.598611714155652
40
0.602133569838877
40
0.605655425522102
40
0.609177281205326
40
0.612699136888551
40
0.616220992571776
40
0.619742848255001
40
0.623264703938226
40
0.626786559621451
40
0.633830270987901
40
0.637352126671126
40
0.64087398235435
40
0.644395838037575
40
0.6479176937208
40
0.651439549404025
40
0.65496140508725
40
0.6620051164537
40
0.665526972136925
40
0.66904882782015
40
0.672570683503375
40
0.676092539186599
40
0.679614394869824
40
0.683136250553049
40
0.686658106236274
40
0.690179961919499
40
0.693701817602724
40
0.697223673285949
40
0.700745528969174
40
0.704267384652399
40
0.711311096018848
40
0.714832951702073
40
0.718354807385298
40
0.725398518751748
40
0.732442230118198
40
0.735964085801423
40
0.739485941484648
40
0.746529652851097
40
0.753573364217547
40
0.757095219900772
40
0.760617075583997
40
0.767660786950447
40
0.774704498316897
40
0.781748209683346
40
0.785270065366571
40
0.788791921049796
40
0.795835632416246
40
0.802879343782696
40
0.809923055149146
40
0.816966766515595
40
0.824010477882045
40
0.831054189248495
40
0.83457604493172
40
0.838097900614945
40
0.845141611981395
40
0.852185323347844
40
0.859229034714294
40
0.862750890397519
40
0.866272746080744
40
0.873316457447194
40
0.880360168813644
40
0.883882024496869
40
0.887403880180093
40
0.894447591546543
40
0.897969447229768
40
0.901491302912993
40
0.905013158596218
40
0.908535014279443
40
0.912056869962668
40
0.915578725645892
40
0.919100581329117
40
0.922622437012342
40
0.926144292695567
40
0.929666148378792
40
0.936709859745242
40
0.940231715428467
40
0.943753571111692
40
0.947275426794917
40
0.950797282478142
40
0.954319138161366
40
0.957840993844591
40
0.961362849527816
40
0.964884705211041
40
0.971928416577491
40
0.978972127943941
40
0.982493983627166
40
0.98601583931039
40
0.989537694993615
40
0.99305955067684
40
0.996581406360065
40
1
40
1
40
1
40
1
41
1
10
-46.5
20
26.4005309956882
30
0
41
1
10
-46.5
20
26.3982135857204
30
0
41
1
10
-46.5
20
26.3922844442641
30
0
41
1
10
-46.5
20
26.3796666810734
30
0
41
1
10
-46.5
20
26.3632177076783
30
0
41
1
10
-46.5
20
26.3431264444613
30
0
41
1
10
-46.5
20
26.3194531047684
30
0
41
1
10
-46.5
20
26.2831057898448
30
0
41
1
10
-46.5
20
26.2291931100504
30
0
41
1
10
-46.5
20
26.1640888628635
30
0
41
1
10
-46.5
20
26.1052521520729
30
0
41
1
10
-46.5
20
26.0579887905965
30
0
41
1
10
-46.5
20
26.0075411501124
30
0
41
1
10
-46.5
20
25.9539520524798
30
0
41
1
10
-46.5
20
25.8972596743867
30
0
41
1
10
-46.5
20
25.8375026707194
30
0
41
1
10
-46.5
20
25.7747184891248
30
0
41
1
10
-46.5
20
25.6868435181955
30
0
41
1
10
-46.5
20
25.5935790481261
30
0
41
1
10
-46.5
20
25.4939882551942
30
0
41
1
10
-46.5
20
25.4165702144948
30
0
41
1
10
-46.5
20
25.3363180183904
30
0
41
1
10
-46.5
20
25.2532602572421
30
0
41
1
10
-46.5
20
25.1674263270685
30
0
41
1
10
-46.5
20
25.078840846753
30
0
41
1
10
-46.5
20
24.9875303375032
30
0
41
1
10
-46.5
20
24.8935214266578
30
0
41
1
10
-46.5
20
24.7968359305099
30
0
41
1
10
-46.5
20
24.6974986639861
30
0
41
1
10
-46.5
20
24.6126465048792
30
0
41
1
10
-46.5
20
24.5432464906717
30
0
41
1
10
-46.5
20
24.4729784939732
30
0
41
1
10
-46.5
20
24.3838015951593
30
0
41
1
10
-46.5
20
24.2372526165608
30
0
41
1
10
-46.5
20
24.0482725027174
30
0
41
1
10
-46.5
20
23.8509558936155
30
0
41
1
10
-46.5
20
23.6876785906568
30
0
41
1
10
-46.5
20
23.5211247275232
30
0
41
1
10
-46.5
20
23.3074726934439
30
0
41
1
10
-46.5
20
23.0411451496901
30
0
41
1
10
-46.5
20
22.8116032876094
30
0
41
1
10
-46.5
20
22.6227365307309
30
0
41
1
10
-46.5
20
22.430759124426
30
0
41
1
10
-46.5
20
22.1857080904646
30
0
41
1
10
-46.5
20
21.8821131555324
30
0
41
1
10
-46.5
20
21.5694639835235
30
0
41
1
10
-46.5
20
21.2478549102086
30
0
41
1
10
-46.5
20
20.9173756105157
30
0
41
1
10
-46.5
20
20.6350195683323
30
0
41
1
10
-46.5
20
20.4041184350775
30
0
41
1
10
-46.5
20
20.1703249889741
30
0
41
1
10
-46.5
20
19.8735485821408
30
0
41
1
10
-46.5
20
19.5084001184169
30
0
41
1
10
-46.5
20
19.1974433350662
30
0
41
1
10
-46.5
20
18.9437303704574
30
0
41
1
10
-46.5
20
18.687219888641
30
0
41
1
10
-46.5
20
18.362316331505
30
0
41
1
10
-46.5
20
18.0305055709471
30
0
41
1
10
-46.5
20
17.7601375272069
30
0
41
1
10
-46.5
20
17.4870326281006
30
0
41
1
10
-46.5
20
17.1415784247604
30
0
41
1
10
-46.5
20
16.7893526547043
30
0
41
1
10
-46.5
20
16.5026612295204
30
0
41
1
10
-46.5
20
16.2132866640401
30
0
41
1
10
-46.5
20
15.9214100558917
30
0
41
1
10
-46.5
20
15.6240006368157
30
0
41
1
10
-46.5
20
15.4370522522143
30
0
41
1
10
-46.5
20
15.28602382984
30
0
41
1
10
-46.5
20
15.1343352185844
30
0
41
1
10
-46.5
20
14.9440981523704
30
0
41
1
10
-46.5
20
14.7135143004554
30
0
41
1
10
-46.5
20
14.4809640927087
30
0
41
1
10
-46.5
20
14.2464507858614
30
0
41
1
10
-46.5
20
14.0099844885449
30
0
41
1
10
-46.5
20
13.7715679648216
30
0
41
1
10
-46.5
20
13.5312064646771
30
0
41
1
10
-46.5
20
13.288908575541
30
0
41
1
10
-46.5
20
12.9626507143561
30
0
41
1
10
-46.5
20
12.6344409590497
30
0
41
1
10
-46.5
20
12.3004440719815
30
0
41
1
10
-46.5
20
12.0485415470732
30
0
41
1
10
-46.5
20
11.7947359709946
30
0
41
1
10
-46.5
20
11.5390341996307
30
0
41
1
10
-46.5
20
11.2814445510786
30
0
41
1
10
-46.5
20
10.934766834136
30
0
41
1
10
-46.5
20
10.4984187798349
30
0
41
1
10
-46.5
20
10.0558459740262
30
0
41
1
10
-46.5
20
9.69666715624226
30
0
41
1
10
-46.5
20
9.42608146076122
30
0
41
1
10
-46.5
20
9.1536783112208
30
0
41
1
10
-46.5
20
8.87947089935204
30
0
41
1
10
-46.5
20
8.60347202441497
30
0
41
1
10
-46.5
20
8.3256967195303
30
0
41
1
10
-46.5
20
8.04616134412484
30
0
41
1
10
-46.5
20
7.76488385459561
30
0
41
1
10
-46.5
20
7.48188420282091
30
0
41
1
10
-46.5
20
7.19718434586193
30
0
41
1
10
-46.5
20
6.91080932637593
30
0
41
1
10
-46.5
20
6.622787153037
30
0
41
1
10
-46.5
20
6.33314809321138
30
0
41
1
10
-46.5
20
6.04192837587701
30
0
41
1
10
-46.5
20
5.74916634577852
30
0
41
1
10
-46.5
20
5.50455842781798
30
0
41
1
10
-46.5
20
5.30698795114367
30
0
41
1
10
-46.5
20
5.10896425509631
30
0
41
1
10
-46.5
20
4.86210998685607
30
0
41
1
10
-46.5
20
4.6141095005429
30
0
41
1
10
-46.5
20
4.41377363153026
30
0
41
1
10
-46.5
20
4.21306074878717
30
0
41
1
10
-46.5
20
4.01407320205544
30
0
41
1
10
-46.5
20
3.81214228534716
30
0
41
1
10
-46.5
20
3.6866488419891
30
0
41
1
10
-46.5
20
3.58538042770658
30
0
41
1
10
-46.5
20
3.48404260664444
30
0
41
1
10
-46.5
20
3.35820726744203
30
0
41
1
10
-46.5
20
3.20645090100774
30
0
41
1
10
-46.5
20
3.05450136741507
30
0
41
1
10
-46.5
20
2.90237261804765
30
0
41
1
10
-46.5
20
2.75008141374229
30
0
41
1
10
-46.5
20
2.62353063115774
30
0
41
1
10
-46.5
20
2.52133342108166
30
0
41
1
10
-46.5
20
2.44503927940085
30
0
41
1
10
-46.5
20
2.3687213422848
30
0
41
1
10
-46.5
20
2.29238050761498
30
0
41
1
10
-46.5
20
2.21601237541182
30
0
41
1
10
-46.5
20
2.11363855078116
30
0
41
1
10
-46.5
20
2.01284827062042
30
0
41
1
10
-46.5
20
1.91037865662702
30
0
41
1
10
-46.5
20
1.80790531000531
30
0
41
1
10
-46.5
20
1.70711256984478
30
0
41
1
10
-46.5
20
1.6045774318271
30
0
41
1
10
-46.5
20
1.50205128730931
30
0
41
1
10
-46.5
20
1.40129776039692
30
0
41
1
10
-46.5
20
1.29873779453155
30
0
41
1
10
-46.5
20
1.19620014128841
30
0
41
1
10
-46.5
20
1.06942542909599
30
0
41
1
10
-46.5
20
0.916562722132852
30
0
41
1
10
-46.5
20
0.789831382942964
30
0
41
1
10
-46.5
20
0.687306419565971
30
0
41
1
10
-46.5
20
0.610920675348439
30
0
41
1
10
-46.5
20
0.534534760307764
30
0
41
1
10
-46.5
20
0.458151993845604
30
0
41
1
10
-46.5
20
0.381785837912474
30
0
41
1
10
-46.5
20
0.305424650134711
30
0
41
1
10
-46.5
20
0.229059014473165
30
0
41
1
10
-46.5
20
0.152702860966684
30
0
41
1
10
-46.5
20
0.076356355661062
30
0
41
1
10
-46.5
20
2.8073174E-08
30
0
41
1
10
-46.5
20
-0.0763563105774381
30
0
41
1
10
-46.5
20
-0.152702843052964
30
0
41
1
10
-46.5
20
-0.229059030613598
30
0
41
1
10
-46.5
20
-0.305424686924255
30
0
41
1
10
-46.5
20
-0.38178586307771
30
0
41
1
10
-46.5
20
-0.458151977723844
30
0
41
1
10
-46.5
20
-0.534534693051597
30
0
41
1
10
-46.5
20
-0.610920589347273
30
0
41
1
10
-46.5
20
-0.68730636387329
30
0
41
1
10
-46.5
20
-0.789831419581247
30
0
41
1
10
-46.5
20
-0.916562784856836
30
0
41
1
10
-46.5
20
-1.06942535695816
30
0
41
1
10
-46.5
20
-1.19620002438899
30
0
41
1
10
-46.5
20
-1.29873778818728
30
0
41
1
10
-46.5
20
-1.40129786220385
30
0
41
1
10
-46.5
20
-1.50205137220064
30
0
41
1
10
-46.5
20
-1.60457738401559
30
0
41
1
10
-46.5
20
-1.70711241828641
30
0
41
1
10
-46.5
20
-1.80790519746154
30
0
41
1
10
-46.5
20
-1.91037868910027
30
0
41
1
10
-46.5
20
-2.01284840665636
30
0
41
1
10
-46.5
20
-2.11363864625324
30
0
41
1
10
-46.5
20
-2.21601232318562
30
0
41
1
10
-46.5
20
-2.29238035464519
30
0
41
1
10
-46.5
20
-2.36872116745508
30
0
41
1
10
-46.5
20
-2.44503916247595
30
0
41
1
10
-46.5
20
-2.52133341402544
30
0
41
1
10
-46.5
20
-2.62353075560304
30
0
41
1
10
-46.5
20
-2.75008154091458
30
0
41
1
10
-46.5
20
-2.90237254212099
30
0
41
1
10
-46.5
20
-3.05450118032692
30
0
41
1
10
-46.5
20
-3.20645087454699
30
0
41
1
10
-46.5
20
-3.35820741865729
30
0
41
1
10
-46.5
20
-3.48404272537243
30
0
41
1
10
-46.5
20
-3.58538042142962
30
0
41
1
10
-46.5
20
-3.68664870804329
30
0
41
1
10
-46.5
20
-3.81214209897183
30
0
41
1
10
-46.5
20
-4.01407322556273
30
0
41
1
10
-46.5
20
-4.21306090369293
30
0
41
1
10
-46.5
20
-4.41377359776476
30
0
41
1
10
-46.5
20
-4.61410932418949
30
0
41
1
10
-46.5
20
-4.86210999380617
30
0
41
1
10
-46.5
20
-5.10896440271245
30
0
41
1
10
-46.5
20
-5.30698791061079
30
0
41
1
10
-46.5
20
-5.50455825405032
30
0
41
1
10
-46.5
20
-5.74916632270845
30
0
41
1
10
-46.5
20
-6.04192849679629
30
0
41
1
10
-46.5
20
-6.33314802823858
30
0
41
1
10
-46.5
20
-6.62278719976101
30
0
41
1
10
-46.5
20
-6.91080958282794
30
0
41
1
10
-46.5
20
-7.19718401656115
30
0
41
1
10
-46.5
20
-7.48188354614015
30
0
41
1
10
-46.5
20
-7.7648841800679
30
0
41
1
10
-46.5
20
-8.0461621387675
30
0
41
1
10
-46.5
20
-8.32569604592521
30
0
41
1
10
-46.5
20
-8.60347117534141
30
0
41
1
10
-46.5
20
-8.87947149804478
30
0
41
1
10
-46.5
20
-9.15367874030954
30
0
41
1
10
-46.5
20
-9.42608142898106
30
0
41
1
10
-46.5
20
-9.69666702608521
30
0
41
1
10
-46.5
20
-9.96542491303109
30
0
41
1
10
-46.5
20
-10.232343426472
30
0
41
1
10
-46.5
20
-10.586566157494
30
0
41
1
10
-46.5
20
-10.9347667406994
30
0
41
1
10
-46.5
20
-11.2814444878531
30
0
41
1
10
-46.5
20
-11.5390343183575
30
0
41
1
10
-46.5
20
-11.7947361066789
30
0
41
1
10
-46.5
20
-12.0485415833541
30
0
41
1
10
-46.5
20
-12.3004440311799
30
0
41
1
10
-46.5
20
-12.6344409449825
30
0
41
1
10
-46.5
20
-12.9626507598827
30
0
41
1
10
-46.5
20
-13.2889085465965
30
0
41
1
10
-46.5
20
-13.5312065194643
30
0
41
1
10
-46.5
20
-13.7715679573404
30
0
41
1
10
-46.5
20
-14.0099844817144
30
0
41
1
10
-46.5
20
-14.246450720846
30
0
41
1
10
-46.5
20
-14.4809638211463
30
0
41
1
10
-46.5
20
-14.7135145143937
30
0
41
1
10
-46.5
20
-14.9440989510648
30
0
41
1
10
-46.5
20
-15.1727131739385
30
0
41
1
10
-46.5
20
-15.3993479391742
30
0
41
1
10
-46.5
20
-15.6239999053159
30
0
41
1
10
-46.5
20
-15.9214104773833
30
0
41
1
10
-46.5
20
-16.2132867359671
30
0
41
1
10
-46.5
20
-16.5026611888573
30
0
41
1
10
-46.5
20
-16.7893526613563
30
0
41
1
10
-46.5
20
-17.1415784199831
30
0
41
1
10
-46.5
20
-17.4870326238008
30
0
41
1
10
-46.5
20
-17.7601375367851
30
0
41
1
10
-46.5
20
-18.030505573842
30
0
41
1
10
-46.5
20
-18.3623163297431
30
0
41
1
10
-46.5
20
-18.6872198879946
30
0
41
1
10
-46.5
20
-18.9437303760813
30
0
41
1
10
-46.5
20
-19.197443340025
30
0
41
1
10
-46.5
20
-19.5084001148029
30
0
41
1
10
-46.5
20
-19.8735485854937
30
0
41
1
10
-46.5
20
-20.1703249928589
30
0
41
1
10
-46.5
20
-20.4041184359554
30
0
41
1
10
-46.5
20
-20.6350195698474
30
0
41
1
10
-46.5
20
-20.9173756153364
30
0
41
1
10
-46.5
20
-21.2478549114363
30
0
41
1
10
-46.5
20
-21.5694639882747
30
0
41
1
10
-46.5
20
-21.8821131574231
30
0
41
1
10
-46.5
20
-22.1857080938538
30
0
41
1
10
-46.5
20
-22.430759131675
30
0
41
1
10
-46.5
20
-22.6227365313406
30
0
41
1
10
-46.5
20
-22.811603290218
30
0
41
1
10
-46.5
20
-23.0411451576491
30
0
41
1
10
-46.5
20
-23.3074726991927
30
0
41
1
10
-46.5
20
-23.5211247254417
30
0
41
1
10
-46.5
20
-23.6876786019557
30
0
41
1
10
-46.5
20
-23.850955898421
30
0
41
1
10
-46.5
20
-24.0482725228686
30
0
41
1
10
-46.5
20
-24.2372525971634
30
0
41
1
10
-46.5
20
-24.3838015939208
30
0
41
1
10
-46.5
20
-24.5269227085665
30
0
41
1
10
-46.5
20
-24.6641535645997
30
0
41
1
10
-46.5
20
-24.7968362527739
30
0
41
1
10
-46.5
20
-24.8935210874343
30
0
41
1
10
-46.5
20
-24.9875302738737
30
0
41
1
10
-46.5
20
-25.0788408868142
30
0
41
1
10
-46.5
20
-25.1674263269857
30
0
41
1
10
-46.5
20
-25.253260222017
30
0
41
1
10
-46.5
20
-25.3363180229216
30
0
41
1
10
-46.5
20
-25.4165702112604
30
0
41
1
10
-46.5
20
-25.4939882216235
30
0
41
1
10
-46.5
20
-25.5935790625544
30
0
41
1
10
-46.5
20
-25.6868434692657
30
0
41
1
10
-46.5
20
-25.7747185038326
30
0
41
1
10
-46.5
20
-25.8375026350058
30
0
41
1
10
-46.5
20
-25.8972596671494
30
0
41
1
10
-46.5
20
-25.9539520563292
30
0
41
1
10
-46.5
20
-26.0075410833254
30
0
41
1
10
-46.5
20
-26.0579887211792
30
0
41
1
10
-46.5
20
-26.1052520927383
30
0
41
1
10
-46.5
20
-26.1640888761727
30
0
41
1
10
-46.5
20
-26.2291930886236
30
0
41
1
10
-46.5
20
-26.2831057174253
30
0
41
1
10
-46.5
20
-26.3194531526336
30
0
41
1
10
-46.5
20
-26.3431264926158
30
0
41
1
10
-46.5
20
-26.3632177086405
30
0
41
1
10
-46.5
20
-26.3796666797908
30
0
41
1
10
-46.5
20
-26.3922850776056
30
0
41
1
10
-46.5
20
-26.3982144510451
30
0
41
1
10
-46.5
20
-26.4005320044815
30
0
0
SPLINE
5
B3
100
AcDbEntity
8
SK1
62
256
6
ByLayer
370
-1
48
1
60
0
100
AcDbSpline
70
4
71
3
72
301
73
297
40
0
40
0
40
0
40
0
40
0.0031419569650853
40
0.0066164009085814
40
0.0100908448520775
40
0.0135652887955736
40
0.0170397327390696
40
0.0205141766825657
40
0.0239886206260618
40
0.0274630645695579
40
0.03441195245655
40
0.0413608403435422
40
0.0448352842870383
40
0.0483097282305343
40
0.0517841721740304
40
0.0552586161175265
40
0.0587330600610226
40
0.0622075040045186
40
0.0656819479480147
40
0.0691563918915108
40
0.0761052797785029
40
0.079579723721999
40
0.0830541676654951
40
0.0865286116089912
40
0.0900030555524872
40
0.0934774994959833
40
0.0969519434394794
40
0.100426387382976
40
0.103900831326472
40
0.107375275269968
40
0.110849719213464
40
0.11432416315696
40
0.116061385128708
40
0.117798607100456
40
0.121273051043952
40
0.124747494987448
40
0.13169638287444
40
0.138645270761432
40
0.142119714704928
40
0.145594158648425
40
0.152543046535417
40
0.159491934422409
40
0.166440822309401
40
0.169915266252897
40
0.173389710196393
40
0.180338598083385
40
0.187287485970377
40
0.19423637385737
40
0.201185261744362
40
0.208134149631354
40
0.215083037518346
40
0.218557481461842
40
0.222031925405338
40
0.22898081329233
40
0.235929701179322
40
0.242878589066315
40
0.246353033009811
40
0.249827476953307
40
0.256776364840299
40
0.263725252727291
40
0.267199696670787
40
0.270674140614283
40
0.277623028501275
40
0.284571916388268
40
0.288046360331764
40
0.29152080427526
40
0.298469692162252
40
0.301944136105748
40
0.305418580049244
40
0.307155802020992
40
0.30889302399274
40
0.312367467936236
40
0.315841911879732
40
0.319316355823228
40
0.322790799766724
40
0.32626524371022
40
0.329739687653716
40
0.333214131597213
40
0.336688575540709
40
0.340163019484205
40
0.347111907371197
40
0.350586351314693
40
0.354060795258189
40
0.357535239201685
40
0.361009683145181
40
0.364484127088677
40
0.367958571032173
40
0.374907458919165
40
0.381856346806158
40
0.385330790749654
40
0.38880523469315
40
0.392279678636646
40
0.395754122580142
40
0.399228566523638
40
0.402703010467134
40
0.40617745441063
40
0.409651898354126
40
0.413126342297622
40
0.416600786241119
40
0.420075230184615
40
0.423549674128111
40
0.427024118071607
40
0.430498562015103
40
0.433973005958599
40
0.437447449902095
40
0.439184671873843
40
0.440921893845591
40
0.444396337789087
40
0.447870781732583
40
0.449608003704331
40
0.451345225676079
40
0.454819669619575
40
0.456556891591323
40
0.458294113563071
40
0.459162724548945
40
0.460031335534819
40
0.461768557506567
40
0.463505779478315
40
0.465243001450063
40
0.466980223421812
40
0.46871744539356
40
0.470454667365308
40
0.471323278351182
40
0.472191889337056
40
0.47306050032293
40
0.473929111308804
40
0.474797722294678
40
0.475666333280552
40
0.4774035552523
40
0.478272166238174
40
0.479140777224048
40
0.480877999195796
40
0.48174661018167
40
0.482615221167544
40
0.484352443139292
40
0.485221054125166
40
0.48608966511104
40
0.487826887082788
40
0.489564109054536
40
0.491301331026284
40
0.492169942012158
40
0.493038552998032
40
0.493907163983906
40
0.49477577496978
40
0.495644385955654
40
0.496512996941528
40
0.497381607927402
40
0.498250218913276
40
0.49911882989915
40
0.499987440885024
40
0.500856051870898
40
0.501724662856772
40
0.502593273842646
40
0.50346188482852
40
0.504330495814394
40
0.505199106800268
40
0.506067717786142
40
0.506936328772016
40
0.50780493975789
40
0.508673550743764
40
0.510410772715513
40
0.512147994687261
40
0.513885216659009
40
0.514753827644883
40
0.515622438630757
40
0.517359660602505
40
0.518228271588379
40
0.519096882574253
40
0.520834104546001
40
0.521702715531875
40
0.522571326517749
40
0.524308548489497
40
0.525177159475371
40
0.526045770461245
40
0.526914381447119
40
0.527782992432993
40
0.528651603418867
40
0.529520214404741
40
0.531257436376489
40
0.532994658348237
40
0.534731880319985
40
0.536469102291733
40
0.538206324263481
40
0.539943546235229
40
0.540812157221103
40
0.541680768206977
40
0.543417990178725
40
0.545155212150473
40
0.548629656093969
40
0.550366878065717
40
0.552104100037465
40
0.555578543980962
40
0.559052987924458
40
0.560790209896206
40
0.562527431867954
40
0.56600187581145
40
0.569476319754946
40
0.572950763698442
40
0.576425207641938
40
0.579899651585434
40
0.58337409552893
40
0.586848539472426
40
0.590322983415922
40
0.593797427359418
40
0.597271871302914
40
0.600746315246411
40
0.604220759189907
40
0.607695203133403
40
0.611169647076899
40
0.614644091020395
40
0.618118534963891
40
0.621592978907387
40
0.625067422850883
40
0.632016310737875
40
0.635490754681371
40
0.638965198624867
40
0.642439642568364
40
0.645914086511859
40
0.649388530455356
40
0.652862974398852
40
0.659811862285844
40
0.66328630622934
40
0.666760750172836
40
0.670235194116332
40
0.673709638059828
40
0.677184082003324
40
0.68065852594682
40
0.684132969890316
40
0.687607413833812
40
0.691081857777308
40
0.694556301720805
40
0.698030745664301
40
0.701505189607797
40
0.708454077494789
40
0.711928521438285
40
0.715402965381781
40
0.722351853268773
40
0.729300741155765
40
0.732775185099261
40
0.736249629042757
40
0.74319851692975
40
0.750147404816742
40
0.753621848760238
40
0.757096292703734
40
0.764045180590726
40
0.770994068477718
40
0.77794295636471
40
0.781417400308206
40
0.784891844251703
40
0.791840732138695
40
0.798789620025687
40
0.805738507912679
40
0.812687395799671
40
0.819636283686663
40
0.826585171573656
40
0.830059615517152
40
0.833534059460648
40
0.84048294734764
40
0.847431835234632
40
0.854380723121624
40
0.85785516706512
40
0.861329611008616
40
0.868278498895608
40
0.875227386782601
40
0.878701830726097
40
0.882176274669593
40
0.889125162556585
40
0.892599606500081
40
0.896074050443577
40
0.899548494387073
40
0.903022938330569
40
0.906497382274065
40
0.909971826217561
40
0.913446270161058
40
0.916920714104553
40
0.92039515804805
40
0.923869601991546
40
0.930818489878538
40
0.934292933822034
40
0.93776737776553
40
0.941241821709026
40
0.944716265652522
40
0.948190709596018
40
0.951665153539514
40
0.95513959748301
40
0.958614041426506
40
0.965562929313499
40
0.972511817200491
40
0.975986261143987
40
0.979460705087483
40
0.982935149030979
40
0.986409592974475
40
0.989884036917971
40
0.993358480861467
40
0.996832924804963
40
1
40
1
40
1
40
1
41
1
10
-1.99503997793928
20
27.3251652203845
30
0
41
1
10
-1.99503997793928
20
27.3252902215036
30
0
41
1
10
-1.99503997793928
20
27.324369848899
30
0
41
1
10
-1.99503997793928
20
27.319236545434
30
0
41
1
10
-1.99503997793928
20
27.309968420024
30
0
41
1
10
-1.99503997793928
20
27.2968118977755
30
0
41
1
10
-1.99503997793928
20
27.2798390211927
30
0
41
1
10
-1.99503997793928
20
27.2591194067692
30
0
41
1
10
-1.99503997793928
20
27.2347184649703
30
0
41
1
10
-1.99503997793928
20
27.197345310989
30
0
41
1
10
-1.99503997793928
20
27.1417627231677
30
0
41
1
10
-1.99503997793928
20
27.074692746873
30
0
41
1
10
-1.99503997793928
20
27.0143097024856
30
0
41
1
10
-1.99503997793928
20
26.9657375531884
30
0
41
1
10
-1.99503997793928
20
26.9139107109326
30
0
41
1
10
-1.99503997793928
20
26.8588742679961
30
0
41
1
10
-1.99503997793928
20
26.8006684557748
30
0
41
1
10
-1.99503997793928
20
26.7393343904955
30
0
41
1
10
-1.99503997793928
20
26.674910802648
30
0
41
1
10
-1.99503997793928
20
26.5849135587966
30
0
41
1
10
-1.99503997793928
20
26.4889678074055
30
0
41
1
10
-1.99503997793928
20
26.387035697685
30
0
41
1
10
-1.99503997793928
20
26.3076915686752
30
0
41
1
10
-1.99503997793928
20
26.2254595087626
30
0
41
1
10
-1.99503997793928
20
26.1403699848692
30
0
41
1
10
-1.99503997793928
20
26.0524523997801
30
0
41
1
10
-1.99503997793928
20
25.9617325512637
30
0
41
1
10
-1.99503997793928
20
25.8682385377286
30
0
41
1
10
-1.99503997793928
20
25.7719964787433
30
0
41
1
10
-1.99503997793928
20
25.6730295553062
30
0
41
1
10
-1.99503997793928
20
25.5713637005868
30
0
41
1
10
-1.99503997793928
20
25.4844312429181
30
0
41
1
10
-1.99503997793928
20
25.4135236324805
30
0
41
1
10
-1.99503997793928
20
25.3417349423789
30
0
41
1
10
-1.99503997793928
20
25.2503983881991
30
0
41
1
10
-1.99503997793928
20
25.1007072283818
30
0
41
1
10
-1.99503997793928
20
24.9072094601534
30
0
41
1
10
-1.99503997793928
20
24.7052121586235
30
0
41
1
10
-1.99503997793928
20
24.5385089750245
30
0
41
1
10
-1.99503997793928
20
24.3684762393368
30
0
41
1
10
-1.99503997793928
20
24.1498376426061
30
0
41
1
10
-1.99503997793928
20
23.8776317120835
30
0
41
1
10
-1.99503997793928
20
23.6427893362144
30
0
41
1
10
-1.99503997793928
20
23.4500539403358
30
0
41
1
10
-1.99503997793928
20
23.2541535983722
30
0
41
1
10
-1.99503997793928
20
23.003492407652
30
0
41
1
10
-1.99503997793928
20
22.6933032792697
30
0
41
1
10
-1.99503997793928
20
22.3738761836524
30
0
41
1
10
-1.99503997793928
20
22.0453025532577
30
0
41
1
10
-1.99503997793928
20
21.707668613525
30
0
41
1
10
-1.99503997793928
20
21.4188827024373
30
0
41
1
10
-1.99503997793928
20
21.183296228919
30
0
41
1
10
-1.99503997793928
20
20.9447536956121
30
0
41
1
10
-1.99503997793928
20
20.6411931750868
30
0
41
1
10
-1.99503997793928
20
20.2680830253803
30
0
41
1
10
-1.99503997793928
20
19.9499723423375
30
0
41
1
10
-1.99503997793928
20
19.6910450135594
30
0
41
1
10
-1.99503997793928
20
19.4292463867236
30
0
41
1
10
-1.99503997793928
20
19.096784863067
30
0
41
1
10
-1.99503997793928
20
18.7572123739995
30
0
41
1
10
-1.99503997793928
20
18.4811831112867
30
0
41
1
10
-1.99503997793928
20
18.202332595015
30
0
41
1
10
-1.99503997793928
20
17.8486596758477
30
0
41
1
10
-1.99503997793928
20
17.4879867071929
30
0
41
1
10
-1.99503997793928
20
17.195127364891
30
0
41
1
10
-1.99503997793928
20
16.8994864797488
30
0
41
1
10
-1.99503997793928
20
16.5999232615433
30
0
41
1
10
-1.99503997793928
20
16.2959649333064
30
0
41
1
10
-1.99503997793928
20
16.1043598435705
30
0
41
1
10
-1.99503997793928
20
15.9499656619051
30
0
41
1
10
-1.99503997793928
20
15.7948829493702
30
0
41
1
10
-1.99503997793928
20
15.5998373978987
30
0
41
1
10
-1.99503997793928
20
15.3636702284228
30
0
41
1
10
-1.99503997793928
20
15.1254444180464
30
0
41
1
10
-1.99503997793928
20
14.8851632986275
30
0
41
1
10
-1.99503997793928
20
14.6428305081908
30
0
41
1
10
-1.99503997793928
20
14.3984468555777
30
0
41
1
10
-1.99503997793928
20
14.1520156158997
30
0
41
1
10
-1.99503997793928
20
13.9035389822172
30
0
41
1
10
-1.99503997793928
20
13.5694123671834
30
0
41
1
10
-1.99503997793928
20
13.2315065950277
30
0
41
1
10
-1.99503997793928
20
12.8892093803249
30
0
41
1
10
-1.99503997793928
20
12.6305299496176
30
0
41
1
10
-1.99503997793928
20
12.3698135917844
30
0
41
1
10
-1.99503997793928
20
12.1070624362612
30
0
41
1
10
-1.99503997793928
20
11.8422771919954
30
0
41
1
10
-1.99503997793928
20
11.4864047694406
30
0
41
1
10
-1.99503997793928
20
11.0367533786719
30
0
41
1
10
-1.99503997793928
20
10.5803285804451
30
0
41
1
10
-1.99503997793928
20
10.2109002581502
30
0
41
1
10
-1.99503997793928
20
9.93190145357084
30
0
41
1
10
-1.99503997793928
20
9.6508756669198
30
0
41
1
10
-1.99503997793928
20
9.36782441803413
30
0
41
1
10
-1.99503997793928
20
9.08274869992735
30
0
41
1
10
-1.99503997793928
20
8.79565052315382
30
0
41
1
10
-1.99503997793928
20
8.5065316633322
30
0
41
1
10
-1.99503997793928
20
8.21539474907743
30
0
41
1
10
-1.99503997793928
20
7.92224261249635
30
0
41
1
10
-1.99503997793928
20
7.62707900817011
30
0
41
1
10
-1.99503997793928
20
7.32990842680402
30
0
41
1
10
-1.99503997793928
20
7.03073644813685
30
0
41
1
10
-1.99503997793928
20
6.72956956969853
30
0
41
1
10
-1.99503997793928
20
6.4264164329453
30
0
41
1
10
-1.99503997793928
20
6.12128657453567
30
0
41
1
10
-1.99503997793928
20
5.86547227949208
30
0
41
1
10
-1.99503997793928
20
5.65966031743471
30
0
41
1
10
-1.99503997793928
20
5.45320484016275
30
0
41
1
10
-1.99503997793928
20
5.194175192833
30
0
41
1
10
-1.99503997793928
20
4.93354787471691
30
0
41
1
10
-1.99503997793928
20
4.72389491984228
30
0
41
1
10
-1.99503997793928
20
4.51362416489164
30
0
41
1
10
-1.99503997793928
20
4.30279738744869
30
0
41
1
10
-1.99503997793928
20
4.0906802174616
30
0
41
1
10
-1.99503997793928
20
3.95788266698418
30
0
41
1
10
-1.99503997793928
20
3.85130376069884
30
0
41
1
10
-1.99503997793928
20
3.74458052899692
30
0
41
1
10
-1.99503997793928
20
3.61106187073102
30
0
41
1
10
-1.99503997793928
20
3.45032621656429
30
0
41
1
10
-1.99503997793928
20
3.28917313145487
30
0
41
1
10
-1.99503997793928
20
3.12761068170508
30
0
41
1
10
-1.99503997793928
20
2.96564923158397
30
0
41
1
10
-1.99503997793928
20
2.83043414688217
30
0
41
1
10
-1.99503997793928
20
2.72193089625395
30
0
41
1
10
-1.99503997793928
20
2.64052221841842
30
0
41
1
10
-1.99503997793928
20
2.55902310675029
30
0
41
1
10
-1.99503997793928
20
2.47743504267538
30
0
41
1
10
-1.99503997793928
20
2.39575871579828
30
0
41
1
10
-1.99503997793928
20
2.28665934688649
30
0
41
1
10
-1.99503997793928
20
2.17765162048644
30
0
41
1
10
-1.99503997793928
20
2.06822032488085
30
0
41
1
10
-1.99503997793928
20
1.95868778076368
30
0
41
1
10
-1.99503997793928
20
1.84927662995438
30
0
41
1
10
-1.99503997793928
20
1.73944751085296
30
0
41
1
10
-1.99503997793928
20
1.6295301381889
30
0
41
1
10
-1.99503997793928
20
1.51976603752374
30
0
41
1
10
-1.99503997793928
20
1.40959257647998
30
0
41
1
10
-1.99503997793928
20
1.29934603509318
30
0
41
1
10
-1.99503997793928
20
1.16162401558285
30
0
41
1
10
-1.99503997793928
20
0.996043867302802
30
0
41
1
10
-1.99503997793928
20
0.858021466226489
30
0
41
1
10
-1.99503997793928
20
0.74734826211116
30
0
41
1
10
-1.99503997793928
20
0.664391463462891
30
0
41
1
10
-1.99503997793928
20
0.581404948836564
30
0
41
1
10
-1.99503997793928
20
0.498392847694362
30
0
41
1
10
-1.99503997793928
20
0.415360879438595
30
0
41
1
10
-1.99503997793928
20
0.332310821896414
30
0
41
1
10
-1.99503997793928
20
0.249244909992626
30
0
41
1
10
-1.99503997793928
20
0.166169126760138
30
0
41
1
10
-1.99503997793928
20
0.083087258687442
30
0
41
1
10
-1.99503997793928
20
7.3694082E-09
30
0
41
1
10
-1.99503997793928
20
-0.0830872457044336
30
0
41
1
10
-1.99503997793928
20
-0.166169118100839
30
0
41
1
10
-1.99503997793928
20
-0.249244906780348
30
0
41
1
10
-1.99503997793928
20
-0.332310822055121
30
0
41
1
10
-1.99503997793928
20
-0.415360877837117
30
0
41
1
10
-1.99503997793928
20
-0.498392839537729
30
0
41
1
10
-1.99503997793928
20
-0.581404932400318
30
0
41
1
10
-1.99503997793928
20
-0.664391443726458
30
0
41
1
10
-1.99503997793928
20
-0.747348246925924
30
0
41
1
10
-1.99503997793928
20
-0.858021465650296
30
0
41
1
10
-1.99503997793928
20
-0.99604387184678
30
0
41
1
10
-1.99503997793928
20
-1.16162399896865
30
0
41
1
10
-1.99503997793928
20
-1.29934600948991
30
0
41
1
10
-1.99503997793928
20
-1.40959256793391
30
0
41
1
10
-1.99503997793928
20
-1.51976604695517
30
0
41
1
10
-1.99503997793928
20
-1.62953014673869
30
0
41
1
10
-1.99503997793928
20
-1.73944749852939
30
0
41
1
10
-1.99503997793928
20
-1.84927659960155
30
0
41
1
10
-1.99503997793928
20
-1.95868775414536
30
0
41
1
10
-1.99503997793928
20
-2.06822032104492
30
0
41
1
10
-1.99503997793928
20
-2.17765163493269
30
0
41
1
10
-1.99503997793928
20
-2.28665935771656
30
0
41
1
10
-1.99503997793928
20
-2.39575870345573
30
0
41
1
10
-1.99503997793928
20
-2.47743501265123
30
0
41
1
10
-1.99503997793928
20
-2.55902307088405
30
0
41
1
10
-1.99503997793928
20
-2.64052218961078
30
0
41
1
10
-1.99503997793928
20
-2.72193088426971
30
0
41
1
10
-1.99503997793928
20
-2.83043415716216
30
0
41
1
10
-1.99503997793928
20
-2.96564924759372
30
0
41
1
10
-1.99503997793928
20
-3.12761066714143
30
0
41
1
10
-1.99503997793928
20
-3.28917309238062
30
0
41
1
10
-1.99503997793928
20
-3.45032619783549
30
0
41
1
10
-1.99503997793928
20
-3.61106188513384
30
0
41
1
10
-1.99503997793928
20
-3.74458054435991
30
0
41
1
10
-1.99503997793928
20
-3.85130375742838
30
0
41
1
10
-1.99503997793928
20
-3.95788264175957
30
0
41
1
10
-1.99503997793928
20
-4.09068017699946
30
0
41
1
10
-1.99503997793928
20
-4.30279737234505
30
0
41
1
10
-1.99503997793928
20
-4.51362418453465
30
0
41
1
10
-1.99503997793928
20
-4.72389491460817
30
0
41
1
10
-1.99503997793928
20
-4.93354783719795
30
0
41
1
10
-1.99503997793928
20
-5.19417516976088
30
0
41
1
10
-1.99503997793928
20
-5.45320486068488
30
0
41
1
10
-1.99503997793928
20
-5.65966031194293
30
0
41
1
10
-1.99503997793928
20
-5.86547224264382
30
0
41
1
10
-1.99503997793928
20
-6.12128654405475
30
0
41
1
10
-1.99503997793928
20
-6.42641644899931
30
0
41
1
10
-1.99503997793928
20
-6.7295695622245
30
0
41
1
10
-1.99503997793928
20
-7.03073643509245
30
0
41
1
10
-1.99503997793928
20
-7.32990848936902
30
0
41
1
10
-1.99503997793928
20
-7.62707899667748
30
0
41
1
10
-1.99503997793928
20
-7.92224242464158
30
0
41
1
10
-1.99503997793928
20
-8.21539468387994
30
0
41
1
10
-1.99503997793928
20
-8.50653184364373
30
0
41
1
10
-1.99503997793928
20
-8.79565051892371
30
0
41
1
10
-1.99503997793928
20
-9.08274836934049
30
0
41
1
10
-1.99503997793928
20
-9.36782442184719
30
0
41
1
10
-1.99503997793928
20
-9.65087577167401
30
0
41
1
10
-1.99503997793928
20
-9.93190148567103
30
0
41
1
10
-1.99503997793928
20
-10.2109002476074
30
0
41
1
10
-1.99503997793928
20
-10.4878712580384
30
0
41
1
10
-1.99503997793928
20
-10.762813512214
30
0
41
1
10
-1.99503997793928
20
-11.1268240668469
30
0
41
1
10
-1.99503997793928
20
-11.4864047926356
30
0
41
1
10
-1.99503997793928
20
-11.8422771763273
30
0
41
1
10
-1.99503997793928
20
-12.1070624597528
30
0
41
1
10
-1.99503997793928
20
-12.3698136542137
30
0
41
1
10
-1.99503997793928
20
-12.630529996325
30
0
41
1
10
-1.99503997793928
20
-12.8892094092454
30
0
41
1
10
-1.99503997793928
20
-13.2315065874855
30
0
41
1
10
-1.99503997793928
20
-13.5694124056225
30
0
41
1
10
-1.99503997793928
20
-13.903538977374
30
0
41
1
10
-1.99503997793928
20
-14.1520156345788
30
0
41
1
10
-1.99503997793928
20
-14.3984468746313
30
0
41
1
10
-1.99503997793928
20
-14.6428305016925
30
0
41
1
10
-1.99503997793928
20
-14.8851633083157
30
0
41
1
10
-1.99503997793928
20
-15.1254443246959
30
0
41
1
10
-1.99503997793928
20
-15.3636701740732
30
0
41
1
10
-1.99503997793928
20
-15.5998376412757
30
0
41
1
10
-1.99503997793928
20
-15.8339451945693
30
0
41
1
10
-1.99503997793928
20
-16.0659886092783
30
0
41
1
10
-1.99503997793928
20
-16.2959645253135
30
0
41
1
10
-1.99503997793928
20
-16.5999232967459
30
0
41
1
10
-1.99503997793928
20
-16.8994865286445
30
0
41
1
10
-1.99503997793928
20
-17.1951273582893
30
0
41
1
10
-1.99503997793928
20
-17.487986711463
30
0
41
1
10
-1.99503997793928
20
-17.8486596771386
30
0
41
1
10
-1.99503997793928
20
-18.2023325900281
30
0
41
1
10
-1.99503997793928
20
-18.4811831142103
30
0
41
1
10
-1.99503997793928
20
-18.7572123771119
30
0
41
1
10
-1.99503997793928
20
-19.0967848636163
30
0
41
1
10
-1.99503997793928
20
-19.4292463860981
30
0
41
1
10
-1.99503997793928
20
-19.6910450149659
30
0
41
1
10
-1.99503997793928
20
-19.9499723474756
30
0
41
1
10
-1.99503997793928
20
-20.2680830241603
30
0
41
1
10
-1.99503997793928
20
-20.6411931765509
30
0
41
1
10
-1.99503997793928
20
-20.9447536987916
30
0
41
1
10
-1.99503997793928
20
-21.183296231241
30
0
41
1
10
-1.99503997793928
20
-21.4188827033322
30
0
41
1
10
-1.99503997793928
20
-21.7076686178739
30
0
41
1
10
-1.99503997793928
20
-22.0453025545601
30
0
41
1
10
-1.99503997793928
20
-22.3738761877812
30
0
41
1
10
-1.99503997793928
20
-22.6933032821098
30
0
41
1
10
-1.99503997793928
20
-23.0034924093454
30
0
41
1
10
-1.99503997793928
20
-23.2541536051906
30
0
41
1
10
-1.99503997793928
20
-23.4500539432773
30
0
41
1
10
-1.99503997793928
20
-23.6427893382923
30
0
41
1
10
-1.99503997793928
20
-23.8776317176071
30
0
41
1
10
-1.99503997793928
20
-24.1498376513416
30
0
41
1
10
-1.99503997793928
20
-24.3684762369578
30
0
41
1
10
-1.99503997793928
20
-24.5385089830443
30
0
41
1
10
-1.99503997793928
20
-24.7052121640853
30
0
41
1
10
-1.99503997793928
20
-24.9072094682151
30
0
41
1
10
-1.99503997793928
20
-25.1007072668634
30
0
41
1
10
-1.99503997793928
20
-25.2503982620474
30
0
41
1
10
-1.99503997793928
20
-25.396607276112
30
0
41
1
10
-1.99503997793928
20
-25.5374379046987
30
0
41
1
10
-1.99503997793928
20
-25.6730299792935
30
0
41
1
10
-1.99503997793928
20
-25.7719963599905
30
0
41
1
10
-1.99503997793928
20
-25.8682384460151
30
0
41
1
10
-1.99503997793928
20
-25.961732550658
30
0
41
1
10
-1.99503997793928
20
-26.0524524072106
30
0
41
1
10
-1.99503997793928
20
-26.1403699560892
30
0
41
1
10
-1.99503997793928
20
-26.2254595012835
30
0
41
1
10
-1.99503997793928
20
-26.307691573879
30
0
41
1
10
-1.99503997793928
20
-26.3870356638969
30
0
41
1
10
-1.99503997793928
20
-26.4889678259812
30
0
41
1
10
-1.99503997793928
20
-26.5849135103433
30
0
41
1
10
-1.99503997793928
20
-26.6749108160321
30
0
41
1
10
-1.99503997793928
20
-26.7393343627507
30
0
41
1
10
-1.99503997793928
20
-26.8006684388868
30
0
41
1
10
-1.99503997793928
20
-26.8588742790416
30
0
41
1
10
-1.99503997793928
20
-26.9139106605823
30
0
41
1
10
-1.99503997793928
20
-26.965737488626
30
0
41
1
10
-1.99503997793928
20
-27.0143096332649
30
0
41
1
10
-1.99503997793928
20
-27.0746927526657
30
0
41
1
10
-1.99503997793928
20
-27.1417627098538
30
0
41
1
10
-1.99503997793928
20
-27.197345231477
30
0
41
1
10
-1.99503997793928
20
-27.2347185022954
30
0
41
1
10
-1.99503997793928
20
-27.2591194581004
30
0
41
1
10
-1.99503997793928
20
-27.2798390261951
30
0
41
1
10
-1.99503997793928
20
-27.2968118938473
30
0
41
1
10
-1.99503997793928
20
-27.3099684620727
30
0
41
1
10
-1.99503997793928
20
-27.3192365691389
30
0
41
1
10
-1.99503997793928
20
-27.3243825696487
30
0
41
1
10
-1.99503997793926
20
-27.3252971580844
30
0
41
1
10
-1.99503997793926
20
-27.3251621279433
30
0
0
SPLINE
5
B4
100
AcDbEntity
8
SK1
62
256
6
ByLayer
370
-1
48
1
60
0
100
AcDbSpline
70
4
71
3
72
24
73
20
40
0
40
0
40
0
40
0
40
0.25
40
0.25
40
0.499999999999999
40
0.499999999999999
40
0.625
40
0.625
40
0.750000000000001
40
0.750000000000001
40
0.812500000000001
40
0.812500000000001
40
0.875
40
0.875
40
0.90625
40
0.90625
40
0.9375
40
0.9375
40
1
40
1
40
1
40
1
41
1
10
-0.199999999999989
20
-6.57657332251907
30
0
41
1
10
-0.199999999999989
20
-6.51045005265135
30
0
41
1
10
-0.201370223899346
20
-6.4442260414101
30
0
41
1
10
-0.207931565681122
20
-6.31154981196954
30
0
41
1
10
-0.213034744860892
20
-6.24506994782249
30
0
41
1
10
-0.225773826026653
20
-6.1452369321357
30
0
41
1
10
-0.230865993702309
20
-6.11204321968472
30
0
41
1
10
-0.243817490224103
20
-6.04595778475229
30
0
41
1
10
-0.251609411491188
20
-6.01299451379066
30
0
41
1
10
-0.267311184438938
20
-5.96503123140496
30
0
41
1
10
-0.273219353624199
20
-5.94926493252856
30
0
41
1
10
-0.287582091983978
20
-5.91857610087351
30
0
41
1
10
-0.296059368926279
20
-5.90333821711963
30
0
41
1
10
-0.312820576486132
20
-5.88361899214843
30
0
41
1
10
-0.319036350199696
20
-5.8776726315289
30
0
41
1
10
-0.333385369898679
20
-5.86840030244349
30
0
41
1
10
-0.341627499784693
20
-5.86524528836298
30
0
41
1
10
-0.366640861536695
20
-5.86327716887268
30
0
41
1
10
-0.382346845143928
20
-5.87167009312168
30
0
41
1
10
-0.394976888875476
20
-5.88246902087073
30
0
0
SPLINE
5
B5
100
AcDbEntity
8
SK1
62
256
6
ByLayer
370
-1
48
1
60
0
100
AcDbSpline
70
4
71
3
72
20
73
16
40
0
40
0
40
0
40
0
40
0.13375068687304
40
0.13375068687304
40
0.20062603030956
40
0.20062603030956
40
0.26750137374608
40
0.26750137374608
40
0.401252060619139
40
0.401252060619139
40
0.535002747492198
40
0.535002747492198
40
0.802504121238294
40
0.802504121238294
40
1
40
1
40
1
40
1
41
1
10
-0.394976888875277
20
-27.1987924685777
30
0
41
1
10
-0.382349964116088
20
-27.1976986124495
30
0
41
1
10
-0.366613768654787
20
-27.198185626277
30
0
41
1
10
-0.341634338384551
20
-27.2045204221557
30
0
41
1
10
-0.333397026160185
20
-27.2075133993406
30
0
41
1
10
-0.318988520955998
20
-27.214110804013
30
0
41
1
10
-0.312743256447732
20
-27.2176663061609
30
0
41
1
10
-0.296018029478773
20
-27.2284672633261
30
0
41
1
10
-0.287604834338822
20
-27.2357099511214
30
0
41
1
10
-0.273096832408726
20
-27.249868480242
30
0
41
1
10
-0.267166879186362
20
-27.2567338906934
30
0
41
1
10
-0.251432211917745
20
-27.2769335026167
30
0
41
1
10
-0.243675314291266
20
-27.2898897473707
30
0
41
1
10
-0.232413338432423
20
-27.3117686175748
30
0
41
1
10
-0.22840076135472
20
-27.320801870929
30
0
41
1
10
-0.224930452577809
20
-27.329631517935
30
0
0
SPLINE
5
B6
100
AcDbEntity
8
SK1
62
256
6
ByLayer
370
-1
48
1
60
0
100
AcDbSpline
70
4
71
3
72
28
73
24
40
0
40
0
40
0
40
0
40
0.250000000000002
40
0.250000000000002
40
0.500000000000004
40
0.500000000000004
40
0.625000000000005
40
0.625000000000005
40
0.687500000000005
40
0.687500000000005
40
0.750000000000005
40
0.750000000000005
40
0.812500000000005
40
0.812500000000005
40
0.843750000000005
40
0.843750000000005
40
0.875000000000004
40
0.875000000000004
40
0.906250000000003
40
0.906250000000003
40
0.937500000000003
40
0.937500000000003
40
1
40
1
40
1
40
1
41
1
10
-1.30710678118655
20
4.39323937970195
30
0
41
1
10
-1.27807156294216
20
4.55728578669124
30
0
41
1
10
-1.24496336974434
20
4.71973533160022
30
0
41
1
10
-1.16607860111952
20
5.04073195502605
30
0
41
1
10
-1.1205161180292
20
5.19963508727909
30
0
41
1
10
-1.03498128866929
20
5.43038219900058
30
0
41
1
10
-1.00356748257127
20
5.50611038118012
30
0
41
1
10
-0.948836683011137
20
5.61682998569373
30
0
41
1
10
-0.929306813344141
20
5.65325165428473
30
0
41
1
10
-0.88640701167526
20
5.72469636556372
30
0
41
1
10
-0.86304653949486
20
5.75970799632535
30
0
41
1
10
-0.81137857072963
20
5.82566030070504
30
0
41
1
10
-0.783095962941815
20
5.85688967768851
30
0
41
1
10
-0.733309570496715
20
5.89841079112156
30
0
41
1
10
-0.715777016447646
20
5.91105263131405
30
0
41
1
10
-0.678015781761673
20
5.93289970518873
30
0
41
1
10
-0.657793110825395
20
5.9420144229874
30
0
41
1
10
-0.615790388270625
20
5.9544386474501
30
0
41
1
10
-0.593299286563052
20
5.95781478621086
30
0
41
1
10
-0.549231954733756
20
5.9574111863021
30
0
41
1
10
-0.527157757150718
20
5.95370558688924
30
0
41
1
10
-0.464334375972726
20
5.93399527965414
30
0
41
1
10
-0.427479743259994
20
5.91025974760839
30
0
41
1
10
-0.394976888875277
20
5.88246916452647
30
0
0
SPLINE
5
B7
100
AcDbEntity
8
SK1
62
256
6
ByLayer
370
-1
48
1
60
0
100
AcDbSpline
70
4
71
3
72
22
73
18
40
0
40
0
40
0
40
0
40
0.25
40
0.25
40
0.3125
40
0.3125
40
0.375
40
0.375
40
0.5
40
0.5
40
0.625
40
0.625
40
0.6875
40
0.6875
40
0.75
40
0.75
40
1
40
1
40
1
40
1
41
1
10
-1.30710678118655
20
4.3932393797019
30
0
41
1
10
-1.43200052969661
20
3.68760078156748
30
0
41
1
10
-1.54096915123293
20
2.97036065166378
30
0
41
1
10
-1.63962286912502
20
2.05292564755379
30
0
41
1
10
-1.65743175171482
20
1.86837655684923
30
0
41
1
10
-1.68862850343612
20
1.49693538310103
30
0
41
1
10
-1.70203107558442
20
1.3095715678073
30
0
41
1
10
-1.73448227948862
20
0.747398775748991
30
0
41
1
10
-1.74566524731242
20
0.373309638071675
30
0
41
1
10
-1.7456629826182
20
-0.37342389783953
30
0
41
1
10
-1.73448345443987
20
-0.74606857769578
30
0
41
1
10
-1.70238872850288
20
-1.30401975761959
30
0
41
1
10
-1.68916426022977
20
-1.48983541056802
30
0
41
1
10
-1.65809696113621
20
-1.86115004723777
30
0
41
1
10
-1.64022877292865
20
-2.0469274623126
30
0
41
1
10
-1.54131598259161
20
-2.96856392861614
30
0
41
1
10
-1.43205802899382
20
-3.68727509970662
30
0
41
1
10
-1.30710678118655
20
-4.39323915389224
30
0
0
SPLINE
5
B8
100
AcDbEntity
8
SK1
62
256
6
ByLayer
370
-1
48
1
60
0
100
AcDbSpline
70
4
71
3
72
65
73
61
40
0
40
0
40
0
40
0
40
0.0115394076462801
40
0.0254632473857231
40
0.039387087125166
40
0.053310926864609
40
0.0672347666040519
40
0.0811586063434949
40
0.0950824460829378
40
0.109006285822381
40
0.122930125561824
40
0.136853965301267
40
0.15077780504071
40
0.164701644780153
40
0.178625484519596
40
0.192549324259039
40
0.206473163998482
40
0.220397003737924
40
0.234320843477367
40
0.24824468321681
40
0.276092362695696
40
0.290016202435139
40
0.303940042174582
40
0.317863881914025
40
0.331787721653468
40
0.345711561392911
40
0.359635401132354
40
0.38748308061124
40
0.401406920350683
40
0.415330760090126
40
0.429254599829569
40
0.443178439569012
40
0.457102279308455
40
0.471026119047898
40
0.484949958787341
40
0.498873798526784
40
0.512797638266226
40
0.526721478005669
40
0.540645317745112
40
0.554569157484555
40
0.582416836963441
40
0.596340676702884
40
0.610264516442327
40
0.638112195921213
40
0.665959875400099
40
0.679883715139542
40
0.693807554878985
40
0.721655234357871
40
0.749502913836757
40
0.7634267535762
40
0.777350593315643
40
0.805198272794528
40
0.833045952273414
40
0.8608936317523
40
0.874817471491743
40
0.888741311231186
40
0.916588990710072
40
0.944436670188958
40
0.972284349667844
40
1
40
1
40
1
40
1
41
1
10
-0.394976888875277
20
-5.88246902087039
30
0
41
1
10
-0.394976888875277
20
-5.96764081676272
30
0
41
1
10
-0.394976888875277
20
-6.15502922001536
30
0
41
1
10
-0.394976888875277
20
-6.44325211457954
30
0
41
1
10
-0.394976888875277
20
-6.74692776639381
30
0
41
1
10
-0.394976888875277
20
-7.04859940546743
30
0
41
1
10
-0.394976888875277
20
-7.34825967305403
30
0
41
1
10
-0.394976888875277
20
-7.6459029106087
30
0
41
1
10
-0.394976888875277
20
-7.94152452378472
30
0
41
1
10
-0.394976888875277
20
-8.23512129465951
30
0
41
1
10
-0.394976888875277
20
-8.52669016160959
30
0
41
1
10
-0.394976888875277
20
-8.81622852741523
30
0
41
1
10
-0.394976888875277
20
-9.10373459403795
30
0
41
1
10
-0.394976888875277
20
-9.38920804768813
30
0
41
1
10
-0.394976888875277
20
-9.67264665656018
30
0
41
1
10
-0.394976888875277
20
-9.95404994902185
30
0
41
1
10
-0.394976888875277
20
-10.2334171002114
30
0
41
1
10
-0.394976888875277
20
-10.5107477406376
30
0
41
1
10
-0.394976888875277
20
-10.7860413322607
30
0
41
1
10
-0.394976888875277
20
-11.1504804686583
30
0
41
1
10
-0.394976888875277
20
-11.510559499462
30
0
41
1
10
-0.394976888875277
20
-11.8668344908947
30
0
41
1
10
-0.394976888875277
20
-12.1319348433318
30
0
41
1
10
-0.394976888875277
20
-12.394994711819
30
0
41
1
10
-0.394976888875277
20
-12.6560136616419
30
0
41
1
10
-0.394976888875277
20
-12.9149898191478
30
0
41
1
10
-0.394976888875277
20
-13.2576504430446
30
0
41
1
10
-0.394976888875277
20
-13.5959808223858
30
0
41
1
10
-0.394976888875277
20
-13.9304519465026
30
0
41
1
10
-0.394976888875277
20
-14.1791991512309
30
0
41
1
10
-0.394976888875277
20
-14.4258961711575
30
0
41
1
10
-0.394976888875277
20
-14.6705410811659
30
0
41
1
10
-0.394976888875277
20
-14.9131307685779
30
0
41
1
10
-0.394976888875277
20
-15.1536643460738
30
0
41
1
10
-0.394976888875277
20
-15.3921386948649
30
0
41
1
10
-0.394976888875277
20
-15.6285506275557
30
0
41
1
10
-0.394976888875277
20
-15.8628987186173
30
0
41
1
10
-0.394976888875277
20
-16.0951789631496
30
0
41
1
10
-0.394976888875277
20
-16.3253880002473
30
0
41
1
10
-0.394976888875277
20
-16.6296334992457
30
0
41
1
10
-0.394976888875277
20
-16.9295333224765
30
0
41
1
10
-0.394976888875277
20
-17.2254485394535
30
0
41
1
10
-0.394976888875277
20
-17.518577967088
30
0
41
1
10
-0.394976888875277
20
-17.8796208126314
30
0
41
1
10
-0.394976888875277
20
-18.2336536000934
30
0
41
1
10
-0.394976888875277
20
-18.5127557087222
30
0
41
1
10
-0.394976888875277
20
-18.7890328610688
30
0
41
1
10
-0.394976888875277
20
-19.1289452123206
30
0
41
1
10
-0.394976888875277
20
-19.4617376771832
30
0
41
1
10
-0.394976888875277
20
-19.7237678591314
30
0
41
1
10
-0.394976888875277
20
-19.98292351444
30
0
41
1
10
-0.394976888875277
20
-20.3013474407322
30
0
41
1
10
-0.394976888875277
20
-20.6748062131765
30
0
41
1
10
-0.394976888875277
20
-20.9786637930718
30
0
41
1
10
-0.394976888875277
20
-21.2174142750283
30
0
41
1
10
-0.394976888875277
20
-21.4532059051397
30
0
41
1
10
-0.394976888875277
20
-21.7422733658897
30
0
41
1
10
-0.394976888875277
20
-22.0802205845281
30
0
41
1
10
-0.394976888875277
20
-22.4085794256534
30
0
41
1
10
-0.394976888875277
20
-22.6212378302524
30
0
41
1
10
-0.394976888875277
20
-22.7257880208567
30
0
0
SPLINE
5
B9
100
AcDbEntity
8
SK1
62
256
6
ByLayer
370
-1
48
1
60
0
100
AcDbSpline
70
4
71
3
72
51
73
47
40
0
40
0
40
0
40
0
40
0.0001760601136029
40
0.0373229570161814
40
0.0744698539187595
40
0.0930433023700487
40
0.111616750821338
40
0.148763647723916
40
0.185910544626494
40
0.223057441529072
40
0.241630889980362
40
0.26020433843165
40
0.297351235334229
40
0.334498132236807
40
0.353071580688096
40
0.371645029139386
40
0.408791926041964
40
0.427365374493253
40
0.445938822944542
40
0.464512271395831
40
0.48308571984712
40
0.501659168298409
40
0.520232616749698
40
0.538806065200987
40
0.557379513652277
40
0.575952962103566
40
0.594526410554855
40
0.631673307457433
40
0.650246755908722
40
0.668820204360011
40
0.6873936528113
40
0.70596710126259
40
0.724540549713879
40
0.743113998165168
40
0.761687446616457
40
0.780260895067746
40
0.817407791970324
40
0.854554688872903
40
0.873128137324192
40
0.891701585775481
40
0.91027503422677
40
0.928848482678059
40
0.947421931129348
40
0.965995379580637
40
0.984568828031926
40
1
40
1
40
1
40
1
41
1
10
-0.394976888875334
20
-22.7257885105751
30
0
41
1
10
-0.394976888875306
20
-22.7262863934453
30
0
41
1
10
-0.394976888875277
20
-22.8318251703118
30
0
41
1
10
-0.394976888875277
20
-23.0393009260323
30
0
41
1
10
-0.394976888875277
20
-23.2902077752037
30
0
41
1
10
-0.394976888875277
20
-23.4862798879298
30
0
41
1
10
-0.394976888875277
20
-23.6791846798372
30
0
41
1
10
-0.394976888875277
20
-23.9142591539289
30
0
41
1
10
-0.394976888875277
20
-24.1867224862229
30
0
41
1
10
-0.394976888875277
20
-24.4055794195024
30
0
41
1
10
-0.394976888875277
20
-24.5757644956798
30
0
41
1
10
-0.394976888875277
20
-24.7426176867451
30
0
41
1
10
-0.394976888875277
20
-24.9448199449114
30
0
41
1
10
-0.394976888875277
20
-25.1385155622326
30
0
41
1
10
-0.394976888875277
20
-25.2883441368503
30
0
41
1
10
-0.394976888875277
20
-25.4346883615025
30
0
41
1
10
-0.394976888875277
20
-25.5756766141878
30
0
41
1
10
-0.394976888875277
20
-25.7113960827791
30
0
41
1
10
-0.394976888875277
20
-25.810462366076
30
0
41
1
10
-0.394976888875277
20
-25.9068022246068
30
0
41
1
10
-0.394976888875277
20
-26.0003919383211
30
0
41
1
10
-0.394976888875277
20
-26.0912052550724
30
0
41
1
10
-0.394976888875277
20
-26.1792140413985
30
0
41
1
10
-0.394976888875277
20
-26.2643925510642
30
0
41
1
10
-0.394976888875277
20
-26.3467113173234
30
0
41
1
10
-0.394976888875277
20
-26.4261397450501
30
0
41
1
10
-0.394976888875277
20
-26.5281744271217
30
0
41
1
10
-0.394976888875277
20
-26.6242375172272
30
0
41
1
10
-0.394976888875277
20
-26.7143277513073
30
0
41
1
10
-0.394976888875277
20
-26.778823083505
30
0
41
1
10
-0.394976888875277
20
-26.8402262140422
30
0
41
1
10
-0.394976888875277
20
-26.8984983240354
30
0
41
1
10
-0.394976888875277
20
-26.9535980812345
30
0
41
1
10
-0.394976888875277
20
-27.0054853002076
30
0
41
1
10
-0.394976888875277
20
-27.0541147524053
30
0
41
1
10
-0.394976888875277
20
-27.1145655815875
30
0
41
1
10
-0.394976888875277
20
-27.1817216133088
30
0
41
1
10
-0.394976888875277
20
-27.2373772549269
30
0
41
1
10
-0.394976888875277
20
-27.2747954442536
30
0
41
1
10
-0.394976888875277
20
-27.299228260346
30
0
41
1
10
-0.394976888875277
20
-27.3199753422425
30
0
41
1
10
-0.394976888875277
20
-27.3369711498757
30
0
41
1
10
-0.394976888875277
20
-27.3501458297252
30
0
41
1
10
-0.394976888875277
20
-27.3594269422325
30
0
41
1
10
-0.394976888875277
20
-27.3644374442963
30
0
41
1
10
-0.394976888875277
20
-27.3654144802233
30
0
41
1
10
-0.394976888875306
20
-27.3653834691044
30
0
0
SPLINE
5
BA
100
AcDbEntity
8
SK1
62
256
6
ByLayer
370
-1
48
1
60
0
100
AcDbSpline
70
4
71
2
72
6
73
3
40
0
40
0
40
0
40
1
40
1
40
1
41
1
10
-48
20
-25.5410840926423
30
0
41
1
10
-47.2499999994058
20
-25.9740938984543
30
0
41
1
10
-46.5
20
-26.407103720226
30
0
0
SPLINE
5
BB
100
AcDbEntity
8
SK1
62
256
6
ByLayer
370
-1
48
1
60
0
100
AcDbSpline
70
4
71
2
72
6
73
3
40
0
40
0
40
0
40
1
40
1
40
1
41
1
10
-1.99503997793928
20
-27.3251858139979
30
0
41
1
10
-1.19500843340728
20
-27.3452852646243
30
0
41
1
10
-0.394976888875277
20
-27.3653847152514
30
0
0
SPLINE
5
BC
100
AcDbEntity
8
SK1
62
256
6
ByLayer
370
-1
48
1
60
0
100
AcDbSpline
70
4
71
2
72
6
73
3
40
0
40
0
40
0
40
1
40
1
40
1
41
1
10
-2.19999999999999
20
27.5061808177903
30
0
41
1
10
-24.349999999999
20
26.9499705725249
30
0
41
1
10
-46.5
20
26.3937602673102
30
0
0
SPLINE
5
BD
100
AcDbEntity
8
SK1
62
256
6
ByLayer
370
-1
48
1
60
0
100
AcDbSpline
70
4
71
2
72
6
73
3
40
0
40
0
40
0
40
1
40
1
40
1
41
1
10
-0.394976888875277
20
27.3653847121227
30
0
41
1
10
-1.19500843340728
20
27.3452852614966
30
0
41
1
10
-1.99503997793928
20
27.325185810871
30
0
0
SPLINE
5
BE
100
AcDbEntity
8
SK1
62
256
6
ByLayer
370
-1
48
1
60
0
100
AcDbSpline
70
4
71
3
72
13
73
9
40
0
40
0
40
0
40
0
40
0.239456135589545
40
0.368359721696704
40
0.499998983755327
40
0.631638415030281
40
0.760542467577801
40
1
40
1
40
1
40
1
41
1
10
-2.19999999999999
20
-27.520098663655
30
0
41
1
10
-2.19909198642051
20
-27.4940411875707
30
0
41
1
10
-2.19103284106731
20
-27.4566686032801
30
0
41
1
10
-2.16563592203022
20
-27.4104494295044
30
0
41
1
10
-2.13886378678802
20
-27.3791678756854
30
0
41
1
10
-2.10627712749317
20
-27.3540005055176
30
0
41
1
10
-2.05884064232888
20
-27.3309567030813
30
0
41
1
10
-2.02111030872428
20
-27.3247844480697
30
0
41
1
10
-1.99503997793928
20
-27.3251860880175
30
0
0
SPLINE
5
BF
100
AcDbEntity
8
SK1
62
256
6
ByLayer
370
-1
48
1
60
0
100
AcDbSpline
70
4
71
3
72
13
73
9
40
0
40
0
40
0
40
0
40
0.239457532426925
40
0.368361584976217
40
0.500001016251953
40
0.631640278310117
40
0.760543864415646
40
1
40
1
40
1
40
1
41
1
10
-1.99503997793928
20
27.3251860847967
30
0
41
1
10
-2.02111030872419
20
27.3247844448489
30
0
41
1
10
-2.0588406423287
20
27.33095669986
30
0
41
1
10
-2.10627712749303
20
27.3540005022953
30
0
41
1
10
-2.13886378678788
20
27.3791678724618
30
0
41
1
10
-2.16563592203011
20
27.4104494262792
30
0
41
1
10
-2.19103284106723
20
27.4566686000526
30
0
41
1
10
-2.19909198642043
20
27.4940411843415
30
0
41
1
10
-2.19999999999999
20
27.5200986604247
30
0
0
SPLINE
5
C0
100
AcDbEntity
8
SK1
62
256
6
ByLayer
370
-1
48
1
60
0
100
AcDbSpline
70
4
71
2
72
6
73
3
40
0
40
0
40
0
40
1
40
1
40
1
41
1
10
-46.5
20
-26.3937603074471
30
0
41
1
10
-24.349999999999
20
-26.9499706126624
30
0
41
1
10
-2.19999999999999
20
-27.506180857905
30
0
0
SPLINE
5
C1
100
AcDbEntity
8
SK1
62
256
6
ByLayer
370
-1
48
1
60
0
100
AcDbSpline
70
4
71
2
72
6
73
3
40
0
40
0
40
0
40
1
40
1
40
1
41
1
10
-46.5
20
26.4071037337151
30
0
41
1
10
-47.249999999406
20
25.9740939119354
30
0
41
1
10
-48
20
25.5410841061086
30
0
0
SPLINE
5
C2
100
AcDbEntity
8
SK1
62
256
6
ByLayer
370
-1
48
1
60
0
100
AcDbSpline
70
4
71
3
72
13
73
9
40
0
40
0
40
0
40
0
40
0.0905079493461951
40
0.212385989411812
40
0.400971192028926
40
0.616291507092593
40
0.854987970780542
40
1
40
1
40
1
40
1
41
1
10
-0.233624058200832
20
16.2016814628086
30
0
41
1
10
-0.235755144831643
20
16.4357511963514
30
0
41
1
10
-0.240677657996855
20
16.9772948832801
30
0
41
1
10
-0.249493238483041
20
17.9643729445632
30
0
41
1
10
-0.260825393398846
20
19.1967856317601
30
0
41
1
10
-0.274500253660477
20
20.5944352139014
30
0
41
1
10
-0.287201238393294
20
21.8004882101784
30
0
41
1
10
-0.295293526297144
20
22.4815314794395
30
0
41
1
10
-0.298346584531601
20
22.7279856273618
30
0
0
SPLINE
5
C3
100
AcDbEntity
8
SK1
62
256
6
ByLayer
370
-1
48
1
60
0
100
AcDbSpline
70
4
71
3
72
13
73
9
40
0
40
0
40
0
40
0
40
0.145012952458251
40
0.383709227269019
40
0.599029371171297
40
0.787614422751138
40
0.909492363506449
40
1
40
1
40
1
40
1
41
1
10
-0.298346650184271
20
-22.7279949564862
30
0
41
1
10
-0.2952935701326
20
-22.4815391996246
30
0
41
1
10
-0.287201260262492
20
-21.8004943497841
30
0
41
1
10
-0.274500254227519
20
-20.5944398363786
30
0
41
1
10
-0.260825391797681
20
-19.1967906767925
30
0
41
1
10
-0.249493243032816
20
-17.9643784063025
30
0
41
1
10
-0.24067765402387
20
-16.9773012106383
30
0
41
1
10
-0.235755170701452
20
-16.4357583917673
30
0
41
1
10
-0.233624103318817
20
-16.2016894044218
30
0
0
LINE
5
48
100
AcDbEntity
8
SK3
62
256
6
ByLayer
370
-1
48
0.05
60
0
100
AcDbLine
10
120
20
6
30
0
11
75.5
21
6
31
0
39
0
210
0
220
0
230
1
0
LINE
5
4A
100
AcDbEntity
8
SK3
62
256
6
ByLayer
370
-1
48
0.05
60
0
100
AcDbLine
10
74
20
4.5
30
0
11
74
21
-4.5
31
0
39
0
210
0
220
0
230
1
0
LINE
5
4B
100
AcDbEntity
8
4
62
256
6
ByLayer
370
-1
48
0.05
60
0
100
AcDbLine
10
120
20
0
30
0
11
0
21
0
31
0
39
0
210
0
220
0
230
1
0
LINE
5
4D
100
AcDbEntity
8
80
62
256
6
ByLayer
370
-1
48
1
60
0
100
AcDbLine
10
0
20
0
30
0
11
-10.875929
21
0
31
0
39
0
210
0
220
0
230
1
0
LINE
5
4E
100
AcDbEntity
8
SK3
62
256
6
ByLayer
370
-1
48
0.05
60
0
100
AcDbLine
10
75.5
20
-6
30
0
11
120
21
-6
31
0
39
0
210
0
220
0
230
1
0
LINE
5
4F
100
AcDbEntity
8
SK3
62
256
6
ByLayer
370
-1
48
0.05
60
0
100
AcDbLine
10
75.5
20
6
30
0
11
74
21
4.5
31
0
39
0
210
0
220
0
230
1
0
LINE
5
50
100
AcDbEntity
8
SK3
62
256
6
ByLayer
370
-1
48
0.05
60
0
100
AcDbLine
10
74
20
-4.5
30
0
11
75.5
21
-6
31
0
39
0
210
0
220
0
230
1
0
LINE
5
51
100
AcDbEntity
8
SK3
62
256
6
ByLayer
370
-1
48
0.05
60
0
100
AcDbLine
10
75.5
20
-6
30
0
11
75.5
21
6
31
0
39
0
210
0
220
0
230
1
0
LINE
5
52
100
AcDbEntity
8
81
62
256
6
ByLayer
370
-1
48
1
60
0
100
AcDbLine
10
120
20
0
30
0
11
124.742527
21
0
31
0
39
0
210
0
220
0
230
1
0
LINE
5
53
100
AcDbEntity
8
SK4
62
256
6
ByLayer
370
-1
48
0.05
60
0
100
AcDbLine
10
-58
20
0
30
0
11
130
21
0
31
0
39
0
210
0
220
0
230
1
0
LINE
5
55
100
AcDbEntity
8
1
62
256
6
ByLayer
370
-1
48
1
60
0
100
AcDbLine
10
120
20
-9.969571
30
0
11
120
21
9.969571
31
0
39
0
210
0
220
0
230
1
0
LINE
5
57
100
AcDbEntity
8
1
62
256
6
ByLayer
370
-1
48
1
60
0
100
AcDbLine
10
13.894338
20
-37.932633
30
0
11
13.894338
21
-12.669469
31
0
39
0
210
0
220
0
230
1
0
LINE
5
58
100
AcDbEntity
8
1
62
256
6
ByLayer
370
-1
48
1
60
0
100
AcDbLine
10
13.894338
20
12.669469
30
0
11
13.894338
21
37.932633
31
0
39
0
210
0
220
0
230
1
0
LINE
5
59
100
AcDbEntity
8
1
62
256
6
ByLayer
370
-1
48
1
60
0
100
AcDbLine
10
10.538675
20
12.14464
30
0
11
13.461325
21
12.14464
31
0
39
0
210
0
220
0
230
1
0
LINE
5
5A
100
AcDbEntity
8
1
62
256
6
ByLayer
370
-1
48
1
60
0
100
AcDbLine
10
29.219295
20
39.9925
30
0
11
29.219295
21
-39.9925
31
0
39
0
210
0
220
0
230
1
0
LINE
5
5B
100
AcDbEntity
8
1
62
256
6
ByLayer
370
-1
48
1
60
0
100
AcDbLine
10
30.189416
20
0
30
0
11
30.189416
21
-39.235121
31
0
39
0
210
0
220
0
230
1
0
LINE
5
5C
100
AcDbEntity
8
1
62
256
6
ByLayer
370
-1
48
1
60
0
100
AcDbLine
10
30.189416
20
39.235121
30
0
11
30.189416
21
0
31
0
39
0
210
0
220
0
230
1
0
LINE
5
5D
100
AcDbEntity
8
1
62
256
6
ByLayer
370
-1
48
1
60
0
100
AcDbLine
10
13.461325
20
38.103908
30
0
11
10.538675
21
38.103908
31
0
39
0
210
0
220
0
230
1
0
LINE
5
5E
100
AcDbEntity
8
1
62
256
6
ByLayer
370
-1
48
1
60
0
100
AcDbLine
10
118.2
20
-11
30
0
11
118.2
21
11
31
0
39
0
210
0
220
0
230
1
0
LINE
5
5F
100
AcDbEntity
8
1
62
256
6
ByLayer
370
-1
48
1
60
0
100
AcDbLine
10
34.526461
20
-21.893447
30
0
11
34.526461
21
21.893447
31
0
39
0
210
0
220
0
230
1
0
LINE
5
60
100
AcDbEntity
8
1
62
256
6
ByLayer
370
-1
48
1
60
0
100
AcDbLine
10
10.105662
20
-37.932633
30
0
11
10.105662
21
-12.669469
31
0
39
0
210
0
220
0
230
1
0
LINE
5
61
100
AcDbEntity
8
1
62
256
6
ByLayer
370
-1
48
1
60
0
100
AcDbLine
10
36.951763
20
-20
30
0
11
36.951763
21
0
31
0
39
0
210
0
220
0
230
1
0
LINE
5
62
100
AcDbEntity
8
1
62
256
6
ByLayer
370
-1
48
1
60
0
100
AcDbLine
10
36.951763
20
0
30
0
11
36.951763
21
20
31
0
39
0
210
0
220
0
230
1
0
LINE
5
63
100
AcDbEntity
8
1
62
256
6
ByLayer
370
-1
48
1
60
0
100
AcDbLine
10
10.538675
20
-38.103908
30
0
11
10.538675
21
-12.14464
31
0
39
0
210
0
220
0
230
1
0
LINE
5
64
100
AcDbEntity
8
1
62
256
6
ByLayer
370
-1
48
1
60
0
100
AcDbLine
10
10.105662
20
12.669469
30
0
11
10.105662
21
37.932633
31
0
39
0
210
0
220
0
230
1
0
LINE
5
65
100
AcDbEntity
8
1
62
256
6
ByLayer
370
-1
48
1
60
0
100
AcDbLine
10
0.3
20
-39.9925
30
0
11
0.3
21
39.9925
31
0
39
0
210
0
220
0
230
1
0
LINE
5
66
100
AcDbEntity
8
1
62
256
6
ByLayer
370
-1
48
1
60
0
100
AcDbLine
10
13.461325
20
12.14464
30
0
11
13.461325
21
38.103908
31
0
39
0
210
0
220
0
230
1
0
LINE
5
67
100
AcDbEntity
8
1
62
256
6
ByLayer
370
-1
48
1
60
0
100
AcDbLine
10
0
20
-39.6925
30
0
11
0
21
39.6925
31
0
39
0
210
0
220
0
230
1
0
LINE
5
68
100
AcDbEntity
8
1
62
256
6
ByLayer
370
-1
48
1
60
0
100
AcDbLine
10
119.366329
20
-10.752089
30
0
11
119.366329
21
10.752089
31
0
39
0
210
0
220
0
230
1
0
LINE
5
69
100
AcDbEntity
8
1
62
256
6
ByLayer
370
-1
48
1
60
0
100
AcDbLine
10
13.461325
20
-12.14464
30
0
11
10.538675
21
-12.14464
31
0
39
0
210
0
220
0
230
1
0
LINE
5
6A
100
AcDbEntity
8
1
62
256
6
ByLayer
370
-1
48
1
60
0
100
AcDbLine
10
59.195498
20
-11
30
0
11
59.195498
21
0
31
0
39
0
210
0
220
0
230
1
0
LINE
5
6B
100
AcDbEntity
8
1
62
256
6
ByLayer
370
-1
48
1
60
0
100
AcDbLine
10
59.195498
20
0
30
0
11
59.195498
21
11
31
0
39
0
210
0
220
0
230
1
0
LINE
5
6C
100
AcDbEntity
8
1
62
256
6
ByLayer
370
-1
48
1
60
0
100
AcDbLine
10
52.573958
20
20
30
0
11
52.573958
21
-20
31
0
39
0
210
0
220
0
230
1
0
LINE
5
6D
100
AcDbEntity
8
1
62
256
6
ByLayer
370
-1
48
1
60
0
100
AcDbLine
10
10.538675
20
-38.103908
30
0
11
13.461325
21
-38.103908
31
0
39
0
210
0
220
0
230
1
0
LINE
5
6E
100
AcDbEntity
8
1
62
256
6
ByLayer
370
-1
48
1
60
0
100
AcDbLine
10
54.271459
20
-15.131759
30
0
11
54.271459
21
15.131759
31
0
39
0
210
0
220
0
230
1
0
LINE
5
6F
100
AcDbEntity
8
1
62
256
6
ByLayer
370
-1
48
1
60
0
100
AcDbLine
10
13.461325
20
-38.103908
30
0
11
13.461325
21
-12.14464
31
0
39
0
210
0
220
0
230
1
0
LINE
5
70
100
AcDbEntity
8
1
62
256
6
ByLayer
370
-1
48
1
60
0
100
AcDbLine
10
53.558765
20
19.173648
30
0
11
53.558765
21
-19.173648
31
0
39
0
210
0
220
0
230
1
0
LINE
5
71
100
AcDbEntity
8
1
62
256
6
ByLayer
370
-1
48
1
60
0
100
AcDbLine
10
10.538675
20
12.14464
30
0
11
10.538675
21
38.103908
31
0
39
0
210
0
220
0
230
1
0
LINE
5
72
100
AcDbEntity
8
SK1
62
256
6
ByLayer
370
-1
48
1
60
0
100
AcDbLine
10
-1.307107
20
-4.393239
30
0
11
-1.307107
21
4.393239
31
0
39
0
210
0
220
0
230
1
0
LINE
5
74
100
AcDbEntity
8
SK1
62
256
6
ByLayer
370
-1
48
1
60
0
100
AcDbLine
10
-0.2
20
6.576573
30
0
11
-0.2
21
28.683485
31
0
39
0
210
0
220
0
230
1
0
LINE
5
75
100
AcDbEntity
8
SK1
62
256
6
ByLayer
370
-1
48
1
60
0
100
AcDbLine
10
-0.2
20
-28.683485
30
0
11
-0.2
21
-6.576573
31
0
39
0
210
0
220
0
230
1
0
LINE
5
76
100
AcDbEntity
8
1
62
256
6
ByLayer
370
-1
48
1
60
0
100
AcDbLine
10
50.08
20
-22
30
0
11
41.92
21
-22
31
0
39
0
210
0
220
0
230
1
0
LINE
5
77
100
AcDbEntity
8
1
62
256
6
ByLayer
370
-1
48
1
60
0
100
AcDbLine
10
51
20
-21.08
30
0
11
41
21
-21.08
31
0
39
0
210
0
220
0
230
1
0
LINE
5
78
100
AcDbEntity
8
1
62
256
6
ByLayer
370
-1
48
1
60
0
100
AcDbLine
10
51
20
-21.08
30
0
11
51
21
-18.075525
31
0
39
0
210
0
220
0
230
1
0
LINE
5
79
100
AcDbEntity
8
1
62
256
6
ByLayer
370
-1
48
1
60
0
100
AcDbLine
10
41
20
-18.080567
30
0
11
41
21
-21.08
31
0
39
0
210
0
220
0
230
1
0
LINE
5
7A
100
AcDbEntity
8
1
62
256
6
ByLayer
370
-1
48
1
60
0
100
AcDbLine
10
41
20
-21.08
30
0
11
41.92
21
-22
31
0
39
0
210
0
220
0
230
1
0
LINE
5
7B
100
AcDbEntity
8
1
62
256
6
ByLayer
370
-1
48
1
60
0
100
AcDbLine
10
50.08
20
-22
30
0
11
51
21
-21.08
31
0
39
0
210
0
220
0
230
1
0
LINE
5
7C
100
AcDbEntity
8
1
62
256
6
ByLayer
370
-1
48
1
60
0
100
AcDbLine
10
0.3
20
39.9925
30
0
11
0
21
39.6925
31
0
39
0
210
0
220
0
230
1
0
LINE
5
7D
100
AcDbEntity
8
1
62
256
6
ByLayer
370
-1
48
1
60
0
100
AcDbLine
10
0
20
-39.6925
30
0
11
0.3
21
-39.9925
31
0
39
0
210
0
220
0
230
1
0
LINE
5
7E
100
AcDbEntity
8
1
62
256
6
ByLayer
370
-1
48
1
60
0
100
AcDbLine
10
0.3
20
-39.9925
30
0
11
29.219295
21
-39.9925
31
0
39
0
210
0
220
0
230
1
0
LINE
5
7F
100
AcDbEntity
8
1
62
256
6
ByLayer
370
-1
48
1
60
0
100
AcDbLine
10
29.219295
20
39.9925
30
0
11
0.3
21
39.9925
31
0
39
0
210
0
220
0
230
1
0
LINE
5
80
100
AcDbEntity
8
1
62
256
6
ByLayer
370
-1
48
1
60
0
100
AcDbLine
10
30.189416
20
-39.235121
30
0
11
34.526461
21
-21.893447
31
0
39
0
210
0
220
0
230
1
0
LINE
5
81
100
AcDbEntity
8
1
62
256
6
ByLayer
370
-1
48
1
60
0
100
AcDbLine
10
34.526461
20
21.893447
30
0
11
30.189416
21
39.235121
31
0
39
0
210
0
220
0
230
1
0
LINE
5
82
100
AcDbEntity
8
1
62
256
6
ByLayer
370
-1
48
1
60
0
100
AcDbLine
10
36.951763
20
-20
30
0
11
41.000109
21
-20
31
0
39
0
210
0
220
0
230
1
0
LINE
5
83
100
AcDbEntity
8
1
62
256
6
ByLayer
370
-1
48
1
60
0
100
AcDbLine
10
50.999777
20
-20
30
0
11
52.573958
21
-20
31
0
39
0
210
0
220
0
230
1
0
LINE
5
84
100
AcDbEntity
8
1
62
256
6
ByLayer
370
-1
48
1
60
0
100
AcDbLine
10
52.573958
20
20
30
0
11
36.951763
21
20
31
0
39
0
210
0
220
0
230
1
0
LINE
5
85
100
AcDbEntity
8
1
62
256
6
ByLayer
370
-1
48
1
60
0
100
AcDbLine
10
53.558765
20
-19.173648
30
0
11
54.271459
21
-15.131759
31
0
39
0
210
0
220
0
230
1
0
LINE
5
86
100
AcDbEntity
8
1
62
256
6
ByLayer
370
-1
48
1
60
0
100
AcDbLine
10
54.271459
20
15.131759
30
0
11
53.558765
21
19.173648
31
0
39
0
210
0
220
0
230
1
0
LINE
5
87
100
AcDbEntity
8
1
62
256
6
ByLayer
370
-1
48
1
60
0
100
AcDbLine
10
59.195498
20
-11
30
0
11
118.2
21
-11
31
0
39
0
210
0
220
0
230
1
0
LINE
5
88
100
AcDbEntity
8
1
62
256
6
ByLayer
370
-1
48
1
60
0
100
AcDbLine
10
118.2
20
11
30
0
11
59.195498
21
11
31
0
39
0
210
0
220
0
230
1
0
LINE
5
89
100
AcDbEntity
8
1
62
256
6
ByLayer
370
-1
48
1
60
0
100
AcDbLine
10
118.2
20
-11
30
0
11
119.366329
21
-10.752089
31
0
39
0
210
0
220
0
230
1
0
LINE
5
8A
100
AcDbEntity
8
1
62
256
6
ByLayer
370
-1
48
1
60
0
100
AcDbLine
10
119.366329
20
10.752089
30
0
11
118.2
21
11
31
0
39
0
210
0
220
0
230
1
0
LINE
5
8B
100
AcDbEntity
8
1
62
256
6
ByLayer
370
-1
48
1
60
0
100
AcDbLine
10
41.92
20
-22
30
0
11
41.92
21
-18.0805
31
0
39
0
210
0
220
0
230
1
0
LINE
5
8C
100
AcDbEntity
8
1
62
256
6
ByLayer
370
-1
48
1
60
0
100
AcDbLine
10
50.08
20
-22
30
0
11
50.08
21
-18.075438
31
0
39
0
210
0
220
0
230
1
0
MTEXT
5
C4
100
AcDbEntity
8
SK6
62
256
6
ByLayer
370
-1
48
1
60
0
100
AcDbMText
10
-52.138158
20
47.3675
30
0
210
0
220
0
230
1
1
\W01.000;\fsimplex.shx,bigfont.shx;  
40
3.5
41
0
44
1.084337
50
0
71
7
72
5
7
DEFAULT
0
MTEXT
5
EA
100
AcDbEntity
8
SK6
62
256
6
ByLayer
370
-1
48
1
60
0
100
AcDbMText
10
-52.138158
20
47.3675
30
0
210
0
220
0
230
1
1
\W01.000;\fsimplex.shx,bigfont.shx;  
40
3.5
41
0
44
1.084337
50
0
71
7
72
5
7
DEFAULT
0
MTEXT
5
EB
100
AcDbEntity
8
SK6
62
256
6
ByLayer
370
-1
48
1
60
0
100
AcDbMText
10
-2.125
20
-54.3675
30
0
210
0
220
0
230
1
1
\W00.670;\fsimplex.shx,bigfont.shx;930-C8-P-12-120 
40
3.5
41
0
44
1.084337
50
0
71
7
72
5
7
DEFAULT
0
DIMENSION
5
F6
100
AcDbEntity
8
SK2
62
256
6
ByLayer
370
-3
48
1
60
0
100
AcDbDimension
2
DimnDraft3D1
10
-78.1
20
39.9925
30
0
11
-79.475
21
1.871053
31
0
70
33
71
5
72
1
41
1
210
0
220
0
230
1
3
Standard
100
AcDbAlignedDimension
13
-1.5875
23
-39.9925
33
0
14
-1.5875
24
39.9925
34
0
1001
ACAD
1000
DSTYLE
1002
{
1070
   279
1070
     0
1070
    74
1070
     0
1070
   173
1070
     1
1070
   340
1005
C5
1070
   271
1070
     0
1070
   272
1070
     2
1070
    77
1070
     1
1070
    73
1070
     0
1070
   171
1070
     3
1070
   274
1070
     4
1070
   177
1070
     2
1070
   176
1070
     2
1070
   178
1070
     2
1070
    78
1070
     8
1070
    48
1040
-0.005
1070
    41
1041
4.5
1070
   147
1041
2.25
1070
    42
1041
1.5875
1070
    44
1041
2.0
1070
   140
1041
4.5
1070
   343
1005
0
1070
   344
1005
0
1002
}
0
DIMENSION
5
100
100
AcDbEntity
8
SK2
62
256
6
ByLayer
370
-3
48
1
60
0
100
AcDbDimension
2
DimnDraft3D2
10
120
20
68.0925
30
0
11
74.871053
21
68.0925
31
0
70
32
71
5
72
1
41
1
210
0
220
0
230
1
3
Standard
100
AcDbAlignedDimension
13
35
23
21.5875
33
0
14
120
24
7.5875
34
0
50
0
100
AcDbRotatedDimension
1001
ACAD
1000
DSTYLE
1002
{
1070
   279
1070
     0
1070
   172
1070
     1
1070
   173
1070
     1
1070
   340
1005
C5
1070
   271
1070
     1
1070
   272
1070
     2
1070
    77
1070
     1
1070
    73
1070
     0
1070
   171
1070
     3
1070
   274
1070
     4
1070
   177
1070
     2
1070
   176
1070
     2
1070
   178
1070
     2
1070
    78
1070
     8
1070
    48
1040
-0.005
1070
    41
1041
4.5
1070
   147
1041
2.25
1070
    42
1041
1.5875
1070
    44
1041
2.0
1070
   140
1041
4.5
1070
   343
1005
0
1070
   344
1005
0
1002
}
0
DIMENSION
5
10B
100
AcDbEntity
8
2
62
256
6
ByLayer
370
-3
48
1
60
0
100
AcDbDimension
2
DimnDraft3D3
10
120
20
79.0925
30
0
11
56.281579
21
79.0925
31
0
70
32
71
5
72
1
41
1
210
0
220
0
230
1
3
Standard
100
AcDbAlignedDimension
13
0
23
23.6425
33
0
14
120
24
12.5875
34
0
50
0
100
AcDbRotatedDimension
1001
ACAD
1000
DSTYLE
1002
{
1070
   279
1070
     0
1070
   172
1070
     1
1070
   173
1070
     1
1070
   340
1005
C5
1070
   271
1070
     1
1070
   272
1070
     2
1070
    77
1070
     1
1070
    73
1070
     0
1070
   171
1070
     3
1070
   274
1070
     4
1070
   177
1070
     2
1070
   176
1070
     2
1070
   178
1070
     2
1070
    78
1070
     8
1070
    48
1040
-0.005
1070
    41
1041
4.5
1070
   147
1041
2.25
1070
    42
1041
1.5875
1070
    44
1041
2.0
1070
   140
1041
4.5
1070
   343
1005
0
1070
   344
1005
0
1002
}
0
DIMENSION
5
115
100
AcDbEntity
8
SK2
62
256
6
ByLayer
370
-3
48
1
60
0
100
AcDbDimension
2
DimnDraft3D4
10
30
20
59.0925
30
0
11
12.371053
21
59.0925
31
0
70
32
71
5
72
1
41
1
210
0
220
0
230
1
3
Standard
100
AcDbAlignedDimension
13
0
23
23.6425
33
0
14
30
24
41.58
34
0
50
0
100
AcDbRotatedDimension
1001
ACAD
1000
DSTYLE
1002
{
1070
   279
1070
     0
1070
   172
1070
     1
1070
   173
1070
     1
1070
   340
1005
C5
1070
   271
1070
     2
1070
   272
1070
     2
1070
    77
1070
     1
1070
    73
1070
     0
1070
   171
1070
     3
1070
   274
1070
     4
1070
   177
1070
     2
1070
   176
1070
     2
1070
   178
1070
     2
1070
    78
1070
     8
1070
    48
1040
-0.005
1070
    41
1041
4.5
1070
   147
1041
2.25
1070
    42
1041
1.5875
1070
    44
1041
2.0
1070
   140
1041
4.5
1070
   343
1005
0
1070
   344
1005
0
1002
}
0
DIMENSION
5
11F
100
AcDbEntity
8
SK2
62
256
6
ByLayer
370
-3
48
1
60
0
100
AcDbDimension
2
DimnDraft3D5
10
55
20
49.0925
30
0
11
84.871053
21
49.0925
31
0
70
32
71
5
72
1
41
1
210
0
220
0
230
1
3
Standard
100
AcDbAlignedDimension
13
120
23
12.5875
33
0
14
55
24
12.5875
34
0
50
0
100
AcDbRotatedDimension
1001
ACAD
1000
DSTYLE
1002
{
1070
   279
1070
     0
1070
   172
1070
     1
1070
   173
1070
     1
1070
   340
1005
C5
1070
   271
1070
     1
1070
   272
1070
     2
1070
    77
1070
     1
1070
    73
1070
     0
1070
   171
1070
     3
1070
   274
1070
     4
1070
   177
1070
     2
1070
   176
1070
     2
1070
   178
1070
     2
1070
    78
1070
     8
1070
    48
1040
-0.005
1070
    41
1041
4.5
1070
   147
1041
2.25
1070
    42
1041
1.5875
1070
    44
1041
2.0
1070
   140
1041
4.5
1070
   343
1005
0
1070
   344
1005
0
1002
}
0
DIMENSION
5
129
100
AcDbEntity
8
SK2
62
256
6
ByLayer
370
-3
48
1
60
0
100
AcDbDimension
2
DimnDraft3D6
10
-48
20
79.0925
30
0
11
-26.865789
21
79.0925
31
0
70
32
71
5
72
1
41
1
210
0
220
0
230
1
3
Standard
100
AcDbAlignedDimension
13
0
23
23.6425
33
0
14
-48
24
29.9875
34
0
50
0
100
AcDbRotatedDimension
1001
ACAD
1000
DSTYLE
1002
{
1070
   279
1070
     0
1070
   172
1070
     1
1070
   173
1070
     1
1070
   340
1005
C5
1070
   271
1070
     1
1070
   272
1070
     2
1070
    77
1070
     1
1070
    73
1070
     0
1070
   171
1070
     3
1070
   274
1070
     4
1070
   177
1070
     2
1070
   176
1070
     2
1070
   178
1070
     2
1070
    78
1070
     8
1070
    48
1040
-0.005
1070
    41
1041
4.5
1070
   147
1041
2.25
1070
    42
1041
1.5875
1070
    44
1041
2.0
1070
   140
1041
4.5
1070
   343
1005
0
1070
   344
1005
0
1002
}
0
DIMENSION
5
133
100
AcDbEntity
8
SK2
62
256
6
ByLayer
370
-3
48
1
60
0
100
AcDbDimension
2
DimnDraft3D7
10
74
20
-48.5925
30
0
11
76.258553
21
-48.5925
31
0
70
32
71
5
72
1
41
1
210
0
220
0
230
1
3
Standard
100
AcDbAlignedDimension
13
120
23
-7.5875
33
0
14
74
24
-7.5875
34
0
50
0
100
AcDbRotatedDimension
1001
ACAD
1000
DSTYLE
1002
{
1070
   279
1070
     0
1070
   172
1070
     1
1070
   173
1070
     1
1070
   340
1005
C5
1070
   271
1070
     0
1070
   272
1070
     2
1070
    77
1070
     1
1070
    73
1070
     0
1070
   171
1070
     3
1070
   274
1070
     4
1070
   177
1070
     2
1070
   176
1070
     2
1070
   178
1070
     2
1070
    78
1070
     8
1070
    48
1040
-0.005
1070
    41
1041
4.5
1070
   147
1041
2.25
1070
    42
1041
1.5875
1070
    44
1041
2.0
1070
   140
1041
4.5
1070
   343
1005
0
1070
   344
1005
0
1002
}
0
DIMENSION
5
13E
100
AcDbEntity
8
SK2
62
256
6
ByLayer
370
-3
48
1
60
0
100
AcDbDimension
2
DimnDraft3D8
10
174.25
20
11
30
0
11
174.25
21
-7.878947
31
0
70
32
71
5
72
1
41
1
210
0
220
0
230
1
3
Standard
100
AcDbAlignedDimension
13
121.5875
23
-11
33
0
14
121.5875
24
11
34
0
50
90
100
AcDbRotatedDimension
1001
ACAD
1000
DSTYLE
1002
{
1070
    74
1070
     0
1070
   279
1070
     0
1070
   172
1070
     1
1070
   173
1070
     1
1070
   340
1005
C5
1070
   271
1070
     1
1070
   272
1070
     2
1070
    77
1070
     1
1070
    73
1070
     0
1070
   171
1070
     3
1070
   274
1070
     4
1070
   177
1070
     2
1070
   176
1070
     2
1070
   178
1070
     2
1070
    78
1070
     8
1070
    48
1040
-0.005
1070
    41
1041
4.5
1070
   147
1041
2.25
1070
    42
1041
1.5875
1070
    44
1041
2.0
1070
   140
1041
4.5
1070
   343
1005
0
1070
   344
1005
0
1002
}
0
DIMENSION
5
149
100
AcDbEntity
8
SK2
62
256
6
ByLayer
370
-3
48
1
60
0
100
AcDbDimension
2
DimnDraft3D9
10
155.25
20
-6
30
0
11
155.25
21
17
31
0
70
32
71
5
72
1
41
1
210
0
220
0
230
1
3
Standard
100
AcDbAlignedDimension
13
121.5875
23
6
33
0
14
121.5875
24
-6
34
0
50
90
100
AcDbRotatedDimension
1001
ACAD
1000
DSTYLE
1002
{
1070
    74
1070
     0
1070
   279
1070
     0
1070
   172
1070
     1
1070
   173
1070
     1
1070
   340
1005
C5
1070
   271
1070
     1
1070
   272
1070
     2
1070
    77
1070
     1
1070
    73
1070
     0
1070
   171
1070
     3
1070
   274
1070
     4
1070
   177
1070
     2
1070
   176
1070
     2
1070
   178
1070
     2
1070
    78
1070
     8
1070
    48
1040
-0.005
1070
    41
1041
4.5
1070
   147
1041
2.25
1070
    42
1041
1.5875
1070
    44
1041
2.0
1070
   140
1041
4.5
1070
   343
1005
0
1070
   344
1005
0
1002
}
0
DIMENSION
5
154
100
AcDbEntity
8
SK2
62
256
6
ByLayer
370
-3
48
1
60
0
100
AcDbDimension
2
DimnDraft3D10
10
184.25
20
-20
30
0
11
184.25
21
-8.115789
31
0
70
32
71
5
72
1
41
1
210
0
220
0
230
1
3
Standard
100
AcDbAlignedDimension
13
56.5875
23
20
33
0
14
56.5875
24
-20
34
0
50
90
100
AcDbRotatedDimension
1001
ACAD
1000
DSTYLE
1002
{
1070
    74
1070
     0
1070
   279
1070
     0
1070
   172
1070
     1
1070
   173
1070
     1
1070
   340
1005
C5
1070
   271
1070
     1
1070
   272
1070
     2
1070
    77
1070
     1
1070
    73
1070
     0
1070
   171
1070
     3
1070
   274
1070
     4
1070
   177
1070
     2
1070
   176
1070
     2
1070
   178
1070
     2
1070
    78
1070
     8
1070
    48
1040
-0.005
1070
    41
1041
4.5
1070
   147
1041
2.25
1070
    42
1041
1.5875
1070
    44
1041
2.0
1070
   140
1041
4.5
1070
   343
1005
0
1070
   344
1005
0
1002
}
0
ENDSEC
0
SECTION
2
OBJECTS
0
DICTIONARY
5
186
330
0
100
AcDbDictionary
280
0
281
1
3
ACAD_GROUP
350
187
3
ACAD_MLINESTYLE
350
188
0
DICTIONARY
5
187
330
0
100
AcDbDictionary
280
0
281
1
0
DICTIONARY
5
188
330
0
100
AcDbDictionary
280
0
281
1
3
Standard
350
18
0
MLINESTYLE
5
18
330
188
100
AcDbMlineStyle
2
Standard
70
0
3

62
256
51
90
52
90
71
2
49
-0.5
62
256
6
ByLayer
49
0.5
62
256
6
ByLayer
0
RASTERVARIABLES
5
173
330

100
AcDbRasterVariables
90
0
70
1
71
1
72
1
0
ENDSEC
0
EOF
