0
SECTION
2
HEADER
9
$ACADVER
1
AC1015
9
$DWGCODEPAGE
3
ANSI_1252
9
$HANDSEED
5
196
9
$ANGBASE
50
0
9
$ANGDIR
70
0
9
$ATTMODE
70
1
9
$AUNITS
70
0
9
$AUPREC
70
0
9
$CECOLOR
62
256
9
$CELTSCALE
40
1
9
$CELTYPE
6
ByLayer
9
$CELWEIGHT
370
-1
9
$CLAYER
8
0
9
$CMLJUST
70
0
9
$CMLSCALE
40
1
9
$CMLSTYLE
2
Standard
9
$DIMSTYLE
2
Standard
9
$TEXTSIZE
40
0.2
9
$TEXTSTYLE
7
Standard
9
$LUNITS
70
2
9
$LUPREC
70
4
9
$EXTNAMES
290
1
9
$INSUNITS
70
4
9
$LTSCALE
40
1
9
$LWDISPLAY
290
0
9
$PDMODE
70
0
9
$PDSIZE
40
0
9
$PLINEGEN
70
0
0
ENDSEC
0
SECTION
2
CLASSES
0
CLASS
1
RASTERVARIABLES
2
AcDbRasterVariables
3
ISM
90
0
280
0
281
0
0
ENDSEC
0
SECTION
2
TABLES
0
TABLE
2
VPORT
5
18c
100
AcDbSymbolTable
0
VPORT
5
1
100
AcDbSymbolTableRecord
100
AcDbViewportTableRecord
2
*Active
70
0
10
0
20
0
11
1
21
1
12
-1
22
1
13
0
23
0
14
0.5
24
0.5
15
10
25
10
16
0
26
0
36
1
17
0
27
0
37
0
0
ENDTAB
0
TABLE
2
LTYPE
5
18d
100
AcDbSymbolTable
0
LTYPE
5
14
100
AcDbSymbolTableRecord
100
AcDbLinetypeTableRecord
70
0
2
ByBlock
3

72
65
73
0
40
0
0
LTYPE
5
15
100
AcDbSymbolTableRecord
100
AcDbLinetypeTableRecord
70
0
2
ByLayer
3

72
65
73
0
40
0
0
LTYPE
5
16
100
AcDbSymbolTableRecord
100
AcDbLinetypeTableRecord
70
0
2
CONTINUOUS
3
Solid line
72
65
73
0
40
0
0
LTYPE
5
3B
100
AcDbSymbolTableRecord
100
AcDbLinetypeTableRecord
70
0
2
DASHED
3
__ __ __ __ __ __ __ __ __
72
65
73
2
40
25.72
49
12.86
74
0
49
-12.86
74
0
0
LTYPE
5
3C
100
AcDbSymbolTableRecord
100
AcDbLinetypeTableRecord
70
0
2
HIDDEN
3
_ _ _ _ _ _ _ _ _ _ _ _ _ _ _
72
65
73
2
40
0.5
49
0.25
74
0
49
-0.25
74
0
0
LTYPE
5
3D
100
AcDbSymbolTableRecord
100
AcDbLinetypeTableRecord
70
0
2
PHANTOM
3
____ _ _ ____ _ _ _____ _ _ ____
72
65
73
6
40
50.5
49
18
74
0
49
-6.5
74
0
49
6.5
74
0
49
-6.5
74
0
49
6.5
74
0
49
-6.5
74
0
0
LTYPE
5
3E
100
AcDbSymbolTableRecord
100
AcDbLinetypeTableRecord
70
0
2
CENTER
3
____ _ ____ _ ____ _ ____
72
65
73
4
40
47.5
49
22
74
0
49
-8.5
74
0
49
8.5
74
0
49
-8.5
74
0
0
LTYPE
5
3F
100
AcDbSymbolTableRecord
100
AcDbLinetypeTableRecord
70
0
2
DOT
3
.........................
72
65
73
2
40
10
49
0
74
0
49
-10
74
0
0
LTYPE
5
40
100
AcDbSymbolTableRecord
100
AcDbLinetypeTableRecord
70
0
2
DASHDOT
3
_._._._._._._._._._._._._._._._.
72
65
73
4
40
70
49
31
74
0
49
-13
74
0
49
13
74
0
49
-13
74
0
0
ENDTAB
0
TABLE
2
LAYER
5
18e
100
AcDbSymbolTable
0
LAYER
5
10
100
AcDbSymbolTableRecord
100
AcDbLayerTableRecord
2
0
70
0
62
7
6
CONTINUOUS
290
1
370
-3
390
0
0
LAYER
5
42
100
AcDbSymbolTableRecord
100
AcDbLayerTableRecord
2
80
70
0
62
-6
6
CONTINUOUS
290
1
370
-3
390
0
0
LAYER
5
44
100
AcDbSymbolTableRecord
100
AcDbLayerTableRecord
2
81
70
0
62
-3
6
CONTINUOUS
290
1
370
-3
390
0
0
LAYER
5
4C
100
AcDbSymbolTableRecord
100
AcDbLayerTableRecord
2
4
70
0
62
-2
6
CENTER
290
1
370
-3
390
0
0
LAYER
5
56
100
AcDbSymbolTableRecord
100
AcDbLayerTableRecord
2
1
70
0
62
4
6
CONTINUOUS
290
1
370
-3
390
0
0
LAYER
5
FC
100
AcDbSymbolTableRecord
100
AcDbLayerTableRecord
2
2
70
0
62
7
6
CONTINUOUS
290
1
370
-3
390
0
0
LAYER
5
177
100
AcDbSymbolTableRecord
100
AcDbLayerTableRecord
2
SK2
70
0
62
7
6
CONTINUOUS
290
1
370
-3
390
0
0
LAYER
5
178
100
AcDbSymbolTableRecord
100
AcDbLayerTableRecord
2
SK3
70
0
62
1
6
DASHED
290
1
370
-3
390
0
0
LAYER
5
179
100
AcDbSymbolTableRecord
100
AcDbLayerTableRecord
2
SK4
70
0
62
2
6
CENTER
290
1
370
-3
390
0
0
LAYER
5
17a
100
AcDbSymbolTableRecord
100
AcDbLayerTableRecord
2
SK1
70
0
62
4
6
CONTINUOUS
290
1
370
-3
390
0
0
LAYER
5
17b
100
AcDbSymbolTableRecord
100
AcDbLayerTableRecord
2
SK6
70
0
62
5
6
CONTINUOUS
290
1
370
-3
390
0
0
ENDTAB
0
TABLE
2
STYLE
5
18f
100
AcDbSymbolTable
0
STYLE
5
11
100
AcDbSymbolTableRecord
100
AcDbTextStyleTableRecord
2
Standard
3
txt
70
0
71
0
40
0
41
1
42
0
50
0
0
STYLE
5
BE
100
AcDbSymbolTableRecord
100
AcDbTextStyleTableRecord
2
DEFAULT
3
simplex.shx
70
0
71
0
40
0
41
1
42
0
50
0
0
STYLE
5
E1
100
AcDbSymbolTableRecord
100
AcDbTextStyleTableRecord
2
DWGDirectTextStyle
3
SIMPLEX
70
0
71
0
40
0
41
1
42
0
50
0
0
ENDTAB
0
TABLE
2
DIMSTYLE
5
190
100
AcDbSymbolTable
100
AcDbDimStyleTable
0
DIMSTYLE
105
27
100
AcDbSymbolTableRecord
100
AcDbDimStyleTableRecord
2
Standard
70
0
3
<>
41
0.18
42
0.0625
44
0.18
140
0.18
147
0.09
73
0
74
0
77
1
271
2
275
0
278
52
280
0
340
11
0
ENDTAB
0
TABLE
2
VIEW
5
191
100
AcDbSymbolTable
0
ENDTAB
0
TABLE
2
UCS
5
192
100
AcDbSymbolTable
0
ENDTAB
0
TABLE
2
APPID
5
193
100
AcDbSymbolTable
0
APPID
5
12
100
AcDbSymbolTableRecord
100
AcDbRegAppTableRecord
2
ACAD
70
0
0
ENDTAB
0
TABLE
2
BLOCK_RECORD
5
194
100
AcDbSymbolTable
0
BLOCK_RECORD
5
1F
100
AcDbSymbolTableRecord
100
AcDbBlockTableRecord
2
*Model_Space
340
0
70
0
0
BLOCK_RECORD
5
1B
100
AcDbSymbolTableRecord
100
AcDbBlockTableRecord
2
*Paper_Space
340
0
70
0
0
BLOCK_RECORD
5
23
100
AcDbSymbolTableRecord
100
AcDbBlockTableRecord
2
*Paper_Space0
340
0
70
0
0
BLOCK_RECORD
5
E5
100
AcDbSymbolTableRecord
100
AcDbBlockTableRecord
2
DimnDraft3D1
340
0
70
0
0
BLOCK_RECORD
5
F0
100
AcDbSymbolTableRecord
100
AcDbBlockTableRecord
2
DimnDraft3D2
340
0
70
0
0
BLOCK_RECORD
5
FA
100
AcDbSymbolTableRecord
100
AcDbBlockTableRecord
2
DimnDraft3D3
340
0
70
0
0
BLOCK_RECORD
5
105
100
AcDbSymbolTableRecord
100
AcDbBlockTableRecord
2
DimnDraft3D4
340
0
70
0
0
BLOCK_RECORD
5
10F
100
AcDbSymbolTableRecord
100
AcDbBlockTableRecord
2
DimnDraft3D5
340
0
70
0
0
BLOCK_RECORD
5
119
100
AcDbSymbolTableRecord
100
AcDbBlockTableRecord
2
DimnDraft3D6
340
0
70
0
0
BLOCK_RECORD
5
123
100
AcDbSymbolTableRecord
100
AcDbBlockTableRecord
2
DimnDraft3D7
340
0
70
0
0
BLOCK_RECORD
5
12D
100
AcDbSymbolTableRecord
100
AcDbBlockTableRecord
2
DimnDraft3D8
340
0
70
0
0
BLOCK_RECORD
5
137
100
AcDbSymbolTableRecord
100
AcDbBlockTableRecord
2
DimnDraft3D9
340
0
70
0
0
BLOCK_RECORD
5
142
100
AcDbSymbolTableRecord
100
AcDbBlockTableRecord
2
DimnDraft3D10
340
0
70
0
0
BLOCK_RECORD
5
14D
100
AcDbSymbolTableRecord
100
AcDbBlockTableRecord
2
DimnDraft3D11
340
0
70
0
0
ENDTAB
0
ENDSEC
0
SECTION
2
BLOCKS
0
BLOCK
5
20
100
AcDbEntity
8
0
100
AcDbBlockBegin
2
*Model_Space
70
0
10
0
20
0
30
0
3
*Model_Space
0
ENDBLK
5
21
100
AcDbEntity
8
0
100
AcDbBlockEnd
0
BLOCK
5
1C
100
AcDbEntity
8
0
100
AcDbBlockBegin
2
*Paper_Space
70
0
10
0
20
0
30
0
3
*Paper_Space
0
ENDBLK
5
1D
100
AcDbEntity
8
0
100
AcDbBlockEnd
0
BLOCK
5
24
100
AcDbEntity
8
0
100
AcDbBlockBegin
2
*Paper_Space0
70
0
10
0
20
0
30
0
3
*Paper_Space0
0
ENDBLK
5
25
100
AcDbEntity
8
0
100
AcDbBlockEnd
0
BLOCK
5
ED
100
AcDbEntity
8
0
100
AcDbBlockBegin
2
DimnDraft3D1
70
0
10
0
20
0
30
0
3
DimnDraft3D1
0
MTEXT
5
E6
100
AcDbEntity
8
SK2
62
256
6
ByLayer
370
-1
48
1
60
0
100
AcDbMText
10
-60.35
20
2.996053
30
0
210
0
220
0
230
1
1
\W01.000;\fsimplex.shx,bigfont.shx;50 
40
4.5
41
0
44
1.084337
50
90
71
7
72
5
7
DEFAULT
0
MTEXT
5
E7
100
AcDbEntity
8
SK2
62
256
6
ByLayer
370
-1
48
1
60
0
100
AcDbMText
10
-60.35
20
-6.003947
30
0
210
0
220
0
230
1
1
\W01.000;\fsimplex.shx,bigfont.shx;%%c 
40
4.5
41
0
44
1.084337
50
90
71
7
72
5
7
DEFAULT
0
LINE
5
E8
100
AcDbEntity
8
SK2
62
256
6
ByLayer
370
-1
48
1
60
0
100
AcDbLine
10
-1.5875
20
-24.99
30
0
11
-60.1
21
-24.99
31
0
39
0
210
0
220
0
230
1
0
LINE
5
E9
100
AcDbEntity
8
SK2
62
256
6
ByLayer
370
-1
48
1
60
0
100
AcDbLine
10
-1.5875
20
24.99
30
0
11
-60.1
21
24.99
31
0
39
0
210
0
220
0
230
1
0
LINE
5
EA
100
AcDbEntity
8
SK2
62
256
6
ByLayer
370
-1
48
1
60
0
100
AcDbLine
10
-58.1
20
-24.99
30
0
11
-58.1
21
24.99
31
0
39
0
210
0
220
0
230
1
0
SOLID
5
EB
100
AcDbEntity
8
SK2
62
256
6
ByLayer
370
-1
48
1
60
0
100
AcDbTrace
10
-58.1
20
-24.99
30
0
11
-59.097626
21
-20.490004
31
0
12
-57.102374
22
-20.489996
32
0
13
-58.1
23
-24.99
33
0
39
0
210
0
220
0
230
1
0
SOLID
5
EC
100
AcDbEntity
8
SK2
62
256
6
ByLayer
370
-1
48
1
60
0
100
AcDbTrace
10
-58.1
20
24.99
30
0
11
-57.102374
21
20.490004
31
0
12
-59.097626
22
20.489996
32
0
13
-58.1
23
24.99
33
0
39
0
210
0
220
0
230
1
0
ENDBLK
5
EE
100
AcDbEntity
8
0
100
AcDbBlockEnd
0
BLOCK
5
F7
100
AcDbEntity
8
0
100
AcDbBlockBegin
2
DimnDraft3D2
70
0
10
0
20
0
30
0
3
DimnDraft3D2
0
MTEXT
5
F1
100
AcDbEntity
8
SK2
62
256
6
ByLayer
370
-1
48
1
60
0
100
AcDbMText
10
83.406579
20
54.215
30
0
210
0
220
0
230
1
1
\W01.000;\fsimplex.shx,bigfont.shx;130 
40
4.5
41
0
44
1.084337
50
0
71
7
72
5
7
DEFAULT
0
LINE
5
F2
100
AcDbEntity
8
SK2
62
256
6
ByLayer
370
-1
48
1
60
0
100
AcDbLine
10
21
20
22.5875
30
0
11
21
21
55.09
31
0
39
0
210
0
220
0
230
1
0
LINE
5
F3
100
AcDbEntity
8
SK2
62
256
6
ByLayer
370
-1
48
1
60
0
100
AcDbLine
10
151
20
11.5875
30
0
11
151
21
55.09
31
0
39
0
210
0
220
0
230
1
0
LINE
5
F4
100
AcDbEntity
8
SK2
62
256
6
ByLayer
370
-1
48
1
60
0
100
AcDbLine
10
21
20
53.09
30
0
11
151
21
53.09
31
0
39
0
210
0
220
0
230
1
0
SOLID
5
F5
100
AcDbEntity
8
SK2
62
256
6
ByLayer
370
-1
48
1
60
0
100
AcDbTrace
10
21
20
53.09
30
0
11
25.499996
21
54.087626
31
0
12
25.500004
22
52.092374
32
0
13
21
23
53.09
33
0
39
0
210
0
220
0
230
1
0
SOLID
5
F6
100
AcDbEntity
8
SK2
62
256
6
ByLayer
370
-1
48
1
60
0
100
AcDbTrace
10
151
20
53.09
30
0
11
146.500004
21
52.092374
31
0
12
146.499996
22
54.087626
32
0
13
151
23
53.09
33
0
39
0
210
0
220
0
230
1
0
ENDBLK
5
F8
100
AcDbEntity
8
0
100
AcDbBlockEnd
0
BLOCK
5
102
100
AcDbEntity
8
0
100
AcDbBlockBegin
2
DimnDraft3D3
70
0
10
0
20
0
30
0
3
DimnDraft3D3
0
MTEXT
5
FB
100
AcDbEntity
8
2
62
256
6
ByLayer
370
-1
48
1
60
0
100
AcDbMText
10
73.469079
20
65.215
30
0
210
0
220
0
230
1
1
\W01.000;\fsimplex.shx,bigfont.shx;151 
40
4.5
41
0
44
1.084337
50
0
71
7
72
5
7
DEFAULT
0
LINE
5
FD
100
AcDbEntity
8
2
62
256
6
ByLayer
370
-1
48
1
60
0
100
AcDbLine
10
0
20
23.6425
30
0
11
0
21
66.09
31
0
39
0
210
0
220
0
230
1
0
LINE
5
FE
100
AcDbEntity
8
2
62
256
6
ByLayer
370
-1
48
1
60
0
100
AcDbLine
10
151
20
17.5875
30
0
11
151
21
66.09
31
0
39
0
210
0
220
0
230
1
0
LINE
5
FF
100
AcDbEntity
8
2
62
256
6
ByLayer
370
-1
48
1
60
0
100
AcDbLine
10
0
20
64.09
30
0
11
151
21
64.09
31
0
39
0
210
0
220
0
230
1
0
SOLID
5
100
100
AcDbEntity
8
2
62
256
6
ByLayer
370
-1
48
1
60
0
100
AcDbTrace
10
0
20
64.09
30
0
11
4.499996
21
65.087626
31
0
12
4.500004
22
63.092374
32
0
13
0
23
64.09
33
0
39
0
210
0
220
0
230
1
0
SOLID
5
101
100
AcDbEntity
8
2
62
256
6
ByLayer
370
-1
48
1
60
0
100
AcDbTrace
10
151
20
64.09
30
0
11
146.500004
21
63.092374
31
0
12
146.499996
22
65.087626
32
0
13
151
23
64.09
33
0
39
0
210
0
220
0
230
1
0
ENDBLK
5
103
100
AcDbEntity
8
0
100
AcDbBlockEnd
0
BLOCK
5
10C
100
AcDbEntity
8
0
100
AcDbBlockBegin
2
DimnDraft3D4
70
0
10
0
20
0
30
0
3
DimnDraft3D4
0
MTEXT
5
106
100
AcDbEntity
8
SK2
62
256
6
ByLayer
370
-1
48
1
60
0
100
AcDbMText
10
8.496053
20
45.215
30
0
210
0
220
0
230
1
1
\W01.000;\fsimplex.shx,bigfont.shx;20 
40
4.5
41
0
44
1.084337
50
0
71
7
72
5
7
DEFAULT
0
LINE
5
107
100
AcDbEntity
8
SK2
62
256
6
ByLayer
370
-1
48
1
60
0
100
AcDbLine
10
0
20
23.6425
30
0
11
0
21
46.09
31
0
39
0
210
0
220
0
230
1
0
LINE
5
108
100
AcDbEntity
8
SK2
62
256
6
ByLayer
370
-1
48
1
60
0
100
AcDbLine
10
20
20
26.5775
30
0
11
20
21
46.09
31
0
39
0
210
0
220
0
230
1
0
LINE
5
109
100
AcDbEntity
8
SK2
62
256
6
ByLayer
370
-1
48
1
60
0
100
AcDbLine
10
0
20
44.09
30
0
11
20
21
44.09
31
0
39
0
210
0
220
0
230
1
0
SOLID
5
10A
100
AcDbEntity
8
SK2
62
256
6
ByLayer
370
-1
48
1
60
0
100
AcDbTrace
10
0
20
44.09
30
0
11
4.499996
21
45.087626
31
0
12
4.500004
22
43.092374
32
0
13
0
23
44.09
33
0
39
0
210
0
220
0
230
1
0
SOLID
5
10B
100
AcDbEntity
8
SK2
62
256
6
ByLayer
370
-1
48
1
60
0
100
AcDbTrace
10
20
20
44.09
30
0
11
15.500004
21
43.092374
31
0
12
15.499996
22
45.087626
32
0
13
20
23
44.09
33
0
39
0
210
0
220
0
230
1
0
ENDBLK
5
10D
100
AcDbEntity
8
0
100
AcDbBlockEnd
0
BLOCK
5
116
100
AcDbEntity
8
0
100
AcDbBlockBegin
2
DimnDraft3D5
70
0
10
0
20
0
30
0
3
DimnDraft3D5
0
MTEXT
5
110
100
AcDbEntity
8
SK2
62
256
6
ByLayer
370
-1
48
1
60
0
100
AcDbMText
10
119.496053
20
35.215
30
0
210
0
220
0
230
1
1
\W01.000;\fsimplex.shx,bigfont.shx;60 
40
4.5
41
0
44
1.084337
50
0
71
7
72
5
7
DEFAULT
0
LINE
5
111
100
AcDbEntity
8
SK2
62
256
6
ByLayer
370
-1
48
1
60
0
100
AcDbLine
10
151
20
17.5875
30
0
11
151
21
36.09
31
0
39
0
210
0
220
0
230
1
0
LINE
5
112
100
AcDbEntity
8
SK2
62
256
6
ByLayer
370
-1
48
1
60
0
100
AcDbLine
10
91
20
17.5875
30
0
11
91
21
36.09
31
0
39
0
210
0
220
0
230
1
0
LINE
5
113
100
AcDbEntity
8
SK2
62
256
6
ByLayer
370
-1
48
1
60
0
100
AcDbLine
10
151
20
34.09
30
0
11
91
21
34.09
31
0
39
0
210
0
220
0
230
1
0
SOLID
5
114
100
AcDbEntity
8
SK2
62
256
6
ByLayer
370
-1
48
1
60
0
100
AcDbTrace
10
151
20
34.09
30
0
11
146.500004
21
33.092374
31
0
12
146.499996
22
35.087626
32
0
13
151
23
34.09
33
0
39
0
210
0
220
0
230
1
0
SOLID
5
115
100
AcDbEntity
8
SK2
62
256
6
ByLayer
370
-1
48
1
60
0
100
AcDbTrace
10
91
20
34.09
30
0
11
95.499996
21
35.087626
31
0
12
95.500004
22
33.092374
32
0
13
91
23
34.09
33
0
39
0
210
0
220
0
230
1
0
ENDBLK
5
117
100
AcDbEntity
8
0
100
AcDbBlockEnd
0
BLOCK
5
120
100
AcDbEntity
8
0
100
AcDbBlockBegin
2
DimnDraft3D6
70
0
10
0
20
0
30
0
3
DimnDraft3D6
0
MTEXT
5
11A
100
AcDbEntity
8
SK2
62
256
6
ByLayer
370
-1
48
1
60
0
100
AcDbMText
10
94.406579
20
45.215
30
0
210
0
220
0
230
1
1
\W01.000;\fsimplex.shx,bigfont.shx;108 
40
4.5
41
0
44
1.084337
50
0
71
7
72
5
7
DEFAULT
0
LINE
5
11B
100
AcDbEntity
8
SK2
62
256
6
ByLayer
370
-1
48
1
60
0
100
AcDbLine
10
151
20
17.5875
30
0
11
151
21
46.09
31
0
39
0
210
0
220
0
230
1
0
LINE
5
11C
100
AcDbEntity
8
SK2
62
256
6
ByLayer
370
-1
48
1
60
0
100
AcDbLine
10
43
20
21.5875
30
0
11
43
21
46.09
31
0
39
0
210
0
220
0
230
1
0
LINE
5
11D
100
AcDbEntity
8
SK2
62
256
6
ByLayer
370
-1
48
1
60
0
100
AcDbLine
10
151
20
44.09
30
0
11
43
21
44.09
31
0
39
0
210
0
220
0
230
1
0
SOLID
5
11E
100
AcDbEntity
8
SK2
62
256
6
ByLayer
370
-1
48
1
60
0
100
AcDbTrace
10
151
20
44.09
30
0
11
146.500004
21
43.092374
31
0
12
146.499996
22
45.087626
32
0
13
151
23
44.09
33
0
39
0
210
0
220
0
230
1
0
SOLID
5
11F
100
AcDbEntity
8
SK2
62
256
6
ByLayer
370
-1
48
1
60
0
100
AcDbTrace
10
43
20
44.09
30
0
11
47.499996
21
45.087626
31
0
12
47.500004
22
43.092374
32
0
13
43
23
44.09
33
0
39
0
210
0
220
0
230
1
0
ENDBLK
5
121
100
AcDbEntity
8
0
100
AcDbBlockEnd
0
BLOCK
5
12A
100
AcDbEntity
8
0
100
AcDbBlockBegin
2
DimnDraft3D7
70
0
10
0
20
0
30
0
3
DimnDraft3D7
0
MTEXT
5
124
100
AcDbEntity
8
SK2
62
256
6
ByLayer
370
-1
48
1
60
0
100
AcDbMText
10
-16.503947
20
65.215
30
0
210
0
220
0
230
1
1
\W01.000;\fsimplex.shx,bigfont.shx;30 
40
4.5
41
0
44
1.084337
50
0
71
7
72
5
7
DEFAULT
0
LINE
5
125
100
AcDbEntity
8
SK2
62
256
6
ByLayer
370
-1
48
1
60
0
100
AcDbLine
10
0
20
23.6425
30
0
11
0
21
66.09
31
0
39
0
210
0
220
0
230
1
0
LINE
5
126
100
AcDbEntity
8
SK2
62
256
6
ByLayer
370
-1
48
1
60
0
100
AcDbLine
10
-30
20
19.5875
30
0
11
-30
21
66.09
31
0
39
0
210
0
220
0
230
1
0
LINE
5
127
100
AcDbEntity
8
SK2
62
256
6
ByLayer
370
-1
48
1
60
0
100
AcDbLine
10
0
20
64.09
30
0
11
-30
21
64.09
31
0
39
0
210
0
220
0
230
1
0
SOLID
5
128
100
AcDbEntity
8
SK2
62
256
6
ByLayer
370
-1
48
1
60
0
100
AcDbTrace
10
0
20
64.09
30
0
11
-4.499996
21
63.092374
31
0
12
-4.500004
22
65.087626
32
0
13
0
23
64.09
33
0
39
0
210
0
220
0
230
1
0
SOLID
5
129
100
AcDbEntity
8
SK2
62
256
6
ByLayer
370
-1
48
1
60
0
100
AcDbTrace
10
-30
20
64.09
30
0
11
-25.500004
21
65.087626
31
0
12
-25.499996
22
63.092374
32
0
13
-30
23
64.09
33
0
39
0
210
0
220
0
230
1
0
ENDBLK
5
12B
100
AcDbEntity
8
0
100
AcDbBlockEnd
0
BLOCK
5
134
100
AcDbEntity
8
0
100
AcDbBlockBegin
2
DimnDraft3D8
70
0
10
0
20
0
30
0
3
DimnDraft3D8
0
MTEXT
5
12E
100
AcDbEntity
8
SK2
62
256
6
ByLayer
370
-1
48
1
60
0
100
AcDbMText
10
107.008553
20
-32.465
30
0
210
0
220
0
230
1
1
\W01.000;\fsimplex.shx,bigfont.shx;min 41-max 51 
40
4.5
41
0
44
1.084337
50
0
71
7
72
5
7
DEFAULT
0
LINE
5
12F
100
AcDbEntity
8
SK2
62
256
6
ByLayer
370
-1
48
1
60
0
100
AcDbLine
10
151
20
-11.5875
30
0
11
151
21
-35.59
31
0
39
0
210
0
220
0
230
1
0
LINE
5
130
100
AcDbEntity
8
SK2
62
256
6
ByLayer
370
-1
48
1
60
0
100
AcDbLine
10
100
20
-11.5875
30
0
11
100
21
-35.59
31
0
39
0
210
0
220
0
230
1
0
LINE
5
131
100
AcDbEntity
8
SK2
62
256
6
ByLayer
370
-1
48
1
60
0
100
AcDbLine
10
162.25
20
-33.59
30
0
11
88.75
21
-33.59
31
0
39
0
210
0
220
0
230
1
0
SOLID
5
132
100
AcDbEntity
8
SK2
62
256
6
ByLayer
370
-1
48
1
60
0
100
AcDbTrace
10
151
20
-33.59
30
0
11
155.499996
21
-32.592374
31
0
12
155.500004
22
-34.587626
32
0
13
151
23
-33.59
33
0
39
0
210
0
220
0
230
1
0
SOLID
5
133
100
AcDbEntity
8
SK2
62
256
6
ByLayer
370
-1
48
1
60
0
100
AcDbTrace
10
100
20
-33.59
30
0
11
95.500004
21
-34.587626
31
0
12
95.499996
22
-32.592374
32
0
13
100
23
-33.59
33
0
39
0
210
0
220
0
230
1
0
ENDBLK
5
135
100
AcDbEntity
8
0
100
AcDbBlockEnd
0
BLOCK
5
13F
100
AcDbEntity
8
0
100
AcDbBlockBegin
2
DimnDraft3D9
70
0
10
0
20
0
30
0
3
DimnDraft3D9
0
MTEXT
5
138
100
AcDbEntity
8
SK2
62
256
6
ByLayer
370
-1
48
1
60
0
100
AcDbMText
10
223.25
20
3.746053
30
0
210
0
220
0
230
1
1
\W01.000;\fsimplex.shx,bigfont.shx;32 
40
4.5
41
0
44
1.084337
50
90
71
7
72
5
7
DEFAULT
0
MTEXT
5
139
100
AcDbEntity
8
SK2
62
256
6
ByLayer
370
-1
48
1
60
0
100
AcDbMText
10
223
20
-7.003947
30
0
210
0
220
0
230
1
1
\W01.000;\fsimplex.shx,bigfont.shx;%%c 
40
3.5
41
0
44
1.084337
50
90
71
7
72
5
7
DEFAULT
0
LINE
5
13A
100
AcDbEntity
8
SK2
62
256
6
ByLayer
370
-1
48
1
60
0
100
AcDbLine
10
152.5875
20
-16
30
0
11
227.25
21
-16
31
0
39
0
210
0
220
0
230
1
0
LINE
5
13B
100
AcDbEntity
8
SK2
62
256
6
ByLayer
370
-1
48
1
60
0
100
AcDbLine
10
152.5875
20
16
30
0
11
227.25
21
16
31
0
39
0
210
0
220
0
230
1
0
LINE
5
13C
100
AcDbEntity
8
SK2
62
256
6
ByLayer
370
-1
48
1
60
0
100
AcDbLine
10
225.25
20
-16
30
0
11
225.25
21
16
31
0
39
0
210
0
220
0
230
1
0
SOLID
5
13D
100
AcDbEntity
8
SK2
62
256
6
ByLayer
370
-1
48
1
60
0
100
AcDbTrace
10
225.25
20
-16
30
0
11
224.252374
21
-11.500004
31
0
12
226.247626
22
-11.499996
32
0
13
225.25
23
-16
33
0
39
0
210
0
220
0
230
1
0
SOLID
5
13E
100
AcDbEntity
8
SK2
62
256
6
ByLayer
370
-1
48
1
60
0
100
AcDbTrace
10
225.25
20
16
30
0
11
226.247626
21
11.500004
31
0
12
224.252374
22
11.499996
32
0
13
225.25
23
16
33
0
39
0
210
0
220
0
230
1
0
ENDBLK
5
140
100
AcDbEntity
8
0
100
AcDbBlockEnd
0
BLOCK
5
14A
100
AcDbEntity
8
0
100
AcDbBlockBegin
2
DimnDraft3D10
70
0
10
0
20
0
30
0
3
DimnDraft3D10
0
MTEXT
5
143
100
AcDbEntity
8
SK2
62
256
6
ByLayer
370
-1
48
1
60
0
100
AcDbMText
10
233.25
20
3.509211
30
0
210
0
220
0
230
1
1
\W01.000;\fsimplex.shx,bigfont.shx;42 
40
4.5
41
0
44
1.084337
50
90
71
7
72
5
7
DEFAULT
0
MTEXT
5
144
100
AcDbEntity
8
SK2
62
256
6
ByLayer
370
-1
48
1
60
0
100
AcDbMText
10
233
20
-7.240789
30
0
210
0
220
0
230
1
1
\W01.000;\fsimplex.shx,bigfont.shx;%%c 
40
3.5
41
0
44
1.084337
50
90
71
7
72
5
7
DEFAULT
0
LINE
5
145
100
AcDbEntity
8
SK2
62
256
6
ByLayer
370
-1
48
1
60
0
100
AcDbLine
10
44.5875
20
21
30
0
11
237.25
21
21
31
0
39
0
210
0
220
0
230
1
0
LINE
5
146
100
AcDbEntity
8
SK2
62
256
6
ByLayer
370
-1
48
1
60
0
100
AcDbLine
10
44.5875
20
-21
30
0
11
237.25
21
-21
31
0
39
0
210
0
220
0
230
1
0
LINE
5
147
100
AcDbEntity
8
SK2
62
256
6
ByLayer
370
-1
48
1
60
0
100
AcDbLine
10
235.25
20
21
30
0
11
235.25
21
-21
31
0
39
0
210
0
220
0
230
1
0
SOLID
5
148
100
AcDbEntity
8
SK2
62
256
6
ByLayer
370
-1
48
1
60
0
100
AcDbTrace
10
235.25
20
21
30
0
11
236.247626
21
16.500004
31
0
12
234.252374
22
16.499996
32
0
13
235.25
23
21
33
0
39
0
210
0
220
0
230
1
0
SOLID
5
149
100
AcDbEntity
8
SK2
62
256
6
ByLayer
370
-1
48
1
60
0
100
AcDbTrace
10
235.25
20
-21
30
0
11
234.252374
21
-16.500004
31
0
12
236.247626
22
-16.499996
32
0
13
235.25
23
-21
33
0
39
0
210
0
220
0
230
1
0
ENDBLK
5
14B
100
AcDbEntity
8
0
100
AcDbBlockEnd
0
BLOCK
5
155
100
AcDbEntity
8
0
100
AcDbBlockBegin
2
DimnDraft3D11
70
0
10
0
20
0
30
0
3
DimnDraft3D11
0
MTEXT
5
14E
100
AcDbEntity
8
SK2
62
256
6
ByLayer
370
-1
48
1
60
0
100
AcDbMText
10
204.25
20
3.746053
30
0
210
0
220
0
230
1
1
\W01.000;\fsimplex.shx,bigfont.shx;20 
40
4.5
41
0
44
1.084337
50
90
71
7
72
5
7
DEFAULT
0
MTEXT
5
14F
100
AcDbEntity
8
SK2
62
256
6
ByLayer
370
-1
48
1
60
0
100
AcDbMText
10
204
20
-7.003947
30
0
210
0
220
0
230
1
1
\W01.000;\fsimplex.shx,bigfont.shx;%%c 
40
3.5
41
0
44
1.084337
50
90
71
7
72
5
7
DEFAULT
0
LINE
5
150
100
AcDbEntity
8
SK2
62
256
6
ByLayer
370
-1
48
1
60
0
100
AcDbLine
10
152.5875
20
10
30
0
11
208.25
21
10
31
0
39
0
210
0
220
0
230
1
0
LINE
5
151
100
AcDbEntity
8
SK2
62
256
6
ByLayer
370
-1
48
1
60
0
100
AcDbLine
10
152.5875
20
-10
30
0
11
208.25
21
-10
31
0
39
0
210
0
220
0
230
1
0
LINE
5
152
100
AcDbEntity
8
SK2
62
256
6
ByLayer
370
-1
48
1
60
0
100
AcDbLine
10
206.25
20
21.25
30
0
11
206.25
21
-21.25
31
0
39
0
210
0
220
0
230
1
0
SOLID
5
153
100
AcDbEntity
8
SK2
62
256
6
ByLayer
370
-1
48
1
60
0
100
AcDbTrace
10
206.25
20
10
30
0
11
205.252374
21
14.499996
31
0
12
207.247626
22
14.500004
32
0
13
206.25
23
10
33
0
39
0
210
0
220
0
230
1
0
SOLID
5
154
100
AcDbEntity
8
SK2
62
256
6
ByLayer
370
-1
48
1
60
0
100
AcDbTrace
10
206.25
20
-10
30
0
11
207.247626
21
-14.499996
31
0
12
205.252374
22
-14.500004
32
0
13
206.25
23
-10
33
0
39
0
210
0
220
0
230
1
0
ENDBLK
5
156
100
AcDbEntity
8
0
100
AcDbBlockEnd
0
ENDSEC
0
SECTION
2
ENTITIES
0
ARC
5
8D
100
AcDbEntity
8
1
62
256
6
ByLayer
370
-1
48
1
60
0
100
AcDbCircle
39
0
10
19.219698
20
23.99
30
0
40
1
210
0
220
0
230
1
100
AcDbArc
50
14.070026
51
90
0
ARC
5
8E
100
AcDbEntity
8
1
62
256
6
ByLayer
370
-1
48
1
60
0
100
AcDbCircle
39
0
10
19.219698
20
-23.99
30
0
40
1
210
0
220
0
230
1
100
AcDbArc
50
270
51
345.929974
0
ARC
5
8F
100
AcDbEntity
8
1
62
256
6
ByLayer
370
-1
48
1
60
0
100
AcDbCircle
39
0
10
-22.950755
20
-23.5
30
0
40
2.5
210
0
220
0
230
-1
100
AcDbArc
50
14.070026
51
90
0
ARC
5
90
100
AcDbEntity
8
1
62
256
6
ByLayer
370
-1
48
1
60
0
100
AcDbCircle
39
0
10
-22.950755
20
23.5
30
0
40
2.5
210
0
220
0
230
-1
100
AcDbArc
50
270
51
345.929974
0
ARC
5
91
100
AcDbEntity
8
1
62
256
6
ByLayer
370
-1
48
1
60
0
100
AcDbCircle
39
0
10
40.402859
20
29
30
0
40
50
210
0
220
0
230
1
100
AcDbArc
50
270
51
275.946863
0
ARC
5
92
100
AcDbEntity
8
1
62
256
6
ByLayer
370
-1
48
1
60
0
100
AcDbCircle
39
0
10
40.402859
20
-29
30
0
40
50
210
0
220
0
230
1
100
AcDbArc
50
84.053137
51
90
0
ARC
5
93
100
AcDbEntity
8
1
62
256
6
ByLayer
370
-1
48
1
60
0
100
AcDbCircle
39
0
10
-93.59714
20
-66
30
0
40
50
210
0
220
0
230
-1
100
AcDbArc
50
84.053137
51
90
0
ARC
5
94
100
AcDbEntity
8
1
62
256
6
ByLayer
370
-1
48
1
60
0
100
AcDbCircle
39
0
10
-93.59714
20
66
30
0
40
50
210
0
220
0
230
-1
100
AcDbArc
50
270
51
275.946863
0
ARC
5
95
100
AcDbEntity
8
1
62
256
6
ByLayer
370
-1
48
1
60
0
100
AcDbCircle
39
0
10
150.2
20
-14.969571
30
0
40
0.800000000000011
210
0
220
0
230
1
100
AcDbArc
50
282
51
0
0
ARC
5
96
100
AcDbEntity
8
1
62
256
6
ByLayer
370
-1
48
1
60
0
100
AcDbCircle
39
0
10
150.2
20
14.969571
30
0
40
0.800000000000011
210
0
220
0
230
1
100
AcDbArc
50
0
51
78
0
ARC
5
97
100
AcDbEntity
8
SK1
62
256
6
ByLayer
370
-1
48
1
60
0
100
AcDbCircle
39
0
10
0.6
20
-18.75
30
0
40
1.00000000000001
210
0
220
0
230
-1
100
AcDbArc
50
113.578178
51
126.869898
0
ARC
5
98
100
AcDbEntity
8
SK1
62
256
6
ByLayer
370
-1
48
1
60
0
100
AcDbCircle
39
0
10
0.6
20
18.75
30
0
40
1.00000000000001
210
0
220
0
230
-1
100
AcDbArc
50
233.130102
51
246.421822
0
ELLIPSE
5
99
100
AcDbEntity
8
1
62
256
6
ByLayer
370
-1
48
1
60
0
100
AcDbEllipse
10
-1.056258
20
0
30
0
11
11.7045886407877
21
-24.6673155663614
31
0
210
0
220
0
230
1
40
0.341999
41
0.168026908720631
42
1.08101886367761
0
ELLIPSE
5
9A
100
AcDbEntity
8
1
62
256
6
ByLayer
370
-1
48
1
60
0
100
AcDbEllipse
10
21.056258
20
0
30
0
11
11.7045886407866
21
-24.6673155663601
31
0
210
0
220
0
230
1
40
0.341999
41
-2.97356574486916
42
-2.06057378991214
0
ELLIPSE
5
9B
100
AcDbEntity
8
1
62
256
6
ByLayer
370
-1
48
1
60
0
100
AcDbEllipse
10
21.056258
20
0
30
0
11
11.7045886407876
21
24.6673155663614
31
0
210
0
220
0
230
1
40
0.341999
41
2.06057378991218
42
2.97356574486916
0
ELLIPSE
5
9C
100
AcDbEntity
8
1
62
256
6
ByLayer
370
-1
48
1
60
0
100
AcDbEllipse
10
-1.056258
20
0
30
0
11
11.7045886407869
21
24.6673155663605
31
0
210
0
220
0
230
1
40
0.341999
41
-1.08101886367764
42
-0.168026908720635
0
POINT
5
41
100
AcDbEntity
8
80
62
256
6
ByLayer
370
-1
48
1
60
0
100
AcDbPoint
10
0
20
0
30
0
39
0
210
0
220
0
230
1
50
360
0
POINT
5
43
100
AcDbEntity
8
81
62
256
6
ByLayer
370
-1
48
1
60
0
100
AcDbPoint
10
151
20
0
30
0
39
0
210
0
220
0
230
1
50
360
0
POINT
5
45
100
AcDbEntity
8
SK2
62
256
6
ByLayer
370
-1
48
1
60
1
100
AcDbPoint
10
0
20
-24.99
30
0
39
0
210
0
220
0
230
1
50
360
0
POINT
5
47
100
AcDbEntity
8
SK2
62
256
6
ByLayer
370
-1
48
1
60
1
100
AcDbPoint
10
0
20
24.99
30
0
39
0
210
0
220
0
230
1
50
360
0
SPLINE
5
9D
100
AcDbEntity
8
1
62
256
6
ByLayer
370
-1
48
1
60
0
100
AcDbSpline
70
4
71
3
72
16
73
12
40
0
40
0
40
0
40
0
40
0.125
40
0.125
40
0.25
40
0.25
40
0.5
40
0.5
40
0.75
40
0.75
40
1
40
1
40
1
40
1
41
1
10
11.4613248654052
20
-23.8237900886702
30
0
41
1
10
11.4931085422155
20
-23.8237900886702
30
0
41
1
10
11.5240537130244
20
-23.8217870353893
30
0
41
1
10
11.5824977127781
20
-23.8145927838341
30
0
41
1
10
11.6090762858304
20
-23.8095715209772
30
0
41
1
10
11.6830611925597
20
-23.7915133746455
30
0
41
1
10
11.7220261923411
20
-23.7763424656021
30
0
41
1
10
11.7883217497886
20
-23.7434141084039
30
0
41
1
10
11.8149243019491
20
-23.7258580977054
30
0
41
1
10
11.8602649095123
20
-23.6892202228342
30
0
41
1
10
11.8788955182341
20
-23.6700725084982
30
0
41
1
10
11.8943375672976
20
-23.6504738342092
30
0
0
SPLINE
5
9E
100
AcDbEntity
8
1
62
256
6
ByLayer
370
-1
48
1
60
0
100
AcDbSpline
70
4
71
3
72
16
73
12
40
0
40
0
40
0
40
0
40
0.250000000000001
40
0.250000000000001
40
0.500000000000001
40
0.500000000000001
40
0.749999999999999
40
0.749999999999999
40
0.874999999999999
40
0.874999999999999
40
1
40
1
40
1
40
1
41
1
10
8.10566243270262
20
8.07187632569946
30
0
41
1
10
8.12109842182173
20
8.01447504552803
30
0
41
1
10
8.13957543154032
20
7.95811757710425
30
0
41
1
10
8.18481044212157
20
7.84831564619529
30
0
41
1
10
8.21164961819827
20
7.79447411502719
30
0
41
1
10
8.27803248810048
20
7.69331839273843
30
0
41
1
10
8.31766632931493
20
7.64573389046433
30
0
41
1
10
8.39048533960403
20
7.59011089834681
30
0
41
1
10
8.41760624511988
20
7.57397216507482
30
0
41
1
10
8.47557943952614
20
7.55146346886224
30
0
41
1
10
8.50694319778512
20
7.54500668064483
30
0
41
1
10
8.53867513459474
20
7.54500668064483
30
0
0
SPLINE
5
9F
100
AcDbEntity
8
1
62
256
6
ByLayer
370
-1
48
1
60
0
100
AcDbSpline
70
4
71
3
72
16
73
12
40
0
40
0
40
0
40
0
40
0.249999999999998
40
0.249999999999998
40
0.499999999999996
40
0.499999999999996
40
0.749999999999994
40
0.749999999999994
40
0.874999999999997
40
0.874999999999997
40
1
40
1
40
1
40
1
41
1
10
11.8943375672974
20
23.6504738342092
30
0
41
1
10
11.8789015781783
20
23.6700648173636
30
0
41
1
10
11.8604245684597
20
23.6890652772806
30
0
41
1
10
11.8151895578784
20
23.7256694447167
30
0
41
1
10
11.7883503818018
20
23.743401254428
30
0
41
1
10
11.7219675118995
20
23.7763702437222
30
0
41
1
10
11.6823336706851
20
23.791686969292
30
0
41
1
10
11.609514660396
20
23.8094665089947
30
0
41
1
10
11.5823937548801
20
23.8146002501132
30
0
41
1
10
11.5244205604739
20
23.8217471842109
30
0
41
1
10
11.4930568022149
20
23.8237900886704
30
0
41
1
10
11.4613248654053
20
23.8237900886704
30
0
0
SPLINE
5
A0
100
AcDbEntity
8
1
62
256
6
ByLayer
370
-1
48
1
60
0
100
AcDbSpline
70
4
71
3
72
107
73
103
40
-0.03125
40
-0.03125
40
0
40
0
40
0.0312500000000002
40
0.0312500000000002
40
0.0468750000000002
40
0.0468750000000002
40
0.0625000000000003
40
0.0625000000000003
40
0.0937500000000005
40
0.0937500000000005
40
0.109375000000001
40
0.109375000000001
40
0.125000000000001
40
0.140625000000001
40
0.140625000000001
40
0.156250000000001
40
0.156250000000001
40
0.187500000000001
40
0.187500000000001
40
0.203125000000001
40
0.203125000000001
40
0.218750000000001
40
0.218750000000001
40
0.234375000000001
40
0.234375000000001
40
0.250000000000001
40
0.250000000000001
40
0.281250000000001
40
0.281250000000001
40
0.296875000000001
40
0.296875000000001
40
0.312500000000001
40
0.312500000000001
40
0.343750000000001
40
0.343750000000001
40
0.359375000000002
40
0.359375000000002
40
0.375000000000002
40
0.375000000000002
40
0.406250000000002
40
0.406250000000002
40
0.421875000000002
40
0.421875000000002
40
0.437500000000002
40
0.437500000000002
40
0.468750000000002
40
0.468750000000002
40
0.484375000000002
40
0.484375000000002
40
0.500000000000002
40
0.500000000000002
40
0.515625000000002
40
0.515625000000002
40
0.531250000000001
40
0.531250000000001
40
0.562500000000001
40
0.562500000000001
40
0.578125000000001
40
0.578125000000001
40
0.585937500000001
40
0.585937500000001
40
0.593750000000001
40
0.593750000000001
40
0.625000000000001
40
0.625000000000001
40
0.640625000000001
40
0.640625000000001
40
0.656250000000001
40
0.656250000000001
40
0.671875000000001
40
0.671875000000001
40
0.6875
40
0.6875
40
0.71875
40
0.71875
40
0.734375
40
0.734375
40
0.75
40
0.75
40
0.765625
40
0.765625
40
0.78125
40
0.78125
40
0.8125
40
0.8125
40
0.828125
40
0.828125
40
0.84375
40
0.84375
40
0.874999999999999
40
0.874999999999999
40
0.890624999999999
40
0.890624999999999
40
0.90625
40
0.90625
40
0.9375
40
0.9375
40
0.953125
40
0.953125
40
0.96875
40
0.96875
40
1
40
1
40
1.03125
40
1.03125
41
1
10
6.74575560139081
20
-2.50790258552829
30
0
41
1
10
6.41467917850076
20
-2.08488937613578
30
0
41
1
10
6.2730804648437
20
-1.86002340733847
30
0
41
1
10
6.09697259109694
20
-1.50236151033087
30
0
41
1
10
6.04436247606762
20
-1.37972262210411
30
0
41
1
10
5.95198495507154
20
-1.12722398989772
30
0
41
1
10
5.91290651225873
20
-0.999147253391811
30
0
41
1
10
5.81734937889331
20
-0.612049768231344
30
0
41
1
10
5.78192692211826
20
-0.349116868168409
30
0
41
1
10
5.77290214704459
20
0.0528854332733601
30
0
41
1
10
5.77743065977336
20
0.187971441419336
30
0
41
1
10
5.80109865448853
20
0.453691107038765
30
0
41
1
10
5.83928831749463
20
0.716732996174244
30
0
41
1
10
5.90594519912219
20
0.974529647234164
30
0
41
1
10
5.98698946703755
20
1.22967894725295
30
0
41
1
10
6.03483320295464
20
1.35594678302647
30
0
41
1
10
6.19630491853621
20
1.72193466137668
30
0
41
1
10
6.32856472376824
20
1.95209773085244
30
0
41
1
10
6.56259125588016
20
2.27742276497787
30
0
41
1
10
6.64679148598228
20
2.38262761483062
30
0
41
1
10
6.82345932248089
20
2.58208814357136
30
0
41
1
10
6.91631834373717
20
2.67693957010886
30
0
41
1
10
7.11077417275277
20
2.85725255698594
30
0
41
1
10
7.21237191279778
20
2.9427130608853
30
0
41
1
10
7.42426351790692
20
3.10431982604143
30
0
41
1
10
7.53512163692366
20
3.18078223186177
30
0
41
1
10
7.87523335623897
20
3.3924814214036
30
0
41
1
10
8.11257590434076
20
3.51100960997098
30
0
41
1
10
8.48384944053478
20
3.65645219637071
30
0
41
1
10
8.61016896116382
20
3.69950165783848
30
0
41
1
10
8.86803977191138
20
3.7745327498991
30
0
41
1
10
8.99817228432178
20
3.80607934567505
30
0
41
1
10
9.3899484523015
20
3.88293087235635
30
0
41
1
10
9.65386629952161
20
3.91086451411485
30
0
41
1
10
10.0538433462958
20
3.91787184074215
30
0
41
1
10
10.1885006517292
20
3.91429673174045
30
0
41
1
10
10.45584631324
20
3.89526042710182
30
0
41
1
10
10.5882101568311
20
3.87989124748975
30
0
41
1
10
10.9814699509187
20
3.81664157227303
30
0
41
1
10
11.2385680630349
20
3.75177444342756
30
0
41
1
10
11.6163723276467
20
3.61926808008766
30
0
41
1
10
11.7414882729699
20
3.56891582939821
30
0
41
1
10
11.9841588782142
20
3.45807031253293
30
0
41
1
10
12.1022125401925
20
3.39745513515803
30
0
41
1
10
12.4466304631775
20
3.20014895496277
30
0
41
1
10
12.6633537663087
20
3.04816199417297
30
0
41
1
10
12.9677992045749
20
2.78721993666466
30
0
41
1
10
13.0655278322663
20
2.69482880452696
30
0
41
1
10
13.249404776953
20
2.50299688399181
30
0
41
1
10
13.3361425290578
20
2.40307280435144
30
0
41
1
10
13.4991703531104
20
2.19514745216651
30
0
41
1
10
13.5754614561791
20
2.08714701768645
30
0
41
1
10
13.7172264438241
20
1.86275892372561
30
0
41
1
10
13.7829054966321
20
1.74595745432492
30
0
41
1
10
13.9612668971156
20
1.38478908035159
30
0
41
1
10
14.0527384737531
20
1.13571392221823
30
0
41
1
10
14.1489846832138
20
0.749669356795039
30
0
41
1
10
14.1741892363364
20
0.618900779842193
30
0
41
1
10
14.2012112121171
20
0.419471759267253
30
0
41
1
10
14.2084217163825
20
0.352273581195078
30
0
41
1
10
14.2190157073908
20
0.218459191060077
30
0
41
1
10
14.2224314474855
20
0.151676192357286
30
0
41
1
10
14.2302739083114
20
-0.181628959067979
30
0
41
1
10
14.2072738060155
20
-0.446339832009983
30
0
41
1
10
14.1286525506413
20
-0.840495172623093
30
0
41
1
10
14.0948998936473
20
-0.971435256958017
30
0
41
1
10
14.0143333723789
20
-1.22593659940759
30
0
41
1
10
13.9673834564616
20
-1.35033782743181
30
0
41
1
10
13.8605509866834
20
-1.59362318963318
30
0
41
1
10
13.8006675347152
20
-1.71250692225408
30
0
41
1
10
13.667958864716
20
-1.94476644292615
30
0
41
1
10
13.5949740583251
20
-2.05820704567583
30
0
41
1
10
13.3616812903595
20
-2.38304880788712
30
0
41
1
10
13.1857990973558
20
-2.58177084469577
30
0
41
1
10
12.8926469057033
20
-2.85431235344228
30
0
41
1
10
12.7895552215444
20
-2.94115102402154
30
0
41
1
10
12.5774397097425
20
-3.10311147164859
30
0
41
1
10
12.4680756789228
20
-3.17861621852421
30
0
41
1
10
12.2429604620601
20
-3.31908256477476
30
0
41
1
10
12.1272085652184
20
-3.38404292929374
30
0
41
1
10
11.8893525421996
20
-3.50350983489767
30
0
41
1
10
11.7668940275425
20
-3.55815307810272
30
0
41
1
10
11.3921234594294
20
-3.70518263601133
30
0
41
1
10
11.1367681340105
20
-3.77930462672231
30
0
41
1
10
10.745855706038
20
-3.85643928658274
30
0
41
1
10
10.6142290838045
20
-3.87643516800546
30
0
41
1
10
10.3482879449497
20
-3.90482296638152
30
0
41
1
10
10.2134715030278
20
-3.91317958860148
30
0
41
1
10
9.81242679760533
20
-3.9202328203462
30
0
41
1
10
9.54755836501826
20
-3.90145679688237
30
0
41
1
10
9.15394317466507
20
-3.83855258602404
30
0
41
1
10
9.02335657578072
20
-3.81175696722431
30
0
41
1
10
8.7634604402781
20
-3.7461146476775
30
0
41
1
10
8.63456247706836
20
-3.70729991539912
30
0
41
1
10
8.25759245521263
20
-3.57501971074572
30
0
41
1
10
8.01662967816401
20
-3.46527267390871
30
0
41
1
10
7.67094967721368
20
-3.26763590573768
30
0
41
1
10
7.55836746901628
20
-3.19621803484171
30
0
41
1
10
7.33876749538956
20
-3.04169001795336
30
0
41
1
10
7.23328466255725
20
-2.95964720541241
30
0
41
1
10
6.93030722309538
20
-2.699730628201
30
0
41
1
10
6.74575560139081
20
-2.50790258552829
30
0
41
1
10
6.41467917850076
20
-2.08488937613578
30
0
0
SPLINE
5
A1
100
AcDbEntity
8
1
62
256
6
ByLayer
370
-1
48
1
60
0
100
AcDbSpline
70
4
71
3
72
16
73
12
40
0
40
0
40
0
40
0
40
0.125000000000001
40
0.125000000000001
40
0.250000000000002
40
0.250000000000002
40
0.500000000000001
40
0.500000000000001
40
0.750000000000001
40
0.750000000000001
40
1
40
1
40
1
40
1
41
1
10
11.4613248654052
20
7.54500668064517
30
0
41
1
10
11.4931085422155
20
7.54500668064517
30
0
41
1
10
11.5240537130244
20
7.55133787648484
30
0
41
1
10
11.5824977127781
20
7.57399576342848
30
0
41
1
10
11.6090762858304
20
7.58978226638186
30
0
41
1
10
11.6830611925597
20
7.64627718556739
30
0
41
1
10
11.7220261923411
20
7.69340378697146
30
0
41
1
10
11.7883217497886
20
7.79443451110018
30
0
41
1
10
11.8149243019491
20
7.84774574119157
30
0
41
1
10
11.8602649095123
20
7.95765674837182
30
0
41
1
10
11.8788955182341
20
8.01445251062179
30
0
41
1
10
11.8943375672976
20
8.07187632569941
30
0
0
SPLINE
5
A2
100
AcDbEntity
8
1
62
256
6
ByLayer
370
-1
48
1
60
0
100
AcDbSpline
70
4
71
3
72
16
73
12
40
0
40
0
40
0
40
0
40
0.125000000000001
40
0.125000000000001
40
0.250000000000001
40
0.250000000000001
40
0.500000000000003
40
0.500000000000003
40
0.750000000000001
40
0.750000000000001
40
1
40
1
40
1
40
1
41
1
10
8.53867513459483
20
-7.54500668064517
30
0
41
1
10
8.50689145778455
20
-7.54500668064517
30
0
41
1
10
8.47594628697559
20
-7.55133787648484
30
0
41
1
10
8.41750228722191
20
-7.57399576342848
30
0
41
1
10
8.39092371416962
20
-7.58978226638186
30
0
41
1
10
8.31693880744035
20
-7.64627718556739
30
0
41
1
10
8.27797380765892
20
-7.69340378697146
30
0
41
1
10
8.21167825021141
20
-7.79443451110021
30
0
41
1
10
8.18507569805092
20
-7.84774574119157
30
0
41
1
10
8.1397350904877
20
-7.95765674837185
30
0
41
1
10
8.12110448176594
20
-8.01445251062179
30
0
41
1
10
8.10566243270245
20
-8.07187632569941
30
0
0
SPLINE
5
A3
100
AcDbEntity
8
1
62
256
6
ByLayer
370
-1
48
1
60
0
100
AcDbSpline
70
4
71
3
72
16
73
12
40
0
40
0
40
0
40
0
40
0.125
40
0.125
40
0.25
40
0.25
40
0.5
40
0.5
40
0.75
40
0.75
40
1
40
1
40
1
40
1
41
1
10
8.53867513459483
20
23.8237900886702
30
0
41
1
10
8.50689145778455
20
23.8237900886702
30
0
41
1
10
8.47594628697559
20
23.8217870353893
30
0
41
1
10
8.41750228722191
20
23.8145927838341
30
0
41
1
10
8.39092371416962
20
23.8095715209772
30
0
41
1
10
8.31693880744035
20
23.7915133746455
30
0
41
1
10
8.27797380765892
20
23.7763424656021
30
0
41
1
10
8.21167825021141
20
23.7434141084039
30
0
41
1
10
8.18507569805092
20
23.7258580977054
30
0
41
1
10
8.1397350904877
20
23.6892202228342
30
0
41
1
10
8.12110448176594
20
23.6700725084982
30
0
41
1
10
8.10566243270242
20
23.6504738342092
30
0
0
SPLINE
5
A4
100
AcDbEntity
8
1
62
256
6
ByLayer
370
-1
48
1
60
0
100
AcDbSpline
70
4
71
3
72
16
73
12
40
0
40
0
40
0
40
0
40
0.249999999999999
40
0.249999999999999
40
0.499999999999997
40
0.499999999999997
40
0.749999999999996
40
0.749999999999996
40
0.874999999999998
40
0.874999999999998
40
1
40
1
40
1
40
1
41
1
10
8.10566243270262
20
-23.6504738342092
30
0
41
1
10
8.12109842182173
20
-23.6700648173636
30
0
41
1
10
8.13957543154032
20
-23.6890652772806
30
0
41
1
10
8.18481044212157
20
-23.7256694447167
30
0
41
1
10
8.21164961819827
20
-23.743401254428
30
0
41
1
10
8.27803248810048
20
-23.7763702437221
30
0
41
1
10
8.31766632931493
20
-23.791686969292
30
0
41
1
10
8.39048533960403
20
-23.8094665089947
30
0
41
1
10
8.41760624511988
20
-23.8146002501132
30
0
41
1
10
8.47557943952614
20
-23.8217471842109
30
0
41
1
10
8.50694319778512
20
-23.8237900886704
30
0
41
1
10
8.53867513459474
20
-23.8237900886704
30
0
0
SPLINE
5
A5
100
AcDbEntity
8
1
62
256
6
ByLayer
370
-1
48
1
60
0
100
AcDbSpline
70
4
71
3
72
16
73
12
40
0
40
0
40
0
40
0
40
0.250000000000001
40
0.250000000000001
40
0.500000000000001
40
0.500000000000001
40
0.750000000000002
40
0.750000000000002
40
0.875000000000001
40
0.875000000000001
40
1
40
1
40
1
40
1
41
1
10
11.8943375672974
20
-8.07187632569946
30
0
41
1
10
11.8789015781783
20
-8.014475045528
30
0
41
1
10
11.8604245684597
20
-7.95811757710425
30
0
41
1
10
11.8151895578784
20
-7.84831564619529
30
0
41
1
10
11.7883503818018
20
-7.79447411502719
30
0
41
1
10
11.7219675118995
20
-7.69331839273841
30
0
41
1
10
11.6823336706851
20
-7.6457338904643
30
0
41
1
10
11.609514660396
20
-7.59011089834678
30
0
41
1
10
11.5823937548801
20
-7.57397216507479
30
0
41
1
10
11.5244205604739
20
-7.55146346886221
30
0
41
1
10
11.4930568022149
20
-7.54500668064483
30
0
41
1
10
11.4613248654053
20
-7.5450066806448
30
0
0
SPLINE
5
A6
100
AcDbEntity
8
1
62
256
6
ByLayer
370
-1
48
1
60
0
100
AcDbSpline
70
4
71
3
72
139
73
135
40
-0.0039062499999998
40
-0.0039062499999998
40
0
40
0
40
0.0312500000000011
40
0.0312500000000011
40
0.0625000000000022
40
0.0625000000000022
40
0.0781250000000028
40
0.0781250000000028
40
0.0937500000000034
40
0.0937500000000034
40
0.125000000000004
40
0.125000000000004
40
0.156250000000005
40
0.156250000000005
40
0.171875000000005
40
0.171875000000005
40
0.187500000000005
40
0.187500000000005
40
0.218750000000006
40
0.218750000000006
40
0.250000000000006
40
0.250000000000006
40
0.265625000000006
40
0.265625000000006
40
0.281250000000006
40
0.281250000000006
40
0.296875000000006
40
0.296875000000006
40
0.304687500000006
40
0.304687500000006
40
0.312500000000006
40
0.312500000000006
40
0.328125000000006
40
0.328125000000006
40
0.335937500000006
40
0.335937500000006
40
0.343750000000006
40
0.343750000000006
40
0.351562500000006
40
0.351562500000006
40
0.359375000000006
40
0.359375000000006
40
0.375000000000006
40
0.375000000000006
40
0.378906250000006
40
0.378906250000006
40
0.382812500000006
40
0.382812500000006
40
0.390625000000006
40
0.390625000000006
40
0.398437500000006
40
0.398437500000006
40
0.406250000000007
40
0.406250000000007
40
0.414062500000007
40
0.414062500000007
40
0.421875000000007
40
0.421875000000007
40
0.437500000000007
40
0.437500000000007
40
0.453125000000008
40
0.453125000000008
40
0.468750000000009
40
0.468750000000009
40
0.500000000000009
40
0.500000000000009
40
0.53125000000001
40
0.53125000000001
40
0.54687500000001
40
0.54687500000001
40
0.56250000000001
40
0.56250000000001
40
0.59375000000001
40
0.59375000000001
40
0.625000000000011
40
0.625000000000011
40
0.656250000000011
40
0.656250000000011
40
0.687500000000011
40
0.687500000000011
40
0.703125000000011
40
0.703125000000011
40
0.718750000000012
40
0.718750000000012
40
0.750000000000012
40
0.750000000000012
40
0.765625000000012
40
0.765625000000012
40
0.781250000000012
40
0.781250000000012
40
0.789062500000012
40
0.789062500000012
40
0.796875000000012
40
0.796875000000012
40
0.804687500000012
40
0.804687500000012
40
0.812500000000012
40
0.812500000000012
40
0.820312500000012
40
0.820312500000012
40
0.824218750000011
40
0.824218750000011
40
0.828125000000011
40
0.828125000000011
40
0.84375000000001
40
0.84375000000001
40
0.85156250000001
40
0.85156250000001
40
0.859375000000009
40
0.859375000000009
40
0.867187500000009
40
0.867187500000009
40
0.875000000000008
40
0.875000000000008
40
0.882812500000008
40
0.882812500000008
40
0.890625000000007
40
0.890625000000007
40
0.906250000000006
40
0.906250000000006
40
0.921875000000005
40
0.921875000000005
40
0.929687500000005
40
0.929687500000005
40
0.937500000000004
40
0.937500000000004
40
0.968750000000002
40
0.968750000000002
40
0.984375000000001
40
0.984375000000001
40
0.9921875
40
0.99609375
40
0.99609375
40
1
40
1
40
1.03125
40
1.03125
41
1
10
48.9130673597293
20
-17.0008007941437
30
0
41
1
10
49.3142938838761
20
-17.2010881834447
30
0
41
1
10
49.6895467730879
20
-17.3540382785551
30
0
41
1
10
50.4744894125542
20
-17.6190664259759
30
0
41
1
10
50.8842178211714
20
-17.7310794482128
30
0
41
1
10
51.5243032869381
20
-17.8728993049768
30
0
41
1
10
51.7419278073182
20
-17.9157869544112
30
0
41
1
10
52.1857896621624
20
-17.9933560584632
30
0
41
1
10
52.4125559808015
20
-18.0280894800012
30
0
41
1
10
53.0985841127135
20
-18.1197815757603
30
0
41
1
10
53.5653628097543
20
-18.1647075084239
30
0
41
1
10
54.5176313895256
20
-18.2274085005649
30
0
41
1
10
55.0031165471402
20
-18.2451748259524
30
0
41
1
10
55.74590414221
20
-18.2537654518048
30
0
41
1
10
55.9959335665741
20
-18.2536033688685
30
0
41
1
10
56.5010515016028
20
-18.2474108404145
30
0
41
1
10
56.7552534062078
20
-18.2413768233111
30
0
41
1
10
57.5166452504777
20
-18.2150409219422
30
0
41
1
10
58.0250730536695
20
-18.186583537293
30
0
41
1
10
59.0438471981072
20
-18.1083534910861
30
0
41
1
10
59.5541902209637
20
-18.0586513326704
30
0
41
1
10
60.3213770050803
20
-17.9655018718795
30
0
41
1
10
60.5773853583466
20
-17.9313176600532
30
0
41
1
10
61.0900185218662
20
-17.8555376696873
30
0
41
1
10
61.3475430668464
20
-17.8137671807535
30
0
41
1
10
61.8546440705653
20
-17.7224971506034
30
0
41
1
10
62.1050075649101
20
-17.6729248285311
30
0
41
1
10
62.4747919698412
20
-17.5910075487733
30
0
41
1
10
62.5970881698774
20
-17.562433241371
30
0
41
1
10
62.8394976462902
20
-17.5023201340985
30
0
41
1
10
62.9593700895362
20
-17.4708300686624
30
0
41
1
10
63.3112723140362
20
-17.3722602240556
30
0
41
1
10
63.5368756551004
20
-17.3008899671885
30
0
41
1
10
63.8578258515905
20
-17.1818408971414
30
0
41
1
10
63.9618776639498
20
-17.140139676189
30
0
41
1
10
64.1630191771788
20
-17.0517372754309
30
0
41
1
10
64.2605350177496
20
-17.0047696025507
30
0
41
1
10
64.4427389664829
20
-16.9069058284052
30
0
41
1
10
64.5279014524205
20
-16.8558438069757
30
0
41
1
10
64.6847787871928
20
-16.7486247112128
30
0
41
1
10
64.7567477947552
20
-16.6922407591974
30
0
41
1
10
64.947601641077
20
-16.5152288605866
30
0
41
1
10
65.0371819220471
20
-16.3910500107689
30
0
41
1
10
65.0995869679293
20
-16.226252811017
30
0
41
1
10
65.1096053937891
20
-16.1926562524074
30
0
41
1
10
65.1243832928938
20
-16.125311801541
30
0
41
1
10
65.1291640671467
20
-16.0916098272692
30
0
41
1
10
65.1361161079408
20
-15.9903754311197
30
0
41
1
10
65.1309126257015
20
-15.9227130132563
30
0
41
1
10
65.1026948902191
20
-15.7868775994379
30
0
41
1
10
65.0794448011793
20
-15.7183675914311
30
0
41
1
10
65.0183723882835
20
-15.5840479367923
30
0
41
1
10
64.980554587376
20
-15.5178666325337
30
0
41
1
10
64.8926939999555
20
-15.3870345325216
30
0
41
1
10
64.8426417099801
20
-15.3223857285186
30
0
41
1
10
64.7319934838083
20
-15.1943255928123
30
0
41
1
10
64.6711266960061
20
-15.1306723721942
30
0
41
1
10
64.4769673739405
20
-14.9434411800594
30
0
41
1
10
64.3324259330345
20
-14.8234340376943
30
0
41
1
10
64.021620398642
20
-14.5900845810106
30
0
41
1
10
63.8552649539827
20
-14.476777238619
30
0
41
1
10
63.5055311075667
20
-14.2552863573188
30
0
41
1
10
63.3214819732036
20
-14.1467814824106
30
0
41
1
10
62.7546847890638
20
-13.8310087366502
30
0
41
1
10
62.3568339677857
20
-13.6326145587327
30
0
41
1
10
61.5338865650797
20
-13.2528578079179
30
0
41
1
10
61.1085899471512
20
-13.071624612896
30
0
41
1
10
60.4544450845476
20
-12.8106817566102
30
0
41
1
10
60.2336630534153
20
-12.7255415667564
30
0
41
1
10
59.7870757472412
20
-12.5588183061279
30
0
41
1
10
59.5610174405462
20
-12.4771484754698
30
0
41
1
10
58.8775876176799
20
-12.2380871039674
30
0
41
1
10
58.4161749925015
20
-12.0869756583199
30
0
41
1
10
57.4828990279139
20
-11.8013968429941
30
0
41
1
10
57.0110299134202
20
-11.6669281301801
30
0
41
1
10
56.0569654410563
20
-11.4164533301576
30
0
41
1
10
55.5747766529412
20
-11.3004232071271
30
0
41
1
10
54.5992121554679
20
-11.0906693024882
30
0
41
1
10
54.1058621502774
20
-10.9968791832872
30
0
41
1
10
53.3557306524376
20
-10.87826054857
30
0
41
1
10
53.103989410051
20
-10.84242919186
30
0
41
1
10
52.5965839809745
20
-10.7796467623137
30
0
41
1
10
52.3408912682784
20
-10.7527207834292
30
0
41
1
10
51.5747036075866
20
-10.68882746481
30
0
41
1
10
51.0628068976413
20
-10.6678401506158
30
0
41
1
10
50.292613070542
20
-10.6864731683934
30
0
41
1
10
50.0354847992647
20
-10.7011413700987
30
0
41
1
10
49.5201705145694
20
-10.7529560657961
30
0
41
1
10
49.2619911902269
20
-10.789997039509
30
0
41
1
10
48.8735571939416
20
-10.8694995487126
30
0
41
1
10
48.7444569570777
20
-10.8999622588763
30
0
41
1
10
48.4906451468269
20
-10.9692379366296
30
0
41
1
10
48.3654622586041
20
-11.0081393845395
30
0
41
1
10
48.119110879741
20
-11.0958288381692
30
0
41
1
10
47.9979395984015
20
-11.1446104460916
30
0
41
1
10
47.7603693275719
20
-11.2538577569946
30
0
41
1
10
47.6441841764818
20
-11.3143552699014
30
0
41
1
10
47.4235460114611
20
-11.445337990805
30
0
41
1
10
47.3183357632364
20
-11.5161450502674
30
0
41
1
10
47.1689573152562
20
-11.6309895212201
30
0
41
1
10
47.1205724529317
20
-11.6707113848828
30
0
41
1
10
47.0267740303082
20
-11.7531666649926
30
0
41
1
10
46.9813910345329
20
-11.7959079314254
30
0
41
1
10
46.7661280010985
20
-12.0133079229187
30
0
41
1
10
46.6275363614
20
-12.2019442562087
30
0
41
1
10
46.4670740630415
20
-12.5038602898778
30
0
41
1
10
46.422574791422
20
-12.6057168721932
30
0
41
1
10
46.3498067562809
20
-12.8100216999783
30
0
41
1
10
46.321431545871
20
-12.9126861686592
30
0
41
1
10
46.2789747105472
20
-13.1186424585242
30
0
41
1
10
46.265041840805
20
-13.2215983386418
30
0
41
1
10
46.2501236804466
20
-13.423507444704
30
0
41
1
10
46.2490148699837
20
-13.5230419382006
30
0
41
1
10
46.2577344196605
20
-13.7194501194986
30
0
41
1
10
46.2675703002672
20
-13.8163230609327
30
0
41
1
10
46.2969743348268
20
-14.0075298817863
30
0
41
1
10
46.3166178109657
20
-14.1021267053522
30
0
41
1
10
46.3883892537821
20
-14.3803895894
30
0
41
1
10
46.452634569914
20
-14.5569111419831
30
0
41
1
10
46.6069583860361
20
-14.8950809265604
30
0
41
1
10
46.6971169151928
20
-15.0566974102993
30
0
41
1
10
46.8491573800888
20
-15.2892465606401
30
0
41
1
10
46.9026568140689
20
-15.365109594993
30
0
41
1
10
47.0150249274853
20
-15.5136799709075
30
0
41
1
10
47.0739810056595
20
-15.5864667818509
30
0
41
1
10
47.3787385284247
20
-15.9395543019192
30
0
41
1
10
47.6558715310163
20
-16.1905117843168
30
0
41
1
10
48.1131205213379
20
-16.5296286137866
30
0
41
1
10
48.2725653357823
20
-16.6363679102664
30
0
41
1
10
48.5218846323123
20
-16.7877700941822
30
0
41
1
10
48.6490869263347
20
-16.8612911058266
30
0
41
1
10
48.7800701035539
20
-16.9316527463735
30
0
41
1
10
48.8682305589033
20
-16.9778694977697
30
0
41
1
10
48.9130673597293
20
-17.0008007941437
30
0
41
1
10
49.3142938838761
20
-17.2010881834447
30
0
0
SPLINE
5
A7
100
AcDbEntity
8
SK1
62
256
6
ByLayer
370
-1
48
1
60
0
100
AcDbSpline
70
4
71
3
72
286
73
282
40
0
40
0
40
0
40
0
40
0.000541794956494
40
0.0040840448560651
40
0.0076262947556363
40
0.0111685446552076
40
0.0147107945547788
40
0.01825304445435
40
0.0217952943539212
40
0.0253375442534924
40
0.0288797941530636
40
0.0324220440526348
40
0.035964293952206
40
0.0395065438517773
40
0.0465910436509196
40
0.0501332935504909
40
0.0536755434500621
40
0.0572177933496333
40
0.0607600432492045
40
0.0678445430483469
40
0.0713867929479181
40
0.0749290428474893
40
0.0820135426466317
40
0.0855557925462029
40
0.0890980424457742
40
0.0961825422449166
40
0.0997247921444878
40
0.103267042044059
40
0.10680929194363
40
0.110351541843201
40
0.113893791742773
40
0.117436041642344
40
0.120978291541915
40
0.124520541441486
40
0.131605041240629
40
0.1351472911402
40
0.138689541039771
40
0.142231790939342
40
0.145774040838913
40
0.152858540638056
40
0.156400790537627
40
0.159943040437198
40
0.16348529033677
40
0.167027540236341
40
0.174112040035483
40
0.177654289935054
40
0.181196539834626
40
0.184738789734197
40
0.188281039633768
40
0.19536553943291
40
0.198907789332482
40
0.202450039232053
40
0.205992289131624
40
0.209534539031195
40
0.216619038830338
40
0.220161288729909
40
0.22370353862948
40
0.227245788529051
40
0.230788038428623
40
0.237872538227765
40
0.241414788127336
40
0.244957038026907
40
0.248499287926478
40
0.25204153782605
40
0.259126037625192
40
0.262668287524764
40
0.266210537424335
40
0.273295037223477
40
0.280379537022619
40
0.283921786922191
40
0.287464036821762
40
0.294548536620904
40
0.298090786520475
40
0.301633036420047
40
0.305175286319618
40
0.308717536219189
40
0.31225978611876
40
0.315802036018332
40
0.322886535817474
40
0.329971035616616
40
0.333513285516188
40
0.337055535415759
40
0.34059778531533
40
0.344140035214901
40
0.347682285114472
40
0.351224535014044
40
0.358309034813186
40
0.365393534612328
40
0.372478034411471
40
0.376020284311042
40
0.379562534210613
40
0.383104784110185
40
0.386647034009756
40
0.390189283909327
40
0.393731533808898
40
0.397273783708469
40
0.400816033608041
40
0.404358283507612
40
0.407900533407183
40
0.411442783306754
40
0.414985033206326
40
0.418527283105897
40
0.422069533005468
40
0.425611782905039
40
0.42915403280461
40
0.432696282704181
40
0.434467407653967
40
0.436238532603753
40
0.438009657553538
40
0.439780782503324
40
0.443323032402895
40
0.446865282302466
40
0.448636407252252
40
0.450407532202038
40
0.452178657151823
40
0.453949782101609
40
0.455720907051394
40
0.45749203200118
40
0.461034281900751
40
0.462805406850537
40
0.464576531800322
40
0.466347656750108
40
0.468118781699894
40
0.469889906649679
40
0.471661031599465
40
0.47343215654925
40
0.475203281499036
40
0.476974406448822
40
0.478745531398607
40
0.480516656348393
40
0.482287781298178
40
0.484058906247964
40
0.485830031197749
40
0.487601156147535
40
0.489372281097321
40
0.491143406047106
40
0.492914530996892
40
0.494685655946678
40
0.496456780896463
40
0.498227905846249
40
0.499999030796034
40
0.50177015574582
40
0.503541280695606
40
0.505312405645391
40
0.507083530595177
40
0.508854655544963
40
0.510625780494748
40
0.512396905444534
40
0.514168030394319
40
0.515939155344105
40
0.517710280293891
40
0.519481405243676
40
0.521252530193462
40
0.523023655143247
40
0.524794780093033
40
0.526565905042819
40
0.528337029992604
40
0.53010815494239
40
0.531879279892175
40
0.533650404841961
40
0.535421529791747
40
0.537192654741532
40
0.538963779691318
40
0.540734904641103
40
0.542506029590889
40
0.544277154540675
40
0.54604827949046
40
0.549590529390031
40
0.551361654339817
40
0.553132779289603
40
0.556675029189174
40
0.560217279088745
40
0.561988404038531
40
0.563759528988316
40
0.565530653938102
40
0.567301778887887
40
0.570844028787459
40
0.57438627868703
40
0.577928528586601
40
0.581470778486172
40
0.585013028385743
40
0.588555278285315
40
0.592097528184886
40
0.595639778084457
40
0.599182027984028
40
0.602724277883599
40
0.606266527783171
40
0.609808777682742
40
0.613351027582313
40
0.616893277481884
40
0.620435527381455
40
0.623977777281027
40
0.627520027180598
40
0.63460452697974
40
0.641689026778883
40
0.648773526578025
40
0.652315776477596
40
0.655858026377168
40
0.659400276276739
40
0.66294252617631
40
0.666484776075881
40
0.670027025975452
40
0.677111525774595
40
0.684196025573737
40
0.687738275473308
40
0.69128052537288
40
0.694822775272451
40
0.698365025172022
40
0.701907275071593
40
0.705449524971164
40
0.712534024770307
40
0.716076274669878
40
0.719618524569449
40
0.726703024368592
40
0.733787524167734
40
0.737329774067305
40
0.740872023966876
40
0.747956523766019
40
0.75149877366559
40
0.755041023565161
40
0.758583273464733
40
0.762125523364304
40
0.769210023163446
40
0.772752273063017
40
0.776294522962589
40
0.77983677286216
40
0.783379022761731
40
0.790463522560873
40
0.794005772460445
40
0.797548022360016
40
0.801090272259587
40
0.804632522159158
40
0.811717021958301
40
0.815259271857872
40
0.818801521757443
40
0.822343771657015
40
0.825886021556586
40
0.832970521355728
40
0.836512771255299
40
0.840055021154871
40
0.841826146104656
40
0.843597271054442
40
0.847139520954013
40
0.854224020753155
40
0.857766270652727
40
0.861308520552298
40
0.864850770451869
40
0.86839302035144
40
0.875477520150583
40
0.879019770050154
40
0.882562019949725
40
0.886104269849296
40
0.889646519748867
40
0.893188769648439
40
0.89673101954801
40
0.900273269447581
40
0.903815519347152
40
0.910900019146295
40
0.914442269045866
40
0.917984518945437
40
0.92506901874458
40
0.928611268644151
40
0.932153518543722
40
0.939238018342864
40
0.942780268242436
40
0.946322518142007
40
0.949864768041578
40
0.953407017941149
40
0.960491517740292
40
0.964033767639863
40
0.967576017539434
40
0.971118267439005
40
0.974660517338576
40
0.978202767238148
40
0.981745017137719
40
0.98528726703729
40
0.988829516936861
40
0.992371766836433
40
0.995914016736004
40
0.999456266635575
40
1
40
1
40
1
40
1
41
1
10
-30
20
15.9926520819251
30
0
41
1
10
-30
20
15.9925599396358
30
0
41
1
10
-30
20
15.9917953969071
30
0
41
1
10
-30
20
15.9893850921089
30
0
41
1
10
-30
20
15.9836860314146
30
0
41
1
10
-30
20
15.9756808210229
30
0
41
1
10
-30
20
15.9654018084481
30
0
41
1
10
-30
20
15.9528811264941
30
0
41
1
10
-30
20
15.9381491278438
30
0
41
1
10
-30
20
15.9212355486336
30
0
41
1
10
-30
20
15.9021692443494
30
0
41
1
10
-30
20
15.8809772874923
30
0
41
1
10
-30
20
15.85768719628
30
0
41
1
10
-30
20
15.8237020449635
30
0
41
1
10
-30
20
15.786151572388
30
0
41
1
10
-30
20
15.7440467976174
30
0
41
1
10
-30
20
15.7106366986067
30
0
41
1
10
-30
20
15.6752710038507
30
0
41
1
10
-30
20
15.6253102414823
30
0
41
1
10
-30
20
15.5722298833996
30
0
41
1
10
-30
20
15.5146768571488
30
0
41
1
10
-30
20
15.454635155867
30
0
41
1
10
-30
20
15.3917322415494
30
0
41
1
10
-30
20
15.3243986601424
30
0
41
1
10
-30
20
15.2546726017927
30
0
41
1
10
-30
20
15.1823145630236
30
0
41
1
10
-30
20
15.1055630554725
30
0
41
1
10
-30
20
15.0465122402176
30
0
41
1
10
-30
20
14.985753516587
30
0
41
1
10
-30
20
14.9233034368069
30
0
41
1
10
-30
20
14.8591738020485
30
0
41
1
10
-30
20
14.7933781380804
30
0
41
1
10
-30
20
14.7259318150055
30
0
41
1
10
-30
20
14.6334478809413
30
0
41
1
10
-30
20
14.5388306139923
30
0
41
1
10
-30
20
14.4398724968665
30
0
41
1
10
-30
20
14.3643499358607
30
0
41
1
10
-30
20
14.2872489988171
30
0
41
1
10
-30
20
14.1819460940194
30
0
41
1
10
-30
20
14.0747689624993
30
0
41
1
10
-30
20
13.9632604256822
30
0
41
1
10
-30
20
13.8784200007502
30
0
41
1
10
-30
20
13.7920640526129
30
0
41
1
10
-30
20
13.674463030797
30
0
41
1
10
-30
20
13.5552283874056
30
0
41
1
10
-30
20
13.4316550911985
30
0
41
1
10
-30
20
13.337853067095
30
0
41
1
10
-30
20
13.2425907988595
30
0
41
1
10
-30
20
13.1131460860381
30
0
41
1
10
-30
20
12.9822967545723
30
0
41
1
10
-30
20
12.847084683004
30
0
41
1
10
-30
20
12.7446351532221
30
0
41
1
10
-30
20
12.6407746180398
30
0
41
1
10
-30
20
12.499887311655
30
0
41
1
10
-30
20
12.3578191289812
30
0
41
1
10
-30
20
12.2113468162578
30
0
41
1
10
-30
20
12.100530667573
30
0
41
1
10
-30
20
11.9883478761207
30
0
41
1
10
-30
20
11.836377249174
30
0
41
1
10
-30
20
11.6834503922585
30
0
41
1
10
-30
20
11.5260594948948
30
0
41
1
10
-30
20
11.4071324366749
30
0
41
1
10
-30
20
11.2868794886981
30
0
41
1
10
-30
20
11.1241532157817
30
0
41
1
10
-30
20
10.9607029988619
30
0
41
1
10
-30
20
10.7927086404326
30
0
41
1
10
-30
20
10.6229844866849
30
0
41
1
10
-30
20
10.4091173939315
30
0
41
1
10
-30
20
10.1909959678347
30
0
41
1
10
-30
20
10.0126979588287
30
0
41
1
10
-30
20
9.83272430289384
30
0
41
1
10
-30
20
9.65245023276196
30
0
41
1
10
-30
20
9.46744871362009
30
0
41
1
10
-30
20
9.32804093460692
30
0
41
1
10
-30
20
9.18740563851225
30
0
41
1
10
-30
20
9.0455543785921
30
0
41
1
10
-30
20
8.90249044231982
30
0
41
1
10
-30
20
8.70931958714519
30
0
41
1
10
-30
20
8.46674616603482
30
0
41
1
10
-30
20
8.22021686294167
30
0
41
1
10
-30
20
8.01906836645577
30
0
41
1
10
-30
20
7.86773085832667
30
0
41
1
10
-30
20
7.71524241280142
30
0
41
1
10
-30
20
7.56161298420645
30
0
41
1
10
-30
20
7.40685260452798
30
0
41
1
10
-30
20
7.19804202206524
30
0
41
1
10
-30
20
6.93651252502835
30
0
41
1
10
-30
20
6.61705894701072
30
0
41
1
10
-30
20
6.34834996432815
30
0
41
1
10
-30
20
6.12929373929515
30
0
41
1
10
-30
20
5.96484945115367
30
0
41
1
10
-30
20
5.7993974381898
30
0
41
1
10
-30
20
5.63295542814623
30
0
41
1
10
-30
20
5.46554083189747
30
0
41
1
10
-30
20
5.29717335727497
30
0
41
1
10
-30
20
5.12787591307327
30
0
41
1
10
-30
20
4.9576706384986
30
0
41
1
10
-30
20
4.78658071628459
30
0
41
1
10
-30
20
4.6146335506248
30
0
41
1
10
-30
20
4.44186113006069
30
0
41
1
10
-30
20
4.26829321973949
30
0
41
1
10
-30
20
4.09396155182321
30
0
41
1
10
-30
20
3.91890592173868
30
0
41
1
10
-30
20
3.74316620306936
30
0
41
1
10
-30
20
3.56678705857649
30
0
41
1
10
-30
20
3.42015123791836
30
0
41
1
10
-30
20
3.3009810984795
30
0
41
1
10
-30
20
3.21216327477833
30
0
41
1
10
-30
20
3.12322377081893
30
0
41
1
10
-30
20
3.00356413190352
30
0
41
1
10
-30
20
2.85589664233001
30
0
41
1
10
-30
20
2.70788037697056
30
0
41
1
10
-30
20
2.58749550859633
30
0
41
1
10
-30
20
2.49793822974365
30
0
41
1
10
-30
20
2.40833000131903
30
0
41
1
10
-30
20
2.31867596083524
30
0
41
1
10
-30
20
2.22899146909501
30
0
41
1
10
-30
20
2.10827328924756
30
0
41
1
10
-30
20
1.99097459417121
30
0
41
1
10
-30
20
1.87012467714987
30
0
41
1
10
-30
20
1.78043031683035
30
0
41
1
10
-30
20
1.69076251244053
30
0
41
1
10
-30
20
1.60113247848605
30
0
41
1
10
-30
20
1.51155313609783
30
0
41
1
10
-30
20
1.422025757727
30
0
41
1
10
-30
20
1.33256776537959
30
0
41
1
10
-30
20
1.24317741509074
30
0
41
1
10
-30
20
1.15386860885192
30
0
41
1
10
-30
20
1.06464013673647
30
0
41
1
10
-30
20
0.975500136218244
30
0
41
1
10
-30
20
0.886447988926847
30
0
41
1
10
-30
20
0.797485776681128
30
0
41
1
10
-30
20
0.708610852102623
30
0
41
1
10
-30
20
0.61982073744278
30
0
41
1
10
-30
20
0.531109764951225
30
0
41
1
10
-30
20
0.442471434007643
30
0
41
1
10
-30
20
0.35389600796347
30
0
41
1
10
-30
20
0.265373879214224
30
0
41
1
10
-30
20
0.176892371692162
30
0
41
1
10
-30
20
0.0884392148653887
30
0
41
1
10
-30
20
2.04973958E-08
30
0
41
1
10
-30
20
-0.0884392031952927
30
0
41
1
10
-30
20
-0.17689241471993
30
0
41
1
10
-30
20
-0.265373915570137
30
0
41
1
10
-30
20
-0.353895962579486
30
0
41
1
10
-30
20
-0.442471374506823
30
0
41
1
10
-30
20
-0.531109813902646
30
0
41
1
10
-30
20
-0.61982082298212
30
0
41
1
10
-30
20
-0.70861080655007
30
0
41
1
10
-30
20
-0.797485667180155
30
0
41
1
10
-30
20
-0.886448026006832
30
0
41
1
10
-30
20
-0.97550027278379
30
0
41
1
10
-30
20
-1.06464012636249
30
0
41
1
10
-30
20
-1.1538684580087
30
0
41
1
10
-30
20
-1.24317738635406
30
0
41
1
10
-30
20
-1.33256791795026
30
0
41
1
10
-30
20
-1.42202585063245
30
0
41
1
10
-30
20
-1.5115530207047
30
0
41
1
10
-30
20
-1.60113232466117
30
0
41
1
10
-30
20
-1.69076256252157
30
0
41
1
10
-30
20
-1.78043050963589
30
0
41
1
10
-30
20
-1.87012473193457
30
0
41
1
10
-30
20
-1.95984062320625
30
0
41
1
10
-30
20
-2.04956121840735
30
0
41
1
10
-30
20
-2.13928298465069
30
0
41
1
10
-30
20
-2.22899154181988
30
0
41
1
10
-30
20
-2.34971237639812
30
0
41
1
10
-30
20
-2.4670581044816
30
0
41
1
10
-30
20
-2.58749567267543
30
0
41
1
10
-30
20
-2.70788056755165
30
0
41
1
10
-30
20
-2.85589666602098
30
0
41
1
10
-30
20
-3.00356394920902
30
0
41
1
10
-30
20
-3.12322374659235
30
0
41
1
10
-30
20
-3.21216341650842
30
0
41
1
10
-30
20
-3.3009812939207
30
0
41
1
10
-30
20
-3.4201512431562
30
0
41
1
10
-30
20
-3.56678672363677
30
0
41
1
10
-30
20
-3.74316585626101
30
0
41
1
10
-30
20
-3.91890584757377
30
0
41
1
10
-30
20
-4.09396100129445
30
0
41
1
10
-30
20
-4.26829259541552
30
0
41
1
10
-30
20
-4.44186183082067
30
0
41
1
10
-30
20
-4.61463414914383
30
0
41
1
10
-30
20
-4.78658021025493
30
0
41
1
10
-30
20
-4.95767123056282
30
0
41
1
10
-30
20
-5.1278778625566
30
0
41
1
10
-30
20
-5.29717415068043
30
0
41
1
10
-30
20
-5.46553992297876
30
0
41
1
10
-30
20
-5.63295448869491
30
0
41
1
10
-30
20
-5.79939725011727
30
0
41
1
10
-30
20
-5.96484950556561
30
0
41
1
10
-30
20
-6.1292936535483
30
0
41
1
10
-30
20
-6.34834993475852
30
0
41
1
10
-30
20
-6.6170590196507
30
0
41
1
10
-30
20
-6.93651248001379
30
0
41
1
10
-30
20
-7.19804203228608
30
0
41
1
10
-30
20
-7.40685270744595
30
0
41
1
10
-30
20
-7.56161297986856
30
0
41
1
10
-30
20
-7.71524232371232
30
0
41
1
10
-30
20
-7.86773082006812
30
0
41
1
10
-30
20
-8.01906843480592
30
0
41
1
10
-30
20
-8.22021692135615
30
0
41
1
10
-30
20
-8.46674612315107
30
0
41
1
10
-30
20
-8.7093195790371
30
0
41
1
10
-30
20
-8.90249052457438
30
0
41
1
10
-30
20
-9.04555441784282
30
0
41
1
10
-30
20
-9.18740560593943
30
0
41
1
10
-30
20
-9.32804088163152
30
0
41
1
10
-30
20
-9.46744870809565
30
0
41
1
10
-30
20
-9.65245029192155
30
0
41
1
10
-30
20
-9.83272433616031
30
0
41
1
10
-30
20
-10.0126979221092
30
0
41
1
10
-30
20
-10.1909959517429
30
0
41
1
10
-30
20
-10.4091174330404
30
0
41
1
10
-30
20
-10.6229845090751
30
0
41
1
10
-30
20
-10.7927086151923
30
0
41
1
10
-30
20
-10.9607029915804
30
0
41
1
10
-30
20
-11.1241532476502
30
0
41
1
10
-30
20
-11.286879520772
30
0
41
1
10
-30
20
-11.4071324437642
30
0
41
1
10
-30
20
-11.526059483736
30
0
41
1
10
-30
20
-11.6834503898541
30
0
41
1
10
-30
20
-11.8363772717575
30
0
41
1
10
-30
20
-11.9883479026383
30
0
41
1
10
-30
20
-12.100530681097
30
0
41
1
10
-30
20
-12.211346817793
30
0
41
1
10
-30
20
-12.3578191303265
30
0
41
1
10
-30
20
-12.4998873251013
30
0
41
1
10
-30
20
-12.640774639564
30
0
41
1
10
-30
20
-12.7446351726738
30
0
41
1
10
-30
20
-12.8470846962099
30
0
41
1
10
-30
20
-12.9822967603461
30
0
41
1
10
-30
20
-13.1131460918651
30
0
41
1
10
-30
20
-13.2425908150843
30
0
41
1
10
-30
20
-13.3378530905647
30
0
41
1
10
-30
20
-13.431655102243
30
0
41
1
10
-30
20
-13.5552284439381
30
0
41
1
10
-30
20
-13.6744629632361
30
0
41
1
10
-30
20
-13.7920640428987
30
0
41
1
10
-30
20
-13.8638084100541
30
0
41
1
10
-30
20
-13.9208384799595
30
0
41
1
10
-30
20
-13.9773600368974
30
0
41
1
10
-30
20
-14.0747689786766
30
0
41
1
10
-30
20
-14.1819460903518
30
0
41
1
10
-30
20
-14.2872490063531
30
0
41
1
10
-30
20
-14.3643499644422
30
0
41
1
10
-30
20
-14.4398725346097
30
0
41
1
10
-30
20
-14.5388306330265
30
0
41
1
10
-30
20
-14.6334478734244
30
0
41
1
10
-30
20
-14.7259318226356
30
0
41
1
10
-30
20
-14.793378171537
30
0
41
1
10
-30
20
-14.8591738437125
30
0
41
1
10
-30
20
-14.9233034607296
30
0
41
1
10
-30
20
-14.9857535133679
30
0
41
1
10
-30
20
-15.0465122321639
30
0
41
1
10
-30
20
-15.1055630695376
30
0
41
1
10
-30
20
-15.1823146060513
30
0
41
1
10
-30
20
-15.2546726312332
30
0
41
1
10
-30
20
-15.3243986497297
30
0
41
1
10
-30
20
-15.3917322452796
30
0
41
1
10
-30
20
-15.4546352005829
30
0
41
1
10
-30
20
-15.5146768877911
30
0
41
1
10
-30
20
-15.5722298782127
30
0
41
1
10
-30
20
-15.6253102421943
30
0
41
1
10
-30
20
-15.6752710489662
30
0
41
1
10
-30
20
-15.7106367362118
30
0
41
1
10
-30
20
-15.7440468008705
30
0
41
1
10
-30
20
-15.7861515665346
30
0
41
1
10
-30
20
-15.8237020814765
30
0
41
1
10
-30
20
-15.8576872273509
30
0
41
1
10
-30
20
-15.8809772969169
30
0
41
1
10
-30
20
-15.9021692417172
30
0
41
1
10
-30
20
-15.921235563756
30
0
41
1
10
-30
20
-15.9381491696965
30
0
41
1
10
-30
20
-15.9528811556007
30
0
41
1
10
-30
20
-15.9654018081648
30
0
41
1
10
-30
20
-15.9756808201301
30
0
41
1
10
-30
20
-15.9836860510364
30
0
41
1
10
-30
20
-15.989385071505
30
0
41
1
10
-30
20
-15.991795896562
30
0
41
1
10
-30
20
-15.9925605169976
30
0
41
1
10
-30
20
-15.9926529179222
30
0
0
SPLINE
5
A8
100
AcDbEntity
8
SK1
62
256
6
ByLayer
370
-1
48
1
60
0
100
AcDbSpline
70
4
71
3
72
290
73
286
40
0
40
0
40
0
40
0
40
0.0008596862729418
40
0.0043501814614815
40
0.0078406766500212
40
0.0113311718385608
40
0.0148216670271004
40
0.0183121622156401
40
0.0218026574041797
40
0.0252931525927193
40
0.028783647781259
40
0.0322741429697986
40
0.0357646381583383
40
0.0392551333468779
40
0.0427456285354175
40
0.0462361237239572
40
0.0532171141010364
40
0.056707609289576
40
0.0601981044781157
40
0.0636885996666553
40
0.067179094855195
40
0.0741600852322742
40
0.0776505804208139
40
0.0811410756093535
40
0.0881220659864328
40
0.0916125611749724
40
0.0951030563635121
40
0.102084046740591
40
0.105574541929131
40
0.109065037117671
40
0.11255553230621
40
0.11604602749475
40
0.11953652268329
40
0.123027017871829
40
0.126517513060369
40
0.130008008248908
40
0.136988998625988
40
0.140479493814527
40
0.143969989003067
40
0.147460484191607
40
0.150950979380146
40
0.157931969757226
40
0.161422464945765
40
0.164912960134305
40
0.168403455322844
40
0.171893950511384
40
0.178874940888463
40
0.182365436077003
40
0.185855931265543
40
0.189346426454082
40
0.192836921642622
40
0.199817912019701
40
0.203308407208241
40
0.20679890239678
40
0.21028939758532
40
0.21377989277386
40
0.220760883150939
40
0.224251378339479
40
0.227741873528018
40
0.231232368716558
40
0.234722863905098
40
0.241703854282177
40
0.245194349470716
40
0.248684844659256
40
0.252175339847796
40
0.255665835036335
40
0.262646825413415
40
0.266137320601954
40
0.269627815790494
40
0.276608806167573
40
0.283589796544652
40
0.287080291733192
40
0.290570786921732
40
0.297551777298811
40
0.30104227248735
40
0.30453276767589
40
0.30802326286443
40
0.311513758052969
40
0.315004253241509
40
0.318494748430049
40
0.325475738807128
40
0.332456729184207
40
0.335947224372747
40
0.339437719561287
40
0.342928214749826
40
0.346418709938366
40
0.349909205126905
40
0.353399700315445
40
0.360380690692524
40
0.367361681069604
40
0.374342671446683
40
0.377833166635223
40
0.381323661823762
40
0.384814157012302
40
0.388304652200841
40
0.391795147389381
40
0.395285642577921
40
0.39877613776646
40
0.402266632955
40
0.40575712814354
40
0.409247623332079
40
0.412738118520619
40
0.416228613709159
40
0.419719108897698
40
0.423209604086238
40
0.426700099274777
40
0.430190594463317
40
0.433681089651857
40
0.435426337246127
40
0.437171584840396
40
0.438916832434666
40
0.440662080028936
40
0.444152575217476
40
0.447643070406015
40
0.449388318000285
40
0.451133565594555
40
0.452878813188825
40
0.454624060783095
40
0.456369308377364
40
0.458114555971634
40
0.461605051160174
40
0.463350298754444
40
0.465095546348713
40
0.466840793942983
40
0.468586041537253
40
0.470331289131523
40
0.472076536725793
40
0.473821784320063
40
0.475567031914332
40
0.477312279508602
40
0.479057527102872
40
0.480802774697142
40
0.482548022291412
40
0.484293269885682
40
0.486038517479951
40
0.487783765074221
40
0.489529012668491
40
0.491274260262761
40
0.493019507857031
40
0.4947647554513
40
0.49651000304557
40
0.49825525063984
40
0.50000049823411
40
0.50174574582838
40
0.50349099342265
40
0.505236241016919
40
0.506981488611189
40
0.508726736205459
40
0.510471983799729
40
0.512217231393999
40
0.513962478988269
40
0.515707726582538
40
0.517452974176808
40
0.519198221771078
40
0.520943469365348
40
0.522688716959617
40
0.524433964553887
40
0.526179212148157
40
0.527924459742427
40
0.529669707336697
40
0.531414954930967
40
0.533160202525236
40
0.534905450119506
40
0.536650697713776
40
0.538395945308046
40
0.540141192902316
40
0.541886440496586
40
0.543631688090855
40
0.545376935685125
40
0.548867430873665
40
0.550612678467935
40
0.552357926062204
40
0.555848421250744
40
0.559338916439284
40
0.561084164033553
40
0.562829411627823
40
0.564574659222093
40
0.566319906816363
40
0.569810402004903
40
0.573300897193442
40
0.576791392381982
40
0.580281887570522
40
0.583772382759061
40
0.587262877947601
40
0.590753373136141
40
0.59424386832468
40
0.59773436351322
40
0.601224858701759
40
0.604715353890299
40
0.608205849078839
40
0.611696344267378
40
0.615186839455918
40
0.618677334644458
40
0.622167829832997
40
0.625658325021537
40
0.632639315398616
40
0.639620305775695
40
0.646601296152775
40
0.650091791341314
40
0.653582286529854
40
0.657072781718394
40
0.660563276906933
40
0.664053772095473
40
0.667544267284013
40
0.674525257661092
40
0.681506248038171
40
0.684996743226711
40
0.68848723841525
40
0.69197773360379
40
0.69546822879233
40
0.698958723980869
40
0.702449219169409
40
0.709430209546488
40
0.712920704735028
40
0.716411199923567
40
0.723392190300647
40
0.730373180677726
40
0.733863675866265
40
0.737354171054805
40
0.744335161431885
40
0.747825656620424
40
0.751316151808964
40
0.754806646997503
40
0.758297142186043
40
0.765278132563122
40
0.768768627751662
40
0.772259122940201
40
0.775749618128741
40
0.779240113317281
40
0.78622110369436
40
0.7897115988829
40
0.793202094071439
40
0.796692589259979
40
0.800183084448519
40
0.807164074825598
40
0.810654570014137
40
0.814145065202677
40
0.817635560391217
40
0.821126055579756
40
0.828107045956836
40
0.831597541145375
40
0.835088036333915
40
0.836833283928185
40
0.838578531522455
40
0.842069026710994
40
0.849050017088073
40
0.852540512276613
40
0.856031007465153
40
0.859521502653692
40
0.863011997842232
40
0.869992988219311
40
0.873483483407851
40
0.876973978596391
40
0.88046447378493
40
0.88395496897347
40
0.887445464162009
40
0.890935959350549
40
0.894426454539089
40
0.897916949727628
40
0.904897940104708
40
0.908388435293247
40
0.911878930481787
40
0.918859920858866
40
0.922350416047406
40
0.925840911235946
40
0.932821901613025
40
0.936312396801564
40
0.939802891990104
40
0.943293387178644
40
0.946783882367183
40
0.953764872744263
40
0.957255367932802
40
0.960745863121342
40
0.964236358309882
40
0.967726853498421
40
0.971217348686961
40
0.9747078438755
40
0.97819833906404
40
0.98168883425258
40
0.985179329441119
40
0.988669824629659
40
0.992160319818199
40
0.995650815006738
40
0.999141310195278
40
1
40
1
40
1
40
1
41
1
10
-28.5
20
16.8570615102503
30
0
41
1
10
-28.5
20
16.8573439294447
30
0
41
1
10
-28.5
20
16.8586400087764
30
0
41
1
10
-28.5
20
16.8597682913315
30
0
41
1
10
-28.5
20
16.8587320876464
30
0
41
1
10
-28.5
20
16.8551966776124
30
0
41
1
10
-28.5
20
16.8492032887544
30
0
41
1
10
-28.5
20
16.8407921788659
30
0
41
1
10
-28.5
20
16.8300011209595
30
0
41
1
10
-28.5
20
16.8168672741156
30
0
41
1
10
-28.5
20
16.8014255225769
30
0
41
1
10
-28.5
20
16.783709883521
30
0
41
1
10
-28.5
20
16.7637529731542
30
0
41
1
10
-28.5
20
16.7415855338906
30
0
41
1
10
-28.5
20
16.7172383450784
30
0
41
1
10
-28.5
20
16.6818353810987
30
0
41
1
10
-28.5
20
16.642411510514
30
0
41
1
10
-28.5
20
16.5986105790194
30
0
41
1
10
-28.5
20
16.5637763020886
30
0
41
1
10
-28.5
20
16.5269199075572
30
0
41
1
10
-28.5
20
16.4750169305147
30
0
41
1
10
-28.5
20
16.4194622625482
30
0
41
1
10
-28.5
20
16.3597331913305
30
0
41
1
10
-28.5
20
16.2974462059125
30
0
41
1
10
-28.5
20
16.2317181614776
30
0
41
1
10
-28.5
20
16.1619255301562
30
0
41
1
10
-28.5
20
16.0896767577218
30
0
41
1
10
-28.5
20
16.0141701499498
30
0
41
1
10
-28.5
20
15.9346970720351
30
0
41
1
10
-28.5
20
15.8734193498834
30
0
41
1
10
-28.5
20
15.8103844132607
30
0
41
1
10
-28.5
20
15.745608166167
30
0
41
1
10
-28.5
20
15.6791035033831
30
0
41
1
10
-28.5
20
15.6108850520675
30
0
41
1
10
-28.5
20
15.5409672008416
30
0
41
1
10
-28.5
20
15.4453363897877
30
0
41
1
10
-28.5
20
15.3468344295442
30
0
41
1
10
-28.5
20
15.2445501023872
30
0
41
1
10
-28.5
20
15.1663215412447
30
0
41
1
10
-28.5
20
15.0864673138636
30
0
41
1
10
-28.5
20
14.9776668598204
30
0
41
1
10
-28.5
20
14.8661866472663
30
0
41
1
10
-28.5
20
14.7510047173632
30
0
41
1
10
-28.5
20
14.6631805593238
30
0
41
1
10
-28.5
20
14.5737935545692
30
0
41
1
10
-28.5
20
14.4523474056541
30
0
41
1
10
-28.5
20
14.3283920102608
30
0
41
1
10
-28.5
20
14.2007962111626
30
0
41
1
10
-28.5
20
14.1037299196573
30
0
41
1
10
-28.5
20
14.0051547121626
30
0
41
1
10
-28.5
20
13.8715103774192
30
0
41
1
10
-28.5
20
13.7355116027341
30
0
41
1
10
-28.5
20
13.5959164295663
30
0
41
1
10
-28.5
20
13.4899116400767
30
0
41
1
10
-28.5
20
13.3824445287113
30
0
41
1
10
-28.5
20
13.2369867267196
30
0
41
1
10
-28.5
20
13.0893180063072
30
0
41
1
10
-28.5
20
12.9380809359595
30
0
41
1
10
-28.5
20
12.8234002792818
30
0
41
1
10
-28.5
20
12.7072977235968
30
0
41
1
10
-28.5
20
12.550359403554
30
0
41
1
10
-28.5
20
12.3913462445321
30
0
41
1
10
-28.5
20
12.2287775158425
30
0
41
1
10
-28.5
20
12.1056498288981
30
0
41
1
10
-28.5
20
11.9811355431936
30
0
41
1
10
-28.5
20
11.8130068133241
30
0
41
1
10
-28.5
20
11.642935768078
30
0
41
1
10
-28.5
20
11.4693068645233
30
0
41
1
10
-28.5
20
11.2938625434425
30
0
41
1
10
-28.5
20
11.0718089327864
30
0
41
1
10
-28.5
20
10.8452681360072
30
0
41
1
10
-28.5
20
10.6608198079832
30
0
41
1
10
-28.5
20
10.4745957683654
30
0
41
1
10
-28.5
20
10.2866518533399
30
0
41
1
10
-28.5
20
10.0951135357909
30
0
41
1
10
-28.5
20
9.9503895477591
30
0
41
1
10
-28.5
20
9.8043545776041
30
0
41
1
10
-28.5
20
9.65701503611822
30
0
41
1
10
-28.5
20
9.50837340526908
30
0
41
1
10
-28.5
20
9.30810992365676
30
0
41
1
10
-28.5
20
9.05534970701541
30
0
41
1
10
-28.5
20
8.79830464348919
30
0
41
1
10
-28.5
20
8.58944232029054
30
0
41
1
10
-28.5
20
8.43181572672978
30
0
41
1
10
-28.5
20
8.27292311790589
30
0
41
1
10
-28.5
20
8.11277014047181
30
0
41
1
10
-28.5
20
7.9513617118449
30
0
41
1
10
-28.5
20
7.73407184255308
30
0
41
1
10
-28.5
20
7.46030866767529
30
0
41
1
10
-28.5
20
7.12632140637371
30
0
41
1
10
-28.5
20
6.84437402550569
30
0
41
1
10
-28.5
20
6.61554359890368
30
0
41
1
10
-28.5
20
6.44309029411605
30
0
41
1
10
-28.5
20
6.26944364545889
30
0
41
1
10
-28.5
20
6.09461246091769
30
0
41
1
10
-28.5
20
5.91860523667609
30
0
41
1
10
-28.5
20
5.74143189937953
30
0
41
1
10
-28.5
20
5.56310357372001
30
0
41
1
10
-28.5
20
5.38363134733163
30
0
41
1
10
-28.5
20
5.20302692387259
30
0
41
1
10
-28.5
20
5.02130422324717
30
0
41
1
10
-28.5
20
4.83847919931262
30
0
41
1
10
-28.5
20
4.65456716028001
30
0
41
1
10
-28.5
20
4.46958486845949
30
0
41
1
10
-28.5
20
4.28355302808066
30
0
41
1
10
-28.5
20
4.09649275318179
30
0
41
1
10
-28.5
20
3.90842813226232
30
0
41
1
10
-28.5
20
3.75124940963562
30
0
41
1
10
-28.5
20
3.6243549796439
30
0
41
1
10
-28.5
20
3.5292431593418
30
0
41
1
10
-28.5
20
3.43390158445518
30
0
41
1
10
-28.5
20
3.30608717079298
30
0
41
1
10
-28.5
20
3.1466907202342
30
0
41
1
10
-28.5
20
2.9865693987912
30
0
41
1
10
-28.5
20
2.85729421649611
30
0
41
1
10
-28.5
20
2.76048089001321
30
0
41
1
10
-28.5
20
2.66347976206254
30
0
41
1
10
-28.5
20
2.56629526768589
30
0
41
1
10
-28.5
20
2.46893611478751
30
0
41
1
10
-28.5
20
2.33842740009587
30
0
41
1
10
-28.5
20
2.20905952740142
30
0
41
1
10
-28.5
20
2.07788039572898
30
0
41
1
10
-28.5
20
1.97974994874616
30
0
41
1
10
-28.5
20
1.88148715614122
30
0
41
1
10
-28.5
20
1.78310090101277
30
0
41
1
10
-28.5
20
1.68460072925305
30
0
41
1
10
-28.5
20
1.58599184128096
30
0
41
1
10
-28.5
20
1.48728649469356
30
0
41
1
10
-28.5
20
1.38848914320587
30
0
41
1
10
-28.5
20
1.28961139997082
30
0
41
1
10
-28.5
20
1.19065859360987
30
0
41
1
10
-28.5
20
1.09164071478048
30
0
41
1
10
-28.5
20
0.992564090788449
30
0
41
1
10
-28.5
20
0.893436923932512
30
0
41
1
10
-28.5
20
0.794265471937138
30
0
41
1
10
-28.5
20
0.695056741362833
30
0
41
1
10
-28.5
20
0.595816468507252
30
0
41
1
10
-28.5
20
0.49655061320999
30
0
41
1
10
-28.5
20
0.397263853181812
30
0
41
1
10
-28.5
20
0.297961366795107
30
0
41
1
10
-28.5
20
0.198647102840738
30
0
41
1
10
-28.5
20
0.0993254669347436
30
0
41
1
10
-28.5
20
5.4725149E-09
30
0
41
1
10
-28.5
20
-0.0993254684405827
30
0
41
1
10
-28.5
20
-0.198647127601248
30
0
41
1
10
-28.5
20
-0.297961388791691
30
0
41
1
10
-28.5
20
-0.397263840424017
30
0
41
1
10
-28.5
20
-0.496550594205559
30
0
41
1
10
-28.5
20
-0.595816495504096
30
0
41
1
10
-28.5
20
-0.695056784277028
30
0
41
1
10
-28.5
20
-0.794265459276176
30
0
41
1
10
-28.5
20
-0.89343688343348
30
0
41
1
10
-28.5
20
-0.992564112169902
30
0
41
1
10
-28.5
20
-1.0916407792042
30
0
41
1
10
-28.5
20
-1.19065859620264
30
0
41
1
10
-28.5
20
-1.28961134189751
30
0
41
1
10
-28.5
20
-1.38848913588993
30
0
41
1
10
-28.5
20
-1.48728656512978
30
0
41
1
10
-28.5
20
-1.58599188781932
30
0
41
1
10
-28.5
20
-1.6846006870125
30
0
41
1
10
-28.5
20
-1.78310084050699
30
0
41
1
10
-28.5
20
-1.88148718140701
30
0
41
1
10
-28.5
20
-1.9797500364362
30
0
41
1
10
-28.5
20
-2.0778804265363
30
0
41
1
10
-28.5
20
-2.17587292609082
30
0
41
1
10
-28.5
20
-2.27371679621317
30
0
41
1
10
-28.5
20
-2.37140757120352
30
0
41
1
10
-28.5
20
-2.46893613943033
30
0
41
1
10
-28.5
20
-2.59923374131699
30
0
41
1
10
-28.5
20
-2.72777279716706
30
0
41
1
10
-28.5
20
-2.8572942882393
30
0
41
1
10
-28.5
20
-2.98656948332388
30
0
41
1
10
-28.5
20
-3.14669074057869
30
0
41
1
10
-28.5
20
-3.30608709676798
30
0
41
1
10
-28.5
20
-3.43390157548936
30
0
41
1
10
-28.5
20
-3.52924322184191
30
0
41
1
10
-28.5
20
-3.62435506854831
30
0
41
1
10
-28.5
20
-3.75124942106058
30
0
41
1
10
-28.5
20
-3.90842799420625
30
0
41
1
10
-28.5
20
-4.09649259176146
30
0
41
1
10
-28.5
20
-4.28355297730505
30
0
41
1
10
-28.5
20
-4.4695846174555
30
0
41
1
10
-28.5
20
-4.65456683421036
30
0
41
1
10
-28.5
20
-4.83847943804494
30
0
41
1
10
-28.5
20
-5.0213044851898
30
0
41
1
10
-28.5
20
-5.2030267003301
30
0
41
1
10
-28.5
20
-5.38363156234237
30
0
41
1
10
-28.5
20
-5.56310445504442
30
0
41
1
10
-28.5
20
-5.74143237747981
30
0
41
1
10
-28.5
20
-5.91860495448572
30
0
41
1
10
-28.5
20
-6.09461208825527
30
0
41
1
10
-28.5
20
-6.26944357118296
30
0
41
1
10
-28.5
20
-6.4430903265563
30
0
41
1
10
-28.5
20
-6.61554357091569
30
0
41
1
10
-28.5
20
-6.84437400802861
30
0
41
1
10
-28.5
20
-7.12632144512301
30
0
41
1
10
-28.5
20
-7.46030865505759
30
0
41
1
10
-28.5
20
-7.73407184285279
30
0
41
1
10
-28.5
20
-7.95136176299604
30
0
41
1
10
-28.5
20
-8.11277014937082
30
0
41
1
10
-28.5
20
-8.27292308432646
30
0
41
1
10
-28.5
20
-8.43181570788786
30
0
41
1
10
-28.5
20
-8.5894423488798
30
0
41
1
10
-28.5
20
-8.79830467826932
30
0
41
1
10
-28.5
20
-9.05534969583792
30
0
41
1
10
-28.5
20
-9.30810991622684
30
0
41
1
10
-28.5
20
-9.50837344479851
30
0
41
1
10
-28.5
20
-9.6570150628749
30
0
41
1
10
-28.5
20
-9.80435457188474
30
0
41
1
10
-28.5
20
-9.95038952754788
30
0
41
1
10
-28.5
20
-10.095113531911
30
0
41
1
10
-28.5
20
-10.2866518813937
30
0
41
1
10
-28.5
20
-10.4745957936973
30
0
41
1
10
-28.5
20
-10.6608197986608
30
0
41
1
10
-28.5
20
-10.8452681286137
30
0
41
1
10
-28.5
20
-11.0718089525805
30
0
41
1
10
-28.5
20
-11.2938625632929
30
0
41
1
10
-28.5
20
-11.4693068596264
30
0
41
1
10
-28.5
20
-11.6429357656381
30
0
41
1
10
-28.5
20
-11.8130068303033
30
0
41
1
10
-28.5
20
-11.9811355648908
30
0
41
1
10
-28.5
20
-12.1056498404809
30
0
41
1
10
-28.5
20
-12.2287775174238
30
0
41
1
10
-28.5
20
-12.3913462461042
30
0
41
1
10
-28.5
20
-12.550359417297
30
0
41
1
10
-28.5
20
-12.7072977423403
30
0
41
1
10
-28.5
20
-12.8234002933141
30
0
41
1
10
-28.5
20
-12.9380809438717
30
0
41
1
10
-28.5
20
-13.0893180117674
30
0
41
1
10
-28.5
20
-13.2369867372074
30
0
41
1
10
-28.5
20
-13.3824445445542
30
0
41
1
10
-28.5
20
-13.4899116562854
30
0
41
1
10
-28.5
20
-13.5959164434403
30
0
41
1
10
-28.5
20
-13.7355116125921
30
0
41
1
10
-28.5
20
-13.8715103854275
30
0
41
1
10
-28.5
20
-14.0051547249398
30
0
41
1
10
-28.5
20
-14.1037299370701
30
0
41
1
10
-28.5
20
-14.2007962250068
30
0
41
1
10
-28.5
20
-14.328392039309
30
0
41
1
10
-28.5
20
-14.4523474054459
30
0
41
1
10
-28.5
20
-14.5737935062701
30
0
41
1
10
-28.5
20
-14.6481896525931
30
0
41
1
10
-28.5
20
-14.7070919001429
30
0
41
1
10
-28.5
20
-14.7654709460418
30
0
41
1
10
-28.5
20
-14.8661866667289
30
0
41
1
10
-28.5
20
-14.9776668655465
30
0
41
1
10
-28.5
20
-15.0864673213159
30
0
41
1
10
-28.5
20
-15.1663215599361
30
0
41
1
10
-28.5
20
-15.2445501295776
30
0
41
1
10
-28.5
20
-15.3468344527491
30
0
41
1
10
-28.5
20
-15.4453363938053
30
0
41
1
10
-28.5
20
-15.5409672073329
30
0
41
1
10
-28.5
20
-15.6108850733398
30
0
41
1
10
-28.5
20
-15.6791035342519
30
0
41
1
10
-28.5
20
-15.7456081924762
30
0
41
1
10
-28.5
20
-15.810384423087
30
0
41
1
10
-28.5
20
-15.8734193510279
30
0
41
1
10
-28.5
20
-15.9346970807191
30
0
41
1
10
-28.5
20
-16.0141701800502
30
0
41
1
10
-28.5
20
-16.0896767899467
30
0
41
1
10
-28.5
20
-16.1619255341458
30
0
41
1
10
-28.5
20
-16.2317181619347
30
0
41
1
10
-28.5
20
-16.2974462376793
30
0
41
1
10
-28.5
20
-16.3597332242326
30
0
41
1
10
-28.5
20
-16.4194622696319
30
0
41
1
10
-28.5
20
-16.4750169286961
30
0
41
1
10
-28.5
20
-16.5269199399481
30
0
41
1
10
-28.5
20
-16.5637763395247
30
0
41
1
10
-28.5
20
-16.5986105943247
30
0
41
1
10
-28.5
20
-16.642411504334
30
0
41
1
10
-28.5
20
-16.6818354096897
30
0
41
1
10
-28.5
20
-16.7172383773104
30
0
41
1
10
-28.5
20
-16.741585550229
30
0
41
1
10
-28.5
20
-16.7637529737167
30
0
41
1
10
-28.5
20
-16.7837098927271
30
0
41
1
10
-28.5
20
-16.8014255596809
30
0
41
1
10
-28.5
20
-16.816867307208
30
0
41
1
10
-28.5
20
-16.8300011251081
30
0
41
1
10
-28.5
20
-16.8407921763224
30
0
41
1
10
-28.5
20
-16.8492033090471
30
0
41
1
10
-28.5
20
-16.8551966659016
30
0
41
1
10
-28.5
20
-16.8587319423621
30
0
41
1
10
-28.5
20
-16.8597680746869
30
0
41
1
10
-28.5
20
-16.8586400434858
30
0
41
1
10
-28.5
20
-16.8573445026377
30
0
41
1
10
-28.5
20
-16.8570624898975
30
0
0
SPLINE
5
A9
100
AcDbEntity
8
SK1
62
256
6
ByLayer
370
-1
48
1
60
0
100
AcDbSpline
70
4
71
3
72
284
73
280
40
0
40
0
40
0
40
0
40
0.0001431017631678
40
0.0037135092689528
40
0.0072839167747378
40
0.0108543242805228
40
0.0144247317863078
40
0.0179951392920928
40
0.0215655467978778
40
0.0251359543036628
40
0.0287063618094478
40
0.0322767693152328
40
0.0358471768210178
40
0.0429879918325878
40
0.0465583993383728
40
0.0501288068441579
40
0.0536992143499429
40
0.0572696218557279
40
0.0644104368672979
40
0.0679808443730829
40
0.0715512518788679
40
0.0786920668904379
40
0.0822624743962229
40
0.0858328819020079
40
0.0929736969135779
40
0.0965441044193629
40
0.100114511925148
40
0.103684919430933
40
0.107255326936718
40
0.110825734442503
40
0.114396141948288
40
0.117966549454073
40
0.121536956959858
40
0.128677771971428
40
0.132248179477213
40
0.135818586982998
40
0.139388994488783
40
0.142959401994568
40
0.150100217006138
40
0.153670624511923
40
0.157241032017708
40
0.160811439523493
40
0.164381847029278
40
0.171522662040848
40
0.175093069546633
40
0.178663477052418
40
0.182233884558203
40
0.185804292063988
40
0.192945107075558
40
0.196515514581343
40
0.200085922087128
40
0.203656329592913
40
0.207226737098698
40
0.214367552110268
40
0.217937959616053
40
0.221508367121838
40
0.225078774627623
40
0.228649182133408
40
0.235789997144978
40
0.239360404650763
40
0.242930812156548
40
0.246501219662333
40
0.250071627168118
40
0.257212442179688
40
0.260782849685473
40
0.264353257191258
40
0.271494072202828
40
0.278634887214398
40
0.282205294720183
40
0.285775702225968
40
0.292916517237538
40
0.296486924743323
40
0.300057332249108
40
0.303627739754893
40
0.307198147260678
40
0.310768554766463
40
0.314338962272248
40
0.321479777283818
40
0.328620592295388
40
0.332190999801173
40
0.335761407306958
40
0.339331814812743
40
0.342902222318528
40
0.346472629824313
40
0.350043037330098
40
0.357183852341668
40
0.364324667353238
40
0.371465482364808
40
0.375035889870593
40
0.378606297376378
40
0.382176704882163
40
0.385747112387948
40
0.389317519893733
40
0.392887927399518
40
0.396458334905303
40
0.400028742411088
40
0.403599149916873
40
0.407169557422658
40
0.410739964928443
40
0.414310372434228
40
0.417880779940013
40
0.421451187445798
40
0.425021594951583
40
0.428592002457368
40
0.432162409963153
40
0.433947613716046
40
0.435732817468938
40
0.437518021221831
40
0.439303224974723
40
0.442873632480508
40
0.446444039986293
40
0.448229243739186
40
0.450014447492078
40
0.451799651244971
40
0.453584854997863
40
0.455370058750756
40
0.457155262503648
40
0.460725670009433
40
0.462510873762326
40
0.464296077515218
40
0.466081281268111
40
0.467866485021003
40
0.469651688773896
40
0.471436892526788
40
0.473222096279681
40
0.475007300032573
40
0.476792503785466
40
0.478577707538358
40
0.480362911291251
40
0.482148115044143
40
0.483933318797036
40
0.485718522549928
40
0.487503726302821
40
0.489288930055713
40
0.491074133808606
40
0.492859337561498
40
0.494644541314391
40
0.496429745067283
40
0.498214948820176
40
0.500000152573068
40
0.501785356325961
40
0.503570560078853
40
0.505355763831746
40
0.507140967584638
40
0.508926171337531
40
0.510711375090423
40
0.512496578843316
40
0.514281782596208
40
0.516066986349101
40
0.517852190101993
40
0.519637393854886
40
0.521422597607778
40
0.523207801360671
40
0.524993005113563
40
0.526778208866456
40
0.528563412619348
40
0.530348616372241
40
0.532133820125133
40
0.533919023878026
40
0.535704227630918
40
0.537489431383811
40
0.539274635136703
40
0.541059838889596
40
0.542845042642488
40
0.544630246395381
40
0.546415450148273
40
0.549985857654058
40
0.551771061406951
40
0.553556265159843
40
0.557126672665628
40
0.560697080171413
40
0.562482283924306
40
0.564267487677198
40
0.566052691430091
40
0.567837895182983
40
0.571408302688768
40
0.574978710194553
40
0.578549117700338
40
0.582119525206123
40
0.585689932711908
40
0.589260340217693
40
0.592830747723478
40
0.596401155229263
40
0.599971562735048
40
0.603541970240833
40
0.607112377746618
40
0.610682785252403
40
0.614253192758188
40
0.617823600263973
40
0.621394007769758
40
0.624964415275543
40
0.628534822781328
40
0.635675637792898
40
0.642816452804468
40
0.649957267816038
40
0.653527675321823
40
0.657098082827608
40
0.660668490333393
40
0.664238897839178
40
0.667809305344963
40
0.671379712850748
40
0.678520527862318
40
0.685661342873888
40
0.689231750379673
40
0.692802157885458
40
0.696372565391243
40
0.699942972897028
40
0.703513380402813
40
0.707083787908598
40
0.714224602920168
40
0.717795010425953
40
0.721365417931738
40
0.728506232943308
40
0.735647047954878
40
0.739217455460663
40
0.742787862966448
40
0.749928677978018
40
0.753499085483803
40
0.757069492989588
40
0.760639900495373
40
0.764210308001158
40
0.771351123012728
40
0.774921530518513
40
0.778491938024298
40
0.782062345530083
40
0.785632753035868
40
0.792773568047438
40
0.796343975553223
40
0.799914383059008
40
0.803484790564793
40
0.807055198070578
40
0.814196013082148
40
0.817766420587933
40
0.821336828093718
40
0.824907235599503
40
0.828477643105288
40
0.835618458116858
40
0.839188865622643
40
0.842759273128428
40
0.844544476881321
40
0.846329680634213
40
0.849900088139998
40
0.857040903151568
40
0.860611310657353
40
0.864181718163138
40
0.867752125668923
40
0.871322533174708
40
0.878463348186278
40
0.882033755692063
40
0.885604163197848
40
0.889174570703633
40
0.892744978209418
40
0.896315385715203
40
0.899885793220988
40
0.903456200726773
40
0.907026608232558
40
0.914167423244128
40
0.917737830749913
40
0.921308238255698
40
0.928449053267268
40
0.932019460773053
40
0.935589868278838
40
0.942730683290408
40
0.946301090796193
40
0.949871498301978
40
0.953441905807763
40
0.957012313313548
40
0.964153128325118
40
0.967723535830903
40
0.971293943336689
40
0.974864350842473
40
0.978434758348258
40
0.982005165854044
40
0.985575573359828
40
0.989145980865613
40
0.992716388371399
40
0.996286795877183
40
0.999857203382968
40
1
40
1
40
1
40
1
41
1
10
-1.99503997793928
20
17.3206892188795
30
0
41
1
10
-1.99503997793928
20
17.3206252242171
30
0
41
1
10
-1.9950399779393
20
17.318947025432
30
0
41
1
10
-1.9950399779393
20
17.314763700365
30
0
41
1
10
-1.9950399779393
20
17.3061342577567
30
0
41
1
10
-1.9950399779393
20
17.295067771448
30
0
41
1
10
-1.9950399779393
20
17.2816041041457
30
0
41
1
10
-1.9950399779393
20
17.2657805776118
30
0
41
1
10
-1.9950399779393
20
17.2476335117891
30
0
41
1
10
-1.9950399779393
20
17.2271975457697
30
0
41
1
10
-1.9950399779393
20
17.2045053960087
30
0
41
1
10
-1.9950399779393
20
17.1795895960111
30
0
41
1
10
-1.9950399779393
20
17.143423992764
30
0
41
1
10
-1.9950399779393
20
17.1029924242497
30
0
41
1
10
-1.9950399779393
20
17.0582791326422
30
0
41
1
10
-1.9950399779393
20
17.0226787925821
30
0
41
1
10
-1.9950399779393
20
16.9850205529168
30
0
41
1
10
-1.9950399779393
20
16.9320728615657
30
0
41
1
10
-1.9950399779393
20
16.8751872660894
30
0
41
1
10
-1.9950399779393
20
16.8142877036056
30
0
41
1
10
-1.9950399779393
20
16.7507929832779
30
0
41
1
10
-1.9950399779393
20
16.6835453056651
30
0
41
1
10
-1.9950399779393
20
16.6124299551482
30
0
41
1
10
-1.9950399779393
20
16.5388242186582
30
0
41
1
10
-1.9950399779393
20
16.4616240004255
30
0
41
1
10
-1.9950399779393
20
16.3806869939664
30
0
41
1
10
-1.9950399779393
20
16.3182114219941
30
0
41
1
10
-1.9950399779393
20
16.2539521138774
30
0
41
1
10
-1.9950399779393
20
16.1879246249361
30
0
41
1
10
-1.9950399779393
20
16.1201424382026
30
0
41
1
10
-1.9950399779393
20
16.0506207732709
30
0
41
1
10
-1.9950399779393
20
15.979373490825
30
0
41
1
10
-1.9950399779393
20
15.8820499794418
30
0
41
1
10
-1.9950399779393
20
15.7814584486047
30
0
41
1
10
-1.9950399779393
20
15.677384958149
30
0
41
1
10
-1.9950399779393
20
15.5977008436634
30
0
41
1
10
-1.9950399779393
20
15.5163656256123
30
0
41
1
10
-1.9950399779393
20
15.4056838451686
30
0
41
1
10
-1.9950399779393
20
15.2918890118945
30
0
41
1
10
-1.9950399779393
20
15.1747311694574
30
0
41
1
10
-1.9950399779393
20
15.0853020659337
30
0
41
1
10
-1.9950399779393
20
14.9942846604514
30
0
41
1
10
-1.9950399779393
20
14.8707702235387
30
0
41
1
10
-1.9950399779393
20
14.7442755428493
30
0
41
1
10
-1.9950399779393
20
14.6145160455858
30
0
41
1
10
-1.9950399779393
20
14.5156939096276
30
0
41
1
10
-1.9950399779393
20
14.4153366771621
30
0
41
1
10
-1.9950399779393
20
14.2794333721973
30
0
41
1
10
-1.9950399779393
20
14.1406647198644
30
0
41
1
10
-1.9950399779393
20
13.9987118830366
30
0
41
1
10
-1.9950399779393
20
13.8907947247769
30
0
41
1
10
-1.9950399779393
20
13.7813876415877
30
0
41
1
10
-1.9950399779393
20
13.6334713769854
30
0
41
1
10
-1.9950399779393
20
13.482790135872
30
0
41
1
10
-1.9950399779393
20
13.328990109671
30
0
41
1
10
-1.9950399779393
20
13.2122307400427
30
0
41
1
10
-1.9950399779393
20
13.09401974916
30
0
41
1
10
-1.9950399779393
20
12.9344093145834
30
0
41
1
10
-1.9950399779393
20
12.7721223429484
30
0
41
1
10
-1.9950399779393
20
12.606768466692
30
0
41
1
10
-1.9950399779393
20
12.4813812679684
30
0
41
1
10
-1.9950399779393
20
12.3545748152048
30
0
41
1
10
-1.9950399779393
20
12.1835401119863
30
0
41
1
10
-1.9950399779393
20
12.0099077332894
30
0
41
1
10
-1.9950399779393
20
11.8332480165124
30
0
41
1
10
-1.9950399779393
20
11.6547268261542
30
0
41
1
10
-1.9950399779393
20
11.4282697000141
30
0
41
1
10
-1.9950399779393
20
11.1972001365959
30
0
41
1
10
-1.9950399779393
20
11.00944356136
30
0
41
1
10
-1.9950399779393
20
10.8198574498995
30
0
41
1
10
-1.9950399779393
20
10.627787937013
30
0
41
1
10
-1.9950399779393
20
10.4327334855784
30
0
41
1
10
-1.9950399779393
20
10.2851499168301
30
0
41
1
10
-1.9950399779393
20
10.13621047024
30
0
41
1
10
-1.9950399779393
20
9.98591879047714
30
0
41
1
10
-1.9950399779393
20
9.83427692622885
30
0
41
1
10
-1.9950399779393
20
9.63019833168175
30
0
41
1
10
-1.9950399779393
20
9.37195865327328
30
0
41
1
10
-1.9950399779393
20
9.1092571782612
30
0
41
1
10
-1.9950399779393
20
8.89624559944801
30
0
41
1
10
-1.9950399779393
20
8.73523611643316
30
0
41
1
10
-1.9950399779393
20
8.57289871794615
30
0
41
1
10
-1.9950399779393
20
8.40923673354897
30
0
41
1
10
-1.9950399779393
20
8.24425232954013
30
0
41
1
10
-1.9950399779393
20
8.0224014648056
30
0
41
1
10
-1.9950399779393
20
7.7420578132905
30
0
41
1
10
-1.9950399779393
20
7.40025290593451
30
0
41
1
10
-1.9950399779393
20
7.11118461088941
30
0
41
1
10
-1.9950399779393
20
6.87709665618266
30
0
41
1
10
-1.9950399779393
20
6.70033531356589
30
0
41
1
10
-1.9950399779393
20
6.52228078287743
30
0
41
1
10
-1.9950399779393
20
6.3429370741791
30
0
41
1
10
-1.9950399779393
20
6.16230788845579
30
0
41
1
10
-1.9950399779393
20
5.98039789106801
30
0
41
1
10
-1.9950399779393
20
5.79721186805691
30
0
41
1
10
-1.9950399779393
20
5.61275496243289
30
0
41
1
10
-1.9950399779393
20
5.42703270327695
30
0
41
1
10
-1.9950399779393
20
5.24005175731475
30
0
41
1
10
-1.9950399779393
20
5.05181945337139
30
0
41
1
10
-1.9950399779393
20
4.86234332329403
30
0
41
1
10
-1.9950399779393
20
4.67163207713236
30
0
41
1
10
-1.9950399779393
20
4.47969614999016
30
0
41
1
10
-1.9950399779393
20
4.28654656517494
30
0
41
1
10
-1.9950399779393
20
4.09219634432211
30
0
41
1
10
-1.9950399779393
20
3.92934661081907
30
0
41
1
10
-1.9950399779393
20
3.7982972967292
30
0
41
1
10
-1.9950399779393
20
3.69979994526253
30
0
41
1
10
-1.9950399779393
20
3.6010147061962
30
0
41
1
10
-1.9950399779393
20
3.46881385164499
30
0
41
1
10
-1.9950399779393
20
3.30310841087518
30
0
41
1
10
-1.9950399779393
20
3.13647579824178
30
0
41
1
10
-1.9950399779393
20
3.00241852965871
30
0
41
1
10
-1.9950399779393
20
2.90170218623106
30
0
41
1
10
-1.9950399779393
20
2.80072442890969
30
0
41
1
10
-1.9950399779393
20
2.69948931487846
30
0
41
1
10
-1.9950399779393
20
2.5980019734576
30
0
41
1
10
-1.9950399779393
20
2.46222694501739
30
0
41
1
10
-1.9950399779393
20
2.3263670801044
30
0
41
1
10
-1.9950399779393
20
2.18963187963746
30
0
41
1
10
-1.9950399779393
20
2.08696367451518
30
0
41
1
10
-1.9950399779393
20
1.98407765086858
30
0
41
1
10
-1.9950399779393
20
1.88098143773604
30
0
41
1
10
-1.9950399779393
20
1.77768276547397
30
0
41
1
10
-1.9950399779393
20
1.67418894734925
30
0
41
1
10
-1.9950399779393
20
1.57050946303122
30
0
41
1
10
-1.9950399779393
20
1.46665209995737
30
0
41
1
10
-1.9950399779393
20
1.36262724011792
30
0
41
1
10
-1.9950399779393
20
1.25844372920938
30
0
41
1
10
-1.9950399779393
20
1.15411255471386
30
0
41
1
10
-1.9950399779393
20
1.04964378000579
30
0
41
1
10
-1.9950399779393
20
0.945048899580655
30
0
41
1
10
-1.9950399779393
20
0.840338961204225
30
0
41
1
10
-1.9950399779393
20
0.735526073032332
30
0
41
1
10
-1.9950399779393
20
0.630622105582688
30
0
41
1
10
-1.9950399779393
20
0.525639721157262
30
0
41
1
10
-1.9950399779393
20
0.420591350928703
30
0
41
1
10
-1.9950399779393
20
0.315490126623814
30
0
41
1
10
-1.9950399779393
20
0.210348939519435
30
0
41
1
10
-1.9950399779393
20
0.105181165306249
30
0
41
1
10
-1.9950399779393
20
-2.6093687E-09
30
0
41
1
10
-1.9950399779393
20
-0.10518117389941
30
0
41
1
10
-1.9950399779393
20
-0.21034895445402
30
0
41
1
10
-1.9950399779393
20
-0.315490140896543
30
0
41
1
10
-1.9950399779393
20
-0.420591355720489
30
0
41
1
10
-1.9950399779393
20
-0.525639723935797
30
0
41
1
10
-1.9950399779393
20
-0.630622120770227
30
0
41
1
10
-1.9950399779393
20
-0.735526093018507
30
0
41
1
10
-1.9950399779393
20
-0.840338966235578
30
0
41
1
10
-1.9950399779393
20
-0.945048896197648
30
0
41
1
10
-1.9950399779393
20
-1.04964379294299
30
0
41
1
10
-1.9950399779393
20
-1.15411258033262
30
0
41
1
10
-1.9950399779393
20
-1.25844373877697
30
0
41
1
10
-1.9950399779393
20
-1.36262723194542
30
0
41
1
10
-1.9950399779393
20
-1.46665210416356
30
0
41
1
10
-1.9950399779393
20
-1.57050948928742
30
0
41
1
10
-1.9950399779393
20
-1.67418896894682
30
0
41
1
10
-1.9950399779393
20
-1.77768276258209
30
0
41
1
10
-1.9950399779393
20
-1.88098142742643
30
0
41
1
10
-1.9950399779393
20
-1.98407766278629
30
0
41
1
10
-1.9950399779393
20
-2.08696370566375
30
0
41
1
10
-1.9950399779393
20
-2.18963189754737
30
0
41
1
10
-1.9950399779393
20
-2.29207637206397
30
0
41
1
10
-1.9950399779393
20
-2.39428973936722
30
0
41
1
10
-1.9950399779393
20
-2.49626703199883
30
0
41
1
10
-1.9950399779393
20
-2.59800197223717
30
0
41
1
10
-1.9950399779393
20
-2.73345090264118
30
0
41
1
10
-1.9950399779393
20
-2.86801083241156
30
0
41
1
10
-1.9950399779393
20
-3.00241855173454
30
0
41
1
10
-1.9950399779393
20
-3.13647582573117
30
0
41
1
10
-1.9950399779393
20
-3.30310842941955
30
0
41
1
10
-1.9950399779393
20
-3.46881383607317
30
0
41
1
10
-1.9950399779393
20
-3.60101470543907
30
0
41
1
10
-1.9950399779393
20
-3.69979996514493
30
0
41
1
10
-1.9950399779393
20
-3.79829732832764
30
0
41
1
10
-1.9950399779393
20
-3.92934662557204
30
0
41
1
10
-1.9950399779393
20
-4.09219631216948
30
0
41
1
10
-1.9950399779393
20
-4.28654650347451
30
0
41
1
10
-1.9950399779393
20
-4.47969611179559
30
0
41
1
10
-1.9950399779393
20
-4.67163198724225
30
0
41
1
10
-1.9950399779393
20
-4.86234315765492
30
0
41
1
10
-1.9950399779393
20
-5.05181944357969
30
0
41
1
10
-1.9950399779393
20
-5.24005183821342
30
0
41
1
10
-1.9950399779393
20
-5.42703263168386
30
0
41
1
10
-1.9950399779393
20
-5.61275497462711
30
0
41
1
10
-1.9950399779393
20
-5.79721217482029
30
0
41
1
10
-1.9950399779393
20
-5.98039819956611
30
0
41
1
10
-1.9950399779393
20
-6.16230794338162
30
0
41
1
10
-1.9950399779393
20
-6.34293700639154
30
0
41
1
10
-1.9950399779393
20
-6.52228076981257
30
0
41
1
10
-1.9950399779393
20
-6.70033533418757
30
0
41
1
10
-1.9950399779393
20
-6.87709665926303
30
0
41
1
10
-1.9950399779393
20
-7.11118459991687
30
0
41
1
10
-1.9950399779393
20
-7.40025292645402
30
0
41
1
10
-1.9950399779393
20
-7.74205781809903
30
0
41
1
10
-1.9950399779393
20
-8.02240145976876
30
0
41
1
10
-1.9950399779393
20
-8.24425235284596
30
0
41
1
10
-1.9950399779393
20
-8.40923674956807
30
0
41
1
10
-1.9950399779393
20
-8.57289871422529
30
0
41
1
10
-1.9950399779393
20
-8.73523610803539
30
0
41
1
10
-1.9950399779393
20
-8.89624560664996
30
0
41
1
10
-1.9950399779393
20
-9.10925720032841
30
0
41
1
10
-1.9950399779393
20
-9.37195865915049
30
0
41
1
10
-1.9950399779393
20
-9.6301983246166
30
0
41
1
10
-1.9950399779393
20
-9.83427694277646
30
0
41
1
10
-1.9950399779393
20
-9.98591881051331
30
0
41
1
10
-1.9950399779393
20
-10.1362104789651
30
0
41
1
10
-1.9950399779393
20
-10.2851499142426
30
0
41
1
10
-1.9950399779393
20
-10.432733482583
30
0
41
1
10
-1.9950399779393
20
-10.6277879483349
30
0
41
1
10
-1.9950399779393
20
-10.8198574709635
30
0
41
1
10
-1.9950399779393
20
-11.0094435667743
30
0
41
1
10
-1.9950399779393
20
-11.1972001338813
30
0
41
1
10
-1.9950399779393
20
-11.4282697094187
30
0
41
1
10
-1.9950399779393
20
-11.6547268446385
30
0
41
1
10
-1.9950399779393
20
-11.8332480225582
30
0
41
1
10
-1.9950399779393
20
-12.0099077334538
30
0
41
1
10
-1.9950399779393
20
-12.1835401209566
30
0
41
1
10
-1.9950399779393
20
-12.3545748313203
30
0
41
1
10
-1.9950399779393
20
-12.4813812819682
30
0
41
1
10
-1.9950399779393
20
-12.6067684751262
30
0
41
1
10
-1.9950399779393
20
-12.7721223466594
30
0
41
1
10
-1.9950399779393
20
-12.9344093235711
30
0
41
1
10
-1.9950399779393
20
-13.0940197637218
30
0
41
1
10
-1.9950399779393
20
-13.2122307543484
30
0
41
1
10
-1.9950399779393
20
-13.3289901210133
30
0
41
1
10
-1.9950399779393
20
-13.4827901435456
30
0
41
1
10
-1.9950399779393
20
-13.6334713858817
30
0
41
1
10
-1.9950399779393
20
-13.7813876543746
30
0
41
1
10
-1.9950399779393
20
-13.8907947392413
30
0
41
1
10
-1.9950399779393
20
-13.99871189727
30
0
41
1
10
-1.9950399779393
20
-14.1406647319193
30
0
41
1
10
-1.9950399779393
20
-14.2794333813788
30
0
41
1
10
-1.9950399779393
20
-14.4153366880849
30
0
41
1
10
-1.9950399779393
20
-14.5156939237825
30
0
41
1
10
-1.9950399779393
20
-14.614516060936
30
0
41
1
10
-1.9950399779393
20
-14.7442755571137
30
0
41
1
10
-1.9950399779393
20
-14.8707702595594
30
0
41
1
10
-1.9950399779393
20
-14.9942845913974
30
0
41
1
10
-1.9950399779393
20
-15.070107125687
30
0
41
1
10
-1.9950399779393
20
-15.130016414734
30
0
41
1
10
-1.9950399779393
20
-15.1893946011098
30
0
41
1
10
-1.9950399779393
20
-15.2918890331241
30
0
41
1
10
-1.9950399779393
20
-15.4056838559475
30
0
41
1
10
-1.9950399779393
20
-15.5163656330196
30
0
41
1
10
-1.9950399779393
20
-15.5977008570348
30
0
41
1
10
-1.9950399779393
20
-15.677384979663
30
0
41
1
10
-1.9950399779393
20
-15.781458474053
30
0
41
1
10
-1.9950399779393
20
-15.8820499896637
30
0
41
1
10
-1.9950399779393
20
-15.9793734967038
30
0
41
1
10
-1.9950399779393
20
-16.0506207879892
30
0
41
1
10
-1.9950399779393
20
-16.1201424632647
30
0
41
1
10
-1.9950399779393
20
-16.1879246525291
30
0
41
1
10
-1.9950399779393
20
-16.2539521307207
30
0
41
1
10
-1.9950399779393
20
-16.3182114280861
30
0
41
1
10
-1.9950399779393
20
-16.3806869997558
30
0
41
1
10
-1.9950399779393
20
-16.4616240235723
30
0
41
1
10
-1.9950399779393
20
-16.538824252381
30
0
41
1
10
-1.9950399779393
20
-16.6124299668847
30
0
41
1
10
-1.9950399779393
20
-16.6835453043615
30
0
41
1
10
-1.9950399779393
20
-16.7507930080793
30
0
41
1
10
-1.9950399779393
20
-16.8142877377232
30
0
41
1
10
-1.9950399779393
20
-16.8751872797734
30
0
41
1
10
-1.9950399779393
20
-16.9320728583858
30
0
41
1
10
-1.9950399779393
20
-16.9850205784631
30
0
41
1
10
-1.9950399779393
20
-17.0226788299273
30
0
41
1
10
-1.9950399779393
20
-17.0582791544303
30
0
41
1
10
-1.9950399779393
20
-17.1029924178939
30
0
41
1
10
-1.9950399779393
20
-17.1434240170936
30
0
41
1
10
-1.9950399779393
20
-17.1795896288677
30
0
41
1
10
-1.9950399779393
20
-17.204505416066
30
0
41
1
10
-1.9950399779393
20
-17.2271975480507
30
0
41
1
10
-1.9950399779393
20
-17.2476335178127
30
0
41
1
10
-1.9950399779393
20
-17.2657806121613
30
0
41
1
10
-1.9950399779393
20
-17.2816041393821
30
0
41
1
10
-1.9950399779393
20
-17.2950677779805
30
0
41
1
10
-1.9950399779393
20
-17.3061342543252
30
0
41
1
10
-1.9950399779393
20
-17.3147637210185
30
0
41
1
10
-1.9950399779393
20
-17.3189468520781
30
0
41
1
10
-1.9950399779393
20
-17.3206249211696
30
0
41
1
10
-1.99503997793931
20
-17.3206887810985
30
0
0
SPLINE
5
AA
100
AcDbEntity
8
SK1
62
256
6
ByLayer
370
-1
48
1
60
0
100
AcDbSpline
70
4
71
3
72
12
73
8
40
0
40
0
40
0
40
0
40
0.130082289432465
40
0.130082289432465
40
0.652840181869505
40
0.652840181869505
40
1
40
1
40
1
40
1
41
1
10
-0.217899859892697
20
17.4821691668051
30
0
41
1
10
-0.21882667623089
20
17.4800745443762
30
0
41
1
10
-0.21980171350198
20
17.4779564025252
30
0
41
1
10
-0.224951865426689
20
17.4672042365738
30
0
41
1
10
-0.229904587014644
20
17.4582146929807
30
0
41
1
10
-0.240402764457272
20
17.4424149844002
30
0
41
1
10
-0.245159860439941
20
17.4358887277571
30
0
41
1
10
-0.250869950870111
20
17.4291078005721
30
0
0
SPLINE
5
AB
100
AcDbEntity
8
SK1
62
256
6
ByLayer
370
-1
48
1
60
0
100
AcDbSpline
70
4
71
3
72
282
73
278
40
0
40
0
40
0
40
0
40
0.0031740430794389
40
0.0067483298942784
40
0.010322616709118
40
0.0138969035239575
40
0.017471190338797
40
0.0210454771536365
40
0.024619763968476
40
0.0281940507833156
40
0.0317683375981551
40
0.0353426244129946
40
0.0424911980426737
40
0.0460654848575132
40
0.0496397716723527
40
0.0532140584871922
40
0.0567883453020317
40
0.0639369189317108
40
0.0675112057465503
40
0.0710854925613898
40
0.0782340661910689
40
0.0818083530059084
40
0.0853826398207479
40
0.0925312134504269
40
0.0961055002652665
40
0.099679787080106
40
0.103254073894945
40
0.106828360709785
40
0.110402647524625
40
0.113976934339464
40
0.117551221154304
40
0.121125507969143
40
0.128274081598822
40
0.131848368413662
40
0.135422655228501
40
0.138996942043341
40
0.14257122885818
40
0.149719802487859
40
0.153294089302699
40
0.156868376117538
40
0.160442662932378
40
0.164016949747217
40
0.171165523376896
40
0.174739810191736
40
0.178314097006575
40
0.181888383821415
40
0.185462670636254
40
0.192611244265934
40
0.196185531080773
40
0.199759817895613
40
0.203334104710452
40
0.206908391525292
40
0.214056965154971
40
0.21763125196981
40
0.22120553878465
40
0.224779825599489
40
0.228354112414329
40
0.235502686044008
40
0.239076972858847
40
0.242651259673687
40
0.246225546488526
40
0.249799833303366
40
0.256948406933045
40
0.260522693747884
40
0.264096980562724
40
0.271245554192403
40
0.278394127822082
40
0.281968414636922
40
0.285542701451761
40
0.29269127508144
40
0.29626556189628
40
0.299839848711119
40
0.303414135525959
40
0.306988422340798
40
0.310562709155638
40
0.314136995970477
40
0.321285569600156
40
0.328434143229835
40
0.332008430044675
40
0.335582716859514
40
0.339157003674354
40
0.342731290489193
40
0.346305577304033
40
0.349879864118872
40
0.357028437748551
40
0.364177011378231
40
0.37132558500791
40
0.374899871822749
40
0.378474158637588
40
0.382048445452428
40
0.385622732267268
40
0.389197019082107
40
0.392771305896947
40
0.396345592711786
40
0.399919879526626
40
0.403494166341465
40
0.407068453156305
40
0.410642739971144
40
0.414217026785984
40
0.417791313600823
40
0.421365600415663
40
0.424939887230502
40
0.428514174045342
40
0.432088460860181
40
0.433875604267601
40
0.435662747675021
40
0.437449891082441
40
0.43923703448986
40
0.4428113213047
40
0.446385608119539
40
0.448172751526959
40
0.449959894934379
40
0.451747038341799
40
0.453534181749219
40
0.455321325156638
40
0.457108468564058
40
0.460682755378898
40
0.462469898786317
40
0.464257042193737
40
0.466044185601157
40
0.467831329008576
40
0.469618472415996
40
0.471405615823416
40
0.473192759230836
40
0.474979902638256
40
0.476767046045675
40
0.478554189453095
40
0.480341332860515
40
0.482128476267935
40
0.483915619675354
40
0.485702763082774
40
0.487489906490194
40
0.489277049897614
40
0.491064193305033
40
0.492851336712453
40
0.494638480119873
40
0.496425623527293
40
0.498212766934713
40
0.499999910342132
40
0.501787053749552
40
0.503574197156972
40
0.505361340564392
40
0.507148483971811
40
0.508935627379231
40
0.510722770786651
40
0.512509914194071
40
0.51429705760149
40
0.51608420100891
40
0.51787134441633
40
0.51965848782375
40
0.521445631231169
40
0.523232774638589
40
0.525019918046009
40
0.526807061453429
40
0.528594204860848
40
0.530381348268268
40
0.532168491675688
40
0.533955635083108
40
0.535742778490528
40
0.537529921897947
40
0.539317065305367
40
0.541104208712787
40
0.542891352120207
40
0.544678495527626
40
0.546465638935046
40
0.550039925749886
40
0.551827069157305
40
0.553614212564725
40
0.557188499379565
40
0.560762786194404
40
0.562549929601824
40
0.564337073009244
40
0.566124216416663
40
0.567911359824083
40
0.571485646638923
40
0.575059933453762
40
0.578634220268602
40
0.582208507083441
40
0.585782793898281
40
0.58935708071312
40
0.59293136752796
40
0.596505654342799
40
0.600079941157639
40
0.603654227972478
40
0.607228514787318
40
0.610802801602157
40
0.614377088416997
40
0.617951375231836
40
0.621525662046676
40
0.625099948861516
40
0.628674235676355
40
0.635822809306034
40
0.642971382935713
40
0.650119956565392
40
0.653694243380232
40
0.657268530195071
40
0.660842817009911
40
0.66441710382475
40
0.66799139063959
40
0.671565677454429
40
0.678714251084108
40
0.685862824713787
40
0.689437111528627
40
0.693011398343466
40
0.696585685158306
40
0.700159971973145
40
0.703734258787985
40
0.707308545602825
40
0.714457119232504
40
0.718031406047343
40
0.721605692862182
40
0.728754266491862
40
0.735902840121541
40
0.73947712693638
40
0.74305141375122
40
0.750199987380899
40
0.753774274195738
40
0.757348561010578
40
0.760922847825417
40
0.764497134640257
40
0.771645708269936
40
0.775219995084775
40
0.778794281899615
40
0.782368568714454
40
0.785942855529294
40
0.793091429158973
40
0.796665715973813
40
0.800240002788652
40
0.803814289603491
40
0.807388576418331
40
0.81453715004801
40
0.81811143686285
40
0.821685723677689
40
0.825260010492529
40
0.828834297307368
40
0.835982870937047
40
0.839557157751887
40
0.843131444566726
40
0.844918587974146
40
0.846705731381566
40
0.850280018196405
40
0.857428591826084
40
0.861002878640924
40
0.864577165455763
40
0.868151452270603
40
0.871725739085442
40
0.878874312715121
40
0.882448599529961
40
0.8860228863448
40
0.88959717315964
40
0.89317145997448
40
0.896745746789319
40
0.900320033604159
40
0.903894320418998
40
0.907468607233838
40
0.914617180863517
40
0.918191467678356
40
0.921765754493196
40
0.928914328122875
40
0.932488614937714
40
0.936062901752554
40
0.943211475382233
40
0.946785762197072
40
0.950360049011912
40
0.953934335826751
40
0.957508622641591
40
0.96465719627127
40
0.968231483086109
40
0.971805769900949
40
0.975380056715789
40
0.978954343530628
40
0.982528630345467
40
0.986102917160307
40
0.989677203975147
40
0.993251490789986
40
0.996825777604826
40
1
40
1
40
1
40
1
41
1
10
-2.19999999999999
20
17.5147868778399
30
0
41
1
10
-2.19999999999999
20
17.5132390181704
30
0
41
1
10
-2.19999999999999
20
17.509237618841
30
0
41
1
10
-2.19999999999999
20
17.5008423359265
30
0
41
1
10
-2.19999999999999
20
17.4896606050755
30
0
41
1
10
-2.19999999999999
20
17.4760589345483
30
0
41
1
10
-2.19999999999999
20
17.4600756660116
30
0
41
1
10
-2.19999999999999
20
17.4417480829298
30
0
41
1
10
-2.19999999999999
20
17.4211116708093
30
0
41
1
10
-2.19999999999999
20
17.3981999720817
30
0
41
1
10
-2.19999999999999
20
17.373046254225
30
0
41
1
10
-2.19999999999999
20
17.3365615480365
30
0
41
1
10
-2.19999999999999
20
17.2957083393221
30
0
41
1
10
-2.19999999999999
20
17.2506132986913
30
0
41
1
10
-2.19999999999999
20
17.2146924230801
30
0
41
1
10
-2.19999999999999
20
17.1766986759847
30
0
41
1
10
-2.19999999999999
20
17.1233138560685
30
0
41
1
10
-2.19999999999999
20
17.0658713749173
30
0
41
1
10
-2.19999999999999
20
17.0044820563696
30
0
41
1
10
-2.19999999999999
20
16.9404819965209
30
0
41
1
10
-2.19999999999999
20
16.8725984751516
30
0
41
1
10
-2.19999999999999
20
16.8009296734765
30
0
41
1
10
-2.19999999999999
20
16.72675615712
30
0
41
1
10
-2.19999999999999
20
16.6488472996884
30
0
41
1
10
-2.19999999999999
20
16.5672977573629
30
0
41
1
10
-2.19999999999999
20
16.5043209819811
30
0
41
1
10
-2.19999999999999
20
16.4395493732765
30
0
41
1
10
-2.19999999999999
20
16.3729983406747
30
0
41
1
10
-2.19999999999999
20
16.3046816133433
30
0
41
1
10
-2.19999999999999
20
16.234614658763
30
0
41
1
10
-2.19999999999999
20
16.1628111167189
30
0
41
1
10
-2.19999999999999
20
16.0647793469533
30
0
41
1
10
-2.19999999999999
20
15.9633134995801
30
0
41
1
10
-2.19999999999999
20
15.8584913887799
30
0
41
1
10
-2.19999999999999
20
15.7781982427732
30
0
41
1
10
-2.19999999999999
20
15.6962433497342
30
0
41
1
10
-2.19999999999999
20
15.5847743861311
30
0
41
1
10
-2.19999999999999
20
15.4700110710185
30
0
41
1
10
-2.19999999999999
20
15.3520264687641
30
0
41
1
10
-2.19999999999999
20
15.2619258251736
30
0
41
1
10
-2.19999999999999
20
15.1702262286607
30
0
41
1
10
-2.19999999999999
20
15.0458463802595
30
0
41
1
10
-2.19999999999999
20
14.9182892137509
30
0
41
1
10
-2.19999999999999
20
14.7876243835494
30
0
41
1
10
-2.19999999999999
20
14.6880675684927
30
0
41
1
10
-2.19999999999999
20
14.5869647024964
30
0
41
1
10
-2.19999999999999
20
14.4501162009323
30
0
41
1
10
-2.19999999999999
20
14.310188578504
30
0
41
1
10
-2.19999999999999
20
14.1672492498436
30
0
41
1
10
-2.19999999999999
20
14.0585319196999
30
0
41
1
10
-2.19999999999999
20
13.9483131149779
30
0
41
1
10
-2.19999999999999
20
13.7993681823229
30
0
41
1
10
-2.19999999999999
20
13.6474264445925
30
0
41
1
10
-2.19999999999999
20
13.4925540283558
30
0
41
1
10
-2.19999999999999
20
13.3749248852381
30
0
41
1
10
-2.19999999999999
20
13.2558316845062
30
0
41
1
10
-2.19999999999999
20
13.0951031858018
30
0
41
1
10
-2.19999999999999
20
12.9314463879873
30
0
41
1
10
-2.19999999999999
20
12.7649271524075
30
0
41
1
10
-2.19999999999999
20
12.6385945304865
30
0
41
1
10
-2.19999999999999
20
12.510828990928
30
0
41
1
10
-2.19999999999999
20
12.3385783725546
30
0
41
1
10
-2.19999999999999
20
12.1634558634281
30
0
41
1
10
-2.19999999999999
20
11.9855279960913
30
0
41
1
10
-2.19999999999999
20
11.8057193844339
30
0
41
1
10
-2.19999999999999
20
11.5774197426994
30
0
41
1
10
-2.19999999999999
20
11.3444552561941
30
0
41
1
10
-2.19999999999999
20
11.1553144466797
30
0
41
1
10
-2.19999999999999
20
10.96432157968
30
0
41
1
10
-2.19999999999999
20
10.7705258372791
30
0
41
1
10
-2.19999999999999
20
10.5740001677826
30
0
41
1
10
-2.19999999999999
20
10.4252200954492
30
0
41
1
10
-2.19999999999999
20
10.2750653600417
30
0
41
1
10
-2.19999999999999
20
10.1235384488298
30
0
41
1
10
-2.19999999999999
20
9.97064122920807
30
0
41
1
10
-2.19999999999999
20
9.76496631801302
30
0
41
1
10
-2.19999999999999
20
9.50443392738597
30
0
41
1
10
-2.19999999999999
20
9.23936570098886
30
0
41
1
10
-2.19999999999999
20
9.02461799380217
30
0
41
1
10
-2.19999999999999
20
8.86219304475887
30
0
41
1
10
-2.19999999999999
20
8.69841428000512
30
0
41
1
10
-2.19999999999999
20
8.53328405958746
30
0
41
1
10
-2.19999999999999
20
8.36680339868337
30
0
41
1
10
-2.19999999999999
20
8.14304412571011
30
0
41
1
10
-2.19999999999999
20
7.85994707617317
30
0
41
1
10
-2.19999999999999
20
7.51487111531026
30
0
41
1
10
-2.19999999999999
20
7.22282329277962
30
0
41
1
10
-2.19999999999999
20
6.98653548716825
30
0
41
1
10
-2.19999999999999
20
6.80797157864473
30
0
41
1
10
-2.19999999999999
20
6.62807270531451
30
0
41
1
10
-2.19999999999999
20
6.44684086969582
30
0
41
1
10
-2.19999999999999
20
6.26427776637016
30
0
41
1
10
-2.19999999999999
20
6.0803858592752
30
0
41
1
10
-2.19999999999999
20
5.89516728223867
30
0
41
1
10
-2.19999999999999
20
5.70862469092603
30
0
41
1
10
-2.19999999999999
20
5.52076103085633
30
0
41
1
10
-2.19999999999999
20
5.33157993388585
30
0
41
1
10
-2.19999999999999
20
5.14108511996025
30
0
41
1
10
-2.19999999999999
20
4.94928086714648
30
0
41
1
10
-2.19999999999999
20
4.75617251627347
30
0
41
1
10
-2.19999999999999
20
4.56176620564526
30
0
41
1
10
-2.19999999999999
20
4.36606873641344
30
0
41
1
10
-2.19999999999999
20
4.16908849962459
30
0
41
1
10
-2.19999999999999
20
4.00386590607064
30
0
41
1
10
-2.19999999999999
20
3.87107810854147
30
0
41
1
10
-2.19999999999999
20
3.77116418570387
30
0
41
1
10
-2.19999999999999
20
3.67093805129474
30
0
41
1
10
-2.19999999999999
20
3.5369018254882
30
0
41
1
10
-2.19999999999999
20
3.36855658184018
30
0
41
1
10
-2.19999999999999
20
3.19919951970698
30
0
41
1
10
-2.19999999999999
20
3.06314133422208
30
0
41
1
10
-2.19999999999999
20
2.96079189341756
30
0
41
1
10
-2.19999999999999
20
2.85815023786418
30
0
41
1
10
-2.19999999999999
20
2.75522026664268
30
0
41
1
10
-2.19999999999999
20
2.65200561172494
30
0
41
1
10
-2.19999999999999
20
2.51402705629772
30
0
41
1
10
-2.19999999999999
20
2.375450816946
30
0
41
1
10
-2.19999999999999
20
2.23639085040648
30
0
41
1
10
-2.19999999999999
20
2.13182395998015
30
0
41
1
10
-2.19999999999999
20
2.02700348752293
30
0
41
1
10
-2.19999999999999
20
1.92193653735015
30
0
41
1
10
-2.19999999999999
20
1.81663008016324
30
0
41
1
10
-2.19999999999999
20
1.71109231328518
30
0
41
1
10
-2.19999999999999
20
1.60533155404698
30
0
41
1
10
-2.19999999999999
20
1.49935698477981
30
0
41
1
10
-2.19999999999999
20
1.39317847233161
30
0
41
1
10
-2.19999999999999
20
1.28680633401083
30
0
41
1
10
-2.19999999999999
20
1.18025197439016
30
0
41
1
10
-2.19999999999999
20
1.073527020087
30
0
41
1
10
-2.19999999999999
20
0.96664434311532
30
0
41
1
10
-2.19999999999999
20
0.859616995486334
30
0
41
1
10
-2.19999999999999
20
0.752459219961509
30
0
41
1
10
-2.19999999999999
20
0.645185453734172
30
0
41
1
10
-2.19999999999999
20
0.537811163545626
30
0
41
1
10
-2.19999999999999
20
0.430352024765995
30
0
41
1
10
-2.19999999999999
20
0.322824496958617
30
0
41
1
10
-2.19999999999999
20
0.215245213108545
30
0
41
1
10
-2.19999999999999
20
0.107631302158183
30
0
41
1
10
-2.19999999999999
20
-5.9909553E-09
30
0
41
1
10
-2.19999999999999
20
-0.107631313716837
30
0
41
1
10
-2.19999999999999
20
-0.21524522393176
30
0
41
1
10
-2.19999999999999
20
-0.322824507999513
30
0
41
1
10
-2.19999999999999
20
-0.430352036900842
30
0
41
1
10
-2.19999999999999
20
-0.537811175438549
30
0
41
1
10
-2.19999999999999
20
-0.645185463980482
30
0
41
1
10
-2.19999999999999
20
-0.752459230354134
30
0
41
1
10
-2.19999999999999
20
-0.859617007920519
30
0
41
1
10
-2.19999999999999
20
-0.966644355262389
30
0
41
1
10
-2.19999999999999
20
-1.07352702949097
30
0
41
1
10
-2.19999999999999
20
-1.18025198377217
30
0
41
1
10
-2.19999999999999
20
-1.2868063464968
30
0
41
1
10
-2.19999999999999
20
-1.39317848503856
30
0
41
1
10
-2.19999999999999
20
-1.49935699380708
30
0
41
1
10
-2.19999999999999
20
-1.60533156181745
30
0
41
1
10
-2.19999999999999
20
-1.71109232444707
30
0
41
1
10
-2.19999999999999
20
-1.81663009373557
30
0
41
1
10
-2.19999999999999
20
-1.92193654804359
30
0
41
1
10
-2.19999999999999
20
-2.02700349385552
30
0
41
1
10
-2.19999999999999
20
-2.13182396747069
30
0
41
1
10
-2.19999999999999
20
-2.23639086291988
30
0
41
1
10
-2.19999999999999
20
-2.34069812940876
30
0
41
1
10
-2.19999999999999
20
-2.44473977839391
30
0
41
1
10
-2.19999999999999
20
-2.54851063247165
30
0
41
1
10
-2.19999999999999
20
-2.65200559968281
30
0
41
1
10
-2.19999999999999
20
-2.78960994504098
30
0
41
1
10
-2.19999999999999
20
-2.92668912429065
30
0
41
1
10
-2.19999999999999
20
-3.06314133551615
30
0
41
1
10
-2.19999999999999
20
-3.19919952332836
30
0
41
1
10
-2.19999999999999
20
-3.36855659963138
30
0
41
1
10
-2.19999999999999
20
-3.53690183437428
30
0
41
1
10
-2.19999999999999
20
-3.67093805397229
30
0
41
1
10
-2.19999999999999
20
-3.77116418775421
30
0
41
1
10
-2.19999999999999
20
-3.87107811616198
30
0
41
1
10
-2.19999999999999
20
-4.00386592221614
30
0
41
1
10
-2.19999999999999
20
-4.169088511784
30
0
41
1
10
-2.19999999999999
20
-4.36606871643775
30
0
41
1
10
-2.19999999999999
20
-4.56176617271484
30
0
41
1
10
-2.19999999999999
20
-4.75617249379653
30
0
41
1
10
-2.19999999999999
20
-4.94928076863457
30
0
41
1
10
-2.19999999999999
20
-5.14108500618136
30
0
41
1
10
-2.19999999999999
20
-5.33157993903225
30
0
41
1
10
-2.19999999999999
20
-5.52076102284181
30
0
41
1
10
-2.19999999999999
20
-5.70862461825791
30
0
41
1
10
-2.19999999999999
20
-5.89516734859464
30
0
41
1
10
-2.19999999999999
20
-6.0803860968085
30
0
41
1
10
-2.19999999999999
20
-6.26427796235188
30
0
41
1
10
-2.19999999999999
20
-6.44684092947378
30
0
41
1
10
-2.19999999999999
20
-6.62807271786153
30
0
41
1
10
-2.19999999999999
20
-6.80797159432129
30
0
41
1
10
-2.19999999999999
20
-6.98653550324826
30
0
41
1
10
-2.19999999999999
20
-7.22282328452872
30
0
41
1
10
-2.19999999999999
20
-7.51487112820209
30
0
41
1
10
-2.19999999999999
20
-7.85994708827315
30
0
41
1
10
-2.19999999999999
20
-8.14304411844034
30
0
41
1
10
-2.19999999999999
20
-8.36680341033821
30
0
41
1
10
-2.19999999999999
20
-8.53328407858575
30
0
41
1
10
-2.19999999999999
20
-8.69841428877766
30
0
41
1
10
-2.19999999999999
20
-8.86219304073114
30
0
41
1
10
-2.19999999999999
20
-9.02461799205523
30
0
41
1
10
-2.19999999999999
20
-9.23936571773672
30
0
41
1
10
-2.19999999999999
20
-9.50443394039922
30
0
41
1
10
-2.19999999999999
20
-9.76496631110049
30
0
41
1
10
-2.19999999999999
20
-9.97064123613964
30
0
41
1
10
-2.19999999999999
20
-10.123538466054
30
0
41
1
10
-2.19999999999999
20
-10.2750653748105
30
0
41
1
10
-2.19999999999999
20
-10.4252201002359
30
0
41
1
10
-2.19999999999999
20
-10.5740001651574
30
0
41
1
10
-2.19999999999999
20
-10.7705258416001
30
0
41
1
10
-2.19999999999999
20
-10.9643215989582
30
0
41
1
10
-2.19999999999999
20
-11.1553144582602
30
0
41
1
10
-2.19999999999999
20
-11.3444552554371
30
0
41
1
10
-2.19999999999999
20
-11.5774197477568
30
0
41
1
10
-2.19999999999999
20
-11.8057194023465
30
0
41
1
10
-2.19999999999999
20
-11.9855280067157
30
0
41
1
10
-2.19999999999999
20
-12.1634558646821
30
0
41
1
10
-2.19999999999999
20
-12.3385783781737
30
0
41
1
10
-2.19999999999999
20
-12.510829004708
30
0
41
1
10
-2.19999999999999
20
-12.6385945454976
30
0
41
1
10
-2.19999999999999
20
-12.7649271637091
30
0
41
1
10
-2.19999999999999
20
-12.9314463925932
30
0
41
1
10
-2.19999999999999
20
-13.0951031927999
30
0
41
1
10
-2.19999999999999
20
-13.2558316973182
30
0
41
1
10
-2.19999999999999
20
-13.3749248996582
30
0
41
1
10
-2.19999999999999
20
-13.4925540411334
30
0
41
1
10
-2.19999999999999
20
-13.6474264531923
30
0
41
1
10
-2.19999999999999
20
-13.7993681905533
30
0
41
1
10
-2.19999999999999
20
-13.9483131264862
30
0
41
1
10
-2.19999999999999
20
-14.0585319334344
30
0
41
1
10
-2.19999999999999
20
-14.1672492642274
30
0
41
1
10
-2.19999999999999
20
-14.3101885914782
30
0
41
1
10
-2.19999999999999
20
-14.4501162106047
30
0
41
1
10
-2.19999999999999
20
-14.5869647126432
30
0
41
1
10
-2.19999999999999
20
-14.6880675812844
30
0
41
1
10
-2.19999999999999
20
-14.7876243995297
30
0
41
1
10
-2.19999999999999
20
-14.9182892218295
30
0
41
1
10
-2.19999999999999
20
-15.0458464314392
30
0
41
1
10
-2.19999999999999
20
-15.1702261509224
30
0
41
1
10
-2.19999999999999
20
-15.2466455133785
30
0
41
1
10
-2.19999999999999
20
-15.3069761679616
30
0
41
1
10
-2.19999999999999
20
-15.3667724139347
30
0
41
1
10
-2.19999999999999
20
-15.4700110929875
30
0
41
1
10
-2.19999999999999
20
-15.5847743990242
30
0
41
1
10
-2.19999999999999
20
-15.6962433571227
30
0
41
1
10
-2.19999999999999
20
-15.7781982539187
30
0
41
1
10
-2.19999999999999
20
-15.8584914079188
30
0
41
1
10
-2.19999999999999
20
-15.9633135259672
30
0
41
1
10
-2.19999999999999
20
-16.0647793597711
30
0
41
1
10
-2.19999999999999
20
-16.1628111223414
30
0
41
1
10
-2.19999999999999
20
-16.2346146707391
30
0
41
1
10
-2.19999999999999
20
-16.3046816359758
30
0
41
1
10
-2.19999999999999
20
-16.3729983688048
30
0
41
1
10
-2.19999999999999
20
-16.439549393056
30
0
41
1
10
-2.19999999999999
20
-16.5043209901434
30
0
41
1
10
-2.19999999999999
20
-16.5672977619412
30
0
41
1
10
-2.19999999999999
20
-16.6488473199257
30
0
41
1
10
-2.19999999999999
20
-16.7267561914694
30
0
41
1
10
-2.19999999999999
20
-16.8009296884544
30
0
41
1
10
-2.19999999999999
20
-16.8725984731112
30
0
41
1
10
-2.19999999999999
20
-16.9404820184079
30
0
41
1
10
-2.19999999999999
20
-17.0044820909957
30
0
41
1
10
-2.19999999999999
20
-17.0658713913631
30
0
41
1
10
-2.19999999999999
20
-17.123313852319
30
0
41
1
10
-2.19999999999999
20
-17.1766986986672
30
0
41
1
10
-2.19999999999999
20
-17.2146924603873
30
0
41
1
10
-2.19999999999999
20
-17.250613323192
30
0
41
1
10
-2.19999999999999
20
-17.2957083328928
30
0
41
1
10
-2.19999999999999
20
-17.3365615705832
30
0
41
1
10
-2.19999999999999
20
-17.3730462873428
30
0
41
1
10
-2.19999999999999
20
-17.398199993695
30
0
41
1
10
-2.19999999999999
20
-17.4211116738093
30
0
41
1
10
-2.19999999999999
20
-17.4417480876219
30
0
41
1
10
-2.19999999999999
20
-17.4600756994924
30
0
41
1
10
-2.19999999999999
20
-17.4760589706817
30
0
41
1
10
-2.19999999999999
20
-17.4896606126055
30
0
41
1
10
-2.19999999999999
20
-17.5008423321234
30
0
41
1
10
-2.19999999999999
20
-17.5092377845631
30
0
41
1
10
-2.19999999999999
20
-17.5132392362846
30
0
41
1
10
-2.19999999999999
20
-17.5147871250919
30
0
0
SPLINE
5
AC
100
AcDbEntity
8
SK1
62
256
6
ByLayer
370
-1
48
1
60
0
100
AcDbSpline
70
4
71
3
72
26
73
22
40
0
40
0
40
0
40
0
40
0.249999999999999
40
0.249999999999999
40
0.499999999999999
40
0.499999999999999
40
0.624999999999998
40
0.624999999999998
40
0.687499999999999
40
0.687499999999999
40
0.749999999999999
40
0.749999999999999
40
0.812499999999999
40
0.812499999999999
40
0.875
40
0.875
40
0.90625
40
0.90625
40
0.9375
40
0.9375
40
1
40
1
40
1
40
1
41
1
10
-1.30710678118655
20
3.91806548153784
30
0
41
1
10
-1.27769319780741
20
4.08052093037082
30
0
41
1
10
-1.24421801411855
20
4.24088838641754
30
0
41
1
10
-1.16485205097918
20
4.55692134673205
30
0
41
1
10
-1.11915053894148
20
4.71298625675036
30
0
41
1
10
-1.03398506252532
20
4.9392099164908
30
0
41
1
10
-1.0027921606588
20
5.01338233455047
30
0
41
1
10
-0.948686084794986
20
5.12180889714674
30
0
41
1
10
-0.929413948145793
20
5.15747348576048
30
0
41
1
10
-0.88719267660646
20
5.22746225617868
30
0
41
1
10
-0.864103743652223
20
5.26201593969498
30
0
41
1
10
-0.813044425250169
20
5.32730624386946
30
0
41
1
10
-0.785168859849634
20
5.35822757002268
30
0
41
1
10
-0.720036760129403
20
5.41334643052096
30
0
41
1
10
-0.681932962871812
20
5.43781069903503
30
0
41
1
10
-0.618164109729861
20
5.45755608765882
30
0
41
1
10
-0.595615461332869
20
5.4612647451807
30
0
41
1
10
-0.550411294004604
20
5.46132444639031
30
0
41
1
10
-0.528101012289383
20
5.45772738244921
30
0
41
1
10
-0.464215280711954
20
5.43805975377092
30
0
41
1
10
-0.42740397586779
20
5.41432955957453
30
0
41
1
10
-0.394976888875405
20
5.38678223323953
30
0
0
SPLINE
5
AD
100
AcDbEntity
8
SK1
62
256
6
ByLayer
370
-1
48
1
60
0
100
AcDbSpline
70
4
71
3
72
24
73
20
40
0
40
0
40
0
40
0
40
0.0312499999999996
40
0.0312499999999996
40
0.0624999999999991
40
0.0624999999999991
40
0.0937499999999987
40
0.0937499999999987
40
0.124999999999998
40
0.124999999999998
40
0.187499999999997
40
0.187499999999997
40
0.249999999999996
40
0.249999999999996
40
0.499999999999998
40
0.499999999999998
40
0.749999999999999
40
0.749999999999999
40
1
40
1
40
1
40
1
41
1
10
-0.39497688887289
20
5.38678223323922
30
0
41
1
10
-0.388503745328833
20
5.38128319480677
30
0
41
1
10
-0.381388986846119
20
5.37647349151271
30
0
41
1
10
-0.365645130727458
20
5.37003095057815
30
0
41
1
10
-0.356875018487202
20
5.36852559182819
30
0
41
1
10
-0.339464630964798
20
5.37101783691512
30
0
41
1
10
-0.330985242947861
20
5.37503833637339
30
0
41
1
10
-0.316510652819531
20
5.38583151921432
30
0
41
1
10
-0.310292654928759
20
5.39251318392442
30
0
41
1
10
-0.29380361220376
20
5.41390802600688
30
0
41
1
10
-0.285544077572936
20
5.42989034626359
30
0
41
1
10
-0.271326596659293
20
5.46242047093779
30
0
41
1
10
-0.26551431042931
20
5.4789572978342
30
0
41
1
10
-0.239827472074012
20
5.5623182389248
30
0
41
1
10
-0.229021554776764
20
5.63115874840395
30
0
41
1
10
-0.212565919448807
20
5.76699630063621
30
0
41
1
10
-0.207636724465971
20
5.83462416858026
30
0
41
1
10
-0.201310577492066
20
5.96939105744789
30
0
41
1
10
-0.20000000000033
20
6.03652860978283
30
0
41
1
10
-0.20000000000033
20
6.10344667966024
30
0
0
SPLINE
5
AE
100
AcDbEntity
8
SK1
62
256
6
ByLayer
370
-1
48
1
60
0
100
AcDbSpline
70
4
71
3
72
20
73
16
40
0
40
0
40
0
40
0
40
0.25
40
0.25
40
0.375
40
0.375
40
0.4375
40
0.4375
40
0.5
40
0.5
40
0.75
40
0.75
40
0.875
40
0.875
40
1
40
1
40
1
40
1
41
1
10
-1.30710678118655
20
3.91806548153784
30
0
41
1
10
-1.4196931856474
20
3.29623458683108
30
0
41
1
10
-1.52084354897498
20
2.66117243128363
30
0
41
1
10
-1.6328468131714
20
1.68012366058514
30
0
41
1
10
-1.66339462407873
20
1.34828924094137
30
0
41
1
10
-1.69495092810293
20
0.841576693078679
30
0
41
1
10
-1.70306621291685
20
0.670912483956471
30
0
41
1
10
-1.71379105874196
20
0.332128346739978
30
0
41
1
10
-1.71645137733401
20
0.163332447807789
30
0
41
1
10
-1.71619101064633
20
-0.677685636180797
30
0
41
1
10
-1.6712581001311
20
-1.34087191657739
30
0
41
1
10
-1.55943898894104
20
-2.32447859217888
30
0
41
1
10
-1.51483394489829
20
-2.65120399662447
30
0
41
1
10
-1.41687703207165
20
-3.29188260724436
30
0
41
1
10
-1.36340682815235
20
-3.60711221095696
30
0
41
1
10
-1.30710678118656
20
-3.91806548057696
30
0
0
SPLINE
5
AF
100
AcDbEntity
8
SK1
62
256
6
ByLayer
370
-1
48
1
60
0
100
AcDbSpline
70
4
71
3
72
30
73
26
40
0
40
0
40
0
40
0
40
0.0312499999999997
40
0.0312499999999997
40
0.0624999999999994
40
0.0624999999999994
40
0.0937499999999992
40
0.0937499999999992
40
0.124999999999999
40
0.124999999999999
40
0.156249999999999
40
0.156249999999999
40
0.187499999999998
40
0.187499999999998
40
0.249999999999999
40
0.249999999999999
40
0.312499999999999
40
0.312499999999999
40
0.374999999999999
40
0.374999999999999
40
0.499999999999999
40
0.499999999999999
40
0.75
40
0.75
40
1
40
1
40
1
40
1
41
1
10
-0.394976888875291
20
-5.38678189578289
30
0
41
1
10
-0.411121004362627
20
-5.4004965589908
30
0
41
1
10
-0.428233279222681
20
-5.41311535582491
30
0
41
1
10
-0.465309612185834
20
-5.4351486545529
30
0
41
1
10
-0.485247093192058
20
-5.44447298609396
30
0
41
1
10
-0.527143852803974
20
-5.45749158572377
30
0
41
1
10
-0.549766809572589
20
-5.46123817959725
30
0
41
1
10
-0.594625996823396
20
-5.46134910310997
30
0
41
1
10
-0.617367334499036
20
-5.45772890381818
30
0
41
1
10
-0.660019264070186
20
-5.44466656582571
30
0
41
1
10
-0.68039602659168
20
-5.43519415358128
30
0
41
1
10
-0.717834279017879
20
-5.41311904009154
30
0
41
1
10
-0.735191453829188
20
-5.40043958603155
30
0
41
1
10
-0.78445132022209
20
-5.35899057781572
30
0
41
1
10
-0.81248014162982
20
-5.32795417138183
30
0
41
1
10
-0.863579984272093
20
-5.26275715404722
30
0
41
1
10
-0.886669998197931
20
-5.22827369564413
30
0
41
1
10
-0.929038370947623
20
-5.15814871783957
30
0
41
1
10
-0.9483604949735
20
-5.12242801873623
30
0
41
1
10
-1.00258384146315
20
-5.01386242026874
30
0
41
1
10
-1.03381196991215
20
-4.93963585912675
30
0
41
1
10
-1.11904493500305
20
-4.71333034940329
30
0
41
1
10
-1.16474908109112
20
-4.55729858564038
30
0
41
1
10
-1.24418351237225
20
-4.24105736808266
30
0
41
1
10
-1.27767890904266
20
-4.08059985762037
30
0
41
1
10
-1.30710678118655
20
-3.91806548057693
30
0
0
SPLINE
5
B0
100
AcDbEntity
8
SK1
62
256
6
ByLayer
370
-1
48
1
60
0
100
AcDbSpline
70
4
71
3
72
107
73
103
40
0
40
0
40
0
40
0
40
0.0027065513151498
40
0.0112315823554682
40
0.0197566133957867
40
0.0282816444361051
40
0.0368066754764235
40
0.0453317065167419
40
0.0538567375570603
40
0.0623817685973787
40
0.0709067996376971
40
0.0794318306780156
40
0.0964818927586524
40
0.113531954839289
40
0.130582016919926
40
0.139107047960245
40
0.147632079000563
40
0.156157110040881
40
0.1646821410812
40
0.173207172121518
40
0.181732203161836
40
0.198782265242473
40
0.21583232732311
40
0.224357358363429
40
0.232882389403747
40
0.241407420444065
40
0.249932451484384
40
0.258457482524702
40
0.266982513565021
40
0.284032575645657
40
0.292557606685976
40
0.301082637726294
40
0.318132699806931
40
0.335182761887568
40
0.343707792927886
40
0.352232823968205
40
0.369282886048842
40
0.37780791708916
40
0.386332948129478
40
0.394857979169797
40
0.403383010210115
40
0.420433072290752
40
0.42895810333107
40
0.437483134371389
40
0.446008165411707
40
0.454533196452026
40
0.471583258532663
40
0.480108289572981
40
0.488633320613299
40
0.497158351653618
40
0.505683382693936
40
0.522733444774573
40
0.531258475814892
40
0.53978350685521
40
0.548308537895528
40
0.556833568935847
40
0.573883631016484
40
0.582408662056802
40
0.59093369309712
40
0.59519620861728
40
0.599458724137439
40
0.607983755177757
40
0.625033817258394
40
0.633558848298712
40
0.642083879339031
40
0.650608910379349
40
0.659133941419668
40
0.676184003500305
40
0.684709034540623
40
0.693234065580941
40
0.70175909662126
40
0.710284127661578
40
0.718809158701897
40
0.727334189742215
40
0.735859220782533
40
0.744384251822852
40
0.761434313903489
40
0.769959344943807
40
0.778484375984125
40
0.795534438064762
40
0.804059469105081
40
0.812584500145399
40
0.829634562226036
40
0.838159593266354
40
0.846684624306673
40
0.855209655346991
40
0.86373468638731
40
0.880784748467947
40
0.889309779508265
40
0.897834810548583
40
0.906359841588902
40
0.91488487262922
40
0.923409903669538
40
0.931934934709857
40
0.940459965750175
40
0.948984996790494
40
0.957510027830812
40
0.966035058871131
40
0.974560089911449
40
0.983085120951767
40
0.991610151992086
40
1
40
1
40
1
40
1
41
1
10
-0.394976888875291
20
-5.38678189578289
30
0
41
1
10
-0.394976888875291
20
-5.4065930765673
30
0
41
1
10
-0.394976888875291
20
-5.48871660168982
30
0
41
1
10
-0.394976888875291
20
-5.63252719489225
30
0
41
1
10
-0.394976888875291
20
-5.8174145162354
30
0
41
1
10
-0.394976888875291
20
-6.00101977124669
30
0
41
1
10
-0.394976888875291
20
-6.18333830919048
30
0
41
1
10
-0.394976888875291
20
-6.3643662218949
30
0
41
1
10
-0.394976888875291
20
-6.54409937286439
30
0
41
1
10
-0.394976888875291
20
-6.72253430941348
30
0
41
1
10
-0.394976888875291
20
-6.89966740060396
30
0
41
1
10
-0.394976888875291
20
-7.13420903787926
30
0
41
1
10
-0.394976888875291
20
-7.42389186204957
30
0
41
1
10
-0.394976888875291
20
-7.76637138106329
30
0
41
1
10
-0.394976888875291
20
-8.04728288344245
30
0
41
1
10
-0.394976888875291
20
-8.26952736598562
30
0
41
1
10
-0.394976888875291
20
-8.434820354761
30
0
41
1
10
-0.394976888875291
20
-8.59878513137221
30
0
41
1
10
-0.394976888875291
20
-8.76141979186249
30
0
41
1
10
-0.394976888875291
20
-8.922721214403
30
0
41
1
10
-0.394976888875291
20
-9.1360908691222
30
0
41
1
10
-0.394976888875291
20
-9.39928045092248
30
0
41
1
10
-0.394976888875291
20
-9.65799296546987
30
0
41
1
10
-0.394976888875291
20
-9.86240080704218
30
0
41
1
10
-0.394976888875291
20
-10.0143015815252
30
0
41
1
10
-0.394976888875291
20
-10.1648480067744
30
0
41
1
10
-0.394976888875291
20
-10.3140380843155
30
0
41
1
10
-0.394976888875291
20
-10.4618684189216
30
0
41
1
10
-0.394976888875291
20
-10.6572263081632
30
0
41
1
10
-0.394976888875291
20
-10.8496518506122
30
0
41
1
10
-0.394976888875291
20
-11.0395280782787
30
0
41
1
10
-0.394976888875291
20
-11.2275701299333
30
0
41
1
10
-0.394976888875291
20
-11.4590305143918
30
0
41
1
10
-0.394976888875291
20
-11.685867652055
30
0
41
1
10
-0.394976888875291
20
-11.864654349678
30
0
41
1
10
-0.394976888875291
20
-12.0415756040849
30
0
41
1
10
-0.394976888875291
20
-12.2155153161813
30
0
41
1
10
-0.394976888875291
20
-12.3868007979199
30
0
41
1
10
-0.394976888875291
20
-12.5138050519686
30
0
41
1
10
-0.394976888875291
20
-12.6393872302303
30
0
41
1
10
-0.394976888875291
20
-12.8049814458532
30
0
41
1
10
-0.394976888875291
20
-12.9675509360494
30
0
41
1
10
-0.394976888875291
20
-13.1273919665529
30
0
41
1
10
-0.394976888875291
20
-13.2457849051211
30
0
41
1
10
-0.394976888875291
20
-13.3627236547323
30
0
41
1
10
-0.394976888875291
20
-13.5167448476072
30
0
41
1
10
-0.394976888875291
20
-13.6676860552913
30
0
41
1
10
-0.394976888875291
20
-13.8158144768541
30
0
41
1
10
-0.394976888875291
20
-13.9253889718329
30
0
41
1
10
-0.394976888875291
20
-14.0334711580348
30
0
41
1
10
-0.394976888875291
20
-14.1756274475866
30
0
41
1
10
-0.394976888875291
20
-14.3146351237356
30
0
41
1
10
-0.394976888875291
20
-14.4507333681675
30
0
41
1
10
-0.394976888875291
20
-14.5512443837087
30
0
41
1
10
-0.394976888875291
20
-14.6502180419884
30
0
41
1
10
-0.394976888875291
20
-14.780164253239
30
0
41
1
10
-0.394976888875291
20
-14.9068780878822
30
0
41
1
10
-0.394976888875291
20
-15.0305708978545
30
0
41
1
10
-0.394976888875291
20
-15.1065165223896
30
0
41
1
10
-0.394976888875291
20
-15.1665127141503
30
0
41
1
10
-0.394976888875291
20
-15.2259771214207
30
0
41
1
10
-0.394976888875291
20
-15.3286250474485
30
0
41
1
10
-0.394976888875291
20
-15.4426196109061
30
0
41
1
10
-0.394976888875291
20
-15.5534637367265
30
0
41
1
10
-0.394976888875291
20
-15.6349267624759
30
0
41
1
10
-0.394976888875291
20
-15.7147364921469
30
0
41
1
10
-0.394976888875291
20
-15.8189643831875
30
0
41
1
10
-0.394976888875291
20
-15.9197362187748
30
0
41
1
10
-0.394976888875291
20
-16.0172057969154
30
0
41
1
10
-0.394976888875291
20
-16.0885678110446
30
0
41
1
10
-0.394976888875291
20
-16.1582019472912
30
0
41
1
10
-0.394976888875291
20
-16.2260943811825
30
0
41
1
10
-0.394976888875291
20
-16.2922298358683
30
0
41
1
10
-0.394976888875291
20
-16.3565947902754
30
0
41
1
10
-0.394976888875291
20
-16.4191737297992
30
0
41
1
10
-0.394976888875291
20
-16.5002370830775
30
0
41
1
10
-0.394976888875291
20
-16.5775834628441
30
0
41
1
10
-0.394976888875291
20
-16.6513062771915
30
0
41
1
10
-0.394976888875291
20
-16.7225357579898
30
0
41
1
10
-0.394976888875291
20
-16.7899145981056
30
0
41
1
10
-0.394976888875291
20
-16.8535135500207
30
0
41
1
10
-0.394976888875291
20
-16.9145141001581
30
0
41
1
10
-0.394976888875291
20
-16.9715145305624
30
0
41
1
10
-0.394976888875291
20
-17.024552403858
30
0
41
1
10
-0.394976888875291
20
-17.0622798511847
30
0
41
1
10
-0.394976888875291
20
-17.0979462837243
30
0
41
1
10
-0.394976888875291
20
-17.1427382787905
30
0
41
1
10
-0.394976888875291
20
-17.1832568369982
30
0
41
1
10
-0.394976888875291
20
-17.2194882612007
30
0
41
1
10
-0.394976888875291
20
-17.2444531170066
30
0
41
1
10
-0.394976888875291
20
-17.2671905287463
30
0
41
1
10
-0.394976888875291
20
-17.2876678382251
30
0
41
1
10
-0.394976888875291
20
-17.3058521626298
30
0
41
1
10
-0.394976888875291
20
-17.3217086355548
30
0
41
1
10
-0.394976888875291
20
-17.3352007360526
30
0
41
1
10
-0.394976888875291
20
-17.3462909802274
30
0
41
1
10
-0.394976888875291
20
-17.3549392880652
30
0
41
1
10
-0.394976888875291
20
-17.3611046305144
30
0
41
1
10
-0.394976888875291
20
-17.3647432146661
30
0
41
1
10
-0.394976888875291
20
-17.3658102005923
30
0
41
1
10
-0.394976888875291
20
-17.3642659317471
30
0
41
1
10
-0.394976888875291
20
-17.3614875876831
30
0
41
1
10
-0.394976888875291
20
-17.3596702866859
30
0
0
SPLINE
5
B1
100
AcDbEntity
8
SK1
62
256
6
ByLayer
370
-1
48
1
60
0
100
AcDbSpline
70
4
71
3
72
106
73
102
40
0
40
0
40
0
40
0
40
0.0083898953591779
40
0.0169149261202239
40
0.02543995688127
40
0.0339649876423161
40
0.0424900184033621
40
0.0510150491644082
40
0.0595400799254543
40
0.0680651106865003
40
0.0765901414475464
40
0.0851151722085925
40
0.0936402029696385
40
0.102165233730685
40
0.110690264491731
40
0.119215295252777
40
0.136265356774869
40
0.144790387535915
40
0.153315418296961
40
0.161840449058007
40
0.170365479819053
40
0.187415541341145
40
0.195940572102191
40
0.204465602863237
40
0.22151566438533
40
0.230040695146376
40
0.238565725907422
40
0.255615787429514
40
0.26414081819056
40
0.272665848951606
40
0.281190879712652
40
0.289715910473698
40
0.298240941234744
40
0.30676597199579
40
0.315291002756836
40
0.323816033517882
40
0.340866095039975
40
0.349391125801021
40
0.357916156562067
40
0.366441187323113
40
0.374966218084159
40
0.392016279606251
40
0.400541310367297
40
0.409066341128343
40
0.417591371889389
40
0.426116402650435
40
0.443166464172527
40
0.451691494933573
40
0.46021652569462
40
0.468741556455666
40
0.477266587216712
40
0.494316648738804
40
0.50284167949985
40
0.511366710260896
40
0.519891741021942
40
0.528416771782988
40
0.54546683330508
40
0.553991864066126
40
0.562516894827172
40
0.571041925588218
40
0.579566956349264
40
0.596617017871357
40
0.605142048632403
40
0.613667079393449
40
0.622192110154495
40
0.630717140915541
40
0.647767202437633
40
0.656292233198679
40
0.664817263959725
40
0.681867325481817
40
0.698917387003909
40
0.707442417764955
40
0.715967448526002
40
0.733017510048094
40
0.74154254080914
40
0.750067571570186
40
0.758592602331232
40
0.767117633092278
40
0.775642663853324
40
0.78416769461437
40
0.801217756136462
40
0.818267817658554
40
0.8267928484196
40
0.835317879180646
40
0.843842909941692
40
0.852367940702739
40
0.860892971463785
40
0.869418002224831
40
0.886468063746923
40
0.903518125269015
40
0.920568186791107
40
0.929093217552153
40
0.937618248313199
40
0.946143279074245
40
0.954668309835291
40
0.963193340596337
40
0.971718371357384
40
0.98024340211843
40
0.988768432879476
40
0.997293463640522
40
1
40
1
40
1
40
1
41
1
10
-0.394976888875291
20
17.3596700645037
30
0
41
1
10
-0.394976888875291
20
17.3614874656207
30
0
41
1
10
-0.394976888875291
20
17.3642659962224
30
0
41
1
10
-0.394976888875291
20
17.3658104187982
30
0
41
1
10
-0.394976888875291
20
17.364743357607
30
0
41
1
10
-0.394976888875291
20
17.3611046370287
30
0
41
1
10
-0.394976888875291
20
17.3549392673806
30
0
41
1
10
-0.394976888875291
20
17.3462909837355
30
0
41
1
10
-0.394976888875291
20
17.3352007293143
30
0
41
1
10
-0.394976888875291
20
17.3217086001335
30
0
41
1
10
-0.394976888875291
20
17.3058521283006
30
0
41
1
10
-0.394976888875291
20
17.2876678324761
30
0
41
1
10
-0.394976888875291
20
17.267190526317
30
0
41
1
10
-0.394976888875291
20
17.2444530966284
30
0
41
1
10
-0.394976888875291
20
17.2194882282903
30
0
41
1
10
-0.394976888875291
20
17.1832568130363
30
0
41
1
10
-0.394976888875291
20
17.1427382851614
30
0
41
1
10
-0.394976888875291
20
17.0979462613767
30
0
41
1
10
-0.394976888875291
20
17.0622798138473
30
0
41
1
10
-0.394976888875291
20
17.0245523789023
30
0
41
1
10
-0.394976888875291
20
16.9715145338597
30
0
41
1
10
-0.394976888875291
20
16.9145140859045
30
0
41
1
10
-0.394976888875291
20
16.8535135157982
30
0
41
1
10
-0.394976888875291
20
16.7899145739052
30
0
41
1
10
-0.394976888875291
20
16.7225357594453
30
0
41
1
10
-0.394976888875291
20
16.6513062647865
30
0
41
1
10
-0.394976888875291
20
16.577583428992
30
0
41
1
10
-0.394976888875291
20
16.5002370605308
30
0
41
1
10
-0.394976888875291
20
16.4191737242595
30
0
41
1
10
-0.394976888875291
20
16.3565947837564
30
0
41
1
10
-0.394976888875291
20
16.2922298184193
30
0
41
1
10
-0.394976888875291
20
16.2260943534788
30
0
41
1
10
-0.394976888875291
20
16.1582019227301
30
0
41
1
10
-0.394976888875291
20
16.0885677968918
30
0
41
1
10
-0.394976888875291
20
16.0172057910894
30
0
41
1
10
-0.394976888875291
20
15.9197362080175
30
0
41
1
10
-0.394976888875291
20
15.8189643575456
30
0
41
1
10
-0.394976888875291
20
15.7147364711228
30
0
41
1
10
-0.394976888875291
20
15.6349267495635
30
0
41
1
10
-0.394976888875291
20
15.553463729323
30
0
41
1
10
-0.394976888875291
20
15.4426195996911
30
0
41
1
10
-0.394976888875291
20
15.3286250260664
30
0
41
1
10
-0.394976888875291
20
15.2112966721243
30
0
41
1
10
-0.394976888875291
20
15.1217290697223
30
0
41
1
10
-0.394976888875291
20
15.0305709686995
30
0
41
1
10
-0.394976888875291
20
14.906878048735
30
0
41
1
10
-0.394976888875291
20
14.7801642402503
30
0
41
1
10
-0.394976888875291
20
14.6502180265082
30
0
41
1
10
-0.394976888875291
20
14.5512443698349
30
0
41
1
10
-0.394976888875291
20
14.4507333574048
30
0
41
1
10
-0.394976888875291
20
14.3146351144528
30
0
41
1
10
-0.394976888875291
20
14.1756274353422
30
0
41
1
10
-0.394976888875291
20
14.0334711437704
30
0
41
1
10
-0.394976888875291
20
13.9253889575191
30
0
41
1
10
-0.394976888875291
20
13.8158144643309
30
0
41
1
10
-0.394976888875291
20
13.6676860465324
30
0
41
1
10
-0.394976888875291
20
13.5167448397425
30
0
41
1
10
-0.394976888875291
20
13.3627236430939
30
0
41
1
10
-0.394976888875291
20
13.2457848907918
30
0
41
1
10
-0.394976888875291
20
13.127391952352
30
0
41
1
10
-0.394976888875291
20
12.9675509274721
30
0
41
1
10
-0.394976888875291
20
12.8049814419576
30
0
41
1
10
-0.394976888875291
20
12.6393872212047
30
0
41
1
10
-0.394976888875291
20
12.5138050377602
30
0
41
1
10
-0.394976888875291
20
12.3868007822861
30
0
41
1
10
-0.394976888875291
20
12.2155153079022
30
0
41
1
10
-0.394976888875291
20
12.0415756036957
30
0
41
1
10
-0.394976888875291
20
11.8646543426879
30
0
41
1
10
-0.394976888875291
20
11.6858676336886
30
0
41
1
10
-0.394976888875291
20
11.4590305058839
30
0
41
1
10
-0.394976888875291
20
11.2275701322441
30
0
41
1
10
-0.394976888875291
20
11.0395280715927
30
0
41
1
10
-0.394976888875291
20
10.8496518299165
30
0
41
1
10
-0.394976888875291
20
10.6572262982852
30
0
41
1
10
-0.394976888875291
20
10.4618684218406
30
0
41
1
10
-0.394976888875291
20
10.3140380853821
30
0
41
1
10
-0.394976888875291
20
10.1648479968029
30
0
41
1
10
-0.394976888875291
20
10.0143015620689
30
0
41
1
10
-0.394976888875291
20
9.86240079247779
30
0
41
1
10
-0.394976888875291
20
9.65799297250354
30
0
41
1
10
-0.394976888875291
20
9.3992804435735
30
0
41
1
10
-0.394976888875291
20
9.13609084815204
30
0
41
1
10
-0.394976888875291
20
8.92272120904667
30
0
41
1
10
-0.394976888875291
20
8.76141979935898
30
0
41
1
10
-0.394976888875291
20
8.59878513251641
30
0
41
1
10
-0.394976888875291
20
8.43482033812748
30
0
41
1
10
-0.394976888875291
20
8.26952734508268
30
0
41
1
10
-0.394976888875291
20
8.04728288893983
30
0
41
1
10
-0.394976888875291
20
7.76637137475095
30
0
41
1
10
-0.394976888875291
20
7.42389184310318
30
0
41
1
10
-0.394976888875291
20
7.13420904829047
30
0
41
1
10
-0.394976888875291
20
6.89966739484251
30
0
41
1
10
-0.394976888875291
20
6.7225342898117
30
0
41
1
10
-0.394976888875291
20
6.54409938064705
30
0
41
1
10
-0.394976888875291
20
6.36436626337326
30
0
41
1
10
-0.394976888875291
20
6.18333822517317
30
0
41
1
10
-0.394976888875291
20
6.0010194773844
30
0
41
1
10
-0.394976888875291
20
5.81741425905383
30
0
41
1
10
-0.394976888875291
20
5.63252720020009
30
0
41
1
10
-0.394976888875291
20
5.48871675629186
30
0
41
1
10
-0.394976888875291
20
5.40659331252826
30
0
41
1
10
-0.394976888875291
20
5.38678223323933
30
0
0
SPLINE
5
B2
100
AcDbEntity
8
SK1
62
256
6
ByLayer
370
-1
48
1
60
0
100
AcDbSpline
70
4
71
3
72
26
73
22
40
0
40
0
40
0
40
0
40
0.249999999999998
40
0.249999999999998
40
0.499999999999996
40
0.499999999999996
40
0.624999999999995
40
0.624999999999995
40
0.749999999999994
40
0.749999999999994
40
0.812499999999995
40
0.812499999999995
40
0.874999999999996
40
0.874999999999996
40
0.906249999999997
40
0.906249999999997
40
0.937499999999998
40
0.937499999999998
40
0.968749999999999
40
0.968749999999999
40
1
40
1
40
1
40
1
41
1
10
-0.200000000000003
20
-6.10344849123055
30
0
41
1
10
-0.200000000000003
20
-6.03658343849247
30
0
41
1
10
-0.201307915401514
20
-5.96945919325992
30
0
41
1
10
-0.207636972094093
20
-5.834608864394
30
0
41
1
10
-0.212579850553354
20
-5.76680281418186
30
0
41
1
10
-0.224951590332722
20
-5.66479408005213
30
0
41
1
10
-0.229904281870205
20
-5.63080031605782
30
0
41
1
10
-0.24252152347114
20
-5.56290531314949
30
0
41
1
10
-0.250117086737546
20
-5.52896458934305
30
0
41
1
10
-0.265414899342289
20
-5.47925984090534
30
0
41
1
10
-0.271171206812241
20
-5.46286741312713
30
0
41
1
10
-0.285126828250398
20
-5.43075649789992
30
0
41
1
10
-0.293370777796014
20
-5.41464883184736
30
0
41
1
10
-0.309754325583356
20
-5.39312762647259
30
0
41
1
10
-0.315906755851444
20
-5.38639867120835
30
0
41
1
10
-0.33043328177348
20
-5.37534138513308
30
0
41
1
10
-0.338822824507886
20
-5.37123289411579
30
0
41
1
10
-0.356328976513893
20
-5.36848804676438
30
0
41
1
10
-0.365355266428651
20
-5.36994612574296
30
0
41
1
10
-0.381274177460838
20
-5.37639293798046
30
0
41
1
10
-0.3884397087092
20
-5.38122846522199
30
0
41
1
10
-0.394976888875334
20
-5.38678189578178
30
0
0
SPLINE
5
B3
100
AcDbEntity
8
SK1
62
256
6
ByLayer
370
-1
48
1
60
0
100
AcDbSpline
70
4
71
3
72
13
73
9
40
0
40
0
40
0
40
0
40
0.239456135733032
40
0.36835972189655
40
0.499998983985304
40
0.631638415256113
40
0.760542467762445
40
1
40
1
40
1
40
1
41
1
10
-2.2
20
-17.520098551796
30
0
41
1
10
-2.19909198642199
20
-17.4940410756899
30
0
41
1
10
-2.19103284106865
20
-17.4566684913667
30
0
41
1
10
-2.16563592203264
20
-17.410449317548
30
0
41
1
10
-2.13886378679183
20
-17.3791677636995
30
0
41
1
10
-2.10627712749808
20
-17.3540003935064
30
0
41
1
10
-2.05884064234172
20
-17.3309565910454
30
0
41
1
10
-2.02111030873064
20
-17.3247843360228
30
0
41
1
10
-1.9950399779393
20
-17.3251859759625
30
0
0
SPLINE
5
B4
100
AcDbEntity
8
SK1
62
256
6
ByLayer
370
-1
48
1
60
0
100
AcDbSpline
70
4
71
3
72
13
73
9
40
0
40
0
40
0
40
0
40
0.239457532282975
40
0.368361584804871
40
0.500001016081687
40
0.631640278165304
40
0.760543864313673
40
1
40
1
40
1
40
1
41
1
10
-1.9950399779393
20
17.3251861589552
30
0
41
1
10
-2.02111030872966
20
17.324784519015
30
0
41
1
10
-2.05884064233987
20
17.3309567740351
30
0
41
1
10
-2.10627712749673
20
17.3540005764862
30
0
41
1
10
-2.13886378679055
20
17.3791679466684
30
0
41
1
10
-2.16563592203168
20
17.4104495005038
30
0
41
1
10
-2.19103284106792
20
17.4566686743028
30
0
41
1
10
-2.19909198642127
20
17.4940412586114
30
0
41
1
10
-2.2
20
17.5200987347078
30
0
0
SPLINE
5
B5
100
AcDbEntity
8
SK1
62
256
6
ByLayer
370
-1
48
1
60
0
100
AcDbSpline
70
4
71
2
72
6
73
3
40
0
40
0
40
0
40
1
40
1
40
1
41
1
10
-28.5
20
-16.8542724489282
30
0
41
1
10
-15.3499999999286
20
-17.1845422635703
30
0
41
1
10
-2.19999999999999
20
-17.5148116792767
30
0
0
SPLINE
5
B6
100
AcDbEntity
8
SK1
62
256
6
ByLayer
370
-1
48
1
60
0
100
AcDbSpline
70
4
71
2
72
6
73
3
40
0
40
0
40
0
40
1
40
1
40
1
41
1
10
-2.19999999999999
20
17.5148117187522
30
0
41
1
10
-15.3499999999294
20
17.1845422725478
30
0
41
1
10
-28.5
20
16.854272429841
30
0
0
SPLINE
5
B7
100
AcDbEntity
8
SK1
62
256
6
ByLayer
370
-1
48
1
60
0
100
AcDbSpline
70
4
71
2
72
6
73
3
40
0
40
0
40
0
40
1
40
1
40
1
41
1
10
-1.9950399779393
20
-17.3199593099743
30
0
41
1
10
-1.19500843340704
20
-17.340052552406
30
0
41
1
10
-0.394976888875291
20
-17.3601457933935
30
0
0
SPLINE
5
B8
100
AcDbEntity
8
SK1
62
256
6
ByLayer
370
-1
48
1
60
0
100
AcDbSpline
70
4
71
2
72
6
73
3
40
0
40
0
40
0
40
1
40
1
40
1
41
1
10
-0.394976888875291
20
17.3601458189993
30
0
41
1
10
-1.19500843340704
20
17.3400525762132
30
0
41
1
10
-1.9950399779393
20
17.3199593319919
30
0
0
SPLINE
5
B9
100
AcDbEntity
8
SK1
62
256
6
ByLayer
370
-1
48
1
60
0
100
AcDbSpline
70
4
71
2
72
6
73
3
40
0
40
0
40
0
40
1
40
1
40
1
41
1
10
-30
20
-15.9924794145163
30
0
41
1
10
-29.2499999991495
20
-16.4254650261934
30
0
41
1
10
-28.5
20
-16.8584504491481
30
0
0
SPLINE
5
BA
100
AcDbEntity
8
SK1
62
256
6
ByLayer
370
-1
48
1
60
0
100
AcDbSpline
70
4
71
2
72
6
73
3
40
0
40
0
40
0
40
1
40
1
40
1
41
1
10
-28.5
20
16.8584505716142
30
0
41
1
10
-29.2499999991496
20
16.4254651505507
30
0
41
1
10
-30
20
15.99247954079
30
0
0
SPLINE
5
BB
100
AcDbEntity
8
SK1
62
256
6
ByLayer
370
-1
48
1
60
0
100
AcDbSpline
70
4
71
2
72
6
73
3
40
0
40
0
40
0
40
1
40
1
40
1
41
1
10
-0.394976888875291
20
-17.359696795897
30
0
41
1
10
-0.305277226309656
20
-17.3671842624703
30
0
41
1
10
-0.25865874061553
20
-17.4310145299903
30
0
0
SPLINE
5
BC
100
AcDbEntity
8
SK1
62
256
6
ByLayer
370
-1
48
1
60
0
100
AcDbSpline
70
4
71
2
72
6
73
3
40
0
40
0
40
0
40
1
40
1
40
1
41
1
10
-0.258442643302473
20
17.4312381196177
30
0
41
1
10
-0.305123774552669
20
17.3672404580573
30
0
41
1
10
-0.394976888875291
20
17.3596982935394
30
0
0
LINE
5
48
100
AcDbEntity
8
SK3
62
256
6
ByLayer
370
-1
48
0.05
60
0
100
AcDbLine
10
151
20
10
30
0
11
101.5
21
10
31
0
39
0
210
0
220
0
230
1
0
LINE
5
4A
100
AcDbEntity
8
SK3
62
256
6
ByLayer
370
-1
48
0.05
60
0
100
AcDbLine
10
100
20
8.5
30
0
11
100
21
-8.5
31
0
39
0
210
0
220
0
230
1
0
LINE
5
4B
100
AcDbEntity
8
4
62
256
6
ByLayer
370
-1
48
0.05
60
0
100
AcDbLine
10
151
20
0
30
0
11
0
21
0
31
0
39
0
210
0
220
0
230
1
0
LINE
5
4D
100
AcDbEntity
8
80
62
256
6
ByLayer
370
-1
48
1
60
0
100
AcDbLine
10
0
20
0
30
0
11
-10.875929
21
0
31
0
39
0
210
0
220
0
230
1
0
LINE
5
4E
100
AcDbEntity
8
SK3
62
256
6
ByLayer
370
-1
48
0.05
60
0
100
AcDbLine
10
101.5
20
-10
30
0
11
151
21
-10
31
0
39
0
210
0
220
0
230
1
0
LINE
5
4F
100
AcDbEntity
8
SK3
62
256
6
ByLayer
370
-1
48
0.05
60
0
100
AcDbLine
10
101.5
20
10
30
0
11
100
21
8.5
31
0
39
0
210
0
220
0
230
1
0
LINE
5
50
100
AcDbEntity
8
SK3
62
256
6
ByLayer
370
-1
48
0.05
60
0
100
AcDbLine
10
100
20
-8.5
30
0
11
101.5
21
-10
31
0
39
0
210
0
220
0
230
1
0
LINE
5
51
100
AcDbEntity
8
SK3
62
256
6
ByLayer
370
-1
48
0.05
60
0
100
AcDbLine
10
101.5
20
-10
30
0
11
101.5
21
10
31
0
39
0
210
0
220
0
230
1
0
LINE
5
52
100
AcDbEntity
8
81
62
256
6
ByLayer
370
-1
48
1
60
0
100
AcDbLine
10
151
20
0
30
0
11
155.742527
21
0
31
0
39
0
210
0
220
0
230
1
0
LINE
5
53
100
AcDbEntity
8
SK4
62
256
6
ByLayer
370
-1
48
0.05
60
0
100
AcDbLine
10
-40
20
0
30
0
11
161
21
0
31
0
39
0
210
0
220
0
230
1
0
LINE
5
55
100
AcDbEntity
8
1
62
256
6
ByLayer
370
-1
48
1
60
0
100
AcDbLine
10
0
20
-24.69
30
0
11
0
21
24.69
31
0
39
0
210
0
220
0
230
1
0
LINE
5
57
100
AcDbEntity
8
1
62
256
6
ByLayer
370
-1
48
1
60
0
100
AcDbLine
10
93.59714
20
-16
30
0
11
93.59714
21
0
31
0
39
0
210
0
220
0
230
1
0
LINE
5
58
100
AcDbEntity
8
1
62
256
6
ByLayer
370
-1
48
1
60
0
100
AcDbLine
10
93.59714
20
0
30
0
11
93.59714
21
16
31
0
39
0
210
0
220
0
230
1
0
LINE
5
59
100
AcDbEntity
8
1
62
256
6
ByLayer
370
-1
48
1
60
0
100
AcDbLine
10
151
20
-14.969571
30
0
11
151
21
14.969571
31
0
39
0
210
0
220
0
230
1
0
LINE
5
5A
100
AcDbEntity
8
1
62
256
6
ByLayer
370
-1
48
1
60
0
100
AcDbLine
10
8.105662
20
-23.650474
30
0
11
8.105662
21
-8.071876
31
0
39
0
210
0
220
0
230
1
0
LINE
5
5B
100
AcDbEntity
8
1
62
256
6
ByLayer
370
-1
48
1
60
0
100
AcDbLine
10
20.189697
20
0
30
0
11
20.189697
21
-24.233108
31
0
39
0
210
0
220
0
230
1
0
LINE
5
5C
100
AcDbEntity
8
1
62
256
6
ByLayer
370
-1
48
1
60
0
100
AcDbLine
10
20.189697
20
24.233108
30
0
11
20.189697
21
0
31
0
39
0
210
0
220
0
230
1
0
LINE
5
5D
100
AcDbEntity
8
1
62
256
6
ByLayer
370
-1
48
1
60
0
100
AcDbLine
10
11.461325
20
-23.82379
30
0
11
11.461325
21
-7.545007
31
0
39
0
210
0
220
0
230
1
0
LINE
5
5E
100
AcDbEntity
8
1
62
256
6
ByLayer
370
-1
48
1
60
0
100
AcDbLine
10
11.461325
20
7.545007
30
0
11
11.461325
21
23.82379
31
0
39
0
210
0
220
0
230
1
0
LINE
5
5F
100
AcDbEntity
8
1
62
256
6
ByLayer
370
-1
48
1
60
0
100
AcDbLine
10
11.461325
20
-7.545007
30
0
11
8.538675
21
-7.545007
31
0
39
0
210
0
220
0
230
1
0
LINE
5
60
100
AcDbEntity
8
1
62
256
6
ByLayer
370
-1
48
1
60
0
100
AcDbLine
10
88.416836
20
-16.26908
30
0
11
88.416836
21
16.26908
31
0
39
0
210
0
220
0
230
1
0
LINE
5
61
100
AcDbEntity
8
1
62
256
6
ByLayer
370
-1
48
1
60
0
100
AcDbLine
10
8.538675
20
-23.82379
30
0
11
11.461325
21
-23.82379
31
0
39
0
210
0
220
0
230
1
0
LINE
5
62
100
AcDbEntity
8
1
62
256
6
ByLayer
370
-1
48
1
60
0
100
AcDbLine
10
40.402859
20
21
30
0
11
40.402859
21
-21
31
0
39
0
210
0
220
0
230
1
0
LINE
5
63
100
AcDbEntity
8
1
62
256
6
ByLayer
370
-1
48
1
60
0
100
AcDbLine
10
8.538675
20
-23.82379
30
0
11
8.538675
21
-7.545007
31
0
39
0
210
0
220
0
230
1
0
LINE
5
64
100
AcDbEntity
8
1
62
256
6
ByLayer
370
-1
48
1
60
0
100
AcDbLine
10
11.461325
20
23.82379
30
0
11
8.538675
21
23.82379
31
0
39
0
210
0
220
0
230
1
0
LINE
5
65
100
AcDbEntity
8
1
62
256
6
ByLayer
370
-1
48
1
60
0
100
AcDbLine
10
11.894338
20
8.071876
30
0
11
11.894338
21
23.650474
31
0
39
0
210
0
220
0
230
1
0
LINE
5
66
100
AcDbEntity
8
1
62
256
6
ByLayer
370
-1
48
1
60
0
100
AcDbLine
10
19.219698
20
24.99
30
0
11
19.219698
21
-24.99
31
0
39
0
210
0
220
0
230
1
0
LINE
5
67
100
AcDbEntity
8
1
62
256
6
ByLayer
370
-1
48
1
60
0
100
AcDbLine
10
8.538675
20
7.545007
30
0
11
8.538675
21
23.82379
31
0
39
0
210
0
220
0
230
1
0
LINE
5
68
100
AcDbEntity
8
1
62
256
6
ByLayer
370
-1
48
1
60
0
100
AcDbLine
10
45.583163
20
20.73092
30
0
11
45.583163
21
-20.73092
31
0
39
0
210
0
220
0
230
1
0
LINE
5
69
100
AcDbEntity
8
1
62
256
6
ByLayer
370
-1
48
1
60
0
100
AcDbLine
10
0.3
20
-24.99
30
0
11
0.3
21
24.99
31
0
39
0
210
0
220
0
230
1
0
LINE
5
6A
100
AcDbEntity
8
1
62
256
6
ByLayer
370
-1
48
1
60
0
100
AcDbLine
10
22.950755
20
-21
30
0
11
22.950755
21
0
31
0
39
0
210
0
220
0
230
1
0
LINE
5
6B
100
AcDbEntity
8
1
62
256
6
ByLayer
370
-1
48
1
60
0
100
AcDbLine
10
22.950755
20
0
30
0
11
22.950755
21
21
31
0
39
0
210
0
220
0
230
1
0
LINE
5
6C
100
AcDbEntity
8
1
62
256
6
ByLayer
370
-1
48
1
60
0
100
AcDbLine
10
8.105662
20
8.071876
30
0
11
8.105662
21
23.650474
31
0
39
0
210
0
220
0
230
1
0
LINE
5
6D
100
AcDbEntity
8
1
62
256
6
ByLayer
370
-1
48
1
60
0
100
AcDbLine
10
11.894338
20
-23.650474
30
0
11
11.894338
21
-8.071876
31
0
39
0
210
0
220
0
230
1
0
LINE
5
6E
100
AcDbEntity
8
1
62
256
6
ByLayer
370
-1
48
1
60
0
100
AcDbLine
10
149.2
20
-16
30
0
11
149.2
21
16
31
0
39
0
210
0
220
0
230
1
0
LINE
5
6F
100
AcDbEntity
8
1
62
256
6
ByLayer
370
-1
48
1
60
0
100
AcDbLine
10
8.538675
20
7.545007
30
0
11
11.461325
21
7.545007
31
0
39
0
210
0
220
0
230
1
0
LINE
5
70
100
AcDbEntity
8
1
62
256
6
ByLayer
370
-1
48
1
60
0
100
AcDbLine
10
20.525757
20
-22.892231
30
0
11
20.525757
21
22.892231
31
0
39
0
210
0
220
0
230
1
0
LINE
5
71
100
AcDbEntity
8
1
62
256
6
ByLayer
370
-1
48
1
60
0
100
AcDbLine
10
150.366329
20
-15.752089
30
0
11
150.366329
21
15.752089
31
0
39
0
210
0
220
0
230
1
0
LINE
5
72
100
AcDbEntity
8
SK1
62
256
6
ByLayer
370
-1
48
1
60
0
100
AcDbLine
10
-0.2
20
6.103447
30
0
11
-0.2
21
17.833485
31
0
39
0
210
0
220
0
230
1
0
LINE
5
74
100
AcDbEntity
8
SK1
62
256
6
ByLayer
370
-1
48
1
60
0
100
AcDbLine
10
-1.99504
20
17.325157
30
0
11
-1.99504
21
17.320689
31
0
39
0
210
0
220
0
230
1
0
LINE
5
75
100
AcDbEntity
8
SK1
62
256
6
ByLayer
370
-1
48
1
60
0
100
AcDbLine
10
-1.99504
20
-17.320689
30
0
11
-1.99504
21
-17.325157
31
0
39
0
210
0
220
0
230
1
0
LINE
5
76
100
AcDbEntity
8
SK1
62
256
6
ByLayer
370
-1
48
1
60
0
100
AcDbLine
10
-1.307107
20
-3.918065
30
0
11
-1.307107
21
3.918065
31
0
39
0
210
0
220
0
230
1
0
LINE
5
77
100
AcDbEntity
8
SK1
62
256
6
ByLayer
370
-1
48
1
60
0
100
AcDbLine
10
-0.2
20
-17.833485
30
0
11
-0.2
21
-6.103448
31
0
39
0
210
0
220
0
230
1
0
LINE
5
78
100
AcDbEntity
8
1
62
256
6
ByLayer
370
-1
48
1
60
0
100
AcDbLine
10
49.703453
20
-16.187991
30
0
11
51.98496
21
-12.805517
31
0
39
0
210
0
220
0
230
1
0
LINE
5
79
100
AcDbEntity
8
1
62
256
6
ByLayer
370
-1
48
1
60
0
100
AcDbLine
10
51.98496
20
-12.805517
30
0
11
53.277343
21
-10.889481
31
0
39
0
210
0
220
0
230
1
0
LINE
5
7A
100
AcDbEntity
8
1
62
256
6
ByLayer
370
-1
48
1
60
0
100
AcDbLine
10
48.426281
20
-16.436248
30
0
11
51.222246
21
-12.29106
31
0
39
0
210
0
220
0
230
1
0
LINE
5
7B
100
AcDbEntity
8
1
62
256
6
ByLayer
370
-1
48
1
60
0
100
AcDbLine
10
51.222246
20
-12.29106
30
0
11
52.264003
21
-10.746592
31
0
39
0
210
0
220
0
230
1
0
LINE
5
7C
100
AcDbEntity
8
1
62
256
6
ByLayer
370
-1
48
1
60
0
100
AcDbLine
10
40.402859
20
21
30
0
11
22.950755
21
21
31
0
39
0
210
0
220
0
230
1
0
LINE
5
7D
100
AcDbEntity
8
1
62
256
6
ByLayer
370
-1
48
1
60
0
100
AcDbLine
10
0.3
20
24.99
30
0
11
0
21
24.69
31
0
39
0
210
0
220
0
230
1
0
LINE
5
7E
100
AcDbEntity
8
1
62
256
6
ByLayer
370
-1
48
1
60
0
100
AcDbLine
10
0
20
-24.69
30
0
11
0.3
21
-24.99
31
0
39
0
210
0
220
0
230
1
0
LINE
5
7F
100
AcDbEntity
8
1
62
256
6
ByLayer
370
-1
48
1
60
0
100
AcDbLine
10
0.3
20
-24.99
30
0
11
19.219698
21
-24.99
31
0
39
0
210
0
220
0
230
1
0
LINE
5
80
100
AcDbEntity
8
1
62
256
6
ByLayer
370
-1
48
1
60
0
100
AcDbLine
10
19.219698
20
24.99
30
0
11
0.3
21
24.99
31
0
39
0
210
0
220
0
230
1
0
LINE
5
81
100
AcDbEntity
8
1
62
256
6
ByLayer
370
-1
48
1
60
0
100
AcDbLine
10
20.189697
20
-24.233108
30
0
11
20.525757
21
-22.892231
31
0
39
0
210
0
220
0
230
1
0
LINE
5
82
100
AcDbEntity
8
1
62
256
6
ByLayer
370
-1
48
1
60
0
100
AcDbLine
10
20.525757
20
22.892231
30
0
11
20.189697
21
24.233108
31
0
39
0
210
0
220
0
230
1
0
LINE
5
83
100
AcDbEntity
8
1
62
256
6
ByLayer
370
-1
48
1
60
0
100
AcDbLine
10
22.950755
20
-21
30
0
11
40.402859
21
-21
31
0
39
0
210
0
220
0
230
1
0
LINE
5
84
100
AcDbEntity
8
1
62
256
6
ByLayer
370
-1
48
1
60
0
100
AcDbLine
10
45.583163
20
-20.73092
30
0
11
88.416836
21
-16.26908
31
0
39
0
210
0
220
0
230
1
0
LINE
5
85
100
AcDbEntity
8
1
62
256
6
ByLayer
370
-1
48
1
60
0
100
AcDbLine
10
88.416836
20
16.26908
30
0
11
45.583163
21
20.73092
31
0
39
0
210
0
220
0
230
1
0
LINE
5
86
100
AcDbEntity
8
1
62
256
6
ByLayer
370
-1
48
1
60
0
100
AcDbLine
10
93.59714
20
-16
30
0
11
149.2
21
-16
31
0
39
0
210
0
220
0
230
1
0
LINE
5
87
100
AcDbEntity
8
1
62
256
6
ByLayer
370
-1
48
1
60
0
100
AcDbLine
10
149.2
20
16
30
0
11
93.59714
21
16
31
0
39
0
210
0
220
0
230
1
0
LINE
5
88
100
AcDbEntity
8
1
62
256
6
ByLayer
370
-1
48
1
60
0
100
AcDbLine
10
149.2
20
-16
30
0
11
150.366329
21
-15.752089
31
0
39
0
210
0
220
0
230
1
0
LINE
5
89
100
AcDbEntity
8
1
62
256
6
ByLayer
370
-1
48
1
60
0
100
AcDbLine
10
150.366329
20
15.752089
30
0
11
149.2
21
16
31
0
39
0
210
0
220
0
230
1
0
LINE
5
8A
100
AcDbEntity
8
1
62
256
6
ByLayer
370
-1
48
1
60
0
100
AcDbLine
10
48.426281
20
-16.436248
30
0
11
49.703453
21
-16.187991
31
0
39
0
210
0
220
0
230
1
0
LINE
5
8B
100
AcDbEntity
8
1
62
256
6
ByLayer
370
-1
48
1
60
0
100
AcDbLine
10
46.988361
20
-15.466358
30
0
11
48.426281
21
-16.436248
31
0
39
0
210
0
220
0
230
1
0
LINE
5
8C
100
AcDbEntity
8
1
62
256
6
ByLayer
370
-1
48
1
60
0
100
AcDbLine
10
49.703453
20
-16.187991
30
0
11
47.502669
21
-14.703543
31
0
39
0
210
0
220
0
230
1
0
MTEXT
5
BD
100
AcDbEntity
8
SK6
62
256
6
ByLayer
370
-1
48
1
60
0
100
AcDbMText
10
-34.138158
20
32.365
30
0
210
0
220
0
230
1
1
\W01.000;\fsimplex.shx,bigfont.shx;  
40
3.5
41
0
44
1.084337
50
0
71
7
72
5
7
DEFAULT
0
MTEXT
5
E3
100
AcDbEntity
8
SK6
62
256
6
ByLayer
370
-1
48
1
60
0
100
AcDbMText
10
-34.138158
20
32.365
30
0
210
0
220
0
230
1
1
\W01.000;\fsimplex.shx,bigfont.shx;  
40
3.5
41
0
44
1.084337
50
0
71
7
72
5
7
DEFAULT
0
MTEXT
5
E4
100
AcDbEntity
8
SK6
62
256
6
ByLayer
370
-1
48
1
60
0
100
AcDbMText
10
-2.125
20
-39.365
30
0
210
0
220
0
230
1
1
\W00.683;\fsimplex.shx,bigfont.shx;930-C5-P-20-151 
40
3.5
41
0
44
1.084337
50
0
71
7
72
5
7
DEFAULT
0
DIMENSION
5
EF
100
AcDbEntity
8
SK2
62
256
6
ByLayer
370
-3
48
1
60
0
100
AcDbDimension
2
DimnDraft3D1
10
-60.1
20
24.99
30
0
11
-61.475
21
1.871053
31
0
70
33
71
5
72
1
41
1
210
0
220
0
230
1
3
Standard
100
AcDbAlignedDimension
13
-1.5875
23
-24.99
33
0
14
-1.5875
24
24.99
34
0
1001
ACAD
1000
DSTYLE
1002
{
1070
   279
1070
     0
1070
    74
1070
     0
1070
   173
1070
     1
1070
   340
1005
BE
1070
   271
1070
     0
1070
   272
1070
     2
1070
    77
1070
     1
1070
    73
1070
     0
1070
   171
1070
     3
1070
   274
1070
     4
1070
   177
1070
     2
1070
   176
1070
     2
1070
   178
1070
     2
1070
    78
1070
     8
1070
    48
1040
-0.005
1070
    41
1041
4.5
1070
   147
1041
2.25
1070
    42
1041
1.5875
1070
    44
1041
2.0
1070
   140
1041
4.5
1070
   343
1005
0
1070
   344
1005
0
1002
}
0
DIMENSION
5
F9
100
AcDbEntity
8
SK2
62
256
6
ByLayer
370
-3
48
1
60
0
100
AcDbDimension
2
DimnDraft3D2
10
151
20
53.09
30
0
11
82.281579
21
53.09
31
0
70
32
71
5
72
1
41
1
210
0
220
0
230
1
3
Standard
100
AcDbAlignedDimension
13
21
23
22.5875
33
0
14
151
24
11.5875
34
0
50
0
100
AcDbRotatedDimension
1001
ACAD
1000
DSTYLE
1002
{
1070
   279
1070
     0
1070
   172
1070
     1
1070
   173
1070
     1
1070
   340
1005
BE
1070
   271
1070
     1
1070
   272
1070
     2
1070
    77
1070
     1
1070
    73
1070
     0
1070
   171
1070
     3
1070
   274
1070
     4
1070
   177
1070
     2
1070
   176
1070
     2
1070
   178
1070
     2
1070
    78
1070
     8
1070
    48
1040
-0.005
1070
    41
1041
4.5
1070
   147
1041
2.25
1070
    42
1041
1.5875
1070
    44
1041
2.0
1070
   140
1041
4.5
1070
   343
1005
0
1070
   344
1005
0
1002
}
0
DIMENSION
5
104
100
AcDbEntity
8
2
62
256
6
ByLayer
370
-3
48
1
60
0
100
AcDbDimension
2
DimnDraft3D3
10
151
20
64.09
30
0
11
72.344079
21
64.09
31
0
70
32
71
5
72
1
41
1
210
0
220
0
230
1
3
Standard
100
AcDbAlignedDimension
13
0
23
23.6425
33
0
14
151
24
17.5875
34
0
50
0
100
AcDbRotatedDimension
1001
ACAD
1000
DSTYLE
1002
{
1070
   279
1070
     0
1070
   172
1070
     1
1070
   173
1070
     1
1070
   340
1005
BE
1070
   271
1070
     1
1070
   272
1070
     2
1070
    77
1070
     1
1070
    73
1070
     0
1070
   171
1070
     3
1070
   274
1070
     4
1070
   177
1070
     2
1070
   176
1070
     2
1070
   178
1070
     2
1070
    78
1070
     8
1070
    48
1040
-0.005
1070
    41
1041
4.5
1070
   147
1041
2.25
1070
    42
1041
1.5875
1070
    44
1041
2.0
1070
   140
1041
4.5
1070
   343
1005
0
1070
   344
1005
0
1002
}
0
DIMENSION
5
10E
100
AcDbEntity
8
SK2
62
256
6
ByLayer
370
-3
48
1
60
0
100
AcDbDimension
2
DimnDraft3D4
10
20
20
44.09
30
0
11
7.371053
21
44.09
31
0
70
32
71
5
72
1
41
1
210
0
220
0
230
1
3
Standard
100
AcDbAlignedDimension
13
0
23
23.6425
33
0
14
20
24
26.5775
34
0
50
0
100
AcDbRotatedDimension
1001
ACAD
1000
DSTYLE
1002
{
1070
   279
1070
     0
1070
   172
1070
     1
1070
   173
1070
     1
1070
   340
1005
BE
1070
   271
1070
     2
1070
   272
1070
     2
1070
    77
1070
     1
1070
    73
1070
     0
1070
   171
1070
     3
1070
   274
1070
     4
1070
   177
1070
     2
1070
   176
1070
     2
1070
   178
1070
     2
1070
    78
1070
     8
1070
    48
1040
-0.005
1070
    41
1041
4.5
1070
   147
1041
2.25
1070
    42
1041
1.5875
1070
    44
1041
2.0
1070
   140
1041
4.5
1070
   343
1005
0
1070
   344
1005
0
1002
}
0
DIMENSION
5
118
100
AcDbEntity
8
SK2
62
256
6
ByLayer
370
-3
48
1
60
0
100
AcDbDimension
2
DimnDraft3D5
10
91
20
34.09
30
0
11
118.371053
21
34.09
31
0
70
32
71
5
72
1
41
1
210
0
220
0
230
1
3
Standard
100
AcDbAlignedDimension
13
151
23
17.5875
33
0
14
91
24
17.5875
34
0
50
0
100
AcDbRotatedDimension
1001
ACAD
1000
DSTYLE
1002
{
1070
   279
1070
     0
1070
   172
1070
     1
1070
   173
1070
     1
1070
   340
1005
BE
1070
   271
1070
     1
1070
   272
1070
     2
1070
    77
1070
     1
1070
    73
1070
     0
1070
   171
1070
     3
1070
   274
1070
     4
1070
   177
1070
     2
1070
   176
1070
     2
1070
   178
1070
     2
1070
    78
1070
     8
1070
    48
1040
-0.005
1070
    41
1041
4.5
1070
   147
1041
2.25
1070
    42
1041
1.5875
1070
    44
1041
2.0
1070
   140
1041
4.5
1070
   343
1005
0
1070
   344
1005
0
1002
}
0
DIMENSION
5
122
100
AcDbEntity
8
SK2
62
256
6
ByLayer
370
-3
48
1
60
0
100
AcDbDimension
2
DimnDraft3D6
10
43
20
44.09
30
0
11
93.281579
21
44.09
31
0
70
32
71
5
72
1
41
1
210
0
220
0
230
1
3
Standard
100
AcDbAlignedDimension
13
151
23
17.5875
33
0
14
43
24
21.5875
34
0
50
0
100
AcDbRotatedDimension
1001
ACAD
1000
DSTYLE
1002
{
1070
   279
1070
     0
1070
   172
1070
     1
1070
   173
1070
     1
1070
   340
1005
BE
1070
   271
1070
     1
1070
   272
1070
     2
1070
    77
1070
     1
1070
    73
1070
     0
1070
   171
1070
     3
1070
   274
1070
     4
1070
   177
1070
     2
1070
   176
1070
     2
1070
   178
1070
     2
1070
    78
1070
     8
1070
    48
1040
-0.005
1070
    41
1041
4.5
1070
   147
1041
2.25
1070
    42
1041
1.5875
1070
    44
1041
2.0
1070
   140
1041
4.5
1070
   343
1005
0
1070
   344
1005
0
1002
}
0
DIMENSION
5
12C
100
AcDbEntity
8
SK2
62
256
6
ByLayer
370
-3
48
1
60
0
100
AcDbDimension
2
DimnDraft3D7
10
-30
20
64.09
30
0
11
-17.628947
21
64.09
31
0
70
32
71
5
72
1
41
1
210
0
220
0
230
1
3
Standard
100
AcDbAlignedDimension
13
0
23
23.6425
33
0
14
-30
24
19.5875
34
0
50
0
100
AcDbRotatedDimension
1001
ACAD
1000
DSTYLE
1002
{
1070
   279
1070
     0
1070
   172
1070
     1
1070
   173
1070
     1
1070
   340
1005
BE
1070
   271
1070
     1
1070
   272
1070
     2
1070
    77
1070
     1
1070
    73
1070
     0
1070
   171
1070
     3
1070
   274
1070
     4
1070
   177
1070
     2
1070
   176
1070
     2
1070
   178
1070
     2
1070
    78
1070
     8
1070
    48
1040
-0.005
1070
    41
1041
4.5
1070
   147
1041
2.25
1070
    42
1041
1.5875
1070
    44
1041
2.0
1070
   140
1041
4.5
1070
   343
1005
0
1070
   344
1005
0
1002
}
0
DIMENSION
5
136
100
AcDbEntity
8
SK2
62
256
6
ByLayer
370
-3
48
1
60
0
100
AcDbDimension
2
DimnDraft3D8
10
100
20
-33.59
30
0
11
105.883553
21
-33.59
31
0
70
32
71
5
72
1
41
1
210
0
220
0
230
1
3
Standard
100
AcDbAlignedDimension
13
151
23
-11.5875
33
0
14
100
24
-11.5875
34
0
50
0
100
AcDbRotatedDimension
1001
ACAD
1000
DSTYLE
1002
{
1070
   279
1070
     0
1070
   172
1070
     1
1070
   173
1070
     1
1070
   340
1005
BE
1070
   271
1070
     0
1070
   272
1070
     2
1070
    77
1070
     1
1070
    73
1070
     0
1070
   171
1070
     3
1070
   274
1070
     4
1070
   177
1070
     2
1070
   176
1070
     2
1070
   178
1070
     2
1070
    78
1070
     8
1070
    48
1040
-0.005
1070
    41
1041
4.5
1070
   147
1041
2.25
1070
    42
1041
1.5875
1070
    44
1041
2.0
1070
   140
1041
4.5
1070
   343
1005
0
1070
   344
1005
0
1002
}
0
DIMENSION
5
141
100
AcDbEntity
8
SK2
62
256
6
ByLayer
370
-3
48
1
60
0
100
AcDbDimension
2
DimnDraft3D9
10
225.25
20
16
30
0
11
225.25
21
-7.878947
31
0
70
32
71
5
72
1
41
1
210
0
220
0
230
1
3
Standard
100
AcDbAlignedDimension
13
152.5875
23
-16
33
0
14
152.5875
24
16
34
0
50
90
100
AcDbRotatedDimension
1001
ACAD
1000
DSTYLE
1002
{
1070
    74
1070
     0
1070
   279
1070
     0
1070
   172
1070
     1
1070
   173
1070
     1
1070
   340
1005
BE
1070
   271
1070
     1
1070
   272
1070
     2
1070
    77
1070
     1
1070
    73
1070
     0
1070
   171
1070
     3
1070
   274
1070
     4
1070
   177
1070
     2
1070
   176
1070
     2
1070
   178
1070
     2
1070
    78
1070
     8
1070
    48
1040
-0.005
1070
    41
1041
4.5
1070
   147
1041
2.25
1070
    42
1041
1.5875
1070
    44
1041
2.0
1070
   140
1041
4.5
1070
   343
1005
0
1070
   344
1005
0
1002
}
0
DIMENSION
5
14C
100
AcDbEntity
8
SK2
62
256
6
ByLayer
370
-3
48
1
60
0
100
AcDbDimension
2
DimnDraft3D10
10
235.25
20
-21
30
0
11
235.25
21
-8.115789
31
0
70
32
71
5
72
1
41
1
210
0
220
0
230
1
3
Standard
100
AcDbAlignedDimension
13
44.5875
23
21
33
0
14
44.5875
24
-21
34
0
50
90
100
AcDbRotatedDimension
1001
ACAD
1000
DSTYLE
1002
{
1070
    74
1070
     0
1070
   279
1070
     0
1070
   172
1070
     1
1070
   173
1070
     1
1070
   340
1005
BE
1070
   271
1070
     1
1070
   272
1070
     2
1070
    77
1070
     1
1070
    73
1070
     0
1070
   171
1070
     3
1070
   274
1070
     4
1070
   177
1070
     2
1070
   176
1070
     2
1070
   178
1070
     2
1070
    78
1070
     8
1070
    48
1040
-0.005
1070
    41
1041
4.5
1070
   147
1041
2.25
1070
    42
1041
1.5875
1070
    44
1041
2.0
1070
   140
1041
4.5
1070
   343
1005
0
1070
   344
1005
0
1002
}
0
DIMENSION
5
157
100
AcDbEntity
8
SK2
62
256
6
ByLayer
370
-3
48
1
60
0
100
AcDbDimension
2
DimnDraft3D11
10
206.25
20
-10
30
0
11
206.25
21
-7.878947
31
0
70
32
71
5
72
1
41
1
210
0
220
0
230
1
3
Standard
100
AcDbAlignedDimension
13
152.5875
23
10
33
0
14
152.5875
24
-10
34
0
50
90
100
AcDbRotatedDimension
1001
ACAD
1000
DSTYLE
1002
{
1070
    74
1070
     0
1070
   279
1070
     0
1070
   172
1070
     1
1070
   173
1070
     1
1070
   340
1005
BE
1070
   271
1070
     1
1070
   272
1070
     2
1070
    77
1070
     1
1070
    73
1070
     0
1070
   171
1070
     3
1070
   274
1070
     4
1070
   177
1070
     2
1070
   176
1070
     2
1070
   178
1070
     2
1070
    78
1070
     8
1070
    48
1040
-0.005
1070
    41
1041
4.5
1070
   147
1041
2.25
1070
    42
1041
1.5875
1070
    44
1041
2.0
1070
   140
1041
4.5
1070
   343
1005
0
1070
   344
1005
0
1002
}
0
ENDSEC
0
SECTION
2
OBJECTS
0
DICTIONARY
5
189
330
0
100
AcDbDictionary
280
0
281
1
3
ACAD_GROUP
350
18a
3
ACAD_MLINESTYLE
350
18b
0
DICTIONARY
5
18a
330
0
100
AcDbDictionary
280
0
281
1
0
DICTIONARY
5
18b
330
0
100
AcDbDictionary
280
0
281
1
3
Standard
350
18
0
MLINESTYLE
5
18
330
18b
100
AcDbMlineStyle
2
Standard
70
0
3

62
256
51
90
52
90
71
2
49
-0.5
62
256
6
ByLayer
49
0.5
62
256
6
ByLayer
0
RASTERVARIABLES
5
176
330

100
AcDbRasterVariables
90
0
70
1
71
1
72
1
0
ENDSEC
0
EOF
