0
SECTION
2
HEADER
9
$ACADVER
1
AC1015
9
$DWGCODEPAGE
3
ANSI_1252
9
$HANDSEED
5
1ae
9
$ANGBASE
50
0
9
$ANGDIR
70
0
9
$ATTMODE
70
1
9
$AUNITS
70
0
9
$AUPREC
70
0
9
$CECOLOR
62
256
9
$CELTSCALE
40
1
9
$CELTYPE
6
ByLayer
9
$CELWEIGHT
370
18
9
$CLAYER
8
0
9
$CMLJUST
70
0
9
$CMLSCALE
40
1
9
$CMLSTYLE
2
Standard
9
$DIMSTYLE
2
Standard
9
$TEXTSIZE
40
0.2
9
$TEXTSTYLE
7
Standard
9
$LUNITS
70
2
9
$LUPREC
70
4
9
$EXTNAMES
290
1
9
$INSUNITS
70
4
9
$LTSCALE
40
1
9
$LWDISPLAY
290
1
9
$PDMODE
70
0
9
$PDSIZE
40
0
9
$PLINEGEN
70
0
0
ENDSEC
0
SECTION
2
CLASSES
0
CLASS
1
RASTERVARIABLES
2
AcDbRasterVariables
3
ISM
90
0
280
0
281
0
0
ENDSEC
0
SECTION
2
TABLES
0
TABLE
2
VPORT
5
1a4
100
AcDbSymbolTable
0
VPORT
5
1
100
AcDbSymbolTableRecord
100
AcDbViewportTableRecord
2
*Active
70
0
10
0
20
0
11
1
21
1
12
-1
22
1
13
0
23
0
14
0.5
24
0.5
15
10
25
10
16
0
26
0
36
1
17
0
27
0
37
0
0
ENDTAB
0
TABLE
2
LTYPE
5
1a5
100
AcDbSymbolTable
0
LTYPE
5
14
100
AcDbSymbolTableRecord
100
AcDbLinetypeTableRecord
70
0
2
ByBlock
3

72
65
73
0
40
0
0
LTYPE
5
15
100
AcDbSymbolTableRecord
100
AcDbLinetypeTableRecord
70
0
2
ByLayer
3

72
65
73
0
40
0
0
LTYPE
5
16
100
AcDbSymbolTableRecord
100
AcDbLinetypeTableRecord
70
0
2
CONTINUOUS
3
Solid line
72
65
73
0
40
0
0
LTYPE
5
6A
100
AcDbSymbolTableRecord
100
AcDbLinetypeTableRecord
70
0
2
CENTER
3
____ _ ____ _ ____ _ ____
72
65
73
4
40
47.5
49
22
74
0
49
-8.5
74
0
49
8.5
74
0
49
-8.5
74
0
0
LTYPE
5
6B
100
AcDbSymbolTableRecord
100
AcDbLinetypeTableRecord
70
0
2
DASHED
3
__ __ __ __ __ __ __ __ __
72
65
73
2
40
25.72
49
12.86
74
0
49
-12.86
74
0
0
ENDTAB
0
TABLE
2
LAYER
5
1a6
100
AcDbSymbolTable
0
LAYER
5
10
100
AcDbSymbolTableRecord
100
AcDbLayerTableRecord
2
0
70
0
62
7
6
CONTINUOUS
290
1
370
-3
390
0
0
LAYER
5
6D
100
AcDbSymbolTableRecord
100
AcDbLayerTableRecord
2
80
70
0
62
-6
6
CONTINUOUS
290
1
370
-3
390
0
0
LAYER
5
6F
100
AcDbSymbolTableRecord
100
AcDbLayerTableRecord
2
81
70
0
62
-3
6
CONTINUOUS
290
1
370
-3
390
0
0
LAYER
5
77
100
AcDbSymbolTableRecord
100
AcDbLayerTableRecord
2
4
70
0
62
-2
6
CENTER
290
1
370
-3
390
0
0
LAYER
5
7B
100
AcDbSymbolTableRecord
100
AcDbLayerTableRecord
2
1
70
0
62
4
6
CONTINUOUS
290
1
370
-3
390
0
0
LAYER
5
F9
100
AcDbSymbolTableRecord
100
AcDbLayerTableRecord
2
2
70
0
62
7
6
CONTINUOUS
290
1
370
-3
390
0
0
LAYER
5
18f
100
AcDbSymbolTableRecord
100
AcDbLayerTableRecord
2
SK2
70
0
62
7
6
CONTINUOUS
290
1
370
-3
390
0
0
LAYER
5
190
100
AcDbSymbolTableRecord
100
AcDbLayerTableRecord
2
SK3
70
0
62
1
6
DASHED
290
1
370
-3
390
0
0
LAYER
5
191
100
AcDbSymbolTableRecord
100
AcDbLayerTableRecord
2
SK4
70
0
62
2
6
CENTER
290
1
370
-3
390
0
0
LAYER
5
192
100
AcDbSymbolTableRecord
100
AcDbLayerTableRecord
2
SK1
70
0
62
4
6
CONTINUOUS
290
1
370
-3
390
0
0
LAYER
5
193
100
AcDbSymbolTableRecord
100
AcDbLayerTableRecord
2
SK6
70
0
62
5
6
CONTINUOUS
290
1
370
-3
390
0
0
ENDTAB
0
TABLE
2
STYLE
5
1a7
100
AcDbSymbolTable
0
STYLE
5
11
100
AcDbSymbolTableRecord
100
AcDbTextStyleTableRecord
2
Standard
3
txt
70
0
71
0
40
0
41
1
42
0
50
0
0
STYLE
5
D2
100
AcDbSymbolTableRecord
100
AcDbTextStyleTableRecord
2
iso_b_vert
3
simplex.shx
70
0
71
0
40
0
41
1
42
0
50
0
0
STYLE
5
D3
100
AcDbSymbolTableRecord
100
AcDbTextStyleTableRecord
2
DWGDirectTextStyle
3
simplex
70
0
71
0
40
0
41
1
42
0
50
0
0
ENDTAB
0
TABLE
2
DIMSTYLE
5
1a8
100
AcDbSymbolTable
100
AcDbDimStyleTable
0
DIMSTYLE
105
27
100
AcDbSymbolTableRecord
100
AcDbDimStyleTableRecord
2
Standard
70
0
3
<>
41
0.18
42
0.0625
44
0.18
140
0.18
147
0.09
73
0
74
0
77
1
271
2
275
0
278
52
280
0
340
11
0
ENDTAB
0
TABLE
2
VIEW
5
1a9
100
AcDbSymbolTable
0
ENDTAB
0
TABLE
2
UCS
5
1aa
100
AcDbSymbolTable
0
ENDTAB
0
TABLE
2
APPID
5
1ab
100
AcDbSymbolTable
0
APPID
5
12
100
AcDbSymbolTableRecord
100
AcDbRegAppTableRecord
2
ACAD
70
0
0
ENDTAB
0
TABLE
2
BLOCK_RECORD
5
1ac
100
AcDbSymbolTable
0
BLOCK_RECORD
5
1F
100
AcDbSymbolTableRecord
100
AcDbBlockTableRecord
2
*Model_Space
340
0
70
0
0
BLOCK_RECORD
5
1B
100
AcDbSymbolTableRecord
100
AcDbBlockTableRecord
2
*Paper_Space
340
0
70
0
0
BLOCK_RECORD
5
23
100
AcDbSymbolTableRecord
100
AcDbBlockTableRecord
2
*Paper_Space0
340
0
70
0
0
BLOCK_RECORD
5
D7
100
AcDbSymbolTableRecord
100
AcDbBlockTableRecord
2
DimnDraft3D1
340
0
70
0
0
BLOCK_RECORD
5
E1
100
AcDbSymbolTableRecord
100
AcDbBlockTableRecord
2
DimnDraft3D2
340
0
70
0
0
BLOCK_RECORD
5
EC
100
AcDbSymbolTableRecord
100
AcDbBlockTableRecord
2
DimnDraft3D3
340
0
70
0
0
BLOCK_RECORD
5
F7
100
AcDbSymbolTableRecord
100
AcDbBlockTableRecord
2
DimnDraft3D4
340
0
70
0
0
BLOCK_RECORD
5
102
100
AcDbSymbolTableRecord
100
AcDbBlockTableRecord
2
DimnDraft3D5
340
0
70
0
0
BLOCK_RECORD
5
10C
100
AcDbSymbolTableRecord
100
AcDbBlockTableRecord
2
DimnDraft3D6
340
0
70
0
0
BLOCK_RECORD
5
116
100
AcDbSymbolTableRecord
100
AcDbBlockTableRecord
2
DimnDraft3D7
340
0
70
0
0
BLOCK_RECORD
5
120
100
AcDbSymbolTableRecord
100
AcDbBlockTableRecord
2
DimnDraft3D8
340
0
70
0
0
BLOCK_RECORD
5
12B
100
AcDbSymbolTableRecord
100
AcDbBlockTableRecord
2
DimnDraft3D9
340
0
70
0
0
ENDTAB
0
ENDSEC
0
SECTION
2
BLOCKS
0
BLOCK
5
20
100
AcDbEntity
8
0
100
AcDbBlockBegin
2
*Model_Space
70
0
10
0
20
0
30
0
3
*Model_Space
0
ENDBLK
5
21
100
AcDbEntity
8
0
100
AcDbBlockEnd
0
BLOCK
5
1C
100
AcDbEntity
8
0
100
AcDbBlockBegin
2
*Paper_Space
70
0
10
0
20
0
30
0
3
*Paper_Space
0
ENDBLK
5
1D
100
AcDbEntity
8
0
100
AcDbBlockEnd
0
BLOCK
5
24
100
AcDbEntity
8
0
100
AcDbBlockBegin
2
*Paper_Space0
70
0
10
0
20
0
30
0
3
*Paper_Space0
0
ENDBLK
5
25
100
AcDbEntity
8
0
100
AcDbBlockEnd
0
BLOCK
5
DE
100
AcDbEntity
8
0
100
AcDbBlockBegin
2
DimnDraft3D1
70
0
10
0
20
0
30
0
3
DimnDraft3D1
0
MTEXT
5
D8
100
AcDbEntity
8
SK2
62
256
6
ByLayer
370
18
48
1
60
0
100
AcDbMText
10
30.436842
20
57.725
30
0
210
0
220
0
230
1
1
\W0.6740;52
40
4.5
41
0
44
1.084337
50
0
71
7
72
5
7
iso_b_vert
0
LINE
5
D9
100
AcDbEntity
8
SK2
62
256
6
ByLayer
370
13
48
1
60
0
100
AcDbLine
10
6
20
30.0875
30
0
11
6
21
58.6
31
0
39
0
210
0
220
0
230
1
0
LINE
5
DA
100
AcDbEntity
8
SK2
62
256
6
ByLayer
370
13
48
1
60
0
100
AcDbLine
10
58
20
11.5875
30
0
11
58
21
58.6
31
0
39
0
210
0
220
0
230
1
0
LINE
5
DB
100
AcDbEntity
8
SK2
62
256
6
ByLayer
370
13
48
1
60
0
100
AcDbLine
10
6
20
56.6
30
0
11
58
21
56.6
31
0
39
0
210
0
220
0
230
1
0
SOLID
5
DC
100
AcDbEntity
8
SK2
62
256
6
ByLayer
370
13
48
1
60
0
100
AcDbTrace
10
6
20
56.6
30
0
11
10.499996
21
57.597626
31
0
12
10.500004
22
55.602374
32
0
13
6
23
56.6
33
0
39
0
210
0
220
0
230
1
0
SOLID
5
DD
100
AcDbEntity
8
SK2
62
256
6
ByLayer
370
13
48
1
60
0
100
AcDbTrace
10
58
20
56.6
30
0
11
53.500004
21
55.602374
31
0
12
53.499996
22
57.597626
32
0
13
58
23
56.6
33
0
39
0
210
0
220
0
230
1
0
ENDBLK
5
DF
100
AcDbEntity
8
0
100
AcDbBlockEnd
0
BLOCK
5
E9
100
AcDbEntity
8
0
100
AcDbBlockBegin
2
DimnDraft3D2
70
0
10
0
20
0
30
0
3
DimnDraft3D2
0
MTEXT
5
E2
100
AcDbEntity
8
SK2
62
256
6
ByLayer
370
18
48
1
60
0
100
AcDbMText
10
-54.35
20
2.7
30
0
210
0
220
0
230
1
1
\W0.7361;40
40
4.5
41
0
44
1.084337
50
90
71
7
72
5
7
iso_b_vert
0
MTEXT
5
E3
100
AcDbEntity
8
SK2
62
256
6
ByLayer
370
18
48
1
60
0
100
AcDbMText
10
-54.35
20
-4.014844
30
0
210
0
220
0
230
1
1
%%c
40
4.5
41
0
44
1.084337
50
90
71
7
72
5
7
iso_b_vert
0
LINE
5
E4
100
AcDbEntity
8
SK2
62
256
6
ByLayer
370
13
48
1
60
0
100
AcDbLine
10
-1.5875
20
-20
30
0
11
-54.1
21
-20
31
0
39
0
210
0
220
0
230
1
0
LINE
5
E5
100
AcDbEntity
8
SK2
62
256
6
ByLayer
370
13
48
1
60
0
100
AcDbLine
10
-1.5875
20
20
30
0
11
-54.1
21
20
31
0
39
0
210
0
220
0
230
1
0
LINE
5
E6
100
AcDbEntity
8
SK2
62
256
6
ByLayer
370
13
48
1
60
0
100
AcDbLine
10
-52.1
20
-20
30
0
11
-52.1
21
20
31
0
39
0
210
0
220
0
230
1
0
SOLID
5
E7
100
AcDbEntity
8
SK2
62
256
6
ByLayer
370
13
48
1
60
0
100
AcDbTrace
10
-52.1
20
-20
30
0
11
-53.097626
21
-15.500004
31
0
12
-51.102374
22
-15.499996
32
0
13
-52.1
23
-20
33
0
39
0
210
0
220
0
230
1
0
SOLID
5
E8
100
AcDbEntity
8
SK2
62
256
6
ByLayer
370
13
48
1
60
0
100
AcDbTrace
10
-52.1
20
20
30
0
11
-51.102374
21
15.500004
31
0
12
-53.097626
22
15.499996
32
0
13
-52.1
23
20
33
0
39
0
210
0
220
0
230
1
0
ENDBLK
5
EA
100
AcDbEntity
8
0
100
AcDbBlockEnd
0
BLOCK
5
F4
100
AcDbEntity
8
0
100
AcDbBlockBegin
2
DimnDraft3D3
70
0
10
0
20
0
30
0
3
DimnDraft3D3
0
MTEXT
5
ED
100
AcDbEntity
8
SK2
62
256
6
ByLayer
370
18
48
1
60
0
100
AcDbMText
10
-66.35
20
2.936842
30
0
210
0
220
0
230
1
1
\W0.6740;57
40
4.5
41
0
44
1.084337
50
90
71
7
72
5
7
iso_b_vert
0
MTEXT
5
EE
100
AcDbEntity
8
SK2
62
256
6
ByLayer
370
18
48
1
60
0
100
AcDbMText
10
-66.35
20
-3.778002
30
0
210
0
220
0
230
1
1
%%c
40
4.5
41
0
44
1.084337
50
90
71
7
72
5
7
iso_b_vert
0
LINE
5
EF
100
AcDbEntity
8
SK2
62
256
6
ByLayer
370
13
48
1
60
0
100
AcDbLine
10
4.4125
20
-28.5
30
0
11
-66.1
21
-28.5
31
0
39
0
210
0
220
0
230
1
0
LINE
5
F0
100
AcDbEntity
8
SK2
62
256
6
ByLayer
370
13
48
1
60
0
100
AcDbLine
10
4.4125
20
28.5
30
0
11
-66.1
21
28.5
31
0
39
0
210
0
220
0
230
1
0
LINE
5
F1
100
AcDbEntity
8
SK2
62
256
6
ByLayer
370
13
48
1
60
0
100
AcDbLine
10
-64.1
20
-28.5
30
0
11
-64.1
21
28.5
31
0
39
0
210
0
220
0
230
1
0
SOLID
5
F2
100
AcDbEntity
8
SK2
62
256
6
ByLayer
370
13
48
1
60
0
100
AcDbTrace
10
-64.1
20
-28.5
30
0
11
-64.560784
21
-25.000002
31
0
12
-63.639216
22
-24.999998
32
0
13
-64.1
23
-28.5
33
0
39
0
210
0
220
0
230
1
0
SOLID
5
F3
100
AcDbEntity
8
SK2
62
256
6
ByLayer
370
13
48
1
60
0
100
AcDbTrace
10
-64.1
20
28.5
30
0
11
-63.639216
21
25.000002
31
0
12
-64.560784
22
24.999998
32
0
13
-64.1
23
28.5
33
0
39
0
210
0
220
0
230
1
0
ENDBLK
5
F5
100
AcDbEntity
8
0
100
AcDbBlockEnd
0
BLOCK
5
FF
100
AcDbEntity
8
0
100
AcDbBlockBegin
2
DimnDraft3D4
70
0
10
0
20
0
30
0
3
DimnDraft3D4
0
MTEXT
5
F8
100
AcDbEntity
8
2
62
256
6
ByLayer
370
18
48
1
60
0
100
AcDbMText
10
27.436842
20
68.725
30
0
210
0
220
0
230
1
1
\W0.6740;58
40
4.5
41
0
44
1.084337
50
0
71
7
72
5
7
iso_b_vert
0
LINE
5
FA
100
AcDbEntity
8
2
62
256
6
ByLayer
370
13
48
1
60
0
100
AcDbLine
10
0
20
21.5875
30
0
11
0
21
69.6
31
0
39
0
210
0
220
0
230
1
0
LINE
5
FB
100
AcDbEntity
8
2
62
256
6
ByLayer
370
13
48
1
60
0
100
AcDbLine
10
58
20
22.5875
30
0
11
58
21
69.6
31
0
39
0
210
0
220
0
230
1
0
LINE
5
FC
100
AcDbEntity
8
2
62
256
6
ByLayer
370
13
48
1
60
0
100
AcDbLine
10
0
20
67.6
30
0
11
58
21
67.6
31
0
39
0
210
0
220
0
230
1
0
SOLID
5
FD
100
AcDbEntity
8
2
62
256
6
ByLayer
370
13
48
1
60
0
100
AcDbTrace
10
0
20
67.6
30
0
11
4.499996
21
68.597626
31
0
12
4.500004
22
66.602374
32
0
13
0
23
67.6
33
0
39
0
210
0
220
0
230
1
0
SOLID
5
FE
100
AcDbEntity
8
2
62
256
6
ByLayer
370
13
48
1
60
0
100
AcDbTrace
10
58
20
67.6
30
0
11
53.500004
21
66.602374
31
0
12
53.499996
22
68.597626
32
0
13
58
23
67.6
33
0
39
0
210
0
220
0
230
1
0
ENDBLK
5
100
100
AcDbEntity
8
0
100
AcDbBlockEnd
0
BLOCK
5
109
100
AcDbEntity
8
0
100
AcDbBlockBegin
2
DimnDraft3D5
70
0
10
0
20
0
30
0
3
DimnDraft3D5
0
MTEXT
5
103
100
AcDbEntity
8
SK2
62
256
6
ByLayer
370
18
48
1
60
0
100
AcDbMText
10
38.936842
20
48.725
30
0
210
0
220
0
230
1
1
\W0.6740;35
40
4.5
41
0
44
1.084337
50
0
71
7
72
5
7
iso_b_vert
0
LINE
5
104
100
AcDbEntity
8
SK2
62
256
6
ByLayer
370
13
48
1
60
0
100
AcDbLine
10
58
20
22.5875
30
0
11
58
21
49.6
31
0
39
0
210
0
220
0
230
1
0
LINE
5
105
100
AcDbEntity
8
SK2
62
256
6
ByLayer
370
13
48
1
60
0
100
AcDbLine
10
23
20
22.5875
30
0
11
23
21
49.6
31
0
39
0
210
0
220
0
230
1
0
LINE
5
106
100
AcDbEntity
8
SK2
62
256
6
ByLayer
370
13
48
1
60
0
100
AcDbLine
10
58
20
47.6
30
0
11
23
21
47.6
31
0
39
0
210
0
220
0
230
1
0
SOLID
5
107
100
AcDbEntity
8
SK2
62
256
6
ByLayer
370
13
48
1
60
0
100
AcDbTrace
10
58
20
47.6
30
0
11
53.500004
21
46.602374
31
0
12
53.499996
22
48.597626
32
0
13
58
23
47.6
33
0
39
0
210
0
220
0
230
1
0
SOLID
5
108
100
AcDbEntity
8
SK2
62
256
6
ByLayer
370
13
48
1
60
0
100
AcDbTrace
10
23
20
47.6
30
0
11
27.499996
21
48.597626
31
0
12
27.500004
22
46.602374
32
0
13
23
23
47.6
33
0
39
0
210
0
220
0
230
1
0
ENDBLK
5
10A
100
AcDbEntity
8
0
100
AcDbBlockEnd
0
BLOCK
5
113
100
AcDbEntity
8
0
100
AcDbBlockBegin
2
DimnDraft3D6
70
0
10
0
20
0
30
0
3
DimnDraft3D6
0
MTEXT
5
10D
100
AcDbEntity
8
SK2
62
256
6
ByLayer
370
18
48
1
60
0
100
AcDbMText
10
-13.8
20
68.725
30
0
210
0
220
0
230
1
1
\W0.7167;24
40
4.5
41
0
44
1.084337
50
0
71
7
72
5
7
iso_b_vert
0
LINE
5
10E
100
AcDbEntity
8
SK2
62
256
6
ByLayer
370
13
48
1
60
0
100
AcDbLine
10
0
20
21.5875
30
0
11
0
21
69.6
31
0
39
0
210
0
220
0
230
1
0
LINE
5
10F
100
AcDbEntity
8
SK2
62
256
6
ByLayer
370
13
48
1
60
0
100
AcDbLine
10
-24
20
15.9875
30
0
11
-24
21
69.6
31
0
39
0
210
0
220
0
230
1
0
LINE
5
110
100
AcDbEntity
8
SK2
62
256
6
ByLayer
370
13
48
1
60
0
100
AcDbLine
10
0
20
67.6
30
0
11
-24
21
67.6
31
0
39
0
210
0
220
0
230
1
0
SOLID
5
111
100
AcDbEntity
8
SK2
62
256
6
ByLayer
370
13
48
1
60
0
100
AcDbTrace
10
0
20
67.6
30
0
11
-4.499996
21
66.602374
31
0
12
-4.500004
22
68.597626
32
0
13
0
23
67.6
33
0
39
0
210
0
220
0
230
1
0
SOLID
5
112
100
AcDbEntity
8
SK2
62
256
6
ByLayer
370
13
48
1
60
0
100
AcDbTrace
10
-24
20
67.6
30
0
11
-19.500004
21
68.597626
31
0
12
-19.499996
22
66.602374
32
0
13
-24
23
67.6
33
0
39
0
210
0
220
0
230
1
0
ENDBLK
5
114
100
AcDbEntity
8
0
100
AcDbBlockEnd
0
BLOCK
5
11D
100
AcDbEntity
8
0
100
AcDbBlockBegin
2
DimnDraft3D7
70
0
10
0
20
0
30
0
3
DimnDraft3D7
0
MTEXT
5
117
100
AcDbEntity
8
SK2
62
256
6
ByLayer
370
18
48
1
60
0
100
AcDbMText
10
13.623684
20
-55.975
30
0
210
0
220
0
230
1
1
\W0.7114;min 41-max 51
40
4.5
41
0
44
1.084337
50
0
71
7
72
5
7
iso_b_vert
0
LINE
5
118
100
AcDbEntity
8
SK2
62
256
6
ByLayer
370
13
48
1
60
0
100
AcDbLine
10
7
20
-11.5875
30
0
11
7
21
-59.1
31
0
39
0
210
0
220
0
230
1
0
LINE
5
119
100
AcDbEntity
8
SK2
62
256
6
ByLayer
370
13
48
1
60
0
100
AcDbLine
10
58
20
-11.5875
30
0
11
58
21
-59.1
31
0
39
0
210
0
220
0
230
1
0
LINE
5
11A
100
AcDbEntity
8
SK2
62
256
6
ByLayer
370
13
48
1
60
0
100
AcDbLine
10
-4.25
20
-57.1
30
0
11
69.25
21
-57.1
31
0
39
0
210
0
220
0
230
1
0
SOLID
5
11B
100
AcDbEntity
8
SK2
62
256
6
ByLayer
370
13
48
1
60
0
100
AcDbTrace
10
7
20
-57.1
30
0
11
2.500004
21
-58.097626
31
0
12
2.499996
22
-56.102374
32
0
13
7
23
-57.1
33
0
39
0
210
0
220
0
230
1
0
SOLID
5
11C
100
AcDbEntity
8
SK2
62
256
6
ByLayer
370
13
48
1
60
0
100
AcDbTrace
10
58
20
-57.1
30
0
11
62.499996
21
-56.102374
31
0
12
62.500004
22
-58.097626
32
0
13
58
23
-57.1
33
0
39
0
210
0
220
0
230
1
0
ENDBLK
5
11E
100
AcDbEntity
8
0
100
AcDbBlockEnd
0
BLOCK
5
128
100
AcDbEntity
8
0
100
AcDbBlockBegin
2
DimnDraft3D8
70
0
10
0
20
0
30
0
3
DimnDraft3D8
0
MTEXT
5
121
100
AcDbEntity
8
SK2
62
256
6
ByLayer
370
18
48
1
60
0
100
AcDbMText
10
130.25
20
3.45
30
0
210
0
220
0
230
1
1
\W0.7361;42
40
4.5
41
0
44
1.084337
50
90
71
7
72
5
7
iso_b_vert
0
MTEXT
5
122
100
AcDbEntity
8
SK2
62
256
6
ByLayer
370
18
48
1
60
0
100
AcDbMText
10
130
20
-5.522656
30
0
210
0
220
0
230
1
1
%%c
40
3.5
41
0
44
1.084337
50
90
71
7
72
5
7
iso_b_vert
0
LINE
5
123
100
AcDbEntity
8
SK2
62
256
6
ByLayer
370
13
48
1
60
0
100
AcDbLine
10
43.5875
20
21
30
0
11
134.25
21
21
31
0
39
0
210
0
220
0
230
1
0
LINE
5
124
100
AcDbEntity
8
SK2
62
256
6
ByLayer
370
13
48
1
60
0
100
AcDbLine
10
43.5875
20
-21
30
0
11
134.25
21
-21
31
0
39
0
210
0
220
0
230
1
0
LINE
5
125
100
AcDbEntity
8
SK2
62
256
6
ByLayer
370
13
48
1
60
0
100
AcDbLine
10
132.25
20
21
30
0
11
132.25
21
-21
31
0
39
0
210
0
220
0
230
1
0
SOLID
5
126
100
AcDbEntity
8
SK2
62
256
6
ByLayer
370
13
48
1
60
0
100
AcDbTrace
10
132.25
20
21
30
0
11
133.247626
21
16.500004
31
0
12
131.252374
22
16.499996
32
0
13
132.25
23
21
33
0
39
0
210
0
220
0
230
1
0
SOLID
5
127
100
AcDbEntity
8
SK2
62
256
6
ByLayer
370
13
48
1
60
0
100
AcDbTrace
10
132.25
20
-21
30
0
11
131.252374
21
-16.500004
31
0
12
133.247626
22
-16.499996
32
0
13
132.25
23
-21
33
0
39
0
210
0
220
0
230
1
0
ENDBLK
5
129
100
AcDbEntity
8
0
100
AcDbBlockEnd
0
BLOCK
5
133
100
AcDbEntity
8
0
100
AcDbBlockBegin
2
DimnDraft3D9
70
0
10
0
20
0
30
0
3
DimnDraft3D9
0
MTEXT
5
12C
100
AcDbEntity
8
SK2
62
256
6
ByLayer
370
18
48
1
60
0
100
AcDbMText
10
108.25
20
3.686842
30
0
210
0
220
0
230
1
1
\W0.6740;20
40
4.5
41
0
44
1.084337
50
90
71
7
72
5
7
iso_b_vert
0
MTEXT
5
12D
100
AcDbEntity
8
SK2
62
256
6
ByLayer
370
18
48
1
60
0
100
AcDbMText
10
108
20
-5.285814
30
0
210
0
220
0
230
1
1
%%c
40
3.5
41
0
44
1.084337
50
90
71
7
72
5
7
iso_b_vert
0
LINE
5
12E
100
AcDbEntity
8
SK2
62
256
6
ByLayer
370
13
48
1
60
0
100
AcDbLine
10
59.5875
20
10
30
0
11
112.25
21
10
31
0
39
0
210
0
220
0
230
1
0
LINE
5
12F
100
AcDbEntity
8
SK2
62
256
6
ByLayer
370
13
48
1
60
0
100
AcDbLine
10
59.5875
20
-10
30
0
11
112.25
21
-10
31
0
39
0
210
0
220
0
230
1
0
LINE
5
130
100
AcDbEntity
8
SK2
62
256
6
ByLayer
370
13
48
1
60
0
100
AcDbLine
10
110.25
20
21.25
30
0
11
110.25
21
-21.25
31
0
39
0
210
0
220
0
230
1
0
SOLID
5
131
100
AcDbEntity
8
SK2
62
256
6
ByLayer
370
13
48
1
60
0
100
AcDbTrace
10
110.25
20
10
30
0
11
109.252374
21
14.499996
31
0
12
111.247626
22
14.500004
32
0
13
110.25
23
10
33
0
39
0
210
0
220
0
230
1
0
SOLID
5
132
100
AcDbEntity
8
SK2
62
256
6
ByLayer
370
13
48
1
60
0
100
AcDbTrace
10
110.25
20
-10
30
0
11
111.247626
21
-14.499996
31
0
12
109.252374
22
-14.500004
32
0
13
110.25
23
-10
33
0
39
0
210
0
220
0
230
1
0
ENDBLK
5
134
100
AcDbEntity
8
0
100
AcDbBlockEnd
0
ENDSEC
0
SECTION
2
ENTITIES
0
ARC
5
A3
100
AcDbEntity
8
SK1
62
256
6
ByLayer
370
18
48
1
60
0
100
AcDbCircle
39
0
10
0.6
20
15
30
0
40
0.999999999999989
210
0
220
0
230
-1
100
AcDbArc
50
233.130102
51
246.421822
0
ARC
5
A4
100
AcDbEntity
8
SK1
62
256
6
ByLayer
370
18
48
1
60
0
100
AcDbCircle
39
0
10
0.6
20
-15
30
0
40
0.999999999999989
210
0
220
0
230
-1
100
AcDbArc
50
113.578178
51
126.869898
0
ARC
5
A5
100
AcDbEntity
8
1
62
256
6
ByLayer
370
18
48
1
60
0
100
AcDbCircle
39
0
10
-5
20
21
30
0
40
1
210
0
220
0
230
-1
100
AcDbArc
50
180
51
270
0
ARC
5
A6
100
AcDbEntity
8
1
62
256
6
ByLayer
370
18
48
1
60
0
100
AcDbCircle
39
0
10
19.570016
20
27.5
30
0
40
1
210
0
220
0
230
1
100
AcDbArc
50
20
51
90
0
ARC
5
A7
100
AcDbEntity
8
1
62
256
6
ByLayer
370
18
48
1
60
0
100
AcDbCircle
39
0
10
56.8
20
-17.973777
30
0
40
1.2
210
0
220
0
230
1
100
AcDbArc
50
277
51
0
0
ARC
5
A8
100
AcDbEntity
8
1
62
256
6
ByLayer
370
18
48
1
60
0
100
AcDbCircle
39
0
10
7
20
27.5
30
0
40
1
210
0
220
0
230
1
100
AcDbArc
50
90
51
180
0
ARC
5
A9
100
AcDbEntity
8
1
62
256
6
ByLayer
370
18
48
1
60
0
100
AcDbCircle
39
0
10
7
20
-27.5
30
0
40
1
210
0
220
0
230
1
100
AcDbArc
50
180
51
270
0
ARC
5
AA
100
AcDbEntity
8
1
62
256
6
ByLayer
370
18
48
1
60
0
100
AcDbCircle
39
0
10
19.570016
20
-27.5
30
0
40
1
210
0
220
0
230
1
100
AcDbArc
50
270
51
340
0
ARC
5
AB
100
AcDbEntity
8
1
62
256
6
ByLayer
370
18
48
1
60
0
100
AcDbCircle
39
0
10
40.776748
20
1
30
0
40
20
210
0
220
0
230
1
100
AcDbArc
50
83
51
90
0
ARC
5
AC
100
AcDbEntity
8
1
62
256
6
ByLayer
370
18
48
1
60
0
100
AcDbCircle
39
0
10
-23.700208
20
22
30
0
40
1
210
0
220
0
230
-1
100
AcDbArc
50
270
51
340
0
ARC
5
AD
100
AcDbEntity
8
1
62
256
6
ByLayer
370
18
48
1
60
0
100
AcDbCircle
39
0
10
-23.700208
20
-22
30
0
40
1
210
0
220
0
230
-1
100
AcDbArc
50
20
51
90
0
ARC
5
AE
100
AcDbEntity
8
1
62
256
6
ByLayer
370
18
48
1
60
0
100
AcDbCircle
39
0
10
40.776748
20
-1
30
0
40
20
210
0
220
0
230
1
100
AcDbArc
50
270
51
277
0
ARC
5
AF
100
AcDbEntity
8
1
62
256
6
ByLayer
370
18
48
1
60
0
100
AcDbCircle
39
0
10
56.8
20
17.973777
30
0
40
1.2
210
0
220
0
230
1
100
AcDbArc
50
0
51
83
0
ARC
5
B0
100
AcDbEntity
8
1
62
256
6
ByLayer
370
18
48
1
60
0
100
AcDbCircle
39
0
10
-5
20
-21
30
0
40
1
210
0
220
0
230
-1
100
AcDbArc
50
90
51
180
0
POINT
5
6C
100
AcDbEntity
8
80
62
256
6
ByLayer
370
18
48
1
60
0
100
AcDbPoint
10
0
20
0
30
0
39
0
210
0
220
0
230
1
50
360
0
POINT
5
6E
100
AcDbEntity
8
81
62
256
6
ByLayer
370
18
48
1
60
0
100
AcDbPoint
10
58
20
0
30
0
39
0
210
0
220
0
230
1
50
360
0
POINT
5
70
100
AcDbEntity
8
SK2
62
256
6
ByLayer
370
18
48
1
60
1
100
AcDbPoint
10
0
20
-20
30
0
39
0
210
0
220
0
230
1
50
360
0
POINT
5
72
100
AcDbEntity
8
SK2
62
256
6
ByLayer
370
18
48
1
60
1
100
AcDbPoint
10
0
20
20
30
0
39
0
210
0
220
0
230
1
50
360
0
SPLINE
5
B1
100
AcDbEntity
8
SK1
62
256
6
ByLayer
370
13
48
1
60
0
100
AcDbSpline
70
4
71
3
72
91
73
87
40
0
40
0
40
0
40
0
40
0.0047231557613479
40
0.0147478622409452
40
0.0247725687205425
40
0.0347972752001399
40
0.0448219816797372
40
0.0648713946389318
40
0.0849208075981264
40
0.104970220557321
40
0.125019633516516
40
0.135044339996113
40
0.14506904647571
40
0.155093752955308
40
0.165118459434905
40
0.185167872394099
40
0.205217285353294
40
0.215241991832891
40
0.225266698312489
40
0.235291404792086
40
0.245316111271683
40
0.255340817751281
40
0.265365524230878
40
0.285414937190072
40
0.29543964366967
40
0.305464350149267
40
0.325513763108462
40
0.345563176067656
40
0.355587882547254
40
0.365612589026851
40
0.385662001986046
40
0.395686708465643
40
0.400699061705442
40
0.40571141494524
40
0.415736121424838
40
0.425760827904435
40
0.445810240863629
40
0.455834947343227
40
0.465859653822824
40
0.475884360302421
40
0.485909066782019
40
0.495933773261616
40
0.505958479741213
40
0.515983186220811
40
0.526007892700408
40
0.536032599180005
40
0.546057305659602
40
0.566106718618797
40
0.576131425098394
40
0.586156131577992
40
0.596180838057589
40
0.601193191297388
40
0.606205544537186
40
0.616230251016784
40
0.626254957496381
40
0.636279663975978
40
0.646304370455575
40
0.656329076935173
40
0.66635378341477
40
0.686403196373965
40
0.706452609333159
40
0.716477315812757
40
0.726502022292354
40
0.746551435251549
40
0.756576141731146
40
0.766600848210743
40
0.77662555469034
40
0.786650261169938
40
0.796674967649535
40
0.806699674129132
40
0.81672438060873
40
0.826749087088327
40
0.846798500047522
40
0.856823206527119
40
0.866847913006716
40
0.876872619486314
40
0.886897325965911
40
0.896922032445508
40
0.906946738925105
40
0.9269961518843
40
0.937020858363897
40
0.947045564843495
40
0.957070271323092
40
0.967094977802689
40
0.987144390761884
40
1
40
1
40
1
40
1
41
1
10
-0.394976888875277
20
5.0009244140283
30
0
41
1
10
-0.394976888875277
20
5.02359271293304
30
0
41
1
10
-0.394976888875277
20
5.09425517295406
30
0
41
1
10
-0.394976888875277
20
5.21232773385495
30
0
41
1
10
-0.394976888875277
20
5.35463940810163
30
0
41
1
10
-0.394976888875277
20
5.49591838220567
30
0
41
1
10
-0.394976888875277
20
5.68302324019061
30
0
41
1
10
-0.394976888875277
20
5.91406385279547
30
0
41
1
10
-0.394976888875277
20
6.18726433662556
30
0
41
1
10
-0.394976888875277
20
6.45627503636445
30
0
41
1
10
-0.394976888875277
20
6.67684685573994
30
0
41
1
10
-0.394976888875277
20
6.85136200824962
30
0
41
1
10
-0.394976888875277
20
6.98112244545175
30
0
41
1
10
-0.394976888875277
20
7.10982244878713
30
0
41
1
10
-0.394976888875277
20
7.28009509164627
30
0
41
1
10
-0.394976888875277
20
7.49008089634199
30
0
41
1
10
-0.394976888875277
20
7.69650359349293
30
0
41
1
10
-0.394976888875277
20
7.85964213989763
30
0
41
1
10
-0.394976888875277
20
7.98086143927398
30
0
41
1
10
-0.394976888875277
20
8.10100252302422
30
0
41
1
10
-0.394976888875277
20
8.22006379392718
30
0
41
1
10
-0.394976888875277
20
8.33804225713789
30
0
41
1
10
-0.394976888875277
20
8.49397418950429
30
0
41
1
10
-0.394976888875277
20
8.64751154095558
30
0
41
1
10
-0.394976888875277
20
8.79907643306458
30
0
41
1
10
-0.394976888875277
20
8.94918033853523
30
0
41
1
10
-0.394976888875277
20
9.13390678694702
30
0
41
1
10
-0.394976888875277
20
9.3149499665038
30
0
41
1
10
-0.394976888875277
20
9.45767861814849
30
0
41
1
10
-0.394976888875277
20
9.59892076352932
30
0
41
1
10
-0.394976888875277
20
9.73773600630287
30
0
41
1
10
-0.394976888875277
20
9.85736934874495
30
0
41
1
10
-0.394976888875277
20
9.92517900727512
30
0
41
1
10
-0.394976888875277
20
9.99261143893298
30
0
41
1
10
-0.394976888875277
20
10.0761265525343
30
0
41
1
10
-0.394976888875277
20
10.2083399780688
30
0
41
1
10
-0.394976888875277
20
10.3380960413352
30
0
41
1
10
-0.394976888875277
20
10.4657231550753
30
0
41
1
10
-0.394976888875277
20
10.5602461340712
30
0
41
1
10
-0.394976888875277
20
10.6536100721469
30
0
41
1
10
-0.394976888875277
20
10.74580988339
30
0
41
1
10
-0.394976888875277
20
10.8368404439692
30
0
41
1
10
-0.394976888875277
20
10.9266969759659
30
0
41
1
10
-0.394976888875277
20
11.0153746780185
30
0
41
1
10
-0.394976888875277
20
11.102867622286
30
0
41
1
10
-0.394976888875277
20
11.1891707558493
30
0
41
1
10
-0.394976888875277
20
11.3026972493618
30
0
41
1
10
-0.394976888875277
20
11.4136741241806
30
0
41
1
10
-0.394976888875277
20
11.5223699646631
30
0
41
1
10
-0.394976888875277
20
11.6026363586083
30
0
41
1
10
-0.394976888875277
20
11.6684804259269
30
0
41
1
10
-0.394976888875277
20
11.7205808778945
30
0
41
1
10
-0.394976888875277
20
11.7722691621604
30
0
41
1
10
-0.394976888875277
20
11.8360539668501
30
0
41
1
10
-0.394976888875277
20
11.9113764581405
30
0
41
1
10
-0.394976888875277
20
11.9854459580753
30
0
41
1
10
-0.394976888875277
20
12.0582544060742
30
0
41
1
10
-0.394976888875277
20
12.1297946053789
30
0
41
1
10
-0.394976888875277
20
12.2235215734124
30
0
41
1
10
-0.394976888875277
20
12.3373769122162
30
0
41
1
10
-0.394976888875277
20
12.4468991604423
30
0
41
1
10
-0.394976888875277
20
12.5319491453114
30
0
41
1
10
-0.394976888875277
20
12.6152283382819
30
0
41
1
10
-0.394976888875277
20
12.6957215859151
30
0
41
1
10
-0.394976888875277
20
12.7736108931729
30
0
41
1
10
-0.394976888875277
20
12.8306328717281
30
0
41
1
10
-0.394976888875277
20
12.8862769376535
30
0
41
1
10
-0.394976888875277
20
12.9405320737836
30
0
41
1
10
-0.394976888875277
20
12.9933861020735
30
0
41
1
10
-0.394976888875277
20
13.0448282447276
30
0
41
1
10
-0.394976888875277
20
13.094846134259
30
0
41
1
10
-0.394976888875277
20
13.1596507604527
30
0
41
1
10
-0.394976888875277
20
13.2214670183476
30
0
41
1
10
-0.394976888875277
20
13.2804176635455
30
0
41
1
10
-0.394976888875277
20
13.3231185671574
30
0
41
1
10
-0.394976888875277
20
13.3643136176474
30
0
41
1
10
-0.394976888875277
20
13.4039879614121
30
0
41
1
10
-0.394976888875277
20
13.4421262012037
30
0
41
1
10
-0.394976888875277
20
13.4909311840823
30
0
41
1
10
-0.394976888875277
20
13.5365270016785
30
0
41
1
10
-0.394976888875277
20
13.5789821852606
30
0
41
1
10
-0.394976888875277
20
13.6091837483775
30
0
41
1
10
-0.394976888875277
20
13.6377421071264
30
0
41
1
10
-0.394976888875277
20
13.6736219510479
30
0
41
1
10
-0.394976888875277
20
13.7083936630628
30
0
41
1
10
-0.394976888875249
20
13.731953113031
30
0
41
1
10
-0.394976888875249
20
13.7406754138758
30
0
0
SPLINE
5
B2
100
AcDbEntity
8
SK1
62
256
6
ByLayer
370
18
48
1
60
0
100
AcDbSpline
70
4
71
3
72
15
73
11
40
0
40
0
40
0
40
0
40
0.0913510515024915
40
0.345951818230713
40
0.473252201594822
40
0.60055258495893
40
0.72785296832304
40
0.85515335168715
40
0.98245373505126
40
1
40
1
40
1
40
1
41
1
10
-0.394976888875249
20
13.7406755177044
30
0
41
1
10
-0.394976888875277
20
13.7455563480611
30
0
41
1
10
-0.394976888875277
20
13.7634686422436
30
0
41
1
10
-0.394976888875277
20
13.7849758313288
30
0
41
1
10
-0.394976888875277
20
13.8044829705053
30
0
41
1
10
-0.394976888875277
20
13.8172492272358
30
0
41
1
10
-0.394976888875277
20
13.8281310063336
30
0
41
1
10
-0.394976888875277
20
13.8370982474882
30
0
41
1
10
-0.394976888875277
20
13.842101166137
30
0
41
1
10
-0.394976888875277
20
13.8443369604552
30
0
41
1
10
-0.394976888875277
20
13.8446015176322
30
0
0
SPLINE
5
B3
100
AcDbEntity
8
SK1
62
256
6
ByLayer
370
18
48
1
60
0
100
AcDbSpline
70
4
71
3
72
19
73
15
40
0
40
0
40
0
40
0
40
0.0012986598510227
40
0.0949907346774813
40
0.18868280950394
40
0.282374884330399
40
0.376066959156858
40
0.469759033983317
40
0.563451108809776
40
0.657143183636234
40
0.750835258462693
40
0.844527333289152
40
0.938219408115611
40
1
40
1
40
1
40
1
41
1
10
-1.49503997793931
20
-13.8251837329089
30
0
41
1
10
-1.49503997793931
20
-13.8251847330089
30
0
41
1
10
-1.49503997793931
20
-13.8252109075777
30
0
41
1
10
-1.49503997793931
20
-13.8245545856003
30
0
41
1
10
-1.49503997793931
20
-13.821531562835
30
0
41
1
10
-1.49503997793931
20
-13.8164987457743
30
0
41
1
10
-1.49503997793931
20
-13.8094907530557
30
0
41
1
10
-1.49503997793931
20
-13.800539960484
30
0
41
1
10
-1.49503997793931
20
-13.7896781016746
30
0
41
1
10
-1.49503997793931
20
-13.7769347594832
30
0
41
1
10
-1.49503997793931
20
-13.7623389110759
30
0
41
1
10
-1.49503997793931
20
-13.7459180935577
30
0
41
1
10
-1.49503997793931
20
-13.7297669046847
30
0
41
1
10
-1.49503997793934
20
-13.718875249236
30
0
41
1
10
-1.49503997793931
20
-13.7144191472344
30
0
0
SPLINE
5
B4
100
AcDbEntity
8
SK1
62
256
6
ByLayer
370
13
48
1
60
0
100
AcDbSpline
70
4
71
3
72
108
73
104
40
0
40
0
40
0
40
0
40
0.0029472949184485
40
0.0116005491916602
40
0.0289070577380835
40
0.0375603120112951
40
0.0462135662845068
40
0.0548668205577184
40
0.0635200748309301
40
0.0808265833773534
40
0.0894798376505651
40
0.0981330919237767
40
0.106786346196988
40
0.1154396004702
40
0.124092854743412
40
0.132746109016623
40
0.150052617563047
40
0.158705871836258
40
0.16735912610947
40
0.176012380382681
40
0.184665634655893
40
0.193318888929105
40
0.201972143202316
40
0.210625397475528
40
0.21927865174874
40
0.236585160295163
40
0.245238414568375
40
0.253891668841586
40
0.27119817738801
40
0.288504685934433
40
0.297157940207645
40
0.305811194480856
40
0.314464448754068
40
0.32311770302728
40
0.331770957300491
40
0.340424211573703
40
0.344750838710309
40
0.349077465846915
40
0.357730720120126
40
0.366383974393338
40
0.375037228666549
40
0.392343737212973
40
0.400996991486185
40
0.409650245759396
40
0.418303500032608
40
0.426956754305819
40
0.435610008579031
40
0.444263262852243
40
0.452916517125454
40
0.461569771398666
40
0.470223025671878
40
0.478876279945089
40
0.496182788491513
40
0.504836042764724
40
0.513489297037936
40
0.517815924174542
40
0.522142551311148
40
0.530795805584359
40
0.548102314130782
40
0.556755568403994
40
0.565408822677206
40
0.582715331223629
40
0.600021839770052
40
0.608675094043264
40
0.617328348316476
40
0.634634856862899
40
0.643288111136111
40
0.651941365409322
40
0.660594619682534
40
0.669247873955746
40
0.677901128228957
40
0.686554382502169
40
0.703860891048592
40
0.721167399595015
40
0.729820653868227
40
0.738473908141439
40
0.747127162414651
40
0.755780416687862
40
0.773086925234285
40
0.790393433780709
40
0.807699942327132
40
0.825006450873555
40
0.833659705146767
40
0.842312959419978
40
0.85096621369319
40
0.859619467966402
40
0.868272722239614
40
0.876925976512825
40
0.885579230786037
40
0.894232485059249
40
0.90288573933246
40
0.911538993605672
40
0.920192247878883
40
0.928845502152095
40
0.937498756425307
40
0.946152010698518
40
0.95480526497173
40
0.963458519244942
40
0.972111773518153
40
0.980765027791365
40
0.989418282064576
40
0.998071536337788
40
1
40
1
40
1
40
1
41
1
10
-1.49503997793931
20
-13.714419147232
30
0
41
1
10
-1.49503997793931
20
-13.712117440197
30
0
41
1
10
-1.49503997793931
20
-13.7029234485913
30
0
41
1
10
-1.49503997793931
20
-13.6786965897716
30
0
41
1
10
-1.49503997793931
20
-13.646298505966
30
0
41
1
10
-1.49503997793931
20
-13.6104729213425
30
0
41
1
10
-1.49503997793931
20
-13.5819601013665
30
0
41
1
10
-1.49503997793931
20
-13.551806168738
30
0
41
1
10
-1.49503997793931
20
-13.5094130161235
30
0
41
1
10
-1.49503997793931
20
-13.4638962511352
30
0
41
1
10
-1.49503997793931
20
-13.4151607649325
30
0
41
1
10
-1.49503997793931
20
-13.3770799229021
30
0
41
1
10
-1.49503997793931
20
-13.3374647797226
30
0
41
1
10
-1.49503997793931
20
-13.296330722945
30
0
41
1
10
-1.49503997793931
20
-13.2536925631392
30
0
41
1
10
-1.49503997793931
20
-13.1948224412614
30
0
41
1
10
-1.49503997793931
20
-13.133106637017
30
0
41
1
10
-1.49503997793931
20
-13.0683888234861
30
0
41
1
10
-1.49503997793931
20
-13.0184419731185
30
0
41
1
10
-1.49503997793931
20
-12.9670724454163
30
0
41
1
10
-1.49503997793931
20
-12.9142926213842
30
0
41
1
10
-1.49503997793931
20
-12.8601132308426
30
0
41
1
10
-1.49503997793931
20
-12.8045464232669
30
0
41
1
10
-1.49503997793931
20
-12.7476032540011
30
0
41
1
10
-1.49503997793931
20
-12.6698142967672
30
0
41
1
10
-1.49503997793931
20
-12.5894449263383
30
0
41
1
10
-1.49503997793931
20
-12.5062717787185
30
0
41
1
10
-1.49503997793931
20
-12.4213295969168
30
0
41
1
10
-1.49503997793931
20
-12.3119621581916
30
0
41
1
10
-1.49503997793931
20
-12.1982669205398
30
0
41
1
10
-1.49503997793931
20
-12.1046570427268
30
0
41
1
10
-1.49503997793931
20
-12.0332119519516
30
0
41
1
10
-1.49503997793931
20
-11.960500101414
30
0
41
1
10
-1.49503997793931
20
-11.886528664654
30
0
41
1
10
-1.49503997793931
20
-11.8113057197552
30
0
41
1
10
-1.49503997793931
20
-11.747609354201
30
0
41
1
10
-1.49503997793931
20
-11.6959849306732
30
0
41
1
10
-1.49503997793931
20
-11.6439487843731
30
0
41
1
10
-1.49503997793931
20
-11.5781957427673
30
0
41
1
10
-1.49503997793931
20
-11.4980349156059
30
0
41
1
10
-1.49503997793931
20
-11.3894729046301
30
0
41
1
10
-1.49503997793931
20
-11.2786601205037
30
0
41
1
10
-1.49503997793931
20
-11.165273297363
30
0
41
1
10
-1.49503997793931
20
-11.0790834618892
30
0
41
1
10
-1.49503997793931
20
-10.9917054227684
30
0
41
1
10
-1.49503997793931
20
-10.9031442186804
30
0
41
1
10
-1.49503997793931
20
-10.8134058114344
30
0
41
1
10
-1.49503997793931
20
-10.7224950525573
30
0
41
1
10
-1.49503997793931
20
-10.630416702033
30
0
41
1
10
-1.49503997793931
20
-10.537175897834
30
0
41
1
10
-1.49503997793931
20
-10.4427777956644
30
0
41
1
10
-1.49503997793931
20
-10.3153089526253
30
0
41
1
10
-1.49503997793931
20
-10.1857467801784
30
0
41
1
10
-1.49503997793931
20
-10.0536983203575
30
0
41
1
10
-1.49503997793931
20
-9.97030028641953
30
0
41
1
10
-1.49503997793931
20
-9.90295237623948
30
0
41
1
10
-1.49503997793931
20
-9.835227886979
30
0
41
1
10
-1.49503997793931
20
-9.71574945872365
30
0
41
1
10
-1.49503997793931
20
-9.57714512355727
30
0
41
1
10
-1.49503997793931
20
-9.43608247629777
30
0
41
1
10
-1.49503997793931
20
-9.2935360539519
30
0
41
1
10
-1.49503997793931
20
-9.11275364912453
30
0
41
1
10
-1.49503997793931
20
-8.92829538452324
30
0
41
1
10
-1.49503997793931
20
-8.7783873974316
30
0
41
1
10
-1.49503997793931
20
-8.62702161678089
30
0
41
1
10
-1.49503997793931
20
-8.47372856948019
30
0
41
1
10
-1.49503997793931
20
-8.31800484031689
30
0
41
1
10
-1.49503997793931
20
-8.2001957134178
30
0
41
1
10
-1.49503997793931
20
-8.08130644558901
30
0
41
1
10
-1.49503997793931
20
-7.96134018717205
30
0
41
1
10
-1.49503997793931
20
-7.84029855153605
30
0
41
1
10
-1.49503997793931
20
-7.67738590051292
30
0
41
1
10
-1.49503997793931
20
-7.47128768043942
30
0
41
1
10
-1.49503997793931
20
-7.26163684175143
30
0
41
1
10
-1.49503997793931
20
-7.09160988853208
30
0
41
1
10
-1.49503997793931
20
-6.96311018885424
30
0
41
1
10
-1.49503997793931
20
-6.83355374310952
30
0
41
1
10
-1.49503997793931
20
-6.65929861735816
30
0
41
1
10
-1.49503997793931
20
-6.43910150489376
30
0
41
1
10
-1.49503997793931
20
-6.17053537924178
30
0
41
1
10
-1.49503997793931
20
-5.89779786635279
30
0
41
1
10
-1.49503997793931
20
-5.66717892451575
30
0
41
1
10
-1.49503997793931
20
-5.48038543010182
30
0
41
1
10
-1.49503997793931
20
-5.33936160781602
30
0
41
1
10
-1.49503997793931
20
-5.19731095699922
30
0
41
1
10
-1.49503997793931
20
-5.05423700692032
30
0
41
1
10
-1.49503997793931
20
-4.91014320448997
30
0
41
1
10
-1.49503997793931
20
-4.7650335666859
30
0
41
1
10
-1.49503997793931
20
-4.61891187892093
30
0
41
1
10
-1.49503997793931
20
-4.47178250674139
30
0
41
1
10
-1.49503997793931
20
-4.32365075555242
30
0
41
1
10
-1.49503997793931
20
-4.17452257114442
30
0
41
1
10
-1.49503997793931
20
-4.02440435063471
30
0
41
1
10
-1.49503997793931
20
-3.87330241838259
30
0
41
1
10
-1.49503997793931
20
-3.72122348266291
30
0
41
1
10
-1.49503997793931
20
-3.56817684914566
30
0
41
1
10
-1.49503997793931
20
-3.4141725129254
30
0
41
1
10
-1.49503997793931
20
-3.25922160409144
30
0
41
1
10
-1.49503997793931
20
-3.10333581737226
30
0
41
1
10
-1.49503997793931
20
-2.94652921585708
30
0
41
1
10
-1.49503997793931
20
-2.78881794693001
30
0
41
1
10
-1.49503997793931
20
-2.67130382016646
30
0
41
1
10
-1.49503997793931
20
-2.60647324344197
30
0
41
1
10
-1.49503997793931
20
-2.59465115086957
30
0
0
SPLINE
5
B5
100
AcDbEntity
8
SK1
62
256
6
ByLayer
370
13
48
1
60
0
100
AcDbSpline
70
4
71
3
72
107
73
103
40
0
40
0
40
0
40
0
40
0.0019284613239327
40
0.0105817150327971
40
0.0192349687416616
40
0.0278882224505261
40
0.0365414761593906
40
0.045194729868255
40
0.0538479835771195
40
0.062501237285984
40
0.0711544909948485
40
0.0798077447037129
40
0.0884609984125774
40
0.0971142521214419
40
0.105767505830306
40
0.114420759539171
40
0.123074013248035
40
0.1317272669569
40
0.140380520665764
40
0.149033774374629
40
0.157687028083493
40
0.166340281792358
40
0.174993535501222
40
0.192300042918951
40
0.20960655033668
40
0.226913057754409
40
0.244219565172138
40
0.252872818881002
40
0.261526072589867
40
0.270179326298731
40
0.278832580007596
40
0.296139087425325
40
0.313445594843054
40
0.322098848551918
40
0.330752102260783
40
0.339405355969647
40
0.348058609678512
40
0.356711863387376
40
0.36536511709624
40
0.38267162451397
40
0.391324878222834
40
0.399978131931698
40
0.417284639349427
40
0.434591146767156
40
0.443244400476021
40
0.451897654184885
40
0.469204161602614
40
0.477857415311479
40
0.482184042165911
40
0.486510669020343
40
0.495163922729208
40
0.503817176438072
40
0.521123683855801
40
0.529776937564665
40
0.53843019127353
40
0.547083444982394
40
0.555736698691259
40
0.564389952400123
40
0.573043206108988
40
0.581696459817852
40
0.590349713526717
40
0.599002967235581
40
0.607656220944446
40
0.624962728362175
40
0.633615982071039
40
0.642269235779904
40
0.650922489488768
40
0.6552491163432
40
0.659575743197632
40
0.668228996906497
40
0.676882250615362
40
0.685535504324226
40
0.69418875803309
40
0.702842011741955
40
0.711495265450819
40
0.728801772868548
40
0.746108280286277
40
0.754761533995142
40
0.763414787704006
40
0.780721295121735
40
0.7893745488306
40
0.798027802539464
40
0.806681056248329
40
0.815334309957193
40
0.823987563666058
40
0.832640817374922
40
0.841294071083787
40
0.849947324792651
40
0.86725383221038
40
0.875907085919244
40
0.884560339628109
40
0.893213593336973
40
0.901866847045838
40
0.910520100754702
40
0.919173354463567
40
0.936479861881296
40
0.94513311559016
40
0.953786369299025
40
0.962439623007889
40
0.971092876716754
40
0.988399384134483
40
1
40
1
40
1
40
1
41
1
10
-1.49503997793931
20
2.5946511583831
30
0
41
1
10
-1.49503997793931
20
2.60647323876154
30
0
41
1
10
-1.49503997793931
20
2.67130381064959
30
0
41
1
10
-1.49503997793931
20
2.78881794429316
30
0
41
1
10
-1.49503997793931
20
2.94652918151195
30
0
41
1
10
-1.49503997793931
20
3.1033357799555
30
0
41
1
10
-1.49503997793931
20
3.25922165821993
30
0
41
1
10
-1.49503997793931
20
3.41417271020586
30
0
41
1
10
-1.49503997793931
20
3.56817690176541
30
0
41
1
10
-1.49503997793931
20
3.7212231412766
30
0
41
1
10
-1.49503997793931
20
3.87330192992579
30
0
41
1
10
-1.49503997793931
20
4.02440432752809
30
0
41
1
10
-1.49503997793931
20
4.17452288947305
30
0
41
1
10
-1.49503997793931
20
4.32365113214263
30
0
41
1
10
-1.49503997793931
20
4.47178260268984
30
0
41
1
10
-1.49503997793931
20
4.61891156596767
30
0
41
1
10
-1.49503997793931
20
4.7650332428635
30
0
41
1
10
-1.49503997793931
20
4.91014315579861
30
0
41
1
10
-1.49503997793931
20
5.05423706888553
30
0
41
1
10
-1.49503997793931
20
5.19731095553271
30
0
41
1
10
-1.49503997793931
20
5.33936157753735
30
0
41
1
10
-1.49503997793931
20
5.48038541909952
30
0
41
1
10
-1.49503997793931
20
5.66717892097088
30
0
41
1
10
-1.49503997793931
20
5.89779783511918
30
0
41
1
10
-1.49503997793931
20
6.17053536578155
30
0
41
1
10
-1.49503997793931
20
6.43910149333703
30
0
41
1
10
-1.49503997793931
20
6.6592985841524
30
0
41
1
10
-1.49503997793931
20
6.83355373772449
30
0
41
1
10
-1.49503997793931
20
6.96311018452545
30
0
41
1
10
-1.49503997793931
20
7.09160986883526
30
0
41
1
10
-1.49503997793931
20
7.261636811758
30
0
41
1
10
-1.49503997793931
20
7.47128766686797
30
0
41
1
10
-1.49503997793931
20
7.67738589461936
30
0
41
1
10
-1.49503997793931
20
7.84029852533041
30
0
41
1
10
-1.49503997793931
20
7.96134016006346
30
0
41
1
10
-1.49503997793931
20
8.08130642958628
30
0
41
1
10
-1.49503997793931
20
8.20019570647173
30
0
41
1
10
-1.49503997793931
20
8.31800483202281
30
0
41
1
10
-1.49503997793931
20
8.47372854841302
30
0
41
1
10
-1.49503997793931
20
8.62702158956
30
0
41
1
10
-1.49503997793931
20
8.77838738443313
30
0
41
1
10
-1.49503997793931
20
8.92829537712967
30
0
41
1
10
-1.49503997793931
20
9.11275363063515
30
0
41
1
10
-1.49503997793931
20
9.29353602958125
30
0
41
1
10
-1.49503997793931
20
9.43608246295526
30
0
41
1
10
-1.49503997793931
20
9.57714511427093
30
0
41
1
10
-1.49503997793931
20
9.71574944153573
30
0
41
1
10
-1.49503997793931
20
9.83522786489038
30
0
41
1
10
-1.49503997793931
20
9.90295235506755
30
0
41
1
10
-1.49503997793931
20
9.97030026745779
30
0
41
1
10
-1.49503997793931
20
10.0536983054632
30
0
41
1
10
-1.49503997793931
20
10.1857467684219
30
0
41
1
10
-1.49503997793931
20
10.3153089364435
30
0
41
1
10
-1.49503997793931
20
10.4427777751693
30
0
41
1
10
-1.49503997793931
20
10.5371758780398
30
0
41
1
10
-1.49503997793931
20
10.6304166849825
30
0
41
1
10
-1.49503997793931
20
10.7224950378189
30
0
41
1
10
-1.49503997793931
20
10.8134057967923
30
0
41
1
10
-1.49503997793931
20
10.9031442025602
30
0
41
1
10
-1.49503997793931
20
10.9917054044732
30
0
41
1
10
-1.49503997793931
20
11.0790834423827
30
0
41
1
10
-1.49503997793931
20
11.1652732784127
30
0
41
1
10
-1.49503997793931
20
11.278660103453
30
0
41
1
10
-1.49503997793931
20
11.3894728900619
30
0
41
1
10
-1.49503997793931
20
11.4980348993556
30
0
41
1
10
-1.49503997793931
20
11.5781957241672
30
0
41
1
10
-1.49503997793931
20
11.643948764099
30
0
41
1
10
-1.49503997793931
20
11.6959849101866
30
0
41
1
10
-1.49503997793931
20
11.7476093345099
30
0
41
1
10
-1.49503997793931
20
11.8113057028001
30
0
41
1
10
-1.49503997793931
20
11.8865286504803
30
0
41
1
10
-1.49503997793931
20
11.9605000871413
30
0
41
1
10
-1.49503997793931
20
12.0332119345842
30
0
41
1
10
-1.49503997793931
20
12.1046570208051
30
0
41
1
10
-1.49503997793931
20
12.1982668977617
30
0
41
1
10
-1.49503997793931
20
12.3119621458456
30
0
41
1
10
-1.49503997793931
20
12.4213295833849
30
0
41
1
10
-1.49503997793931
20
12.50627175547
30
0
41
1
10
-1.49503997793931
20
12.5894449005116
30
0
41
1
10
-1.49503997793931
20
12.6698142834541
30
0
41
1
10
-1.49503997793931
20
12.74760324418
30
0
41
1
10
-1.49503997793931
20
12.8045464062654
30
0
41
1
10
-1.49503997793931
20
12.860113205584
30
0
41
1
10
-1.49503997793931
20
12.9142925944038
30
0
41
1
10
-1.49503997793931
20
12.9670724273821
30
0
41
1
10
-1.49503997793931
20
13.0184419638584
30
0
41
1
10
-1.49503997793931
20
13.0683888145289
30
0
41
1
10
-1.49503997793931
20
13.1331066142243
30
0
41
1
10
-1.49503997793931
20
13.1948224098965
30
0
41
1
10
-1.49503997793931
20
13.2536925499096
30
0
41
1
10
-1.49503997793931
20
13.2963307178616
30
0
41
1
10
-1.49503997793931
20
13.3374647662751
30
0
41
1
10
-1.49503997793931
20
13.3770798968994
30
0
41
1
10
-1.49503997793931
20
13.4151607370273
30
0
41
1
10
-1.49503997793931
20
13.4638962341071
30
0
41
1
10
-1.49503997793931
20
13.509413016618
30
0
41
1
10
-1.49503997793931
20
13.5518061457236
30
0
41
1
10
-1.49503997793931
20
13.5819600687286
30
0
41
1
10
-1.49503997793931
20
13.6104729008558
30
0
41
1
10
-1.49503997793931
20
13.6462985077496
30
0
41
1
10
-1.49503997793931
20
13.6814821016097
30
0
41
1
10
-1.49503997793934
20
13.7053631769288
30
0
41
1
10
-1.49503997793931
20
13.7144201584906
30
0
0
SPLINE
5
B6
100
AcDbEntity
8
SK1
62
256
6
ByLayer
370
18
48
1
60
0
100
AcDbSpline
70
4
71
3
72
18
73
14
40
0
40
0
40
0
40
0
40
0.0617685559765352
40
0.249107315376109
40
0.342776695075897
40
0.436446074775683
40
0.530115454475471
40
0.623784834175256
40
0.717454213875045
40
0.81112359357483
40
0.904792973274617
40
0.998462352974405
40
1
40
1
40
1
40
1
41
1
10
-1.49503997793926
20
13.7144193667383
30
0
41
1
10
-1.49503997793928
20
13.7188744225664
30
0
41
1
10
-1.49503997793931
20
13.7363273854801
30
0
41
1
10
-1.49503997793931
20
13.7574597557179
30
0
41
1
10
-1.49503997793931
20
13.7769347476405
30
0
41
1
10
-1.49503997793931
20
13.7896781830989
30
0
41
1
10
-1.49503997793931
20
13.8005402090708
30
0
41
1
10
-1.49503997793931
20
13.8094909095343
30
0
41
1
10
-1.49503997793931
20
13.8164982902869
30
0
41
1
10
-1.49503997793931
20
13.8215305966481
30
0
41
1
10
-1.49503997793931
20
13.8245539604948
30
0
41
1
10
-1.49503997793931
20
13.8252115881192
30
0
41
1
10
-1.49503997793931
20
13.8251845664177
30
0
41
1
10
-1.49503997793931
20
13.8251835663177
30
0
0
SPLINE
5
B7
100
AcDbEntity
8
1
62
256
6
ByLayer
370
18
48
1
60
0
100
AcDbSpline
70
2053
71
3
72
122
73
118
40
0
40
0
40
0
40
0
40
0.0312499999999999
40
0.0312499999999999
40
0.0624999999999998
40
0.0624999999999998
40
0.0781249999999998
40
0.0781249999999998
40
0.0937499999999998
40
0.0937499999999998
40
0.109375
40
0.109375
40
0.1171875
40
0.1171875
40
0.125
40
0.125
40
0.15625
40
0.15625
40
0.171875
40
0.171875
40
0.1875
40
0.1875
40
0.203125
40
0.203125
40
0.2109375
40
0.2109375
40
0.21875
40
0.21875
40
0.25
40
0.25
40
0.265625
40
0.265625
40
0.28125
40
0.28125
40
0.296874999999999
40
0.296874999999999
40
0.312499999999999
40
0.312499999999999
40
0.328124999999999
40
0.328124999999999
40
0.335937499999999
40
0.335937499999999
40
0.343749999999999
40
0.343749999999999
40
0.374999999999999
40
0.374999999999999
40
0.390624999999999
40
0.390624999999999
40
0.406249999999999
40
0.406249999999999
40
0.421874999999999
40
0.421874999999999
40
0.437499999999999
40
0.437499999999999
40
0.468749999999999
40
0.468749999999999
40
0.499999999999999
40
0.499999999999999
40
0.515624999999999
40
0.515624999999999
40
0.531249999999999
40
0.531249999999999
40
0.562499999999999
40
0.562499999999999
40
0.578124999999999
40
0.578124999999999
40
0.593749999999999
40
0.593749999999999
40
0.625
40
0.625
40
0.640625
40
0.640625
40
0.65625
40
0.65625
40
0.671875
40
0.671875
40
0.6796875
40
0.6796875
40
0.687499999999999
40
0.687499999999999
40
0.703124999999999
40
0.703124999999999
40
0.710937499999999
40
0.710937499999999
40
0.718749999999999
40
0.718749999999999
40
0.734374999999999
40
0.734374999999999
40
0.742187499999999
40
0.742187499999999
40
0.749999999999999
40
0.749999999999999
40
0.765624999999999
40
0.765624999999999
40
0.781249999999999
40
0.781249999999999
40
0.796874999999999
40
0.796874999999999
40
0.804687499999999
40
0.804687499999999
40
0.812499999999999
40
0.812499999999999
40
0.843749999999999
40
0.843749999999999
40
0.859375
40
0.859375
40
0.875
40
0.875
40
0.90625
40
0.90625
40
0.9375
40
0.9375
40
0.953125
40
0.953125
40
0.96875
40
0.96875
40
1
40
1
40
1
40
1
41
1
10
18.5467847150863
20
-21.5937515001898
30
0
41
1
10
18.5467847150863
20
-21.8615104462505
30
0
41
1
10
18.5193760795618
20
-22.1193979493752
30
0
41
1
10
18.4051565398622
20
-22.615932056961
30
0
41
1
10
18.3184384477393
20
-22.8545822772486
30
0
41
1
10
18.1359590542081
20
-23.1981017236229
30
0
41
1
10
18.0661046100527
20
-23.3103380269179
30
0
41
1
10
17.9103426182486
20
-23.5254380645337
30
0
41
1
10
17.8241710389139
20
-23.6288932251784
30
0
41
1
10
17.6344030133659
20
-23.8278024707397
30
0
41
1
10
17.530811727177
20
-23.9232574770299
30
0
41
1
10
17.3613471235576
20
-24.0604758692259
30
0
41
1
10
17.3025082236026
20
-24.105220137049
30
0
41
1
10
17.1798955534811
20
-24.1927077619621
30
0
41
1
10
17.116062439816
20
-24.2354674936784
30
0
41
1
10
16.7884517438916
20
-24.4415161841069
30
0
41
1
10
16.4965022713353
20
-24.5841262649749
30
0
41
1
10
16.0108534446477
20
-24.76699762655
30
0
41
1
10
15.8409610164127
20
-24.8227409595635
30
0
41
1
10
15.483745590918
20
-24.9235916107508
30
0
41
1
10
15.3005989930242
20
-24.9675142438005
30
0
41
1
10
14.9258814707327
20
-25.0430805326849
30
0
41
1
10
14.7342319212861
20
-25.0747462170533
30
0
41
1
10
14.4401896165676
20
-25.1132302135654
30
0
41
1
10
14.3410780787562
20
-25.1245508316964
30
0
41
1
10
14.1406014515446
20
-25.14414053973
30
0
41
1
10
14.0388876222538
20
-25.1524310520011
30
0
41
1
10
13.5287074904692
20
-25.1857813496436
30
0
41
1
10
13.1217357307396
20
-25.1868152562058
30
0
41
1
10
12.5129991572529
20
-25.1507743263993
30
0
41
1
10
12.309177260389
20
-25.1321826188928
30
0
41
1
10
11.9131586268455
20
-25.0828726599447
30
0
41
1
10
11.7198677775996
20
-25.0521649500572
30
0
41
1
10
11.3424226314588
20
-24.9785830361926
30
0
41
1
10
11.158269736034
20
-24.935708038148
30
0
41
1
10
10.799183557623
20
-24.8370854011955
30
0
41
1
10
10.6269138230543
20
-24.7820241123568
30
0
41
1
10
10.2988124944847
20
-24.6613414918362
30
0
41
1
10
10.1424976104787
20
-24.5955842406115
30
0
41
1
10
9.91921558966101
20
-24.4885797058828
30
0
41
1
10
9.84665751096219
20
-24.4515136588088
30
0
41
1
10
9.7052574740066
20
-24.3745091130659
30
0
41
1
10
9.63637857815399
20
-24.334530383125
30
0
41
1
10
9.30498565337518
20
-24.1296644028973
30
0
41
1
10
9.07775241978004
20
-23.9482607673237
30
0
41
1
10
8.7870868829022
20
-23.6490737189636
30
0
41
1
10
8.69841071571969
20
-23.5443935777744
30
0
41
1
10
8.54007814793766
20
-23.329442532747
30
0
41
1
10
8.47001018223986
20
-23.2188379659395
30
0
41
1
10
8.34664380898596
20
-22.9913631642968
30
0
41
1
10
8.29335002592128
20
-22.8744924754182
30
0
41
1
10
8.20258751567286
20
-22.6344042025105
30
0
41
1
10
8.16501726701455
20
-22.5106650908509
30
0
41
1
10
8.07610533403704
20
-22.1341380028113
30
0
41
1
10
8.04808338864706
20
-21.8764769956538
30
0
41
1
10
8.04557351542485
20
-21.3479065312179
30
0
41
1
10
8.07115200778296
20
-21.0769970277563
30
0
41
1
10
8.14708720591764
20
-20.6606622934348
30
0
41
1
10
8.17876913607518
20
-20.5201109861759
30
0
41
1
10
8.25354667699852
20
-20.2393387016739
30
0
41
1
10
8.29670902420648
20
-20.0986676642101
30
0
41
1
10
8.44290684177705
20
-19.6758964709681
30
0
41
1
10
8.56250433831201
20
-19.3930084134442
30
0
41
1
10
8.77530473165848
20
-18.9679764027079
30
0
41
1
10
8.85184101747848
20
-18.8261891237173
30
0
41
1
10
9.01665653423902
20
-18.5426450793133
30
0
41
1
10
9.10452932433702
20
-18.4016250628293
30
0
41
1
10
9.38361772093333
20
-17.9837435365466
30
0
41
1
10
9.59059432334402
20
-17.7109420358316
30
0
41
1
10
9.93809637284028
20
-17.3146811711935
30
0
41
1
10
10.0601594485749
20
-17.1847798859889
30
0
41
1
10
10.3187470300642
20
-16.9306235388369
30
0
41
1
10
10.4557747662675
20
-16.8060023152975
30
0
41
1
10
10.7421472808187
20
-16.5685020760154
30
0
41
1
10
10.8918851560649
20
-16.4551479135863
30
0
41
1
10
11.1282310710047
20
-16.2952963153701
30
0
41
1
10
11.2089783799701
20
-16.2437175920661
30
0
41
1
10
11.3748634553023
20
-16.1444547716017
30
0
41
1
10
11.4602592839563
20
-16.0966374815486
30
0
41
1
10
11.7220546220035
20
-15.9609034737464
30
0
41
1
10
11.9026805013147
20
-15.8812777135668
30
0
41
1
10
12.1844176631432
20
-15.7815605998282
30
0
41
1
10
12.2801367691829
20
-15.7516210924295
30
0
41
1
10
12.4755716321782
20
-15.6991051092252
30
0
41
1
10
12.5758626509227
20
-15.6764453807857
30
0
41
1
10
12.8777052455579
20
-15.6218247659174
30
0
41
1
10
13.0807223317963
20
-15.6028525287032
30
0
41
1
10
13.3880507703264
20
-15.6018523837822
30
0
41
1
10
13.4914250744974
20
-15.6061442311439
30
0
41
1
10
13.6969725785732
20
-15.6239517713606
30
0
41
1
10
13.7983838878941
20
-15.6373522050837
30
0
41
1
10
14.0988084463202
20
-15.6900829425875
30
0
41
1
10
14.294025228802
20
-15.741905672144
30
0
41
1
10
14.6754405179316
20
-15.8748175964771
30
0
41
1
10
14.856659638767
20
-15.954109329447
30
0
41
1
10
15.2029797948299
20
-16.1319327731642
30
0
41
1
10
15.3682800930711
20
-16.2305845902288
30
0
41
1
10
15.6064022866662
20
-16.3903092478572
30
0
41
1
10
15.6843324607455
20
-16.4456827023389
30
0
41
1
10
15.835638885883
20
-16.5588731599959
30
0
41
1
10
15.9091320710948
20
-16.616750662022
30
0
41
1
10
16.2669069857877
20
-16.9117024596688
30
0
41
1
10
16.5227415444649
20
-17.1650339307844
30
0
41
1
10
16.8726196233358
20
-17.5615235386704
30
0
41
1
10
16.9835708005786
20
-17.6966422581414
30
0
41
1
10
17.1944312097482
20
-17.9711847298077
30
0
41
1
10
17.2934109885495
20
-18.1093776857655
30
0
41
1
10
17.5728553879891
20
-18.5258799352584
30
0
41
1
10
17.7359968850745
20
-18.8060602594431
30
0
41
1
10
18.0200789787156
20
-19.3688480208185
30
0
41
1
10
18.1409721347812
20
-19.6514793031737
30
0
41
1
10
18.2897317926838
20
-20.0764611088297
30
0
41
1
10
18.3338408677776
20
-20.218405694474
30
0
41
1
10
18.4097933668146
20
-20.4993475570012
30
0
41
1
10
18.4417911004189
20
-20.6387473352083
30
0
41
1
10
18.5193961199502
20
-21.0536764301374
30
0
41
1
10
18.5467847150863
20
-21.3259925541292
30
0
41
1
10
18.5467847150863
20
-21.5937515001898
30
0
0
SPLINE
5
B8
100
AcDbEntity
8
SK1
62
256
6
ByLayer
370
18
48
1
60
0
100
AcDbSpline
70
4
71
3
72
281
73
277
40
0
40
0
40
0
40
0
40
0.0026986461225283
40
0.0062508027196858
40
0.0098029593168432
40
0.0133551159140007
40
0.0169072725111581
40
0.0204594291083155
40
0.024011585705473
40
0.0311158988997878
40
0.0382202120941027
40
0.0453245252884176
40
0.048876681885575
40
0.0524288384827325
40
0.0559809950798899
40
0.0595331516770473
40
0.0666374648713622
40
0.0701896214685196
40
0.073741778065677
40
0.0772939346628345
40
0.080846091259992
40
0.0843982478571493
40
0.0879504044543068
40
0.0950547176486216
40
0.0986068742457791
40
0.102159030842937
40
0.105711187440094
40
0.109263344037252
40
0.112815500634409
40
0.116367657231566
40
0.119919813828724
40
0.123471970425881
40
0.130576283620196
40
0.134128440217353
40
0.137680596814511
40
0.144784910008826
40
0.151889223203141
40
0.155441379800298
40
0.158993536397456
40
0.162545692994613
40
0.16609784959177
40
0.169650006188928
40
0.173202162786085
40
0.174978241084664
40
0.176754319383243
40
0.1803064759804
40
0.183858632577558
40
0.187410789174715
40
0.19451510236903
40
0.198067258966187
40
0.201619415563345
40
0.205171572160502
40
0.20872372875766
40
0.212275885354817
40
0.215828041951974
40
0.219380198549132
40
0.222932355146289
40
0.226484511743447
40
0.230036668340604
40
0.237140981534919
40
0.240693138132076
40
0.244245294729234
40
0.246021373027813
40
0.247797451326391
40
0.251349607923549
40
0.258453921117864
40
0.262006077715021
40
0.265558234312179
40
0.272662547506493
40
0.279766860700808
40
0.283319017297966
40
0.286871173895123
40
0.293975487089438
40
0.297527643686596
40
0.301079800283753
40
0.30463195688091
40
0.308184113478068
40
0.311736270075225
40
0.315288426672383
40
0.322392739866697
40
0.329497053061012
40
0.33304920965817
40
0.336601366255327
40
0.340153522852485
40
0.343705679449642
40
0.350809992643957
40
0.357914305838272
40
0.365018619032587
40
0.372122932226902
40
0.375675088824059
40
0.379227245421217
40
0.382779402018374
40
0.386331558615531
40
0.389883715212689
40
0.393435871809846
40
0.396988028407004
40
0.400540185004161
40
0.404092341601319
40
0.407644498198476
40
0.411196654795633
40
0.414748811392791
40
0.418300967989948
40
0.421853124587106
40
0.425405281184263
40
0.428957437781421
40
0.432509594378578
40
0.436061750975736
40
0.439613907572893
40
0.44316606417005
40
0.446718220767208
40
0.448494299065786
40
0.450270377364365
40
0.453822533961523
40
0.455598612260101
40
0.45737469055868
40
0.459150768857259
40
0.460926847155838
40
0.462702925454416
40
0.464479003752995
40
0.466255082051574
40
0.468031160350152
40
0.47158331694731
40
0.473359395245888
40
0.475135473544467
40
0.476911551843046
40
0.478687630141625
40
0.480463708440203
40
0.482239786738782
40
0.484015865037361
40
0.48579194333594
40
0.487568021634518
40
0.489344099933097
40
0.491120178231676
40
0.492896256530254
40
0.494672334828833
40
0.496448413127412
40
0.498224491425991
40
0.500000569724569
40
0.501776648023148
40
0.503552726321727
40
0.505328804620305
40
0.507104882918884
40
0.508880961217463
40
0.510657039516042
40
0.51243311781462
40
0.514209196113199
40
0.515985274411778
40
0.517761352710357
40
0.519537431008935
40
0.521313509307514
40
0.523089587606092
40
0.524865665904671
40
0.52664174420325
40
0.528417822501829
40
0.531969979098986
40
0.533746057397565
40
0.535522135696144
40
0.537298213994722
40
0.539074292293301
40
0.54085037059188
40
0.542626448890459
40
0.544402527189037
40
0.546178605487616
40
0.549730762084773
40
0.551506840383352
40
0.553282918681931
40
0.556835075279088
40
0.560387231876246
40
0.563939388473403
40
0.567491545070561
40
0.571043701667718
40
0.574595858264875
40
0.578148014862033
40
0.58170017145919
40
0.585252328056348
40
0.588804484653505
40
0.592356641250662
40
0.59590879784782
40
0.599460954444977
40
0.603013111042135
40
0.606565267639292
40
0.61011742423645
40
0.613669580833607
40
0.617221737430765
40
0.620773894027922
40
0.62432605062508
40
0.627878207222237
40
0.634982520416552
40
0.642086833610867
40
0.649191146805181
40
0.656295459999496
40
0.659847616596654
40
0.663399773193811
40
0.666951929790969
40
0.670504086388126
40
0.677608399582441
40
0.684712712776756
40
0.688264869373913
40
0.691817025971071
40
0.695369182568228
40
0.698921339165386
40
0.702473495762543
40
0.7060256523597
40
0.713129965554015
40
0.716682122151173
40
0.72023427874833
40
0.727338591942645
40
0.73444290513696
40
0.737995061734118
40
0.741547218331275
40
0.74865153152559
40
0.752203688122747
40
0.753979766421326
40
0.755755844719905
40
0.759308001317062
40
0.762860157914219
40
0.769964471108534
40
0.773516627705692
40
0.777068784302849
40
0.780620940900006
40
0.784173097497164
40
0.787725254094321
40
0.791277410691479
40
0.794829567288636
40
0.798381723885794
40
0.801933880482951
40
0.805486037080109
40
0.812590350274424
40
0.816142506871581
40
0.819694663468738
40
0.823246820065896
40
0.825022898364474
40
0.826798976663053
40
0.830351133260211
40
0.833903289857368
40
0.837455446454525
40
0.841007603051683
40
0.84455975964884
40
0.848111916245998
40
0.855216229440313
40
0.862320542634627
40
0.865872699231785
40
0.869424855828943
40
0.876529169023257
40
0.880081325620415
40
0.883633482217572
40
0.88718563881473
40
0.890737795411887
40
0.894289952009044
40
0.897842108606202
40
0.901394265203359
40
0.904946421800517
40
0.912050734994832
40
0.915602891591989
40
0.919155048189147
40
0.922707204786304
40
0.926259361383461
40
0.929811517980619
40
0.933363674577776
40
0.940467987772091
40
0.944020144369249
40
0.947572300966406
40
0.951124457563563
40
0.954676614160721
40
0.961780927355036
40
0.965333083952193
40
0.968885240549351
40
0.972437397146508
40
0.975989553743666
40
0.979541710340823
40
0.98309386693798
40
0.986646023535138
40
0.990198180132295
40
0.993750336729453
40
0.99730249332661
40
1
40
1
40
1
40
1
41
1
10
-24
20
12.6301285420508
30
0
41
1
10
-24
20
12.6295507115437
30
0
41
1
10
-24
20
12.6277960225244
30
0
41
1
10
-24
20
12.623548726994
30
0
41
1
10
-24
20
12.6171099043118
30
0
41
1
10
-24
20
12.6088736083307
30
0
41
1
10
-24
20
12.5988647342338
30
0
41
1
10
-24
20
12.5871069661155
30
0
41
1
10
-24
20
12.569020437469
30
0
41
1
10
-24
20
12.5424060911485
30
0
41
1
10
-24
20
12.5036823998811
30
0
41
1
10
-24
20
12.466179119183
30
0
41
1
10
-24
20
12.4326960489613
30
0
41
1
10
-24
20
12.4061495447384
30
0
41
1
10
-24
20
12.3780532328159
30
0
41
1
10
-24
20
12.3383402816863
30
0
41
1
10
-24
20
12.2962370819873
30
0
41
1
10
-24
20
12.2505027270978
30
0
41
1
10
-24
20
12.2149010201899
30
0
41
1
10
-24
20
12.1778433481664
30
0
41
1
10
-24
20
12.139344023803
30
0
41
1
10
-24
20
12.0994154546281
30
0
41
1
10
-24
20
12.0440223921018
30
0
41
1
10
-24
20
11.9866456328948
30
0
41
1
10
-24
20
11.9256779328098
30
0
41
1
10
-24
20
11.8787993022056
30
0
41
1
10
-24
20
11.8305656793587
30
0
41
1
10
-24
20
11.78099039585
30
0
41
1
10
-24
20
11.7300825884547
30
0
41
1
10
-24
20
11.6778529900837
30
0
41
1
10
-24
20
11.6243139686469
30
0
41
1
10
-24
20
11.5508590476175
30
0
41
1
10
-24
20
11.4758394707542
30
0
41
1
10
-24
20
11.3972466128896
30
0
41
1
10
-24
20
11.3169609533628
30
0
41
1
10
-24
20
11.2142799019792
30
0
41
1
10
-24
20
11.1074990885262
30
0
41
1
10
-24
20
11.0189464603389
30
0
41
1
10
-24
20
10.9516093773873
30
0
41
1
10
-24
20
10.8830697782116
30
0
41
1
10
-24
20
10.8133337656712
30
0
41
1
10
-24
20
10.7424101789121
30
0
41
1
10
-24
20
10.6825334430363
30
0
41
1
10
-24
20
10.6336671760819
30
0
41
1
10
-24
20
10.5844084477176
30
0
41
1
10
-24
20
10.5225869468266
30
0
41
1
10
-24
20
10.4469857296791
30
0
41
1
10
-24
20
10.3442039867663
30
0
41
1
10
-24
20
10.2404782892815
30
0
41
1
10
-24
20
10.133123847137
30
0
41
1
10
-24
20
10.0518274139735
30
0
41
1
10
-24
20
9.96941226524035
30
0
41
1
10
-24
20
9.8858827890852
30
0
41
1
10
-24
20
9.80124634105394
30
0
41
1
10
-24
20
9.71550990056983
30
0
41
1
10
-24
20
9.62867742465991
30
0
41
1
10
-24
20
9.54075474090101
30
0
41
1
10
-24
20
9.45175012870757
30
0
41
1
10
-24
20
9.33111730296773
30
0
41
1
10
-24
20
9.20992961158598
30
0
41
1
10
-24
20
9.08500600225796
30
0
41
1
10
-24
20
9.00666454438806
30
0
41
1
10
-24
20
8.94296708063843
30
0
41
1
10
-24
20
8.87892107357061
30
0
41
1
10
-24
20
8.76613371827506
30
0
41
1
10
-24
20
8.63663898523424
30
0
41
1
10
-24
20
8.50332881313912
30
0
41
1
10
-24
20
8.36865251940401
30
0
41
1
10
-24
20
8.19913342470036
30
0
41
1
10
-24
20
8.02625870426021
30
0
41
1
10
-24
20
7.88481232676438
30
0
41
1
10
-24
20
7.74204568631339
30
0
41
1
10
-24
20
7.59930458489882
30
0
41
1
10
-24
20
7.45257386795717
30
0
41
1
10
-24
20
7.34207855908448
30
0
41
1
10
-24
20
7.23061782890775
30
0
41
1
10
-24
20
7.11820191301106
30
0
41
1
10
-24
20
7.00483374343872
30
0
41
1
10
-24
20
6.8516785758469
30
0
41
1
10
-24
20
6.65959441745028
30
0
41
1
10
-24
20
6.46441027855923
30
0
41
1
10
-24
20
6.30499529459033
30
0
41
1
10
-24
20
6.18514753468796
30
0
41
1
10
-24
20
6.06440158167572
30
0
41
1
10
-24
20
5.90137597131746
30
0
41
1
10
-24
20
5.69736367955667
30
0
41
1
10
-24
20
5.44799894794272
30
0
41
1
10
-24
20
5.19525670130326
30
0
41
1
10
-24
20
4.98285125019774
30
0
41
1
10
-24
20
4.80950544532163
30
0
41
1
10
-24
20
4.67950096380329
30
0
41
1
10
-24
20
4.54872537799758
30
0
41
1
10
-24
20
4.41719445888799
30
0
41
1
10
-24
20
4.28492388892991
30
0
41
1
10
-24
20
4.15193103870837
30
0
41
1
10
-24
20
4.01823650200188
30
0
41
1
10
-24
20
3.88386015063671
30
0
41
1
10
-24
20
3.74882265025218
30
0
41
1
10
-24
20
3.61314816606938
30
0
41
1
10
-24
20
3.47686551917991
30
0
41
1
10
-24
20
3.34000139230267
30
0
41
1
10
-24
20
3.20258393847712
30
0
41
1
10
-24
20
3.06464837689458
30
0
41
1
10
-24
20
2.9262304523017
30
0
41
1
10
-24
20
2.78737006373561
30
0
41
1
10
-24
20
2.64810891556724
30
0
41
1
10
-24
20
2.50849315364215
30
0
41
1
10
-24
20
2.36857603859875
30
0
41
1
10
-24
20
2.22840727338092
30
0
41
1
10
-24
20
2.11231267734073
30
0
41
1
10
-24
20
2.01771125590744
30
0
41
1
10
-24
20
1.92310511773127
30
0
41
1
10
-24
20
1.8313714962141
30
0
41
1
10
-24
20
1.73663368976398
30
0
41
1
10
-24
20
1.66636839269287
30
0
41
1
10
-24
20
1.59612143913762
30
0
41
1
10
-24
20
1.52590617425699
30
0
41
1
10
-24
20
1.45572440081648
30
0
41
1
10
-24
20
1.38559146347788
30
0
41
1
10
-24
20
1.31551245865842
30
0
41
1
10
-24
20
1.22103102890804
30
0
41
1
10
-24
20
1.13019491172781
30
0
41
1
10
-24
20
1.03590357373665
30
0
41
1
10
-24
20
0.966211278320685
30
0
41
1
10
-24
20
0.896616942008535
30
0
41
1
10
-24
20
0.827119549474418
30
0
41
1
10
-24
20
0.757724503129253
30
0
41
1
10
-24
20
0.688430802184314
30
0
41
1
10
-24
20
0.619238394305086
30
0
41
1
10
-24
20
0.550143822342449
30
0
41
1
10
-24
20
0.481142957404018
30
0
41
1
10
-24
20
0.412229055265982
30
0
41
1
10
-24
20
0.343394373554958
30
0
41
1
10
-24
20
0.274627961865065
30
0
41
1
10
-24
20
0.205919183520024
30
0
41
1
10
-24
20
0.137254128872428
30
0
41
1
10
-24
20
0.068619580615092
30
0
41
1
10
-24
20
1.20069785E-08
30
0
41
1
10
-24
20
-0.0686195837654395
30
0
41
1
10
-24
20
-0.1372541822264
30
0
41
1
10
-24
20
-0.205919229600312
30
0
41
1
10
-24
20
-0.274627932715674
30
0
41
1
10
-24
20
-0.343394334295567
30
0
41
1
10
-24
20
-0.412229116407673
30
0
41
1
10
-24
20
-0.48114304712405
30
0
41
1
10
-24
20
-0.55014378989776
30
0
41
1
10
-24
20
-0.619238310392802
30
0
41
1
10
-24
20
-0.688430856535206
30
0
41
1
10
-24
20
-0.757724640342815
30
0
41
1
10
-24
20
-0.827119544713668
30
0
41
1
10
-24
20
-0.896616816711344
30
0
41
1
10
-24
20
-0.966211277672699
30
0
41
1
10
-24
20
-1.03590373801057
30
0
41
1
10
-24
20
-1.13019491751669
30
0
41
1
10
-24
20
-1.22103090337816
30
0
41
1
10
-24
20
-1.31551253110209
30
0
41
1
10
-24
20
-1.38559165365194
30
0
41
1
10
-24
20
-1.45572444737027
30
0
41
1
10
-24
20
-1.52590604398472
30
0
41
1
10
-24
20
-1.59612132289769
30
0
41
1
10
-24
20
-1.66636846888792
30
0
41
1
10
-24
20
-1.73663389391052
30
0
41
1
10
-24
20
-1.83137150908334
30
0
41
1
10
-24
20
-1.923104963833
30
0
41
1
10
-24
20
-2.01771124909399
30
0
41
1
10
-24
20
-2.11231287096447
30
0
41
1
10
-24
20
-2.22840729138045
30
0
41
1
10
-24
20
-2.36857592379664
30
0
41
1
10
-24
20
-2.50849329023109
30
0
41
1
10
-24
20
-2.64810899336408
30
0
41
1
10
-24
20
-2.7873694745272
30
0
41
1
10
-24
20
-2.92622914514115
30
0
41
1
10
-24
20
-3.06464867495961
30
0
41
1
10
-24
20
-3.20258694679339
30
0
41
1
10
-24
20
-3.34000339886188
30
0
41
1
10
-24
20
-3.47686412773234
30
0
41
1
10
-24
20
-3.61314539193521
30
0
41
1
10
-24
20
-3.74882070125759
30
0
41
1
10
-24
20
-3.88386081960974
30
0
41
1
10
-24
20
-4.01823910176785
30
0
41
1
10
-24
20
-4.15193237523465
30
0
41
1
10
-24
20
-4.28492323331267
30
0
41
1
10
-24
20
-4.41719365917407
30
0
41
1
10
-24
20
-4.54872525063163
30
0
41
1
10
-24
20
-4.67950102029136
30
0
41
1
10
-24
20
-4.8095053694127
30
0
41
1
10
-24
20
-4.98285124277228
30
0
41
1
10
-24
20
-5.19525677656026
30
0
41
1
10
-24
20
-5.44799891971269
30
0
41
1
10
-24
20
-5.69736372546626
30
0
41
1
10
-24
20
-5.90137602298265
30
0
41
1
10
-24
20
-6.0644015068855
30
0
41
1
10
-24
20
-6.1851475156806
30
0
41
1
10
-24
20
-6.30499537148731
30
0
41
1
10
-24
20
-6.46441033734266
30
0
41
1
10
-24
20
-6.65959438580623
30
0
41
1
10
-24
20
-6.85167858307042
30
0
41
1
10
-24
20
-7.00483382763792
30
0
41
1
10
-24
20
-7.11820195418233
30
0
41
1
10
-24
20
-7.2306178054078
30
0
41
1
10
-24
20
-7.34207852113332
30
0
41
1
10
-24
20
-7.45257387547733
30
0
41
1
10
-24
20
-7.59930464836137
30
0
41
1
10
-24
20
-7.74204572237986
30
0
41
1
10
-24
20
-7.88481230085068
30
0
41
1
10
-24
20
-8.02625870014725
30
0
41
1
10
-24
20
-8.19913346952643
30
0
41
1
10
-24
20
-8.36865254580422
30
0
41
1
10
-24
20
-8.50332879773273
30
0
41
1
10
-24
20
-8.63663898786112
30
0
41
1
10
-24
20
-8.76613375581505
30
0
41
1
10
-24
20
-8.87892111197036
30
0
41
1
10
-24
20
-8.94296710462893
30
0
41
1
10
-24
20
-9.00666455327519
30
0
41
1
10
-24
20
-9.08500599911847
30
0
41
1
10
-24
20
-9.20992961783276
30
0
41
1
10
-24
20
-9.33111733072479
30
0
41
1
10
-24
20
-9.45175015939358
30
0
41
1
10
-24
20
-9.54075475929304
30
0
41
1
10
-24
20
-9.62867743247332
30
0
41
1
10
-24
20
-9.71550990736878
30
0
41
1
10
-24
20
-9.80124635456619
30
0
41
1
10
-24
20
-9.88588281033205
30
0
41
1
10
-24
20
-9.9694122909747
30
0
41
1
10
-24
20
-10.0518274374696
30
0
41
1
10
-24
20
-10.1331238647016
30
0
41
1
10
-24
20
-10.240478300249
30
0
41
1
10
-24
20
-10.3442039980406
30
0
41
1
10
-24
20
-10.4469857502475
30
0
41
1
10
-24
20
-10.5225869730086
30
0
41
1
10
-24
20
-10.5844084741421
30
0
41
1
10
-24
20
-10.6336671988976
30
0
41
1
10
-24
20
-10.6825334589273
30
0
41
1
10
-24
20
-10.7424101865055
30
0
41
1
10
-24
20
-10.8133337727233
30
0
41
1
10
-24
20
-10.8830697936353
30
0
41
1
10
-24
20
-10.951609404873
30
0
41
1
10
-24
20
-11.0189464931514
30
0
41
1
10
-24
20
-11.1074991058536
30
0
41
1
10
-24
20
-11.2142799044294
30
0
41
1
10
-24
20
-11.3169609751522
30
0
41
1
10
-24
20
-11.3972466509688
30
0
41
1
10
-24
20
-11.4758394909226
30
0
41
1
10
-24
20
-11.5508590446085
30
0
41
1
10
-24
20
-11.6243139791192
30
0
41
1
10
-24
20
-11.6778530233414
30
0
41
1
10
-24
20
-11.7300826287653
30
0
41
1
10
-24
20
-11.7809904199399
30
0
41
1
10
-24
20
-11.8305656793297
30
0
41
1
10
-24
20
-11.8787992978642
30
0
41
1
10
-24
20
-11.9256779481161
30
0
41
1
10
-24
20
-11.9866456736684
30
0
41
1
10
-24
20
-12.0440224201629
30
0
41
1
10
-24
20
-12.099415447517
30
0
41
1
10
-24
20
-12.1393440246738
30
0
41
1
10
-24
20
-12.1778433772408
30
0
41
1
10
-24
20
-12.2149010599454
30
0
41
1
10
-24
20
-12.250502752964
30
0
41
1
10
-24
20
-12.2962370828382
30
0
41
1
10
-24
20
-12.3383402824608
30
0
41
1
10
-24
20
-12.3780532736994
30
0
41
1
10
-24
20
-12.4061495785297
30
0
41
1
10
-24
20
-12.4326960530149
30
0
41
1
10
-24
20
-12.4661791203578
30
0
41
1
10
-24
20
-12.4959885477691
30
0
41
1
10
-24
20
-12.523037071398
30
0
41
1
10
-24
20
-12.5415673540695
30
0
41
1
10
-24
20
-12.55843663992
30
0
41
1
10
-24
20
-12.5736235086905
30
0
41
1
10
-24
20
-12.5871069547276
30
0
41
1
10
-24
20
-12.5988645879939
30
0
41
1
10
-24
20
-12.6088733436887
30
0
41
1
10
-24
20
-12.617109869821
30
0
41
1
10
-24
20
-12.6235493215145
30
0
41
1
10
-24
20
-12.627796463833
30
0
41
1
10
-24
20
-12.6295508315093
30
0
41
1
10
-24
20
-12.6301284580226
30
0
0
SPLINE
5
B9
100
AcDbEntity
8
SK1
62
256
6
ByLayer
370
18
48
1
60
0
100
AcDbSpline
70
4
71
3
72
24
73
20
40
0
40
0
40
0
40
0
40
0.250000000000001
40
0.250000000000001
40
0.500000000000001
40
0.500000000000001
40
0.625000000000001
40
0.625000000000001
40
0.750000000000002
40
0.750000000000002
40
0.812500000000001
40
0.812500000000001
40
0.875000000000001
40
0.875000000000001
40
0.906250000000001
40
0.906250000000001
40
0.937500000000001
40
0.937500000000001
40
1
40
1
40
1
40
1
41
1
10
-1.30710678118655
20
3.62781725664615
30
0
41
1
10
-1.27668453291463
20
3.78212308479135
30
0
41
1
10
-1.24216894361868
20
3.93398824770154
30
0
41
1
10
-1.16077398327337
20
4.23236365169217
30
0
41
1
10
-1.11410703752745
20
4.37933268310846
30
0
41
1
10
-1.02709553867305
20
4.59256928859347
30
0
41
1
10
-0.995116720198922
20
4.66266858366532
30
0
41
1
10
-0.921756293939893
20
4.7979686800274
30
0
41
1
10
-0.88093559785176
20
4.86334184876202
30
0
41
1
10
-0.803759710397998
20
4.95360164898068
30
0
41
1
10
-0.775353909590507
20
4.98222160107784
30
0
41
1
10
-0.710417102430711
20
5.0316543750771
30
0
41
1
10
-0.672905235706764
20
5.05301456959728
30
0
41
1
10
-0.609903088653169
20
5.06932192720456
30
0
41
1
10
-0.588493507310858
20
5.07194672129916
30
0
41
1
10
-0.544749997564509
20
5.07084577117553
30
0
41
1
10
-0.523311125415006
20
5.06708508199603
30
0
41
1
10
-0.461957218190179
20
5.04813517735707
30
0
41
1
10
-0.426487186903671
20
5.02630216465263
30
0
41
1
10
-0.394976888875277
20
5.00092441402836
30
0
0
SPLINE
5
BA
100
AcDbEntity
8
SK1
62
256
6
ByLayer
370
18
48
1
60
0
100
AcDbSpline
70
4
71
3
72
24
73
20
40
0
40
0
40
0
40
0
40
0.0312500000000004
40
0.0312500000000004
40
0.0625000000000009
40
0.0625000000000009
40
0.0937500000000013
40
0.0937500000000013
40
0.125000000000002
40
0.125000000000002
40
0.187500000000002
40
0.187500000000002
40
0.250000000000003
40
0.250000000000003
40
0.500000000000002
40
0.500000000000002
40
0.750000000000001
40
0.750000000000001
40
1
40
1
40
1
40
1
41
1
10
-0.394976888875277
20
5.0009244140283
30
0
41
1
10
-0.388468642918042
20
4.99568280562602
30
0
41
1
10
-0.381324616905118
20
4.99114019130744
30
0
41
1
10
-0.365549432031344
20
4.98518739058179
30
0
41
1
10
-0.356796835456947
20
4.98390560483415
30
0
41
1
10
-0.339435615628787
20
4.98662575165025
30
0
41
1
10
-0.33097982527795
20
4.99064303829888
30
0
41
1
10
-0.316458154456228
20
5.00137749301302
30
0
41
1
10
-0.310232936208735
20
5.00796421336076
30
0
41
1
10
-0.293637908337416
20
5.02913452505234
30
0
41
1
10
-0.285356392442338
20
5.04485242604295
30
0
41
1
10
-0.271048262620553
20
5.07695293962868
30
0
41
1
10
-0.265213301889361
20
5.09323765336512
30
0
41
1
10
-0.239456434884602
20
5.17522421433634
30
0
41
1
10
-0.22870667716569
20
5.24267174957387
30
0
41
1
10
-0.212355887615786
20
5.37559968949606
30
0
41
1
10
-0.207496565642373
20
5.44161594206676
30
0
41
1
10
-0.201274525264836
20
5.57292339447525
30
0
41
1
10
-0.200000000000017
20
5.63821129007246
30
0
41
1
10
-0.200000000000017
20
5.70317614351288
30
0
0
SPLINE
5
BB
100
AcDbEntity
8
SK1
62
256
6
ByLayer
370
18
48
1
60
0
100
AcDbSpline
70
4
71
3
72
114
73
110
40
0
40
0
40
0
40
0
40
0.005529450185314
40
0.0135533950294785
40
0.021577339873643
40
0.0296012847178076
40
0.0376252295619721
40
0.0456491744061366
40
0.0536731192503011
40
0.0616970640944656
40
0.0697210089386301
40
0.0777449537827946
40
0.0857688986269591
40
0.0937928434711236
40
0.101816788315288
40
0.109840733159453
40
0.117864678003617
40
0.125888622847782
40
0.133912567691946
40
0.141936512536111
40
0.149960457380275
40
0.15798440222444
40
0.166008347068604
40
0.182056236756933
40
0.198104126445262
40
0.214152016133591
40
0.23019990582192
40
0.238223850666085
40
0.246247795510249
40
0.254271740354414
40
0.262295685198578
40
0.278343574886907
40
0.294391464575236
40
0.302415409419401
40
0.310439354263565
40
0.31846329910773
40
0.326487243951894
40
0.334511188796059
40
0.342535133640223
40
0.358583023328552
40
0.366606968172717
40
0.374630913016881
40
0.39067880270521
40
0.406726692393539
40
0.414750637237704
40
0.422774582081868
40
0.438822471770197
40
0.446846416614362
40
0.450858389036444
40
0.454870361458526
40
0.462894306302691
40
0.470918251146855
40
0.486966140835184
40
0.494990085679349
40
0.503014030523513
40
0.511037975367678
40
0.519061920211843
40
0.527085865056007
40
0.535109809900171
40
0.543133754744336
40
0.5511576995885
40
0.559181644432665
40
0.567205589276829
40
0.583253478965158
40
0.591277423809323
40
0.599301368653487
40
0.607325313497652
40
0.611337285919734
40
0.615349258341816
40
0.623373203185981
40
0.631397148030145
40
0.63942109287431
40
0.647445037718474
40
0.655468982562639
40
0.663492927406804
40
0.679540817095132
40
0.695588706783462
40
0.703612651627626
40
0.71163659647179
40
0.727684486160119
40
0.735708431004284
40
0.743732375848449
40
0.751756320692613
40
0.759780265536778
40
0.767804210380942
40
0.775828155225107
40
0.783852100069271
40
0.791876044913436
40
0.807923934601765
40
0.815947879445929
40
0.823971824290094
40
0.831995769134258
40
0.840019713978423
40
0.848043658822587
40
0.856067603666752
40
0.872115493355081
40
0.880139438199245
40
0.88816338304341
40
0.896187327887574
40
0.904211272731739
40
0.920259162420068
40
0.936307052108397
40
0.952354941796726
40
0.96037888664089
40
0.968402831485055
40
0.976426776329219
40
0.984450721173384
40
0.992474666017548
40
1
40
1
40
1
40
1
41
1
10
-1.69999999999999
20
2.58372509632827
30
0
41
1
10
-1.69999999999999
20
2.62111404232408
30
0
41
1
10
-1.69999999999999
20
2.71257747642741
30
0
41
1
10
-1.69999999999999
20
2.85743846779499
30
0
41
1
10
-1.69999999999999
20
3.01805527431182
30
0
41
1
10
-1.69999999999999
20
3.17766893265431
30
0
41
1
10
-1.69999999999999
20
3.33626943234705
30
0
41
1
10
-1.69999999999999
20
3.49384789900154
30
0
41
1
10
-1.69999999999999
20
3.65039714326571
30
0
41
1
10
-1.69999999999999
20
3.80591077742719
30
0
41
1
10
-1.69999999999999
20
3.96038358832212
30
0
41
1
10
-1.69999999999999
20
4.11381092681606
30
0
41
1
10
-1.69999999999999
20
4.26618872973953
30
0
41
1
10
-1.69999999999999
20
4.41751381174834
30
0
41
1
10
-1.69999999999999
20
4.56778337246482
30
0
41
1
10
-1.69999999999999
20
4.71699468615466
30
0
41
1
10
-1.69999999999999
20
4.86514556778678
30
0
41
1
10
-1.69999999999999
20
5.01223405348068
30
0
41
1
10
-1.69999999999999
20
5.15825857839869
30
0
41
1
10
-1.69999999999999
20
5.30321729486519
30
0
41
1
10
-1.69999999999999
20
5.44710899667646
30
0
41
1
10
-1.69999999999999
20
5.58993216915877
30
0
41
1
10
-1.69999999999999
20
5.77892152059965
30
0
41
1
10
-1.69999999999999
20
6.01251447744062
30
0
41
1
10
-1.69999999999999
20
6.28851700104784
30
0
41
1
10
-1.69999999999999
20
6.56021848903171
30
0
41
1
10
-1.69999999999999
20
6.7830583657493
30
0
41
1
10
-1.69999999999999
20
6.95914717066265
30
0
41
1
10
-1.69999999999999
20
7.09014226669851
30
0
41
1
10
-1.69999999999999
20
7.22005470774221
30
0
41
1
10
-1.69999999999999
20
7.39181445781463
30
0
41
1
10
-1.69999999999999
20
7.60382755625838
30
0
41
1
10
-1.69999999999999
20
7.81221411547432
30
0
41
1
10
-1.69999999999999
20
7.9767200242907
30
0
41
1
10
-1.69999999999999
20
8.09901464495698
30
0
41
1
10
-1.69999999999999
20
8.22021379775831
30
0
41
1
10
-1.69999999999999
20
8.34031606829598
30
0
41
1
10
-1.69999999999999
20
8.45931945344486
30
0
41
1
10
-1.69999999999999
20
8.61651162008161
30
0
41
1
10
-1.69999999999999
20
8.77152766795061
30
0
41
1
10
-1.69999999999999
20
8.92429760284432
30
0
41
1
10
-1.69999999999999
20
9.07558727703642
30
0
41
1
10
-1.69999999999999
20
9.26193698423123
30
0
41
1
10
-1.69999999999999
20
9.44455854729449
30
0
41
1
10
-1.69999999999999
20
9.58839008121353
30
0
41
1
10
-1.69999999999999
20
9.73071862052217
30
0
41
1
10
-1.69999999999999
20
9.87081043657869
30
0
41
1
10
-1.69999999999999
20
9.9913814320609
30
0
41
1
10
-1.69999999999999
20
10.0597065749413
30
0
41
1
10
-1.69999999999999
20
10.1276505623382
30
0
41
1
10
-1.69999999999999
20
10.2118742799613
30
0
41
1
10
-1.69999999999999
20
10.3450861470912
30
0
41
1
10
-1.69999999999999
20
10.4760157679139
30
0
41
1
10
-1.69999999999999
20
10.6046008465563
30
0
41
1
10
-1.69999999999999
20
10.6998796425436
30
0
41
1
10
-1.69999999999999
20
10.7939888359847
30
0
41
1
10
-1.69999999999999
20
10.8869237783616
30
0
41
1
10
-1.69999999999999
20
10.9786794422307
30
0
41
1
10
-1.69999999999999
20
11.0692509372408
30
0
41
1
10
-1.69999999999999
20
11.1586337603462
30
0
41
1
10
-1.69999999999999
20
11.2468221792499
30
0
41
1
10
-1.69999999999999
20
11.3338110499831
30
0
41
1
10
-1.69999999999999
20
11.448182891669
30
0
41
1
10
-1.69999999999999
20
11.5601529159528
30
0
41
1
10
-1.69999999999999
20
11.6696587742526
30
0
41
1
10
-1.69999999999999
20
11.7505641289662
30
0
41
1
10
-1.69999999999999
20
11.8169591426362
30
0
41
1
10
-1.69999999999999
20
11.8694488081267
30
0
41
1
10
-1.69999999999999
20
11.9215236068653
30
0
41
1
10
-1.69999999999999
20
11.9858436758677
30
0
41
1
10
-1.69999999999999
20
12.0617686582407
30
0
41
1
10
-1.69999999999999
20
12.1364316894724
30
0
41
1
10
-1.69999999999999
20
12.209824815618
30
0
41
1
10
-1.69999999999999
20
12.2819406900945
30
0
41
1
10
-1.69999999999999
20
12.3763763558488
30
0
41
1
10
-1.69999999999999
20
12.4912006491746
30
0
41
1
10
-1.69999999999999
20
12.6016598943421
30
0
41
1
10
-1.69999999999999
20
12.6873624197502
30
0
41
1
10
-1.69999999999999
20
12.7712834714132
30
0
41
1
10
-1.69999999999999
20
12.8525264142953
30
0
41
1
10
-1.69999999999999
20
12.9310230723471
30
0
41
1
10
-1.69999999999999
20
12.9885220902628
30
0
41
1
10
-1.69999999999999
20
13.0446338149516
30
0
41
1
10
-1.69999999999999
20
13.099347414251
30
0
41
1
10
-1.69999999999999
20
13.1526505121852
30
0
41
1
10
-1.69999999999999
20
13.2045321061977
30
0
41
1
10
-1.69999999999999
20
13.254979960848
30
0
41
1
10
-1.69999999999999
20
13.3203101073726
30
0
41
1
10
-1.69999999999999
20
13.3827344162836
30
0
41
1
10
-1.69999999999999
20
13.4421723218484
30
0
41
1
10
-1.69999999999999
20
13.485252935173
30
0
41
1
10
-1.69999999999999
20
13.5268172028035
30
0
41
1
10
-1.69999999999999
20
13.5668499361124
30
0
41
1
10
-1.69999999999999
20
13.6053355893185
30
0
41
1
10
-1.69999999999999
20
13.6545611373555
30
0
41
1
10
-1.69999999999999
20
13.7006353174901
30
0
41
1
10
-1.69999999999999
20
13.7434660879001
30
0
41
1
10
-1.69999999999999
20
13.773955994413
30
0
41
1
10
-1.69999999999999
20
13.8027899045868
30
0
41
1
10
-1.69999999999999
20
13.838998019961
30
0
41
1
10
-1.69999999999999
20
13.8800204120324
30
0
41
1
10
-1.69999999999999
20
13.9222750232465
30
0
41
1
10
-1.69999999999999
20
13.9515178138587
30
0
41
1
10
-1.69999999999999
20
13.9712195253815
30
0
41
1
10
-1.69999999999999
20
13.9841239086368
30
0
41
1
10
-1.69999999999999
20
13.9951252442004
30
0
41
1
10
-1.69999999999999
20
14.0041925984504
30
0
41
1
10
-1.69999999999999
20
14.0111457479204
30
0
41
1
10
-1.69999999999996
20
14.014480319665
30
0
41
1
10
-1.70000000000002
20
14.0157960963457
30
0
0
SPLINE
5
BC
100
AcDbEntity
8
SK1
62
256
6
ByLayer
370
18
48
1
60
0
100
AcDbSpline
70
4
71
3
72
20
73
16
40
0
40
0
40
0
40
0
40
0.25
40
0.25
40
0.375
40
0.375
40
0.4375
40
0.4375
40
0.5
40
0.5
40
0.75
40
0.75
40
0.875
40
0.875
40
1
40
1
40
1
40
1
41
1
10
-1.69999999999999
20
2.58372509632824
30
0
41
1
10
-1.7661113123057
20
2.16779007042712
30
0
41
1
10
-1.82315204782358
20
1.74563966403682
30
0
41
1
10
-1.88431819816688
20
1.09996691447753
30
0
41
1
10
-1.90058047077932
20
0.882646870115906
30
0
41
1
10
-1.91721350759224
20
0.553023201537258
30
0
41
1
10
-1.92146378406954
20
0.442540802025718
30
0
41
1
10
-1.92715977707795
20
0.220285135648766
30
0
41
1
10
-1.9285879277983
20
0.108677548680845
30
0
41
1
10
-1.92849632274928
20
-0.445359331572973
30
0
41
1
10
-1.90492944339624
20
-0.881328490161167
30
0
41
1
10
-1.84396151081333
20
-1.52649956093143
30
0
41
1
10
-1.81946627012516
20
-1.7401081785566
30
0
41
1
10
-1.76401082902217
20
-2.16479512178205
30
0
41
1
10
-1.73306081558337
20
-2.37572486620758
30
0
41
1
10
-1.69999999999999
20
-2.58372503195247
30
0
0
SPLINE
5
BD
100
AcDbEntity
8
SK1
62
256
6
ByLayer
370
18
48
1
60
0
100
AcDbSpline
70
4
71
3
72
26
73
22
40
0
40
0
40
0
40
0
40
0.25
40
0.25
40
0.499999999999999
40
0.499999999999999
40
0.624999999999998
40
0.624999999999998
40
0.749999999999997
40
0.749999999999997
40
0.812499999999996
40
0.812499999999996
40
0.874999999999995
40
0.874999999999995
40
0.906249999999997
40
0.906249999999997
40
0.937499999999998
40
0.937499999999998
40
0.968749999999999
40
0.968749999999999
40
1
40
1
40
1
40
1
41
1
10
-0.199999999999989
20
-5.7031760547294
30
0
41
1
10
-0.199999999999989
20
-5.63823579019922
30
0
41
1
10
-0.201272969697669
20
-5.57293605649767
30
0
41
1
10
-0.207502897007231
20
-5.44150249678583
30
0
41
1
10
-0.212379710104358
20
-5.37529109300473
30
0
41
1
10
-0.224682606237138
20
-5.27544442994119
30
0
41
1
10
-0.229617185866118
20
-5.24213518580066
30
0
41
1
10
-0.242229041643526
20
-5.17551725566017
30
0
41
1
10
-0.249833221611823
20
-5.14218113288854
30
0
41
1
10
-0.265207031268602
20
-5.0932644583045
30
0
41
1
10
-0.270998974325863
20
-5.07711544581878
30
0
41
1
10
-0.285075712605874
20
-5.04543234149878
30
0
41
1
10
-0.293382354784512
20
-5.02955049623256
30
0
41
1
10
-0.309973406893022
20
-5.00825285180761
30
0
41
1
10
-0.316214408917744
20
-5.00161256354832
30
0
41
1
10
-0.330656646938507
20
-4.99083059730333
30
0
41
1
10
-0.339105605325329
20
-4.98673490231508
30
0
41
1
10
-0.356551440191851
20
-4.98388998792123
30
0
41
1
10
-0.365376268604251
20
-4.98514225758567
30
0
41
1
10
-0.381257580405588
20
-4.99109645865985
30
0
41
1
10
-0.388437394911733
20
-4.99565833585206
30
0
41
1
10
-0.394976888882155
20
-5.00092508225595
30
0
0
SPLINE
5
BE
100
AcDbEntity
8
SK1
62
256
6
ByLayer
370
18
48
1
60
0
100
AcDbSpline
70
4
71
3
72
16
73
12
40
0
40
0
40
0
40
0
40
0.017544025573142
40
0.144844227573848
40
0.272144429574554
40
0.399444631575261
40
0.526744833575967
40
0.654045035576673
40
0.781345237577379
40
0.908645439578086
40
1
40
1
40
1
40
1
41
1
10
-0.394976888875306
20
-13.8446019297682
30
0
41
1
10
-0.394976888875306
20
-13.8443373794894
30
0
41
1
10
-0.394976888875277
20
-13.8421014019358
30
0
41
1
10
-0.394976888875277
20
-13.8370980881852
30
0
41
1
10
-0.394976888875277
20
-13.8281307581185
30
0
41
1
10
-0.394976888875277
20
-13.8172491473121
30
0
41
1
10
-0.394976888875277
20
-13.8044829828858
30
0
41
1
10
-0.394976888875277
20
-13.7898613788954
30
0
41
1
10
-0.394976888875277
20
-13.7734119916164
30
0
41
1
10
-0.394976888875277
20
-13.7568788304845
30
0
41
1
10
-0.394976888875306
20
-13.7455562391848
30
0
41
1
10
-0.394976888875306
20
-13.7406739297681
30
0
0
SPLINE
5
BF
100
AcDbEntity
8
SK1
62
256
6
ByLayer
370
13
48
1
60
0
100
AcDbSpline
70
4
71
3
72
92
73
88
40
0
40
0
40
0
40
0
40
0.0028307426054261
40
0.0128554511525643
40
0.0329048682468407
40
0.0429295767939789
40
0.0529542853411171
40
0.0629789938882553
40
0.0730037024353934
40
0.0930531195296698
40
0.103077828076808
40
0.113102536623946
40
0.123127245171084
40
0.133151953718223
40
0.143176662265361
40
0.153201370812499
40
0.173250787906775
40
0.183275496453914
40
0.193300205001052
40
0.20332491354819
40
0.213349622095328
40
0.223374330642466
40
0.233399039189604
40
0.243423747736743
40
0.253448456283881
40
0.273497873378157
40
0.283522581925295
40
0.293547290472434
40
0.31359670756671
40
0.333646124660986
40
0.343670833208125
40
0.353695541755263
40
0.363720250302401
40
0.373744958849539
40
0.383769667396677
40
0.393794375943815
40
0.398806730217385
40
0.403819084490954
40
0.413843793038092
40
0.42386850158523
40
0.433893210132368
40
0.453942627226645
40
0.463967335773783
40
0.473992044320921
40
0.484016752868059
40
0.494041461415197
40
0.504066169962336
40
0.514090878509474
40
0.524115587056612
40
0.53414029560375
40
0.544165004150888
40
0.554189712698026
40
0.574239129792303
40
0.584263838339441
40
0.594288546886579
40
0.599300901160148
40
0.604313255433717
40
0.614337963980856
40
0.634387381075132
40
0.64441208962227
40
0.654436798169408
40
0.674486215263685
40
0.694535632357961
40
0.704560340905099
40
0.714585049452237
40
0.734634466546514
40
0.744659175093652
40
0.75468388364079
40
0.764708592187928
40
0.774733300735067
40
0.784758009282205
40
0.794782717829343
40
0.814832134923619
40
0.834881552017896
40
0.844906260565034
40
0.854930969112172
40
0.86495567765931
40
0.874980386206448
40
0.895029803300725
40
0.915079220395001
40
0.935128637489278
40
0.955178054583554
40
0.965202763130692
40
0.97522747167783
40
0.985252180224969
40
0.995276888772107
40
1
40
1
40
1
40
1
41
1
10
-0.394976888875277
20
-13.7406740821084
30
0
41
1
10
-0.394976888875277
20
-13.7387529709004
30
0
41
1
10
-0.394976888875277
20
-13.7299218268677
30
0
41
1
10
-0.394976888875277
20
-13.706079968468
30
0
41
1
10
-0.394976888875277
20
-13.6736219491958
30
0
41
1
10
-0.394976888875277
20
-13.6377421279937
30
0
41
1
10
-0.394976888875277
20
-13.6091837809887
30
0
41
1
10
-0.394976888875277
20
-13.5789822078612
30
0
41
1
10
-0.394976888875277
20
-13.5365270011545
30
0
41
1
10
-0.394976888875277
20
-13.490931201485
30
0
41
1
10
-0.394976888875277
20
-13.4421262291561
30
0
41
1
10
-0.394976888875277
20
-13.4039879870964
30
0
41
1
10
-0.394976888875277
20
-13.3643136307331
30
0
41
1
10
-0.394976888875277
20
-13.3231185723383
30
0
41
1
10
-0.394976888875277
20
-13.2804176772461
30
0
41
1
10
-0.394976888875277
20
-13.221467049789
30
0
41
1
10
-0.394976888875277
20
-13.1596507828291
30
0
41
1
10
-0.394976888875277
20
-13.0948461430692
30
0
41
1
10
-0.394976888875277
20
-13.0448282543027
30
0
41
1
10
-0.394976888875277
20
-12.9933861205259
30
0
41
1
10
-0.394976888875277
20
-12.940532100831
30
0
41
1
10
-0.394976888875277
20
-12.8862769625636
30
0
41
1
10
-0.394976888875277
20
-12.8306328883531
30
0
41
1
10
-0.394976888875277
20
-12.773610902979
30
0
41
1
10
-0.394976888875277
20
-12.6957215996061
30
0
41
1
10
-0.394976888875277
20
-12.6152283642396
30
0
41
1
10
-0.394976888875277
20
-12.5319491682166
30
0
41
1
10
-0.394976888875277
20
-12.446899173783
30
0
41
1
10
-0.394976888875277
20
-12.3373769247913
30
0
41
1
10
-0.394976888875277
20
-12.2235215963167
30
0
41
1
10
-0.394976888875277
20
-12.1297946270485
30
0
41
1
10
-0.394976888875277
20
-12.0582544232072
30
0
41
1
10
-0.394976888875277
20
-11.9854459723214
30
0
41
1
10
-0.394976888875277
20
-11.9113764724791
30
0
41
1
10
-0.394976888875277
20
-11.836053984022
30
0
41
1
10
-0.394976888875277
20
-11.7722691819395
30
0
41
1
10
-0.394976888875277
20
-11.7205808983271
30
0
41
1
10
-0.394976888875277
20
-11.6684804460587
30
0
41
1
10
-0.394976888875277
20
-11.6026363770329
30
0
41
1
10
-0.394976888875277
20
-11.5223699808134
30
0
41
1
10
-0.394976888875277
20
-11.413674138825
30
0
41
1
10
-0.394976888875277
20
-11.3026972665534
30
0
41
1
10
-0.394976888875277
20
-11.1891707748317
30
0
41
1
10
-0.394976888875277
20
-11.1028676417001
30
0
41
1
10
-0.394976888875277
20
-11.0153746961414
30
0
41
1
10
-0.394976888875277
20
-10.9266969919675
30
0
41
1
10
-0.394976888875277
20
-10.8368404586376
30
0
41
1
10
-0.394976888875277
20
-10.7458098983122
30
0
41
1
10
-0.394976888875277
20
-10.6536100894112
30
0
41
1
10
-0.394976888875277
20
-10.5602461538978
30
0
41
1
10
-0.394976888875277
20
-10.4657231753345
30
0
41
1
10
-0.394976888875277
20
-10.338096057249
30
0
41
1
10
-0.394976888875277
20
-10.2083399899529
30
0
41
1
10
-0.394976888875277
20
-10.0761265678462
30
0
41
1
10
-0.394976888875277
20
-9.99261145812801
30
0
41
1
10
-0.394976888875277
20
-9.92517902838179
30
0
41
1
10
-0.394976888875277
20
-9.85736937045593
30
0
41
1
10
-0.394976888875277
20
-9.73773602301958
30
0
41
1
10
-0.394976888875277
20
-9.59892077296985
30
0
41
1
10
-0.394976888875277
20
-9.45767863215664
30
0
41
1
10
-0.394976888875277
20
-9.31494999082747
30
0
41
1
10
-0.394976888875277
20
-9.13390680482667
30
0
41
1
10
-0.394976888875277
20
-8.94918034619519
30
0
41
1
10
-0.394976888875277
20
-8.79907644696402
30
0
41
1
10
-0.394976888875277
20
-8.64751156797169
30
0
41
1
10
-0.394976888875277
20
-8.49397420958985
30
0
41
1
10
-0.394976888875277
20
-8.3380422654499
30
0
41
1
10
-0.394976888875277
20
-8.22006380191277
30
0
41
1
10
-0.394976888875277
20
-8.10100253994159
30
0
41
1
10
-0.394976888875277
20
-7.98086146605701
30
0
41
1
10
-0.394976888875277
20
-7.85964216476054
30
0
41
1
10
-0.394976888875277
20
-7.69650359935568
30
0
41
1
10
-0.394976888875277
20
-7.49008091096033
30
0
41
1
10
-0.394976888875277
20
-7.28009512097313
30
0
41
1
10
-0.394976888875277
20
-7.10982246715957
30
0
41
1
10
-0.394976888875277
20
-6.98112245032084
30
0
41
1
10
-0.394976888875277
20
-6.85136201549099
30
0
41
1
10
-0.394976888875277
20
-6.6768468885183
30
0
41
1
10
-0.394976888875277
20
-6.45627504712579
30
0
41
1
10
-0.394976888875277
20
-6.18726435105106
30
0
41
1
10
-0.394976888875277
20
-5.91406388300979
30
0
41
1
10
-0.394976888875277
20
-5.68302324398948
30
0
41
1
10
-0.394976888875277
20
-5.49591839522026
30
0
41
1
10
-0.394976888875277
20
-5.35463943777347
30
0
41
1
10
-0.394976888875277
20
-5.21232773830431
30
0
41
1
10
-0.394976888875277
20
-5.09425535366776
30
0
41
1
10
-0.394976888875277
20
-5.02359314607173
30
0
41
1
10
-0.394976888875277
20
-5.00092508225413
30
0
0
SPLINE
5
C0
100
AcDbEntity
8
SK1
62
256
6
ByLayer
370
18
48
1
60
0
100
AcDbSpline
70
4
71
3
72
24
73
20
40
0
40
0
40
0
40
0
40
0.0566107962339136
40
0.0566107962339136
40
0.292458097175436
40
0.292458097175436
40
0.528305398116957
40
0.528305398116957
40
0.646229048587717
40
0.646229048587717
40
0.764152699058477
40
0.764152699058477
40
0.823114524293857
40
0.823114524293857
40
0.882076349529238
40
0.882076349529238
40
0.941038174764619
40
0.941038174764619
40
1
40
1
40
1
40
1
41
1
10
-0.217769766828099
20
13.9477750957002
30
0
41
1
10
-0.218661054587898
20
13.9462698749476
30
0
41
1
10
-0.219597534883718
20
13.9447405263243
30
0
41
1
10
-0.224682934304894
20
13.9367111271039
30
0
41
1
10
-0.229617567212557
20
13.9298132257639
30
0
41
1
10
-0.242229439580512
20
13.9149025794458
30
0
41
1
10
-0.2498335888464
20
13.9068988482932
30
0
41
1
10
-0.265207264314426
20
13.8938007843296
30
0
41
1
10
-0.270999147250819
20
13.889246900443
30
0
41
1
10
-0.285075726022143
20
13.879554172366
30
0
41
1
10
-0.293382262191443
20
13.8743360124917
30
0
41
1
10
-0.309973208906371
20
13.8659795391831
30
0
41
1
10
-0.316214208385787
20
13.8631087549699
30
0
41
1
10
-0.330656403377105
20
13.8574219230767
30
0
41
1
10
-0.339105376305639
20
13.8545577585332
30
0
41
1
10
-0.356551358104838
20
13.849859688057
30
0
41
1
10
-0.36537623467359
20
13.848068489605
30
0
41
1
10
-0.381257584369365
20
13.8456585749161
30
0
41
1
10
-0.38843740666357
20
13.844979298583
30
0
41
1
10
-0.394976888882155
20
13.8446015176357
30
0
0
SPLINE
5
C1
100
AcDbEntity
8
SK1
62
256
6
ByLayer
370
18
48
1
60
0
100
AcDbSpline
70
4
71
3
72
28
73
24
40
0
40
0
40
0
40
0
40
0.0312499999999997
40
0.0312499999999997
40
0.0624999999999994
40
0.0624999999999994
40
0.0937499999999991
40
0.0937499999999991
40
0.124999999999999
40
0.124999999999999
40
0.156249999999999
40
0.156249999999999
40
0.187499999999998
40
0.187499999999998
40
0.249999999999998
40
0.249999999999998
40
0.374999999999999
40
0.374999999999999
40
0.499999999999999
40
0.499999999999999
40
0.75
40
0.75
40
1
40
1
40
1
40
1
41
1
10
-0.394976888875306
20
-5.00092508226666
30
0
41
1
10
-0.410801723401761
20
-5.01367001187649
30
0
41
1
10
-0.4275356640685
20
-5.02539849227227
30
0
41
1
10
-0.463639445662722
20
-5.04593511745526
30
0
41
1
10
-0.483045340971188
20
-5.05469251156407
30
0
41
1
10
-0.523643941254335
20
-5.06714353053124
30
0
41
1
10
-0.545504646180405
20
-5.07093169487291
30
0
41
1
10
-0.589142052071651
20
-5.07189455751234
30
0
41
1
10
-0.611301179626679
20
-5.06908452808301
30
0
41
1
10
-0.653272178018796
20
-5.05796409301064
30
0
41
1
10
-0.673415768762993
20
-5.04965465210225
30
0
41
1
10
-0.710707027308217
20
-5.0298546065529
30
0
41
1
10
-0.72798048516205
20
-5.01838752947953
30
0
41
1
10
-0.776992972545457
20
-4.98075525164194
30
0
41
1
10
-0.805333125323756
20
-4.95193028425504
30
0
41
1
10
-0.881947101638815
20
-4.86181030678483
30
0
41
1
10
-0.923425703606654
20
-4.79521679044083
30
0
41
1
10
-0.99664073006133
20
-4.65951765116259
30
0
41
1
10
-1.02822753812518
20
-4.58996776098428
30
0
41
1
10
-1.11453443489486
20
-4.37792667248573
30
0
41
1
10
-1.16086176131509
20
-4.23206106343818
30
0
41
1
10
-1.24217275767182
20
-3.93395789518041
30
0
41
1
10
-1.27672450018153
20
-3.78192043895177
30
0
41
1
10
-1.30710678118763
20
-3.62781610099958
30
0
0
SPLINE
5
C2
100
AcDbEntity
8
SK1
62
256
6
ByLayer
370
18
48
1
60
0
100
AcDbSpline
70
4
71
3
72
24
73
20
40
0
40
0
40
0
40
0
40
0.0312500000000002
40
0.0312500000000002
40
0.0625000000000005
40
0.0625000000000005
40
0.0937500000000007
40
0.0937500000000007
40
0.125000000000001
40
0.125000000000001
40
0.187500000000001
40
0.187500000000001
40
0.250000000000002
40
0.250000000000002
40
0.500000000000001
40
0.500000000000001
40
0.75
40
0.75
40
1
40
1
40
1
40
1
41
1
10
-0.394976888875306
20
-13.8446019297682
30
0
41
1
10
-0.388468629926223
20
-13.8449779249513
30
0
41
1
10
-0.381324590932508
20
-13.8456530881874
30
0
41
1
10
-0.365549387179669
20
-13.8480385128452
30
0
41
1
10
-0.356796789473208
20
-13.8498063080825
30
0
41
1
10
-0.33943557506214
20
-13.8544574766954
30
0
41
1
10
-0.330979789430131
20
-13.8573064570468
30
0
41
1
10
-0.316458103440112
20
-13.8630021925908
30
0
41
1
10
-0.310232882497218
20
-13.8658582165516
30
0
41
1
10
-0.293637826177644
20
-13.8741901944621
30
0
41
1
10
-0.28535631043701
20
-13.8793708582821
30
0
41
1
10
-0.271048178733793
20
-13.8892040331652
30
0
41
1
10
-0.265213225486406
20
-13.8937947816306
30
0
41
1
10
-0.239456395896667
20
-13.9157444690285
30
0
41
1
10
-0.228706663403358
20
-13.9303424576193
30
0
41
1
10
-0.21235583734952
20
-13.9561898875121
30
0
41
1
10
-0.207496542760396
20
-13.9673765992813
30
0
41
1
10
-0.201274525742747
20
-13.9872294917001
30
0
41
1
10
-0.200000000000017
20
-13.9958729075743
30
0
41
1
10
-0.200000000000017
20
-14.0034375364995
30
0
0
SPLINE
5
C3
100
AcDbEntity
8
SK1
62
256
6
ByLayer
370
18
48
1
60
0
100
AcDbSpline
70
4
71
3
72
8
73
4
40
0
40
0
40
0
40
0
40
1
40
1
40
1
40
1
41
1
10
-1.30710678118655
20
3.62781725664615
30
0
41
1
10
-1.37353763980974
20
3.2908708034243
30
0
41
1
10
-1.4372149826398
20
2.94709379867734
30
0
41
1
10
-1.49503997793931
20
2.5946511583831
30
0
0
SPLINE
5
C4
100
AcDbEntity
8
SK1
62
256
6
ByLayer
370
18
48
1
60
0
100
AcDbSpline
70
4
71
3
72
30
73
26
40
0
40
0
40
0
40
0
40
0.249999999999987
40
0.249999999999987
40
0.374999999999982
40
0.374999999999982
40
0.437499999999981
40
0.437499999999981
40
0.468749999999979
40
0.468749999999979
40
0.499999999999978
40
0.499999999999978
40
0.515624999999979
40
0.515624999999979
40
0.531249999999979
40
0.531249999999979
40
0.54687499999998
40
0.54687499999998
40
0.562499999999981
40
0.562499999999981
40
0.624999999999984
40
0.624999999999984
40
0.749999999999989
40
0.749999999999989
40
1
40
1
40
1
40
1
41
1
10
-1.49503997793931
20
2.5946511583831
30
0
41
1
10
-1.51026746272268
20
2.50183982455954
30
0
41
1
10
-1.52651400478425
20
2.40922455962411
30
0
41
1
10
-1.55478813482398
20
2.27186617316025
30
0
41
1
10
-1.56483850627194
20
2.22626541767525
30
0
41
1
10
-1.58232732166977
20
2.15928180695383
30
0
41
1
10
-1.58855430949953
20
2.13715881603295
30
0
41
1
10
-1.59928375148641
20
2.10496662261355
30
0
41
1
10
-1.60308610086514
20
2.09441763009693
30
0
41
1
10
-1.61160304975013
20
2.07406881511588
30
0
41
1
10
-1.61627802336253
20
2.06410999368941
30
0
41
1
10
-1.62496893049993
20
2.05149541629649
30
0
41
1
10
-1.62816482150976
20
2.04762113463224
30
0
41
1
10
-1.63581311778785
20
2.04242474357426
30
0
41
1
10
-1.64047550516952
20
2.04153346480729
30
0
41
1
10
-1.64893986683214
20
2.04619400336986
30
0
41
1
10
-1.65243193129894
20
2.0510811318737
30
0
41
1
10
-1.65796633561408
20
2.06142619765947
30
0
41
1
10
-1.66019890815173
20
2.06715816278916
30
0
41
1
10
-1.66988903742802
20
2.09599783238286
30
0
41
1
10
-1.67400497309845
20
2.12069181839035
30
0
41
1
10
-1.68477614120369
20
2.19380514302557
30
0
41
1
10
-1.68861651052396
20
2.24263416926132
30
0
41
1
10
-1.69768397047525
20
2.38915025298931
30
0
41
1
10
-1.69960876100487
20
2.48671898766878
30
0
41
1
10
-1.69999999999999
20
2.58372509632824
30
0
0
SPLINE
5
C5
100
AcDbEntity
8
SK1
62
256
6
ByLayer
370
18
48
1
60
0
100
AcDbSpline
70
4
71
3
72
8
73
4
40
0
40
0
40
0
40
0
40
1
40
1
40
1
40
1
41
1
10
-1.49503997793931
20
-2.59465115086957
30
0
41
1
10
-1.43721506486062
20
-2.94709344599571
30
0
41
1
10
-1.37353709472984
20
-3.29086972471191
30
0
41
1
10
-1.30710678118766
20
-3.62781610099944
30
0
0
SPLINE
5
C6
100
AcDbEntity
8
SK1
62
256
6
ByLayer
370
18
48
1
60
0
100
AcDbSpline
70
4
71
3
72
287
73
283
40
0
40
0
40
0
40
0
40
0.0011263672547043
40
0.0046149897342367
40
0.0081036122137691
40
0.0115922346933015
40
0.0150808571728339
40
0.0185694796523663
40
0.0220581021318987
40
0.0255467246114311
40
0.0290353470909635
40
0.0325239695704959
40
0.0360125920500283
40
0.0395012145295607
40
0.0429898370090931
40
0.0464784594886255
40
0.0534557044476903
40
0.0569443269272227
40
0.0604329494067551
40
0.0639215718862875
40
0.0674101943658199
40
0.0743874393248847
40
0.0778760618044171
40
0.0813646842839495
40
0.0848533067634819
40
0.0883419292430143
40
0.0918305517225467
40
0.0953191742020791
40
0.102296419161144
40
0.105785041640676
40
0.109273664120209
40
0.112762286599741
40
0.116250909079274
40
0.119739531558806
40
0.123228154038338
40
0.126716776517871
40
0.130205398997403
40
0.137182643956468
40
0.140671266436
40
0.144159888915533
40
0.151137133874598
40
0.158114378833662
40
0.161603001313195
40
0.165091623792727
40
0.16858024627226
40
0.172068868751792
40
0.175557491231324
40
0.179046113710857
40
0.180790424950623
40
0.182534736190389
40
0.186023358669922
40
0.189511981149454
40
0.193000603628986
40
0.199977848588051
40
0.203466471067584
40
0.206955093547116
40
0.210443716026648
40
0.213932338506181
40
0.217420960985713
40
0.220909583465245
40
0.224398205944778
40
0.22788682842431
40
0.231375450903843
40
0.234864073383375
40
0.24184131834244
40
0.245329940821972
40
0.248818563301505
40
0.250562874541271
40
0.252307185781037
40
0.255795808260569
40
0.262773053219634
40
0.266261675699167
40
0.269750298178699
40
0.276727543137764
40
0.283704788096829
40
0.287193410576361
40
0.290682033055894
40
0.297659278014958
40
0.301147900494491
40
0.304636522974023
40
0.308125145453555
40
0.311613767933088
40
0.31510239041262
40
0.318591012892153
40
0.325568257851217
40
0.332545502810282
40
0.336034125289815
40
0.339522747769347
40
0.343011370248879
40
0.346499992728412
40
0.353477237687477
40
0.360454482646541
40
0.367431727605606
40
0.374408972564671
40
0.377897595044203
40
0.381386217523736
40
0.384874840003268
40
0.388363462482801
40
0.391852084962333
40
0.395340707441865
40
0.398829329921398
40
0.40231795240093
40
0.405806574880463
40
0.409295197359995
40
0.412783819839527
40
0.41627244231906
40
0.419761064798592
40
0.423249687278125
40
0.426738309757657
40
0.430226932237189
40
0.433715554716722
40
0.437204177196254
40
0.440692799675787
40
0.444181422155319
40
0.447670044634851
40
0.449414355874618
40
0.451158667114384
40
0.454647289593916
40
0.456391600833682
40
0.458135912073449
40
0.459880223313215
40
0.461624534552981
40
0.463368845792747
40
0.465113157032513
40
0.46685746827228
40
0.468601779512046
40
0.472090401991578
40
0.473834713231344
40
0.475579024471111
40
0.477323335710877
40
0.479067646950643
40
0.480811958190409
40
0.482556269430175
40
0.484300580669942
40
0.486044891909708
40
0.487789203149474
40
0.48953351438924
40
0.491277825629006
40
0.493022136868773
40
0.494766448108539
40
0.496510759348305
40
0.498255070588071
40
0.499999381827837
40
0.501743693067604
40
0.50348800430737
40
0.505232315547136
40
0.506976626786902
40
0.508720938026668
40
0.510465249266435
40
0.512209560506201
40
0.513953871745967
40
0.515698182985733
40
0.517442494225499
40
0.519186805465266
40
0.520931116705032
40
0.522675427944798
40
0.524419739184564
40
0.526164050424331
40
0.527908361664096
40
0.531396984143629
40
0.533141295383395
40
0.534885606623161
40
0.536629917862928
40
0.538374229102694
40
0.54011854034246
40
0.541862851582226
40
0.543607162821993
40
0.545351474061759
40
0.548840096541291
40
0.550584407781057
40
0.552328719020823
40
0.555817341500356
40
0.559305963979888
40
0.562794586459421
40
0.566283208938953
40
0.569771831418485
40
0.573260453898018
40
0.57674907637755
40
0.580237698857082
40
0.583726321336615
40
0.587214943816147
40
0.59070356629568
40
0.594192188775212
40
0.597680811254745
40
0.601169433734277
40
0.60465805621381
40
0.608146678693342
40
0.611635301172874
40
0.615123923652407
40
0.618612546131939
40
0.622101168611471
40
0.625589791091004
40
0.632567036050068
40
0.639544281009133
40
0.646521525968198
40
0.653498770927263
40
0.656987393406795
40
0.660476015886328
40
0.66396463836586
40
0.667453260845392
40
0.674430505804457
40
0.681407750763522
40
0.684896373243055
40
0.688384995722587
40
0.691873618202119
40
0.695362240681652
40
0.698850863161184
40
0.702339485640716
40
0.709316730599781
40
0.712805353079313
40
0.716293975558846
40
0.723271220517911
40
0.730248465476976
40
0.733737087956508
40
0.737225710436041
40
0.744202955395105
40
0.747691577874638
40
0.749435889114404
40
0.75118020035417
40
0.754668822833703
40
0.758157445313235
40
0.7651346902723
40
0.768623312751832
40
0.772111935231365
40
0.775600557710897
40
0.779089180190429
40
0.782577802669962
40
0.786066425149494
40
0.789555047629027
40
0.793043670108559
40
0.796532292588091
40
0.800020915067624
40
0.806998160026688
40
0.810486782506221
40
0.813975404985753
40
0.817464027465286
40
0.819208338705052
40
0.820952649944818
40
0.824441272424351
40
0.827929894903883
40
0.831418517383415
40
0.834907139862948
40
0.83839576234248
40
0.841884384822013
40
0.848861629781077
40
0.855838874740142
40
0.859327497219675
40
0.862816119699207
40
0.869793364658272
40
0.873281987137804
40
0.876770609617336
40
0.880259232096869
40
0.883747854576401
40
0.887236477055934
40
0.890725099535466
40
0.894213722014998
40
0.897702344494531
40
0.904679589453596
40
0.908168211933128
40
0.91165683441266
40
0.915145456892193
40
0.918634079371725
40
0.922122701851258
40
0.92561132433079
40
0.932588569289855
40
0.936077191769387
40
0.93956581424892
40
0.943054436728452
40
0.946543059207985
40
0.953520304167049
40
0.960497549126114
40
0.967474794085179
40
0.970963416564711
40
0.974452039044244
40
0.977940661523776
40
0.981429284003308
40
0.984917906482841
40
0.988406528962373
40
0.991895151441906
40
0.995383773921438
40
0.998872396400971
40
1
40
1
40
1
40
1
41
1
10
-22.5
20
-13.4956568865876
30
0
41
1
10
-22.5
20
-13.4959565539233
30
0
41
1
10
-22.5
20
-13.4970361199874
30
0
41
1
10
-22.5
20
-13.4978715423881
30
0
41
1
10
-22.5
20
-13.4969168014739
30
0
41
1
10
-22.5
20
-13.4939634903146
30
0
41
1
10
-22.5
20
-13.4890446841776
30
0
41
1
10
-22.5
20
-13.4821927509398
30
0
41
1
10
-22.5
20
-13.4734380181859
30
0
41
1
10
-22.5
20
-13.4628103286331
30
0
41
1
10
-22.5
20
-13.4503375548199
30
0
41
1
10
-22.5
20
-13.4360470510206
30
0
41
1
10
-22.5
20
-13.4199649415155
30
0
41
1
10
-22.5
20
-13.4021158939438
30
0
41
1
10
-22.5
20
-13.3825245595672
30
0
41
1
10
-22.5
20
-13.3540536969874
30
0
41
1
10
-22.5
20
-13.3223661764574
30
0
41
1
10
-22.5
20
-13.2871835921006
30
0
41
1
10
-22.5
20
-13.2592105165633
30
0
41
1
10
-22.5
20
-13.2296213845592
30
0
41
1
10
-22.5
20
-13.1879639125281
30
0
41
1
10
-22.5
20
-13.143384141029
30
0
41
1
10
-22.5
20
-13.0954724456838
30
0
41
1
10
-22.5
20
-13.0580721081213
30
0
41
1
10
-22.5
20
-13.0191589652135
30
0
41
1
10
-22.5
20
-12.9787481114295
30
0
41
1
10
-22.5
20
-12.9368537080862
30
0
41
1
10
-22.5
20
-12.8789380178894
30
0
41
1
10
-22.5
20
-12.8184132466048
30
0
41
1
10
-22.5
20
-12.7547247990428
30
0
41
1
10
-22.5
20
-12.7056201424592
30
0
41
1
10
-22.5
20
-12.6551113940766
30
0
41
1
10
-22.5
20
-12.6032111946844
30
0
41
1
10
-22.5
20
-12.5499298292215
30
0
41
1
10
-22.5
20
-12.4952790541085
30
0
41
1
10
-22.5
20
-12.4392702870471
30
0
41
1
10
-22.5
20
-12.3626709807027
30
0
41
1
10
-22.5
20
-12.2837700876339
30
0
41
1
10
-22.5
20
-12.2018541939414
30
0
41
1
10
-22.5
20
-12.1181901818312
30
0
41
1
10
-22.5
20
-12.0106580919609
30
0
41
1
10
-22.5
20
-11.8988608066557
30
0
41
1
10
-22.5
20
-11.8066391033683
30
0
41
1
10
-22.5
20
-11.7363216229303
30
0
41
1
10
-22.5
20
-11.664755015164
30
0
41
1
10
-22.5
20
-11.5919461625789
30
0
41
1
10
-22.5
20
-11.5179033535968
30
0
41
1
10
-22.5
20
-11.4552554448703
30
0
41
1
10
-22.5
20
-11.4043881128182
30
0
41
1
10
-22.5
20
-11.3531143441571
30
0
41
1
10
-22.5
20
-11.2884404756242
30
0
41
1
10
-22.5
20
-11.2095312195267
30
0
41
1
10
-22.5
20
-11.1025558384385
30
0
41
1
10
-22.5
20
-10.9936883968037
30
0
41
1
10
-22.5
20
-10.881957410682
30
0
41
1
10
-22.5
20
-10.7971107724731
30
0
41
1
10
-22.5
20
-10.7110950034658
30
0
41
1
10
-22.5
20
-10.6239149629423
30
0
41
1
10
-22.5
20
-10.5355769962349
30
0
41
1
10
-22.5
20
-10.4460865401309
30
0
41
1
10
-22.5
20
-10.3554481360506
30
0
41
1
10
-22.5
20
-10.2636671117607
30
0
41
1
10
-22.5
20
-10.1707494782419
30
0
41
1
10
-22.5
20
-10.0451570606616
30
0
41
1
10
-22.5
20
-9.91789360326428
30
0
41
1
10
-22.5
20
-9.7878008492857
30
0
41
1
10
-22.5
20
-9.70579080403837
30
0
41
1
10
-22.5
20
-9.63944491324963
30
0
41
1
10
-22.5
20
-9.57273013875857
30
0
41
1
10
-22.5
20
-9.45508835059124
30
0
41
1
10
-22.5
20
-9.31898451102214
30
0
41
1
10
-22.5
20
-9.18004984465043
30
0
41
1
10
-22.5
20
-9.0396637144479
30
0
41
1
10
-22.5
20
-8.8619729936481
30
0
41
1
10
-22.5
20
-8.68069429599308
30
0
41
1
10
-22.5
20
-8.53310893988203
30
0
41
1
10
-22.5
20
-8.38410356414289
30
0
41
1
10
-22.5
20
-8.23370694014301
30
0
41
1
10
-22.5
20
-8.08045169790759
30
0
41
1
10
-22.5
20
-7.96465013686171
30
0
41
1
10
-22.5
20
-7.84779994085653
30
0
41
1
10
-22.5
20
-7.72990620240671
30
0
41
1
10
-22.5
20
-7.6109708771202
30
0
41
1
10
-22.5
20
-7.4507365478344
30
0
41
1
10
-22.5
20
-7.24848505302427
30
0
41
1
10
-22.5
20
-7.04280522024894
30
0
41
1
10
-22.5
20
-6.87569116366484
30
0
41
1
10
-22.5
20
-6.74956631857708
30
0
41
1
10
-22.5
20
-6.6224282598192
30
0
41
1
10
-22.5
20
-6.451255571394
30
0
41
1
10
-22.5
20
-6.23550104742759
30
0
41
1
10
-22.5
20
-5.97220551419213
30
0
41
1
10
-22.5
20
-5.70495655337433
30
0
41
1
10
-22.5
20
-5.47933703089231
30
0
41
1
10
-22.5
20
-5.29623478947158
30
0
41
1
10
-22.5
20
-5.15823571506778
30
0
41
1
10
-22.5
20
-5.01927991936705
30
0
41
1
10
-22.5
20
-4.87937424460151
30
0
41
1
10
-22.5
20
-4.73852585442467
30
0
41
1
10
-22.5
20
-4.59674271442694
30
0
41
1
10
-22.5
20
-4.45403251641869
30
0
41
1
10
-22.5
20
-4.31040320562681
30
0
41
1
10
-22.5
20
-4.1658649918152
30
0
41
1
10
-22.5
20
-4.02042950258553
30
0
41
1
10
-22.5
20
-3.87410940415094
30
0
41
1
10
-22.5
20
-3.72691655621918
30
0
41
1
10
-22.5
20
-3.57886234252629
30
0
41
1
10
-22.5
20
-3.42996282061054
30
0
41
1
10
-22.5
20
-3.2802363758513
30
0
41
1
10
-22.5
20
-3.12970236953149
30
0
41
1
10
-22.5
20
-2.9783800820847
30
0
41
1
10
-22.5
20
-2.82629223006825
30
0
41
1
10
-22.5
20
-2.67346522993279
30
0
41
1
10
-22.5
20
-2.51992552331163
30
0
41
1
10
-22.5
20
-2.39172837491469
30
0
41
1
10
-22.5
20
-2.28823685042076
30
0
41
1
10
-22.5
20
-2.18454583019772
30
0
41
1
10
-22.5
20
-2.08161605220536
30
0
41
1
10
-22.5
20
-1.97729736527978
30
0
41
1
10
-22.5
20
-1.89920687090043
30
0
41
1
10
-22.5
20
-1.82098461234611
30
0
41
1
10
-22.5
20
-1.74263820265685
30
0
41
1
10
-22.5
20
-1.66417088377818
30
0
41
1
10
-22.5
20
-1.58559131690836
30
0
41
1
10
-22.5
20
-1.50690430877853
30
0
41
1
10
-22.5
20
-1.40144071039387
30
0
41
1
10
-22.5
20
-1.29707565327635
30
0
41
1
10
-22.5
20
-1.19121866112906
30
0
41
1
10
-22.5
20
-1.11209555133374
30
0
41
1
10
-22.5
20
-1.03290641330761
30
0
41
1
10
-22.5
20
-0.953656082911976
30
0
41
1
10
-22.5
20
-0.874352236673616
30
0
41
1
10
-22.5
20
-0.795000235128668
30
0
41
1
10
-22.5
20
-0.715606595157226
30
0
41
1
10
-22.5
20
-0.63617667254502
30
0
41
1
10
-22.5
20
-0.556716044364009
30
0
41
1
10
-22.5
20
-0.477229377934975
30
0
41
1
10
-22.5
20
-0.397721596430074
30
0
41
1
10
-22.5
20
-0.318196574925025
30
0
41
1
10
-22.5
20
-0.238658616598514
30
0
41
1
10
-22.5
20
-0.159110863620981
30
0
41
1
10
-22.5
20
-0.0795570195282949
30
0
41
1
10
-22.5
20
-4.3520458E-09
30
0
41
1
10
-22.5
20
0.0795570008675952
30
0
41
1
10
-22.5
20
0.159110826532412
30
0
41
1
10
-22.5
20
0.238658582119825
30
0
41
1
10
-22.5
20
0.318196568076161
30
0
41
1
10
-22.5
20
0.397721593521055
30
0
41
1
10
-22.5
20
0.477229338262958
30
0
41
1
10
-22.5
20
0.556715993884097
30
0
41
1
10
-22.5
20
0.63617666680787
30
0
41
1
10
-22.5
20
0.71560660892132
30
0
41
1
10
-22.5
20
0.795000198505278
30
0
41
1
10
-22.5
20
0.874352168955852
30
0
41
1
10
-22.5
20
0.95365606681014
30
0
41
1
10
-22.5
20
1.03290644237791
30
0
41
1
10
-22.5
20
1.11209553564783
30
0
41
1
10
-22.5
20
1.1912185842138
30
0
41
1
10
-22.5
20
1.29707563275716
30
0
41
1
10
-22.5
20
1.40144074045128
30
0
41
1
10
-22.5
20
1.50690426712365
30
0
41
1
10
-22.5
20
1.58559123041411
30
0
41
1
10
-22.5
20
1.66417084854152
30
0
41
1
10
-22.5
20
1.74263823347056
30
0
41
1
10
-22.5
20
1.82098464012651
30
0
41
1
10
-22.5
20
1.89920682890118
30
0
41
1
10
-22.5
20
1.97729727415896
30
0
41
1
10
-22.5
20
2.08161602870015
30
0
41
1
10
-22.5
20
2.18454587114542
30
0
41
1
10
-22.5
20
2.2882368400623
30
0
41
1
10
-22.5
20
2.39172828921559
30
0
41
1
10
-22.5
20
2.51992549648591
30
0
41
1
10
-22.5
20
2.67346525953189
30
0
41
1
10
-22.5
20
2.8262921676581
30
0
41
1
10
-22.5
20
2.97838003358396
30
0
41
1
10
-22.5
20
3.12970257053468
30
0
41
1
10
-22.5
20
3.28023687778401
30
0
41
1
10
-22.5
20
3.4299627769704
30
0
41
1
10
-22.5
20
3.57886126909131
30
0
41
1
10
-22.5
20
3.72691565105669
30
0
41
1
10
-22.5
20
3.87410976932693
30
0
41
1
10
-22.5
20
4.02043049501106
30
0
41
1
10
-22.5
20
4.16586580001649
30
0
41
1
10
-22.5
20
4.31040309161111
30
0
41
1
10
-22.5
20
4.45403157575558
30
0
41
1
10
-22.5
20
4.59674211262629
30
0
41
1
10
-22.5
20
4.73852599905979
30
0
41
1
10
-22.5
20
4.87937450907222
30
0
41
1
10
-22.5
20
5.01927995326392
30
0
41
1
10
-22.5
20
5.15823567759486
30
0
41
1
10
-22.5
20
5.29623480232564
30
0
41
1
10
-22.5
20
5.47933703035866
30
0
41
1
10
-22.5
20
5.70495651005669
30
0
41
1
10
-22.5
20
5.97220551217549
30
0
41
1
10
-22.5
20
6.23550102644131
30
0
41
1
10
-22.5
20
6.4512555331213
30
0
41
1
10
-22.5
20
6.62242827644155
30
0
41
1
10
-22.5
20
6.74956632065386
30
0
41
1
10
-22.5
20
6.87569112826711
30
0
41
1
10
-22.5
20
7.04280518235291
30
0
41
1
10
-22.5
20
7.24848505186407
30
0
41
1
10
-22.5
20
7.45073654157579
30
0
41
1
10
-22.5
20
7.61097083499584
30
0
41
1
10
-22.5
20
7.72990617143802
30
0
41
1
10
-22.5
20
7.84779993569691
30
0
41
1
10
-22.5
20
7.96465014223952
30
0
41
1
10
-22.5
20
8.08045168982594
30
0
41
1
10
-22.5
20
8.23370690743869
30
0
41
1
10
-22.5
20
8.38410353449396
30
0
41
1
10
-22.5
20
8.53310893756458
30
0
41
1
10
-22.5
20
8.68069429175796
30
0
41
1
10
-22.5
20
8.86197296792949
30
0
41
1
10
-22.5
20
9.03966368952015
30
0
41
1
10
-22.5
20
9.18004983919923
30
0
41
1
10
-22.5
20
9.31898450356377
30
0
41
1
10
-22.5
20
9.45508832781687
30
0
41
1
10
-22.5
20
9.57273011219269
30
0
41
1
10
-22.5
20
9.63944489130404
30
0
41
1
10
-22.5
20
9.70579078784203
30
0
41
1
10
-22.5
20
9.78780083934149
30
0
41
1
10
-22.5
20
9.9178935930201
30
0
41
1
10
-22.5
20
10.0451570413025
30
0
41
1
10
-22.5
20
10.1707494549495
30
0
41
1
10
-22.5
20
10.2636670923514
30
0
41
1
10
-22.5
20
10.3554481215356
30
0
41
1
10
-22.5
20
10.4460865275718
30
0
41
1
10
-22.5
20
10.5355769819029
30
0
41
1
10
-22.5
20
10.6239149454148
30
0
41
1
10
-22.5
20
10.7110949831286
30
0
41
1
10
-22.5
20
10.7971107518715
30
0
41
1
10
-22.5
20
10.881957392112
30
0
41
1
10
-22.5
20
10.9936883814227
30
0
41
1
10
-22.5
20
11.1025558247745
30
0
41
1
10
-22.5
20
11.2095312020912
30
0
41
1
10
-22.5
20
11.2884404549429
30
0
41
1
10
-22.5
20
11.3531143221947
30
0
41
1
10
-22.5
20
11.4043880916922
30
0
41
1
10
-22.5
20
11.4552554262223
30
0
41
1
10
-22.5
20
11.5179033392113
30
0
41
1
10
-22.5
20
11.59194615036
30
0
41
1
10
-22.5
20
11.6647550005754
30
0
41
1
10
-22.5
20
11.7363216027856
30
0
41
1
10
-22.5
20
11.8066390784571
30
0
41
1
10
-22.5
20
11.8988607853737
30
0
41
1
10
-22.5
20
12.0106580823312
30
0
41
1
10
-22.5
20
12.1181901660327
30
0
41
1
10
-22.5
20
12.2018541666219
30
0
41
1
10
-22.5
20
12.2837700633604
30
0
41
1
10
-22.5
20
12.3626709718699
30
0
41
1
10
-22.5
20
12.4392702770472
30
0
41
1
10
-22.5
20
12.4952790326449
30
0
41
1
10
-22.5
20
12.5499297998313
30
0
41
1
10
-22.5
20
12.6032111684974
30
0
41
1
10
-22.5
20
12.6551113810006
30
0
41
1
10
-22.5
20
12.7056201369325
30
0
41
1
10
-22.5
20
12.7547247883428
30
0
41
1
10
-22.5
20
12.8184132188765
30
0
41
1
10
-22.5
20
12.8789379874313
30
0
41
1
10
-22.5
20
12.9368537004399
30
0
41
1
10
-22.5
20
12.9787481075024
30
0
41
1
10
-22.5
20
13.0191589474766
30
0
41
1
10
-22.5
20
13.0580720783436
30
0
41
1
10
-22.5
20
13.0954724183383
30
0
41
1
10
-22.5
20
13.1433841284413
30
0
41
1
10
-22.5
20
13.1879639126742
30
0
41
1
10
-22.5
20
13.2296213566399
30
0
41
1
10
-22.5
20
13.2592104836088
30
0
41
1
10
-22.5
20
13.2871835761246
30
0
41
1
10
-22.5
20
13.3223661774289
30
0
41
1
10
-22.5
20
13.3620642251226
30
0
41
1
10
-22.5
20
13.402990048048
30
0
41
1
10
-22.5
20
13.4312436783152
30
0
41
1
10
-22.5
20
13.4503375493538
30
0
41
1
10
-22.5
20
13.4628104278487
30
0
41
1
10
-22.5
20
13.4734382711797
30
0
41
1
10
-22.5
20
13.4821928739338
30
0
41
1
10
-22.5
20
13.4890441905268
30
0
41
1
10
-22.5
20
13.4939625245411
30
0
41
1
10
-22.5
20
13.4969161903089
30
0
41
1
10
-22.5
20
13.4978716184631
30
0
41
1
10
-22.5
20
13.4970363200766
30
0
41
1
10
-22.5
20
13.4959563500466
30
0
41
1
10
-22.5
20
13.4956562809964
30
0
0
SPLINE
5
C7
100
AcDbEntity
8
SK1
62
256
6
ByLayer
370
18
48
1
60
0
100
AcDbSpline
70
4
71
3
72
30
73
26
40
0
40
0
40
0
40
0
40
0.250000000000011
40
0.250000000000011
40
0.375000000000017
40
0.375000000000017
40
0.406250000000018
40
0.406250000000018
40
0.437500000000019
40
0.437500000000019
40
0.45312500000002
40
0.45312500000002
40
0.46875000000002
40
0.46875000000002
40
0.484375000000021
40
0.484375000000021
40
0.500000000000022
40
0.500000000000022
40
0.562500000000019
40
0.562500000000019
40
0.625000000000017
40
0.625000000000017
40
0.750000000000012
40
0.750000000000012
40
1
40
1
40
1
40
1
41
1
10
-1.69999999999999
20
-2.5837250319525
30
0
41
1
10
-1.69960577308385
20
-2.48597799469368
30
0
41
1
10
-1.69767355238125
20
-2.38798982618383
30
0
41
1
10
-1.68844262802614
20
-2.24033510329085
30
0
41
1
10
-1.6845074563401
20
-2.19070814790987
30
0
41
1
10
-1.67522587914647
20
-2.12935469948886
30
0
41
1
10
-1.67312828441314
20
-2.11712975813973
30
0
41
1
10
-1.66799661065505
20
-2.09285679379497
30
0
41
1
10
-1.66501908824247
20
-2.08070007713747
30
0
41
1
10
-1.65873245221243
20
-2.06342051623659
30
0
41
1
10
-1.65636984487855
20
-2.05788078872456
30
0
41
1
10
-1.6502314389501
20
-2.04803772586055
30
0
41
1
10
-1.64627248366918
20
-2.04380832654701
30
0
41
1
10
-1.63739722305132
20
-2.04164679415919
30
0
41
1
10
-1.63308445530919
20
-2.04380258018924
30
0
41
1
10
-1.6259558268479
20
-2.05010802243771
30
0
41
1
10
-1.62290108509802
20
-2.05425244180921
30
0
41
1
10
-1.60906040432977
20
-2.07622701889977
30
0
41
1
10
-1.60160514051978
20
-2.09765684448178
30
0
41
1
10
-1.58759099418748
20
-2.14045324455242
30
0
41
1
10
-1.58147400139296
20
-2.16239311413949
30
0
41
1
10
-1.56425204899801
20
-2.22885918383594
30
0
41
1
10
-1.55431624483137
20
-2.27405720199991
30
0
41
1
10
-1.52629464539098
20
-2.41049928039393
30
0
41
1
10
-1.5101601902295
20
-2.50249360080107
30
0
41
1
10
-1.49503997793931
20
-2.59465115086957
30
0
0
SPLINE
5
C8
100
AcDbEntity
8
SK1
62
256
6
ByLayer
370
18
48
1
60
0
100
AcDbSpline
70
4
71
3
72
116
73
112
40
0
40
0
40
0
40
0
40
0.0075236717404276
40
0.0155476299884455
40
0.0235715882364636
40
0.0315955464844815
40
0.0396195047324996
40
0.0476434629805175
40
0.0556674212285355
40
0.0636913794765535
40
0.0717153377245715
40
0.0797392959725895
40
0.0957872124686255
40
0.103811170716644
40
0.111835128964661
40
0.11985908721268
40
0.127883045460698
40
0.143930961956733
40
0.151954920204751
40
0.15997887845277
40
0.168002836700788
40
0.176026794948805
40
0.184050753196824
40
0.192074711444842
40
0.208122627940877
40
0.216146586188896
40
0.224170544436913
40
0.232194502684931
40
0.240218460932949
40
0.248242419180968
40
0.256266377428985
40
0.264290335677003
40
0.272314293925021
40
0.288362210421057
40
0.296386168669076
40
0.304410126917094
40
0.320458043413129
40
0.336505959909165
40
0.344529918157183
40
0.352553876405201
40
0.360577834653219
40
0.368601792901238
40
0.376625751149255
40
0.384649709397273
40
0.388661688521282
40
0.392673667645291
40
0.400697625893309
40
0.408721584141327
40
0.416745542389345
40
0.432793458885381
40
0.440817417133399
40
0.448841375381417
40
0.456865333629435
40
0.464889291877453
40
0.472913250125471
40
0.480937208373489
40
0.488961166621508
40
0.496985124869525
40
0.505009083117543
40
0.513033041365561
40
0.529080957861597
40
0.537104916109615
40
0.545128874357633
40
0.549140853481642
40
0.553152832605651
40
0.561176790853669
40
0.577224707349705
40
0.585248665597723
40
0.593272623845741
40
0.609320540341777
40
0.625368456837813
40
0.633392415085831
40
0.641416373333849
40
0.657464289829885
40
0.665488248077903
40
0.673512206325921
40
0.681536164573939
40
0.689560122821957
40
0.697584081069975
40
0.705608039317993
40
0.721655955814029
40
0.737703872310065
40
0.745727830558083
40
0.753751788806101
40
0.761775747054119
40
0.769799705302137
40
0.785847621798173
40
0.801895538294209
40
0.817943454790245
40
0.833991371286281
40
0.842015329534299
40
0.850039287782317
40
0.858063246030335
40
0.866087204278353
40
0.874111162526371
40
0.882135120774389
40
0.890159079022407
40
0.898183037270425
40
0.906206995518443
40
0.914230953766461
40
0.922254912014479
40
0.930278870262497
40
0.938302828510515
40
0.946326786758533
40
0.954350745006551
40
0.962374703254569
40
0.970398661502587
40
0.978422619750605
40
0.986446577998623
40
0.994470536246641
40
1
40
1
40
1
40
1
41
1
10
-1.69999999999999
20
-14.0157960318775
30
0
41
1
10
-1.69999999999999
20
-14.0144803676378
30
0
41
1
10
-1.69999999999999
20
-14.0111456740434
30
0
41
1
10
-1.69999999999999
20
-14.0041924220526
30
0
41
1
10
-1.69999999999999
20
-13.9951249982352
30
0
41
1
10
-1.69999999999999
20
-13.9841238377961
30
0
41
1
10
-1.69999999999999
20
-13.9712195410175
30
0
41
1
10
-1.69999999999999
20
-13.9564420504847
30
0
41
1
10
-1.69999999999999
20
-13.9398197437578
30
0
41
1
10
-1.69999999999999
20
-13.9213794981548
30
0
41
1
10
-1.69999999999999
20
-13.9011479145568
30
0
41
1
10
-1.69999999999999
20
-13.8718187984145
30
0
41
1
10
-1.69999999999999
20
-13.8389980176944
30
0
41
1
10
-1.69999999999999
20
-13.8027899277569
30
0
41
1
10
-1.69999999999999
20
-13.7739560268625
30
0
41
1
10
-1.69999999999999
20
-13.7434661079967
30
0
41
1
10
-1.69999999999999
20
-13.7006353167884
30
0
41
1
10
-1.69999999999999
20
-13.6545611570253
30
0
41
1
10
-1.69999999999999
20
-13.6053356175566
30
0
41
1
10
-1.69999999999999
20
-13.5668499598694
30
0
41
1
10
-1.69999999999999
20
-13.5268172136993
30
0
41
1
10
-1.69999999999999
20
-13.4852529409442
30
0
41
1
10
-1.69999999999999
20
-13.4421723383994
30
0
41
1
10
-1.69999999999999
20
-13.3827344481881
30
0
41
1
10
-1.69999999999999
20
-13.3203101272292
30
0
41
1
10
-1.69999999999999
20
-13.2549799687684
30
0
41
1
10
-1.69999999999999
20
-13.2045321176789
30
0
41
1
10
-1.69999999999999
20
-13.1526505331688
30
0
41
1
10
-1.69999999999999
20
-13.0993474417035
30
0
41
1
10
-1.69999999999999
20
-13.0446338377524
30
0
41
1
10
-1.69999999999999
20
-12.9885221046098
30
0
41
1
10
-1.69999999999999
20
-12.9310230820619
30
0
41
1
10
-1.69999999999999
20
-12.8525264302737
30
0
41
1
10
-1.69999999999999
20
-12.7712834981639
30
0
41
1
10
-1.69999999999999
20
-12.687362440577
30
0
41
1
10
-1.69999999999999
20
-12.6016599065257
30
0
41
1
10
-1.69999999999999
20
-12.4912006631364
30
0
41
1
10
-1.69999999999999
20
-12.3763763795169
30
0
41
1
10
-1.69999999999999
20
-12.2819407102379
30
0
41
1
10
-1.69999999999999
20
-12.2098248313331
30
0
41
1
10
-1.69999999999999
20
-12.1364317035572
30
0
41
1
10
-1.69999999999999
20
-12.0617686735772
30
0
41
1
10
-1.69999999999999
20
-11.9858436943514
30
0
41
1
10
-1.69999999999999
20
-11.9215236271769
30
0
41
1
10
-1.69999999999999
20
-11.869448828233
30
0
41
1
10
-1.69999999999999
20
-11.8169591619061
30
0
41
1
10
-1.69999999999999
20
-11.7505641463283
30
0
41
1
10
-1.69999999999999
20
-11.6696587897978
30
0
41
1
10
-1.69999999999999
20
-11.5601529310588
30
0
41
1
10
-1.69999999999999
20
-11.4481829097131
30
0
41
1
10
-1.69999999999999
20
-11.3338110691597
30
0
41
1
10
-1.69999999999999
20
-11.2468221981049
30
0
41
1
10
-1.69999999999999
20
-11.1586337774266
30
0
41
1
10
-1.69999999999999
20
-11.069250952524
30
0
41
1
10
-1.69999999999999
20
-10.9786794570574
30
0
41
1
10
-1.69999999999999
20
-10.8869237943964
30
0
41
1
10
-1.69999999999999
20
-10.7939888545435
30
0
41
1
10
-1.69999999999999
20
-10.6998796625668
30
0
41
1
10
-1.69999999999999
20
-10.6046008653873
30
0
41
1
10
-1.69999999999999
20
-10.4760157822056
30
0
41
1
10
-1.69999999999999
20
-10.3450861597474
30
0
41
1
10
-1.69999999999999
20
-10.2118742978003
30
0
41
1
10
-1.69999999999999
20
-10.127650582945
30
0
41
1
10
-1.69999999999999
20
-10.059706595653
30
0
41
1
10
-1.69999999999999
20
-9.99138145148612
30
0
41
1
10
-1.69999999999999
20
-9.87081045044334
30
0
41
1
10
-1.69999999999999
20
-9.73071863089592
30
0
41
1
10
-1.69999999999999
20
-9.58839009925038
30
0
41
1
10
-1.69999999999999
20
-9.44455857133374
30
0
41
1
10
-1.69999999999999
20
-9.26193699842017
30
0
41
1
10
-1.69999999999999
20
-9.07558728630886
30
0
41
1
10
-1.69999999999999
20
-8.92429762219672
30
0
41
1
10
-1.69999999999999
20
-8.77152769372714
30
0
41
1
10
-1.69999999999999
20
-8.61651163422607
30
0
41
1
10
-1.69999999999999
20
-8.45931946186533
30
0
41
1
10
-1.69999999999999
20
-8.34031608257325
30
0
41
1
10
-1.69999999999999
20
-8.22021382021134
30
0
41
1
10
-1.69999999999999
20
-8.09901466976936
30
0
41
1
10
-1.69999999999999
20
-7.97672004102665
30
0
41
1
10
-1.69999999999999
20
-7.81221412115067
30
0
41
1
10
-1.69999999999999
20
-7.60382757721297
30
0
41
1
10
-1.69999999999999
20
-7.391814483107
30
0
41
1
10
-1.69999999999999
20
-7.22005471809891
30
0
41
1
10
-1.69999999999999
20
-7.0901422748378
30
0
41
1
10
-1.69999999999999
20
-6.95914718913937
30
0
41
1
10
-1.69999999999999
20
-6.78305839594086
30
0
41
1
10
-1.69999999999999
20
-6.56021849497904
30
0
41
1
10
-1.69999999999999
20
-6.28851702131561
30
0
41
1
10
-1.69999999999999
20
-6.01251450148573
30
0
41
1
10
-1.69999999999999
20
-5.77892152593586
30
0
41
1
10
-1.69999999999999
20
-5.58993219435266
30
0
41
1
10
-1.69999999999999
20
-5.44710902267545
30
0
41
1
10
-1.69999999999999
20
-5.30321731736851
30
0
41
1
10
-1.69999999999999
20
-5.15825863689906
30
0
41
1
10
-1.69999999999999
20
-5.01223421717728
30
0
41
1
10
-1.69999999999999
20
-4.86514572624662
30
0
41
1
10
-1.69999999999999
20
-4.7169946256985
30
0
41
1
10
-1.69999999999999
20
-4.56778315161375
30
0
41
1
10
-1.69999999999999
20
-4.41751369191317
30
0
41
1
10
-1.69999999999999
20
-4.26618881241484
30
0
41
1
10
-1.69999999999999
20
-4.11381118090259
30
0
41
1
10
-1.69999999999999
20
-3.9603838288908
30
0
41
1
10
-1.69999999999999
20
-3.80591068333541
30
0
41
1
10
-1.69999999999999
20
-3.65039703338328
30
0
41
1
10
-1.69999999999999
20
-3.49384788295134
30
0
41
1
10
-1.69999999999999
20
-3.33626946559076
30
0
41
1
10
-1.69999999999999
20
-3.17766896347746
30
0
41
1
10
-1.69999999999999
20
-3.01805529196176
30
0
41
1
10
-1.69999999999999
20
-2.85743848960826
30
0
41
1
10
-1.69999999999999
20
-2.71257747842986
30
0
41
1
10
-1.69999999999999
20
-2.62111400924692
30
0
41
1
10
-1.69999999999999
20
-2.5837250319525
30
0
0
SPLINE
5
C9
100
AcDbEntity
8
SK1
62
256
6
ByLayer
370
18
48
1
60
0
100
AcDbSpline
70
4
71
2
72
6
73
3
40
0
40
0
40
0
40
1
40
1
40
1
41
1
10
-0.394976888875277
20
13.740379899128
30
0
41
1
10
-0.945008433407281
20
13.7266611372792
30
0
41
1
10
-1.49503997793931
20
13.7129423752897
30
0
0
SPLINE
5
CA
100
AcDbEntity
8
SK1
62
256
6
ByLayer
370
18
48
1
60
0
100
AcDbSpline
70
4
71
2
72
6
73
3
40
0
40
0
40
0
40
1
40
1
40
1
41
1
10
-1.49503997793931
20
-13.7129410868425
30
0
41
1
10
-0.945008433407281
20
-13.7266599565288
30
0
41
1
10
-0.394976888875277
20
-13.7403788260787
30
0
0
SPLINE
5
CB
100
AcDbEntity
8
SK1
62
256
6
ByLayer
370
18
48
1
60
0
100
AcDbSpline
70
4
71
2
72
6
73
3
40
0
40
0
40
0
40
1
40
1
40
1
41
1
10
-22.5
20
13.4970852847173
30
0
41
1
10
-23.2499999989318
20
13.0640908004416
30
0
41
1
10
-24
20
12.6310961283886
30
0
0
SPLINE
5
CC
100
AcDbEntity
8
SK1
62
256
6
ByLayer
370
18
48
1
60
0
100
AcDbSpline
70
4
71
2
72
6
73
3
40
0
40
0
40
0
40
1
40
1
40
1
41
1
10
-24
20
-12.6310964932104
30
0
41
1
10
-23.2499999989322
20
-13.0640911753538
30
0
41
1
10
-22.5
20
-13.4970856697526
30
0
0
SPLINE
5
CD
100
AcDbEntity
8
SK1
62
256
6
ByLayer
370
18
48
1
60
0
100
AcDbSpline
70
4
71
3
72
13
73
9
40
0
40
0
40
0
40
0
40
0.239457531275261
40
0.368361583394592
40
0.500001014452615
40
0.6316402765553
40
0.760543862982304
40
1
40
1
40
1
40
1
41
1
10
-1.49503997793931
20
13.8251858293361
30
0
41
1
10
-1.52111030874494
20
13.8247841901529
30
0
41
1
10
-1.55884064236801
20
13.8309564462264
30
0
41
1
10
-1.60627712752338
20
13.8540002498916
30
0
41
1
10
-1.63886378681735
20
13.8791676209636
30
0
41
1
10
-1.66563592205679
20
13.9104491756452
30
0
41
1
10
-1.69103284110358
20
13.9566683505561
30
0
41
1
10
-1.69909198645308
20
13.9940409356568
30
0
41
1
10
-1.69999999999999
20
14.0200984122732
30
0
0
SPLINE
5
CE
100
AcDbEntity
8
SK1
62
256
6
ByLayer
370
18
48
1
60
0
100
AcDbSpline
70
4
71
3
72
13
73
9
40
0
40
0
40
0
40
0
40
0.239456136997455
40
0.368359723417182
40
0.499998985516747
40
0.631638416576586
40
0.760542468702441
40
1
40
1
40
1
40
1
41
1
10
-1.69999999999999
20
-14.0200984156386
30
0
41
1
10
-1.6990919864528
20
-13.9940409390257
30
0
41
1
10
-1.69103284110332
20
-13.9566683539303
30
0
41
1
10
-1.66563592205637
20
-13.9104491790265
30
0
41
1
10
-1.63886378681673
20
-13.8791676243503
30
0
41
1
10
-1.60627712752265
20
-13.8540002532836
30
0
41
1
10
-1.5588406423667
20
-13.830956449625
30
0
41
1
10
-1.52111030874428
20
-13.8247841935567
30
0
41
1
10
-1.49503997793931
20
-13.8251858327438
30
0
0
SPLINE
5
CF
100
AcDbEntity
8
SK1
62
256
6
ByLayer
370
18
48
1
60
0
100
AcDbSpline
70
4
71
2
72
6
73
3
40
0
40
0
40
0
40
1
40
1
40
1
41
1
10
-1.69999999999999
20
14.0157970602974
30
0
41
1
10
-12.099999999963
20
13.7545958471854
30
0
41
1
10
-22.5
20
13.493394380475
30
0
0
SPLINE
5
D0
100
AcDbEntity
8
SK1
62
256
6
ByLayer
370
18
48
1
60
0
100
AcDbSpline
70
4
71
2
72
6
73
3
40
0
40
0
40
0
40
1
40
1
40
1
41
1
10
-22.5
20
-13.4933966698402
30
0
41
1
10
-12.0999999999449
20
-13.7545973909208
30
0
41
1
10
-1.69999999999999
20
-14.0157977997179
30
0
0
LINE
5
73
100
AcDbEntity
8
SK3
62
256
6
ByLayer
370
18
48
0.05
60
0
100
AcDbLine
10
7
20
8.5
30
0
11
7
21
-8.5
31
0
39
0
210
0
220
0
230
1
0
LINE
5
75
100
AcDbEntity
8
SK3
62
256
6
ByLayer
370
18
48
0.05
60
0
100
AcDbLine
10
8.5
20
-10
30
0
11
58
21
-10
31
0
39
0
210
0
220
0
230
1
0
LINE
5
76
100
AcDbEntity
8
4
62
256
6
ByLayer
370
18
48
0.05
60
0
100
AcDbLine
10
58
20
0
30
0
11
0
21
0
31
0
39
0
210
0
220
0
230
1
0
LINE
5
78
100
AcDbEntity
8
80
62
256
6
ByLayer
370
18
48
1
60
0
100
AcDbLine
10
0
20
0
30
0
11
-10.875929
21
0
31
0
39
0
210
0
220
0
230
1
0
LINE
5
79
100
AcDbEntity
8
81
62
256
6
ByLayer
370
18
48
1
60
0
100
AcDbLine
10
58
20
0
30
0
11
62.742527
21
0
31
0
39
0
210
0
220
0
230
1
0
LINE
5
7A
100
AcDbEntity
8
1
62
256
6
ByLayer
370
18
48
1
60
0
100
AcDbLine
10
7
20
-28.5
30
0
11
19.570016
21
-28.5
31
0
39
0
210
0
220
0
230
1
0
LINE
5
7C
100
AcDbEntity
8
1
62
256
6
ByLayer
370
18
48
1
60
0
100
AcDbLine
10
19.570016
20
28.5
30
0
11
7
21
28.5
31
0
39
0
210
0
220
0
230
1
0
LINE
5
7D
100
AcDbEntity
8
1
62
256
6
ByLayer
370
18
48
1
60
0
100
AcDbLine
10
20.509708
20
-27.84202
30
0
11
22.760515
21
-21.65798
31
0
39
0
210
0
220
0
230
1
0
LINE
5
7E
100
AcDbEntity
8
1
62
256
6
ByLayer
370
18
48
1
60
0
100
AcDbLine
10
22.760515
20
21.65798
30
0
11
20.509708
21
27.84202
31
0
39
0
210
0
220
0
230
1
0
LINE
5
7F
100
AcDbEntity
8
1
62
256
6
ByLayer
370
18
48
1
60
0
100
AcDbLine
10
23.700208
20
-21
30
0
11
40.776748
21
-21
31
0
39
0
210
0
220
0
230
1
0
LINE
5
80
100
AcDbEntity
8
1
62
256
6
ByLayer
370
18
48
1
60
0
100
AcDbLine
10
40.776748
20
21
30
0
11
23.700208
21
21
31
0
39
0
210
0
220
0
230
1
0
LINE
5
81
100
AcDbEntity
8
1
62
256
6
ByLayer
370
18
48
1
60
0
100
AcDbLine
10
43.214134
20
-20.850923
30
0
11
56.946243
21
-19.164832
31
0
39
0
210
0
220
0
230
1
0
LINE
5
82
100
AcDbEntity
8
1
62
256
6
ByLayer
370
18
48
1
60
0
100
AcDbLine
10
56.946243
20
19.164832
30
0
11
43.214134
21
20.850923
31
0
39
0
210
0
220
0
230
1
0
LINE
5
83
100
AcDbEntity
8
1
62
256
6
ByLayer
370
18
48
1
60
0
100
AcDbLine
10
0.3
20
20
30
0
11
0
21
19.7
31
0
39
0
210
0
220
0
230
1
0
LINE
5
84
100
AcDbEntity
8
1
62
256
6
ByLayer
370
18
48
1
60
0
100
AcDbLine
10
0
20
-19.7
30
0
11
0.3
21
-20
31
0
39
0
210
0
220
0
230
1
0
LINE
5
85
100
AcDbEntity
8
SK3
62
256
6
ByLayer
370
18
48
0.05
60
0
100
AcDbLine
10
58
20
10
30
0
11
8.5
21
10
31
0
39
0
210
0
220
0
230
1
0
LINE
5
86
100
AcDbEntity
8
SK3
62
256
6
ByLayer
370
18
48
0.05
60
0
100
AcDbLine
10
8.5
20
10
30
0
11
7
21
8.5
31
0
39
0
210
0
220
0
230
1
0
LINE
5
87
100
AcDbEntity
8
SK3
62
256
6
ByLayer
370
18
48
0.05
60
0
100
AcDbLine
10
7
20
-8.5
30
0
11
8.5
21
-10
31
0
39
0
210
0
220
0
230
1
0
LINE
5
88
100
AcDbEntity
8
SK3
62
256
6
ByLayer
370
18
48
0.05
60
0
100
AcDbLine
10
8.5
20
-10
30
0
11
8.5
21
10
31
0
39
0
210
0
220
0
230
1
0
LINE
5
89
100
AcDbEntity
8
SK4
62
256
6
ByLayer
370
18
48
0.05
60
0
100
AcDbLine
10
-34
20
0
30
0
11
68
21
0
31
0
39
0
210
0
220
0
230
1
0
LINE
5
8B
100
AcDbEntity
8
1
62
256
6
ByLayer
370
13
48
1
60
0
100
AcDbLine
10
7
20
0
30
0
11
7
21
-28.5
31
0
39
0
210
0
220
0
230
1
0
LINE
5
8C
100
AcDbEntity
8
1
62
256
6
ByLayer
370
13
48
1
60
0
100
AcDbLine
10
7
20
28.5
30
0
11
7
21
0
31
0
39
0
210
0
220
0
230
1
0
LINE
5
8D
100
AcDbEntity
8
1
62
256
6
ByLayer
370
18
48
1
60
0
100
AcDbLine
10
6
20
27.5
30
0
11
6
21
-27.5
31
0
39
0
210
0
220
0
230
1
0
LINE
5
8E
100
AcDbEntity
8
1
62
256
6
ByLayer
370
13
48
1
60
0
100
AcDbLine
10
19.570016
20
28.5
30
0
11
19.570016
21
-28.5
31
0
39
0
210
0
220
0
230
1
0
LINE
5
8F
100
AcDbEntity
8
1
62
256
6
ByLayer
370
13
48
1
60
0
100
AcDbLine
10
20.509708
20
27.84202
30
0
11
20.509708
21
-27.84202
31
0
39
0
210
0
220
0
230
1
0
LINE
5
90
100
AcDbEntity
8
1
62
256
6
ByLayer
370
13
48
1
60
0
100
AcDbLine
10
22.760515
20
-21.65798
30
0
11
22.760515
21
21.65798
31
0
39
0
210
0
220
0
230
1
0
LINE
5
91
100
AcDbEntity
8
1
62
256
6
ByLayer
370
13
48
1
60
0
100
AcDbLine
10
23.700208
20
-21
30
0
11
23.700208
21
0
31
0
39
0
210
0
220
0
230
1
0
LINE
5
92
100
AcDbEntity
8
1
62
256
6
ByLayer
370
13
48
1
60
0
100
AcDbLine
10
23.700208
20
0
30
0
11
23.700208
21
21
31
0
39
0
210
0
220
0
230
1
0
LINE
5
93
100
AcDbEntity
8
1
62
256
6
ByLayer
370
13
48
1
60
0
100
AcDbLine
10
40.776748
20
21
30
0
11
40.776748
21
-21
31
0
39
0
210
0
220
0
230
1
0
LINE
5
94
100
AcDbEntity
8
1
62
256
6
ByLayer
370
13
48
1
60
0
100
AcDbLine
10
43.214134
20
0
30
0
11
43.214134
21
-20.850923
31
0
39
0
210
0
220
0
230
1
0
LINE
5
95
100
AcDbEntity
8
1
62
256
6
ByLayer
370
13
48
1
60
0
100
AcDbLine
10
43.214134
20
20.850923
30
0
11
43.214134
21
0
31
0
39
0
210
0
220
0
230
1
0
LINE
5
96
100
AcDbEntity
8
1
62
256
6
ByLayer
370
13
48
1
60
0
100
AcDbLine
10
5
20
20
30
0
11
5
21
-20
31
0
39
0
210
0
220
0
230
1
0
LINE
5
97
100
AcDbEntity
8
1
62
256
6
ByLayer
370
13
48
1
60
0
100
AcDbLine
10
56.946243
20
-19.164832
30
0
11
56.946243
21
19.164832
31
0
39
0
210
0
220
0
230
1
0
LINE
5
98
100
AcDbEntity
8
SK1
62
256
6
ByLayer
370
18
48
1
60
0
100
AcDbLine
10
-0.2
20
5.703176
30
0
11
-0.2
21
14.083485
31
0
39
0
210
0
220
0
230
1
0
LINE
5
9A
100
AcDbEntity
8
1
62
256
6
ByLayer
370
18
48
1
60
0
100
AcDbLine
10
58
20
-17.973777
30
0
11
58
21
17.973777
31
0
39
0
210
0
220
0
230
1
0
LINE
5
9B
100
AcDbEntity
8
SK1
62
256
6
ByLayer
370
13
48
1
60
0
100
AcDbLine
10
-1.307107
20
-3.627816
30
0
11
-1.307107
21
3.627817
31
0
39
0
210
0
220
0
230
1
0
LINE
5
9C
100
AcDbEntity
8
1
62
256
6
ByLayer
370
18
48
1
60
0
100
AcDbLine
10
0.3
20
-20
30
0
11
0.3
21
20
31
0
39
0
210
0
220
0
230
1
0
LINE
5
9D
100
AcDbEntity
8
1
62
256
6
ByLayer
370
18
48
1
60
0
100
AcDbLine
10
0
20
-19.7
30
0
11
0
21
19.7
31
0
39
0
210
0
220
0
230
1
0
LINE
5
9E
100
AcDbEntity
8
SK1
62
256
6
ByLayer
370
18
48
1
60
0
100
AcDbLine
10
-0.2
20
-14.083485
30
0
11
-0.2
21
-5.703176
31
0
39
0
210
0
220
0
230
1
0
LINE
5
9F
100
AcDbEntity
8
1
62
256
6
ByLayer
370
18
48
1
60
0
100
AcDbLine
10
9.201785
20
-18.104101
30
0
11
17.391785
21
-18.104101
31
0
39
0
210
0
220
0
230
1
0
LINE
5
A0
100
AcDbEntity
8
1
62
256
6
ByLayer
370
18
48
1
60
0
100
AcDbLine
10
10.063377
20
-17.199101
30
0
11
16.552229
21
-17.199101
31
0
39
0
210
0
220
0
230
1
0
LINE
5
A1
100
AcDbEntity
8
1
62
256
6
ByLayer
370
18
48
1
60
0
100
AcDbLine
10
5
20
20
30
0
11
0.3
21
20
31
0
39
0
210
0
220
0
230
1
0
LINE
5
A2
100
AcDbEntity
8
1
62
256
6
ByLayer
370
18
48
1
60
0
100
AcDbLine
10
0.3
20
-20
30
0
11
5
21
-20
31
0
39
0
210
0
220
0
230
1
0
MTEXT
5
D1
100
AcDbEntity
8
SK6
62
256
6
ByLayer
370
18
48
1
60
0
100
AcDbMText
10
-28.184211
20
27.375
30
0
210
0
220
0
230
1
1
\W0.2969; 
40
3.5
41
0
44
1.084337
50
0
71
7
72
5
7
iso_b_vert
0
MTEXT
5
D5
100
AcDbEntity
8
SK6
62
256
6
ByLayer
370
18
48
1
60
0
100
AcDbMText
10
-28.184211
20
27.375
30
0
210
0
220
0
230
1
1
\W0.2969; 
40
3.5
41
0
44
1.084337
50
0
71
7
72
5
7
iso_b_vert
0
MTEXT
5
D6
100
AcDbEntity
8
SK6
62
256
6
ByLayer
370
18
48
1
60
0
100
AcDbMText
10
-7.125
20
-34.375
30
0
210
0
220
0
230
1
1
\W0.7336;930-C4-T-20-058
40
3.5
41
0
44
1.084337
50
0
71
7
72
5
7
iso_b_vert
0
DIMENSION
5
E0
100
AcDbEntity
8
SK2
62
256
6
ByLayer
370
13
48
1
60
0
100
AcDbDimension
2
DimnDraft3D1
10
58
20
56.6
30
0
11
29.311842
21
56.6
31
0
70
32
71
5
72
1
41
1
210
0
220
0
230
1
3
Standard
100
AcDbAlignedDimension
13
6
23
30.0875
33
0
14
58
24
11.5875
34
0
50
0
100
AcDbRotatedDimension
1001
ACAD
1000
DSTYLE
1002
{
1070
   279
1070
     0
1070
   172
1070
     1
1070
   173
1070
     1
1070
   340
1005
D2
1070
   271
1070
     1
1070
   272
1070
     2
1070
    77
1070
     1
1070
    73
1070
     0
1070
   171
1070
     3
1070
   274
1070
     4
1070
   177
1070
     2
1070
   176
1070
     2
1070
   178
1070
     2
1070
    78
1070
     8
1070
    48
1040
-0.005
1070
    41
1041
4.5
1070
   147
1041
2.25
1070
    42
1041
1.5875
1070
    44
1041
2.0
1070
   140
1041
4.5
1070
   343
1005
0
1070
   344
1005
0
1002
}
0
DIMENSION
5
EB
100
AcDbEntity
8
SK2
62
256
6
ByLayer
370
13
48
1
60
0
100
AcDbDimension
2
DimnDraft3D2
10
-54.1
20
20
30
0
11
-55.475
21
1.575
31
0
70
33
71
5
72
1
41
1
210
0
220
0
230
1
3
Standard
100
AcDbAlignedDimension
13
-1.5875
23
-20
33
0
14
-1.5875
24
20
34
0
1001
ACAD
1000
DSTYLE
1002
{
1070
   279
1070
     0
1070
    74
1070
     0
1070
   173
1070
     1
1070
   340
1005
D2
1070
   271
1070
     0
1070
   272
1070
     2
1070
    77
1070
     1
1070
    73
1070
     0
1070
   171
1070
     3
1070
   274
1070
     4
1070
   177
1070
     2
1070
   176
1070
     2
1070
   178
1070
     2
1070
    78
1070
     8
1070
    48
1040
-0.005
1070
    41
1041
4.5
1070
   147
1041
2.25
1070
    42
1041
1.5875
1070
    44
1041
2.0
1070
   140
1041
4.5
1070
   343
1005
0
1070
   344
1005
0
1002
}
0
DIMENSION
5
F6
100
AcDbEntity
8
SK2
62
256
6
ByLayer
370
13
48
1
60
0
100
AcDbDimension
2
DimnDraft3D3
10
-66.1
20
28.5
30
0
11
-67.475
21
1.811842
31
0
70
33
71
5
72
1
41
1
210
0
220
0
230
1
3
Standard
100
AcDbAlignedDimension
13
4.4125
23
-28.5
33
0
14
4.4125
24
28.5
34
0
1001
ACAD
1000
DSTYLE
1002
{
1070
   279
1070
     0
1070
    74
1070
     0
1070
   173
1070
     1
1070
   340
1005
D2
1070
   271
1070
     0
1070
   272
1070
     2
1070
    77
1070
     1
1070
    73
1070
     0
1070
   171
1070
     3
1070
   274
1070
     4
1070
   177
1070
     2
1070
   176
1070
     2
1070
   178
1070
     2
1070
    78
1070
     8
1070
    48
1040
-0.005
1070
    41
1041
3.5
1070
   147
1041
2.25
1070
    42
1041
1.5875
1070
    44
1041
2.0
1070
   140
1041
4.5
1070
   343
1005
0
1070
   344
1005
0
1002
}
0
DIMENSION
5
101
100
AcDbEntity
8
2
62
256
6
ByLayer
370
13
48
1
60
0
100
AcDbDimension
2
DimnDraft3D4
10
58
20
67.6
30
0
11
26.311842
21
67.6
31
0
70
32
71
5
72
1
41
1
210
0
220
0
230
1
3
Standard
100
AcDbAlignedDimension
13
0
23
21.5875
33
0
14
58
24
22.5875
34
0
50
0
100
AcDbRotatedDimension
1001
ACAD
1000
DSTYLE
1002
{
1070
   279
1070
     0
1070
   172
1070
     1
1070
   173
1070
     1
1070
   340
1005
D2
1070
   271
1070
     1
1070
   272
1070
     2
1070
    77
1070
     1
1070
    73
1070
     0
1070
   171
1070
     3
1070
   274
1070
     4
1070
   177
1070
     2
1070
   176
1070
     2
1070
   178
1070
     2
1070
    78
1070
     8
1070
    48
1040
-0.005
1070
    41
1041
4.5
1070
   147
1041
2.25
1070
    42
1041
1.5875
1070
    44
1041
2.0
1070
   140
1041
4.5
1070
   343
1005
0
1070
   344
1005
0
1002
}
0
DIMENSION
5
10B
100
AcDbEntity
8
SK2
62
256
6
ByLayer
370
13
48
1
60
0
100
AcDbDimension
2
DimnDraft3D5
10
23
20
47.6
30
0
11
37.811842
21
47.6
31
0
70
32
71
5
72
1
41
1
210
0
220
0
230
1
3
Standard
100
AcDbAlignedDimension
13
58
23
22.5875
33
0
14
23
24
22.5875
34
0
50
0
100
AcDbRotatedDimension
1001
ACAD
1000
DSTYLE
1002
{
1070
   279
1070
     0
1070
   172
1070
     1
1070
   173
1070
     1
1070
   340
1005
D2
1070
   271
1070
     1
1070
   272
1070
     2
1070
    77
1070
     1
1070
    73
1070
     0
1070
   171
1070
     3
1070
   274
1070
     4
1070
   177
1070
     2
1070
   176
1070
     2
1070
   178
1070
     2
1070
    78
1070
     8
1070
    48
1040
-0.005
1070
    41
1041
4.5
1070
   147
1041
2.25
1070
    42
1041
1.5875
1070
    44
1041
2.0
1070
   140
1041
4.5
1070
   343
1005
0
1070
   344
1005
0
1002
}
0
DIMENSION
5
115
100
AcDbEntity
8
SK2
62
256
6
ByLayer
370
13
48
1
60
0
100
AcDbDimension
2
DimnDraft3D6
10
-24
20
67.6
30
0
11
-14.925
21
67.6
31
0
70
32
71
5
72
1
41
1
210
0
220
0
230
1
3
Standard
100
AcDbAlignedDimension
13
0
23
21.5875
33
0
14
-24
24
15.9875
34
0
50
0
100
AcDbRotatedDimension
1001
ACAD
1000
DSTYLE
1002
{
1070
   279
1070
     0
1070
   172
1070
     1
1070
   173
1070
     1
1070
   340
1005
D2
1070
   271
1070
     1
1070
   272
1070
     2
1070
    77
1070
     1
1070
    73
1070
     0
1070
   171
1070
     3
1070
   274
1070
     4
1070
   177
1070
     2
1070
   176
1070
     2
1070
   178
1070
     2
1070
    78
1070
     8
1070
    48
1040
-0.005
1070
    41
1041
4.5
1070
   147
1041
2.25
1070
    42
1041
1.5875
1070
    44
1041
2.0
1070
   140
1041
4.5
1070
   343
1005
0
1070
   344
1005
0
1002
}
0
DIMENSION
5
11F
100
AcDbEntity
8
SK2
62
256
6
ByLayer
370
13
48
1
60
0
100
AcDbDimension
2
DimnDraft3D7
10
58
20
-57.1
30
0
11
12.498684
21
-57.1
31
0
70
32
71
5
72
1
41
1
210
0
220
0
230
1
3
Standard
100
AcDbAlignedDimension
13
7
23
-11.5875
33
0
14
58
24
-11.5875
34
0
50
0
100
AcDbRotatedDimension
1001
ACAD
1000
DSTYLE
1002
{
1070
   279
1070
     0
1070
   172
1070
     1
1070
   173
1070
     1
1070
   340
1005
D2
1070
   271
1070
     0
1070
   272
1070
     2
1070
    77
1070
     1
1070
    73
1070
     0
1070
   171
1070
     3
1070
   274
1070
     4
1070
   177
1070
     2
1070
   176
1070
     2
1070
   178
1070
     2
1070
    78
1070
     8
1070
    48
1040
-0.005
1070
    41
1041
4.5
1070
   147
1041
2.25
1070
    42
1041
1.5875
1070
    44
1041
2.0
1070
   140
1041
4.5
1070
   343
1005
0
1070
   344
1005
0
1002
}
0
DIMENSION
5
12A
100
AcDbEntity
8
SK2
62
256
6
ByLayer
370
13
48
1
60
0
100
AcDbDimension
2
DimnDraft3D8
10
132.25
20
-21
30
0
11
132.25
21
-8.175
31
0
70
32
71
5
72
1
41
1
210
0
220
0
230
1
3
Standard
100
AcDbAlignedDimension
13
43.5875
23
21
33
0
14
43.5875
24
-21
34
0
50
90
100
AcDbRotatedDimension
1001
ACAD
1000
DSTYLE
1002
{
1070
    74
1070
     0
1070
   279
1070
     0
1070
   172
1070
     1
1070
   173
1070
     1
1070
   340
1005
D2
1070
   271
1070
     1
1070
   272
1070
     2
1070
    77
1070
     1
1070
    73
1070
     0
1070
   171
1070
     3
1070
   274
1070
     4
1070
   177
1070
     2
1070
   176
1070
     2
1070
   178
1070
     2
1070
    78
1070
     8
1070
    48
1040
-0.005
1070
    41
1041
4.5
1070
   147
1041
2.25
1070
    42
1041
1.5875
1070
    44
1041
2.0
1070
   140
1041
4.5
1070
   343
1005
0
1070
   344
1005
0
1002
}
0
DIMENSION
5
135
100
AcDbEntity
8
SK2
62
256
6
ByLayer
370
13
48
1
60
0
100
AcDbDimension
2
DimnDraft3D9
10
110.25
20
-10
30
0
11
110.25
21
-7.938158
31
0
70
32
71
5
72
1
41
1
210
0
220
0
230
1
3
Standard
100
AcDbAlignedDimension
13
59.5875
23
10
33
0
14
59.5875
24
-10
34
0
50
90
100
AcDbRotatedDimension
1001
ACAD
1000
DSTYLE
1002
{
1070
    74
1070
     0
1070
   279
1070
     0
1070
   172
1070
     1
1070
   173
1070
     1
1070
   340
1005
D2
1070
   271
1070
     1
1070
   272
1070
     2
1070
    77
1070
     1
1070
    73
1070
     0
1070
   171
1070
     3
1070
   274
1070
     4
1070
   177
1070
     2
1070
   176
1070
     2
1070
   178
1070
     2
1070
    78
1070
     8
1070
    48
1040
-0.005
1070
    41
1041
4.5
1070
   147
1041
2.25
1070
    42
1041
1.5875
1070
    44
1041
2.0
1070
   140
1041
4.5
1070
   343
1005
0
1070
   344
1005
0
1002
}
0
ENDSEC
0
SECTION
2
OBJECTS
0
DICTIONARY
5
1a1
330
0
100
AcDbDictionary
280
0
281
1
3
ACAD_GROUP
350
1a2
3
ACAD_MLINESTYLE
350
1a3
0
DICTIONARY
5
1a2
330
0
100
AcDbDictionary
280
0
281
1
0
DICTIONARY
5
1a3
330
0
100
AcDbDictionary
280
0
281
1
3
Standard
350
18
0
MLINESTYLE
5
18
330
1a3
100
AcDbMlineStyle
2
Standard
70
0
3

62
256
51
90
52
90
71
2
49
-0.5
62
256
6
ByLayer
49
0.5
62
256
6
ByLayer
0
RASTERVARIABLES
5
18e
330

100
AcDbRasterVariables
90
0
70
1
71
1
72
1
0
ENDSEC
0
EOF
