0
SECTION
2
HEADER
9
$ACADVER
1
AC1015
9
$DWGCODEPAGE
3
ANSI_1252
9
$HANDSEED
5
171
9
$ANGBASE
50
0
9
$ANGDIR
70
0
9
$ATTMODE
70
1
9
$AUNITS
70
0
9
$AUPREC
70
0
9
$CECOLOR
62
256
9
$CELTSCALE
40
1
9
$CELTYPE
6
ByLayer
9
$CELWEIGHT
370
-1
9
$CLAYER
8
0
9
$CMLJUST
70
0
9
$CMLSCALE
40
1
9
$CMLSTYLE
2
Standard
9
$DIMSTYLE
2
Standard
9
$TEXTSIZE
40
0.2
9
$TEXTSTYLE
7
Standard
9
$LUNITS
70
2
9
$LUPREC
70
4
9
$EXTNAMES
290
1
9
$INSUNITS
70
4
9
$LTSCALE
40
1
9
$LWDISPLAY
290
0
9
$PDMODE
70
0
9
$PDSIZE
40
0
9
$PLINEGEN
70
0
0
ENDSEC
0
SECTION
2
CLASSES
0
CLASS
1
RASTERVARIABLES
2
AcDbRasterVariables
3
ISM
90
0
280
0
281
0
0
ENDSEC
0
SECTION
2
TABLES
0
TABLE
2
VPORT
5
167
100
AcDbSymbolTable
0
VPORT
5
1
100
AcDbSymbolTableRecord
100
AcDbViewportTableRecord
2
*Active
70
0
10
0
20
0
11
1
21
1
12
-1
22
1
13
0
23
0
14
0.5
24
0.5
15
10
25
10
16
0
26
0
36
1
17
0
27
0
37
0
0
ENDTAB
0
TABLE
2
LTYPE
5
168
100
AcDbSymbolTable
0
LTYPE
5
14
100
AcDbSymbolTableRecord
100
AcDbLinetypeTableRecord
70
0
2
ByBlock
3

72
65
73
0
40
0
0
LTYPE
5
15
100
AcDbSymbolTableRecord
100
AcDbLinetypeTableRecord
70
0
2
ByLayer
3

72
65
73
0
40
0
0
LTYPE
5
16
100
AcDbSymbolTableRecord
100
AcDbLinetypeTableRecord
70
0
2
CONTINUOUS
3
Solid line
72
65
73
0
40
0
0
LTYPE
5
3B
100
AcDbSymbolTableRecord
100
AcDbLinetypeTableRecord
70
0
2
DASHED
3
__ __ __ __ __ __ __ __ __
72
65
73
2
40
25.72
49
12.86
74
0
49
-12.86
74
0
0
LTYPE
5
3C
100
AcDbSymbolTableRecord
100
AcDbLinetypeTableRecord
70
0
2
HIDDEN
3
_ _ _ _ _ _ _ _ _ _ _ _ _ _ _
72
65
73
2
40
0.5
49
0.25
74
0
49
-0.25
74
0
0
LTYPE
5
3D
100
AcDbSymbolTableRecord
100
AcDbLinetypeTableRecord
70
0
2
PHANTOM
3
____ _ _ ____ _ _ _____ _ _ ____
72
65
73
6
40
50.5
49
18
74
0
49
-6.5
74
0
49
6.5
74
0
49
-6.5
74
0
49
6.5
74
0
49
-6.5
74
0
0
LTYPE
5
3E
100
AcDbSymbolTableRecord
100
AcDbLinetypeTableRecord
70
0
2
CENTER
3
____ _ ____ _ ____ _ ____
72
65
73
4
40
47.5
49
22
74
0
49
-8.5
74
0
49
8.5
74
0
49
-8.5
74
0
0
LTYPE
5
3F
100
AcDbSymbolTableRecord
100
AcDbLinetypeTableRecord
70
0
2
DOT
3
.........................
72
65
73
2
40
10
49
0
74
0
49
-10
74
0
0
LTYPE
5
40
100
AcDbSymbolTableRecord
100
AcDbLinetypeTableRecord
70
0
2
DASHDOT
3
_._._._._._._._._._._._._._._._.
72
65
73
4
40
70
49
31
74
0
49
-13
74
0
49
13
74
0
49
-13
74
0
0
ENDTAB
0
TABLE
2
LAYER
5
169
100
AcDbSymbolTable
0
LAYER
5
10
100
AcDbSymbolTableRecord
100
AcDbLayerTableRecord
2
0
70
0
62
7
6
CONTINUOUS
290
1
370
-3
390
0
0
LAYER
5
42
100
AcDbSymbolTableRecord
100
AcDbLayerTableRecord
2
80
70
0
62
-6
6
CONTINUOUS
290
1
370
-3
390
0
0
LAYER
5
44
100
AcDbSymbolTableRecord
100
AcDbLayerTableRecord
2
81
70
0
62
-3
6
CONTINUOUS
290
1
370
-3
390
0
0
LAYER
5
4C
100
AcDbSymbolTableRecord
100
AcDbLayerTableRecord
2
4
70
0
62
-2
6
CENTER
290
1
370
-3
390
0
0
LAYER
5
56
100
AcDbSymbolTableRecord
100
AcDbLayerTableRecord
2
1
70
0
62
4
6
CONTINUOUS
290
1
370
-3
390
0
0
LAYER
5
F6
100
AcDbSymbolTableRecord
100
AcDbLayerTableRecord
2
2
70
0
62
7
6
CONTINUOUS
290
1
370
-3
390
0
0
LAYER
5
152
100
AcDbSymbolTableRecord
100
AcDbLayerTableRecord
2
SK2
70
0
62
7
6
CONTINUOUS
290
1
370
-3
390
0
0
LAYER
5
153
100
AcDbSymbolTableRecord
100
AcDbLayerTableRecord
2
SK3
70
0
62
1
6
DASHED
290
1
370
-3
390
0
0
LAYER
5
154
100
AcDbSymbolTableRecord
100
AcDbLayerTableRecord
2
SK4
70
0
62
2
6
CENTER
290
1
370
-3
390
0
0
LAYER
5
155
100
AcDbSymbolTableRecord
100
AcDbLayerTableRecord
2
SK1
70
0
62
4
6
CONTINUOUS
290
1
370
-3
390
0
0
LAYER
5
156
100
AcDbSymbolTableRecord
100
AcDbLayerTableRecord
2
SK6
70
0
62
5
6
CONTINUOUS
290
1
370
-3
390
0
0
ENDTAB
0
TABLE
2
STYLE
5
16a
100
AcDbSymbolTable
0
STYLE
5
11
100
AcDbSymbolTableRecord
100
AcDbTextStyleTableRecord
2
Standard
3
txt
70
0
71
0
40
0
41
1
42
0
50
0
0
STYLE
5
B1
100
AcDbSymbolTableRecord
100
AcDbTextStyleTableRecord
2
DEFAULT
3
simplex.shx
70
0
71
0
40
0
41
1
42
0
50
0
0
STYLE
5
D4
100
AcDbSymbolTableRecord
100
AcDbTextStyleTableRecord
2
DWGDirectTextStyle
3
SIMPLEX
70
0
71
0
40
0
41
1
42
0
50
0
0
ENDTAB
0
TABLE
2
DIMSTYLE
5
16b
100
AcDbSymbolTable
100
AcDbDimStyleTable
0
DIMSTYLE
105
27
100
AcDbSymbolTableRecord
100
AcDbDimStyleTableRecord
2
Standard
70
0
3
<>
41
0.18
42
0.0625
44
0.18
140
0.18
147
0.09
73
0
74
0
77
1
271
2
275
0
278
52
280
0
340
11
0
ENDTAB
0
TABLE
2
VIEW
5
16c
100
AcDbSymbolTable
0
ENDTAB
0
TABLE
2
UCS
5
16d
100
AcDbSymbolTable
0
ENDTAB
0
TABLE
2
APPID
5
16e
100
AcDbSymbolTable
0
APPID
5
12
100
AcDbSymbolTableRecord
100
AcDbRegAppTableRecord
2
ACAD
70
0
0
ENDTAB
0
TABLE
2
BLOCK_RECORD
5
16f
100
AcDbSymbolTable
0
BLOCK_RECORD
5
1F
100
AcDbSymbolTableRecord
100
AcDbBlockTableRecord
2
*Model_Space
340
0
70
0
0
BLOCK_RECORD
5
1B
100
AcDbSymbolTableRecord
100
AcDbBlockTableRecord
2
*Paper_Space
340
0
70
0
0
BLOCK_RECORD
5
23
100
AcDbSymbolTableRecord
100
AcDbBlockTableRecord
2
*Paper_Space0
340
0
70
0
0
BLOCK_RECORD
5
AF
100
AcDbSymbolTableRecord
100
AcDbBlockTableRecord
2
LABLE3D_1
340
0
70
0
0
BLOCK_RECORD
5
DF
100
AcDbSymbolTableRecord
100
AcDbBlockTableRecord
2
DimnDraft3D1
340
0
70
0
0
BLOCK_RECORD
5
E9
100
AcDbSymbolTableRecord
100
AcDbBlockTableRecord
2
DimnDraft3D2
340
0
70
0
0
BLOCK_RECORD
5
F4
100
AcDbSymbolTableRecord
100
AcDbBlockTableRecord
2
DimnDraft3D3
340
0
70
0
0
BLOCK_RECORD
5
FF
100
AcDbSymbolTableRecord
100
AcDbBlockTableRecord
2
DimnDraft3D4
340
0
70
0
0
BLOCK_RECORD
5
109
100
AcDbSymbolTableRecord
100
AcDbBlockTableRecord
2
DimnDraft3D5
340
0
70
0
0
BLOCK_RECORD
5
113
100
AcDbSymbolTableRecord
100
AcDbBlockTableRecord
2
DimnDraft3D6
340
0
70
0
0
BLOCK_RECORD
5
11D
100
AcDbSymbolTableRecord
100
AcDbBlockTableRecord
2
DimnDraft3D7
340
0
70
0
0
BLOCK_RECORD
5
128
100
AcDbSymbolTableRecord
100
AcDbBlockTableRecord
2
DimnDraft3D8
340
0
70
0
0
ENDTAB
0
ENDSEC
0
SECTION
2
BLOCKS
0
BLOCK
5
20
100
AcDbEntity
8
0
100
AcDbBlockBegin
2
*Model_Space
70
0
10
0
20
0
30
0
3
*Model_Space
0
ENDBLK
5
21
100
AcDbEntity
8
0
100
AcDbBlockEnd
0
BLOCK
5
1C
100
AcDbEntity
8
0
100
AcDbBlockBegin
2
*Paper_Space
70
0
10
0
20
0
30
0
3
*Paper_Space
0
ENDBLK
5
1D
100
AcDbEntity
8
0
100
AcDbBlockEnd
0
BLOCK
5
24
100
AcDbEntity
8
0
100
AcDbBlockBegin
2
*Paper_Space0
70
0
10
0
20
0
30
0
3
*Paper_Space0
0
ENDBLK
5
25
100
AcDbEntity
8
0
100
AcDbBlockEnd
0
BLOCK
5
DA
100
AcDbEntity
8
0
100
AcDbBlockBegin
2
LABLE3D_1
70
0
10
0
20
0
30
0
3
LABLE3D_1
0
MTEXT
5
B0
100
AcDbEntity
8
SK6
62
256
6
ByLayer
370
-1
48
1
60
0
100
AcDbMText
10
-68.525
20
38.8635
30
0
210
0
220
0
230
1
1
\W01.000;\fsimplex.shx,bigfont.shx; 
40
3.5
41
0
44
1.084337
50
0
71
7
72
5
7
DEFAULT
0
LINE
5
D6
100
AcDbEntity
8
SK6
62
256
6
ByLayer
370
-1
48
1
60
0
100
AcDbLine
10
-67.9
20
41.4885
30
0
11
-60.823077
21
41.4885
31
0
39
0
210
0
220
0
230
1
0
LINE
5
D7
100
AcDbEntity
8
SK6
62
256
6
ByLayer
370
-1
48
1
60
0
100
AcDbLine
10
-35.373827
20
17.06583
30
0
11
-60.823077
21
41.4885
31
0
39
0
210
0
220
0
230
1
0
SOLID
5
D8
100
AcDbEntity
8
SK6
62
256
6
ByLayer
370
-1
48
1
60
0
100
AcDbTrace
10
-35.373827
20
17.06583
30
0
11
-39.311377
21
19.461853
31
0
12
-37.92986
22
20.901451
32
0
13
-35.373827
23
17.06583
33
0
39
0
210
0
220
0
230
1
0
ENDBLK
5
DB
100
AcDbEntity
8
0
100
AcDbBlockEnd
0
BLOCK
5
E6
100
AcDbEntity
8
0
100
AcDbBlockBegin
2
DimnDraft3D1
70
0
10
0
20
0
30
0
3
DimnDraft3D1
0
MTEXT
5
E0
100
AcDbEntity
8
SK2
62
256
6
ByLayer
370
-1
48
1
60
0
100
AcDbMText
10
81.242763
20
-49.975
30
0
210
0
220
0
230
1
1
\W01.000;\fsimplex.shx,bigfont.shx;18,8 
40
4.5
41
0
44
1.084337
50
0
71
7
72
5
7
DEFAULT
0
LINE
5
E1
100
AcDbEntity
8
SK2
62
256
6
ByLayer
370
-1
48
1
60
0
100
AcDbLine
10
75.2
20
-34.0875
30
0
11
75.2
21
-53.1
31
0
39
0
210
0
220
0
230
1
0
LINE
5
E2
100
AcDbEntity
8
SK2
62
256
6
ByLayer
370
-1
48
1
60
0
100
AcDbLine
10
94
20
-34.0875
30
0
11
94
21
-53.1
31
0
39
0
210
0
220
0
230
1
0
LINE
5
E3
100
AcDbEntity
8
SK2
62
256
6
ByLayer
370
-1
48
1
60
0
100
AcDbLine
10
63.95
20
-51.1
30
0
11
105.25
21
-51.1
31
0
39
0
210
0
220
0
230
1
0
SOLID
5
E4
100
AcDbEntity
8
SK2
62
256
6
ByLayer
370
-1
48
1
60
0
100
AcDbTrace
10
75.2
20
-51.1
30
0
11
70.700004
21
-52.097626
31
0
12
70.699996
22
-50.102374
32
0
13
75.2
23
-51.1
33
0
39
0
210
0
220
0
230
1
0
SOLID
5
E5
100
AcDbEntity
8
SK2
62
256
6
ByLayer
370
-1
48
1
60
0
100
AcDbTrace
10
94
20
-51.1
30
0
11
98.499996
21
-50.102374
31
0
12
98.500004
22
-52.097626
32
0
13
94
23
-51.1
33
0
39
0
210
0
220
0
230
1
0
ENDBLK
5
E7
100
AcDbEntity
8
0
100
AcDbBlockEnd
0
BLOCK
5
F1
100
AcDbEntity
8
0
100
AcDbBlockBegin
2
DimnDraft3D2
70
0
10
0
20
0
30
0
3
DimnDraft3D2
0
MTEXT
5
EA
100
AcDbEntity
8
SK2
62
256
6
ByLayer
370
-1
48
1
60
0
100
AcDbMText
10
-95.75
20
2.996053
30
0
210
0
220
0
230
1
1
\W01.000;\fsimplex.shx,bigfont.shx;63 
40
4.5
41
0
44
1.084337
50
90
71
7
72
5
7
DEFAULT
0
MTEXT
5
EB
100
AcDbEntity
8
SK2
62
256
6
ByLayer
370
-1
48
1
60
0
100
AcDbMText
10
-95.75
20
-6.003947
30
0
210
0
220
0
230
1
1
\W01.000;\fsimplex.shx,bigfont.shx;%%c 
40
4.5
41
0
44
1.084337
50
90
71
7
72
5
7
DEFAULT
0
LINE
5
EC
100
AcDbEntity
8
SK2
62
256
6
ByLayer
370
-1
48
1
60
0
100
AcDbLine
10
-1.5875
20
-31.4885
30
0
11
-95.5
21
-31.4885
31
0
39
0
210
0
220
0
230
1
0
LINE
5
ED
100
AcDbEntity
8
SK2
62
256
6
ByLayer
370
-1
48
1
60
0
100
AcDbLine
10
-1.5875
20
31.4885
30
0
11
-95.5
21
31.4885
31
0
39
0
210
0
220
0
230
1
0
LINE
5
EE
100
AcDbEntity
8
SK2
62
256
6
ByLayer
370
-1
48
1
60
0
100
AcDbLine
10
-93.5
20
-31.4885
30
0
11
-93.5
21
31.4885
31
0
39
0
210
0
220
0
230
1
0
SOLID
5
EF
100
AcDbEntity
8
SK2
62
256
6
ByLayer
370
-1
48
1
60
0
100
AcDbTrace
10
-93.5
20
-31.4885
30
0
11
-94.497626
21
-26.988504
31
0
12
-92.502374
22
-26.988496
32
0
13
-93.5
23
-31.4885
33
0
39
0
210
0
220
0
230
1
0
SOLID
5
F0
100
AcDbEntity
8
SK2
62
256
6
ByLayer
370
-1
48
1
60
0
100
AcDbTrace
10
-93.5
20
31.4885
30
0
11
-92.502374
21
26.988504
31
0
12
-94.497626
22
26.988496
32
0
13
-93.5
23
31.4885
33
0
39
0
210
0
220
0
230
1
0
ENDBLK
5
F2
100
AcDbEntity
8
0
100
AcDbBlockEnd
0
BLOCK
5
FC
100
AcDbEntity
8
0
100
AcDbBlockBegin
2
DimnDraft3D3
70
0
10
0
20
0
30
0
3
DimnDraft3D3
0
MTEXT
5
F5
100
AcDbEntity
8
2
62
256
6
ByLayer
370
-1
48
1
60
0
100
AcDbMText
10
45.259211
20
72.725
30
0
210
0
220
0
230
1
1
\W01.000;\fsimplex.shx,bigfont.shx;94 
40
4.5
41
0
44
1.084337
50
0
71
7
72
5
7
DEFAULT
0
LINE
5
F7
100
AcDbEntity
8
2
62
256
6
ByLayer
370
-1
48
1
60
0
100
AcDbLine
10
0
20
23.8125
30
0
11
0
21
73.6
31
0
39
0
210
0
220
0
230
1
0
LINE
5
F8
100
AcDbEntity
8
2
62
256
6
ByLayer
370
-1
48
1
60
0
100
AcDbLine
10
94
20
34.0875
30
0
11
94
21
73.6
31
0
39
0
210
0
220
0
230
1
0
LINE
5
F9
100
AcDbEntity
8
2
62
256
6
ByLayer
370
-1
48
1
60
0
100
AcDbLine
10
0
20
71.6
30
0
11
94
21
71.6
31
0
39
0
210
0
220
0
230
1
0
SOLID
5
FA
100
AcDbEntity
8
2
62
256
6
ByLayer
370
-1
48
1
60
0
100
AcDbTrace
10
0
20
71.6
30
0
11
4.499996
21
72.597626
31
0
12
4.500004
22
70.602374
32
0
13
0
23
71.6
33
0
39
0
210
0
220
0
230
1
0
SOLID
5
FB
100
AcDbEntity
8
2
62
256
6
ByLayer
370
-1
48
1
60
0
100
AcDbTrace
10
94
20
71.6
30
0
11
89.500004
21
70.602374
31
0
12
89.499996
22
72.597626
32
0
13
94
23
71.6
33
0
39
0
210
0
220
0
230
1
0
ENDBLK
5
FD
100
AcDbEntity
8
0
100
AcDbBlockEnd
0
BLOCK
5
106
100
AcDbEntity
8
0
100
AcDbBlockBegin
2
DimnDraft3D4
70
0
10
0
20
0
30
0
3
DimnDraft3D4
0
MTEXT
5
100
100
AcDbEntity
8
SK2
62
256
6
ByLayer
370
-1
48
1
60
0
100
AcDbMText
10
11.996053
20
52.725
30
0
210
0
220
0
230
1
1
\W01.000;\fsimplex.shx,bigfont.shx;27 
40
4.5
41
0
44
1.084337
50
0
71
7
72
5
7
DEFAULT
0
LINE
5
101
100
AcDbEntity
8
SK2
62
256
6
ByLayer
370
-1
48
1
60
0
100
AcDbLine
10
0
20
23.8125
30
0
11
0
21
53.6
31
0
39
0
210
0
220
0
230
1
0
LINE
5
102
100
AcDbEntity
8
SK2
62
256
6
ByLayer
370
-1
48
1
60
0
100
AcDbLine
10
27
20
33.076
30
0
11
27
21
53.6
31
0
39
0
210
0
220
0
230
1
0
LINE
5
103
100
AcDbEntity
8
SK2
62
256
6
ByLayer
370
-1
48
1
60
0
100
AcDbLine
10
0
20
51.6
30
0
11
27
21
51.6
31
0
39
0
210
0
220
0
230
1
0
SOLID
5
104
100
AcDbEntity
8
SK2
62
256
6
ByLayer
370
-1
48
1
60
0
100
AcDbTrace
10
0
20
51.6
30
0
11
4.499996
21
52.597626
31
0
12
4.500004
22
50.602374
32
0
13
0
23
51.6
33
0
39
0
210
0
220
0
230
1
0
SOLID
5
105
100
AcDbEntity
8
SK2
62
256
6
ByLayer
370
-1
48
1
60
0
100
AcDbTrace
10
27
20
51.6
30
0
11
22.500004
21
50.602374
31
0
12
22.499996
22
52.597626
32
0
13
27
23
51.6
33
0
39
0
210
0
220
0
230
1
0
ENDBLK
5
107
100
AcDbEntity
8
0
100
AcDbBlockEnd
0
BLOCK
5
110
100
AcDbEntity
8
0
100
AcDbBlockBegin
2
DimnDraft3D5
70
0
10
0
20
0
30
0
3
DimnDraft3D5
0
MTEXT
5
10A
100
AcDbEntity
8
SK2
62
256
6
ByLayer
370
-1
48
1
60
0
100
AcDbMText
10
-36.856579
20
72.725
30
0
210
0
220
0
230
1
1
\W01.000;\fsimplex.shx,bigfont.shx;65,4 
40
4.5
41
0
44
1.084337
50
0
71
7
72
5
7
DEFAULT
0
LINE
5
10B
100
AcDbEntity
8
SK2
62
256
6
ByLayer
370
-1
48
1
60
0
100
AcDbLine
10
0
20
23.8125
30
0
11
0
21
73.6
31
0
39
0
210
0
220
0
230
1
0
LINE
5
10C
100
AcDbEntity
8
SK2
62
256
6
ByLayer
370
-1
48
1
60
0
100
AcDbLine
10
-65.4
20
13.7875
30
0
11
-65.4
21
73.6
31
0
39
0
210
0
220
0
230
1
0
LINE
5
10D
100
AcDbEntity
8
SK2
62
256
6
ByLayer
370
-1
48
1
60
0
100
AcDbLine
10
0
20
71.6
30
0
11
-65.4
21
71.6
31
0
39
0
210
0
220
0
230
1
0
SOLID
5
10E
100
AcDbEntity
8
SK2
62
256
6
ByLayer
370
-1
48
1
60
0
100
AcDbTrace
10
0
20
71.6
30
0
11
-4.499996
21
70.602374
31
0
12
-4.500004
22
72.597626
32
0
13
0
23
71.6
33
0
39
0
210
0
220
0
230
1
0
SOLID
5
10F
100
AcDbEntity
8
SK2
62
256
6
ByLayer
370
-1
48
1
60
0
100
AcDbTrace
10
-65.4
20
71.6
30
0
11
-60.900004
21
72.597626
31
0
12
-60.899996
22
70.602374
32
0
13
-65.4
23
71.6
33
0
39
0
210
0
220
0
230
1
0
ENDBLK
5
111
100
AcDbEntity
8
0
100
AcDbBlockEnd
0
BLOCK
5
11A
100
AcDbEntity
8
0
100
AcDbBlockBegin
2
DimnDraft3D6
70
0
10
0
20
0
30
0
3
DimnDraft3D6
0
MTEXT
5
114
100
AcDbEntity
8
SK2
62
256
6
ByLayer
370
-1
48
1
60
0
100
AcDbMText
10
45.883553
20
-59.975
30
0
210
0
220
0
230
1
1
\W01.000;\fsimplex.shx,bigfont.shx;min 47-max 57 
40
4.5
41
0
44
1.084337
50
0
71
7
72
5
7
DEFAULT
0
LINE
5
115
100
AcDbEntity
8
SK2
62
256
6
ByLayer
370
-1
48
1
60
0
100
AcDbLine
10
94
20
-14.0875
30
0
11
94
21
-63.1
31
0
39
0
210
0
220
0
230
1
0
LINE
5
116
100
AcDbEntity
8
SK2
62
256
6
ByLayer
370
-1
48
1
60
0
100
AcDbLine
10
37
20
-14.0875
30
0
11
37
21
-63.1
31
0
39
0
210
0
220
0
230
1
0
LINE
5
117
100
AcDbEntity
8
SK2
62
256
6
ByLayer
370
-1
48
1
60
0
100
AcDbLine
10
94
20
-61.1
30
0
11
37
21
-61.1
31
0
39
0
210
0
220
0
230
1
0
SOLID
5
118
100
AcDbEntity
8
SK2
62
256
6
ByLayer
370
-1
48
1
60
0
100
AcDbTrace
10
94
20
-61.1
30
0
11
89.500004
21
-62.097626
31
0
12
89.499996
22
-60.102374
32
0
13
94
23
-61.1
33
0
39
0
210
0
220
0
230
1
0
SOLID
5
119
100
AcDbEntity
8
SK2
62
256
6
ByLayer
370
-1
48
1
60
0
100
AcDbTrace
10
37
20
-61.1
30
0
11
41.499996
21
-60.102374
31
0
12
41.500004
22
-62.097626
32
0
13
37
23
-61.1
33
0
39
0
210
0
220
0
230
1
0
ENDBLK
5
11B
100
AcDbEntity
8
0
100
AcDbBlockEnd
0
BLOCK
5
125
100
AcDbEntity
8
0
100
AcDbBlockBegin
2
DimnDraft3D7
70
0
10
0
20
0
30
0
3
DimnDraft3D7
0
MTEXT
5
11E
100
AcDbEntity
8
SK2
62
256
6
ByLayer
370
-1
48
1
60
0
100
AcDbMText
10
150.25
20
3.746053
30
0
210
0
220
0
230
1
1
\W01.000;\fsimplex.shx,bigfont.shx;65 
40
4.5
41
0
44
1.084337
50
90
71
7
72
5
7
DEFAULT
0
MTEXT
5
11F
100
AcDbEntity
8
SK2
62
256
6
ByLayer
370
-1
48
1
60
0
100
AcDbMText
10
150
20
-7.003947
30
0
210
0
220
0
230
1
1
\W01.000;\fsimplex.shx,bigfont.shx;%%c 
40
3.5
41
0
44
1.084337
50
90
71
7
72
5
7
DEFAULT
0
LINE
5
120
100
AcDbEntity
8
SK2
62
256
6
ByLayer
370
-1
48
1
60
0
100
AcDbLine
10
76.7875
20
-32.5
30
0
11
154.25
21
-32.5
31
0
39
0
210
0
220
0
230
1
0
LINE
5
121
100
AcDbEntity
8
SK2
62
256
6
ByLayer
370
-1
48
1
60
0
100
AcDbLine
10
76.7875
20
32.5
30
0
11
154.25
21
32.5
31
0
39
0
210
0
220
0
230
1
0
LINE
5
122
100
AcDbEntity
8
SK2
62
256
6
ByLayer
370
-1
48
1
60
0
100
AcDbLine
10
152.25
20
-32.5
30
0
11
152.25
21
32.5
31
0
39
0
210
0
220
0
230
1
0
SOLID
5
123
100
AcDbEntity
8
SK2
62
256
6
ByLayer
370
-1
48
1
60
0
100
AcDbTrace
10
152.25
20
-32.5
30
0
11
151.252374
21
-28.000004
31
0
12
153.247626
22
-27.999996
32
0
13
152.25
23
-32.5
33
0
39
0
210
0
220
0
230
1
0
SOLID
5
124
100
AcDbEntity
8
SK2
62
256
6
ByLayer
370
-1
48
1
60
0
100
AcDbTrace
10
152.25
20
32.5
30
0
11
153.247626
21
28.000004
31
0
12
151.252374
22
27.999996
32
0
13
152.25
23
32.5
33
0
39
0
210
0
220
0
230
1
0
ENDBLK
5
126
100
AcDbEntity
8
0
100
AcDbBlockEnd
0
BLOCK
5
130
100
AcDbEntity
8
0
100
AcDbBlockBegin
2
DimnDraft3D8
70
0
10
0
20
0
30
0
3
DimnDraft3D8
0
MTEXT
5
129
100
AcDbEntity
8
SK2
62
256
6
ByLayer
370
-1
48
1
60
0
100
AcDbMText
10
134.25
20
3.746053
30
0
210
0
220
0
230
1
1
\W01.000;\fsimplex.shx,bigfont.shx;25 
40
4.5
41
0
44
1.084337
50
90
71
7
72
5
7
DEFAULT
0
MTEXT
5
12A
100
AcDbEntity
8
SK2
62
256
6
ByLayer
370
-1
48
1
60
0
100
AcDbMText
10
134
20
-7.003947
30
0
210
0
220
0
230
1
1
\W01.000;\fsimplex.shx,bigfont.shx;%%c 
40
3.5
41
0
44
1.084337
50
90
71
7
72
5
7
DEFAULT
0
LINE
5
12B
100
AcDbEntity
8
SK2
62
256
6
ByLayer
370
-1
48
1
60
0
100
AcDbLine
10
95.5875
20
12.5
30
0
11
138.25
21
12.5
31
0
39
0
210
0
220
0
230
1
0
LINE
5
12C
100
AcDbEntity
8
SK2
62
256
6
ByLayer
370
-1
48
1
60
0
100
AcDbLine
10
95.5875
20
-12.5
30
0
11
138.25
21
-12.5
31
0
39
0
210
0
220
0
230
1
0
LINE
5
12D
100
AcDbEntity
8
SK2
62
256
6
ByLayer
370
-1
48
1
60
0
100
AcDbLine
10
136.25
20
23.75
30
0
11
136.25
21
-23.75
31
0
39
0
210
0
220
0
230
1
0
SOLID
5
12E
100
AcDbEntity
8
SK2
62
256
6
ByLayer
370
-1
48
1
60
0
100
AcDbTrace
10
136.25
20
12.5
30
0
11
135.252374
21
16.999996
31
0
12
137.247626
22
17.000004
32
0
13
136.25
23
12.5
33
0
39
0
210
0
220
0
230
1
0
SOLID
5
12F
100
AcDbEntity
8
SK2
62
256
6
ByLayer
370
-1
48
1
60
0
100
AcDbTrace
10
136.25
20
-12.5
30
0
11
137.247626
21
-16.999996
31
0
12
135.252374
22
-17.000004
32
0
13
136.25
23
-12.5
33
0
39
0
210
0
220
0
230
1
0
ENDBLK
5
131
100
AcDbEntity
8
0
100
AcDbBlockEnd
0
ENDSEC
0
SECTION
2
ENTITIES
0
ARC
5
92
100
AcDbEntity
8
SK1
62
256
6
ByLayer
370
-1
48
1
60
0
100
AcDbCircle
39
0
10
-64.4
20
11.821868
30
0
40
1
210
0
220
0
230
1
100
AcDbArc
50
98.297917
51
180
0
ARC
5
93
100
AcDbEntity
8
SK1
62
256
6
ByLayer
370
-1
48
1
60
0
100
AcDbCircle
39
0
10
-64.4
20
-11.821868
30
0
40
1
210
0
220
0
230
1
100
AcDbArc
50
180
51
261.702083
0
ARC
5
94
100
AcDbEntity
8
1
62
256
6
ByLayer
370
-1
48
1
60
0
100
AcDbCircle
39
0
10
31
20
-31.5
30
0
40
1
210
0
220
0
230
1
100
AcDbArc
50
180
51
270
0
ARC
5
95
100
AcDbEntity
8
1
62
256
6
ByLayer
370
-1
48
1
60
0
100
AcDbCircle
39
0
10
31
20
31.5
30
0
40
1
210
0
220
0
230
1
100
AcDbArc
50
90
51
180
0
ARC
5
96
100
AcDbEntity
8
1
62
256
6
ByLayer
370
-1
48
1
60
0
100
AcDbCircle
39
0
10
73.097915
20
12.5
30
0
40
20
210
0
220
0
230
1
100
AcDbArc
50
78
51
90
0
ARC
5
97
100
AcDbEntity
8
1
62
256
6
ByLayer
370
-1
48
1
60
0
100
AcDbCircle
39
0
10
73.097915
20
-12.5
30
0
40
20
210
0
220
0
230
1
100
AcDbArc
50
270
51
282
0
ARC
5
98
100
AcDbEntity
8
1
62
256
6
ByLayer
370
-1
48
1
60
0
100
AcDbCircle
39
0
10
26
20
-30.4885
30
0
40
1
210
0
220
0
230
1
100
AcDbArc
50
270
51
0
0
ARC
5
99
100
AcDbEntity
8
1
62
256
6
ByLayer
370
-1
48
1
60
0
100
AcDbCircle
39
0
10
26
20
30.4885
30
0
40
1
210
0
220
0
230
1
100
AcDbArc
50
0
51
90
0
ARC
5
9A
100
AcDbEntity
8
1
62
256
6
ByLayer
370
-1
48
1
60
0
100
AcDbCircle
39
0
10
-27.4
20
-30.4
30
0
40
0.4
210
0
220
0
230
-1
100
AcDbArc
50
0
51
90
0
ARC
5
9B
100
AcDbEntity
8
1
62
256
6
ByLayer
370
-1
48
1
60
0
100
AcDbCircle
39
0
10
-27.4
20
30.4
30
0
40
0.4
210
0
220
0
230
-1
100
AcDbArc
50
270
51
0
0
ARC
5
9C
100
AcDbEntity
8
1
62
256
6
ByLayer
370
-1
48
1
60
0
100
AcDbCircle
39
0
10
-29.6
20
-30.4
30
0
40
0.399999999999999
210
0
220
0
230
-1
100
AcDbArc
50
90
51
180
0
ARC
5
9D
100
AcDbEntity
8
1
62
256
6
ByLayer
370
-1
48
1
60
0
100
AcDbCircle
39
0
10
-29.6
20
30.4
30
0
40
0.399999999999999
210
0
220
0
230
-1
100
AcDbArc
50
180
51
270
0
ARC
5
9E
100
AcDbEntity
8
1
62
256
6
ByLayer
370
-1
48
1
60
0
100
AcDbCircle
39
0
10
92.8
20
-27.532196
30
0
40
1.19999999999999
210
0
220
0
230
1
100
AcDbArc
50
282
51
0
0
ARC
5
9F
100
AcDbEntity
8
1
62
256
6
ByLayer
370
-1
48
1
60
0
100
AcDbCircle
39
0
10
92.8
20
27.532196
30
0
40
1.19999999999999
210
0
220
0
230
1
100
AcDbArc
50
0
51
78
0
ARC
5
A0
100
AcDbEntity
8
1
62
256
6
ByLayer
370
-1
48
1
60
0
100
AcDbCircle
39
0
10
-1.65
20
-22.6
30
0
40
0.6
210
0
220
0
230
-1
100
AcDbArc
50
90
51
125.686581
0
ARC
5
A1
100
AcDbEntity
8
1
62
256
6
ByLayer
370
-1
48
1
60
0
100
AcDbCircle
39
0
10
-1.65
20
22.6
30
0
40
0.6
210
0
220
0
230
-1
100
AcDbArc
50
234.314374
51
270
0
POINT
5
41
100
AcDbEntity
8
80
62
256
6
ByLayer
370
-1
48
1
60
0
100
AcDbPoint
10
0
20
0
30
0
39
0
210
0
220
0
230
1
50
360
0
POINT
5
43
100
AcDbEntity
8
81
62
256
6
ByLayer
370
-1
48
1
60
0
100
AcDbPoint
10
94
20
0
30
0
39
0
210
0
220
0
230
1
50
360
0
POINT
5
45
100
AcDbEntity
8
SK2
62
256
6
ByLayer
370
-1
48
1
60
1
100
AcDbPoint
10
0
20
-31.4885
30
0
39
0
210
0
220
0
230
1
50
360
0
POINT
5
47
100
AcDbEntity
8
SK2
62
256
6
ByLayer
370
-1
48
1
60
1
100
AcDbPoint
10
0
20
31.4885
30
0
39
0
210
0
220
0
230
1
50
360
0
SPLINE
5
A2
100
AcDbEntity
8
1
62
256
6
ByLayer
370
-1
48
1
60
0
100
AcDbSpline
70
4
71
3
72
14
73
10
40
0
40
0
40
0
40
0
40
0.25
40
0.25
40
0.5
40
0.5
40
0.75
40
0.75
40
1
40
1
40
1
40
1
41
1
10
21.6121244936907
20
-31.1595762985737
30
0
41
1
10
21.4232830465229
20
-30.7866916465256
30
0
41
1
10
21.2267776656221
20
-30.3989111806456
30
0
41
1
10
20.8218877159037
20
-29.6005264978513
30
0
41
1
10
20.6128221573118
20
-29.1885823046998
30
0
41
1
10
20.1896590035668
20
-28.3555310704718
30
0
41
1
10
19.9751559153815
20
-27.9336219084014
30
0
41
1
10
19.5411836705927
20
-27.0809278934795
30
0
41
1
10
19.3217082654444
20
-26.6501303016001
30
0
41
1
10
19.1
20
-26.2154855563485
30
0
0
SPLINE
5
A3
100
AcDbEntity
8
1
62
256
6
ByLayer
370
-1
48
1
60
0
100
AcDbSpline
70
4
71
3
72
16
73
12
40
0
40
0
40
0
40
0
40
0.249999999999999
40
0.249999999999999
40
0.499999999999998
40
0.499999999999998
40
0.624999999999998
40
0.624999999999998
40
0.749999999999999
40
0.749999999999999
40
1
40
1
40
1
40
1
41
1
10
19.1
20
-25.578478224365
30
0
41
1
10
18.7859855683415
20
-25.5270267615828
30
0
41
1
10
18.4622320920908
20
-25.4796137311927
30
0
41
1
10
17.7955813795747
20
-25.3952718713574
30
0
41
1
10
17.4526838710613
20
-25.3583368229869
30
0
41
1
10
16.9234291840528
20
-25.312623281431
30
0
41
1
10
16.7440537825827
20
-25.2989719671523
30
0
41
1
10
16.3822896339552
20
-25.2753630465714
30
0
41
1
10
16.2006559201055
20
-25.2654448288
30
0
41
1
10
15.6535162567279
20
-25.2415152827231
30
0
41
1
10
15.2857814257644
20
-25.2333306362834
30
0
41
1
10
14.915
20
-25.2333306362834
30
0
0
SPLINE
5
A4
100
AcDbEntity
8
1
62
256
6
ByLayer
370
-1
48
1
60
0
100
AcDbSpline
70
4
71
3
72
18
73
14
40
0
40
0
40
0
40
0
40
0.125
40
0.125
40
0.25
40
0.25
40
0.5
40
0.5
40
0.625
40
0.625
40
0.75
40
0.75
40
1
40
1
40
1
40
1
41
1
10
21.6121244936907
20
31.1595762985737
30
0
41
1
10
21.7243880241935
20
31.1837583586324
30
0
41
1
10
21.8308264208118
20
31.207271037413
30
0
41
1
10
22.0292467326254
20
31.2519526259515
30
0
41
1
10
22.1216827783911
20
31.2732189927505
30
0
41
1
10
22.3789736082912
20
31.3333486816157
30
0
41
1
10
22.523924954989
20
31.3685473537848
30
0
41
1
10
22.7006445541077
20
31.4122194946719
30
0
41
1
10
22.7528508950066
20
31.4252835657036
30
0
41
1
10
22.8426177216711
20
31.4479178656058
30
0
41
1
10
22.879968744676
20
31.4574339151934
30
0
41
1
10
22.9697385703788
20
31.4804328073055
30
0
41
1
10
23
20
31.4883697891511
30
0
41
1
10
23
20
31.4884984121187
30
0
0
SPLINE
5
A5
100
AcDbEntity
8
1
62
256
6
ByLayer
370
-1
48
1
60
0
100
AcDbSpline
70
4
71
3
72
18
73
14
40
0
40
0
40
0
40
0
40
0.250000000000001
40
0.250000000000001
40
0.500000000000002
40
0.500000000000002
40
0.625000000000002
40
0.625000000000002
40
0.750000000000001
40
0.750000000000001
40
0.875000000000001
40
0.875000000000001
40
1
40
1
40
1
40
1
41
1
10
2.4999999999996
20
30.2915374039771
30
0
41
1
10
2.43380595437327
20
30.2342896856236
30
0
41
1
10
2.37170706849568
20
30.1699621550812
30
0
41
1
10
2.25653913370465
20
30.0256960913188
30
0
41
1
10
2.20303165405946
20
29.9448736360102
30
0
41
1
10
2.13431186966662
20
29.8136401262196
30
0
41
1
10
2.11324356858955
20
29.7681431325504
30
0
41
1
10
2.07535182134487
20
29.6731024211118
30
0
41
1
10
2.05843238988169
20
29.6231585285812
30
0
41
1
10
2.03056852738749
20
29.5211522190759
30
0
41
1
10
2.01952128906936
20
29.4689754791286
30
0
41
1
10
2.00420662583065
20
29.3618637546576
30
0
41
1
10
2
20
29.3065084394069
30
0
41
1
10
2
20
29.2519163004751
30
0
0
SPLINE
5
A6
100
AcDbEntity
8
1
62
256
6
ByLayer
370
-1
48
1
60
0
100
AcDbSpline
70
4
71
3
72
18
73
14
40
0
40
0
40
0
40
0
40
0.125
40
0.125
40
0.250000000000001
40
0.250000000000001
40
0.500000000000001
40
0.500000000000001
40
0.625
40
0.625
40
0.75
40
0.75
40
1
40
1
40
1
40
1
41
1
10
21.6121244936907
20
-31.1595762985737
30
0
41
1
10
21.7243880241935
20
-31.1837583586325
30
0
41
1
10
21.8308264208118
20
-31.207271037413
30
0
41
1
10
22.0292467326254
20
-31.2519526259515
30
0
41
1
10
22.1216827783911
20
-31.2732189927505
30
0
41
1
10
22.3789736082912
20
-31.3333486816157
30
0
41
1
10
22.523924954989
20
-31.3685473537848
30
0
41
1
10
22.7006445541076
20
-31.4122194946719
30
0
41
1
10
22.7528508950066
20
-31.4252835657036
30
0
41
1
10
22.8426177216711
20
-31.4479178656058
30
0
41
1
10
22.879968744676
20
-31.4574339151934
30
0
41
1
10
22.9697385703788
20
-31.4804328073055
30
0
41
1
10
23
20
-31.4883697891511
30
0
41
1
10
23
20
-31.4884984121187
30
0
0
SPLINE
5
A7
100
AcDbEntity
8
1
62
256
6
ByLayer
370
-1
48
1
60
0
100
AcDbSpline
70
4
71
3
72
14
73
10
40
0
40
0
40
0
40
0
40
0.25
40
0.25
40
0.5
40
0.5
40
0.75
40
0.75
40
1
40
1
40
1
40
1
41
1
10
21.6121244936907
20
31.1595762985737
30
0
41
1
10
21.4232830465229
20
30.7866916465256
30
0
41
1
10
21.2267776656221
20
30.3989111806456
30
0
41
1
10
20.8218877159037
20
29.6005264978513
30
0
41
1
10
20.6128221573118
20
29.1885823046997
30
0
41
1
10
20.1896590035668
20
28.3555310704718
30
0
41
1
10
19.9751559153815
20
27.9336219084014
30
0
41
1
10
19.5411836705927
20
27.0809278934795
30
0
41
1
10
19.3217082654444
20
26.6501303016001
30
0
41
1
10
19.1
20
26.2154855563485
30
0
0
SPLINE
5
A8
100
AcDbEntity
8
1
62
256
6
ByLayer
370
-1
48
1
60
0
100
AcDbSpline
70
4
71
3
72
124
73
120
40
-0.0312500000000014
40
-0.0312500000000014
40
0
40
0
40
0.0312499999999977
40
0.0312499999999977
40
0.0624999999999954
40
0.0624999999999954
40
0.0781249999999944
40
0.0781249999999944
40
0.0937499999999933
40
0.0937499999999933
40
0.124999999999991
40
0.124999999999991
40
0.14062499999999
40
0.14062499999999
40
0.156249999999989
40
0.156249999999989
40
0.187499999999987
40
0.187499999999987
40
0.203124999999986
40
0.203124999999986
40
0.218749999999985
40
0.218749999999985
40
0.226562499999985
40
0.226562499999985
40
0.234374999999985
40
0.234374999999985
40
0.249999999999984
40
0.249999999999984
40
0.257812499999984
40
0.257812499999984
40
0.265624999999984
40
0.265624999999984
40
0.281249999999983
40
0.281249999999983
40
0.289062499999983
40
0.289062499999983
40
0.296874999999983
40
0.296874999999983
40
0.312499999999982
40
0.312499999999982
40
0.320312499999982
40
0.320312499999982
40
0.328124999999982
40
0.328124999999982
40
0.343749999999982
40
0.343749999999982
40
0.374999999999983
40
0.374999999999983
40
0.390624999999984
40
0.390624999999984
40
0.406249999999984
40
0.406249999999984
40
0.437499999999985
40
0.437499999999985
40
0.453124999999986
40
0.453124999999986
40
0.468749999999986
40
0.468749999999986
40
0.499999999999987
40
0.499999999999987
40
0.531249999999988
40
0.531249999999988
40
0.546874999999988
40
0.546874999999988
40
0.562499999999989
40
0.562499999999989
40
0.593749999999989
40
0.593749999999989
40
0.601562499999989
40
0.601562499999989
40
0.60937499999999
40
0.60937499999999
40
0.62499999999999
40
0.62499999999999
40
0.64062499999999
40
0.64062499999999
40
0.656249999999991
40
0.656249999999991
40
0.687499999999992
40
0.687499999999992
40
0.703124999999992
40
0.703124999999992
40
0.718749999999993
40
0.718749999999993
40
0.734374999999993
40
0.734374999999993
40
0.742187499999993
40
0.742187499999993
40
0.749999999999993
40
0.749999999999993
40
0.781249999999994
40
0.781249999999994
40
0.796874999999994
40
0.796874999999994
40
0.812499999999994
40
0.812499999999994
40
0.828124999999994
40
0.828124999999994
40
0.835937499999994
40
0.835937499999994
40
0.843749999999994
40
0.843749999999994
40
0.859374999999994
40
0.859374999999994
40
0.867187499999994
40
0.867187499999994
40
0.874999999999995
40
0.874999999999995
40
0.906249999999996
40
0.906249999999996
40
0.914062499999996
40
0.914062499999996
40
0.921874999999997
40
0.921874999999997
40
0.937499999999997
40
0.937499999999997
40
0.968749999999999
40
0.968749999999999
40
1
40
1
40
1.03125
40
1.03125
41
1
10
31.75
20
-25.4726535366357
30
0
41
1
10
31.75
20
-24.9654273150385
30
0
41
1
10
31.7775704909928
20
-24.708762588481
30
0
41
1
10
31.8822129399401
20
-24.1894570986754
30
0
41
1
10
31.9593099262218
20
-23.9268150699114
30
0
41
1
10
32.1116424908349
20
-23.5287464328243
30
0
41
1
10
32.1687314169774
20
-23.3951116257612
30
0
41
1
10
32.2938249586078
20
-23.1300656637031
30
0
41
1
10
32.3619553395398
20
-22.9982613980834
30
0
41
1
10
32.5830998125366
20
-22.6052981347561
30
0
41
1
10
32.7526655895637
20
-22.346515846351
30
0
41
1
10
33.0434199766677
20
-21.9653851989986
30
0
41
1
10
33.1464504226282
20
-21.8395310695375
30
0
41
1
10
33.366006217856
20
-21.590850990679
30
0
41
1
10
33.4830246102308
20
-21.4675797007764
30
0
41
1
10
33.8514039322133
20
-21.1092357715553
30
0
41
1
10
34.1205133730825
20
-20.8840571548957
30
0
41
1
10
34.5700885979463
20
-20.5765175502085
30
0
41
1
10
34.7286926860118
20
-20.4786359507402
30
0
41
1
10
35.0575053513979
20
-20.2998081105345
30
0
41
1
10
35.2280371478544
20
-20.218501652815
30
0
41
1
10
35.4944567690829
20
-20.111011273388
30
0
41
1
10
35.5850399081068
20
-20.0776013249636
30
0
41
1
10
35.7700941753453
20
-20.0161382898836
30
0
41
1
10
35.8650182367257
20
-19.9879759936229
30
0
41
1
10
36.1523530603978
20
-19.913433831934
30
0
41
1
10
36.3469762962964
20
-19.8769133263225
30
0
41
1
10
36.6438205018282
20
-19.843438125091
30
0
41
1
10
36.7435884092066
20
-19.835836273017
30
0
41
1
10
36.9448373452053
20
-19.828079701862
30
0
41
1
10
37.046561013487
20
-19.827976299829
30
0
41
1
10
37.347861221487
20
-19.838933394121
30
0
41
1
10
37.5456560674568
20
-19.8610707723031
30
0
41
1
10
37.8380553417297
20
-19.9148808172949
30
0
41
1
10
37.9348046535375
20
-19.9362576575062
30
0
41
1
10
38.1269037285933
20
-19.9856852352943
30
0
41
1
10
38.2215927460617
20
-20.0135869924579
30
0
41
1
10
38.4989945200379
20
-20.1051198396866
30
0
41
1
10
38.6763639941552
20
-20.1768598734319
30
0
41
1
10
38.9327848350777
20
-20.2977880238935
30
0
41
1
10
39.0166445793868
20
-20.3403288120341
30
0
41
1
10
39.1813391506408
20
-20.4295300988097
30
0
41
1
10
39.2624041652218
20
-20.4763349864373
30
0
41
1
10
39.4995314081457
20
-20.621402686884
30
0
41
1
10
39.6489913372587
20
-20.72384307506
30
0
41
1
10
40.0758318053392
20
-21.0447310596459
30
0
41
1
10
40.3319595559538
20
-21.2765363880638
30
0
41
1
10
40.6820790752701
20
-21.6431025099272
30
0
41
1
10
40.7927307318304
20
-21.7682755390444
30
0
41
1
10
41.0001172216299
20
-22.020215441802
30
0
41
1
10
41.0973258461767
20
-22.1474748474317
30
0
41
1
10
41.3710572969408
20
-22.5323050105279
30
0
41
1
10
41.5298533313898
20
-22.792872829952
30
0
41
1
10
41.734805637074
20
-23.1878673237582
30
0
41
1
10
41.7975366709378
20
-23.3202382915163
30
0
41
1
10
41.9117030456594
20
-23.586238750585
30
0
41
1
10
41.9628558689027
20
-23.719291346614
30
0
41
1
10
42.0974376166565
20
-24.1149842834432
30
0
41
1
10
42.1627460736644
20
-24.3755502733618
30
0
41
1
10
42.2432475402047
20
-24.8898502022091
30
0
41
1
10
42.2584754301669
20
-25.1435844805299
30
0
41
1
10
42.2390347132208
20
-25.5190060003329
30
0
41
1
10
42.2254434153104
20
-25.6426338456994
30
0
41
1
10
42.1838372340904
20
-25.884440339186
30
0
41
1
10
42.1558085803591
20
-26.0029976865678
30
0
41
1
10
42.0491123365148
20
-26.3517170045099
30
0
41
1
10
41.9480816195235
20
-26.5749498574268
30
0
41
1
10
41.7782662326061
20
-26.8424007612507
30
0
41
1
10
41.7420494859333
20
-26.8953693379459
30
0
41
1
10
41.6657910118659
20
-26.9991052416868
30
0
41
1
10
41.6256760279771
20
-27.0499990949524
30
0
41
1
10
41.4992862287829
20
-27.1998045632483
30
0
41
1
10
41.4069805753694
20
-27.2958444009211
30
0
41
1
10
41.205502388801
20
-27.4804098764634
30
0
41
1
10
41.0963348646746
20
-27.5689365332198
30
0
41
1
10
40.8598574291706
20
-27.7384735634305
30
0
41
1
10
40.7316690992444
20
-27.8199125461506
30
0
41
1
10
40.3269786864163
20
-28.0474335646861
30
0
41
1
10
40.0293326137356
20
-28.1783042495281
30
0
41
1
10
39.5383251310794
20
-28.3449885802447
30
0
41
1
10
39.3666904356754
20
-28.3956971288384
30
0
41
1
10
39.0092042650483
20
-28.4863291843377
30
0
41
1
10
38.826641149976
20
-28.5254592955293
30
0
41
1
10
38.4540135671942
20
-28.5920331488549
30
0
41
1
10
38.2639495904251
20
-28.6194767561214
30
0
41
1
10
37.9731083995826
20
-28.6519498345646
30
0
41
1
10
37.8752014446281
20
-28.6613209323066
30
0
41
1
10
37.6774167197669
20
-28.6771102450267
30
0
41
1
10
37.5771594882114
20
-28.6835445652847
30
0
41
1
10
37.0757734038005
20
-28.7078892529522
30
0
41
1
10
36.6774199976167
20
-28.7028286636948
30
0
41
1
10
36.0839268374946
20
-28.65909457978
30
0
41
1
10
35.8855887656115
20
-28.63818457678
30
0
41
1
10
35.5005564012686
20
-28.5848644253126
30
0
41
1
10
35.3129039405609
20
-28.5524592348493
30
0
41
1
10
34.9469840442445
20
-28.4761725866301
30
0
41
1
10
34.7687181877574
20
-28.4322900245078
30
0
41
1
10
34.5083817876742
20
-28.3574526599433
30
0
41
1
10
34.4228741583618
20
-28.3310116569253
30
0
41
1
10
34.2563665143717
20
-28.2757739487731
30
0
41
1
10
34.1750828105678
20
-28.2468985672528
30
0
41
1
10
33.9369479710562
20
-28.1565197933415
30
0
41
1
10
33.7857977391647
20
-28.091274185925
30
0
41
1
10
33.5700245796443
20
-27.9857769705878
30
0
41
1
10
33.4999296149583
20
-27.9493370705741
30
0
41
1
10
33.3633669029971
20
-27.8738548248984
30
0
41
1
10
33.2967236761639
20
-27.8346983517936
30
0
41
1
10
32.9752070163586
20
-27.6339205800359
30
0
41
1
10
32.7548144774508
20
-27.4575676258797
30
0
41
1
10
32.5197794387714
20
-27.2172153830256
30
0
41
1
10
32.4748160512409
20
-27.1681426308388
30
0
41
1
10
32.3889122760084
20
-27.0679610298762
30
0
41
1
10
32.3479138651489
20
-27.0167617499989
30
0
41
1
10
32.2318434511083
20
-26.861396536589
30
0
41
1
10
32.1633475052371
20
-26.7551243117603
30
0
41
1
10
31.982428037446
20
-26.4282506078476
30
0
41
1
10
31.8944018906952
20
-26.1996191214943
30
0
41
1
10
31.7777373282705
20
-25.7203251531215
30
0
41
1
10
31.75
20
-25.4726535366357
30
0
41
1
10
31.75
20
-24.9654273150385
30
0
0
SPLINE
5
A9
100
AcDbEntity
8
1
62
256
6
ByLayer
370
-1
48
1
60
0
100
AcDbSpline
70
4
71
3
72
18
73
14
40
0
40
0
40
0
40
0
40
0.25
40
0.25
40
0.5
40
0.5
40
0.625
40
0.625
40
0.75
40
0.75
40
0.875
40
0.875
40
1
40
1
40
1
40
1
41
1
10
2.5
20
-30.2915374039774
30
0
41
1
10
2.43380595437361
20
-30.2342896856239
30
0
41
1
10
2.37170706849597
20
-30.1699621550815
30
0
41
1
10
2.25653913370488
20
-30.0256960913191
30
0
41
1
10
2.20303165405963
20
-29.9448736360104
30
0
41
1
10
2.13431186966673
20
-29.8136401262198
30
0
41
1
10
2.11324356858967
20
-29.7681431325506
30
0
41
1
10
2.07535182134495
20
-29.673102421112
30
0
41
1
10
2.05843238988174
20
-29.6231585285814
30
0
41
1
10
2.03056852738752
20
-29.521152219076
30
0
41
1
10
2.01952128906939
20
-29.4689754791287
30
0
41
1
10
2.00420662583065
20
-29.3618637546577
30
0
41
1
10
2
20
-29.3065084394069
30
0
41
1
10
2
20
-29.2519163004751
30
0
0
SPLINE
5
AA
100
AcDbEntity
8
1
62
256
6
ByLayer
370
-1
48
1
60
0
100
AcDbSpline
70
4
71
3
72
8
73
4
40
0
40
0
40
0
40
0
40
1
40
1
40
1
40
1
41
1
10
14.1
20
-25.8788351685465
30
0
41
1
10
13.2669597553286
20
-27.3982916365725
30
0
41
1
10
12.4289503690639
20
-28.9151197660135
30
0
41
1
10
11.5878755063094
20
-30.4301923630134
30
0
0
SPLINE
5
AB
100
AcDbEntity
8
1
62
256
6
ByLayer
370
-1
48
1
60
0
100
AcDbSpline
70
4
71
3
72
8
73
4
40
0
40
0
40
0
40
0
40
1
40
1
40
1
40
1
41
1
10
14.1
20
25.8788351685465
30
0
41
1
10
13.2669285252413
20
27.3983485999166
30
0
41
1
10
12.4289424798146
20
28.9151339773351
30
0
41
1
10
11.5878755063094
20
30.4301923630134
30
0
0
SPLINE
5
AC
100
AcDbEntity
8
1
62
256
6
ByLayer
370
-1
48
1
60
0
100
AcDbSpline
70
4
71
3
72
10
73
6
40
0
40
0
40
0
40
0
40
0.5
40
0.5
40
1
40
1
40
1
40
1
41
1
10
3
20
-30.4301923630134
30
0
41
1
10
2.91191974558234
20
-30.4301923630134
30
0
41
1
10
2.82378558788918
20
-30.4179875030359
30
0
41
1
10
2.6554389932401
20
-30.3710033200545
30
0
41
1
10
2.57556380002188
20
-30.3366951314459
30
0
41
1
10
2.5
20
-30.2915374039774
30
0
0
SPLINE
5
AD
100
AcDbEntity
8
1
62
256
6
ByLayer
370
-1
48
1
60
0
100
AcDbSpline
70
4
71
3
72
16
73
12
40
0
40
0
40
0
40
0
40
0.249999999999999
40
0.249999999999999
40
0.499999999999998
40
0.499999999999998
40
0.624999999999998
40
0.624999999999998
40
0.749999999999999
40
0.749999999999999
40
1
40
1
40
1
40
1
41
1
10
19.1
20
25.578478224365
30
0
41
1
10
18.7859855683415
20
25.5270267615828
30
0
41
1
10
18.4622320920908
20
25.4796137311927
30
0
41
1
10
17.7955813795747
20
25.3952718713574
30
0
41
1
10
17.4526838710613
20
25.3583368229869
30
0
41
1
10
16.9234291840528
20
25.312623281431
30
0
41
1
10
16.7440537825827
20
25.2989719671523
30
0
41
1
10
16.3822896339552
20
25.2753630465714
30
0
41
1
10
16.2006559201055
20
25.2654448288
30
0
41
1
10
15.6535162567279
20
25.2415152827231
30
0
41
1
10
15.2857814257644
20
25.2333306362834
30
0
41
1
10
14.915
20
25.2333306362834
30
0
0
SPLINE
5
AE
100
AcDbEntity
8
1
62
256
6
ByLayer
370
-1
48
1
60
0
100
AcDbSpline
70
4
71
3
72
12
73
8
40
0
40
0
40
0
40
0
40
0.5
40
0.5
40
0.75
40
0.75
40
1
40
1
40
1
40
1
41
1
10
3
20
30.4301923630134
30
0
41
1
10
2.91200788975919
20
30.4301923630134
30
0
41
1
10
2.82562376653775
20
30.4183803375266
30
0
41
1
10
2.69844322702474
20
30.3830642570078
30
0
41
1
10
2.65666271596351
20
30.3683273500394
30
0
41
1
10
2.57635651612796
20
30.3338155401177
30
0
41
1
10
2.5375243144417
20
30.3139623318465
30
0
41
1
10
2.4999999999996
20
30.2915374039772
30
0
0
INSERT
5
D9
100
AcDbEntity
8
SK6
62
256
6
ByLayer
370
-1
48
1
60
0
100
AcDbBlockReference
2
LABLE3D_1
10
0
20
0
30
0
41
1
42
1
43
1
50
0
210
0
220
0
230
1
0
LINE
5
48
100
AcDbEntity
8
SK3
62
256
6
ByLayer
370
-1
48
0.05
60
0
100
AcDbLine
10
37
20
-11
30
0
11
37
21
11
31
0
39
0
210
0
220
0
230
1
0
LINE
5
4A
100
AcDbEntity
8
SK3
62
256
6
ByLayer
370
-1
48
0.05
60
0
100
AcDbLine
10
38.5
20
-12.5
30
0
11
94
21
-12.5
31
0
39
0
210
0
220
0
230
1
0
LINE
5
4B
100
AcDbEntity
8
4
62
256
6
ByLayer
370
-1
48
0.05
60
0
100
AcDbLine
10
94
20
0
30
0
11
0
21
0
31
0
39
0
210
0
220
0
230
1
0
LINE
5
4D
100
AcDbEntity
8
80
62
256
6
ByLayer
370
-1
48
1
60
0
100
AcDbLine
10
0
20
0
30
0
11
-10.875929
21
0
31
0
39
0
210
0
220
0
230
1
0
LINE
5
4E
100
AcDbEntity
8
SK3
62
256
6
ByLayer
370
-1
48
0.05
60
0
100
AcDbLine
10
37
20
11
30
0
11
38.5
21
12.5
31
0
39
0
210
0
220
0
230
1
0
LINE
5
4F
100
AcDbEntity
8
SK3
62
256
6
ByLayer
370
-1
48
0.05
60
0
100
AcDbLine
10
37
20
-11
30
0
11
38.5
21
-12.5
31
0
39
0
210
0
220
0
230
1
0
LINE
5
50
100
AcDbEntity
8
SK3
62
256
6
ByLayer
370
-1
48
0.05
60
0
100
AcDbLine
10
38.5
20
12.5
30
0
11
38.5
21
-12.5
31
0
39
0
210
0
220
0
230
1
0
LINE
5
51
100
AcDbEntity
8
SK3
62
256
6
ByLayer
370
-1
48
0.05
60
0
100
AcDbLine
10
94
20
12.5
30
0
11
38.5
21
12.5
31
0
39
0
210
0
220
0
230
1
0
LINE
5
52
100
AcDbEntity
8
81
62
256
6
ByLayer
370
-1
48
1
60
0
100
AcDbLine
10
94
20
0
30
0
11
98.742527
21
0
31
0
39
0
210
0
220
0
230
1
0
LINE
5
53
100
AcDbEntity
8
SK4
62
256
6
ByLayer
370
-1
48
0.05
60
0
100
AcDbLine
10
-75.4
20
0
30
0
11
104
21
0
31
0
39
0
210
0
220
0
230
1
0
LINE
5
55
100
AcDbEntity
8
1
62
256
6
ByLayer
370
-1
48
1
60
0
100
AcDbLine
10
3
20
30.430192
30
0
11
3
21
-30.430192
31
0
39
0
210
0
220
0
230
1
0
LINE
5
57
100
AcDbEntity
8
1
62
256
6
ByLayer
370
-1
48
1
60
0
100
AcDbLine
10
30
20
-31.5
30
0
11
30
21
31.5
31
0
39
0
210
0
220
0
230
1
0
LINE
5
58
100
AcDbEntity
8
1
62
256
6
ByLayer
370
-1
48
1
60
0
100
AcDbLine
10
26
20
-31.4885
30
0
11
26
21
31.4885
31
0
39
0
210
0
220
0
230
1
0
LINE
5
59
100
AcDbEntity
8
1
62
256
6
ByLayer
370
-1
48
1
60
0
100
AcDbLine
10
23
20
31.488498
30
0
11
23
21
31.4885
31
0
39
0
210
0
220
0
230
1
0
LINE
5
5A
100
AcDbEntity
8
1
62
256
6
ByLayer
370
-1
48
1
60
0
100
AcDbLine
10
11.587876
20
-30.430192
30
0
11
11.587876
21
30.430192
31
0
39
0
210
0
220
0
230
1
0
LINE
5
5B
100
AcDbEntity
8
1
62
256
6
ByLayer
370
-1
48
1
60
0
100
AcDbLine
10
31
20
-32.5
30
0
11
31
21
0
31
0
39
0
210
0
220
0
230
1
0
LINE
5
5C
100
AcDbEntity
8
1
62
256
6
ByLayer
370
-1
48
1
60
0
100
AcDbLine
10
31
20
0
30
0
11
31
21
32.5
31
0
39
0
210
0
220
0
230
1
0
LINE
5
5D
100
AcDbEntity
8
1
62
256
6
ByLayer
370
-1
48
1
60
0
100
AcDbLine
10
21.612124
20
31.159576
30
0
11
21.612124
21
-31.159576
31
0
39
0
210
0
220
0
230
1
0
LINE
5
5E
100
AcDbEntity
8
1
62
256
6
ByLayer
370
-1
48
1
60
0
100
AcDbLine
10
3
20
30.430192
30
0
11
11.587876
21
30.430192
31
0
39
0
210
0
220
0
230
1
0
LINE
5
5F
100
AcDbEntity
8
1
62
256
6
ByLayer
370
-1
48
1
60
0
100
AcDbLine
10
27
20
-30.4885
30
0
11
27
21
0
31
0
39
0
210
0
220
0
230
1
0
LINE
5
60
100
AcDbEntity
8
1
62
256
6
ByLayer
370
-1
48
1
60
0
100
AcDbLine
10
27
20
0
30
0
11
27
21
30.4885
31
0
39
0
210
0
220
0
230
1
0
LINE
5
61
100
AcDbEntity
8
1
62
256
6
ByLayer
370
-1
48
1
60
0
100
AcDbLine
10
14.1
20
-25.878835
30
0
11
14.1
21
25.878835
31
0
39
0
210
0
220
0
230
1
0
LINE
5
62
100
AcDbEntity
8
1
62
256
6
ByLayer
370
-1
48
1
60
0
100
AcDbLine
10
2
20
-29.251916
30
0
11
2
21
29.251916
31
0
39
0
210
0
220
0
230
1
0
LINE
5
63
100
AcDbEntity
8
1
62
256
6
ByLayer
370
-1
48
1
60
0
100
AcDbLine
10
14.915
20
-25.233331
30
0
11
14.1
21
-25.233331
31
0
39
0
210
0
220
0
230
1
0
LINE
5
64
100
AcDbEntity
8
1
62
256
6
ByLayer
370
-1
48
1
60
0
100
AcDbLine
10
93.049494
20
-28.705973
30
0
11
93.049494
21
28.705973
31
0
39
0
210
0
220
0
230
1
0
LINE
5
65
100
AcDbEntity
8
1
62
256
6
ByLayer
370
-1
48
1
60
0
100
AcDbLine
10
94
20
-27.532196
30
0
11
94
21
27.532196
31
0
39
0
210
0
220
0
230
1
0
LINE
5
66
100
AcDbEntity
8
1
62
256
6
ByLayer
370
-1
48
1
60
0
100
AcDbLine
10
27.4
20
-30
30
0
11
27.4
21
0
31
0
39
0
210
0
220
0
230
1
0
LINE
5
67
100
AcDbEntity
8
1
62
256
6
ByLayer
370
-1
48
1
60
0
100
AcDbLine
10
27.4
20
0
30
0
11
27.4
21
30
31
0
39
0
210
0
220
0
230
1
0
LINE
5
68
100
AcDbEntity
8
1
62
256
6
ByLayer
370
-1
48
1
60
0
100
AcDbLine
10
1.65
20
-22
30
0
11
1.65
21
22
31
0
39
0
210
0
220
0
230
1
0
LINE
5
69
100
AcDbEntity
8
1
62
256
6
ByLayer
370
-1
48
1
60
0
100
AcDbLine
10
0.890757
20
0
30
0
11
0.890757
21
-22
31
0
39
0
210
0
220
0
230
1
0
LINE
5
6A
100
AcDbEntity
8
1
62
256
6
ByLayer
370
-1
48
1
60
0
100
AcDbLine
10
0.890757
20
22
30
0
11
0.890757
21
0
31
0
39
0
210
0
220
0
230
1
0
LINE
5
6B
100
AcDbEntity
8
1
62
256
6
ByLayer
370
-1
48
1
60
0
100
AcDbLine
10
73.097915
20
32.5
30
0
11
73.097915
21
-32.5
31
0
39
0
210
0
220
0
230
1
0
LINE
5
6C
100
AcDbEntity
8
1
62
256
6
ByLayer
370
-1
48
1
60
0
100
AcDbLine
10
14.915
20
25.233331
30
0
11
14.1
21
25.233331
31
0
39
0
210
0
220
0
230
1
0
LINE
5
6D
100
AcDbEntity
8
1
62
256
6
ByLayer
370
-1
48
1
60
0
100
AcDbLine
10
19.1
20
-26.215486
30
0
11
19.1
21
26.215486
31
0
39
0
210
0
220
0
230
1
0
LINE
5
6E
100
AcDbEntity
8
1
62
256
6
ByLayer
370
-1
48
1
60
0
100
AcDbLine
10
29.6
20
-30
30
0
11
29.6
21
30
31
0
39
0
210
0
220
0
230
1
0
LINE
5
6F
100
AcDbEntity
8
1
62
256
6
ByLayer
370
-1
48
1
60
0
100
AcDbLine
10
77.256149
20
-32.062952
30
0
11
77.256149
21
0
31
0
39
0
210
0
220
0
230
1
0
LINE
5
70
100
AcDbEntity
8
1
62
256
6
ByLayer
370
-1
48
1
60
0
100
AcDbLine
10
77.256149
20
0
30
0
11
77.256149
21
32.062952
31
0
39
0
210
0
220
0
230
1
0
LINE
5
71
100
AcDbEntity
8
1
62
256
6
ByLayer
370
-1
48
1
60
0
100
AcDbLine
10
0
20
-22.225
30
0
11
0
21
22.225
31
0
39
0
210
0
220
0
230
1
0
LINE
5
72
100
AcDbEntity
8
1
62
256
6
ByLayer
370
-1
48
1
60
0
100
AcDbLine
10
0.4
20
0
30
0
11
0.4
21
-22.283339
31
0
39
0
210
0
220
0
230
1
0
LINE
5
73
100
AcDbEntity
8
1
62
256
6
ByLayer
370
-1
48
1
60
0
100
AcDbLine
10
0.4
20
22.283339
30
0
11
0.4
21
0
31
0
39
0
210
0
220
0
230
1
0
LINE
5
74
100
AcDbEntity
8
1
62
256
6
ByLayer
370
-1
48
1
60
0
100
AcDbLine
10
3
20
-30.430192
30
0
11
11.587876
21
-30.430192
31
0
39
0
210
0
220
0
230
1
0
LINE
5
75
100
AcDbEntity
8
SK1
62
256
6
ByLayer
370
-1
48
1
60
0
100
AcDbLine
10
0
20
-22.225
30
0
11
0
21
22.225
31
0
39
0
210
0
220
0
230
1
0
LINE
5
77
100
AcDbEntity
8
SK1
62
256
6
ByLayer
370
-1
48
1
60
0
100
AcDbLine
10
-64.54432
20
-12.811399
30
0
11
-64.54432
21
0
31
0
39
0
210
0
220
0
230
1
0
LINE
5
78
100
AcDbEntity
8
SK1
62
256
6
ByLayer
370
-1
48
1
60
0
100
AcDbLine
10
-64.54432
20
0
30
0
11
-64.54432
21
12.811399
31
0
39
0
210
0
220
0
230
1
0
LINE
5
79
100
AcDbEntity
8
SK1
62
256
6
ByLayer
370
-1
48
1
60
0
100
AcDbLine
10
-65.4
20
11.821868
30
0
11
-65.4
21
-11.821868
31
0
39
0
210
0
220
0
230
1
0
LINE
5
7A
100
AcDbEntity
8
1
62
256
6
ByLayer
370
-1
48
1
60
0
100
AcDbLine
10
41.08
20
-25.6
30
0
11
32.92
21
-25.6
31
0
39
0
210
0
220
0
230
1
0
LINE
5
7B
100
AcDbEntity
8
1
62
256
6
ByLayer
370
-1
48
1
60
0
100
AcDbLine
10
42
20
-24.68
30
0
11
32
21
-24.68
31
0
39
0
210
0
220
0
230
1
0
LINE
5
7C
100
AcDbEntity
8
SK1
62
256
6
ByLayer
370
-1
48
1
60
0
100
AcDbLine
10
0
20
22.225
30
0
11
-64.54432
21
12.811399
31
0
39
0
210
0
220
0
230
1
0
LINE
5
7D
100
AcDbEntity
8
SK1
62
256
6
ByLayer
370
-1
48
1
60
0
100
AcDbLine
10
-64.54432
20
-12.811399
30
0
11
0
21
-22.225
31
0
39
0
210
0
220
0
230
1
0
LINE
5
7E
100
AcDbEntity
8
1
62
256
6
ByLayer
370
-1
48
1
60
0
100
AcDbLine
10
31
20
-32.5
30
0
11
73.097915
21
-32.5
31
0
39
0
210
0
220
0
230
1
0
LINE
5
7F
100
AcDbEntity
8
1
62
256
6
ByLayer
370
-1
48
1
60
0
100
AcDbLine
10
73.097915
20
32.5
30
0
11
31
21
32.5
31
0
39
0
210
0
220
0
230
1
0
LINE
5
80
100
AcDbEntity
8
1
62
256
6
ByLayer
370
-1
48
1
60
0
100
AcDbLine
10
77.256149
20
-32.062952
30
0
11
93.049494
21
-28.705973
31
0
39
0
210
0
220
0
230
1
0
LINE
5
81
100
AcDbEntity
8
1
62
256
6
ByLayer
370
-1
48
1
60
0
100
AcDbLine
10
93.049494
20
28.705973
30
0
11
77.256149
21
32.062952
31
0
39
0
210
0
220
0
230
1
0
LINE
5
82
100
AcDbEntity
8
1
62
256
6
ByLayer
370
-1
48
1
60
0
100
AcDbLine
10
26
20
31.4885
30
0
11
23
21
31.4885
31
0
39
0
210
0
220
0
230
1
0
LINE
5
83
100
AcDbEntity
8
1
62
256
6
ByLayer
370
-1
48
1
60
0
100
AcDbLine
10
23
20
-31.4885
30
0
11
26
21
-31.4885
31
0
39
0
210
0
220
0
230
1
0
LINE
5
84
100
AcDbEntity
8
1
62
256
6
ByLayer
370
-1
48
1
60
0
100
AcDbLine
10
27.4
20
-30
30
0
11
29.6
21
-30
31
0
39
0
210
0
220
0
230
1
0
LINE
5
85
100
AcDbEntity
8
1
62
256
6
ByLayer
370
-1
48
1
60
0
100
AcDbLine
10
29.6
20
30
30
0
11
27.4
21
30
31
0
39
0
210
0
220
0
230
1
0
LINE
5
86
100
AcDbEntity
8
1
62
256
6
ByLayer
370
-1
48
1
60
0
100
AcDbLine
10
0.4
20
22.283339
30
0
11
0
21
22.225
31
0
39
0
210
0
220
0
230
1
0
LINE
5
87
100
AcDbEntity
8
1
62
256
6
ByLayer
370
-1
48
1
60
0
100
AcDbLine
10
0
20
-22.225
30
0
11
0.4
21
-22.283339
31
0
39
0
210
0
220
0
230
1
0
LINE
5
88
100
AcDbEntity
8
1
62
256
6
ByLayer
370
-1
48
1
60
0
100
AcDbLine
10
0.4
20
-22.283339
30
0
11
0.890757
21
-22
31
0
39
0
210
0
220
0
230
1
0
LINE
5
89
100
AcDbEntity
8
1
62
256
6
ByLayer
370
-1
48
1
60
0
100
AcDbLine
10
0.890757
20
22
30
0
11
0.4
21
22.283339
31
0
39
0
210
0
220
0
230
1
0
LINE
5
8A
100
AcDbEntity
8
1
62
256
6
ByLayer
370
-1
48
1
60
0
100
AcDbLine
10
1.65
20
22
30
0
11
0.890757
21
22
31
0
39
0
210
0
220
0
230
1
0
LINE
5
8B
100
AcDbEntity
8
1
62
256
6
ByLayer
370
-1
48
1
60
0
100
AcDbLine
10
0.890757
20
-22
30
0
11
1.65
21
-22
31
0
39
0
210
0
220
0
230
1
0
LINE
5
8C
100
AcDbEntity
8
1
62
256
6
ByLayer
370
-1
48
1
60
0
100
AcDbLine
10
42
20
-24.68
30
0
11
42
21
-23.90701
31
0
39
0
210
0
220
0
230
1
0
LINE
5
8D
100
AcDbEntity
8
1
62
256
6
ByLayer
370
-1
48
1
60
0
100
AcDbLine
10
32
20
-23.893368
30
0
11
32
21
-24.68
31
0
39
0
210
0
220
0
230
1
0
LINE
5
8E
100
AcDbEntity
8
1
62
256
6
ByLayer
370
-1
48
1
60
0
100
AcDbLine
10
32
20
-24.68
30
0
11
32.92
21
-25.6
31
0
39
0
210
0
220
0
230
1
0
LINE
5
8F
100
AcDbEntity
8
1
62
256
6
ByLayer
370
-1
48
1
60
0
100
AcDbLine
10
41.08
20
-25.6
30
0
11
42
21
-24.68
31
0
39
0
210
0
220
0
230
1
0
LINE
5
90
100
AcDbEntity
8
1
62
256
6
ByLayer
370
-1
48
1
60
0
100
AcDbLine
10
32.92
20
-25.6
30
0
11
32.92
21
-23.893188
31
0
39
0
210
0
220
0
230
1
0
LINE
5
91
100
AcDbEntity
8
1
62
256
6
ByLayer
370
-1
48
1
60
0
100
AcDbLine
10
41.08
20
-25.6
30
0
11
41.08
21
-23.906875
31
0
39
0
210
0
220
0
230
1
0
MTEXT
5
DC
100
AcDbEntity
8
SK6
62
256
6
ByLayer
370
-1
48
1
60
0
100
AcDbMText
10
-69.538158
20
38.8635
30
0
210
0
220
0
230
1
1
\W01.000;\fsimplex.shx,bigfont.shx;  
40
3.5
41
0
44
1.084337
50
0
71
7
72
5
7
DEFAULT
0
MTEXT
5
DD
100
AcDbEntity
8
SK6
62
256
6
ByLayer
370
-1
48
1
60
0
100
AcDbMText
10
-91.072368
20
38.8635
30
0
210
0
220
0
230
1
1
\W00.834;\fsimplex.shx,bigfont.shx;MAS-BT40 
40
3.5
41
0
44
1.084337
50
0
71
7
72
5
7
DEFAULT
0
MTEXT
5
DE
100
AcDbEntity
8
SK6
62
256
6
ByLayer
370
-1
48
1
60
0
100
AcDbMText
10
-22.125
20
-51.8635
30
0
210
0
220
0
230
1
1
\W00.729;\fsimplex.shx,bigfont.shx;930-B40-HD-25-094 
40
3.5
41
0
44
1.084337
50
0
71
7
72
5
7
DEFAULT
0
DIMENSION
5
E8
100
AcDbEntity
8
SK2
62
256
6
ByLayer
370
-3
48
1
60
0
100
AcDbDimension
2
DimnDraft3D1
10
94
20
-51.1
30
0
11
80.117763
21
-51.1
31
0
70
32
71
5
72
1
41
1
210
0
220
0
230
1
3
Standard
100
AcDbAlignedDimension
13
75.2
23
-34.0875
33
0
14
94
24
-34.0875
34
0
50
0
100
AcDbRotatedDimension
1001
ACAD
1000
DSTYLE
1002
{
1070
   279
1070
     0
1070
   172
1070
     1
1070
   173
1070
     1
1070
   340
1005
B1
1070
   271
1070
     1
1070
   272
1070
     2
1070
    77
1070
     1
1070
    73
1070
     0
1070
   171
1070
     3
1070
   274
1070
     4
1070
   177
1070
     2
1070
   176
1070
     2
1070
   178
1070
     2
1070
    78
1070
     8
1070
    48
1040
-0.005
1070
    41
1041
4.5
1070
   147
1041
2.25
1070
    42
1041
1.5875
1070
    44
1041
2.0
1070
   140
1041
4.5
1070
   343
1005
0
1070
   344
1005
0
1002
}
0
DIMENSION
5
F3
100
AcDbEntity
8
SK2
62
256
6
ByLayer
370
-3
48
1
60
0
100
AcDbDimension
2
DimnDraft3D2
10
-95.5
20
31.4885
30
0
11
-96.875
21
1.871053
31
0
70
33
71
5
72
1
41
1
210
0
220
0
230
1
3
Standard
100
AcDbAlignedDimension
13
-1.5875
23
-31.4885
33
0
14
-1.5875
24
31.4885
34
0
1001
ACAD
1000
DSTYLE
1002
{
1070
   279
1070
     0
1070
    74
1070
     0
1070
   173
1070
     1
1070
   340
1005
B1
1070
   271
1070
     0
1070
   272
1070
     2
1070
    77
1070
     1
1070
    73
1070
     0
1070
   171
1070
     3
1070
   274
1070
     4
1070
   177
1070
     2
1070
   176
1070
     2
1070
   178
1070
     2
1070
    78
1070
     8
1070
    48
1040
-0.005
1070
    41
1041
4.5
1070
   147
1041
2.25
1070
    42
1041
1.5875
1070
    44
1041
2.0
1070
   140
1041
4.5
1070
   343
1005
0
1070
   344
1005
0
1002
}
0
DIMENSION
5
FE
100
AcDbEntity
8
2
62
256
6
ByLayer
370
-3
48
1
60
0
100
AcDbDimension
2
DimnDraft3D3
10
94
20
71.6
30
0
11
44.134211
21
71.6
31
0
70
32
71
5
72
1
41
1
210
0
220
0
230
1
3
Standard
100
AcDbAlignedDimension
13
0
23
23.8125
33
0
14
94
24
34.0875
34
0
50
0
100
AcDbRotatedDimension
1001
ACAD
1000
DSTYLE
1002
{
1070
   279
1070
     0
1070
   172
1070
     1
1070
   173
1070
     1
1070
   340
1005
B1
1070
   271
1070
     1
1070
   272
1070
     2
1070
    77
1070
     1
1070
    73
1070
     0
1070
   171
1070
     3
1070
   274
1070
     4
1070
   177
1070
     2
1070
   176
1070
     2
1070
   178
1070
     2
1070
    78
1070
     8
1070
    48
1040
-0.005
1070
    41
1041
4.5
1070
   147
1041
2.25
1070
    42
1041
1.5875
1070
    44
1041
2.0
1070
   140
1041
4.5
1070
   343
1005
0
1070
   344
1005
0
1002
}
0
DIMENSION
5
108
100
AcDbEntity
8
SK2
62
256
6
ByLayer
370
-3
48
1
60
0
100
AcDbDimension
2
DimnDraft3D4
10
27
20
51.6
30
0
11
10.871053
21
51.6
31
0
70
32
71
5
72
1
41
1
210
0
220
0
230
1
3
Standard
100
AcDbAlignedDimension
13
0
23
23.8125
33
0
14
27
24
33.076
34
0
50
0
100
AcDbRotatedDimension
1001
ACAD
1000
DSTYLE
1002
{
1070
   279
1070
     0
1070
   172
1070
     1
1070
   173
1070
     1
1070
   340
1005
B1
1070
   271
1070
     2
1070
   272
1070
     2
1070
    77
1070
     1
1070
    73
1070
     0
1070
   171
1070
     3
1070
   274
1070
     4
1070
   177
1070
     2
1070
   176
1070
     2
1070
   178
1070
     2
1070
    78
1070
     8
1070
    48
1040
-0.005
1070
    41
1041
4.5
1070
   147
1041
2.25
1070
    42
1041
1.5875
1070
    44
1041
2.0
1070
   140
1041
4.5
1070
   343
1005
0
1070
   344
1005
0
1002
}
0
DIMENSION
5
112
100
AcDbEntity
8
SK2
62
256
6
ByLayer
370
-3
48
1
60
0
100
AcDbDimension
2
DimnDraft3D5
10
-65.4
20
71.6
30
0
11
-37.981579
21
71.6
31
0
70
32
71
5
72
1
41
1
210
0
220
0
230
1
3
Standard
100
AcDbAlignedDimension
13
0
23
23.8125
33
0
14
-65.4
24
13.7875
34
0
50
0
100
AcDbRotatedDimension
1001
ACAD
1000
DSTYLE
1002
{
1070
   279
1070
     0
1070
   172
1070
     1
1070
   173
1070
     1
1070
   340
1005
B1
1070
   271
1070
     1
1070
   272
1070
     2
1070
    77
1070
     1
1070
    73
1070
     0
1070
   171
1070
     3
1070
   274
1070
     4
1070
   177
1070
     2
1070
   176
1070
     2
1070
   178
1070
     2
1070
    78
1070
     8
1070
    48
1040
-0.005
1070
    41
1041
4.5
1070
   147
1041
2.25
1070
    42
1041
1.5875
1070
    44
1041
2.0
1070
   140
1041
4.5
1070
   343
1005
0
1070
   344
1005
0
1002
}
0
DIMENSION
5
11C
100
AcDbEntity
8
SK2
62
256
6
ByLayer
370
-3
48
1
60
0
100
AcDbDimension
2
DimnDraft3D6
10
37
20
-61.1
30
0
11
44.758553
21
-61.1
31
0
70
32
71
5
72
1
41
1
210
0
220
0
230
1
3
Standard
100
AcDbAlignedDimension
13
94
23
-14.0875
33
0
14
37
24
-14.0875
34
0
50
0
100
AcDbRotatedDimension
1001
ACAD
1000
DSTYLE
1002
{
1070
   279
1070
     0
1070
   172
1070
     1
1070
   173
1070
     1
1070
   340
1005
B1
1070
   271
1070
     0
1070
   272
1070
     2
1070
    77
1070
     1
1070
    73
1070
     0
1070
   171
1070
     3
1070
   274
1070
     4
1070
   177
1070
     2
1070
   176
1070
     2
1070
   178
1070
     2
1070
    78
1070
     8
1070
    48
1040
-0.005
1070
    41
1041
4.5
1070
   147
1041
2.25
1070
    42
1041
1.5875
1070
    44
1041
2.0
1070
   140
1041
4.5
1070
   343
1005
0
1070
   344
1005
0
1002
}
0
DIMENSION
5
127
100
AcDbEntity
8
SK2
62
256
6
ByLayer
370
-3
48
1
60
0
100
AcDbDimension
2
DimnDraft3D7
10
152.25
20
32.5
30
0
11
152.25
21
-7.878947
31
0
70
32
71
5
72
1
41
1
210
0
220
0
230
1
3
Standard
100
AcDbAlignedDimension
13
76.7875
23
-32.5
33
0
14
76.7875
24
32.5
34
0
50
90
100
AcDbRotatedDimension
1001
ACAD
1000
DSTYLE
1002
{
1070
    74
1070
     0
1070
   279
1070
     0
1070
   172
1070
     1
1070
   173
1070
     1
1070
   340
1005
B1
1070
   271
1070
     1
1070
   272
1070
     2
1070
    77
1070
     1
1070
    73
1070
     0
1070
   171
1070
     3
1070
   274
1070
     4
1070
   177
1070
     2
1070
   176
1070
     2
1070
   178
1070
     2
1070
    78
1070
     8
1070
    48
1040
-0.005
1070
    41
1041
4.5
1070
   147
1041
2.25
1070
    42
1041
1.5875
1070
    44
1041
2.0
1070
   140
1041
4.5
1070
   343
1005
0
1070
   344
1005
0
1002
}
0
DIMENSION
5
132
100
AcDbEntity
8
SK2
62
256
6
ByLayer
370
-3
48
1
60
0
100
AcDbDimension
2
DimnDraft3D8
10
136.25
20
-12.5
30
0
11
136.25
21
-7.878947
31
0
70
32
71
5
72
1
41
1
210
0
220
0
230
1
3
Standard
100
AcDbAlignedDimension
13
95.5875
23
12.5
33
0
14
95.5875
24
-12.5
34
0
50
90
100
AcDbRotatedDimension
1001
ACAD
1000
DSTYLE
1002
{
1070
    74
1070
     0
1070
   279
1070
     0
1070
   172
1070
     1
1070
   173
1070
     1
1070
   340
1005
B1
1070
   271
1070
     1
1070
   272
1070
     2
1070
    77
1070
     1
1070
    73
1070
     0
1070
   171
1070
     3
1070
   274
1070
     4
1070
   177
1070
     2
1070
   176
1070
     2
1070
   178
1070
     2
1070
    78
1070
     8
1070
    48
1040
-0.005
1070
    41
1041
4.5
1070
   147
1041
2.25
1070
    42
1041
1.5875
1070
    44
1041
2.0
1070
   140
1041
4.5
1070
   343
1005
0
1070
   344
1005
0
1002
}
0
ENDSEC
0
SECTION
2
OBJECTS
0
DICTIONARY
5
164
330
0
100
AcDbDictionary
280
0
281
1
3
ACAD_GROUP
350
165
3
ACAD_MLINESTYLE
350
166
0
DICTIONARY
5
165
330
0
100
AcDbDictionary
280
0
281
1
0
DICTIONARY
5
166
330
0
100
AcDbDictionary
280
0
281
1
3
Standard
350
18
0
MLINESTYLE
5
18
330
166
100
AcDbMlineStyle
2
Standard
70
0
3

62
256
51
90
52
90
71
2
49
-0.5
62
256
6
ByLayer
49
0.5
62
256
6
ByLayer
0
RASTERVARIABLES
5
151
330

100
AcDbRasterVariables
90
0
70
1
71
1
72
1
0
ENDSEC
0
EOF
