0
SECTION
2
HEADER
9
$ACADVER
1
AC1015
9
$DWGCODEPAGE
3
ANSI_1252
9
$HANDSEED
5
311
9
$ANGBASE
50
0
9
$ANGDIR
70
0
9
$ATTMODE
70
1
9
$AUNITS
70
0
9
$AUPREC
70
0
9
$CECOLOR
62
256
9
$CELTSCALE
40
1
9
$CELTYPE
6
ByLayer
9
$CELWEIGHT
370
-1
9
$CLAYER
8
0
9
$CMLJUST
70
0
9
$CMLSCALE
40
1
9
$CMLSTYLE
2
Standard
9
$DIMSTYLE
2
Standard
9
$TEXTSIZE
40
0.2
9
$TEXTSTYLE
7
Standard
9
$LUNITS
70
2
9
$LUPREC
70
4
9
$EXTNAMES
290
1
9
$INSUNITS
70
4
9
$LTSCALE
40
1
9
$LWDISPLAY
290
0
9
$PDMODE
70
0
9
$PDSIZE
40
0
9
$PLINEGEN
70
0
0
ENDSEC
0
SECTION
2
CLASSES
0
CLASS
1
RASTERVARIABLES
2
AcDbRasterVariables
3
ISM
90
0
280
0
281
0
0
ENDSEC
0
SECTION
2
TABLES
0
TABLE
2
VPORT
5
307
100
AcDbSymbolTable
0
VPORT
5
1
100
AcDbSymbolTableRecord
100
AcDbViewportTableRecord
2
*Active
70
0
10
0
20
0
11
1
21
1
12
-1
22
1
13
0
23
0
14
0.5
24
0.5
15
10
25
10
16
0
26
0
36
1
17
0
27
0
37
0
0
ENDTAB
0
TABLE
2
LTYPE
5
308
100
AcDbSymbolTable
0
LTYPE
5
14
100
AcDbSymbolTableRecord
100
AcDbLinetypeTableRecord
70
0
2
ByBlock
3

72
65
73
0
40
0
0
LTYPE
5
15
100
AcDbSymbolTableRecord
100
AcDbLinetypeTableRecord
70
0
2
ByLayer
3

72
65
73
0
40
0
0
LTYPE
5
16
100
AcDbSymbolTableRecord
100
AcDbLinetypeTableRecord
70
0
2
CONTINUOUS
3
Solid line
72
65
73
0
40
0
0
LTYPE
5
3B
100
AcDbSymbolTableRecord
100
AcDbLinetypeTableRecord
70
0
2
DASHED
3
__ __ __ __ __ __ __ __ __
72
65
73
2
40
25.72
49
12.86
74
0
49
-12.86
74
0
0
LTYPE
5
3C
100
AcDbSymbolTableRecord
100
AcDbLinetypeTableRecord
70
0
2
HIDDEN
3
_ _ _ _ _ _ _ _ _ _ _ _ _ _ _
72
65
73
2
40
0.5
49
0.25
74
0
49
-0.25
74
0
0
LTYPE
5
3D
100
AcDbSymbolTableRecord
100
AcDbLinetypeTableRecord
70
0
2
PHANTOM
3
____ _ _ ____ _ _ _____ _ _ ____
72
65
73
6
40
50.5
49
18
74
0
49
-6.5
74
0
49
6.5
74
0
49
-6.5
74
0
49
6.5
74
0
49
-6.5
74
0
0
LTYPE
5
3E
100
AcDbSymbolTableRecord
100
AcDbLinetypeTableRecord
70
0
2
CENTER
3
____ _ ____ _ ____ _ ____
72
65
73
4
40
47.5
49
22
74
0
49
-8.5
74
0
49
8.5
74
0
49
-8.5
74
0
0
LTYPE
5
3F
100
AcDbSymbolTableRecord
100
AcDbLinetypeTableRecord
70
0
2
DOT
3
.........................
72
65
73
2
40
10
49
0
74
0
49
-10
74
0
0
LTYPE
5
40
100
AcDbSymbolTableRecord
100
AcDbLinetypeTableRecord
70
0
2
DASHDOT
3
_._._._._._._._._._._._._._._._.
72
65
73
4
40
70
49
31
74
0
49
-13
74
0
49
13
74
0
49
-13
74
0
0
ENDTAB
0
TABLE
2
LAYER
5
309
100
AcDbSymbolTable
0
LAYER
5
10
100
AcDbSymbolTableRecord
100
AcDbLayerTableRecord
2
0
70
0
62
7
6
CONTINUOUS
290
1
370
-3
390
0
0
LAYER
5
42
100
AcDbSymbolTableRecord
100
AcDbLayerTableRecord
2
81
70
0
62
-3
6
CONTINUOUS
290
1
370
-3
390
0
0
LAYER
5
44
100
AcDbSymbolTableRecord
100
AcDbLayerTableRecord
2
80
70
0
62
-6
6
CONTINUOUS
290
1
370
-3
390
0
0
LAYER
5
48
100
AcDbSymbolTableRecord
100
AcDbLayerTableRecord
2
1
70
0
62
4
6
CONTINUOUS
290
1
370
-3
390
0
0
LAYER
5
60
100
AcDbSymbolTableRecord
100
AcDbLayerTableRecord
2
4
70
0
62
-2
6
CENTER
290
1
370
-3
390
0
0
LAYER
5
2A0
100
AcDbSymbolTableRecord
100
AcDbLayerTableRecord
2
2
70
0
62
7
6
CONTINUOUS
290
1
370
-3
390
0
0
LAYER
5
2f3
100
AcDbSymbolTableRecord
100
AcDbLayerTableRecord
2
SK1
70
0
62
4
6
CONTINUOUS
290
1
370
-3
390
0
0
LAYER
5
2f4
100
AcDbSymbolTableRecord
100
AcDbLayerTableRecord
2
SK4
70
0
62
2
6
CENTER
290
1
370
-3
390
0
0
LAYER
5
2f5
100
AcDbSymbolTableRecord
100
AcDbLayerTableRecord
2
SK6
70
0
62
5
6
CONTINUOUS
290
1
370
-3
390
0
0
LAYER
5
2f6
100
AcDbSymbolTableRecord
100
AcDbLayerTableRecord
2
SK2
70
0
62
7
6
CONTINUOUS
290
1
370
-3
390
0
0
ENDTAB
0
TABLE
2
STYLE
5
30a
100
AcDbSymbolTable
0
STYLE
5
11
100
AcDbSymbolTableRecord
100
AcDbTextStyleTableRecord
2
Standard
3
txt
70
0
71
0
40
0
41
1
42
0
50
0
0
STYLE
5
264
100
AcDbSymbolTableRecord
100
AcDbTextStyleTableRecord
2
DEFAULT
3
simplex.shx
70
0
71
0
40
0
41
1
42
0
50
0
0
STYLE
5
287
100
AcDbSymbolTableRecord
100
AcDbTextStyleTableRecord
2
DWGDirectTextStyle
3
SIMPLEX
70
0
71
0
40
0
41
1
42
0
50
0
0
ENDTAB
0
TABLE
2
DIMSTYLE
5
30b
100
AcDbSymbolTable
100
AcDbDimStyleTable
0
DIMSTYLE
105
27
100
AcDbSymbolTableRecord
100
AcDbDimStyleTableRecord
2
Standard
70
0
3
<>
41
0.18
42
0.0625
44
0.18
140
0.18
147
0.09
73
0
74
0
77
1
271
2
275
0
278
52
280
0
340
11
0
ENDTAB
0
TABLE
2
VIEW
5
30c
100
AcDbSymbolTable
0
ENDTAB
0
TABLE
2
UCS
5
30d
100
AcDbSymbolTable
0
ENDTAB
0
TABLE
2
APPID
5
30e
100
AcDbSymbolTable
0
APPID
5
12
100
AcDbSymbolTableRecord
100
AcDbRegAppTableRecord
2
ACAD
70
0
0
ENDTAB
0
TABLE
2
BLOCK_RECORD
5
30f
100
AcDbSymbolTable
0
BLOCK_RECORD
5
1F
100
AcDbSymbolTableRecord
100
AcDbBlockTableRecord
2
*Model_Space
340
0
70
0
0
BLOCK_RECORD
5
1B
100
AcDbSymbolTableRecord
100
AcDbBlockTableRecord
2
*Paper_Space
340
0
70
0
0
BLOCK_RECORD
5
23
100
AcDbSymbolTableRecord
100
AcDbBlockTableRecord
2
*Paper_Space0
340
0
70
0
0
BLOCK_RECORD
5
289
100
AcDbSymbolTableRecord
100
AcDbBlockTableRecord
2
DimnDraft3D1
340
0
70
0
0
BLOCK_RECORD
5
294
100
AcDbSymbolTableRecord
100
AcDbBlockTableRecord
2
DimnDraft3D2
340
0
70
0
0
BLOCK_RECORD
5
29E
100
AcDbSymbolTableRecord
100
AcDbBlockTableRecord
2
DimnDraft3D3
340
0
70
0
0
BLOCK_RECORD
5
2A9
100
AcDbSymbolTableRecord
100
AcDbBlockTableRecord
2
DimnDraft3D4
340
0
70
0
0
BLOCK_RECORD
5
2B3
100
AcDbSymbolTableRecord
100
AcDbBlockTableRecord
2
DimnDraft3D5
340
0
70
0
0
BLOCK_RECORD
5
2BE
100
AcDbSymbolTableRecord
100
AcDbBlockTableRecord
2
DimnDraft3D6
340
0
70
0
0
BLOCK_RECORD
5
2C9
100
AcDbSymbolTableRecord
100
AcDbBlockTableRecord
2
DimnDraft3D7
340
0
70
0
0
ENDTAB
0
ENDSEC
0
SECTION
2
BLOCKS
0
BLOCK
5
20
100
AcDbEntity
8
0
100
AcDbBlockBegin
2
*Model_Space
70
0
10
0
20
0
30
0
3
*Model_Space
0
ENDBLK
5
21
100
AcDbEntity
8
0
100
AcDbBlockEnd
0
BLOCK
5
1C
100
AcDbEntity
8
0
100
AcDbBlockBegin
2
*Paper_Space
70
0
10
0
20
0
30
0
3
*Paper_Space
0
ENDBLK
5
1D
100
AcDbEntity
8
0
100
AcDbBlockEnd
0
BLOCK
5
24
100
AcDbEntity
8
0
100
AcDbBlockBegin
2
*Paper_Space0
70
0
10
0
20
0
30
0
3
*Paper_Space0
0
ENDBLK
5
25
100
AcDbEntity
8
0
100
AcDbBlockEnd
0
BLOCK
5
291
100
AcDbEntity
8
0
100
AcDbBlockBegin
2
DimnDraft3D1
70
0
10
0
20
0
30
0
3
DimnDraft3D1
0
MTEXT
5
28A
100
AcDbEntity
8
SK2
62
256
6
ByLayer
370
-1
48
1
60
0
100
AcDbMText
10
73.344079
20
-67.0258
30
0
210
0
220
0
230
1
1
\W01.000;\fsimplex.shx,bigfont.shx;(302) 
40
4.5
41
0
44
1.084337
50
0
71
7
72
5
7
DEFAULT
0
LINE
5
28C
100
AcDbEntity
8
SK2
62
256
6
ByLayer
370
-1
48
1
60
0
100
AcDbLine
10
-70
20
-21.5875
30
0
11
-70
21
-73.29455
31
0
39
0
210
0
220
0
230
1
0
LINE
5
28D
100
AcDbEntity
8
SK2
62
256
6
ByLayer
370
-1
48
1
60
0
100
AcDbLine
10
232
20
-32.0875
30
0
11
232
21
-73.29455
31
0
39
0
210
0
220
0
230
1
0
LINE
5
28E
100
AcDbEntity
8
SK2
62
256
6
ByLayer
370
-1
48
1
60
0
100
AcDbLine
10
-70
20
-70.11955
30
0
11
232
21
-70.11955
31
0
39
0
210
0
220
0
230
1
0
SOLID
5
28F
100
AcDbEntity
8
SK2
62
256
6
ByLayer
370
-1
48
1
60
0
100
AcDbTrace
10
-70
20
-70.11955
30
0
11
-65.825003
21
-69.193975
31
0
12
-65.824997
22
-71.045125
32
0
13
-70
23
-70.11955
33
0
39
0
210
0
220
0
230
1
0
SOLID
5
290
100
AcDbEntity
8
SK2
62
256
6
ByLayer
370
-1
48
1
60
0
100
AcDbTrace
10
232
20
-70.11955
30
0
11
227.825003
21
-71.045125
31
0
12
227.824997
22
-69.193975
32
0
13
232
23
-70.11955
33
0
39
0
210
0
220
0
230
1
0
ENDBLK
5
292
100
AcDbEntity
8
0
100
AcDbBlockEnd
0
BLOCK
5
29B
100
AcDbEntity
8
0
100
AcDbBlockBegin
2
DimnDraft3D2
70
0
10
0
20
0
30
0
3
DimnDraft3D2
0
MTEXT
5
295
100
AcDbEntity
8
SK2
62
256
6
ByLayer
370
-1
48
1
60
0
100
AcDbMText
10
-36.503947
20
-57.0258
30
0
210
0
220
0
230
1
1
\W01.000;\fsimplex.shx,bigfont.shx;70 
40
4.5
41
0
44
1.084337
50
0
71
7
72
5
7
DEFAULT
0
LINE
5
296
100
AcDbEntity
8
SK2
62
256
6
ByLayer
370
-1
48
1
60
0
100
AcDbLine
10
-70
20
-21.5875
30
0
11
-70
21
-61.3258
31
0
39
0
210
0
220
0
230
1
0
LINE
5
297
100
AcDbEntity
8
SK2
62
256
6
ByLayer
370
-1
48
1
60
0
100
AcDbLine
10
0
20
-32.8375
30
0
11
0
21
-61.3258
31
0
39
0
210
0
220
0
230
1
0
LINE
5
298
100
AcDbEntity
8
SK2
62
256
6
ByLayer
370
-1
48
1
60
0
100
AcDbLine
10
-70
20
-58.1508
30
0
11
0
21
-58.1508
31
0
39
0
210
0
220
0
230
1
0
SOLID
5
299
100
AcDbEntity
8
SK2
62
256
6
ByLayer
370
-1
48
1
60
0
100
AcDbTrace
10
-70
20
-58.1508
30
0
11
-65.825003
21
-57.225225
31
0
12
-65.824997
22
-59.076375
32
0
13
-70
23
-58.1508
33
0
39
0
210
0
220
0
230
1
0
SOLID
5
29A
100
AcDbEntity
8
SK2
62
256
6
ByLayer
370
-1
48
1
60
0
100
AcDbTrace
10
0
20
-58.1508
30
0
11
-4.174997
21
-59.076375
31
0
12
-4.175003
22
-57.225225
32
0
13
0
23
-58.1508
33
0
39
0
210
0
220
0
230
1
0
ENDBLK
5
29C
100
AcDbEntity
8
0
100
AcDbBlockEnd
0
BLOCK
5
2A6
100
AcDbEntity
8
0
100
AcDbBlockBegin
2
DimnDraft3D3
70
0
10
0
20
0
30
0
3
DimnDraft3D3
0
MTEXT
5
29F
100
AcDbEntity
8
2
62
256
6
ByLayer
370
-1
48
1
60
0
100
AcDbMText
10
112.844079
20
-57.0258
30
0
210
0
220
0
230
1
1
\W01.000;\fsimplex.shx,bigfont.shx;232 
40
4.5
41
0
44
1.084337
50
0
71
7
72
5
7
DEFAULT
0
LINE
5
2A1
100
AcDbEntity
8
2
62
256
6
ByLayer
370
-1
48
1
60
0
100
AcDbLine
10
0
20
-32.8375
30
0
11
0
21
-61.3258
31
0
39
0
210
0
220
0
230
1
0
LINE
5
2A2
100
AcDbEntity
8
2
62
256
6
ByLayer
370
-1
48
1
60
0
100
AcDbLine
10
232
20
-32.0875
30
0
11
232
21
-61.3258
31
0
39
0
210
0
220
0
230
1
0
LINE
5
2A3
100
AcDbEntity
8
2
62
256
6
ByLayer
370
-1
48
1
60
0
100
AcDbLine
10
0
20
-58.1508
30
0
11
232
21
-58.1508
31
0
39
0
210
0
220
0
230
1
0
SOLID
5
2A4
100
AcDbEntity
8
2
62
256
6
ByLayer
370
-1
48
1
60
0
100
AcDbTrace
10
0
20
-58.1508
30
0
11
4.174997
21
-57.225225
31
0
12
4.175003
22
-59.076375
32
0
13
0
23
-58.1508
33
0
39
0
210
0
220
0
230
1
0
SOLID
5
2A5
100
AcDbEntity
8
2
62
256
6
ByLayer
370
-1
48
1
60
0
100
AcDbTrace
10
232
20
-58.1508
30
0
11
227.825003
21
-59.076375
31
0
12
227.824997
22
-57.225225
32
0
13
232
23
-58.1508
33
0
39
0
210
0
220
0
230
1
0
ENDBLK
5
2A7
100
AcDbEntity
8
0
100
AcDbBlockEnd
0
BLOCK
5
2B0
100
AcDbEntity
8
0
100
AcDbBlockBegin
2
DimnDraft3D4
70
0
10
0
20
0
30
0
3
DimnDraft3D4
0
MTEXT
5
2AA
100
AcDbEntity
8
SK2
62
256
6
ByLayer
370
-1
48
1
60
0
100
AcDbMText
10
134.406579
20
-47.0258
30
0
210
0
220
0
230
1
1
\W01.000;\fsimplex.shx,bigfont.shx;190 
40
4.5
41
0
44
1.084337
50
0
71
7
72
5
7
DEFAULT
0
LINE
5
2AB
100
AcDbEntity
8
SK2
62
256
6
ByLayer
370
-1
48
1
60
0
100
AcDbLine
10
42
20
-11.5875
30
0
11
42
21
-51.3258
31
0
39
0
210
0
220
0
230
1
0
LINE
5
2AC
100
AcDbEntity
8
SK2
62
256
6
ByLayer
370
-1
48
1
60
0
100
AcDbLine
10
232
20
-32.0875
30
0
11
232
21
-51.3258
31
0
39
0
210
0
220
0
230
1
0
LINE
5
2AD
100
AcDbEntity
8
SK2
62
256
6
ByLayer
370
-1
48
1
60
0
100
AcDbLine
10
42
20
-48.1508
30
0
11
232
21
-48.1508
31
0
39
0
210
0
220
0
230
1
0
SOLID
5
2AE
100
AcDbEntity
8
SK2
62
256
6
ByLayer
370
-1
48
1
60
0
100
AcDbTrace
10
42
20
-48.1508
30
0
11
46.174997
21
-47.225225
31
0
12
46.175003
22
-49.076375
32
0
13
42
23
-48.1508
33
0
39
0
210
0
220
0
230
1
0
SOLID
5
2AF
100
AcDbEntity
8
SK2
62
256
6
ByLayer
370
-1
48
1
60
0
100
AcDbTrace
10
232
20
-48.1508
30
0
11
227.825003
21
-49.076375
31
0
12
227.824997
22
-47.225225
32
0
13
232
23
-48.1508
33
0
39
0
210
0
220
0
230
1
0
ENDBLK
5
2B1
100
AcDbEntity
8
0
100
AcDbBlockEnd
0
BLOCK
5
2BB
100
AcDbEntity
8
0
100
AcDbBlockBegin
2
DimnDraft3D5
70
0
10
0
20
0
30
0
3
DimnDraft3D5
0
MTEXT
5
2B4
100
AcDbEntity
8
SK2
62
256
6
ByLayer
370
-1
48
1
60
0
100
AcDbMText
10
-80.975
20
5.009211
30
0
210
0
220
0
230
1
1
\W01.000;\fsimplex.shx,bigfont.shx;40 
40
4.5
41
0
44
1.084337
50
90
71
7
72
5
7
DEFAULT
0
MTEXT
5
2B5
100
AcDbEntity
8
SK2
62
256
6
ByLayer
370
-1
48
1
60
0
100
AcDbMText
10
-80.975
20
-8.490789
30
0
210
0
220
0
230
1
1
\W01.000;\fsimplex.shx,bigfont.shx;%%c 
40
4.5
41
0
44
1.084337
50
90
71
7
72
5
7
DEFAULT
0
LINE
5
2B6
100
AcDbEntity
8
SK2
62
256
6
ByLayer
370
-1
48
1
60
0
100
AcDbLine
10
-71.5875
20
20
30
0
11
-81.9
21
20
31
0
39
0
210
0
220
0
230
1
0
LINE
5
2B7
100
AcDbEntity
8
SK2
62
256
6
ByLayer
370
-1
48
1
60
0
100
AcDbLine
10
-71.5875
20
-20
30
0
11
-81.9
21
-20
31
0
39
0
210
0
220
0
230
1
0
LINE
5
2B8
100
AcDbEntity
8
SK2
62
256
6
ByLayer
370
-1
48
1
60
0
100
AcDbLine
10
-78.725
20
20
30
0
11
-78.725
21
-20
31
0
39
0
210
0
220
0
230
1
0
SOLID
5
2B9
100
AcDbEntity
8
SK2
62
256
6
ByLayer
370
-1
48
1
60
0
100
AcDbTrace
10
-78.725
20
20
30
0
11
-77.799425
21
15.825003
31
0
12
-79.650575
22
15.824997
32
0
13
-78.725
23
20
33
0
39
0
210
0
220
0
230
1
0
SOLID
5
2BA
100
AcDbEntity
8
SK2
62
256
6
ByLayer
370
-1
48
1
60
0
100
AcDbTrace
10
-78.725
20
-20
30
0
11
-79.650575
21
-15.825003
31
0
12
-77.799425
22
-15.824997
32
0
13
-78.725
23
-20
33
0
39
0
210
0
220
0
230
1
0
ENDBLK
5
2BC
100
AcDbEntity
8
0
100
AcDbBlockEnd
0
BLOCK
5
2C6
100
AcDbEntity
8
0
100
AcDbBlockBegin
2
DimnDraft3D6
70
0
10
0
20
0
30
0
3
DimnDraft3D6
0
MTEXT
5
2BF
100
AcDbEntity
8
SK2
62
256
6
ByLayer
370
-1
48
1
60
0
100
AcDbMText
10
-90.975
20
2.711842
30
0
210
0
220
0
230
1
1
\W01.000;\fsimplex.shx,bigfont.shx;62.5 
40
4.5
41
0
44
1.084337
50
90
71
7
72
5
7
DEFAULT
0
MTEXT
5
2C0
100
AcDbEntity
8
SK2
62
256
6
ByLayer
370
-1
48
1
60
0
100
AcDbMText
10
-90.975
20
-10.788158
30
0
210
0
220
0
230
1
1
\W01.000;\fsimplex.shx,bigfont.shx;%%c 
40
4.5
41
0
44
1.084337
50
90
71
7
72
5
7
DEFAULT
0
LINE
5
2C1
100
AcDbEntity
8
SK2
62
256
6
ByLayer
370
-1
48
1
60
0
100
AcDbLine
10
-1.5875
20
-31.25
30
0
11
-91.9
21
-31.25
31
0
39
0
210
0
220
0
230
1
0
LINE
5
2C2
100
AcDbEntity
8
SK2
62
256
6
ByLayer
370
-1
48
1
60
0
100
AcDbLine
10
-1.5875
20
31.25
30
0
11
-91.9
21
31.25
31
0
39
0
210
0
220
0
230
1
0
LINE
5
2C3
100
AcDbEntity
8
SK2
62
256
6
ByLayer
370
-1
48
1
60
0
100
AcDbLine
10
-88.725
20
-31.25
30
0
11
-88.725
21
31.25
31
0
39
0
210
0
220
0
230
1
0
SOLID
5
2C4
100
AcDbEntity
8
SK2
62
256
6
ByLayer
370
-1
48
1
60
0
100
AcDbTrace
10
-88.725
20
-31.25
30
0
11
-89.650575
21
-27.075003
31
0
12
-87.799425
22
-27.074997
32
0
13
-88.725
23
-31.25
33
0
39
0
210
0
220
0
230
1
0
SOLID
5
2C5
100
AcDbEntity
8
SK2
62
256
6
ByLayer
370
-1
48
1
60
0
100
AcDbTrace
10
-88.725
20
31.25
30
0
11
-87.799425
21
27.075003
31
0
12
-89.650575
22
27.074997
32
0
13
-88.725
23
31.25
33
0
39
0
210
0
220
0
230
1
0
ENDBLK
5
2C7
100
AcDbEntity
8
0
100
AcDbBlockEnd
0
BLOCK
5
2D1
100
AcDbEntity
8
0
100
AcDbBlockBegin
2
DimnDraft3D7
70
0
10
0
20
0
30
0
3
DimnDraft3D7
0
MTEXT
5
2CA
100
AcDbEntity
8
2
62
256
6
ByLayer
370
-1
48
1
60
0
100
AcDbMText
10
256.725
20
5.808553
30
0
210
0
220
0
230
1
1
\W01.000;\fsimplex.shx,bigfont.shx;61 
40
4.5
41
0
44
1.084337
50
90
71
7
72
5
7
DEFAULT
0
MTEXT
5
2CB
100
AcDbEntity
8
2
62
256
6
ByLayer
370
-1
48
1
60
0
100
AcDbMText
10
256.725
20
-7.691447
30
0
210
0
220
0
230
1
1
\W01.000;\fsimplex.shx,bigfont.shx;%%c 
40
4.5
41
0
44
1.084337
50
90
71
7
72
5
7
DEFAULT
0
LINE
5
2CC
100
AcDbEntity
8
2
62
256
6
ByLayer
370
-1
48
1
60
0
100
AcDbLine
10
233.5875
20
30.5
30
0
11
262.15
21
30.5
31
0
39
0
210
0
220
0
230
1
0
LINE
5
2CD
100
AcDbEntity
8
2
62
256
6
ByLayer
370
-1
48
1
60
0
100
AcDbLine
10
233.5875
20
-30.5
30
0
11
262.15
21
-30.5
31
0
39
0
210
0
220
0
230
1
0
LINE
5
2CE
100
AcDbEntity
8
2
62
256
6
ByLayer
370
-1
48
1
60
0
100
AcDbLine
10
258.975
20
30.5
30
0
11
258.975
21
-30.5
31
0
39
0
210
0
220
0
230
1
0
SOLID
5
2CF
100
AcDbEntity
8
2
62
256
6
ByLayer
370
-1
48
1
60
0
100
AcDbTrace
10
258.975
20
30.5
30
0
11
259.900575
21
26.325003
31
0
12
258.049425
22
26.324997
32
0
13
258.975
23
30.5
33
0
39
0
210
0
220
0
230
1
0
SOLID
5
2D0
100
AcDbEntity
8
2
62
256
6
ByLayer
370
-1
48
1
60
0
100
AcDbTrace
10
258.975
20
-30.5
30
0
11
258.049425
21
-26.325003
31
0
12
259.900575
22
-26.324997
32
0
13
258.975
23
-30.5
33
0
39
0
210
0
220
0
230
1
0
ENDBLK
5
2D2
100
AcDbEntity
8
0
100
AcDbBlockEnd
0
ENDSEC
0
SECTION
2
ENTITIES
0
ARC
5
F0
100
AcDbEntity
8
SK1
62
256
6
ByLayer
370
-1
48
1
60
0
100
AcDbCircle
39
0
10
1.383773
20
20.15
30
0
40
0.4
210
0
220
0
230
-1
100
AcDbArc
50
270
51
295
0
ARC
5
F1
100
AcDbEntity
8
SK1
62
256
6
ByLayer
370
-1
48
1
60
0
100
AcDbCircle
39
0
10
1.383773
20
-20.15
30
0
40
0.4
210
0
220
0
230
-1
100
AcDbArc
50
65
51
90
0
ARC
5
F2
100
AcDbEntity
8
SK1
62
256
6
ByLayer
370
-1
48
1
60
0
100
AcDbCircle
39
0
10
0.15
20
20.15
30
0
40
0.4
210
0
220
0
230
-1
100
AcDbArc
50
247.975687
51
270
0
ARC
5
F3
100
AcDbEntity
8
SK1
62
256
6
ByLayer
370
-1
48
1
60
0
100
AcDbCircle
39
0
10
0.15
20
-20.15
30
0
40
0.4
210
0
220
0
230
-1
100
AcDbArc
50
90
51
112.024313
0
ARC
5
F4
100
AcDbEntity
8
SK1
62
256
6
ByLayer
370
-1
48
1
60
0
100
AcDbCircle
39
0
10
67.894506
20
20.396
30
0
40
0.8
210
0
220
0
230
-1
100
AcDbArc
50
250.982048
51
321
0
ARC
5
F5
100
AcDbEntity
8
SK1
62
256
6
ByLayer
370
-1
48
1
60
0
100
AcDbCircle
39
0
10
67.894506
20
-20.396
30
0
40
0.8
210
0
220
0
230
-1
100
AcDbArc
50
39
51
109.017952
0
ELLIPSE
5
F6
100
AcDbEntity
8
1
62
256
6
ByLayer
370
-1
48
1
60
0
100
AcDbEllipse
10
214.71038
20
20.311857
30
0
11
-2.25092568282431E-15
21
-2.1
31
0
210
0
220
0
230
1
40
0.996195
41
-2.04006119942522
42
-1.53588974175501
0
ELLIPSE
5
F7
100
AcDbEntity
8
1
62
256
6
ByLayer
370
-1
48
1
60
0
100
AcDbEllipse
10
13.63964
20
0
30
0
11
-526.425240281802
21
-28.624994115149
31
0
210
0
220
0
230
-1
40
0.014313
41
-1.98638156031216
42
-1.95713629016711
0
ELLIPSE
5
F8
100
AcDbEntity
8
1
62
256
6
ByLayer
370
-1
48
1
60
0
100
AcDbEllipse
10
213.777883
20
31.476253
30
0
11
-2.14373874554696E-14
21
-20
31
0
210
0
220
0
230
1
40
0.996195
41
-0.418879020478642
42
-0.0434047493287114
0
ELLIPSE
5
F9
100
AcDbEntity
8
1
62
256
6
ByLayer
370
-1
48
1
60
0
100
AcDbEllipse
10
222.385079
20
20.680754
30
0
11
2.63577002021162E-15
21
2.25
31
0
210
0
220
0
230
1
40
0.996195
41
-1.85157617454789
42
0
0
ELLIPSE
5
FA
100
AcDbEntity
8
1
62
256
6
ByLayer
370
-1
48
1
60
0
100
AcDbEllipse
10
222.385079
20
20.680754
30
0
11
2.63577002021162E-15
21
2.25
31
0
210
0
220
0
230
1
40
0.996195
41
0
42
1.16248744141283
0
ELLIPSE
5
FB
100
AcDbEntity
8
1
62
256
6
ByLayer
370
-1
48
1
60
0
100
AcDbEllipse
10
179.632624
20
23.798563
30
0
11
-31.3924713773026
21
17.1970267302214
31
0
210
0
220
0
230
-1
40
0.095729
41
-2.41164746506871
42
-1.6798224469567
0
ELLIPSE
5
FC
100
AcDbEntity
8
1
62
256
6
ByLayer
370
-1
48
1
60
0
100
AcDbEllipse
10
205.998257
20
13.93618
30
0
11
-0.32642564083682
21
-0.730374082922081
31
0
210
0
220
0
230
1
40
0.079621
41
0.0355698365704091
42
1.60636616336575
0
ELLIPSE
5
FD
100
AcDbEntity
8
1
62
256
6
ByLayer
370
-1
48
1
60
0
100
AcDbEllipse
10
182.150279
20
23.398222
30
0
11
-42.3987675086732
21
19.1702883643969
31
0
210
0
220
0
230
-1
40
0.009652
41
2.08270823330669
42
2.15260682147974
0
ELLIPSE
5
FE
100
AcDbEntity
8
1
62
256
6
ByLayer
370
-1
48
1
60
0
100
AcDbEllipse
10
206.442184
20
19.601144
30
0
11
-1.91499587561384
21
-12.2512362966511
31
0
210
0
220
0
230
1
40
0.21448
41
0.307785324389237
42
0.967057445654565
0
ELLIPSE
5
FF
100
AcDbEntity
8
1
62
256
6
ByLayer
370
-1
48
1
60
0
100
AcDbEllipse
10
213.847608
20
31.476253
30
0
11
2.24919041724725E-14
21
19.2
31
0
210
0
220
0
230
1
40
0.996195
41
2.72271363311115
42
3.07194059112382
0
ELLIPSE
5
100
100
AcDbEntity
8
1
62
256
6
ByLayer
370
-1
48
1
60
0
100
AcDbEllipse
10
229.60018
20
0.368586
30
0
11
-0.0139226415254398
21
0.800954912681392
31
0
210
0
220
0
230
-1
40
0.121673
41
-1.5033871533723
42
0.0674091734303205
0
ELLIPSE
5
101
100
AcDbEntity
8
1
62
256
6
ByLayer
370
-1
48
1
60
0
100
AcDbEllipse
10
214.265886
20
20.311857
30
0
11
2.46005201886418E-15
21
2.1
31
0
210
0
220
0
230
1
40
0.996195
41
0.936707351596551
42
1.60570291183478
0
ELLIPSE
5
102
100
AcDbEntity
8
1
62
256
6
ByLayer
370
-1
48
1
60
0
100
AcDbEllipse
10
213.366213
20
22.402276
30
0
11
-0.773306878417201
21
-0.824449229490129
31
0
210
0
220
0
230
-1
40
0.04503
41
-0.751663164737356
42
-0.69850368913514
0
ELLIPSE
5
103
100
AcDbEntity
8
1
62
256
6
ByLayer
370
-1
48
1
60
0
100
AcDbEllipse
10
222.210624
20
-7.025678
30
0
11
-1.65
21
1.6675544408859E-15
31
0
210
0
220
0
230
1
40
0.998135
41
3.14159250247964
42
0
0
ELLIPSE
5
104
100
AcDbEntity
8
1
62
256
6
ByLayer
370
-1
48
1
60
0
100
AcDbEllipse
10
222.210624
20
-7.025678
30
0
11
-1.65
21
1.6675544408859E-15
31
0
210
0
220
0
230
1
40
0.998135
41
0
42
0.447186085011951
0
ELLIPSE
5
105
100
AcDbEntity
8
1
62
256
6
ByLayer
370
-1
48
1
60
0
100
AcDbEllipse
10
222.210624
20
-7.025678
30
0
11
-1.65
21
1.6675544408859E-15
31
0
210
0
220
0
230
1
40
0.998135
41
2.6112522532977
42
3.14159250247965
0
ELLIPSE
5
106
100
AcDbEntity
8
1
62
256
6
ByLayer
370
-1
48
1
60
0
100
AcDbEllipse
10
213.67339
20
12.870996
30
0
11
-0.799516360141551
21
-0.0278134835287907
31
0
210
0
220
0
230
1
40
0.003042
41
0.087213571465873
42
0.835501239378713
0
ELLIPSE
5
107
100
AcDbEntity
8
1
62
256
6
ByLayer
370
-1
48
1
60
0
100
AcDbEllipse
10
222.995169
20
20.680754
30
0
11
2.34290668463255E-15
21
2
31
0
210
0
220
0
230
1
40
0.996195
41
0.101807365448952
42
1.57079654872776
0
ELLIPSE
5
108
100
AcDbEntity
8
1
62
256
6
ByLayer
370
-1
48
1
60
0
100
AcDbEllipse
10
222.995169
20
20.680754
30
0
11
2.34290668463255E-15
21
2
31
0
210
0
220
0
230
1
40
0.996195
41
3.03860729631731
42
-1.57079625281727
0
ELLIPSE
5
109
100
AcDbEntity
8
1
62
256
6
ByLayer
370
-1
48
1
60
0
100
AcDbEllipse
10
222.995169
20
20.680754
30
0
11
2.34290668463255E-15
21
2
31
0
210
0
220
0
230
1
40
0.996195
41
1.57079654872776
42
3.03860729631731
0
ELLIPSE
5
10A
100
AcDbEntity
8
1
62
256
6
ByLayer
370
-1
48
1
60
0
100
AcDbEllipse
10
222.585537
20
20.680754
30
0
11
2.63577002021162E-15
21
2.25
31
0
210
0
220
0
230
1
40
0.996195
41
0.0349501263397862
42
1.57079643761665
0
ELLIPSE
5
10B
100
AcDbEntity
8
1
62
256
6
ByLayer
370
-1
48
1
60
0
100
AcDbEllipse
10
222.585537
20
20.680754
30
0
11
2.63577002021162E-15
21
2.25
31
0
210
0
220
0
230
1
40
0.996195
41
1.57079643761666
42
1.87572723107153
0
ELLIPSE
5
10C
100
AcDbEntity
8
1
62
256
6
ByLayer
370
-1
48
1
60
0
100
AcDbEllipse
10
234.72214
20
0
30
0
11
-67.3551063982293
21
28.68455481457
31
0
210
0
220
0
230
-1
40
0.108448
41
-1.13080079610616
42
-0.366790088475589
0
ELLIPSE
5
10D
100
AcDbEntity
8
1
62
256
6
ByLayer
370
-1
48
1
60
0
100
AcDbEllipse
10
209.147238
20
19.7
30
0
11
1.17145334231393E-16
21
0.0999999999997999
31
0
210
0
220
0
230
1
40
0.97618
41
2.9901734906679
42
3.06100683555816
0
ELLIPSE
5
10E
100
AcDbEntity
8
1
62
256
6
ByLayer
370
-1
48
1
60
0
100
AcDbEllipse
10
213.205494
20
0.00272
30
0
11
-0.958318692075025
21
29.5971614637395
31
0
210
0
220
0
230
-1
40
0.087402
41
0.0296869217265879
42
0.0355958347178035
0
ELLIPSE
5
10F
100
AcDbEntity
8
1
62
256
6
ByLayer
370
-1
48
1
60
0
100
AcDbEllipse
10
213.416116
20
20.266488
30
0
11
-0.799516360141551
21
-0.0278134835287907
31
0
210
0
220
0
230
1
40
0.003042
41
0.0872135714651397
42
0.835501239377933
0
ELLIPSE
5
110
100
AcDbEntity
8
1
62
256
6
ByLayer
370
-1
48
1
60
0
100
AcDbEllipse
10
206.442184
20
19.601144
30
0
11
-1.91499587561384
21
-12.2512362966511
31
0
210
0
220
0
230
1
40
0.21448
41
1.56097243858347
42
1.60430917105588
0
ELLIPSE
5
111
100
AcDbEntity
8
1
62
256
6
ByLayer
370
-1
48
1
60
0
100
AcDbEllipse
10
221.40936
20
5.3E-05
30
0
11
-338.329244468061
21
-1.63538564370993E-06
31
0
210
0
220
0
230
-1
40
0.087489
41
1.53452198360684
42
1.54394062061947
0
ELLIPSE
5
112
100
AcDbEntity
8
1
62
256
6
ByLayer
370
-1
48
1
60
0
100
AcDbEllipse
10
229.909035
20
12.504589
30
0
11
-0.013236487854836
21
0.80002536668982
31
0
210
0
220
0
230
-1
40
0.121025
41
2.37676826434748
42
-3.14077812053373
0
ELLIPSE
5
113
100
AcDbEntity
8
1
62
256
6
ByLayer
370
-1
48
1
60
0
100
AcDbEllipse
10
228.81664
20
-17.041656
30
0
11
-0.275040803638306
21
-3.10782394791538
31
0
210
0
220
0
230
-1
40
0.123718
41
-2.72727110870367
42
2.81222076422616
0
ELLIPSE
5
114
100
AcDbEntity
8
1
62
256
6
ByLayer
370
-1
48
1
60
0
100
AcDbEllipse
10
182.971143
20
23.269912
30
0
11
-1.91499587561384
21
-12.2512362966511
31
0
210
0
220
0
230
1
40
0.21448
41
1.37983656453759
42
1.54802426550438
0
ELLIPSE
5
115
100
AcDbEntity
8
1
62
256
6
ByLayer
370
-1
48
1
60
0
100
AcDbEllipse
10
214.872552
20
12.916365
30
0
11
-1.83236116208112
21
-1.63166900511015
31
0
210
0
220
0
230
-1
40
0.721468
41
-1.3015258845981
42
-0.789346067695097
0
ELLIPSE
5
116
100
AcDbEntity
8
1
62
256
6
ByLayer
370
-1
48
1
60
0
100
AcDbEllipse
10
222.210624
20
-7.526276
30
0
11
-2
21
2.02127811016473E-15
31
0
210
0
220
0
230
1
40
0.998135
41
-2.12106600584354
42
-1.02062521243922
0
ELLIPSE
5
117
100
AcDbEntity
8
1
62
256
6
ByLayer
370
-1
48
1
60
0
100
AcDbEllipse
10
222.210624
20
-7.526276
30
0
11
-2
21
2.02127811016473E-15
31
0
210
0
220
0
230
1
40
0.998135
41
0
42
-3.1415926390981
0
ELLIPSE
5
118
100
AcDbEntity
8
1
62
256
6
ByLayer
370
-1
48
1
60
0
100
AcDbEllipse
10
214.967654
20
12.916365
30
0
11
-2.25092568282431E-15
21
-2.1
31
0
210
0
220
0
230
1
40
0.996195
41
-1.53588974175501
42
-0.989768096475471
0
ELLIPSE
5
119
100
AcDbEntity
8
1
62
256
6
ByLayer
370
-1
48
1
60
0
100
AcDbEllipse
10
214.967654
20
12.916365
30
0
11
-2.25092568282431E-15
21
-2.1
31
0
210
0
220
0
230
1
40
0.996195
41
-0.883665763009188
42
-0.185238245500797
0
ELLIPSE
5
11A
100
AcDbEntity
8
1
62
256
6
ByLayer
370
-1
48
1
60
0
100
AcDbEllipse
10
21.3
20
4.439773
30
0
11
-15
21
1.51595858262354E-14
31
0
210
0
220
0
230
1
40
0.813874
41
-1.80198972718283
42
-0.071015123483353
0
ELLIPSE
5
11B
100
AcDbEntity
8
1
62
256
6
ByLayer
370
-1
48
1
60
0
100
AcDbEllipse
10
230.18605
20
0
30
0
11
-0.49942370551615
21
29.5999374288554
31
0
210
0
220
0
230
-1
40
0.121854
41
-1.53786272050453
42
-1.41053352086831
0
ELLIPSE
5
11C
100
AcDbEntity
8
1
62
256
6
ByLayer
370
-1
48
1
60
0
100
AcDbEllipse
10
222.585537
20
20.680754
30
0
11
2.34290668463255E-15
21
2
31
0
210
0
220
0
230
1
40
0.996195
41
-2.31505908012445
42
0
0
ELLIPSE
5
11D
100
AcDbEntity
8
1
62
256
6
ByLayer
370
-1
48
1
60
0
100
AcDbEllipse
10
222.585537
20
20.680754
30
0
11
2.34290668463255E-15
21
2
31
0
210
0
220
0
230
1
40
0.996195
41
0
42
1.57079625281728
0
ELLIPSE
5
11E
100
AcDbEntity
8
1
62
256
6
ByLayer
370
-1
48
1
60
0
100
AcDbEllipse
10
222.585537
20
20.680754
30
0
11
2.34290668463255E-15
21
2
31
0
210
0
220
0
230
1
40
0.996195
41
1.57079654872778
42
-2.77098265070852
0
ELLIPSE
5
11F
100
AcDbEntity
8
1
62
256
6
ByLayer
370
-1
48
1
60
0
100
AcDbEllipse
10
230.303033
20
-15.324847
30
0
11
-0.0775054657233485
21
-0.878086631928016
31
0
210
0
220
0
230
-1
40
0.115224
41
0.00370845515532219
42
1.57450478195399
0
ELLIPSE
5
120
100
AcDbEntity
8
1
62
256
6
ByLayer
370
-1
48
1
60
0
100
AcDbEllipse
10
114.88394
20
33.912652
30
0
11
-94.2364204816293
21
14.5616719083162
31
0
210
0
220
0
230
-1
40
0.130029
41
-3.11834567022239
42
-2.76363263665728
0
ELLIPSE
5
121
100
AcDbEntity
8
1
62
256
6
ByLayer
370
-1
48
1
60
0
100
AcDbEllipse
10
222.210624
20
-7.025678
30
0
11
2.1
21
0
31
0
210
0
220
0
230
1
40
0.998135
41
0.147163772070476
42
2.99992604553378
0
ELLIPSE
5
122
100
AcDbEntity
8
1
62
256
6
ByLayer
370
-1
48
1
60
0
100
AcDbEllipse
10
232.270295
20
0
30
0
11
-2.4341100050846
21
-29.5984013591294
31
0
210
0
220
0
230
-1
40
0.126383
41
0.0395445095274748
42
1.08348893387693
0
ELLIPSE
5
123
100
AcDbEntity
8
1
62
256
6
ByLayer
370
-1
48
1
60
0
100
AcDbEllipse
10
229.217341
20
-17.196472
30
0
11
-0.159654674754088
21
3.27390978952804
31
0
210
0
220
0
230
-1
40
0.111207
41
-0.315710571451242
42
0.42798286279837
0
ELLIPSE
5
124
100
AcDbEntity
8
1
62
256
6
ByLayer
370
-1
48
1
60
0
100
AcDbEllipse
10
222.210624
20
-7.098557
30
0
11
-1.65
21
1.6675544408859E-15
31
0
210
0
220
0
230
1
40
0.998135
41
-3.11911087844625
42
-0.0225802914494551
0
ELLIPSE
5
125
100
AcDbEntity
8
1
62
256
6
ByLayer
370
-1
48
1
60
0
100
AcDbEllipse
10
222.210624
20
-7.098557
30
0
11
-1.65
21
1.6675544408859E-15
31
0
210
0
220
0
230
1
40
0.998135
41
0
42
-3.14159250247964
0
ELLIPSE
5
126
100
AcDbEntity
8
1
62
256
6
ByLayer
370
-1
48
1
60
0
100
AcDbEllipse
10
230.1556
20
0
30
0
11
-1.79607738936225
21
29.5992271419674
31
0
210
0
220
0
230
-1
40
0.119092
41
-2.04048422002041
42
-1.53269232095465
0
ELLIPSE
5
127
100
AcDbEntity
8
1
62
256
6
ByLayer
370
-1
48
1
60
0
100
AcDbEllipse
10
210.135387
20
0
30
0
11
-138.063506997803
21
1.89373339148015
31
0
210
0
220
0
230
-1
40
0.213955
41
-1.58487988717212
42
-1.45997711980932
0
ELLIPSE
5
128
100
AcDbEntity
8
1
62
256
6
ByLayer
370
-1
48
1
60
0
100
AcDbEllipse
10
213.969327
20
0
30
0
11
-133.179627903577
21
-1.50905795153734E-13
31
0
210
0
220
0
230
-1
40
0.222256
41
1.40835197972913
42
1.53452196087068
0
ELLIPSE
5
129
100
AcDbEntity
8
1
62
256
6
ByLayer
370
-1
48
1
60
0
100
AcDbEllipse
10
214.52316
20
12.916365
30
0
11
2.46005201886418E-15
21
2.1
31
0
210
0
220
0
230
1
40
0.996195
41
1.60570291183478
42
1.85734834615478
0
ELLIPSE
5
12A
100
AcDbEntity
8
1
62
256
6
ByLayer
370
-1
48
1
60
0
100
AcDbEllipse
10
217.985079
20
25.562676
30
0
11
0.348527918949297
21
0.372328201608302
31
0
210
0
220
0
230
1
40
0.063742
41
-1.51119985916242
42
-0.867698750369806
0
ELLIPSE
5
12B
100
AcDbEntity
8
1
62
256
6
ByLayer
370
-1
48
1
60
0
100
AcDbEllipse
10
230.339263
20
-10.595486
30
0
11
0.360353747230943
21
0.173623664448766
31
0
210
0
220
0
230
1
40
0.055017
41
-2.51517670310454
42
-1.59729810677336
0
ELLIPSE
5
12C
100
AcDbEntity
8
1
62
256
6
ByLayer
370
-1
48
1
60
0
100
AcDbEllipse
10
222.45444
20
-7.932957
30
0
11
2.35
21
0
31
0
210
0
220
0
230
1
40
0.998135
41
1.43914375962752
42
2.37141152198153
0
ELLIPSE
5
12D
100
AcDbEntity
8
1
62
256
6
ByLayer
370
-1
48
1
60
0
100
AcDbEllipse
10
228.447888
20
-2.655971
30
0
11
1.41771612505888
21
0
31
0
210
0
220
0
230
1
40
0.998135
41
0.0523598775598188
42
0.34906585039869
0
ELLIPSE
5
12E
100
AcDbEntity
8
1
62
256
6
ByLayer
370
-1
48
1
60
0
100
AcDbEllipse
10
229.501036
20
-11.02227
30
0
11
1.23012258400268
21
0
31
0
210
0
220
0
230
1
40
0.998135
41
-0.0349065850398927
42
0.44826404406677
0
ELLIPSE
5
12F
100
AcDbEntity
8
1
62
256
6
ByLayer
370
-1
48
1
60
0
100
AcDbEllipse
10
229.501036
20
-11.02227
30
0
11
-0.930122584002571
21
9.40018209407124E-16
31
0
210
0
220
0
230
1
40
0.998135
41
3.1066860685501
42
-2.69332860952294
0
ELLIPSE
5
130
100
AcDbEntity
8
1
62
256
6
ByLayer
370
-1
48
1
60
0
100
AcDbEllipse
10
230.430592
20
-11.030251
30
0
11
0.399755420109682
21
-0.0139858533144008
31
0
210
0
220
0
230
1
40
0.061011
41
-2.69103736808443
42
-1.56866178537651
0
ELLIPSE
5
131
100
AcDbEntity
8
1
62
256
6
ByLayer
370
-1
48
1
60
0
100
AcDbEllipse
10
229.501036
20
-11.339723
30
0
11
-2.5
21
2.52659763770591E-15
31
0
210
0
220
0
230
1
40
0.998135
41
3.10668606854989
42
-2.69332860952306
0
ELLIPSE
5
132
100
AcDbEntity
8
1
62
256
6
ByLayer
370
-1
48
1
60
0
100
AcDbEllipse
10
229.464811
20
-13.556501
30
0
11
-0.877716125058898
21
8.87054195260078E-16
31
0
210
0
220
0
230
1
40
0.998135
41
2.6147846657235
42
3.10668606854994
0
ELLIPSE
5
133
100
AcDbEntity
8
1
62
256
6
ByLayer
370
-1
48
1
60
0
100
AcDbEllipse
10
234.45764
20
-8.643007
30
0
11
-4.26987741599731
21
4.31530487702104E-15
31
0
210
0
220
0
230
1
40
0.998135
41
0.0523598775598236
42
0.448264044066734
0
ELLIPSE
5
134
100
AcDbEntity
8
1
62
256
6
ByLayer
370
-1
48
1
60
0
100
AcDbEllipse
10
234.45764
20
-8.643007
30
0
11
4.56987741599753
21
0
31
0
210
0
220
0
230
1
40
0.998135
41
-2.92587278882579
42
-2.69332860952308
0
ELLIPSE
5
135
100
AcDbEntity
8
1
62
256
6
ByLayer
370
-1
48
1
60
0
100
AcDbEllipse
10
222.45444
20
-8.097446
30
0
11
2.35
21
0
31
0
210
0
220
0
230
1
40
0.998135
41
1.16219312278313
42
2.45741291112767
0
ELLIPSE
5
136
100
AcDbEntity
8
1
62
256
6
ByLayer
370
-1
48
1
60
0
100
AcDbEllipse
10
229.501036
20
-11.196258
30
0
11
-2.21145628187815
21
2.23498408707329E-15
31
0
210
0
220
0
230
1
40
0.998135
41
3.10668606854989
42
-2.69332860952305
0
ELLIPSE
5
137
100
AcDbEntity
8
1
62
256
6
ByLayer
370
-1
48
1
60
0
100
AcDbEllipse
10
230.341993
20
-13.562656
30
0
11
0.399755420109682
21
-0.0139858533144008
31
0
210
0
220
0
230
1
40
0.061011
41
-1.9273369036229
42
-1.56866178537651
0
ELLIPSE
5
138
100
AcDbEntity
8
1
62
256
6
ByLayer
370
-1
48
1
60
0
100
AcDbEllipse
10
234.45764
20
-8.816995
30
0
11
-3.28854371812186
21
3.32353071587972E-15
31
0
210
0
220
0
230
1
40
0.998135
41
0.05235987755983
42
0.448264044066735
0
ELLIPSE
5
139
100
AcDbEntity
8
1
62
256
6
ByLayer
370
-1
48
1
60
0
100
AcDbEllipse
10
229.464811
20
-13.556501
30
0
11
1.17771612505888
21
0
31
0
210
0
220
0
230
1
40
0.998135
41
-0.844913670681756
42
-0.0349065850398898
0
ELLIPSE
5
13A
100
AcDbEntity
8
1
62
256
6
ByLayer
370
-1
48
1
60
0
100
AcDbEllipse
10
234.45764
20
-8.960459
30
0
11
-3
21
3.03191716524709E-15
31
0
210
0
220
0
230
1
40
0.998135
41
0.0523598775598294
42
0.448264044066736
0
ELLIPSE
5
13B
100
AcDbEntity
8
1
62
256
6
ByLayer
370
-1
48
1
60
0
100
AcDbEllipse
10
218.212539
20
17.565561
30
0
11
-0.719441081007479
21
-0.0251232540050767
31
0
210
0
220
0
230
-1
40
0.002159
41
-2.27604469494398
42
-1.63254358696403
0
ELLIPSE
5
13C
100
AcDbEntity
8
1
62
256
6
ByLayer
370
-1
48
1
60
0
100
AcDbEllipse
10
217.199689
20
24.717232
30
0
11
0.348527918949297
21
0.372328201608302
31
0
210
0
220
0
230
1
40
0.063742
41
-2.1547009679558
42
-1.51119985916242
0
ELLIPSE
5
13D
100
AcDbEntity
8
1
62
256
6
ByLayer
370
-1
48
1
60
0
100
AcDbEllipse
10
226.061947
20
22.357036
30
0
11
0.377881813134091
21
0.131169109558966
31
0
210
0
220
0
230
1
40
0.028678
41
-1.96727167110115
42
-1.48836658622713
0
ELLIPSE
5
13E
100
AcDbEntity
8
1
62
256
6
ByLayer
370
-1
48
1
60
0
100
AcDbEllipse
10
223.565741
20
16.362161
30
0
11
0.0140130575244593
21
-0.399754467415708
31
0
210
0
220
0
230
1
40
0.087103
41
1.08883794108395
42
1.56774302595899
0
ELLIPSE
5
13F
100
AcDbEntity
8
1
62
256
6
ByLayer
370
-1
48
1
60
0
100
AcDbEllipse
10
218.504171
20
17.093412
30
0
11
6.37270618220054E-16
21
0.544
31
0
210
0
220
0
230
1
40
0.996195
41
1.74759996643892
42
-2.42145532631405
0
ELLIPSE
5
140
100
AcDbEntity
8
1
62
256
6
ByLayer
370
-1
48
1
60
0
100
AcDbEllipse
10
218.674533
20
18.062882
30
0
11
-0.0546667450361105
21
-0.507061679667431
31
0
210
0
220
0
230
1
40
0.086657
41
1.58013866027565
42
2.22363976906918
0
ELLIPSE
5
141
100
AcDbEntity
8
1
62
256
6
ByLayer
370
-1
48
1
60
0
100
AcDbEllipse
10
222.094816
20
20.958616
30
0
11
3.68413502519129E-15
21
3.14492681194351
31
0
210
0
220
0
230
1
40
0.996195
41
0
42
6.28318530717959
0
ELLIPSE
5
142
100
AcDbEntity
8
1
62
256
6
ByLayer
370
-1
48
1
60
0
100
AcDbEllipse
10
218.270689
20
24.505008
30
0
11
-0.705563291892689
21
0.659061827230335
31
0
210
0
220
0
230
-1
40
0.031444
41
0.960945087886059
42
1.60444619642406
0
ELLIPSE
5
143
100
AcDbEntity
8
1
62
256
6
ByLayer
370
-1
48
1
60
0
100
AcDbEllipse
10
218.619669
20
17.217742
30
0
11
-5.83096938788774E-16
21
-0.544
31
0
210
0
220
0
230
1
40
0.996195
41
0.920472169598873
42
2.77549784972785
0
ELLIPSE
5
144
100
AcDbEntity
8
1
62
256
6
ByLayer
370
-1
48
1
60
0
100
AcDbEllipse
10
223.586251
20
16.661978
30
0
11
-5.19131082315854E-16
21
-0.484323085911665
31
0
210
0
220
0
230
1
40
0.996195
41
-2.80630586876532
42
0.034906585039867
0
ELLIPSE
5
145
100
AcDbEntity
8
1
62
256
6
ByLayer
370
-1
48
1
60
0
100
AcDbEllipse
10
226.229434
20
25.753738
30
0
11
-0.0140130575244593
21
0.399754467415708
31
0
210
0
220
0
230
1
40
0.087103
41
-1.5738496276308
42
-1.09494454275567
0
ELLIPSE
5
146
100
AcDbEntity
8
1
62
256
6
ByLayer
370
-1
48
1
60
0
100
AcDbEllipse
10
226.468715
20
19.764849
30
0
11
-5.19131082315857E-16
21
-0.484323085911668
31
0
210
0
220
0
230
1
40
0.996195
41
1.6057029118348
42
-1.83626994153952
0
ELLIPSE
5
147
100
AcDbEntity
8
1
62
256
6
ByLayer
370
-1
48
1
60
0
100
AcDbEllipse
10
226.472637
20
19.764849
30
0
11
3.51436002694884E-16
21
0.300000000000001
31
0
210
0
220
0
230
1
40
0.996195
41
-1.53588974175502
42
1.30532271205024
0
ELLIPSE
5
148
100
AcDbEntity
8
1
62
256
6
ByLayer
370
-1
48
1
60
0
100
AcDbEllipse
10
226.736451
20
19.775319
30
0
11
-0.399758180070775
21
-0.0139067417643951
31
0
210
0
220
0
230
1
40
0.003042
41
1.6580098982609
42
2.1369149831342
0
ELLIPSE
5
149
100
AcDbEntity
8
1
62
256
6
ByLayer
370
-1
48
1
60
0
100
AcDbEllipse
10
226.576937
20
16.766677
30
0
11
3.51436002694881E-16
21
0.299999999999999
31
0
210
0
220
0
230
1
40
0.996195
41
-3.10668606854988
42
-1.53588974175502
0
ELLIPSE
5
14A
100
AcDbEntity
8
1
62
256
6
ByLayer
370
-1
48
1
60
0
100
AcDbEllipse
10
217.199689
20
24.717232
30
0
11
0.099131498336372
21
0.500272871578687
31
0
210
0
220
0
230
1
40
0.085506
41
-1.55385457642578
42
-0.910353467631838
0
ELLIPSE
5
14B
100
AcDbEntity
8
1
62
256
6
ByLayer
370
-1
48
1
60
0
100
AcDbEllipse
10
226.573015
20
16.766677
30
0
11
-5.19131082315855E-16
21
-0.484323085911666
31
0
210
0
220
0
230
1
40
0.996195
41
0.034906585039867
42
1.6057029118348
0
ELLIPSE
5
14C
100
AcDbEntity
8
1
62
256
6
ByLayer
370
-1
48
1
60
0
100
AcDbEllipse
10
223.17469
20
25.059732
30
0
11
0.105319664736271
21
0.385885693204399
31
0
210
0
220
0
230
1
40
0.084103
41
-2.0267513630579
42
-1.54784627818304
0
ELLIPSE
5
14D
100
AcDbEntity
8
1
62
256
6
ByLayer
370
-1
48
1
60
0
100
AcDbEllipse
10
226.149385
20
19.843559
30
0
11
0.386088292974541
21
-0.104574519018761
31
0
210
0
220
0
230
1
40
0.022867
41
1.4865722556227
42
1.96547734049775
0
ELLIPSE
5
14E
100
AcDbEntity
8
1
62
256
6
ByLayer
370
-1
48
1
60
0
100
AcDbEllipse
10
222.352414
20
20.958616
30
0
11
-2.51889302601768E-15
21
-2.35
31
0
210
0
220
0
230
1
40
0.996195
41
3.09878844376696
42
0
0
ELLIPSE
5
14F
100
AcDbEntity
8
1
62
256
6
ByLayer
370
-1
48
1
60
0
100
AcDbEllipse
10
222.352414
20
20.958616
30
0
11
-2.51889302601768E-15
21
-2.35
31
0
210
0
220
0
230
1
40
0.996195
41
0
42
0.0335758030814264
0
ELLIPSE
5
150
100
AcDbEntity
8
1
62
256
6
ByLayer
370
-1
48
1
60
0
100
AcDbEllipse
10
226.64284
20
22.466218
30
0
11
-0.399758180070775
21
-0.0139067417643951
31
0
210
0
220
0
230
1
40
0.003042
41
1.6580098982609
42
2.1369149831342
0
ELLIPSE
5
151
100
AcDbEntity
8
1
62
256
6
ByLayer
370
-1
48
1
60
0
100
AcDbEllipse
10
223.590173
20
16.661978
30
0
11
3.5143600269488E-16
21
0.299999999999998
31
0
210
0
220
0
230
1
40
0.996195
41
0.335286784824462
42
-3.10668606854988
0
ELLIPSE
5
152
100
AcDbEntity
8
1
62
256
6
ByLayer
370
-1
48
1
60
0
100
AcDbEllipse
10
219.347506
20
24.287339
30
0
11
0.348527918949297
21
0.372328201608302
31
0
210
0
220
0
230
1
40
0.063742
41
-2.15470096795575
42
-0.867698750368744
0
ELLIPSE
5
153
100
AcDbEntity
8
1
62
256
6
ByLayer
370
-1
48
1
60
0
100
AcDbEllipse
10
223.28404
20
25.349222
30
0
11
-5.19131082315854E-16
21
-0.484323085911665
31
0
210
0
220
0
230
1
40
0.996195
41
-3.10668606854993
42
-0.265473614744714
0
ELLIPSE
5
154
100
AcDbEntity
8
1
62
256
6
ByLayer
370
-1
48
1
60
0
100
AcDbEllipse
10
226.840751
20
16.777147
30
0
11
0.399758180070775
21
0.0139067417643954
31
0
210
0
220
0
230
1
40
0.003042
41
-1.48358275532868
42
-1.00467767045091
0
ELLIPSE
5
155
100
AcDbEntity
8
1
62
256
6
ByLayer
370
-1
48
1
60
0
100
AcDbEllipse
10
226.552504
20
16.46686
30
0
11
0.0140130575244593
21
-0.399754467415708
31
0
210
0
220
0
230
1
40
0.087103
41
1.08883794108395
42
1.56774302595899
0
ELLIPSE
5
156
100
AcDbEntity
8
1
62
256
6
ByLayer
370
-1
48
1
60
0
100
AcDbEllipse
10
222.587246
20
20.958616
30
0
11
-2.51889302601768E-15
21
-2.35
31
0
210
0
220
0
230
1
40
0.996195
41
3.14159250310004
42
0
0
ELLIPSE
5
157
100
AcDbEntity
8
1
62
256
6
ByLayer
370
-1
48
1
60
0
100
AcDbEllipse
10
218.19986
20
17.551913
30
0
11
0.373651049327859
21
-0.347109339165903
31
0
210
0
220
0
230
1
40
0.05944
41
1.4702993626327
42
2.15039938434926
0
ELLIPSE
5
158
100
AcDbEntity
8
1
62
256
6
ByLayer
370
-1
48
1
60
0
100
AcDbEllipse
10
218.58411
20
17.217742
30
0
11
-0.348527918949297
21
-0.372328201608302
31
0
210
0
220
0
230
1
40
0.063742
41
0.986891685634444
42
2.2738939032205
0
ELLIPSE
5
159
100
AcDbEntity
8
1
62
256
6
ByLayer
370
-1
48
1
60
0
100
AcDbEllipse
10
217.985079
20
25.562676
30
0
11
-0.956951143152774
21
1.5925514506366
31
0
210
0
220
0
230
-1
40
0.020508
41
1.58311883795932
42
2.22661994676391
0
ELLIPSE
5
15A
100
AcDbEntity
8
1
62
256
6
ByLayer
370
-1
48
1
60
0
100
AcDbEllipse
10
226.270804
20
25.453921
30
0
11
-5.19131082315855E-16
21
-0.484323085911666
31
0
210
0
220
0
230
1
40
0.996195
41
1.6057029118348
42
-3.10668606854987
0
ELLIPSE
5
15B
100
AcDbEntity
8
1
62
256
6
ByLayer
370
-1
48
1
60
0
100
AcDbEllipse
10
217.635046
20
16.94391
30
0
11
0.502108561637824
21
0.0893699744321066
31
0
210
0
220
0
230
1
40
0.015329
41
-2.12838464107846
42
-0.841382423492335
0
ELLIPSE
5
15C
100
AcDbEntity
8
1
62
256
6
ByLayer
370
-1
48
1
60
0
100
AcDbEllipse
10
226.375104
20
22.455748
30
0
11
-5.19131082315857E-16
21
-0.484323085911668
31
0
210
0
220
0
230
1
40
0.996195
41
-1.23550954197041
42
1.6057029118348
0
ELLIPSE
5
15D
100
AcDbEntity
8
1
62
256
6
ByLayer
370
-1
48
1
60
0
100
AcDbEllipse
10
218.619669
20
17.217742
30
0
11
-1.23908099492614E-15
21
-1.156
31
0
210
0
220
0
230
1
40
0.996195
41
0.920472169598908
42
3.03460218402548
0
ELLIPSE
5
15E
100
AcDbEntity
8
1
62
256
6
ByLayer
370
-1
48
1
60
0
100
AcDbEllipse
10
218.19986
20
17.551913
30
0
11
-0.373400828126681
21
0.346876892031235
31
0
210
0
220
0
230
1
40
0.05944
41
-1.6346943780341
42
-0.992087287819518
0
ELLIPSE
5
15F
100
AcDbEntity
8
1
62
256
6
ByLayer
370
-1
48
1
60
0
100
AcDbEllipse
10
222.191886
20
20.958616
30
0
11
-3.19627500372467E-15
21
-2.98196318032136
31
0
210
0
220
0
230
1
40
0.996195
41
0
42
6.28318530717959
0
ELLIPSE
5
160
100
AcDbEntity
8
1
62
256
6
ByLayer
370
-1
48
1
60
0
100
AcDbEllipse
10
217.199689
20
24.717232
30
0
11
-1.65004005586824
21
0.846499039018831
31
0
210
0
220
0
230
-1
40
0.010943
41
1.59212368584393
42
2.23562479421522
0
ELLIPSE
5
161
100
AcDbEntity
8
1
62
256
6
ByLayer
370
-1
48
1
60
0
100
AcDbEllipse
10
223.456975
20
16.945273
30
0
11
0.13206404143556
21
-0.377569978890943
31
0
210
0
220
0
230
1
40
0.082303
41
1.54201700516305
42
2.02092209003816
0
ELLIPSE
5
162
100
AcDbEntity
8
1
62
256
6
ByLayer
370
-1
48
1
60
0
100
AcDbEllipse
10
218.710092
20
18.062882
30
0
11
3.5846472274878E-16
21
0.306
31
0
210
0
220
0
230
1
40
0.996195
41
-0.106990469564346
42
0.820304748434547
0
ELLIPSE
5
163
100
AcDbEntity
8
1
62
256
6
ByLayer
370
-1
48
1
60
0
100
AcDbEllipse
10
222.098738
20
20.958616
30
0
11
-4.5554448342873E-15
21
-4.25
31
0
210
0
220
0
230
1
40
0.996195
41
0.335286784824431
42
1.30532271205025
0
ELLIPSE
5
164
100
AcDbEntity
8
1
62
256
6
ByLayer
370
-1
48
1
60
0
100
AcDbEllipse
10
219.383065
20
24.287339
30
0
11
-3.27992028068685E-16
21
-0.306
31
0
210
0
220
0
230
1
40
0.996195
41
-0.750491578357555
42
2.39110107523211
0
ELLIPSE
5
165
100
AcDbEntity
8
1
62
256
6
ByLayer
370
-1
48
1
60
0
100
AcDbEllipse
10
226.53854
20
25.46439
30
0
11
0.399758180070775
21
0.0139067417643954
31
0
210
0
220
0
230
1
40
0.003042
41
-1.48358275532868
42
-1.0046776704556
0
ELLIPSE
5
166
100
AcDbEntity
8
1
62
256
6
ByLayer
370
-1
48
1
60
0
100
AcDbEllipse
10
218.562116
20
23.441895
30
0
11
0.348527918949297
21
0.372328201608302
31
0
210
0
220
0
230
1
40
0.063742
41
-2.1547009679553
42
-0.86769875036941
0
ELLIPSE
5
167
100
AcDbEntity
8
1
62
256
6
ByLayer
370
-1
48
1
60
0
100
AcDbEllipse
10
217.945739
20
17.73237
30
0
11
2.34993540468645E-15
21
2.006
31
0
210
0
220
0
230
1
40
0.996195
41
-2.42145532631399
42
-2.2211204839909
0
ELLIPSE
5
168
100
AcDbEntity
8
1
62
256
6
ByLayer
370
-1
48
1
60
0
100
AcDbEllipse
10
217.985079
20
25.562676
30
0
11
0.492364140378782
21
0.132956960212932
31
0
210
0
220
0
230
1
40
0.022802
41
-2.13005594553425
42
-1.48655483674059
0
ELLIPSE
5
169
100
AcDbEntity
8
1
62
256
6
ByLayer
370
-1
48
1
60
0
100
AcDbEllipse
10
223.24267
20
25.649039
30
0
11
-0.0140130575244593
21
0.399754467415708
31
0
210
0
220
0
230
1
40
0.087103
41
-1.5738496276308
42
-1.09494454275567
0
ELLIPSE
5
16A
100
AcDbEntity
8
1
62
256
6
ByLayer
370
-1
48
1
60
0
100
AcDbEllipse
10
226.379026
20
22.455748
30
0
11
-3.21560811832046E-16
21
-0.300000000000001
31
0
210
0
220
0
230
1
40
0.996195
41
-1.23550954197052
42
1.60570291183477
0
ELLIPSE
5
16B
100
AcDbEntity
8
1
62
256
6
ByLayer
370
-1
48
1
60
0
100
AcDbEllipse
10
223.287962
20
25.349222
30
0
11
-3.21560811832042E-16
21
-0.299999999999998
31
0
210
0
220
0
230
1
40
0.996195
41
-3.10668606854979
42
-0.265473614744799
0
ELLIPSE
5
16C
100
AcDbEntity
8
1
62
256
6
ByLayer
370
-1
48
1
60
0
100
AcDbEllipse
10
218.674533
20
18.062882
30
0
11
0.373651049327859
21
-0.347109339165903
31
0
210
0
220
0
230
1
40
0.05944
41
1.50689827555577
42
2.15039938434926
0
ELLIPSE
5
16D
100
AcDbEntity
8
1
62
256
6
ByLayer
370
-1
48
1
60
0
100
AcDbEllipse
10
218.597675
20
23.441895
30
0
11
-3.27992028068685E-16
21
-0.306
31
0
210
0
220
0
230
1
40
0.996195
41
-0.750491578357678
42
2.39110107523224
0
ELLIPSE
5
16E
100
AcDbEntity
8
1
62
256
6
ByLayer
370
-1
48
1
60
0
100
AcDbEllipse
10
218.504171
20
17.093412
30
0
11
1.35420006371761E-15
21
1.156
31
0
210
0
220
0
230
1
40
0.996195
41
1.74759996643894
42
-2.42145532631401
0
ELLIPSE
5
16F
100
AcDbEntity
8
1
62
256
6
ByLayer
370
-1
48
1
60
0
100
AcDbEllipse
10
222.094816
20
20.958616
30
0
11
4.76275080978689E-15
21
4.06567691408833
31
0
210
0
220
0
230
1
40
0.996195
41
-1.23550954197047
42
-0.265473614744635
0
ELLIPSE
5
170
100
AcDbEntity
8
1
62
256
6
ByLayer
370
-1
48
1
60
0
100
AcDbEllipse
10
218.020638
20
25.562676
30
0
11
3.5846472274878E-16
21
0.306
31
0
210
0
220
0
230
1
40
0.996195
41
-0.750491578357555
42
1.83550459668068
0
ELLIPSE
5
171
100
AcDbEntity
8
1
62
256
6
ByLayer
370
-1
48
1
60
0
100
AcDbEllipse
10
217.945739
20
17.73237
30
0
11
1.63300595918889E-15
21
1.394
31
0
210
0
220
0
230
1
40
0.996195
41
-2.42145532631401
42
-2.2211204839909
0
ELLIPSE
5
172
100
AcDbEntity
8
1
62
256
6
ByLayer
370
-1
48
1
60
0
100
AcDbEllipse
10
218.270689
20
24.505008
30
0
11
0.492364140378782
21
0.132956960212932
31
0
210
0
220
0
230
1
40
0.022802
41
-1.48655483674059
42
-0.843053727946694
0
ELLIPSE
5
173
100
AcDbEntity
8
1
62
256
6
ByLayer
370
-1
48
1
60
0
100
AcDbEllipse
10
219.027043
20
16.454454
30
0
11
-0.337063013710963
21
0.382738193531927
31
0
210
0
220
0
230
1
40
0.065516
41
-2.27193125321784
42
-0.984929035630257
0
ELLIPSE
5
174
100
AcDbEntity
8
1
62
256
6
ByLayer
370
-1
48
1
60
0
100
AcDbEllipse
10
217.235248
20
24.717232
30
0
11
3.5846472274878E-16
21
0.306
31
0
210
0
220
0
230
1
40
0.996195
41
-0.194895099805933
42
2.39110107523211
0
ELLIPSE
5
175
100
AcDbEntity
8
1
62
256
6
ByLayer
370
-1
48
1
60
0
100
AcDbEllipse
10
218.248098
20
17.565561
30
0
11
3.5846472274878E-16
21
0.306
31
0
210
0
220
0
230
1
40
0.996195
41
0.881327184779039
42
2.39110107523224
0
ELLIPSE
5
176
100
AcDbEntity
8
1
62
256
6
ByLayer
370
-1
48
1
60
0
100
AcDbEllipse
10
218.212532
20
17.565563
30
0
11
-0.0251729862711946
21
0.720861154956755
31
0
210
0
220
0
230
-1
40
0.061596
41
1.57295016660067
42
1.60954637561808
0
ELLIPSE
5
177
100
AcDbEntity
8
1
62
256
6
ByLayer
370
-1
48
1
60
0
100
AcDbEllipse
10
218.619669
20
17.217742
30
0
11
-3.27992028068685E-16
21
-0.306
31
0
210
0
220
0
230
1
40
0.996195
41
-0.750491578357555
42
2.39110107523226
0
ELLIPSE
5
178
100
AcDbEntity
8
1
62
256
6
ByLayer
370
-1
48
1
60
0
100
AcDbEllipse
10
226.274726
20
25.453921
30
0
11
-3.21560811832043E-16
21
-0.299999999999999
31
0
210
0
220
0
230
1
40
0.996195
41
1.60570291183477
42
-3.10668606854979
0
ELLIPSE
5
179
100
AcDbEntity
8
1
62
256
6
ByLayer
370
-1
48
1
60
0
100
AcDbEllipse
10
218.212539
20
17.565561
30
0
11
0.348527918949297
21
0.372328201608302
31
0
210
0
220
0
230
1
40
0.063742
41
-2.1547009679558
42
-1.5477987720853
0
ELLIPSE
5
17A
100
AcDbEntity
8
1
62
256
6
ByLayer
370
-1
48
1
60
0
100
AcDbEllipse
10
217.670605
20
16.94391
30
0
11
3.58464722748779E-16
21
0.305999999999999
31
0
210
0
220
0
230
1
40
0.996195
41
-1.3939926871508
42
1.747599966439
0
ELLIPSE
5
17B
100
AcDbEntity
8
1
62
256
6
ByLayer
370
-1
48
1
60
0
100
AcDbEllipse
10
218.306249
20
24.505008
30
0
11
-3.27992028068685E-16
21
-0.306
31
0
210
0
220
0
230
1
40
0.996195
41
-0.194895099806065
42
1.83550459668068
0
ELLIPSE
5
17C
100
AcDbEntity
8
1
62
256
6
ByLayer
370
-1
48
1
60
0
100
AcDbEllipse
10
222.094816
20
20.958616
30
0
11
4.76275080978689E-15
21
4.06567691408833
31
0
210
0
220
0
230
1
40
0.996195
41
-2.80630586876536
42
-1.83626994153954
0
ELLIPSE
5
17D
100
AcDbEntity
8
1
62
256
6
ByLayer
370
-1
48
1
60
0
100
AcDbEllipse
10
219.25804
20
16.703114
30
0
11
-0.406468958660142
21
0.308030819311541
31
0
210
0
220
0
230
1
40
0.052768
41
-2.28381636720036
42
-0.99681414961418
0
ELLIPSE
5
17E
100
AcDbEntity
8
1
62
256
6
ByLayer
370
-1
48
1
60
0
100
AcDbEllipse
10
222.098738
20
20.958616
30
0
11
4.97867670484417E-15
21
4.25
31
0
210
0
220
0
230
1
40
0.996195
41
-1.23550954197048
42
-0.265473614744653
0
ELLIPSE
5
17F
100
AcDbEntity
8
1
62
256
6
ByLayer
370
-1
48
1
60
0
100
AcDbEllipse
10
222.168172
20
20.958616
30
0
11
-3.30786649004912E-15
21
-3.0860724021715
31
0
210
0
220
0
230
1
40
0.996195
41
2.2155101975546
42
0
0
ELLIPSE
5
180
100
AcDbEntity
8
1
62
256
6
ByLayer
370
-1
48
1
60
0
100
AcDbEllipse
10
222.168172
20
20.958616
30
0
11
-3.30786649004912E-15
21
-3.0860724021715
31
0
210
0
220
0
230
1
40
0.996195
41
0
42
0.92608266050835
0
ELLIPSE
5
181
100
AcDbEntity
8
1
62
256
6
ByLayer
370
-1
48
1
60
0
100
AcDbEllipse
10
218.270689
20
24.505008
30
0
11
0.099131498336372
21
0.500272871578687
31
0
210
0
220
0
230
1
40
0.085506
41
-2.19735568521924
42
-1.55385457642584
0
POINT
5
41
100
AcDbEntity
8
81
62
256
6
ByLayer
370
-1
48
1
60
0
100
AcDbPoint
10
232
20
0
30
0
39
0
210
0
220
0
230
1
50
360
0
POINT
5
43
100
AcDbEntity
8
80
62
256
6
ByLayer
370
-1
48
1
60
0
100
AcDbPoint
10
0
20
0
30
0
39
0
210
0
220
0
230
1
50
360
0
SPLINE
5
182
100
AcDbEntity
8
1
62
256
6
ByLayer
370
-1
48
1
60
0
100
AcDbSpline
70
4
71
3
72
15
73
11
40
0
40
0
40
0
40
0
40
0.0932870219559677
40
0.186603222737901
40
0.279907629168787
40
0.373212082093301
40
0.466525001239879
40
0.559851639116735
40
0.779895203057818
40
1
40
1
40
1
40
1
41
1
10
42
20
29.5999999999999
30
0
41
1
10
40.8502912601397
20
29.6766654339304
30
0
41
1
10
38.5514741470109
20
29.8417500608777
30
0
41
1
10
35.1112595271351
20
30.1855574850828
30
0
41
1
10
31.6633814093187
20
30.4426214588667
30
0
41
1
10
28.2133763726493
20
30.6660571933122
30
0
41
1
10
24.7604740180315
20
30.8457054341303
30
0
41
1
10
19.7419298240119
20
31.0534170345046
30
0
41
1
10
13.1544632610732
20
31.2126977274365
30
0
41
1
10
7.71875578359524
20
31.2547815069615
30
0
41
1
10
5.00000000000003
20
31.25
30
0
0
SPLINE
5
183
100
AcDbEntity
8
1
62
256
6
ByLayer
370
-1
48
1
60
0
100
AcDbSpline
70
4
71
3
72
15
73
11
40
0
40
0
40
0
40
0
40
0.280123042890522
40
0.560128556043923
40
0.633444338129756
40
0.706755156392849
40
0.780065033298568
40
0.853379281472062
40
0.926704578964915
40
1
40
1
40
1
40
1
41
1
10
4.99999999999997
20
-31.25
30
0
41
1
10
8.4604791924431
20
-31.2598647875055
30
0
41
1
10
15.3774571845639
20
-31.1885109504519
30
0
41
1
10
23.1983226792506
20
-30.9347518918828
30
0
41
1
10
28.4597379817895
20
-30.648388399554
30
0
41
1
10
31.1706869469236
20
-30.4763008974182
30
0
41
1
10
33.8795154314475
20
-30.2743439070698
30
0
41
1
10
36.5871910807673
20
-30.054404434244
30
0
41
1
10
39.2885561329388
20
-29.764863405295
30
0
41
1
10
41.0958253905181
20
-29.6489591133849
30
0
41
1
10
42
20
-29.6000000000001
30
0
0
SPLINE
5
184
100
AcDbEntity
8
1
62
256
6
ByLayer
370
-1
48
1
60
0
100
AcDbSpline
70
4
71
3
72
15
73
11
40
0
40
0
40
0
40
0
40
0.0819445917471257
40
0.234245912910779
40
0.386314269548997
40
0.538179098810692
40
0.689898489238238
40
0.841550290688717
40
0.993207590349027
40
1
40
1
40
1
40
1
41
1
10
220.636255176962
20
-6.61492325005898
30
0
41
1
10
220.687944930939
20
-6.55206932344987
30
0
41
1
10
220.845127833626
20
-6.3799995672623
30
0
41
1
10
221.145038878649
20
-6.13667338300007
30
0
41
1
10
221.548561742586
20
-5.92238408115276
30
0
41
1
10
221.985721096382
20
-5.78949262603251
30
0
41
1
10
222.440154557001
20
-5.74283012139449
30
0
41
1
10
222.894913529537
20
-5.78400967659888
30
0
41
1
10
223.193530291993
20
-5.87082015051584
30
0
41
1
10
223.34009728807
20
-5.92996041419258
30
0
41
1
10
223.346369035265
20
-5.93252268159407
30
0
0
SPLINE
5
185
100
AcDbEntity
8
1
62
256
6
ByLayer
370
-1
48
1
60
0
100
AcDbSpline
70
4
71
3
72
24
73
20
40
0
40
0
40
0
40
0
40
0.0512219324959599
40
0.114795075180363
40
0.178268200557144
40
0.241581453348874
40
0.30470187902392
40
0.36762681456172
40
0.43038189545866
40
0.493015351539967
40
0.555590417373241
40
0.618167359708149
40
0.680802024190428
40
0.743557000804806
40
0.806479913224928
40
0.86959620221532
40
0.932903765868083
40
0.996370983435398
40
1
40
1
40
1
40
1
41
1
10
222.451337271216
20
23.299587239272
30
0
41
1
10
222.573801735341
20
23.297513108803
30
0
41
1
10
222.843157028596
20
23.2703047423396
30
0
41
1
10
223.249651184368
20
23.1427540225691
30
0
41
1
10
223.649990238079
20
22.9282367452427
30
0
41
1
10
224.001795810238
20
22.6389927167471
30
0
41
1
10
224.291580714708
20
22.28734661107
30
0
41
1
10
224.508674968887
20
21.8863381943724
30
0
41
1
10
224.64516499165
20
21.4511965056438
30
0
41
1
10
224.696235176143
20
20.9981689370432
30
0
41
1
10
224.660236305648
20
20.5440813454898
30
0
41
1
10
224.538706964248
20
20.1056800754995
30
0
41
1
10
224.336277803383
20
19.6991202939651
30
0
41
1
10
224.060433673704
20
19.3390378369694
30
0
41
1
10
223.721247055264
20
19.0394664903129
30
0
41
1
10
223.330946206457
20
18.8082932424502
30
0
41
1
10
222.9040498489
20
18.6662400143843
30
0
41
1
10
222.596485015657
20
18.6030213908206
30
0
41
1
10
222.43816062761
20
18.6117298971961
30
0
41
1
10
222.429591688994
20
18.6122761994238
30
0
0
SPLINE
5
186
100
AcDbEntity
8
1
62
256
6
ByLayer
370
-1
48
1
60
0
100
AcDbSpline
70
4
71
3
72
8
73
4
40
0
40
0
40
0
40
0
40
1
40
1
40
1
40
1
41
1
10
32.9020328658141
20
-21.3413653428696
30
0
41
1
10
33.9030035226392
20
-21.7292500164876
30
0
41
1
10
34.9545812096429
20
-22.0196322083352
30
0
41
1
10
36.057080023885
20
-22.2236148799464
30
0
0
SPLINE
5
187
100
AcDbEntity
8
1
62
256
6
ByLayer
370
-1
48
1
60
0
100
AcDbSpline
70
4
71
3
72
62
73
58
40
0
40
0
40
0
40
0
40
0.0156249999999999
40
0.0156249999999999
40
0.0312499999999999
40
0.0312499999999999
40
0.0624999999999998
40
0.0624999999999998
40
0.0937499999999996
40
0.0937499999999996
40
0.125
40
0.125
40
0.187499999999999
40
0.187499999999999
40
0.249999999999999
40
0.249999999999999
40
0.312499999999999
40
0.312499999999999
40
0.374999999999999
40
0.374999999999999
40
0.437499999999999
40
0.437499999999999
40
0.499999999999998
40
0.499999999999998
40
0.531249999999998
40
0.531249999999998
40
0.562499999999998
40
0.562499999999998
40
0.593749999999998
40
0.593749999999998
40
0.624999999999998
40
0.624999999999998
40
0.656249999999998
40
0.656249999999998
40
0.687499999999999
40
0.687499999999999
40
0.718749999999999
40
0.718749999999999
40
0.749999999999999
40
0.749999999999999
40
0.812499999999999
40
0.812499999999999
40
0.843749999999999
40
0.843749999999999
40
0.874999999999999
40
0.874999999999999
40
0.890624999999999
40
0.890624999999999
40
0.906249999999999
40
0.906249999999999
40
0.921874999999999
40
0.921874999999999
40
0.937499999999999
40
0.937499999999999
40
0.96875
40
0.96875
40
1
40
1
40
1
40
1
41
1
10
45.8370900215442
20
12.3822041127816
30
0
41
1
10
46.6125181844791
20
12.1263487527613
30
0
41
1
10
47.3877427118759
20
11.8689269247134
30
0
41
1
10
48.9373563154812
20
11.3498457615467
30
0
41
1
10
49.7117799775387
20
11.0882712928405
30
0
41
1
10
52.0349473809861
20
10.3001366935016
30
0
41
1
10
53.5838833045971
20
9.77095265063241
30
0
41
1
10
56.6806037948347
20
8.70130977817766
30
0
41
1
10
58.2283108330967
20
8.16062473750139
30
0
41
1
10
61.3242614565461
20
7.07240096530236
30
0
41
1
10
62.8722840725332
20
6.52428558657471
30
0
41
1
10
67.5163923871404
20
4.86760670486237
30
0
41
1
10
70.6136245077611
20
3.74967251560724
30
0
41
1
10
76.8157384946774
20
1.50141327816166
30
0
41
1
10
79.9132335272396
20
0.37273949956284
30
0
41
1
10
86.1056304435988
20
-1.88112273659135
30
0
41
1
10
89.2004162930905
20
-3.00662994875583
30
0
41
1
10
95.3931086105941
20
-5.23844673813531
30
0
41
1
10
98.4907077301098
20
-6.345599816396
30
0
41
1
10
104.693915768463
20
-8.52738971894451
30
0
41
1
10
107.792215886153
20
-9.60032095202294
30
0
41
1
10
113.985126407944
20
-11.7025543272198
30
0
41
1
10
117.079839918397
20
-12.7315567233177
30
0
41
1
10
121.7229582576
20
-14.2323812642238
30
0
41
1
10
123.270798063618
20
-14.7256382573057
30
0
41
1
10
126.368140564584
20
-15.6947373579398
30
0
41
1
10
127.917805539978
20
-16.1702031815082
30
0
41
1
10
131.019546395956
20
-17.1020791316188
30
0
41
1
10
132.569809830287
20
-17.5581178018838
30
0
41
1
10
135.668405209454
20
-18.4520151776557
30
0
41
1
10
137.216704198643
20
-18.8899147766784
30
0
41
1
10
140.312597374639
20
-19.7447176615593
30
0
41
1
10
141.860367481585
20
-20.161257271041
30
0
41
1
10
144.956579348767
20
-20.9706831924257
30
0
41
1
10
146.504888245544
20
-21.3638621170133
30
0
41
1
10
149.601363609556
20
-22.1281458970713
30
0
41
1
10
151.149545372978
20
-22.4991826770871
30
0
41
1
10
154.247400064893
20
-23.2160236463177
30
0
41
1
10
155.797049642657
20
-23.5618846627739
30
0
41
1
10
160.449284439622
20
-24.5599541558161
30
0
41
1
10
163.546270156529
20
-25.1713626358692
30
0
41
1
10
168.186888862084
20
-26.0053088048497
30
0
41
1
10
169.733030029008
20
-26.2693184073954
30
0
41
1
10
172.823858067336
20
-26.7692805150797
30
0
41
1
10
174.368617304553
20
-27.0051099628753
30
0
41
1
10
176.685807763947
20
-27.3364106919877
30
0
41
1
10
177.458198147789
20
-27.443128314141
30
0
41
1
10
179.002797998178
20
-27.6492918185695
30
0
41
1
10
179.774963991734
20
-27.7487715232851
30
0
41
1
10
181.319703810488
20
-27.939867092826
30
0
41
1
10
182.092319973461
20
-28.031458184022
30
0
41
1
10
183.637487547466
20
-28.2072470219798
30
0
41
1
10
184.410055215636
20
-28.2914200095328
30
0
41
1
10
186.728173638521
20
-28.5323542442487
30
0
41
1
10
188.274239774221
20
-28.6774738520875
30
0
41
1
10
191.367756239495
20
-28.9366269269317
30
0
41
1
10
192.915257139323
20
-29.0506092731037
30
0
41
1
10
194.463907793516
20
-29.1487276354552
30
0
0
SPLINE
5
188
100
AcDbEntity
8
1
62
256
6
ByLayer
370
-1
48
1
60
0
100
AcDbSpline
70
4
71
3
72
10
73
6
40
0
40
0
40
0
40
0
40
0.5
40
0.5
40
1
40
1
40
1
40
1
41
1
10
201.928863369054
20
8.97920721672367
30
0
41
1
10
202.279608502501
20
8.83314961149634
30
0
41
1
10
202.625546952762
20
8.6969215174756
30
0
41
1
10
203.308237552921
20
8.44325101570715
30
0
41
1
10
203.644988236885
20
8.32581160574824
30
0
41
1
10
203.977082786157
20
8.21789384020909
30
0
0
SPLINE
5
189
100
AcDbEntity
8
1
62
256
6
ByLayer
370
-1
48
1
60
0
100
AcDbSpline
70
4
71
3
72
8
73
4
40
0
40
0
40
0
40
0
40
1
40
1
40
1
40
1
41
1
10
39.1093789070333
20
-21.1889860637677
30
0
41
1
10
38.9998368384338
20
-21.1626079864226
30
0
41
1
10
38.8904917721737
20
-21.134920314609
30
0
41
1
10
38.7813396387125
20
-21.105923091163
30
0
0
SPLINE
5
18A
100
AcDbEntity
8
1
62
256
6
ByLayer
370
-1
48
1
60
0
100
AcDbSpline
70
4
71
3
72
28
73
24
40
0
40
0
40
0
40
0
40
0.0624999999999902
40
0.0624999999999902
40
0.0937499999999853
40
0.0937499999999853
40
0.124999999999981
40
0.124999999999981
40
0.156249999999976
40
0.156249999999976
40
0.187499999999971
40
0.187499999999971
40
0.249999999999961
40
0.249999999999961
40
0.312499999999951
40
0.312499999999951
40
0.374999999999941
40
0.374999999999941
40
0.499999999999943
40
0.499999999999943
40
0.749999999999972
40
0.749999999999972
40
1
40
1
40
1
40
1
41
1
10
201.770367272793
20
15.8569101587685
30
0
41
1
10
201.713319324806
20
15.8475180948679
30
0
41
1
10
201.657307955031
20
15.8343809868252
30
0
41
1
10
201.57694929916
20
15.801441082071
30
0
41
1
10
201.550727272052
20
15.788060418361
30
0
41
1
10
201.503473667977
20
15.7547743284543
30
0
41
1
10
201.482543783547
20
15.7347958022696
30
0
41
1
10
201.451573227116
20
15.6880155074441
30
0
41
1
10
201.442160302393
20
15.661743051366
30
0
41
1
10
201.435632087406
20
15.608289853965
30
0
41
1
10
201.438188681563
20
15.5818954581345
30
0
41
1
10
201.456238817495
20
15.5051027454693
30
0
41
1
10
201.480997747013
20
15.4583956897836
30
0
41
1
10
201.53851542446
20
15.3713125320456
30
0
41
1
10
201.571608098291
20
15.3311611337017
30
0
41
1
10
201.642311871106
20
15.2544108393084
30
0
41
1
10
201.680032038668
20
15.2178964859721
30
0
41
1
10
201.797863924551
20
15.1120354746516
30
0
41
1
10
201.881465966467
20
15.0472482895367
30
0
41
1
10
202.138844586532
20
14.8634302185191
30
0
41
1
10
202.320147119119
20
14.7541740429954
30
0
41
1
10
202.692896921518
20
14.5494029703034
30
0
41
1
10
202.88466801809
20
14.4543277184925
30
0
41
1
10
203.080419662357
20
14.3645382550264
30
0
0
SPLINE
5
18B
100
AcDbEntity
8
1
62
256
6
ByLayer
370
-1
48
1
60
0
100
AcDbSpline
70
4
71
3
72
23
73
19
40
0
40
0
40
0
40
0
40
0.250000000000001
40
0.250000000000001
40
0.375000000000001
40
0.375000000000001
40
0.406250000000001
40
0.406250000000001
40
0.437500000000001
40
0.500000000000001
40
0.500000000000001
40
0.75
40
0.75
40
0.8125
40
0.8125
40
0.875
40
0.875
40
1
40
1
40
1
40
1
41
1
10
16.8020328658141
20
-14.6549224761631
30
0
41
1
10
15.7390702701671
20
-14.0359080573621
30
0
41
1
10
14.7753494491145
20
-13.3112382091637
30
0
41
1
10
13.4646795708963
20
-12.065581127462
30
0
41
1
10
13.050410507173
20
-11.6237641191467
30
0
41
1
10
12.5601438782346
20
-11.0372535413634
30
0
41
1
10
12.4633719439526
20
-10.9181043111231
30
0
41
1
10
12.2736544438626
20
-10.6777454465181
30
0
41
1
10
11.9944534217323
20
-10.3137005748519
30
0
41
1
10
11.7309173939664
20
-9.93930009754436
30
0
41
1
10
10.8854202686379
20
-8.6689188438055
30
0
41
1
10
10.314022954235
20
-7.58124766297493
30
0
41
1
10
9.70705738631932
20
-6.1395934098858
30
0
41
1
10
9.59091943426122
20
-5.8467154454425
30
0
41
1
10
9.37077475278124
20
-5.25813433845218
30
0
41
1
10
9.26650712026907
20
-4.96186061623828
30
0
41
1
10
8.96971367875648
20
-4.06743898386108
30
0
41
1
10
8.79316388909643
20
-3.46369976221027
30
0
41
1
10
8.63465910864952
20
-2.85330434063033
30
0
0
SPLINE
5
18C
100
AcDbEntity
8
1
62
256
6
ByLayer
370
-1
48
1
60
0
100
AcDbSpline
70
4
71
3
72
16
73
12
40
0
40
0
40
0
40
0
40
0.0358304610026778
40
0.134737201171122
40
0.233643941339566
40
0.283097311423791
40
0.431457421676457
40
0.629270902013347
40
0.827084382350238
40
0.925991122518682
40
1
40
1
40
1
40
1
41
1
10
185.085403262134
20
20.6932812903774
30
0
41
1
10
185.013612421077
20
20.6878678073323
30
0
41
1
10
184.743694820551
20
20.6674213234222
30
0
41
1
10
184.276000557824
20
20.6313858339768
30
0
41
1
10
183.781726637966
20
20.5923517940701
30
0
41
1
10
183.188870204525
20
20.5446950090005
30
0
41
1
10
182.397586066931
20
20.479661326248
30
0
41
1
10
181.307560080182
20
20.3865659345879
30
0
41
1
10
180.31570828181
20
20.2981658789241
30
0
41
1
10
179.573114278782
20
20.2298759540479
30
0
41
1
10
179.22732521353
20
20.1975023967898
30
0
41
1
10
179.079350737237
20
20.1835456781139
30
0
0
SPLINE
5
18D
100
AcDbEntity
8
1
62
256
6
ByLayer
370
-1
48
1
60
0
100
AcDbSpline
70
4
71
3
72
38
73
34
40
0
40
0
40
0
40
0
40
0.0649158378887253
40
0.0649158378887253
40
0.129831675777451
40
0.129831675777451
40
0.194747513666176
40
0.194747513666176
40
0.259663351554901
40
0.259663351554901
40
0.324579189443627
40
0.324579189443627
40
0.389495027332352
40
0.389495027332352
40
0.454410865221078
40
0.454410865221078
40
0.519326703109803
40
0.519326703109803
40
0.584242540998528
40
0.584242540998528
40
0.649158378887254
40
0.649158378887254
40
0.714074216775979
40
0.714074216775979
40
0.778990054664705
40
0.778990054664705
40
0.84390589255343
40
0.84390589255343
40
0.908821730442156
40
0.908821730442156
40
0.973737568330881
40
0.973737568330881
40
1
40
1
40
1
40
1
41
1
10
45.8370900215464
20
7.08134095124001
30
0
41
1
10
45.7693805958206
20
6.78243465124859
30
0
41
1
10
45.6833823475827
20
6.41083267546225
30
0
41
1
10
45.4775337054639
20
5.53401436748243
30
0
41
1
10
45.3576867852648
20
5.02881283153738
30
0
41
1
10
45.0879459949652
20
3.90083609482369
30
0
41
1
10
44.9380566767219
20
3.27807992858462
30
0
41
1
10
44.6129905610914
20
1.93476869941168
30
0
41
1
10
44.4378192491724
20
1.21423630476207
30
0
41
1
10
44.0677517337252
20
-0.301746572589167
30
0
41
1
10
43.8728617750606
20
-1.09717147318446
30
0
41
1
10
43.4695460056364
20
-2.73767919548305
30
0
41
1
10
43.2611270008026
20
-3.58273433373185
30
0
41
1
10
42.8373720699583
20
-5.2956652554484
30
0
41
1
10
42.622043294783
20
-6.16351213332513
30
0
41
1
10
42.1913074318815
20
-7.89446448695398
30
0
41
1
10
41.9759076127932
20
-8.75754075300469
30
0
41
1
10
41.5518707578557
20
-10.4515404200268
30
0
41
1
10
41.3432408775993
20
-11.2824352348708
30
0
41
1
10
40.9393702137468
20
-12.8856816942777
30
0
41
1
10
40.7441362454404
20
-13.6580062841673
30
0
41
1
10
40.3732584883791
20
-15.1195812881574
30
0
41
1
10
40.1976209581608
20
-15.8088070382807
30
0
41
1
10
39.8715149865698
20
-17.0822917485045
30
0
41
1
10
39.7210520482129
20
-17.6665292186385
30
0
41
1
10
39.450074812874
20
-18.7114784436121
30
0
41
1
10
39.3295650886142
20
-19.1721725650057
30
0
41
1
10
39.1223226812087
20
-19.9553992777034
30
0
41
1
10
39.0355934952644
20
-20.2779186521107
30
0
41
1
10
38.8986678235168
20
-20.7745479921466
30
0
41
1
10
38.8484736483247
20
-20.9486495771893
30
0
41
1
10
38.8047494813226
20
-21.0850741085966
30
0
41
1
10
38.7952758205294
20
-21.1117704786094
30
0
41
1
10
38.7889352000899
20
-21.1258471831117
30
0
0
SPLINE
5
18E
100
AcDbEntity
8
1
62
256
6
ByLayer
370
-1
48
1
60
0
100
AcDbSpline
70
4
71
3
72
8
73
4
40
0
40
0
40
0
40
0
40
1
40
1
40
1
40
1
41
1
10
42
20
13.9731978952023
30
0
41
1
10
43.2890673554216
20
13.4699046879669
30
0
41
1
10
44.5675464073575
20
12.93907212699
30
0
41
1
10
45.8370900215438
20
12.3822041127821
30
0
0
SPLINE
5
18F
100
AcDbEntity
8
1
62
256
6
ByLayer
370
-1
48
1
60
0
100
AcDbSpline
70
4
71
3
72
8
73
4
40
0
40
0
40
0
40
0
40
1
40
1
40
1
40
1
41
1
10
24.7370900215437
20
16.3230676286236
30
0
41
1
10
24.7370900215437
20
17.4113647429541
30
0
41
1
10
24.7370900215437
20
18.4996618572846
30
0
41
1
10
24.7370900215437
20
19.5879589716152
30
0
0
SPLINE
5
190
100
AcDbEntity
8
1
62
256
6
ByLayer
370
-1
48
1
60
0
100
AcDbSpline
70
4
71
3
72
8
73
4
40
0
40
0
40
0
40
0
40
1
40
1
40
1
40
1
41
1
10
206.401367450607
20
12.861138093787
30
0
41
1
10
206.765590305293
20
12.6645948806354
30
0
41
1
10
207.137315054337
20
12.4798117220264
30
0
41
1
10
207.518116633095
20
12.3077004121169
30
0
0
SPLINE
5
191
100
AcDbEntity
8
1
62
256
6
ByLayer
370
-1
48
1
60
0
100
AcDbSpline
70
4
71
3
72
8
73
4
40
0
40
0
40
0
40
0
40
1
40
1
40
1
40
1
41
1
10
18.2271458670998
20
-9.67148615143324
30
0
41
1
10
17.7537365760418
20
-9.62868877248926
30
0
41
1
10
17.2789698058936
20
-9.55222903668331
30
0
41
1
10
16.802032865814
20
-9.44125584408243
30
0
0
SPLINE
5
192
100
AcDbEntity
8
1
62
256
6
ByLayer
370
-1
48
1
60
0
100
AcDbSpline
70
4
71
3
72
18
73
14
40
0
40
0
40
0
40
0
40
0.0391159997076846
40
0.0391159997076846
40
0.359410666471789
40
0.359410666471789
40
0.439484333162815
40
0.439484333162815
40
0.519557999853841
40
0.519557999853841
40
0.679705333235894
40
0.679705333235894
40
1
40
1
40
1
40
1
41
1
10
120.437448799118
20
29.5999930118094
30
0
41
1
10
121.092239423054
20
29.6000940445039
30
0
41
1
10
121.747042628324
20
29.5973149681201
30
0
41
1
10
127.763941057143
20
29.5453042285996
30
0
41
1
10
133.12875940421
20
29.3055120696862
30
0
41
1
10
139.853912281554
20
28.7691393139982
30
0
41
1
10
141.200563690258
20
28.649981988147
30
0
41
1
10
143.892178006473
20
28.3885969599604
30
0
41
1
10
145.237045551926
20
28.2463945566633
30
0
41
1
10
149.269279033105
20
27.7857803534203
30
0
41
1
10
151.954199384108
20
27.4332611402295
30
0
41
1
10
160.00416109805
20
26.2450447335878
30
0
41
1
10
165.364597461458
20
25.27859641128
30
0
41
1
10
170.731679775779
20
24.1569918532003
30
0
0
SPLINE
5
193
100
AcDbEntity
8
1
62
256
6
ByLayer
370
-1
48
1
60
0
100
AcDbSpline
70
4
71
3
72
22
73
18
40
0
40
0
40
0
40
0
40
0.125
40
0.125
40
0.25
40
0.25
40
0.375
40
0.375
40
0.5
40
0.5
40
0.625
40
0.625
40
0.75
40
0.75
40
0.875
40
0.875
40
1
40
1
40
1
40
1
41
1
10
18.2271462926658
20
-9.67148532456773
30
0
41
1
10
18.407825997466
20
-9.32042844817346
30
0
41
1
10
18.6297932164177
20
-8.77971868813438
30
0
41
1
10
19.1387289437024
20
-7.3618028399265
30
0
41
1
10
19.4256432043413
20
-6.48474788806274
30
0
41
1
10
20.0416487495397
20
-4.46388271719457
30
0
41
1
10
20.3706743737837
20
-3.32028790314186
30
0
41
1
10
21.0447214861018
20
-0.857315280584004
30
0
41
1
10
21.389671127183
20
0.46179999853203
30
0
41
1
10
22.0681119926892
20
3.17085060457344
30
0
41
1
10
22.4015309017892
20
4.56049717254376
30
0
41
1
10
23.0303680051006
20
7.30001079957094
30
0
41
1
10
23.3257191712748
20
8.64958585260524
30
0
41
1
10
23.8549029901914
20
11.2015229680098
30
0
41
1
10
24.0886792369862
20
12.4036130182245
30
0
41
1
10
24.4760917139806
20
14.5648634164579
30
0
41
1
10
24.6296866497053
20
15.5237933957986
30
0
41
1
10
24.7370900215434
20
16.3230676286231
30
0
0
SPLINE
5
194
100
AcDbEntity
8
1
62
256
6
ByLayer
370
-1
48
1
60
0
100
AcDbSpline
70
4
71
3
72
12
73
8
40
0
40
0
40
0
40
0
40
0.250000000000015
40
0.250000000000015
40
0.50000000000003
40
0.50000000000003
40
1
40
1
40
1
40
1
41
1
10
212.339843544804
20
29.5841135544575
30
0
41
1
10
212.345156988781
20
29.5821466412612
30
0
41
1
10
212.357070437633
20
29.5800542780877
30
0
41
1
10
212.393581631018
20
29.5756741158164
30
0
41
1
10
212.418597234161
20
29.5733622359131
30
0
41
1
10
212.509752872503
20
29.5665785307493
30
0
41
1
10
212.593771980606
20
29.5621051807189
30
0
41
1
10
212.694098253798
20
29.5585701889643
30
0
0
SPLINE
5
195
100
AcDbEntity
8
1
62
256
6
ByLayer
370
-1
48
1
60
0
100
AcDbSpline
70
4
71
3
72
93
73
89
40
-0.0312500000000022
40
-0.0312500000000022
40
0
40
0
40
0.0312500000000015
40
0.0312500000000015
40
0.0468750000000019
40
0.0468750000000019
40
0.0625000000000022
40
0.0625000000000022
40
0.093750000000005
40
0.093750000000005
40
0.125000000000008
40
0.125000000000008
40
0.156250000000011
40
0.156250000000011
40
0.171875000000009
40
0.171875000000009
40
0.187500000000008
40
0.187500000000008
40
0.218750000000006
40
0.218750000000006
40
0.250000000000004
40
0.250000000000004
40
0.265625000000003
40
0.265625000000003
40
0.281250000000002
40
0.281250000000002
40
0.3125
40
0.3125
40
0.328124999999999
40
0.328124999999999
40
0.343749999999997
40
0.343749999999997
40
0.374999999999995
40
0.374999999999995
40
0.406249999999993
40
0.406249999999993
40
0.421874999999992
40
0.421874999999992
40
0.437499999999991
40
0.437499999999991
40
0.468749999999989
40
0.468749999999989
40
0.484374999999988
40
0.484374999999988
40
0.499999999999987
40
0.499999999999987
40
0.531249999999985
40
0.531249999999985
40
0.546874999999984
40
0.546874999999984
40
0.562499999999984
40
0.562499999999984
40
0.593749999999984
40
0.593749999999984
40
0.624999999999984
40
0.624999999999984
40
0.640624999999982
40
0.640624999999982
40
0.65624999999998
40
0.65624999999998
40
0.687499999999981
40
0.687499999999981
40
0.718749999999982
40
0.718749999999982
40
0.749999999999983
40
0.749999999999983
40
0.765624999999984
40
0.765624999999984
40
0.781249999999984
40
0.796874999999985
40
0.796874999999985
40
0.812499999999985
40
0.812499999999985
40
0.843749999999986
40
0.843749999999986
40
0.859374999999989
40
0.859374999999989
40
0.874999999999993
40
0.874999999999993
40
0.906249999999994
40
0.906249999999994
40
0.937499999999996
40
0.937499999999996
40
0.953124999999997
40
0.953124999999997
40
0.968749999999998
40
0.968749999999998
40
1
40
1
40
1.03125
40
1.03125
41
1
10
220.120619374448
20
-6.51683530731
30
0
41
1
10
220.106385093521
20
-6.24099826624757
30
0
41
1
10
220.112435563998
20
-6.10437208034747
30
0
41
1
10
220.140720061041
20
-5.90132915240764
30
0
41
1
10
220.153371994274
20
-5.83396675770061
30
0
41
1
10
220.185303956976
20
-5.6999029677217
30
0
41
1
10
220.204717285933
20
-5.63287322586501
30
0
41
1
10
220.272043020231
20
-5.43663169289599
30
0
41
1
10
220.328998026108
20
-5.31145061603931
30
0
41
1
10
220.467031953386
20
-5.07245510235035
30
0
41
1
10
220.54923858899
20
-4.95758666083412
30
0
41
1
10
220.732455024599
20
-4.74889652289355
30
0
41
1
10
220.833618174231
20
-4.65420715393287
30
0
41
1
10
220.999992493261
20
-4.52702991607634
30
0
41
1
10
221.058268562871
20
-4.48692630988634
30
0
41
1
10
221.177699775147
20
-4.41334004545496
30
0
41
1
10
221.238887160095
20
-4.37977003258661
30
0
41
1
10
221.426772650487
20
-4.28854191451185
30
0
41
1
10
221.557749365632
20
-4.2402681583992
30
0
41
1
10
221.831700311367
20
-4.17009420999204
30
0
41
1
10
221.970096478841
20
-4.14939210267667
30
0
41
1
10
222.179217045146
20
-4.13920443831015
30
0
41
1
10
222.249209959696
20
-4.1393052849827
30
0
41
1
10
222.389782625581
20
-4.14668032377099
30
0
41
1
10
222.460404449223
20
-4.15401392686667
30
0
41
1
10
222.668276452824
20
-4.18630911343342
30
0
41
1
10
222.803223845062
20
-4.22149189646865
30
0
41
1
10
223.000217991679
20
-4.29462310289472
30
0
41
1
10
223.065331438309
20
-4.32261078904099
30
0
41
1
10
223.191428887018
20
-4.38455725378961
30
0
41
1
10
223.25246422619
20
-4.41847958369888
30
0
41
1
10
223.429703891412
20
-4.52882466244321
30
0
41
1
10
223.540221060627
20
-4.61385933123859
30
0
41
1
10
223.744756437318
20
-4.80676706131553
30
0
41
1
10
223.835632024665
20
-4.91162765403129
30
0
41
1
10
223.955747919203
20
-5.08079745363227
30
0
41
1
10
223.993066642505
20
-5.13918229027144
30
0
41
1
10
224.062177742338
20
-5.25999353325693
30
0
41
1
10
224.093901827937
20
-5.32239460056175
30
0
41
1
10
224.178835889706
20
-5.51163709992548
30
0
41
1
10
224.222680258541
20
-5.64178380141689
30
0
41
1
10
224.269663582233
20
-5.8428093966921
30
0
41
1
10
224.282211769436
20
-5.91113874074
30
0
41
1
10
224.300583885652
20
-6.04795286417107
30
0
41
1
10
224.306428095155
20
-6.116281173988
30
0
41
1
10
224.314265682115
20
-6.32103282205196
30
0
41
1
10
224.306652120564
20
-6.4572235743407
30
0
41
1
10
224.275649083958
20
-6.66104299480489
30
0
41
1
10
224.262017730654
20
-6.72871876114178
30
0
41
1
10
224.228751181633
20
-6.8612020015313
30
0
41
1
10
224.209070888411
20
-6.92634580221861
30
0
41
1
10
224.141005350869
20
-7.11853890802351
30
0
41
1
10
224.08344248514
20
-7.24279504274938
30
0
41
1
10
223.94397090396
20
-7.48056939141892
30
0
41
1
10
223.863873677505
20
-7.59117784066297
30
0
41
1
10
223.728401423011
20
-7.74495195991742
30
0
41
1
10
223.680671352786
20
-7.79417248377285
30
0
41
1
10
223.579871022318
20
-7.88840390627027
30
0
41
1
10
223.526507050646
20
-7.93360832326712
30
0
41
1
10
223.361517734756
20
-8.05987877803543
30
0
41
1
10
223.244384667384
20
-8.13249295451703
30
0
41
1
10
222.995612456023
20
-8.25437773246034
30
0
41
1
10
222.862385913828
20
-8.30385724767902
30
0
41
1
10
222.592340862836
20
-8.37379824427137
30
0
41
1
10
222.454659939569
20
-8.39501734479907
30
0
41
1
10
222.244029831123
20
-8.4056343456474
30
0
41
1
10
222.172899931001
20
-8.40555665630376
30
0
41
1
10
222.032675009183
20
-8.39819957476536
30
0
41
1
10
221.893674248261
20
-8.38373201743968
30
0
41
1
10
221.757067489197
20
-8.35534967002206
30
0
41
1
10
221.621665705113
20
-8.3199543508905
30
0
41
1
10
221.554191208417
20
-8.2985918396557
30
0
41
1
10
221.357350252126
20
-8.22507358276076
30
0
41
1
10
221.233077288087
20
-8.16366796385415
30
0
41
1
10
221.056628032771
20
-8.05370709940243
30
0
41
1
10
220.999243396371
20
-8.01386446425778
30
0
41
1
10
220.889050710166
20
-7.92894515335604
30
0
41
1
10
220.836527584506
20
-7.8841322300554
30
0
41
1
10
220.686342606168
20
-7.74291085190703
30
0
41
1
10
220.595995946209
20
-7.6397834772809
30
0
41
1
10
220.434870861358
20
-7.41539933611767
30
0
41
1
10
220.36607131502
20
-7.29675243195641
30
0
41
1
10
220.280620452439
20
-7.11125260999532
30
0
41
1
10
220.25505063022
20
-7.04806188055147
30
0
41
1
10
220.209807639233
20
-6.91892146266471
30
0
41
1
10
220.190077527231
20
-6.85269010745139
30
0
41
1
10
220.140729051706
20
-6.65254237906592
30
0
41
1
10
220.120619374448
20
-6.51683530731
30
0
41
1
10
220.106385093521
20
-6.24099826624757
30
0
0
SPLINE
5
196
100
AcDbEntity
8
1
62
256
6
ByLayer
370
-1
48
1
60
0
100
AcDbSpline
70
4
71
3
72
20
73
16
40
0
40
0
40
0
40
0
40
0.125
40
0.125
40
0.25
40
0.25
40
0.500000000000002
40
0.500000000000002
40
0.625000000000001
40
0.625000000000001
40
0.750000000000001
40
0.750000000000001
40
0.875
40
0.875
40
1
40
1
40
1
40
1
41
1
10
212.913363221884
20
11.4950897155181
30
0
41
1
10
212.918335568866
20
11.4950897155181
30
0
41
1
10
212.917276948955
20
11.5016750351143
30
0
41
1
10
212.904758968727
20
11.5263247932009
30
0
41
1
10
212.893243537846
20
11.5446598831044
30
0
41
1
10
212.849269347674
20
11.6125859895476
30
0
41
1
10
212.807100975928
20
11.676150666278
30
0
41
1
10
212.741532737157
20
11.7884324319768
30
0
41
1
10
212.719079656705
20
11.8288837433284
30
0
41
1
10
212.673967434115
20
11.9163517577113
30
0
41
1
10
212.651775505458
20
11.9624933844634
30
0
41
1
10
212.609245782121
20
12.0587992861653
30
0
41
1
10
212.588821288484
20
12.1091164580539
30
0
41
1
10
212.550116357129
20
12.2147059365412
30
0
41
1
10
212.532377342452
20
12.2685623884891
30
0
41
1
10
212.516454167872
20
12.3228076587207
30
0
0
SPLINE
5
197
100
AcDbEntity
8
1
62
256
6
ByLayer
370
-1
48
1
60
0
100
AcDbSpline
70
4
71
3
72
8
73
4
40
0
40
0
40
0
40
0
40
1
40
1
40
1
40
1
41
1
10
32.9020328658142
20
-17.9376793813037
30
0
41
1
10
32.9020328658142
20
-19.0722413684923
30
0
41
1
10
32.9020328658142
20
-20.2068033556809
30
0
41
1
10
32.9020328658142
20
-21.3413653428696
30
0
0
SPLINE
5
198
100
AcDbEntity
8
1
62
256
6
ByLayer
370
-1
48
1
60
0
100
AcDbSpline
70
4
71
3
72
18
73
14
40
0
40
0
40
0
40
0
40
0.25
40
0.25
40
0.5
40
0.5
40
0.625
40
0.625
40
0.6875
40
0.6875
40
0.75
40
0.75
40
1
40
1
40
1
40
1
41
1
10
212.376529349329
20
3.8066904117793
30
0
41
1
10
211.585586141472
20
3.75906186328587
30
0
41
1
10
210.799948552429
20
3.76159853397971
30
0
41
1
10
209.238993092246
20
3.86423724025602
30
0
41
1
10
208.46367529708
20
3.96434062659111
30
0
41
1
10
207.308648600761
20
4.18933568827242
30
0
41
1
10
206.924969108976
20
4.27684574661742
30
0
41
1
10
206.351513392393
20
4.42746075988723
30
0
41
1
10
206.160643971312
20
4.48092350311074
30
0
41
1
10
205.781810567667
20
4.59373504808465
30
0
41
1
10
205.593571888114
20
4.65315196265607
30
0
41
1
10
204.658268909399
20
4.96524534859765
30
0
41
1
10
203.928799968258
20
5.26277541925094
30
0
41
1
10
203.21871740568
20
5.60895867564028
30
0
0
SPLINE
5
199
100
AcDbEntity
8
1
62
256
6
ByLayer
370
-1
48
1
60
0
100
AcDbSpline
70
4
71
3
72
18
73
14
40
0
40
0
40
0
40
0
40
0.0625000000000016
40
0.0625000000000016
40
0.0937500000000019
40
0.0937500000000019
40
0.125000000000002
40
0.125000000000002
40
0.250000000000002
40
0.250000000000002
40
0.500000000000001
40
0.500000000000001
40
1
40
1
40
1
40
1
41
1
10
42
20
13.9731978952023
30
0
41
1
10
41.6502469671605
20
14.1097526880126
30
0
41
1
10
41.2999963974274
20
14.2482245831923
30
0
41
1
10
40.7740543836705
20
14.4593339282318
30
0
41
1
10
40.5986461511058
20
14.5302712919687
30
0
41
1
10
40.2476729677523
20
14.6733771554823
30
0
41
1
10
40.0721367218742
20
14.7458985223756
30
0
41
1
10
39.1936151293338
20
15.1052075348744
30
0
41
1
10
38.488265397467
20
15.3846199708766
30
0
41
1
10
36.3639512459614
20
16.1979301577938
30
0
41
1
10
34.9366690746081
20
16.7068707984733
30
0
41
1
10
30.6171804549374
20
18.1286796544254
30
0
41
1
10
27.6996425022981
20
18.9317265475219
30
0
41
1
10
24.7370900215412
20
19.5879589716064
30
0
0
SPLINE
5
19A
100
AcDbEntity
8
1
62
256
6
ByLayer
370
-1
48
1
60
0
100
AcDbSpline
70
4
71
3
72
10
73
6
40
0
40
0
40
0
40
0
40
0.5
40
0.5
40
1
40
1
40
1
40
1
41
1
10
16.802032865814
20
-14.6549224761631
30
0
41
1
10
19.4652228921093
20
-15.9745335287337
30
0
41
1
10
22.1332967086238
20
-17.2040878174596
30
0
41
1
10
27.5024520384328
20
-19.4485762745366
30
0
41
1
10
30.1962490271013
20
-20.4601549851028
30
0
41
1
10
32.9020328658141
20
-21.3413653428696
30
0
0
SPLINE
5
19B
100
AcDbEntity
8
1
62
256
6
ByLayer
370
-1
48
1
60
0
100
AcDbSpline
70
4
71
3
72
33
73
29
40
0
40
0
40
0
40
0
40
0.0273849387269766
40
0.108436193833061
40
0.189487448939147
40
0.270538704045233
40
0.351589959151317
40
0.39211558670436
40
0.432641214257403
40
0.513692469363488
40
0.554218096916531
40
0.594743724469573
40
0.615006538246094
40
0.635269352022616
40
0.655532165799138
40
0.675794979575659
40
0.716320607128702
40
0.756846234681744
40
0.797371862234787
40
0.837897489787829
40
0.85816030356435
40
0.878423117340872
40
0.898685931117393
40
0.908817338005654
40
0.918948744893915
40
0.939211558670436
40
0.959474372446958
40
1
40
1
40
1
40
1
41
1
10
75.1594195847696
20
2.10175042693422
30
0
41
1
10
74.8917754810238
20
2.14947091627337
30
0
41
1
10
73.8319736148862
20
2.33828998685698
30
0
41
1
10
71.9799524725769
20
2.66722159759883
30
0
41
1
10
69.6032825950324
20
3.08722727299582
30
0
41
1
10
67.2264732678725
20
3.50507823071982
30
0
41
1
10
65.2458209959624
20
3.85097011278734
30
0
41
1
10
63.6614238824725
20
4.12585720839476
30
0
41
1
10
62.0772667335832
20
4.39904269698386
30
0
41
1
10
60.4928960191867
20
4.66993882147562
30
0
41
1
10
58.9078859835814
20
4.93919686012069
30
0
41
1
10
57.9169356740008
20
5.10678754109384
30
0
41
1
10
57.1244029028512
20
5.24042202698112
30
0
41
1
10
56.5306355813652
20
5.34017618771287
30
0
41
1
10
55.9370955053311
20
5.43947913666415
30
0
41
1
10
55.1458870324757
20
5.57124409036805
30
0
41
1
10
54.1561377357655
20
5.73504953034137
30
0
41
1
10
52.9664403182801
20
5.9309578234278
30
0
41
1
10
51.7753521881081
20
6.12659358397647
30
0
41
1
10
50.7833843541646
20
6.28910484662998
30
0
41
1
10
49.9914346796498
20
6.4182297007066
30
0
41
1
10
49.3985570643065
20
6.51439417989886
30
0
41
1
10
48.9051112450136
20
6.59395212280543
30
0
41
1
10
48.5104482945806
20
6.65728894294398
30
0
41
1
10
48.1159095725923
20
6.72037734961347
30
0
41
1
10
47.6223588431942
20
6.79894337985775
30
0
41
1
10
46.8312425704558
20
6.92429677013709
30
0
41
1
10
46.2355893823461
20
7.01831679119024
30
0
41
1
10
45.8370900215467
20
7.08134095124112
30
0
0
SPLINE
5
19C
100
AcDbEntity
8
1
62
256
6
ByLayer
370
-1
48
1
60
0
100
AcDbSpline
70
4
71
1
72
4
73
2
40
0
40
0
40
1
40
1
41
1
10
45.8370900215437
20
7.08134095124169
30
0
41
1
10
45.8370900215438
20
12.3822041127821
30
0
0
SPLINE
5
19D
100
AcDbEntity
8
1
62
256
6
ByLayer
370
-1
48
1
60
0
100
AcDbSpline
70
4
71
3
72
8
73
4
40
0
40
0
40
0
40
0
40
1
40
1
40
1
40
1
41
1
10
205.604583278855
20
13.2053437976304
30
0
41
1
10
205.866792374112
20
13.0847770583181
30
0
41
1
10
206.1323154419
20
12.9700319501767
30
0
41
1
10
206.401367450607
20
12.861138093787
30
0
0
SPLINE
5
19E
100
AcDbEntity
8
1
62
256
6
ByLayer
370
-1
48
1
60
0
100
AcDbSpline
70
4
71
3
72
10
73
6
40
0
40
0
40
0
40
0
40
0.5
40
0.5
40
1
40
1
40
1
40
1
41
1
10
209.139380254912
20
19.6003245280205
30
0
41
1
10
209.139380254912
20
19.5099203804639
30
0
41
1
10
209.13180098619
20
19.4194315517491
30
0
41
1
10
209.102161694272
20
19.2424272048255
30
0
41
1
10
209.080157070622
20
19.1554726886663
30
0
41
1
10
209.050884836484
20
19.0700836290647
30
0
0
SPLINE
5
19F
100
AcDbEntity
8
1
62
256
6
ByLayer
370
-1
48
1
60
0
100
AcDbSpline
70
4
71
3
72
10
73
6
40
0
40
0
40
0
40
0
40
0.5
40
0.5
40
1
40
1
40
1
40
1
41
1
10
185.554497569309
20
22.5803295251864
30
0
41
1
10
185.695349277361
20
22.6920594044682
30
0
41
1
10
185.842525950082
20
22.7923644632731
30
0
41
1
10
186.144729401588
20
22.9787336023741
30
0
41
1
10
186.299844210394
20
23.0646414809485
30
0
41
1
10
186.457763287914
20
23.14544390813
30
0
0
SPLINE
5
1A0
100
AcDbEntity
8
1
62
256
6
ByLayer
370
-1
48
1
60
0
100
AcDbSpline
70
4
71
3
72
50
73
46
40
0
40
0
40
0
40
0
40
0.050615116893002
40
0.050615116893002
40
0.129730523818585
40
0.129730523818585
40
0.208845930744168
40
0.208845930744168
40
0.287961337669752
40
0.287961337669752
40
0.327519041132543
40
0.327519041132543
40
0.367076744595335
40
0.367076744595335
40
0.446192151520919
40
0.446192151520919
40
0.48574985498371
40
0.48574985498371
40
0.525307558446502
40
0.525307558446502
40
0.564865261909293
40
0.564865261909293
40
0.604422965372085
40
0.604422965372085
40
0.643980668834877
40
0.643980668834877
40
0.683538372297668
40
0.683538372297668
40
0.762653779223251
40
0.762653779223251
40
0.802211482686043
40
0.802211482686043
40
0.841769186148834
40
0.841769186148834
40
0.881326889611626
40
0.881326889611626
40
0.920884593074417
40
0.920884593074417
40
0.940663444805813
40
0.940663444805813
40
0.960442296537209
40
0.960442296537209
40
0.980221148268604
40
0.980221148268604
40
1
40
1
40
1
40
1
41
1
10
151.23743341679
20
-22.5203758769583
30
0
41
1
10
149.344412891008
20
-22.9196562367098
30
0
41
1
10
147.451226043152
20
-23.3008205064796
30
0
41
1
10
142.59810258699
20
-24.2289788838009
30
0
41
1
10
139.641355368564
20
-24.7477263104787
30
0
41
1
10
133.729818132575
20
-25.687245979326
30
0
41
1
10
130.775230394871
20
-26.1069930567444
30
0
41
1
10
124.864196050218
20
-26.8438301655994
30
0
41
1
10
121.907676485355
20
-27.1619807946791
30
0
41
1
10
117.469043749222
20
-27.5546816883848
30
0
41
1
10
115.989685632796
20
-27.6711240143711
30
0
41
1
10
113.032775628369
20
-27.8754611163169
30
0
41
1
10
111.554897259493
20
-27.9633013239611
30
0
41
1
10
107.12196415604
20
-28.1852395317875
30
0
41
1
10
104.167566402527
20
-28.2783911703937
30
0
41
1
10
99.7348411281953
20
-28.3361351154258
30
0
41
1
10
98.2570531103449
20
-28.3419366467895
30
0
41
1
10
95.3007570124659
20
-28.3253816450553
30
0
41
1
10
93.8222696186534
20
-28.3027406211013
30
0
41
1
10
90.8640003265577
20
-28.2302056124238
30
0
41
1
10
89.3841551329125
20
-28.1801671180847
30
0
41
1
10
86.4257882244878
20
-28.0514546252574
30
0
41
1
10
84.9468556578797
20
-27.9731130223338
30
0
41
1
10
81.9889629982589
20
-27.7889400480304
30
0
41
1
10
80.5100018112617
20
-27.683142643446
30
0
41
1
10
77.5516522984506
20
-27.4434853431906
30
0
41
1
10
76.0720453755772
20
-27.3096963080256
30
0
41
1
10
71.6351271150222
20
-26.8676885179847
30
0
41
1
10
68.6787971415654
20
-26.5184584634305
30
0
41
1
10
64.2438724049436
20
-25.9171855590068
30
0
41
1
10
62.7654784781345
20
-25.7039691451719
30
0
41
1
10
59.8080395753627
20
-25.2528210894713
30
0
41
1
10
58.3286575023589
20
-25.0148949152118
30
0
41
1
10
55.3707264580653
20
-24.5135305481875
30
0
41
1
10
53.8923503340706
20
-24.2498514002136
30
0
41
1
10
50.9358886866307
20
-23.6997742997746
30
0
41
1
10
49.4577892933528
20
-23.4135932913971
30
0
41
1
10
47.2408872935442
20
-22.9648464531169
30
0
41
1
10
46.5019184096871
20
-22.8123202359913
30
0
41
1
10
45.0237898527532
20
-22.5025575782708
30
0
41
1
10
44.2846250119453
20
-22.345385587031
30
0
41
1
10
42.8061578875997
20
-22.0255911513362
30
0
41
1
10
42.0668860567663
20
-21.8626986934007
30
0
41
1
10
40.588287110005
20
-21.5300577748723
30
0
41
1
10
39.8489445304435
20
-21.3604067453521
30
0
41
1
10
39.1093789070324
20
-21.1889860637673
30
0
0
SPLINE
5
1A1
100
AcDbEntity
8
1
62
256
6
ByLayer
370
-1
48
1
60
0
100
AcDbSpline
70
4
71
3
72
60
73
56
40
0
40
0
40
0
40
0
40
0.0624999999999997
40
0.0624999999999997
40
0.124999999999999
40
0.124999999999999
40
0.140624999999999
40
0.140624999999999
40
0.156249999999999
40
0.156249999999999
40
0.187499999999999
40
0.187499999999999
40
0.25
40
0.25
40
0.28125
40
0.28125
40
0.296875
40
0.296875
40
0.3125
40
0.3125
40
0.375
40
0.375
40
0.4375
40
0.4375
40
0.453125
40
0.453125
40
0.46875
40
0.46875
40
0.5
40
0.5
40
0.5625
40
0.5625
40
0.578125
40
0.578125
40
0.59375
40
0.59375
40
0.625
40
0.625
40
0.6875
40
0.6875
40
0.71875
40
0.71875
40
0.734375
40
0.734375
40
0.75
40
0.75
40
0.8125
40
0.8125
40
0.84375
40
0.84375
40
0.875
40
0.875
40
0.9375
40
0.9375
40
1
40
1
40
1
40
1
41
1
10
24.7370900215437
20
19.5879589716151
30
0
41
1
10
24.0310634710774
20
19.7358252144163
30
0
41
1
10
23.3217332844055
20
19.8407043251358
30
0
41
1
10
21.8968495582422
20
19.9699047047751
30
0
41
1
10
21.1812950709964
20
19.9942123481826
30
0
41
1
10
20.2828956474635
20
19.9734259906224
30
0
41
1
10
20.1030167544721
20
19.9666938408552
30
0
41
1
10
19.7428543679846
20
19.9479919627273
30
0
41
1
10
19.562442637472
20
19.9360000931893
30
0
41
1
10
19.0249753693218
20
19.8924182188526
30
0
41
1
10
18.6702520720946
20
19.8531811852006
30
0
41
1
10
17.6165682387037
20
19.7053289257153
30
0
41
1
10
16.9280434792168
20
19.5667718150351
30
0
41
1
10
15.9159904359776
20
19.2968969966875
30
0
41
1
10
15.5821076916202
20
19.1965495831301
30
0
41
1
10
15.0865840936684
20
19.0297119242989
30
0
41
1
10
14.9220059154192
20
18.9712670852674
30
0
41
1
10
14.5960522264112
20
18.8492973203345
30
0
41
1
10
14.4349843532875
20
18.7858999861533
30
0
41
1
10
13.6390408437497
20
18.4568593520269
30
0
41
1
10
13.0322068908814
20
18.1552680883497
30
0
41
1
10
11.8769956751539
20
17.4720984591203
30
0
41
1
10
11.3286134183579
20
17.0905502200554
30
0
41
1
10
10.6811109117279
20
16.5579957741479
30
0
41
1
10
10.5538044154983
20
16.4489038880093
30
0
41
1
10
10.3051465687518
20
16.2269143079649
30
0
41
1
10
10.1835520530844
20
16.1138188812668
30
0
41
1
10
9.8268553652868
20
15.7682070728126
30
0
41
1
10
9.5998304657102
20
15.5293721670466
30
0
41
1
10
8.95050832918329
20
14.7871398999175
30
0
41
1
10
8.55981994302454
20
14.258134223665
30
0
41
1
10
8.1245469354667
20
13.5509344675099
30
0
41
1
10
8.0401581437668
20
13.4071879528547
30
0
41
1
10
7.87676744970162
20
13.1149618053018
30
0
41
1
10
7.79769208302642
20
12.9663019315072
30
0
41
1
10
7.57063890258428
20
12.5171426097904
30
0
41
1
10
7.4320993044166
20
12.2122472204794
30
0
41
1
10
7.05336746590518
20
11.281312895102
30
0
41
1
10
6.84991849559691
20
10.6390750698403
30
0
41
1
10
6.61487537580601
20
9.64282916039252
30
0
41
1
10
6.54825375920066
20
9.30525319132255
30
0
41
1
10
6.46580155490725
20
8.79047602594628
30
0
41
1
10
6.44128800151927
20
8.61774247009174
30
0
41
1
10
6.39835364168579
20
8.27220409199603
30
0
41
1
10
6.37988064096928
20
8.09908500755543
30
0
41
1
10
6.30201899270534
20
7.23174802710037
30
0
41
1
10
6.28594148927243
20
6.53231374148754
30
0
41
1
10
6.32476809507583
20
5.47486495854633
30
0
41
1
10
6.34824037805737
20
5.12099749100432
30
0
41
1
10
6.41560177238631
20
4.41048244354133
30
0
41
1
10
6.45965386985472
20
4.05307314794425
30
0
41
1
10
6.61967159897543
20
2.98909047628536
30
0
41
1
10
6.7635282636048
20
2.28714101202897
30
0
41
1
10
7.11764666647548
20
0.896302367802036
30
0
41
1
10
7.32794394480226
20
0.207420758728631
30
0
41
1
10
7.5694295207758
20
-0.475339946227393
30
0
0
SPLINE
5
1A2
100
AcDbEntity
8
1
62
256
6
ByLayer
370
-1
48
1
60
0
100
AcDbSpline
70
4
71
2
72
6
73
3
40
0
40
0
40
0
40
1
40
1
40
1
41
1
10
16.802032865814
20
-9.44125584408243
30
0
41
1
10
16.8020328658141
20
-12.0480891601228
30
0
41
1
10
16.8020328658141
20
-14.6549224761631
30
0
0
SPLINE
5
1A3
100
AcDbEntity
8
1
62
256
6
ByLayer
370
-1
48
1
60
0
100
AcDbSpline
70
4
71
3
72
18
73
14
40
0
40
0
40
0
40
0
40
0.250000000000005
40
0.250000000000005
40
0.50000000000001
40
0.50000000000001
40
0.562500000000012
40
0.562500000000012
40
0.625000000000013
40
0.625000000000013
40
0.750000000000008
40
0.750000000000008
40
1
40
1
40
1
40
1
41
1
10
192.430072411044
20
29.2103132032713
30
0
41
1
10
192.111182962297
20
28.5477076997104
30
0
41
1
10
191.752035457447
20
27.9147997503972
30
0
41
1
10
190.935022888099
20
26.7218058001393
30
0
41
1
10
190.476962320865
20
26.16186401761
30
0
41
1
10
189.834532284154
20
25.5134669149995
30
0
41
1
10
189.702335024332
20
25.386159067332
30
0
41
1
10
189.434078054444
20
25.1395350954333
30
0
41
1
10
189.297686086464
20
25.0198612988867
30
0
41
1
10
188.882018067148
20
24.6712749533688
30
0
41
1
10
188.596239844101
20
24.4528136124835
30
0
41
1
10
187.715567989228
20
23.8349404085304
30
0
41
1
10
187.097499887743
20
23.4727778239236
30
0
41
1
10
186.457763287914
20
23.1454439081299
30
0
0
SPLINE
5
1A4
100
AcDbEntity
8
1
62
256
6
ByLayer
370
-1
48
1
60
0
100
AcDbSpline
70
4
71
3
72
36
73
32
40
0
40
0
40
0
40
0
40
0.0625000000000062
40
0.0625000000000062
40
0.0937500000000093
40
0.0937500000000093
40
0.125000000000012
40
0.125000000000012
40
0.25000000000002
40
0.25000000000002
40
0.375000000000027
40
0.375000000000027
40
0.406250000000027
40
0.406250000000027
40
0.437500000000027
40
0.437500000000027
40
0.500000000000025
40
0.500000000000025
40
0.562500000000023
40
0.562500000000023
40
0.59375000000002
40
0.59375000000002
40
0.625000000000018
40
0.625000000000018
40
0.750000000000013
40
0.750000000000013
40
0.875000000000008
40
0.875000000000008
40
0.937500000000004
40
0.937500000000004
40
1
40
1
40
1
40
1
41
1
10
207.518116633095
20
12.3077004121169
30
0
41
1
10
207.769607873147
20
12.1940336387347
30
0
41
1
10
208.018970034581
20
12.0842129758354
30
0
41
1
10
208.389167923945
20
11.9245518851933
30
0
41
1
10
208.511924446443
20
11.8721758045245
30
0
41
1
10
208.756016896014
20
11.7689841326643
30
0
41
1
10
208.877318836409
20
11.7181853106122
30
0
41
1
10
209.474311991519
20
11.4700367012144
30
0
41
1
10
209.926283993513
20
11.2882910719391
30
0
41
1
10
210.769733453665
20
10.9454296634377
30
0
41
1
10
211.161405347451
20
10.7844169243671
30
0
41
1
10
211.601932331644
20
10.586872592529
30
0
41
1
10
211.687759915195
20
10.5474369024913
30
0
41
1
10
211.852167837125
20
10.4695258745334
30
0
41
1
10
211.9309330372
20
10.4309728252007
30
0
41
1
10
212.15657120485
20
10.3161090365162
30
0
41
1
10
212.292819738887
20
10.2405918114503
30
0
41
1
10
212.534445153949
20
10.089541695946
30
0
41
1
10
212.639837839963
20
10.0140103964154
30
0
41
1
10
212.771970908297
20
9.89913492859719
30
0
41
1
10
212.811535853202
20
9.86066525661269
30
0
41
1
10
212.880531620031
20
9.78414414600965
30
0
41
1
10
212.910127263722
20
9.7459551696592
30
0
41
1
10
213.033429212599
20
9.55493612476539
30
0
41
1
10
213.053868450036
20
9.40148580830009
30
0
41
1
10
212.922714139613
20
9.08849095127877
30
0
41
1
10
212.774426010499
20
8.93699664785177
30
0
41
1
10
212.440100931159
20
8.72196124726975
30
0
41
1
10
212.308974617223
20
8.65210999203561
30
0
41
1
10
212.01737414126
20
8.52149098302289
30
0
41
1
10
211.856474608675
20
8.46032116778599
30
0
41
1
10
211.681877577585
20
8.40393326967379
30
0
0
SPLINE
5
1A5
100
AcDbEntity
8
1
62
256
6
ByLayer
370
-1
48
1
60
0
100
AcDbSpline
70
4
71
3
72
8
73
4
40
0
40
0
40
0
40
0
40
1
40
1
40
1
40
1
41
1
10
38.7813399220536
20
-21.1059219662233
30
0
41
1
10
37.8725920839111
20
-20.6252163942562
30
0
41
1
10
36.9641306359384
20
-20.1401913651365
30
0
41
1
10
36.0570800237788
20
-19.6481872281324
30
0
0
SPLINE
5
1A6
100
AcDbEntity
8
1
62
256
6
ByLayer
370
-1
48
1
60
0
100
AcDbSpline
70
4
71
3
72
22
73
18
40
0
40
0
40
0
40
0
40
0.125
40
0.125
40
0.25
40
0.25
40
0.375
40
0.375
40
0.5
40
0.5
40
0.625
40
0.625
40
0.75
40
0.75
40
0.875
40
0.875
40
1
40
1
40
1
40
1
41
1
10
185.085403262152
20
20.6932812903786
30
0
41
1
10
185.039161134538
20
20.7668731026518
30
0
41
1
10
185.002696702172
20
20.8448339576523
30
0
41
1
10
184.947541923703
20
21.0087271407375
30
0
41
1
10
184.928909305832
20
21.0956134038455
30
0
41
1
10
184.910312189951
20
21.2697428525789
30
0
41
1
10
184.909951085493
20
21.3576186612881
30
0
41
1
10
184.926127236886
20
21.5349323499471
30
0
41
1
10
184.942542404015
20
21.6224027666281
30
0
41
1
10
184.990072585936
20
21.7933477109811
30
0
41
1
10
185.021596022591
20
21.877842213051
30
0
41
1
10
185.097451110548
20
22.0395802300285
30
0
41
1
10
185.141568106686
20
22.1167341646693
30
0
41
1
10
185.241558145392
20
22.2639849613915
30
0
41
1
10
185.297876675161
20
22.3344563679626
30
0
41
1
10
185.419358534385
20
22.464755712247
30
0
41
1
10
185.484690178128
20
22.5249551779566
30
0
41
1
10
185.554497569309
20
22.5803295251862
30
0
0
SPLINE
5
1A7
100
AcDbEntity
8
1
62
256
6
ByLayer
370
-1
48
1
60
0
100
AcDbSpline
70
4
71
3
72
14
73
10
40
0
40
0
40
0
40
0
40
0.0221145929178875
40
0.0221145929178875
40
0.130768527038124
40
0.130768527038124
40
0.565384263519062
40
0.565384263519062
40
1
40
1
40
1
40
1
41
1
10
187.764764806054
20
15.6378935146128
30
0
41
1
10
187.750628238412
20
15.6728626586969
30
0
41
1
10
187.7364220153
20
15.7079039899069
30
0
41
1
10
187.652017110043
20
15.9154506746176
30
0
41
1
10
187.58026708975
20
16.0892564623595
30
0
41
1
10
187.211693369906
20
16.9638328721053
30
0
41
1
10
186.885367000714
20
17.6813735666234
30
0
41
1
10
186.126649889572
20
19.1188972550855
30
0
41
1
10
185.694759788347
20
19.8392263947322
30
0
41
1
10
185.18755090434
20
20.5413502610509
30
0
0
SPLINE
5
1A8
100
AcDbEntity
8
1
62
256
6
ByLayer
370
-1
48
1
60
0
100
AcDbSpline
70
4
71
3
72
12
73
8
40
0
40
0
40
0
40
0
40
0.500000000000006
40
0.500000000000006
40
0.750000000000003
40
0.750000000000003
40
1
40
1
40
1
40
1
41
1
10
206.401367450607
20
12.861138093787
30
0
41
1
10
207.434007097541
20
12.4575246359282
30
0
41
1
10
208.489096210729
20
12.1420605418259
30
0
41
1
10
210.104979899686
20
11.7993146091181
30
0
41
1
10
210.649176823082
20
11.7069154826343
30
0
41
1
10
211.748977984251
20
11.5668576173899
30
0
41
1
10
212.306015379451
20
11.5192413204315
30
0
41
1
10
212.862216148987
20
11.4950897155181
30
0
0
SPLINE
5
1A9
100
AcDbEntity
8
1
62
256
6
ByLayer
370
-1
48
1
60
0
100
AcDbSpline
70
4
71
3
72
16
73
12
40
0
40
0
40
0
40
0
40
0.25
40
0.25
40
0.5
40
0.5
40
0.625
40
0.625
40
0.75
40
0.75
40
1
40
1
40
1
40
1
41
1
10
209.200353765663
20
7.74493406069104
30
0
41
1
10
208.867425807298
20
7.6749974436695
30
0
41
1
10
208.496025894874
20
7.62984353314937
30
0
41
1
10
207.695820442335
20
7.592040386973
30
0
41
1
10
207.266797040664
20
7.59943942279244
30
0
41
1
10
206.587597366552
20
7.65537006871372
30
0
41
1
10
206.35705563581
20
7.6813973586504
30
0
41
1
10
205.89209731276
20
7.74806481571372
30
0
41
1
10
205.657165658762
20
7.78874612154607
30
0
41
1
10
204.946337141966
20
7.93327370327617
30
0
41
1
10
204.464473373907
20
8.05951092398772
30
0
41
1
10
203.977082786157
20
8.21789384020909
30
0
0
SPLINE
5
1AA
100
AcDbEntity
8
1
62
256
6
ByLayer
370
-1
48
1
60
0
100
AcDbSpline
70
4
71
3
72
8
73
4
40
0
40
0
40
0
40
0
40
1
40
1
40
1
40
1
41
1
10
8.63465910864949
20
-2.85330434063033
30
0
41
1
10
8.21781122476827
20
-2.09602605968709
30
0
41
1
10
7.86242837799213
20
-1.30374597212781
30
0
41
1
10
7.56942952077341
20
-0.475339946220657
30
0
0
SPLINE
5
1AB
100
AcDbEntity
8
1
62
256
6
ByLayer
370
-1
48
1
60
0
100
AcDbSpline
70
4
71
3
72
8
73
4
40
0
40
0
40
0
40
0
40
1
40
1
40
1
40
1
41
1
10
211.681877577575
20
8.4039332696691
30
0
41
1
10
210.866512564557
20
8.1406027938234
30
0
41
1
10
210.035600668189
20
7.92039046581613
30
0
41
1
10
209.200353765664
20
7.74493406069149
30
0
0
SPLINE
5
1AC
100
AcDbEntity
8
1
62
256
6
ByLayer
370
-1
48
1
60
0
100
AcDbSpline
70
4
71
3
72
16
73
12
40
0
40
0
40
0
40
0
40
0.153125665074181
40
0.153125665074181
40
0.435417110049471
40
0.435417110049471
40
0.71770855502476
40
0.71770855502476
40
0.85885427751238
40
0.85885427751238
40
1
40
1
40
1
40
1
41
1
10
216.066502001846
20
11.432629362058
30
0
41
1
10
216.045370300975
20
11.4131460950284
30
0
41
1
10
216.024420344763
20
11.3946995654594
30
0
41
1
10
215.965679767513
20
11.3450883831042
30
0
41
1
10
215.928541063823
20
11.3162974851037
30
0
41
1
10
215.859009922733
20
11.266273489487
30
0
41
1
10
215.827163519608
20
11.2454703427702
30
0
41
1
10
215.789996257485
20
11.2234682989566
30
0
41
1
10
215.77940174761
20
11.2176876219342
30
0
41
1
10
215.763361165195
20
11.2099643196107
30
0
41
1
10
215.757790353699
20
11.207943402649
30
0
41
1
10
215.754994089908
20
11.207943402649
30
0
0
SPLINE
5
1AD
100
AcDbEntity
8
1
62
256
6
ByLayer
370
-1
48
1
60
0
100
AcDbSpline
70
4
71
3
72
12
73
8
40
0
40
0
40
0
40
0
40
0.249999999999988
40
0.249999999999988
40
0.499999999999975
40
0.499999999999975
40
1
40
1
40
1
40
1
41
1
10
212.595834932938
20
21.5559895211303
30
0
41
1
10
212.59998336063
20
21.5559895211303
30
0
41
1
10
212.608022557072
20
21.5615147066449
30
0
41
1
10
212.631003493954
20
21.5817858971692
30
0
41
1
10
212.646167752871
20
21.5967551834697
30
0
41
1
10
212.699060362361
20
21.6502480633878
30
0
41
1
10
212.74478336603
20
21.6976572342533
30
0
41
1
10
212.797884953151
20
21.7485155583306
30
0
0
SPLINE
5
1AE
100
AcDbEntity
8
1
62
256
6
ByLayer
370
-1
48
1
60
0
100
AcDbSpline
70
4
71
3
72
14
73
10
40
0
40
0
40
0
40
0
40
0.25
40
0.25
40
0.5
40
0.5
40
0.75
40
0.75
40
1
40
1
40
1
40
1
41
1
10
18.2271468462312
20
-9.67148278248575
30
0
41
1
10
19.438703126122
20
-10.4201409563582
30
0
41
1
10
20.6590152700762
20
-11.1412845969346
30
0
41
1
10
23.1068872643953
20
-12.5538886342468
30
0
41
1
10
24.334500261459
20
-13.2449979267786
30
0
41
1
10
26.78797828113
20
-14.6083807625383
30
0
41
1
10
28.0146641595918
20
-15.2810226845432
30
0
41
1
10
30.462793899351
20
-16.6157621036019
30
0
41
1
10
31.684260860151
20
-17.2778740346457
30
0
41
1
10
32.9020328658141
20
-17.9376793813036
30
0
0
SPLINE
5
1AF
100
AcDbEntity
8
1
62
256
6
ByLayer
370
-1
48
1
60
0
100
AcDbSpline
70
4
71
3
72
20
73
16
40
0
40
0
40
0
40
0
40
0.374168699469423
40
0.374168699469423
40
0.530626524602069
40
0.530626524602069
40
0.608855437168391
40
0.608855437168391
40
0.687084349734713
40
0.687084349734713
40
0.765313262301035
40
0.765313262301035
40
0.843542174867356
40
0.843542174867356
40
1
40
1
40
1
40
1
41
1
10
163.197072868361
20
25.6597207389909
30
0
41
1
10
166.840423157138
20
26.3205876514977
30
0
41
1
10
170.481315712069
20
26.9040903960823
30
0
41
1
10
175.64682093731
20
27.6144481999013
30
0
41
1
10
177.170299658479
20
27.8093812987037
30
0
41
1
10
179.455797859135
20
28.0802316693155
30
0
41
1
10
180.21765297734
20
28.16693289362
30
0
41
1
10
181.742090863975
20
28.332580017897
30
0
41
1
10
182.504644693026
20
28.4115667169322
30
0
41
1
10
184.029756141724
20
28.5623877258234
30
0
41
1
10
184.792236890896
20
28.6342602774802
30
0
41
1
10
186.318106391353
20
28.7701267449911
30
0
41
1
10
187.081522872482
20
28.8341195783818
30
0
41
1
10
189.372577816672
20
29.0147602487849
30
0
41
1
10
190.900674390501
20
29.1202462375252
30
0
41
1
10
192.430072411044
20
29.2103132032577
30
0
0
SPLINE
5
1B0
100
AcDbEntity
8
1
62
256
6
ByLayer
370
-1
48
1
60
0
100
AcDbSpline
70
4
71
4
72
19
73
14
40
0
40
0
40
0
40
0
40
0
40
0.377467364099587
40
0.377467364099587
40
0.377467364099587
40
0.566201046149381
40
0.566201046149381
40
0.566201046149381
40
0.754934728199175
40
0.754934728199175
40
0.754934728199175
40
1
40
1
40
1
40
1
40
1
41
1
10
45.8370900215467
20
7.08134095124112
30
0
41
1
10
45.8370900215467
20
5.83402335872398
30
0
41
0.974581796258695
10
45.5758505218633
20
3.31663879429779
30
0
41
0.974581796258695
10
44.9003409666097
20
-0.550696493861018
30
0
41
0.987290898129348
10
43.6764242527106
20
-6.4721497172002
30
0
41
0.993645449064674
10
43.24184404483
20
-8.42778854017662
30
0
41
1
10
42.805064943633
20
-10.2625655420604
30
0
41
1
10
41.9949350563722
20
-13.482748063724
30
0
41
0.993645449064674
10
41.5581559551752
20
-15.1202745766705
30
0
41
0.987290898129348
10
41.1235757472946
20
-16.61945852146
30
0
41
0.977553729444542
10
40.188714071007
20
-19.5284445846396
30
0
41
0.975624244452639
10
39.7168220232471
20
-20.744547417319
30
0
41
0.981903327759348
10
39.3766054201964
20
-21.2753703942948
30
0
41
0.98898555415133
10
39.1728967035753
20
-21.2294828402511
30
0
0
SPLINE
5
1B1
100
AcDbEntity
8
1
62
256
6
ByLayer
370
-1
48
1
60
0
100
AcDbSpline
70
4
71
3
72
28
73
24
40
0
40
0
40
0
40
0
40
0.157143126216379
40
0.157143126216379
40
0.314286252432758
40
0.314286252432758
40
0.471429378649138
40
0.471429378649138
40
0.510715160203233
40
0.510715160203233
40
0.550000941757328
40
0.550000941757328
40
0.628572504865517
40
0.628572504865517
40
0.785715631081897
40
0.785715631081897
40
0.864287194190087
40
0.864287194190087
40
0.903572975744182
40
0.903572975744182
40
0.942858757298277
40
0.942858757298277
40
1
40
1
40
1
40
1
41
1
10
41.9999999999999
20
-23.1399226206496
30
0
41
1
10
47.8190526431602
20
-24.4647339723649
30
0
41
1
10
53.6132100916456
20
-25.6048924207295
30
0
41
1
10
65.1842899154242
20
-27.4742559633746
30
0
41
1
10
70.9613547341783
20
-28.2036607595645
30
0
41
1
10
82.527121029856
20
-29.2264620934032
30
0
41
1
10
88.315840511398
20
-29.5195567821502
30
0
41
1
10
95.5787201943595
20
-29.6020875127825
30
0
41
1
10
97.0330362109297
20
-29.6044319050207
30
0
41
1
10
99.9431538844645
20
-29.5806746935864
30
0
41
1
10
101.397053661032
20
-29.5545971958492
30
0
41
1
10
105.755972094161
20
-29.4340883803581
30
0
41
1
10
108.658224791113
20
-29.2973825649446
30
0
41
1
10
117.359005051886
20
-28.7209756848941
30
0
41
1
10
123.151374922271
20
-28.1142780369667
30
0
41
1
10
131.85227699545
20
-26.8898191640779
30
0
41
1
10
134.754646938087
20
-26.4294026666881
30
0
41
1
10
139.11427064604
20
-25.6637192463344
30
0
41
1
10
140.568488136351
20
-25.395986271362
30
0
41
1
10
143.479407685183
20
-24.836095559858
30
0
41
1
10
144.933717545374
20
-24.5443989164997
30
0
41
1
10
148.500832818279
20
-23.8006221481098
30
0
41
1
10
150.612521589867
20
-23.3357735159894
30
0
41
1
10
152.722823372219
20
-22.8482709425386
30
0
0
SPLINE
5
1B2
100
AcDbEntity
8
1
62
256
6
ByLayer
370
-1
48
1
60
0
100
AcDbSpline
70
4
71
3
72
14
73
10
40
0
40
0
40
0
40
0
40
0.25
40
0.25
40
0.5
40
0.5
40
0.75
40
0.75
40
1
40
1
40
1
40
1
41
1
10
172.796680689074
20
23.4769981217293
30
0
41
1
10
173.497142861366
20
23.0906416348199
30
0
41
1
10
174.202361012441
20
22.7065366623417
30
0
41
1
10
175.62141484641
20
21.9424063186905
30
0
41
1
10
176.335313513773
20
21.5624107648164
30
0
41
1
10
177.771942135574
20
20.8066004516424
30
0
41
1
10
178.494607373513
20
20.4307550550891
30
0
41
1
10
179.947519666687
20
19.6826535486111
30
0
41
1
10
180.677770832753
20
19.3103993847837
30
0
41
1
10
181.411960354183
20
18.9400096666026
30
0
0
SPLINE
5
1B3
100
AcDbEntity
8
1
62
256
6
ByLayer
370
-1
48
1
60
0
100
AcDbSpline
70
4
71
3
72
8
73
4
40
0
40
0
40
0
40
0
40
1
40
1
40
1
40
1
41
1
10
172.796680689078
20
23.4769981217232
30
0
41
1
10
172.115107261222
20
23.6945265902113
30
0
41
1
10
171.426591826887
20
23.9214368569616
30
0
41
1
10
170.731679775782
20
24.1569918531979
30
0
0
SPLINE
5
1B4
100
AcDbEntity
8
1
62
256
6
ByLayer
370
-1
48
1
60
0
100
AcDbSpline
70
4
71
2
72
6
73
3
40
0
40
0
40
0
40
1
40
1
40
1
41
1
10
36.0570800237788
20
-19.6481872281763
30
0
41
1
10
36.0570800237788
20
-20.9359010540544
30
0
41
1
10
36.0570800237788
20
-22.2236148799326
30
0
0
SPLINE
5
1B5
100
AcDbEntity
8
1
62
256
6
ByLayer
370
-1
48
1
60
0
100
AcDbSpline
70
4
71
3
72
8
73
4
40
0
40
0
40
0
40
0
40
1
40
1
40
1
40
1
41
1
10
24.7370900215425
20
16.3230676286189
30
0
41
1
10
31.8078709354818
20
13.2308660809916
30
0
41
1
10
38.8301440559539
20
10.1367321564318
30
0
41
1
10
45.8370900215437
20
7.08134095124169
30
0
0
SPLINE
5
1B6
100
AcDbEntity
8
1
62
256
6
ByLayer
370
-1
48
1
60
0
100
AcDbSpline
70
4
71
3
72
8
73
4
40
0
40
0
40
0
40
0
40
1
40
1
40
1
40
1
41
1
10
185.18755090434
20
20.5413502610512
30
0
41
1
10
185.15188081876
20
20.5907279813337
30
0
41
1
10
185.117964293073
20
20.6414621938165
30
0
41
1
10
185.085403262138
20
20.6932812903777
30
0
0
SPLINE
5
1B7
100
AcDbEntity
8
1
62
256
6
ByLayer
370
-1
48
1
60
0
100
AcDbSpline
70
4
71
3
72
28
73
24
40
0
40
0
40
0
40
0
40
0.0625000000000156
40
0.0625000000000156
40
0.0937500000000111
40
0.0937500000000111
40
0.125000000000007
40
0.125000000000007
40
0.156250000000002
40
0.156250000000002
40
0.187499999999998
40
0.187499999999998
40
0.249999999999989
40
0.249999999999989
40
0.374999999999988
40
0.374999999999988
40
0.437499999999993
40
0.437499999999993
40
0.499999999999998
40
0.499999999999998
40
0.749999999999999
40
0.749999999999999
40
1
40
1
40
1
40
1
41
1
10
214.417685689549
20
10.8286941707504
30
0
41
1
10
214.348261331512
20
10.8212878703714
30
0
41
1
10
214.278596763093
20
10.8171065110202
30
0
41
1
10
214.173705632769
20
10.8161291650674
30
0
41
1
10
214.139087569424
20
10.8167080116203
30
0
41
1
10
214.072377718035
20
10.8194808127347
30
0
41
1
10
214.039976977117
20
10.8216704313101
30
0
41
1
10
213.976879863601
20
10.827481915304
30
0
41
1
10
213.946168911357
20
10.8311192414285
30
0
41
1
10
213.887899839575
20
10.8394089314083
30
0
41
1
10
213.860086867219
20
10.8440814859961
30
0
41
1
10
213.779907290152
20
10.8593959528157
30
0
41
1
10
213.730441916944
20
10.8714216849492
30
0
41
1
10
213.594283455236
20
10.9103508458962
30
0
41
1
10
213.519023534201
20
10.9399035391465
30
0
41
1
10
213.418442696916
20
10.9869911930511
30
0
41
1
10
213.387032505384
20
11.0032205199761
30
0
41
1
10
213.328357577005
20
11.0360652237619
30
0
41
1
10
213.301000974824
20
11.0527207398611
30
0
41
1
10
213.172082980766
20
11.1368928803794
30
0
41
1
10
213.092977921152
20
11.2069417371084
30
0
41
1
10
212.959912905078
20
11.3494054351509
30
0
41
1
10
212.906562252676
20
11.4219682867047
30
0
41
1
10
212.862216148987
20
11.4950897155181
30
0
0
SPLINE
5
1B8
100
AcDbEntity
8
1
62
256
6
ByLayer
370
-1
48
1
60
0
100
AcDbSpline
70
4
71
3
72
22
73
18
40
0
40
0
40
0
40
0
40
0.338352237431861
40
0.338352237431861
40
0.422940296789825
40
0.422940296789825
40
0.507528356147789
40
0.507528356147789
40
0.676704474863704
40
0.676704474863704
40
0.76129253422166
40
0.76129253422166
40
0.845880593579616
40
0.845880593579616
40
0.930468652937572
40
0.930468652937572
40
1
40
1
40
1
40
1
41
1
10
221.626644867563
20
20.6074647334829
30
0
41
1
10
221.655407564326
20
20.3675837300135
30
0
41
1
10
221.723303669595
20
20.130114527236
30
0
41
1
10
221.864394681885
20
19.8382793406167
30
0
41
1
10
221.895471104651
20
19.7802901205955
30
0
41
1
10
221.962821369041
20
19.6665838460066
30
0
41
1
10
221.999184986753
20
19.6106707150865
30
0
41
1
10
222.116739784573
20
19.4459901988818
30
0
41
1
10
222.20628203905
20
19.3402317061055
30
0
41
1
10
222.360537452928
20
19.1892878721435
30
0
41
1
10
222.415189089583
20
19.140439377256
30
0
41
1
10
222.529506126571
20
19.0476287846741
30
0
41
1
10
222.589403798271
20
19.003427946321
30
0
41
1
10
222.715084363688
20
18.9198523182665
30
0
41
1
10
222.780863808815
20
18.8804745021562
30
0
41
1
10
222.906675152073
20
18.8136997040171
30
0
41
1
10
222.965677076816
20
18.785457312841
30
0
41
1
10
223.02597422645
20
18.7597325760113
30
0
0
SPLINE
5
1B9
100
AcDbEntity
8
1
62
256
6
ByLayer
370
-1
48
1
60
0
100
AcDbSpline
70
4
71
3
72
26
73
22
40
0
40
0
40
0
40
0
40
0.0324502222822912
40
0.0324502222822912
40
0.106877128260577
40
0.106877128260577
40
0.181304034238864
40
0.181304034238864
40
0.25573094021715
40
0.25573094021715
40
0.404584752173722
40
0.404584752173722
40
0.479011658152008
40
0.479011658152008
40
0.553438564130294
40
0.553438564130294
40
0.702292376086863
40
0.702292376086863
40
0.851146188043432
40
0.851146188043432
40
1
40
1
40
1
40
1
41
1
10
222.795752919097
20
22.6446950423088
30
0
41
1
10
222.764389173281
20
22.6323860714857
30
0
41
1
10
222.73371080234
20
22.6193951007223
30
0
41
1
10
222.635549907814
20
22.5747685334676
30
0
41
1
10
222.57112510769
20
22.540579448896
30
0
41
1
10
222.44904846655
20
22.4667127188926
30
0
41
1
10
222.391176617654
20
22.4268513071112
30
0
41
1
10
222.282588809526
20
22.3428556846598
30
0
41
1
10
222.232295856902
20
22.299102015749
30
0
41
1
10
222.091602897998
20
22.1631999424483
30
0
41
1
10
222.011268712878
20
22.066457469579
30
0
41
1
10
221.907327966238
20
21.9132359150647
30
0
41
1
10
221.875495989824
20
21.8607659533986
30
0
41
1
10
221.817977291
20
21.7548713402076
30
0
41
1
10
221.792139453783
20
21.7012354282595
30
0
41
1
10
221.722687219015
20
21.5383395793775
30
0
41
1
10
221.687068187071
20
21.4271019292301
30
0
41
1
10
221.635549797842
20
21.1994390873484
30
0
41
1
10
221.619666309147
20
21.082429058564
30
0
41
1
10
221.608083923915
20
20.8463751626536
30
0
41
1
10
221.612263519182
20
20.7274052352175
30
0
41
1
10
221.626644867563
20
20.6074647334829
30
0
0
SPLINE
5
1BA
100
AcDbEntity
8
1
62
256
6
ByLayer
370
-1
48
1
60
0
100
AcDbSpline
70
4
71
3
72
10
73
6
40
0
40
0
40
0
40
0
40
0.5
40
0.5
40
1
40
1
40
1
40
1
41
1
10
32.9020328658141
20
-17.9376793813036
30
0
41
1
10
33.4148609943034
20
-18.2130579948969
30
0
41
1
10
33.9342097408998
20
-18.4942087686712
30
0
41
1
10
34.9857539495611
20
-19.0655120091678
30
0
41
1
10
35.5179555394584
20
-19.3556489917725
30
0
41
1
10
36.0570800238851
20
-19.64818722819
30
0
0
SPLINE
5
1BB
100
AcDbEntity
8
1
62
256
6
ByLayer
370
-1
48
1
60
0
100
AcDbSpline
70
4
71
3
72
26
73
22
40
0
40
0
40
0
40
0
40
0.125
40
0.125
40
0.1875
40
0.1875
40
0.25
40
0.25
40
0.375
40
0.375
40
0.499999999999999
40
0.499999999999999
40
0.562499999999999
40
0.562499999999999
40
0.625
40
0.625
40
0.75
40
0.75
40
0.875
40
0.875
40
1
40
1
40
1
40
1
41
1
10
8.63465910864952
20
-2.85330434063036
30
0
41
1
10
8.82338710708274
20
-3.29373108349341
30
0
41
1
10
9.03191786081703
20
-3.71604348478439
30
0
41
1
10
9.37677523492258
20
-4.32392801909779
30
0
41
1
10
9.49707627251865
20
-4.52227692737739
30
0
41
1
10
9.7488481776214
20
-4.91051240318171
30
0
41
1
10
9.88070696894201
20
-5.10091082118203
30
0
41
1
10
10.2908441661922
20
-5.65540882359582
30
0
41
1
10
10.5825877772745
20
-6.00175055798763
30
0
41
1
10
11.2033131730309
20
-6.65055404769524
30
0
41
1
10
11.5322896930555
20
-6.95300491408528
30
0
41
1
10
12.0546880319211
20
-7.37430786158177
30
0
41
1
10
12.2336493729955
20
-7.50933188735686
30
0
41
1
10
12.601483819712
20
-7.76847417982432
30
0
41
1
10
12.7909585080699
20
-7.89294637814805
30
0
41
1
10
13.3696857116808
20
-8.2466917618475
30
0
41
1
10
13.7685529455463
20
-8.4562228469695
30
0
41
1
10
14.5917409513432
20
-8.82473819952833
30
0
41
1
10
15.0160632529346
20
-8.98371621768248
30
0
41
1
10
15.8900026317573
20
-9.25102306748184
30
0
41
1
10
16.3396198805758
20
-9.35935895438186
30
0
41
1
10
16.802032700868
20
-9.44125581486938
30
0
0
SPLINE
5
1BC
100
AcDbEntity
8
1
62
256
6
ByLayer
370
-1
48
1
60
0
100
AcDbSpline
70
4
71
3
72
13
73
9
40
0
40
0
40
0
40
0
40
0.25
40
0.25
40
0.375
40
0.375
40
0.5
40
1
40
1
40
1
40
1
41
1
10
42
20
-23.1399226206497
30
0
41
1
10
41.506757525083
20
-23.0276271543617
30
0
41
1
10
41.012164972432
20
-22.9348368954567
30
0
41
1
10
40.2687454107655
20
-22.8252210435302
30
0
41
1
10
40.0206045456488
20
-22.7952261146963
30
0
41
1
10
39.5245985978991
20
-22.731232227338
30
0
41
1
10
38.2849281519459
20
-22.5671840380628
30
0
41
1
10
37.0468457225746
20
-22.3830796005132
30
0
41
1
10
36.0570800237787
20
-22.2236148799268
30
0
0
SPLINE
5
1BD
100
AcDbEntity
8
SK1
62
256
6
ByLayer
370
-1
48
1
60
0
100
AcDbSpline
70
4
71
3
72
8
73
4
40
0
40
0
40
0
40
0
40
1
40
1
40
1
40
1
41
1
10
-69
20
-9.10261500888609
30
0
41
1
10
-69.3687115489839
20
-8.2926547802831
30
0
41
1
10
-69.7055026821388
20
-7.46777015601629
30
0
41
1
10
-70
20
-6.62311105146205
30
0
0
SPLINE
5
1BE
100
AcDbEntity
8
SK1
62
256
6
ByLayer
370
-1
48
1
60
0
100
AcDbSpline
70
4
71
3
72
72
73
68
40
0
40
0
40
0
40
0
40
0.0156250000000003
40
0.0156250000000003
40
0.0312500000000005
40
0.0312500000000005
40
0.0468750000000008
40
0.0468750000000008
40
0.062500000000001
40
0.062500000000001
40
0.0937500000000014
40
0.0937500000000014
40
0.109375000000002
40
0.109375000000002
40
0.125000000000002
40
0.125000000000002
40
0.156250000000002
40
0.156250000000002
40
0.187500000000002
40
0.187500000000002
40
0.218750000000001
40
0.218750000000001
40
0.250000000000001
40
0.250000000000001
40
0.312500000000001
40
0.312500000000001
40
0.375000000000002
40
0.375000000000002
40
0.406250000000002
40
0.406250000000002
40
0.437500000000002
40
0.437500000000002
40
0.500000000000002
40
0.500000000000002
40
0.562500000000002
40
0.562500000000002
40
0.625000000000002
40
0.625000000000002
40
0.687500000000002
40
0.687500000000002
40
0.718750000000002
40
0.718750000000002
40
0.750000000000002
40
0.750000000000002
40
0.812500000000002
40
0.812500000000002
40
0.843750000000001
40
0.843750000000001
40
0.859375000000001
40
0.859375000000001
40
0.875000000000001
40
0.875000000000001
40
0.906250000000001
40
0.906250000000001
40
0.921875000000001
40
0.921875000000001
40
0.937500000000001
40
0.937500000000001
40
0.953125000000001
40
0.953125000000001
40
0.96875
40
0.96875
40
0.9765625
40
0.9765625
40
0.984375
40
0.984375
40
1
40
1
40
1
40
1
41
1
10
-6.50000000000003
20
-9.10261500888618
30
0
41
1
10
-6.38914660019728
20
-9.1026150088862
30
0
41
1
10
-6.27612961385469
20
-9.09015098385046
30
0
41
1
10
-6.05985917895462
20
-9.04281130004992
30
0
41
1
10
-5.95475985097423
20
-9.00792576349431
30
0
41
1
10
-5.75343258145494
20
-8.91941414226187
30
0
41
1
10
-5.65919810333845
20
-8.86684398682266
30
0
41
1
10
-5.48088894318995
20
-8.74834825662376
30
0
41
1
10
-5.39640443529882
20
-8.68198569080923
30
0
41
1
10
-5.15892238475901
20
-8.4684605676342
30
0
41
1
10
-5.02365441240057
20
-8.30974008062717
30
0
41
1
10
-4.84296399719622
20
-8.05482884459988
30
0
41
1
10
-4.78642322072848
20
-7.96675301550394
30
0
41
1
10
-4.68042079967145
20
-7.78654390286022
30
0
41
1
10
-4.63122526195846
20
-7.69491452027412
30
0
41
1
10
-4.49299887645104
20
-7.41608134345648
30
0
41
1
10
-4.4132303846899
20
-7.22496300624556
30
0
41
1
10
-4.27152687943764
20
-6.8343560263894
30
0
41
1
10
-4.20965906429049
20
-6.6348461887967
30
0
41
1
10
-4.09961007502052
20
-6.2286775881141
30
0
41
1
10
-4.05150917072524
20
-6.02203194443632
30
0
41
1
10
-3.96692144189856
20
-5.6074574550413
30
0
41
1
10
-3.93025488815388
20
-5.39884469275898
30
0
41
1
10
-3.83321097175367
20
-4.76942146087168
30
0
41
1
10
-3.78559277520367
20
-4.34504706257979
30
0
41
1
10
-3.71123618991469
20
-3.48808137992401
30
0
41
1
10
-3.68460707386045
20
-3.05547999795235
30
0
41
1
10
-3.65470782442822
20
-2.40091890566339
30
0
41
1
10
-3.64643900603767
20
-2.18145148399697
30
0
41
1
10
-3.63274891948819
20
-1.74230735687166
30
0
41
1
10
-3.62733252136272
20
-1.52296705685933
30
0
41
1
10
-3.61463310465442
20
-0.865617065631682
30
0
41
1
10
-3.61080933488053
20
-0.428275684574771
30
0
41
1
10
-3.61090950897167
20
0.444684991040077
30
0
41
1
10
-3.61483745040269
20
0.88030412472645
30
0
41
1
10
-3.63179619285315
20
1.74979970758309
30
0
41
1
10
-3.64481102904035
20
2.18367646184913
30
0
41
1
10
-3.68431141261161
20
3.04958358359085
30
0
41
1
10
-3.71074384326305
20
3.48161507013518
30
0
41
1
10
-3.76673696017029
20
4.12812283873399
30
0
41
1
10
-3.78821526595233
20
4.34375014492497
30
0
41
1
10
-3.83787895821774
20
4.77101649951717
30
0
41
1
10
-3.86607610819138
20
4.9829568382882
30
0
41
1
10
-3.96342969061479
20
5.61325776204001
30
0
41
1
10
-4.04484226281082
20
6.02618785295124
30
0
41
1
10
-4.20877761048992
20
6.63176810724454
30
0
41
1
10
-4.27047938114892
20
6.83131020667685
30
0
41
1
10
-4.37747378301123
20
7.12647785984242
30
0
41
1
10
-4.41562361112285
20
7.22427655673613
30
0
41
1
10
-4.4967927903067
20
7.41629459142595
30
0
41
1
10
-4.53988777333238
20
7.51074836914336
30
0
41
1
10
-4.67791145216944
20
7.78892537172752
30
0
41
1
10
-4.78135481362551
20
7.96756739375849
30
0
41
1
10
-4.96130737226686
20
8.22195198147358
30
0
41
1
10
-5.02546297402536
20
8.30446540137604
30
0
41
1
10
-5.16438164479459
20
8.46391044858186
30
0
41
1
10
-5.23841496286947
20
8.53994273964545
30
0
41
1
10
-5.39629023089527
20
8.68187427767452
30
0
41
1
10
-5.48049549477207
20
8.74813957968226
30
0
41
1
10
-5.66096910628902
20
8.86796771603022
30
0
41
1
10
-5.75541196182654
20
8.92033547523616
30
0
41
1
10
-5.90448373735468
20
8.98579651940287
30
0
41
1
10
-5.95541416893875
20
9.00542573092372
30
0
41
1
10
-6.06002939197238
20
9.03984379515771
30
0
41
1
10
-6.11410520411337
20
9.05470732343474
30
0
41
1
10
-6.27758354254897
20
9.09042477028081
30
0
41
1
10
-6.38802552881094
20
9.10261500888618
30
0
41
1
10
-6.49999999999999
20
9.1026150088862
30
0
0
SPLINE
5
1BF
100
AcDbEntity
8
SK1
62
256
6
ByLayer
370
-1
48
1
60
0
100
AcDbSpline
70
4
71
3
72
8
73
4
40
0
40
0
40
0
40
0
40
1
40
1
40
1
40
1
41
1
10
-67.6338144512152
20
8.29060283092377
30
0
41
1
10
-67.2932836983815
20
8.56864972917003
30
0
41
1
10
-66.9484012097206
20
8.83881772536409
30
0
41
1
10
-66.6
20
9.10261500888626
30
0
0
SPLINE
5
1C0
100
AcDbEntity
8
SK1
62
256
6
ByLayer
370
-1
48
1
60
0
100
AcDbSpline
70
4
71
3
72
20
73
16
40
0
40
0
40
0
40
0
40
0.125000000000019
40
0.125000000000019
40
0.187500000000028
40
0.187500000000028
40
0.250000000000038
40
0.250000000000038
40
0.375000000000024
40
0.375000000000024
40
0.50000000000001
40
0.50000000000001
40
0.750000000000005
40
0.750000000000005
40
1
40
1
40
1
40
1
41
1
10
-67.6338144512151
20
-8.29060283092329
30
0
41
1
10
-67.6746000935235
20
-8.25730093016261
30
0
41
1
10
-67.7199836490944
20
-8.22876323292448
30
0
41
1
10
-67.7948550962205
20
-8.20056981372309
30
0
41
1
10
-67.8205420829085
20
-8.19379354056497
30
0
41
1
10
-67.8728129362724
20
-8.18630243082055
30
0
41
1
10
-67.8998340844743
20
-8.1856286499503
30
0
41
1
10
-67.9787783127119
20
-8.19310764466417
30
0
41
1
10
-68.0301252704948
20
-8.21095104743222
30
0
41
1
10
-68.1222359195847
20
-8.26210721442101
30
0
41
1
10
-68.1643255549633
20
-8.29567338223035
30
0
41
1
10
-68.2768770736766
20
-8.40615789436035
30
0
41
1
10
-68.3371994967397
20
-8.49473748926303
30
0
41
1
10
-68.4387470357031
20
-8.67793923211124
30
0
41
1
10
-68.4804562077026
20
-8.77402168984949
30
0
41
1
10
-68.516222729729
20
-8.87304222606727
30
0
0
SPLINE
5
1C1
100
AcDbEntity
8
SK1
62
256
6
ByLayer
370
-1
48
1
60
0
100
AcDbSpline
70
4
71
3
72
20
73
16
40
0
40
0
40
0
40
0
40
0.249999999999997
40
0.249999999999997
40
0.374999999999998
40
0.374999999999998
40
0.499999999999998
40
0.499999999999998
40
0.624999999999999
40
0.624999999999999
40
0.749999999999999
40
0.749999999999999
40
0.875
40
0.875
40
1
40
1
40
1
40
1
41
1
10
-68.5162227297303
20
8.87304222606699
30
0
41
1
10
-68.4805102229812
20
8.77417123253394
30
0
41
1
10
-68.4382573152345
20
8.67693148618665
30
0
41
1
10
-68.3621710721186
20
8.53985159931514
30
0
41
1
10
-68.3346894685715
20
8.49562896904695
30
0
41
1
10
-68.2739659602408
20
8.41118058772861
30
0
41
1
10
-68.2407881315988
20
8.37091037639976
30
0
41
1
10
-68.1654488761744
20
8.29660337023134
30
0
41
1
10
-68.123541484252
20
8.2629600402953
30
0
41
1
10
-68.0305243323762
20
8.21104725205689
30
0
41
1
10
-67.9795833203366
20
8.19319188549028
30
0
41
1
10
-67.872813969243
20
8.18306085753042
30
0
41
1
10
-67.8196144054522
20
8.19122791676685
30
0
41
1
10
-67.7199392264586
20
8.22879859450236
30
0
41
1
10
-67.6749143258214
20
8.2570443562262
30
0
41
1
10
-67.6338144512151
20
8.29060283092346
30
0
0
SPLINE
5
1C2
100
AcDbEntity
8
SK1
62
256
6
ByLayer
370
-1
48
1
60
0
100
AcDbSpline
70
4
71
3
72
8
73
4
40
0
40
0
40
0
40
0
40
1
40
1
40
1
40
1
41
1
10
-70
20
6.62311105146222
30
0
41
1
10
-69.7055026821388
20
7.46777015601646
30
0
41
1
10
-69.3687115489839
20
8.29265478028327
30
0
41
1
10
-69
20
9.10261500888626
30
0
0
SPLINE
5
1C3
100
AcDbEntity
8
SK1
62
256
6
ByLayer
370
-1
48
1
60
0
100
AcDbSpline
70
4
71
3
72
8
73
4
40
0
40
0
40
0
40
0
40
1
40
1
40
1
40
1
41
1
10
-68.516222729729
20
-8.87304222606727
30
0
41
1
10
-68.5439066952102
20
-8.94968599658964
30
0
41
1
10
-68.571834450002
20
-9.02620926996545
30
0
41
1
10
-68.6
20
-9.10261500888612
30
0
0
SPLINE
5
1C4
100
AcDbEntity
8
SK1
62
256
6
ByLayer
370
-1
48
1
60
0
100
AcDbSpline
70
4
71
3
72
8
73
4
40
0
40
0
40
0
40
0
40
1
40
1
40
1
40
1
41
1
10
-68.6
20
9.10261500888626
30
0
41
1
10
-68.571834450002
20
9.02620926996562
30
0
41
1
10
-68.5439066952102
20
8.94968599658984
30
0
41
1
10
-68.516222729729
20
8.87304222606744
30
0
0
SPLINE
5
1C5
100
AcDbEntity
8
SK1
62
256
6
ByLayer
370
-1
48
1
60
0
100
AcDbSpline
70
4
71
3
72
8
73
4
40
0
40
0
40
0
40
0
40
1
40
1
40
1
40
1
41
1
10
-66.6
20
-9.10261500888609
30
0
41
1
10
-66.9484012097206
20
-8.8388177253639
30
0
41
1
10
-67.2932836983815
20
-8.56864972916986
30
0
41
1
10
-67.6338144512153
20
-8.2906028309236
30
0
0
SPLINE
5
1C6
100
AcDbEntity
8
1
62
256
6
ByLayer
370
-1
48
1
60
0
100
AcDbSpline
70
4
71
3
72
14
73
10
40
0
40
0
40
0
40
0
40
0.250000000000002
40
0.250000000000002
40
0.500000000000004
40
0.500000000000004
40
0.750000000000002
40
0.750000000000002
40
1
40
1
40
1
40
1
41
1
10
231.872129498651
20
-15.0677812461716
30
0
41
1
10
231.869361540541
20
-15.1468973524513
30
0
41
1
10
231.85479424022
20
-15.225200361557
30
0
41
1
10
231.803272984669
20
-15.3745534320679
30
0
41
1
10
231.766272396589
20
-15.4454683781882
30
0
41
1
10
231.673345193716
20
-15.5731207823172
30
0
41
1
10
231.617131082972
20
-15.6302088038218
30
0
41
1
10
231.490870402512
20
-15.7251545258295
30
0
41
1
10
231.420762101302
20
-15.7631898523356
30
0
41
1
10
231.346232951696
20
-15.790265648188
30
0
0
SPLINE
5
1C7
100
AcDbEntity
8
1
62
256
6
ByLayer
370
-1
48
1
60
0
100
AcDbSpline
70
4
71
3
72
10
73
6
40
0
40
0
40
0
40
0
40
0.5
40
0.5
40
1
40
1
40
1
40
1
41
1
10
230.808568790979
20
-2.2799287587809
30
0
41
1
10
230.817858622075
20
-2.30178130269024
30
0
41
1
10
230.82593738564
20
-2.32656936193175
30
0
41
1
10
230.836212532277
20
-2.37689907847655
30
0
41
1
10
230.838325764063
20
-2.40216658213458
30
0
41
1
10
230.838037247963
20
-2.42450069262085
30
0
0
SPLINE
5
1C8
100
AcDbEntity
8
1
62
256
6
ByLayer
370
-1
48
1
60
0
100
AcDbSpline
70
4
71
3
72
20
73
16
40
0
40
0
40
0
40
0
40
0.249999999999996
40
0.249999999999996
40
0.499999999999992
40
0.499999999999992
40
0.624999999999994
40
0.624999999999994
40
0.749999999999996
40
0.749999999999996
40
0.874999999999998
40
0.874999999999998
40
0.937499999999999
40
0.937499999999999
40
1
40
1
40
1
40
1
41
1
10
229.87632607865
20
0.53299605529881
30
0
41
1
10
229.884744561109
20
0.479588025690788
30
0
41
1
10
229.89424125462
20
0.423638459716131
30
0
41
1
10
229.916871411851
20
0.303166809692669
30
0
41
1
10
229.929867985586
20
0.239201818123803
30
0
41
1
10
229.954135551445
20
0.132866643341373
30
0
41
1
10
229.963035822721
20
0.0956494719509635
30
0
41
1
10
229.98332725855
20
0.0157728420594196
30
0
41
1
10
229.994628368954
20
-0.0265353098759249
30
0
41
1
10
230.020586737521
20
-0.117571728264608
30
0
41
1
10
230.035394731207
20
-0.16674338799001
30
0
41
1
10
230.060349681523
20
-0.244152803009797
30
0
41
1
10
230.069160093458
20
-0.270686352027695
30
0
41
1
10
230.087966822452
20
-0.325513674163318
30
0
41
1
10
230.097980370237
20
-0.353826692057282
30
0
41
1
10
230.108161077569
20
-0.381745783519648
30
0
0
SPLINE
5
1C9
100
AcDbEntity
8
1
62
256
6
ByLayer
370
-1
48
1
60
0
100
AcDbSpline
70
4
71
3
72
10
73
6
40
0
40
0
40
0
40
0
40
0.5
40
0.5
40
1
40
1
40
1
40
1
41
1
10
230.702257104729
20
-2.01096669909552
30
0
41
1
10
230.719182438663
20
-2.05738193634304
30
0
41
1
10
230.737137521074
20
-2.10448141462496
30
0
41
1
10
230.772784754372
20
-2.19441756071572
30
0
41
1
10
230.790879401051
20
-2.23831786552373
30
0
41
1
10
230.808568790979
20
-2.27992875878087
30
0
0
SPLINE
5
1CA
100
AcDbEntity
8
1
62
256
6
ByLayer
370
-1
48
1
60
0
100
AcDbSpline
70
4
71
3
72
28
73
24
40
0
40
0
40
0
40
0
40
0.12500000000001
40
0.12500000000001
40
0.25000000000002
40
0.25000000000002
40
0.37500000000003
40
0.37500000000003
40
0.437500000000034
40
0.437500000000034
40
0.500000000000037
40
0.500000000000037
40
0.562500000000041
40
0.562500000000041
40
0.625000000000045
40
0.625000000000045
40
0.687500000000049
40
0.687500000000049
40
0.750000000000052
40
0.750000000000052
40
0.875000000000026
40
0.875000000000026
40
1
40
1
40
1
40
1
41
1
10
231.702992824918
20
-14.8589495562157
30
0
41
1
10
231.708358116654
20
-14.8925793514211
30
0
41
1
10
231.712338892379
20
-14.9274724540813
30
0
41
1
10
231.716144686466
20
-15.0010022055103
30
0
41
1
10
231.716051219822
20
-15.0395668952616
30
0
41
1
10
231.708501655842
20
-15.1232631569717
30
0
41
1
10
231.701265774402
20
-15.1678756426324
30
0
41
1
10
231.678850833961
20
-15.2410177110973
30
0
41
1
10
231.669143898085
20
-15.2670179381544
30
0
41
1
10
231.644185554885
20
-15.3194213488017
30
0
41
1
10
231.628609708979
20
-15.3462448801003
30
0
41
1
10
231.592864592395
20
-15.3958460509145
30
0
41
1
10
231.572653941013
20
-15.4186975056839
30
0
41
1
10
231.53142251957
20
-15.4577241298698
30
0
41
1
10
231.51099460536
20
-15.4736179773985
30
0
41
1
10
231.470651386981
20
-15.5008063397369
30
0
41
1
10
231.450927695133
20
-15.511925581319
30
0
41
1
10
231.412893265165
20
-15.5306253198234
30
0
41
1
10
231.394414102505
20
-15.538289928356
30
0
41
1
10
231.340096187205
20
-15.5578016224257
30
0
41
1
10
231.305662108206
20
-15.5661180354614
30
0
41
1
10
231.239668500422
20
-15.5773890987258
30
0
41
1
10
231.207951773619
20
-15.580310164472
30
0
41
1
10
231.177096277963
20
-15.581433958232
30
0
0
SPLINE
5
1CB
100
AcDbEntity
8
1
62
256
6
ByLayer
370
-1
48
1
60
0
100
AcDbSpline
70
4
71
3
72
22
73
18
40
0
40
0
40
0
40
0
40
0.0355903033463224
40
0.0355903033463224
40
0.142746936307842
40
0.142746936307842
40
0.249903569269362
40
0.249903569269362
40
0.357060202230881
40
0.357060202230881
40
0.464216835192401
40
0.464216835192401
40
0.571373468153921
40
0.571373468153921
40
0.785686734076961
40
0.785686734076961
40
1
40
1
40
1
40
1
41
1
10
229.533501012481
20
0.995202423766528
30
0
41
1
10
229.541834523163
20
0.991368163056478
30
0
41
1
10
229.550267095058
20
0.987272991609331
30
0
41
1
10
229.584301803493
20
0.969747134977268
30
0
41
1
10
229.610755359219
20
0.953781024377577
30
0
41
1
10
229.660410962413
20
0.918064394311756
30
0
41
1
10
229.683685644706
20
0.898271255418052
30
0
41
1
10
229.72414991029
20
0.858478906272836
30
0
41
1
10
229.741016386296
20
0.839030263341044
30
0
41
1
10
229.770444295865
20
0.800946951443848
30
0
41
1
10
229.782823318445
20
0.782496739882589
30
0
41
1
10
229.804161341255
20
0.747131736385143
30
0
41
1
10
229.813216021054
20
0.730060223551533
30
0
41
1
10
229.837044887595
20
0.680116348944523
30
0
41
1
10
229.848408674045
20
0.648772674106709
30
0
41
1
10
229.865882581765
20
0.58907240979849
30
0
41
1
10
229.871978415364
20
0.560578238979531
30
0
41
1
10
229.876326078649
20
0.53299605529952
30
0
0
SPLINE
5
1CC
100
AcDbEntity
8
1
62
256
6
ByLayer
370
-1
48
1
60
0
100
AcDbSpline
70
4
71
3
72
8
73
4
40
0
40
0
40
0
40
0
40
1
40
1
40
1
40
1
41
1
10
230.069272515421
20
-11.0591045914881
30
0
41
1
10
230.06963435142
20
-11.0488302957642
30
0
41
1
10
230.069996176436
20
-11.0385559982346
30
0
41
1
10
230.070357990417
20
-11.0282816988913
30
0
0
SPLINE
5
1CD
100
AcDbEntity
8
1
62
256
6
ByLayer
370
-1
48
1
60
0
100
AcDbSpline
70
4
71
3
72
20
73
16
40
0
40
0
40
0
40
0
40
0.0624999999999982
40
0.0624999999999982
40
0.124999999999996
40
0.124999999999996
40
0.249999999999996
40
0.249999999999996
40
0.374999999999996
40
0.374999999999996
40
0.499999999999996
40
0.499999999999996
40
0.749999999999998
40
0.749999999999998
40
1
40
1
40
1
40
1
41
1
10
231.622545918307
20
-13.8056986036449
30
0
41
1
10
231.621497504083
20
-13.8356652605843
30
0
41
1
10
231.620798850618
20
-13.8659870092057
30
0
41
1
10
231.620097264694
20
-13.9252138456095
30
0
41
1
10
231.6200820128
20
-13.9544297289329
30
0
41
1
10
231.620923085393
20
-14.0410267022435
30
0
41
1
10
231.622628142772
20
-14.095156293281
30
0
41
1
10
231.627415682723
20
-14.1975992319315
30
0
41
1
10
231.630531997664
20
-14.2462979964446
30
0
41
1
10
231.637481333398
20
-14.3375739948083
30
0
41
1
10
231.641339571598
20
-14.3806095530765
30
0
41
1
10
231.653670102857
20
-14.504588176984
30
0
41
1
10
231.662881440111
20
-14.5805169892191
30
0
41
1
10
231.68234753752
20
-14.7252952172609
30
0
41
1
10
231.692538627513
20
-14.7934223612315
30
0
41
1
10
231.702992824918
20
-14.8589495562157
30
0
0
SPLINE
5
1CE
100
AcDbEntity
8
1
62
256
6
ByLayer
370
-1
48
1
60
0
100
AcDbSpline
70
4
71
3
72
10
73
6
40
0
40
0
40
0
40
0
40
0.5
40
0.5
40
1
40
1
40
1
40
1
41
1
10
230.84364969775
20
-2.70463724365499
30
0
41
1
10
230.84101346512
20
-2.65442875246009
30
0
41
1
10
230.839331476383
20
-2.60610086112831
30
0
41
1
10
230.837561184293
20
-2.51258587353499
30
0
41
1
10
230.837487274263
20
-2.46707430770641
30
0
41
1
10
230.838037247963
20
-2.42450069262117
30
0
0
SPLINE
5
1CF
100
AcDbEntity
8
1
62
256
6
ByLayer
370
-1
48
1
60
0
100
AcDbSpline
70
4
71
3
72
20
73
16
40
0
40
0
40
0
40
0
40
0.249999999999981
40
0.249999999999981
40
0.499999999999962
40
0.499999999999962
40
0.624999999999972
40
0.624999999999972
40
0.749999999999981
40
0.749999999999981
40
0.87499999999999
40
0.87499999999999
40
0.937499999999995
40
0.937499999999995
40
1
40
1
40
1
40
1
41
1
10
231.177096277962
20
-15.5814339582329
30
0
41
1
10
231.117350057551
20
-15.5836099864656
30
0
41
1
10
231.055142995358
20
-15.5869474992216
30
0
41
1
10
230.922428533064
20
-15.5975401736013
30
0
41
1
10
230.85251664791
20
-15.6046960122802
30
0
41
1
10
230.737797376911
20
-15.6207481925857
30
0
41
1
10
230.697875223387
20
-15.6270013437916
30
0
41
1
10
230.61286415539
20
-15.6422790566751
30
0
41
1
10
230.568148672264
20
-15.6512351604293
30
0
41
1
10
230.472858300059
20
-15.6730688933424
30
0
41
1
10
230.421833012128
20
-15.6860908113774
30
0
41
1
10
230.342432596587
20
-15.7091563129405
30
0
41
1
10
230.31536138749
20
-15.7174631248638
30
0
41
1
10
230.259762410167
20
-15.735566823629
30
0
41
1
10
230.231221123583
20
-15.7453866606929
30
0
41
1
10
230.203249860076
20
-15.7555483789529
30
0
0
SPLINE
5
1D0
100
AcDbEntity
8
1
62
256
6
ByLayer
370
-1
48
1
60
0
100
AcDbSpline
70
4
71
3
72
12
73
8
40
0
40
0
40
0
40
0
40
0.148423635996205
40
0.148423635996205
40
0.574211817998103
40
0.574211817998103
40
1
40
1
40
1
40
1
41
1
10
229.648395796392
20
1.03350109635025
30
0
41
1
10
229.672271029155
20
1.01970533791561
30
0
41
1
10
229.695424477998
20
1.00468672887322
30
0
41
1
10
229.781660423491
20
0.942143458077709
30
0
41
1
10
229.838855124642
20
0.886034197981019
30
0
41
1
10
229.933978270492
20
0.760009019141734
30
0
41
1
10
229.97208467312
20
0.690031484045846
30
0
41
1
10
229.999211065162
20
0.615641346327521
30
0
0
SPLINE
5
1D1
100
AcDbEntity
8
1
62
256
6
ByLayer
370
-1
48
1
60
0
100
AcDbSpline
70
4
71
3
72
8
73
4
40
0
40
0
40
0
40
0
40
1
40
1
40
1
40
1
41
1
10
231.085218904519
20
-2.36257531473331
30
0
41
1
10
231.102257322153
20
-2.409300667384
30
0
41
1
10
231.112080141148
20
-2.45749131199685
30
0
41
1
10
231.114687361504
20
-2.50714724857301
30
0
0
SPLINE
5
1D2
100
AcDbEntity
8
1
62
256
6
ByLayer
370
-1
48
1
60
0
100
AcDbSpline
70
4
71
3
72
25
73
21
40
0
40
0
40
0
40
0
40
0.125
40
0.1875
40
0.21875
40
0.234375
40
0.25
40
0.3125
40
0.34375
40
0.375
40
0.5
40
0.625
40
0.6875
40
0.71875
40
0.7265625
40
0.734375
40
0.75
40
0.8125
40
0.875
40
1
40
1
40
1
40
1
41
1
10
214.181579646601
20
11.4745470945061
30
0
41
1
10
214.164567252648
20
11.4747859091108
30
0
41
1
10
214.139071878759
20
11.4752158900415
30
0
41
1
10
214.109320514856
20
11.4758096786091
30
0
41
1
10
214.094477330787
20
11.4761480108106
30
0
41
1
10
214.086009020105
20
11.4763557973016
30
0
41
1
10
214.073323153596
20
11.4766832710665
30
0
41
1
10
214.058577928806
20
11.4771152020669
30
0
41
1
10
214.041719588472
20
11.4776603521728
30
0
41
1
10
214.016385823001
20
11.4785211316597
30
0
41
1
10
213.978052092731
20
11.4799419396945
30
0
41
1
10
213.935706273143
20
11.4817420751031
30
0
41
1
10
213.905854002224
20
11.4831148315585
30
0
41
1
10
213.892265892957
20
11.4837830114291
30
0
41
1
10
213.885679371335
20
11.4840918543453
30
0
41
1
10
213.882660777026
20
11.4843122267191
30
0
41
1
10
213.873346803281
20
11.4850100251689
30
0
41
1
10
213.858650126229
20
11.4866331410402
30
0
41
1
10
213.832532976155
20
11.4908697891215
30
0
41
1
10
213.813329032718
20
11.4955353242763
30
0
41
1
10
213.80079908195
20
11.4992799699562
30
0
0
SPLINE
5
1D3
100
AcDbEntity
8
1
62
256
6
ByLayer
370
-1
48
1
60
0
100
AcDbSpline
70
4
71
3
72
8
73
4
40
0
40
0
40
0
40
0
40
1
40
1
40
1
40
1
41
1
10
215.209365973697
20
12.2718856886897
30
0
41
1
10
215.214377992623
20
12.1537269448645
30
0
41
1
10
215.217903287446
20
12.0340386409055
30
0
41
1
10
215.219788706746
20
11.9180204649408
30
0
0
SPLINE
5
1D4
100
AcDbEntity
8
1
62
256
6
ByLayer
370
-1
48
1
60
0
100
AcDbSpline
70
4
71
3
72
8
73
4
40
0
40
0
40
0
40
0
40
1
40
1
40
1
40
1
41
1
10
212.574012648314
20
29.0691642036868
30
0
41
1
10
212.573161336583
20
29.1225099974257
30
0
41
1
10
212.572750254249
20
29.1758643690794
30
0
41
1
10
212.572735718823
20
29.2292169779519
30
0
0
SPLINE
5
1D5
100
AcDbEntity
8
1
62
256
6
ByLayer
370
-1
48
1
60
0
100
AcDbSpline
70
4
71
3
72
15
73
11
40
0
40
0
40
0
40
0
40
0.25023945844033
40
0.500478916880661
40
0.750718375320991
40
0.875838104541156
40
0.938397969151239
40
0.96967790145628
40
0.985317867608801
40
1
40
1
40
1
40
1
41
1
10
231.54842444493
20
12.6025337895873
30
0
41
1
10
231.558150803168
20
12.6002842790439
30
0
41
1
10
231.577603519645
20
12.595785257957
30
0
41
1
10
231.606776949069
20
12.5890380319685
30
0
41
1
10
231.631115425826
20
12.5834090330426
30
0
41
1
10
231.648094213066
20
12.5794821819053
30
0
41
1
10
231.656668286041
20
12.5774991717091
30
0
41
1
10
231.660828303495
20
12.5765370435524
30
0
41
1
10
231.663391514064
20
12.5759442246311
30
0
41
1
10
231.66400185107
20
12.5758030659879
30
0
41
1
10
231.665157260303
20
12.5755358431294
30
0
0
SPLINE
5
1D6
100
AcDbEntity
8
1
62
256
6
ByLayer
370
-1
48
1
60
0
100
AcDbSpline
70
4
71
3
72
12
73
8
40
0
40
0
40
0
40
0
40
0.342482483786388
40
0.342482483786388
40
0.671240032903799
40
0.671240032903799
40
1
40
1
40
1
40
1
41
1
10
215.230639171434
20
11.4112600417241
30
0
41
1
10
215.111274373821
20
11.407075808872
30
0
41
1
10
214.991936973022
20
11.4029573249251
30
0
41
1
10
214.758041028014
20
11.3948752076154
30
0
41
1
10
214.643470917081
20
11.3908865941025
30
0
41
1
10
214.41426850461
20
11.3827579061488
30
0
41
1
10
214.299638595707
20
11.3786244622578
30
0
41
1
10
214.185056315959
20
11.3746080118001
30
0
0
SPLINE
5
1D7
100
AcDbEntity
8
1
62
256
6
ByLayer
370
-1
48
1
60
0
100
AcDbSpline
70
4
71
3
72
15
73
11
40
0
40
0
40
0
40
0
40
0.250239458440335
40
0.500478916880671
40
0.750718375321006
40
0.875838104541174
40
0.938397969151257
40
0.969677901456299
40
0.98531786760882
40
1
40
1
40
1
40
1
41
1
10
212.701743476184
20
29.3146983786024
30
0
41
1
10
212.692056588572
20
29.3169478891458
30
0
41
1
10
212.672682813348
20
29.3214469102327
30
0
41
1
10
212.643627772893
20
29.3281941362212
30
0
41
1
10
212.619388064338
20
29.3338231351471
30
0
41
1
10
212.602478178876
20
29.3377499862843
30
0
41
1
10
212.593938900427
20
29.3397329964805
30
0
41
1
10
212.589795764779
20
29.3406951246373
30
0
41
1
10
212.587242956
20
29.3412879435586
30
0
41
1
10
212.586635095807
20
29.3414291022018
30
0
41
1
10
212.585484375352
20
29.3416963250603
30
0
0
SPLINE
5
1D8
100
AcDbEntity
8
1
62
256
6
ByLayer
370
-1
48
1
60
0
100
AcDbSpline
70
4
71
3
72
8
73
4
40
0
40
0
40
0
40
0
40
1
40
1
40
1
40
1
41
1
10
230.205006432323
20
30.5464092804955
30
0
41
1
10
230.258149031375
20
30.5472636455063
30
0
41
1
10
230.311304810944
20
30.5476807524659
30
0
41
1
10
230.364449885415
20
30.5476908145635
30
0
0
SPLINE
5
1D9
100
AcDbEntity
8
1
62
256
6
ByLayer
370
-1
48
1
60
0
100
AcDbSpline
70
4
71
1
72
4
73
2
40
0
40
0
40
1
40
1
41
1
10
215.135863108374
20
13.2814412616062
30
0
41
1
10
215.174076718625
20
12.8827689999943
30
0
0
SPLINE
5
1DA
100
AcDbEntity
8
1
62
256
6
ByLayer
370
-1
48
1
60
0
100
AcDbSpline
70
4
71
3
72
15
73
11
40
0
40
0
40
0
40
0
40
0.0146440969701565
40
0.0302846668595191
40
0.0615658066382443
40
0.124128086195695
40
0.249252645310595
40
0.499501763540397
40
0.749750881770198
40
1
40
1
40
1
40
1
41
1
10
214.18505858171
20
11.374542881345
30
0
41
1
10
214.185019216034
20
11.3756744728463
30
0
41
1
10
214.185004102865
20
11.3761089105416
30
0
41
1
10
214.18492789069
20
11.3782996782366
30
0
41
1
10
214.184803923284
20
11.3818632005563
30
0
41
1
10
214.1845485587
20
11.389203818717
30
0
41
1
10
214.184042782714
20
11.4037426726908
30
0
41
1
10
214.183317816174
20
11.4245822992334
30
0
41
1
10
214.18244881394
20
11.4495623238306
30
0
41
1
10
214.181869369047
20
11.4662188376142
30
0
41
1
10
214.181579646601
20
11.4745470945061
30
0
0
SPLINE
5
1DB
100
AcDbEntity
8
1
62
256
6
ByLayer
370
-1
48
1
60
0
100
AcDbSpline
70
4
71
3
72
8
73
4
40
0
40
0
40
0
40
0
40
1
40
1
40
1
40
1
41
1
10
229.239448168809
20
28.4634567320293
30
0
41
1
10
229.23063614965
20
28.4631656751658
30
0
41
1
10
229.220243952304
20
28.4628111704046
30
0
41
1
10
229.210107785555
20
28.4624558555818
30
0
0
SPLINE
5
1DC
100
AcDbEntity
8
1
62
256
6
ByLayer
370
-1
48
1
60
0
100
AcDbSpline
70
4
71
3
72
9
73
5
40
0
40
0
40
0
40
0
40
0.625000000001824
40
1
40
1
40
1
40
1
41
1
10
213.253721199292
20
12.3423804064223
30
0
41
1
10
213.233138642964
20
12.3416533335744
30
0
41
1
10
213.200206552839
20
12.3404900170176
30
0
41
1
10
213.167274462714
20
12.3393267004609
30
0
41
1
10
213.154924928917
20
12.3388904567521
30
0
0
SPLINE
5
1DD
100
AcDbEntity
8
1
62
256
6
ByLayer
370
-1
48
1
60
0
100
AcDbSpline
70
4
71
1
72
4
73
2
40
0
40
0
40
1
40
1
41
1
10
215.22639998813
20
11.511199124426
30
0
41
1
10
215.230639171434
20
11.4112600417241
30
0
0
SPLINE
5
1DE
100
AcDbEntity
8
1
62
256
6
ByLayer
370
-1
48
1
60
0
100
AcDbSpline
70
4
71
3
72
8
73
4
40
0
40
0
40
0
40
0
40
1
40
1
40
1
40
1
41
1
10
213.630023076699
20
13.4061637327998
30
0
41
1
10
213.747750376189
20
13.4102151767796
30
0
41
1
10
213.867621638199
20
13.414394784453
30
0
41
1
10
213.984429226246
20
13.4185209787095
30
0
0
SPLINE
5
1DF
100
AcDbEntity
8
1
62
256
6
ByLayer
370
-1
48
1
60
0
100
AcDbSpline
70
4
71
3
72
15
73
11
40
0
40
0
40
0
40
0
40
0.250244249035935
40
0.50048849807187
40
0.750732747107805
40
0.875854871625773
40
0.938415933884757
40
0.969696465014249
40
0.985336730578995
40
1
40
1
40
1
40
1
41
1
10
230.944149887015
20
29.954193313391
30
0
41
1
10
230.953750197482
20
29.9571170304382
30
0
41
1
10
230.972950818418
20
29.9629644645326
30
0
41
1
10
231.00174617769
20
29.9717339187153
30
0
41
1
10
231.025769242383
20
29.9790499991696
30
0
41
1
10
231.04252799472
20
29.9841537768093
30
0
41
1
10
231.050990952851
20
29.9867311200151
30
0
41
1
10
231.055097058973
20
29.987981610039
30
0
41
1
10
231.05762626564
20
29.9887518647795
30
0
41
1
10
231.058228718341
20
29.9889353381409
30
0
41
1
10
231.059365458463
20
29.9892815255361
30
0
0
SPLINE
5
1E0
100
AcDbEntity
8
1
62
256
6
ByLayer
370
-1
48
1
60
0
100
AcDbSpline
70
4
71
1
72
4
73
2
40
0
40
0
40
1
40
1
41
1
10
214.447643516761
20
27.9449424279373
30
0
41
1
10
214.074832968762
20
27.9310204857868
30
0
0
SPLINE
5
1E1
100
AcDbEntity
8
1
62
256
6
ByLayer
370
-1
48
1
60
0
100
AcDbSpline
70
4
71
3
72
97
73
93
40
0
40
0
40
0
40
0
40
0.03125
40
0.0625
40
0.125
40
0.140625
40
0.15625
40
0.1875
40
0.25
40
0.28125
40
0.2890625
40
0.29296875
40
0.29345703125
40
0.2939453125
40
0.294189453125
40
0.29443359375
40
0.294921875
40
0.296875
40
0.3046875
40
0.3125
40
0.3203125
40
0.328125
40
0.34375
40
0.359375
40
0.3671875
40
0.37109375
40
0.375
40
0.37548828125
40
0.3759765625
40
0.376953125
40
0.37744140625
40
0.3779296875
40
0.37890625
40
0.380859375
40
0.3828125
40
0.38671875
40
0.390625
40
0.3984375
40
0.400390625
40
0.4013671875
40
0.40234375
40
0.40625
40
0.4375
40
0.453125
40
0.46875
40
0.484375
40
0.4921875
40
0.49609375
40
0.498046875
40
0.4990234375
40
0.49951171875
40
0.5
40
0.50048828125
40
0.5009765625
40
0.501953125
40
0.50390625
40
0.5078125
40
0.515625
40
0.53125
40
0.546875
40
0.5625
40
0.59375
40
0.595703125
40
0.59765625
40
0.5986328125
40
0.599609375
40
0.6015625
40
0.609375
40
0.6171875
40
0.62109375
40
0.623046875
40
0.6240234375
40
0.625
40
0.62548828125
40
0.6328125
40
0.640625
40
0.65625
40
0.6640625
40
0.671875
40
0.6875
40
0.703125
40
0.705078125
40
0.70556640625
40
0.705810546875
40
0.7060546875
40
0.70654296875
40
0.70703125
40
0.7109375
40
0.71875
40
0.75
40
0.875
40
1
40
1
40
1
40
1
41
1
10
215.134077943668
20
13.3101026130604
30
0
41
1
10
215.131634403496
20
13.3100169568095
30
0
41
1
10
215.126743136376
20
13.309966438325
30
0
41
1
10
215.116967393487
20
13.3103470767862
30
0
41
1
10
215.108453426342
20
13.3113103648517
30
0
41
1
10
215.101228309037
20
13.3125833905023
30
0
41
1
10
215.096433767826
20
13.3135506075819
30
0
41
1
10
215.088109091746
20
13.3155523922465
30
0
41
1
10
215.078779733718
20
13.3185376648557
30
0
41
1
10
215.07140519678
20
13.3215151115339
30
0
41
1
10
215.068325990906
20
13.3228698509389
30
0
41
1
10
215.067454789981
20
13.3232627732093
30
0
41
1
10
215.067106852908
20
13.3234211465032
30
0
41
1
10
215.067019898873
20
13.3234608067121
30
0
41
1
10
215.066950353816
20
13.3234925749956
30
0
41
1
10
215.066880820882
20
13.3235243700182
30
0
41
1
10
215.066689655367
20
13.3236119166095
30
0
41
1
10
215.065960388764
20
13.3239475884395
30
0
41
1
10
215.064714622017
20
13.3245326322871
30
0
41
1
10
215.06306324445
20
13.3253330621733
30
0
41
1
10
215.061421759981
20
13.3261537411979
30
0
41
1
10
215.059246635938
20
13.3272748157033
30
0
41
1
10
215.056553705314
20
13.3287261702611
30
0
41
1
10
215.053897062846
20
13.3302433914932
30
0
41
1
10
215.05205733358
20
13.3313395983656
30
0
41
1
10
215.051011875443
20
13.3319756988677
30
0
41
1
10
215.050458557532
20
13.3323170506359
30
0
41
1
10
215.050133772491
20
13.332518974946
30
0
41
1
10
215.050003920419
20
13.3325998449842
30
0
41
1
10
215.049874161374
20
13.3326808654116
30
0
41
1
10
215.049744495568
20
13.3327620360633
30
0
41
1
10
215.049614891995
20
13.3328433068099
30
0
41
1
10
215.049388249287
20
13.3329857932213
30
0
41
1
10
215.049064942338
20
13.3331900947141
30
0
41
1
10
215.048548654941
20
13.3335185724749
30
0
41
1
10
215.047905186262
20
13.3339321544157
30
0
41
1
10
215.04687970622
20
13.3346002248772
30
0
41
1
10
215.045987800943
20
13.3351930700701
30
0
41
1
10
215.045290610205
20
13.3356642524758
30
0
41
1
10
215.04503747987
20
13.3358361766305
30
0
41
1
10
215.044658178796
20
13.3360946473024
30
0
41
1
10
215.042325249519
20
13.3376975497428
30
0
41
1
10
215.039108738731
20
13.3400409366067
30
0
41
1
10
215.035259063524
20
13.3430684859738
30
0
41
1
10
215.032428119386
20
13.3454094902075
30
0
41
1
10
215.030117391675
20
13.3474178220331
30
0
41
1
10
215.028526057685
20
13.3488532493074
30
0
41
1
10
215.027737030717
20
13.3495782879611
30
0
41
1
10
215.027344189261
20
13.3499426293255
30
0
41
1
10
215.027148188043
20
13.3501252543651
30
0
41
1
10
215.027036307421
20
13.3502297411823
30
0
41
1
10
215.026952457046
20
13.3503081710801
30
0
41
1
10
215.026868666816
20
13.3503866657214
30
0
41
1
10
215.026757026761
20
13.3504914115001
30
0
41
1
10
215.026561867483
20
13.3506749428594
30
0
41
1
10
215.026172393453
20
13.3510429091396
30
0
41
1
10
215.025396833488
20
13.3517824445513
30
0
41
1
10
215.023859345923
20
13.3532758356163
30
0
41
1
10
215.021702341769
20
13.3554496454666
30
0
41
1
10
215.019178449952
20
13.3581211807704
30
0
41
1
10
215.015901228453
20
13.3617649565056
30
0
41
1
10
215.013446271368
20
13.3647048274113
30
0
41
1
10
215.011734772992
20
13.3668663949723
30
0
41
1
10
215.011497983453
20
13.3671673429908
30
0
41
1
10
215.011309104392
20
13.3674085379586
30
0
41
1
10
215.011120594186
20
13.3676500234193
30
0
41
1
10
215.010603714613
20
13.3683153044802
30
0
41
1
10
215.009766243066
20
13.3694104456748
30
0
41
1
10
215.00885068283
20
13.3706386501735
30
0
41
1
10
215.008217726592
20
13.3715042771574
30
0
41
1
10
215.007903242453
20
13.3719385502128
30
0
41
1
10
215.007724108367
20
13.3721871216345
30
0
41
1
10
215.007612387835
20
13.3723426515132
30
0
41
1
10
215.007210838053
20
13.3729030245591
30
0
41
1
10
215.006503082027
20
13.3739036517684
30
0
41
1
10
215.005133160126
20
13.3758901661938
30
0
41
1
10
215.003778692968
20
13.3779337327857
30
0
41
1
10
215.002461980727
20
13.3800018589759
30
0
41
1
10
215.001170623556
20
13.382086038034
30
0
41
1
10
214.999604314964
20
13.3847207606131
30
0
41
1
10
214.99832801237
20
13.386992345889
30
0
41
1
10
214.997650646329
20
13.3882377548912
30
0
41
1
10
214.997550310294
20
13.3884230762376
30
0
41
1
10
214.997513863045
20
13.3884904868412
30
0
41
1
10
214.997477441523
20
13.3885579114505
30
0
41
1
10
214.997431962869
20
13.3886422184545
30
0
41
1
10
214.997250305692
20
13.388979586234
30
0
41
1
10
214.996799060201
20
13.3898245758245
30
0
41
1
10
214.995237968963
20
13.39281351248
30
0
41
1
10
214.989627232614
20
13.4044070917983
30
0
41
1
10
214.982474059362
20
13.4254095615638
30
0
41
1
10
214.979866084363
20
13.4449648162158
30
0
41
1
10
214.979524763151
20
13.4547763126079
30
0
0
SPLINE
5
1E2
100
AcDbEntity
8
1
62
256
6
ByLayer
370
-1
48
1
60
0
100
AcDbSpline
70
4
71
3
72
15
73
11
40
0
40
0
40
0
40
0
40
0.250239458440329
40
0.500478916880657
40
0.750718375320986
40
0.87583810454115
40
0.938397969151232
40
0.969677901456273
40
0.985317867608794
40
1
40
1
40
1
40
1
41
1
10
213.80079908195
20
11.4992799699562
30
0
41
1
10
213.798577866787
20
11.4895362693084
30
0
41
1
10
213.79413543646
20
11.4700488680127
30
0
41
1
10
213.787473080188
20
11.4408234214253
30
0
41
1
10
213.781914885403
20
11.4164415483811
30
0
41
1
10
213.778037428009
20
11.3994324874183
30
0
41
1
10
213.776079361028
20
11.390843126595
30
0
41
1
10
213.775129334963
20
11.3866756916962
30
0
41
1
10
213.774543972791
20
11.3841079108404
30
0
41
1
10
213.774404589706
20
11.3834964855833
30
0
41
1
10
213.7741407281
20
11.3823390162186
30
0
0
SPLINE
5
1E3
100
AcDbEntity
8
1
62
256
6
ByLayer
370
-1
48
1
60
0
100
AcDbSpline
70
4
71
3
72
8
73
4
40
0
40
0
40
0
40
0
40
1
40
1
40
1
40
1
41
1
10
229.571886834744
20
13.7874839637925
30
0
41
1
10
229.571087927995
20
13.7958187418537
30
0
41
1
10
229.570455632781
20
13.8059704299867
30
0
41
1
10
229.570101670038
20
13.8161453152467
30
0
0
SPLINE
5
1E4
100
AcDbEntity
8
1
62
256
6
ByLayer
370
-1
48
1
60
0
100
AcDbSpline
70
4
71
1
72
4
73
2
40
0
40
0
40
1
40
1
41
1
10
229.022716552608
20
30.4060330437637
30
0
41
1
10
229.020002397195
20
30.5059721264656
30
0
0
SPLINE
5
1E5
100
AcDbEntity
8
1
62
256
6
ByLayer
370
-1
48
1
60
0
100
AcDbSpline
70
4
71
3
72
8
73
4
40
0
40
0
40
0
40
0
40
1
40
1
40
1
40
1
41
1
10
231.471467453761
20
12.2099018184912
30
0
41
1
10
231.566577644612
20
12.3122910590525
30
0
41
1
10
231.63376438876
20
12.4391362458289
30
0
41
1
10
231.665140743935
20
12.5755396630327
30
0
0
SPLINE
5
1E6
100
AcDbEntity
8
1
62
256
6
ByLayer
370
-1
48
1
60
0
100
AcDbSpline
70
4
71
3
72
8
73
4
40
0
40
0
40
0
40
0
40
1
40
1
40
1
40
1
41
1
10
230.36444988541
20
30.5476908139823
30
0
41
1
10
230.402281444329
20
30.5476979767317
30
0
41
1
10
230.439633072319
20
30.5434189130252
30
0
41
1
10
230.476497068648
20
30.5348766060366
30
0
0
SPLINE
5
1E7
100
AcDbEntity
8
1
62
256
6
ByLayer
370
-1
48
1
60
0
100
AcDbSpline
70
4
71
3
72
8
73
4
40
0
40
0
40
0
40
0
40
1
40
1
40
1
40
1
41
1
10
230.840743550829
20
30.3404635154748
30
0
41
1
10
230.738746872655
20
30.4359340601566
30
0
41
1
10
230.612385318518
20
30.5033764947218
30
0
41
1
10
230.476497068676
20
30.5348766061523
30
0
0
SPLINE
5
1E8
100
AcDbEntity
8
1
62
256
6
ByLayer
370
-1
48
1
60
0
100
AcDbSpline
70
4
71
1
72
4
73
2
40
0
40
0
40
1
40
1
41
1
10
214.578950025687
20
13.43985349401
30
0
41
1
10
214.951760573687
20
13.4537754361604
30
0
0
SPLINE
5
1E9
100
AcDbEntity
8
1
62
256
6
ByLayer
370
-1
48
1
60
0
100
AcDbSpline
70
4
71
3
72
8
73
4
40
0
40
0
40
0
40
0
40
1
40
1
40
1
40
1
41
1
10
212.779174114868
20
29.7073303496985
30
0
41
1
10
212.684069804847
20
29.6049411091371
30
0
41
1
10
212.616884957515
20
29.4780959223608
30
0
41
1
10
212.585500824697
20
29.341692505157
30
0
0
SPLINE
5
1EA
100
AcDbEntity
8
1
62
256
6
ByLayer
370
-1
48
1
60
0
100
AcDbSpline
70
4
71
3
72
12
73
8
40
0
40
0
40
0
40
0
40
0.342482483786397
40
0.342482483786397
40
0.671240032903805
40
0.671240032903805
40
1
40
1
40
1
40
1
41
1
10
231.636346254518
20
14.0375979075397
30
0
41
1
10
231.640514565101
20
13.9177771557916
30
0
41
1
10
231.644646872303
20
13.7979542975118
30
0
41
1
10
231.652751458098
20
13.5631114813063
30
0
41
1
10
231.656737434024
20
13.448091142968
30
0
41
1
10
231.664792309519
20
13.2180562586594
30
0
41
1
10
231.668857584182
20
13.103041122666
30
0
41
1
10
231.672858812403
20
12.9880210954188
30
0
0
SPLINE
5
1EB
100
AcDbEntity
8
1
62
256
6
ByLayer
370
-1
48
1
60
0
100
AcDbSpline
70
4
71
3
72
8
73
4
40
0
40
0
40
0
40
0
40
1
40
1
40
1
40
1
41
1
10
231.672858812399
20
12.9880210954187
30
0
41
1
10
231.673913451587
20
12.9577042471798
30
0
41
1
10
231.674832177721
20
12.9273823419603
30
0
41
1
10
231.675610967991
20
12.8970570712527
30
0
0
SPLINE
5
1EC
100
AcDbEntity
8
1
62
256
6
ByLayer
370
-1
48
1
60
0
100
AcDbSpline
70
4
71
1
72
4
73
2
40
0
40
0
40
1
40
1
41
1
10
229.660948007397
20
28.4773786741798
30
0
41
1
10
229.239448168809
20
28.4634567320293
30
0
0
SPLINE
5
1ED
100
AcDbEntity
8
1
62
256
6
ByLayer
370
-1
48
1
60
0
100
AcDbSpline
70
4
71
3
72
8
73
4
40
0
40
0
40
0
40
0
40
1
40
1
40
1
40
1
41
1
10
212.57502980007
20
29.0201750969373
30
0
41
1
10
212.574611342033
20
29.0365029388493
30
0
41
1
10
212.574273266956
20
29.0528330418801
30
0
41
1
10
212.57401264829
20
29.0691642036864
30
0
0
SPLINE
5
1EE
100
AcDbEntity
8
1
62
256
6
ByLayer
370
-1
48
1
60
0
100
AcDbSpline
70
4
71
3
72
8
73
4
40
0
40
0
40
0
40
0
40
1
40
1
40
1
40
1
41
1
10
229.714224842481
20
13.9712888638049
30
0
41
1
10
229.72436100923
20
13.9716441786277
30
0
41
1
10
229.734753206576
20
13.971998683389
30
0
41
1
10
229.743565225735
20
13.9722897402524
30
0
0
SPLINE
5
1EF
100
AcDbEntity
8
1
62
256
6
ByLayer
370
-1
48
1
60
0
100
AcDbSpline
70
4
71
3
72
8
73
4
40
0
40
0
40
0
40
0
40
1
40
1
40
1
40
1
41
1
10
231.079904764046
20
29.8779703032749
30
0
41
1
10
231.077265208041
20
29.9158561939085
30
0
41
1
10
231.070413974109
20
29.9529584420231
30
0
41
1
10
231.059353612627
20
29.9892779179577
30
0
0
SPLINE
5
1F0
100
AcDbEntity
8
1
62
256
6
ByLayer
370
-1
48
1
60
0
100
AcDbSpline
70
4
71
3
72
9
73
5
40
0
40
0
40
0
40
0
40
0.625000000000111
40
1
40
1
40
1
40
1
41
1
10
230.995395341447
20
29.5748517617673
30
0
41
1
10
231.016295611919
20
29.5755788346153
30
0
41
1
10
231.049736044674
20
29.5767421511721
30
0
41
1
10
231.083176477429
20
29.5779054677288
30
0
41
1
10
231.095716639712
20
29.5783417114376
30
0
0
SPLINE
5
1F1
100
AcDbEntity
8
1
62
256
6
ByLayer
370
-1
48
1
60
0
100
AcDbSpline
70
4
71
3
72
8
73
4
40
0
40
0
40
0
40
0
40
1
40
1
40
1
40
1
41
1
10
230.06558525267
20
30.5426241563859
30
0
41
1
10
230.095786752382
20
30.5436828078295
30
0
41
1
10
230.125992057486
20
30.5446062641038
30
0
41
1
10
230.156202730973
20
30.5453872265827
30
0
0
SPLINE
5
1F2
100
AcDbEntity
8
1
62
256
6
ByLayer
370
-1
48
1
60
0
100
AcDbSpline
70
4
71
3
72
25
73
21
40
0
40
0
40
0
40
0
40
0.125
40
0.1875
40
0.25
40
0.265625
40
0.2734375
40
0.28125
40
0.3125
40
0.375
40
0.5
40
0.625
40
0.65625
40
0.6875
40
0.75
40
0.765625
40
0.78125
40
0.8125
40
0.875
40
1
40
1
40
1
40
1
41
1
10
213.16309060392
20
29.8120188957034
30
0
41
1
10
213.175291951004
20
29.8166425702187
30
0
41
1
10
213.194074359142
20
29.8226536007908
30
0
41
1
10
213.219775996647
20
29.8287159317408
30
0
41
1
10
213.234294688694
20
29.8313647102742
30
0
41
1
10
213.243522140983
20
29.8327118369435
30
0
41
1
10
213.246510150546
20
29.8331425069845
30
0
41
1
10
213.253062231871
20
29.8339108323242
30
0
41
1
10
213.266573409822
20
29.8355267925214
30
0
41
1
10
213.29626765653
20
29.8389820710925
30
0
41
1
10
213.338396610261
20
29.8437365639277
30
0
41
1
10
213.376549707009
20
29.8478323636707
30
0
41
1
10
213.401768772006
20
29.8504610208469
30
0
41
1
10
213.418552348589
20
29.8521826590817
30
0
41
1
10
213.433234630663
20
29.8536437391244
30
0
41
1
10
213.445869935632
20
29.8548567398278
30
0
41
1
10
213.454305368024
20
29.8556556774632
30
0
41
1
10
213.469092985027
20
29.8570302390372
30
0
41
1
10
213.498739541086
20
29.8597012350454
30
0
41
1
10
213.524150490828
20
29.8619114654786
30
0
41
1
10
213.541109970763
20
29.8633383116574
30
0
0
SPLINE
5
1F3
100
AcDbEntity
8
1
62
256
6
ByLayer
370
-1
48
1
60
0
100
AcDbSpline
70
4
71
1
72
4
73
2
40
0
40
0
40
1
40
1
41
1
10
231.536024956253
20
14.0341079578694
30
0
41
1
10
231.636346254518
20
14.0375979075397
30
0
0
SPLINE
5
1F4
100
AcDbEntity
8
1
62
256
6
ByLayer
370
-1
48
1
60
0
100
AcDbSpline
70
4
71
3
72
8
73
4
40
0
40
0
40
0
40
0
40
1
40
1
40
1
40
1
41
1
10
230.712245753279
20
11.9539547738304
30
0
41
1
10
230.742447234245
20
11.9550134614114
30
0
41
1
10
230.772644078963
20
11.9562097444899
30
0
41
1
10
230.802834824911
20
11.9575445673172
30
0
0
SPLINE
5
1F5
100
AcDbEntity
8
1
62
256
6
ByLayer
370
-1
48
1
60
0
100
AcDbSpline
70
4
71
3
72
8
73
4
40
0
40
0
40
0
40
0
40
1
40
1
40
1
40
1
41
1
10
230.634175809632
20
28.5110684353899
30
0
41
1
10
230.520749725567
20
28.5070169914102
30
0
41
1
10
230.40215527992
20
28.5028373837368
30
0
41
1
10
230.283544639704
20
28.4987111894802
30
0
0
SPLINE
5
1F6
100
AcDbEntity
8
1
62
256
6
ByLayer
370
-1
48
1
60
0
100
AcDbSpline
70
4
71
1
72
4
73
2
40
0
40
0
40
1
40
1
41
1
10
215.219788706746
20
11.9180204649408
30
0
41
1
10
215.22639998813
20
11.511199124426
30
0
0
SPLINE
5
1F7
100
AcDbEntity
8
1
62
256
6
ByLayer
370
-1
48
1
60
0
100
AcDbSpline
70
4
71
3
72
8
73
4
40
0
40
0
40
0
40
0
40
1
40
1
40
1
40
1
41
1
10
215.134077943668
20
13.3101026130604
30
0
41
1
10
215.13443190641
20
13.2999277278004
30
0
41
1
10
215.135064201625
20
13.2897760396674
30
0
41
1
10
215.135863108374
20
13.2814412616062
30
0
0
SPLINE
5
1F8
100
AcDbEntity
8
1
62
256
6
ByLayer
370
-1
48
1
60
0
100
AcDbSpline
70
4
71
1
72
4
73
2
40
0
40
0
40
1
40
1
41
1
10
214.629797588089
20
28.5284204660091
30
0
41
1
10
214.619321907752
20
28.1297482043972
30
0
0
SPLINE
5
1F9
100
AcDbEntity
8
1
62
256
6
ByLayer
370
-1
48
1
60
0
100
AcDbSpline
70
4
71
3
72
8
73
4
40
0
40
0
40
0
40
0
40
1
40
1
40
1
40
1
41
1
10
214.951760573687
20
13.4537754361604
30
0
41
1
10
214.959554677957
20
13.4540664930239
30
0
41
1
10
214.969388596401
20
13.4544209977851
30
0
41
1
10
214.979524763151
20
13.4547763126079
30
0
0
SPLINE
5
1FA
100
AcDbEntity
8
1
62
256
6
ByLayer
370
-1
48
1
60
0
100
AcDbSpline
70
4
71
3
72
12
73
8
40
0
40
0
40
0
40
0
40
0.34248248378641
40
0.34248248378641
40
0.671240032903812
40
0.671240032903812
40
1
40
1
40
1
40
1
41
1
10
229.020002397195
20
30.5059721264656
30
0
41
1
10
229.139367194808
20
30.5101563593177
30
0
41
1
10
229.258763586266
20
30.5142748432647
30
0
41
1
10
229.492765978036
20
30.5223569605744
30
0
41
1
10
229.607361169554
20
30.5263455740872
30
0
41
1
10
229.836477821332
20
30.5344742620409
30
0
41
1
10
229.951002849782
20
30.5386077059319
30
0
41
1
10
230.06558525267
20
30.5426241563896
30
0
0
SPLINE
5
1FB
100
AcDbEntity
8
1
62
256
6
ByLayer
370
-1
48
1
60
0
100
AcDbSpline
70
4
71
1
72
4
73
2
40
0
40
0
40
1
40
1
41
1
10
213.699757572569
20
27.9174398158729
30
0
41
1
10
213.48031216932
20
27.9096879704864
30
0
0
SPLINE
5
1FC
100
AcDbEntity
8
1
62
256
6
ByLayer
370
-1
48
1
60
0
100
AcDbSpline
70
4
71
3
72
8
73
4
40
0
40
0
40
0
40
0
40
1
40
1
40
1
40
1
41
1
10
214.628612823916
20
28.9173199694167
30
0
41
1
10
214.632388078925
20
28.7783096825637
30
0
41
1
10
214.6328011283
20
28.6427259937047
30
0
41
1
10
214.629797588089
20
28.5284204660091
30
0
0
SPLINE
5
1FD
100
AcDbEntity
8
1
62
256
6
ByLayer
370
-1
48
1
60
0
100
AcDbSpline
70
4
71
3
72
9
73
5
40
0
40
0
40
0
40
0
40
0.5
40
1
40
1
40
1
40
1
41
1
10
213.504259608563
20
11.6791581709416
30
0
41
1
10
213.460454026439
20
11.7155438911413
30
0
41
1
10
213.380312999716
20
11.8018602756627
30
0
41
1
10
213.324964615579
20
11.907905703349
30
0
41
1
10
213.304724005024
20
11.9630388547988
30
0
0
SPLINE
5
1FE
100
AcDbEntity
8
1
62
256
6
ByLayer
370
-1
48
1
60
0
100
AcDbSpline
70
4
71
3
72
8
73
4
40
0
40
0
40
0
40
0
40
1
40
1
40
1
40
1
41
1
10
229.055554605038
20
28.6071295551293
30
0
41
1
10
229.055200642295
20
28.6173044403893
30
0
41
1
10
229.055126625982
20
28.6274561285224
30
0
41
1
10
229.055345634123
20
28.6357909065835
30
0
0
SPLINE
5
1FF
100
AcDbEntity
8
1
62
256
6
ByLayer
370
-1
48
1
60
0
100
AcDbSpline
70
4
71
3
72
10
73
6
40
0
40
0
40
0
40
0
40
0.5
40
0.5
40
1
40
1
40
1
40
1
41
1
10
218.81366476723
20
17.7256923324182
30
0
41
1
10
218.804635414489
20
17.777411393167
30
0
41
1
10
218.792086762676
20
17.8317574493612
30
0
41
1
10
218.76006882949
20
17.9455243720808
30
0
41
1
10
218.740367477204
20
18.0051126976446
30
0
41
1
10
218.718982141291
20
18.0628815810457
30
0
0
SPLINE
5
200
100
AcDbEntity
8
1
62
256
6
ByLayer
370
-1
48
1
60
0
100
AcDbSpline
70
4
71
3
72
8
73
4
40
0
40
0
40
0
40
0
40
1
40
1
40
1
40
1
41
1
10
214.608386453215
20
29.4931690010626
30
0
41
1
10
214.61457308794
20
29.3771508250979
30
0
41
1
10
214.619375199126
20
29.2574625211389
30
0
41
1
10
214.622584165883
20
29.1393037773138
30
0
0
SPLINE
5
201
100
AcDbEntity
8
1
62
256
6
ByLayer
370
-1
48
1
60
0
100
AcDbSpline
70
4
71
1
72
4
73
2
40
0
40
0
40
1
40
1
41
1
10
231.031907899328
20
28.5252749496463
30
0
41
1
10
230.634175809632
20
28.5110684353899
30
0
0
SPLINE
5
202
100
AcDbEntity
8
1
62
256
6
ByLayer
370
-1
48
1
60
0
100
AcDbSpline
70
4
71
3
72
20
73
16
40
0
40
0
40
0
40
0
40
0.0006369940731993
40
0.0022970655116159
40
0.0039571369500326
40
0.0172377084573655
40
0.0437988514720313
40
0.150043423530694
40
0.362532567648021
40
0.468777139706684
40
0.521899425736016
40
0.575021711765347
40
0.787510855882674
40
0.893755427941337
40
1
40
1
40
1
40
1
41
1
10
230.069062038103
20
30.4426743070342
30
0
41
1
10
230.068839788579
20
30.4426718949956
30
0
41
1
10
230.068037628643
20
30.4426548253737
30
0
41
1
10
230.066657339691
20
30.4425994920051
30
0
41
1
10
230.060877997311
20
30.4424007608298
30
0
41
1
10
230.046405456924
20
30.4418886672359
30
0
41
1
10
229.995495741493
20
30.4401105690751
30
0
41
1
10
229.87510890764
20
30.4358944158076
30
0
41
1
10
229.726884026918
20
30.4307326446576
30
0
41
1
10
229.597128805471
20
30.4262282684471
30
0
41
1
10
229.522965134778
20
30.4236602194794
30
0
41
1
10
229.411734776614
20
30.4197949770855
30
0
41
1
10
229.282009694276
20
30.4152473685168
30
0
41
1
10
229.133819352972
20
30.4100002137228
30
0
41
1
10
229.059746097626
20
30.4073563764184
30
0
41
1
10
229.022716552608
20
30.4060330437637
30
0
0
SPLINE
5
203
100
AcDbEntity
8
1
62
256
6
ByLayer
370
-1
48
1
60
0
100
AcDbSpline
70
4
71
3
72
8
73
4
40
0
40
0
40
0
40
0
40
1
40
1
40
1
40
1
41
1
10
213.129023345161
20
29.9267754664191
30
0
41
1
10
212.995653519611
20
29.885847182178
30
0
41
1
10
212.874279247176
20
29.8097204725031
30
0
41
1
10
212.779174114372
20
29.7073303501704
30
0
0
SPLINE
5
204
100
AcDbEntity
8
1
62
256
6
ByLayer
370
-1
48
1
60
0
100
AcDbSpline
70
4
71
3
72
9
73
5
40
0
40
0
40
0
40
0
40
0.625000000000302
40
1
40
1
40
1
40
1
41
1
10
213.541109970763
20
29.8633383116574
30
0
41
1
10
213.540544521719
20
29.884158953887
30
0
41
1
10
213.539639803248
20
29.9174719814543
30
0
41
1
10
213.538735084777
20
29.9507850090216
30
0
41
1
10
213.53839581535
20
29.9632773943593
30
0
0
SPLINE
5
205
100
AcDbEntity
8
1
62
256
6
ByLayer
370
-1
48
1
60
0
100
AcDbSpline
70
4
71
3
72
8
73
4
40
0
40
0
40
0
40
0
40
1
40
1
40
1
40
1
41
1
10
213.160887630716
20
12.1990141383016
30
0
41
1
10
213.163745466808
20
12.1457386900115
30
0
41
1
10
213.167027800381
20
12.0924844699105
30
0
41
1
10
213.170736794215
20
12.0392618649148
30
0
0
SPLINE
5
206
100
AcDbEntity
8
1
62
256
6
ByLayer
370
-1
48
1
60
0
100
AcDbSpline
70
4
71
3
72
15
73
11
40
0
40
0
40
0
40
0
40
0.250239458440328
40
0.500478916880655
40
0.750718375320983
40
0.875838104541147
40
0.938397969151228
40
0.969677901456269
40
0.98531786760879
40
1
40
1
40
1
40
1
41
1
10
230.449368839164
20
30.4179521982335
30
0
41
1
10
230.451629524954
20
30.4276958988814
30
0
41
1
10
230.456150896533
20
30.447183300177
30
0
41
1
10
230.462931641775
20
30.4764087467645
30
0
41
1
10
230.468588604761
20
30.5007906198086
30
0
41
1
10
230.472534963933
20
30.5177996807714
30
0
41
1
10
230.47452782544
20
30.5263890415947
30
0
41
1
10
230.475494733312
20
30.5305564764935
30
0
41
1
10
230.476090497272
20
30.5331242573493
30
0
41
1
10
230.476232357171
20
30.5337356826064
30
0
41
1
10
230.476500907555
20
30.5348931519711
30
0
0
SPLINE
5
207
100
AcDbEntity
8
1
62
256
6
ByLayer
370
-1
48
1
60
0
100
AcDbSpline
70
4
71
3
72
97
73
93
40
0
40
0
40
0
40
0
40
0.03125
40
0.0625
40
0.125
40
0.140625
40
0.15625
40
0.1875
40
0.25
40
0.28125
40
0.2890625
40
0.29296875
40
0.29345703125
40
0.2939453125
40
0.294189453125
40
0.29443359375
40
0.294921875
40
0.296875
40
0.3046875
40
0.3125
40
0.3203125
40
0.328125
40
0.34375
40
0.359375
40
0.3671875
40
0.37109375
40
0.375
40
0.37548828125
40
0.3759765625
40
0.376953125
40
0.37744140625
40
0.3779296875
40
0.37890625
40
0.380859375
40
0.3828125
40
0.38671875
40
0.390625
40
0.3984375
40
0.400390625
40
0.4013671875
40
0.40234375
40
0.40625
40
0.4375
40
0.453125
40
0.46875
40
0.484375
40
0.4921875
40
0.49609375
40
0.498046875
40
0.4990234375
40
0.49951171875
40
0.5
40
0.50048828125
40
0.5009765625
40
0.501953125
40
0.50390625
40
0.5078125
40
0.515625
40
0.53125
40
0.546875
40
0.5625
40
0.59375
40
0.595703125
40
0.59765625
40
0.5986328125
40
0.599609375
40
0.6015625
40
0.609375
40
0.6171875
40
0.62109375
40
0.623046875
40
0.6240234375
40
0.625
40
0.62548828125
40
0.6328125
40
0.640625
40
0.65625
40
0.6640625
40
0.671875
40
0.6875
40
0.703125
40
0.705078125
40
0.70556640625
40
0.705810546875
40
0.7060546875
40
0.70654296875
40
0.70703125
40
0.7109375
40
0.71875
40
0.75
40
0.875
40
1
40
1
40
1
40
1
41
1
10
229.714224842481
20
13.971288863805
30
0
41
1
10
229.714310172784
20
13.9688359897069
30
0
41
1
10
229.71436049903
20
13.9639260387405
30
0
41
1
10
229.713981309013
20
13.954112954102
30
0
41
1
10
229.713021686549
20
13.9455664649854
30
0
41
1
10
229.711753505146
20
13.9383137489062
30
0
41
1
10
229.710789968619
20
13.9335008933273
30
0
41
1
10
229.70879580135
20
13.925144418337
30
0
41
1
10
229.705821888604
20
13.915779423677
30
0
41
1
10
229.702855772009
20
13.9083767172055
30
0
41
1
10
229.701506187797
20
13.905285749265
30
0
41
1
10
229.701114760714
20
13.9044112204946
30
0
41
1
10
229.700956990079
20
13.9040619543579
30
0
41
1
10
229.700917480789
20
13.9039746681729
30
0
41
1
10
229.700885833393
20
13.9039048574648
30
0
41
1
10
229.70085415936
20
13.9038350589268
30
0
41
1
10
229.70076694591
20
13.9036431631906
30
0
41
1
10
229.700432551413
20
13.9029111109071
30
0
41
1
10
229.699849733834
20
13.9016605855341
30
0
41
1
10
229.699052349825
20
13.900002899973
30
0
41
1
10
229.698234793732
20
13.8983551453004
30
0
41
1
10
229.697117985253
20
13.8961717126359
30
0
41
1
10
229.695672153538
20
13.893468495455
30
0
41
1
10
229.69416070579
20
13.8908017050445
30
0
41
1
10
229.693068670316
20
13.8889549483114
30
0
41
1
10
229.692434990368
20
13.8879054966937
30
0
41
1
10
229.692094937547
20
13.8873500651991
30
0
41
1
10
229.69189378162
20
13.8870240395312
30
0
41
1
10
229.691813219316
20
13.8868936914461
30
0
41
1
10
229.691732507196
20
13.8867634367419
30
0
41
1
10
229.691651645423
20
13.8866332756342
30
0
41
1
10
229.691570683936
20
13.8865031769959
30
0
41
1
10
229.691428739729
20
13.8862756685497
30
0
41
1
10
229.691225215665
20
13.8859511266207
30
0
41
1
10
229.690897987861
20
13.8854328670905
30
0
41
1
10
229.690485979725
20
13.8847869404653
30
0
41
1
10
229.689820451473
20
13.8837575432564
30
0
41
1
10
229.689229862235
20
13.8828622310456
30
0
41
1
10
229.68876047282
20
13.8821623771524
30
0
41
1
10
229.688589202889
20
13.8819082799008
30
0
41
1
10
229.688331715776
20
13.8815275299585
30
0
41
1
10
229.686734912863
20
13.8791856892699
30
0
41
1
10
229.684400443294
20
13.8759568919341
30
0
41
1
10
229.681384414666
20
13.8720925115928
30
0
41
1
10
229.67905231866
20
13.8692507537081
30
0
41
1
10
229.677051629144
20
13.866931199393
30
0
41
1
10
229.675621664104
20
13.8653337867657
30
0
41
1
10
229.674899384441
20
13.8645417458422
30
0
41
1
10
229.674536429505
20
13.8641474037957
30
0
41
1
10
229.674354499409
20
13.8639506538847
30
0
41
1
10
229.674250410196
20
13.8638383458975
30
0
41
1
10
229.674172278748
20
13.8637541752275
30
0
41
1
10
229.674094082802
20
13.863670064932
30
0
41
1
10
229.673989735613
20
13.8635579984302
30
0
41
1
10
229.673806902646
20
13.863362093676
30
0
41
1
10
229.673440336588
20
13.8629711319182
30
0
41
1
10
229.672703615332
20
13.8621926094403
30
0
41
1
10
229.671215907071
20
13.8606492489227
30
0
41
1
10
229.669050369223
20
13.8584840053632
30
0
41
1
10
229.666388999918
20
13.8559504726897
30
0
41
1
10
229.662759089849
20
13.8526607327362
30
0
41
1
10
229.65983040604
20
13.8501963981143
30
0
41
1
10
229.657677063896
20
13.8484783620931
30
0
41
1
10
229.657377261076
20
13.8482406680565
30
0
41
1
10
229.657136983928
20
13.8480510675075
30
0
41
1
10
229.656896417392
20
13.8478618372232
30
0
41
1
10
229.656233667927
20
13.8473429832546
30
0
41
1
10
229.655142694075
20
13.8465023127021
30
0
41
1
10
229.653919163265
20
13.8455832551749
30
0
41
1
10
229.653056830253
20
13.8449478811471
30
0
41
1
10
229.652624209738
20
13.8446321957294
30
0
41
1
10
229.652376584206
20
13.8444523773805
30
0
41
1
10
229.652221646165
20
13.8443402300937
30
0
41
1
10
229.651663405508
20
13.8439371464574
30
0
41
1
10
229.650666585987
20
13.8432266869183
30
0
41
1
10
229.648687630849
20
13.8418515321377
30
0
41
1
10
229.646651840645
20
13.8404918911355
30
0
41
1
10
229.644591584299
20
13.8391701492673
30
0
41
1
10
229.642515336171
20
13.8378738593222
30
0
41
1
10
229.639890639507
20
13.8363015676855
30
0
41
1
10
229.637627698299
20
13.8350203898226
30
0
41
1
10
229.636387028454
20
13.834340436354
30
0
41
1
10
229.636202412311
20
13.8342397170519
30
0
41
1
10
229.636135258225
20
13.8342031305803
30
0
41
1
10
229.636068090187
20
13.834166569934
30
0
41
1
10
229.635984103997
20
13.8341209175589
30
0
41
1
10
229.635648020003
20
13.8339385664802
30
0
41
1
10
229.634806245853
20
13.8334855973052
30
0
41
1
10
229.631828683005
20
13.8319185429527
30
0
41
1
10
229.620279220756
20
13.8262863745023
30
0
41
1
10
229.599356671728
20
13.8191058772902
30
0
41
1
10
229.579875830724
20
13.8164879402506
30
0
41
1
10
229.570101670038
20
13.8161453152467
30
0
0
SPLINE
5
208
100
AcDbEntity
8
1
62
256
6
ByLayer
370
-1
48
1
60
0
100
AcDbSpline
70
4
71
3
72
15
73
11
40
0
40
0
40
0
40
0
40
0.424997863749022
40
0.849995727498045
40
0.9562451934353
40
0.982807559919614
40
0.996088743161771
40
0.997748891067041
40
0.99940903897231
40
1
40
1
40
1
40
1
41
1
10
229.662423714501
20
12.0172418266123
30
0
41
1
10
229.810547315186
20
12.0224341751821
30
0
41
1
10
230.106791534784
20
12.0328160458543
30
0
41
1
10
230.440080118037
20
12.0445087243669
30
0
41
1
10
230.634480192481
20
12.0513121980091
30
0
41
1
10
230.685405860426
20
12.0531047973953
30
0
41
1
10
230.699863603
20
12.0536048231556
30
0
41
1
10
230.705655599892
20
12.0538132394981
30
0
41
1
10
230.70701775066
20
12.0538533655323
30
0
41
1
10
230.707800397643
20
12.0538917890396
30
0
41
1
10
230.708005903496
20
12.0539039061652
30
0
0
SPLINE
5
209
100
AcDbEntity
8
1
62
256
6
ByLayer
370
-1
48
1
60
0
100
AcDbSpline
70
4
71
3
72
8
73
4
40
0
40
0
40
0
40
0
40
1
40
1
40
1
40
1
41
1
10
229.655812433116
20
12.4240631671271
30
0
41
1
10
229.653927013816
20
12.5400813430918
30
0
41
1
10
229.650401718994
20
12.6597696470508
30
0
41
1
10
229.645389700068
20
12.777928390876
30
0
0
SPLINE
5
20A
100
AcDbEntity
8
1
62
256
6
ByLayer
370
-1
48
1
60
0
100
AcDbSpline
70
4
71
3
72
8
73
4
40
0
40
0
40
0
40
0
40
1
40
1
40
1
40
1
41
1
10
231.675610967981
20
12.8970570712524
30
0
41
1
10
231.676030287055
20
12.8807292293404
30
0
41
1
10
231.676369648111
20
12.8643991263096
30
0
41
1
10
231.676630145647
20
12.8480679645033
30
0
0
SPLINE
5
20B
100
AcDbEntity
8
1
62
256
6
ByLayer
370
-1
48
1
60
0
100
AcDbSpline
70
4
71
1
72
4
73
2
40
0
40
0
40
1
40
1
41
1
10
212.713091584485
20
27.8831242103203
30
0
41
1
10
212.614295314111
20
27.87963426065
30
0
0
SPLINE
5
20C
100
AcDbEntity
8
1
62
256
6
ByLayer
370
-1
48
1
60
0
100
AcDbSpline
70
4
71
3
72
15
73
11
40
0
40
0
40
0
40
0
40
0.424997863749036
40
0.849995727498072
40
0.956245193435331
40
0.982807559919646
40
0.996088743161804
40
0.997748891067073
40
0.999409038972343
40
1
40
1
40
1
40
1
41
1
10
214.586692826238
20
29.8999903415774
30
0
41
1
10
214.438569225553
20
29.8947979930076
30
0
41
1
10
214.142325047415
20
29.8844161223354
30
0
41
1
10
213.80903631905
20
29.8727234438229
30
0
41
1
10
213.61463641304
20
29.8659199701806
30
0
41
1
10
213.563710631726
20
29.8641273707944
30
0
41
1
10
213.549252992399
20
29.8636273450341
30
0
41
1
10
213.543460913516
20
29.8634189286916
30
0
41
1
10
213.542098878885
20
29.8633788026574
30
0
41
1
10
213.541316064482
20
29.8633403791501
30
0
41
1
10
213.541110483817
20
29.8633282620245
30
0
0
SPLINE
5
20D
100
AcDbEntity
8
1
62
256
6
ByLayer
370
-1
48
1
60
0
100
AcDbSpline
70
4
71
3
72
97
73
93
40
0
40
0
40
0
40
0
40
0.03125
40
0.0625
40
0.125
40
0.140625
40
0.15625
40
0.1875
40
0.25
40
0.28125
40
0.2890625
40
0.29296875
40
0.29345703125
40
0.2939453125
40
0.294189453125
40
0.29443359375
40
0.294921875
40
0.296875
40
0.3046875
40
0.3125
40
0.3203125
40
0.328125
40
0.34375
40
0.359375
40
0.3671875
40
0.37109375
40
0.375
40
0.37548828125
40
0.3759765625
40
0.376953125
40
0.37744140625
40
0.3779296875
40
0.37890625
40
0.380859375
40
0.3828125
40
0.38671875
40
0.390625
40
0.3984375
40
0.400390625
40
0.4013671875
40
0.40234375
40
0.40625
40
0.4375
40
0.453125
40
0.46875
40
0.484375
40
0.4921875
40
0.49609375
40
0.498046875
40
0.4990234375
40
0.49951171875
40
0.5
40
0.50048828125
40
0.5009765625
40
0.501953125
40
0.50390625
40
0.5078125
40
0.515625
40
0.53125
40
0.546875
40
0.5625
40
0.59375
40
0.595703125
40
0.59765625
40
0.5986328125
40
0.599609375
40
0.6015625
40
0.609375
40
0.6171875
40
0.62109375
40
0.623046875
40
0.6240234375
40
0.625
40
0.62548828125
40
0.6328125
40
0.640625
40
0.65625
40
0.6640625
40
0.671875
40
0.6875
40
0.703125
40
0.705078125
40
0.70556640625
40
0.705810546875
40
0.7060546875
40
0.70654296875
40
0.70703125
40
0.7109375
40
0.71875
40
0.75
40
0.875
40
1
40
1
40
1
40
1
41
1
10
229.055554605038
20
28.6071295551293
30
0
41
1
10
229.057998145209
20
28.6072152113803
30
0
41
1
10
229.06288941233
20
28.6072657298647
30
0
41
1
10
229.072665155219
20
28.6068850914035
30
0
41
1
10
229.081179122364
20
28.605921803338
30
0
41
1
10
229.088404239669
20
28.6046487776874
30
0
41
1
10
229.093198780879
20
28.6036815606078
30
0
41
1
10
229.101523456959
20
28.6016797759433
30
0
41
1
10
229.110852814987
20
28.598694503334
30
0
41
1
10
229.118227351926
20
28.5957170566558
30
0
41
1
10
229.1213065578
20
28.5943623172509
30
0
41
1
10
229.122177758724
20
28.5939693949804
30
0
41
1
10
229.122525695798
20
28.5938110216866
30
0
41
1
10
229.122612649833
20
28.5937713614776
30
0
41
1
10
229.12268219489
20
28.5937395931942
30
0
41
1
10
229.122751727823
20
28.5937077981715
30
0
41
1
10
229.122942893338
20
28.5936202515802
30
0
41
1
10
229.123672159942
20
28.5932845797503
30
0
41
1
10
229.124917926689
20
28.5926995359026
30
0
41
1
10
229.126569304256
20
28.5918991060165
30
0
41
1
10
229.128210788724
20
28.5910784269919
30
0
41
1
10
229.130385912768
20
28.5899573524864
30
0
41
1
10
229.133078843392
20
28.5885059979286
30
0
41
1
10
229.135735485859
20
28.5869887766965
30
0
41
1
10
229.137575215126
20
28.5858925698242
30
0
41
1
10
229.138620673263
20
28.585256469322
30
0
41
1
10
229.139173991173
20
28.5849151175538
30
0
41
1
10
229.139498776215
20
28.5847131932438
30
0
41
1
10
229.139628628286
20
28.5846323232055
30
0
41
1
10
229.139758387332
20
28.5845513027782
30
0
41
1
10
229.139888053137
20
28.5844701321264
30
0
41
1
10
229.140017656711
20
28.5843888613798
30
0
41
1
10
229.140244299419
20
28.5842463749684
30
0
41
1
10
229.140567606368
20
28.5840420734756
30
0
41
1
10
229.141083893764
20
28.5837135957148
30
0
41
1
10
229.141727362444
20
28.5833000137741
30
0
41
1
10
229.142752842485
20
28.5826319433125
30
0
41
1
10
229.143644747763
20
28.5820390981197
30
0
41
1
10
229.144341938501
20
28.5815679157139
30
0
41
1
10
229.144595068836
20
28.5813959915592
30
0
41
1
10
229.144974369909
20
28.5811375208873
30
0
41
1
10
229.147307299187
20
28.579534618447
30
0
41
1
10
229.150523809974
20
28.577191231583
30
0
41
1
10
229.154373485182
20
28.5741636822159
30
0
41
1
10
229.15720442932
20
28.5718226779823
30
0
41
1
10
229.15951515703
20
28.5698143461567
30
0
41
1
10
229.16110649102
20
28.5683789188824
30
0
41
1
10
229.161895517989
20
28.5676538802287
30
0
41
1
10
229.162288359445
20
28.5672895388642
30
0
41
1
10
229.162484360663
20
28.5671069138246
30
0
41
1
10
229.162596241284
20
28.5670024270074
30
0
41
1
10
229.16268009166
20
28.5669239971097
30
0
41
1
10
229.16276388189
20
28.5668455024684
30
0
41
1
10
229.162875521945
20
28.5667407566897
30
0
41
1
10
229.163070681222
20
28.5665572253304
30
0
41
1
10
229.163460155253
20
28.5661892590501
30
0
41
1
10
229.164235715218
20
28.5654497236385
30
0
41
1
10
229.165773202782
20
28.5639563325734
30
0
41
1
10
229.167930206936
20
28.5617825227231
30
0
41
1
10
229.170454098753
20
28.5591109874194
30
0
41
1
10
229.173731320253
20
28.5554672116841
30
0
41
1
10
229.176186277338
20
28.5525273407785
30
0
41
1
10
229.177897775713
20
28.5503657732174
30
0
41
1
10
229.178134565252
20
28.5500648251989
30
0
41
1
10
229.178323444314
20
28.5498236302311
30
0
41
1
10
229.17851195452
20
28.5495821447705
30
0
41
1
10
229.179028834092
20
28.5489168637096
30
0
41
1
10
229.17986630564
20
28.5478217225149
30
0
41
1
10
229.180781865875
20
28.5465935180162
30
0
41
1
10
229.181414822113
20
28.5457278910323
30
0
41
1
10
229.181729306253
20
28.545293617977
30
0
41
1
10
229.181908440339
20
28.5450450465552
30
0
41
1
10
229.182020160871
20
28.5448895166765
30
0
41
1
10
229.182421710652
20
28.5443291436306
30
0
41
1
10
229.183129466678
20
28.5433285164214
30
0
41
1
10
229.18449938858
20
28.541342001996
30
0
41
1
10
229.185853855737
20
28.5392984354041
30
0
41
1
10
229.187170567979
20
28.5372303092138
30
0
41
1
10
229.18846192515
20
28.5351461301557
30
0
41
1
10
229.190028233742
20
28.5325114075766
30
0
41
1
10
229.191304536336
20
28.5302398223007
30
0
41
1
10
229.191981902377
20
28.5289944132985
30
0
41
1
10
229.192082238411
20
28.5288090919522
30
0
41
1
10
229.19211868566
20
28.5287416813485
30
0
41
1
10
229.192155107182
20
28.5286742567392
30
0
41
1
10
229.192200585836
20
28.5285899497352
30
0
41
1
10
229.192382243014
20
28.5282525819558
30
0
41
1
10
229.192833488505
20
28.5274075923652
30
0
41
1
10
229.194394579742
20
28.5244186557097
30
0
41
1
10
229.200005316091
20
28.5128250763914
30
0
41
1
10
229.207158489343
20
28.4918226066259
30
0
41
1
10
229.209766464342
20
28.4722673519739
30
0
41
1
10
229.210107785555
20
28.4624558555818
30
0
0
SPLINE
5
20E
100
AcDbEntity
8
1
62
256
6
ByLayer
370
-1
48
1
60
0
100
AcDbSpline
70
4
71
3
72
8
73
4
40
0
40
0
40
0
40
0
40
1
40
1
40
1
40
1
41
1
10
213.170736794215
20
12.0392618649148
30
0
41
1
10
213.173376998217
20
12.0013759742811
30
0
41
1
10
213.180229654012
20
11.9642737261666
30
0
41
1
10
213.191287956001
20
11.927954250232
30
0
0
SPLINE
5
20F
100
AcDbEntity
8
1
62
256
6
ByLayer
370
-1
48
1
60
0
100
AcDbSpline
70
4
71
3
72
8
73
4
40
0
40
0
40
0
40
0
40
1
40
1
40
1
40
1
41
1
10
213.53839581535
20
29.9632773943593
30
0
41
1
10
213.508194334384
20
29.9622187067783
30
0
41
1
10
213.477997158434
20
29.9610224236999
30
0
41
1
10
213.4478066643
20
29.9596876008725
30
0
0
SPLINE
5
210
100
AcDbEntity
8
1
62
256
6
ByLayer
370
-1
48
1
60
0
100
AcDbSpline
70
4
71
3
72
8
73
4
40
0
40
0
40
0
40
0
40
1
40
1
40
1
40
1
41
1
10
229.635973663552
20
12.999912198773
30
0
41
1
10
229.630077170698
20
13.1389224856261
30
0
41
1
10
229.621056880407
20
13.274506174485
30
0
41
1
10
229.610100444995
20
13.3888117021806
30
0
0
SPLINE
5
211
100
AcDbEntity
8
1
62
256
6
ByLayer
370
-1
48
1
60
0
100
AcDbSpline
70
4
71
3
72
8
73
4
40
0
40
0
40
0
40
0
40
1
40
1
40
1
40
1
41
1
10
213.4478066643
20
29.9596876008725
30
0
41
1
10
213.431551388285
20
29.9589689006951
30
0
41
1
10
213.415299423093
20
29.9581702423406
30
0
41
1
10
213.39905180244
20
29.9572919500569
30
0
0
SPLINE
5
212
100
AcDbEntity
8
1
62
256
6
ByLayer
370
-1
48
1
60
0
100
AcDbSpline
70
4
71
3
72
15
73
11
40
0
40
0
40
0
40
0
40
0.250244249035852
40
0.500488498071705
40
0.750732747107557
40
0.875854871625483
40
0.938415933884446
40
0.969696465013928
40
0.985336730578668
40
1
40
1
40
1
40
1
41
1
10
213.304724005024
20
11.9630388547988
30
0
41
1
10
213.295271000939
20
11.9601151377515
30
0
41
1
10
213.276364992769
20
11.9542677036571
30
0
41
1
10
213.248011467145
20
11.9454982494744
30
0
41
1
10
213.224357010402
20
11.9381821690201
30
0
41
1
10
213.207855402997
20
11.9330783913804
30
0
41
1
10
213.199522299807
20
11.9305010481746
30
0
41
1
10
213.195479197443
20
11.9292505581507
30
0
41
1
10
213.192988798717
20
11.9284803034102
30
0
41
1
10
213.192395590002
20
11.9282968300489
30
0
41
1
10
213.191276291927
20
11.9279506426536
30
0
0
SPLINE
5
213
100
AcDbEntity
8
1
62
256
6
ByLayer
370
-1
48
1
60
0
100
AcDbSpline
70
4
71
3
72
8
73
4
40
0
40
0
40
0
40
0
40
1
40
1
40
1
40
1
41
1
10
231.092140466764
20
29.669276858467
30
0
41
1
10
231.091424569249
20
29.6855942950463
30
0
41
1
10
231.090629014517
20
29.7019084048378
30
0
41
1
10
231.089754005751
20
29.7182180298881
30
0
0
SPLINE
5
214
100
AcDbEntity
8
1
62
256
6
ByLayer
370
-1
48
1
60
0
100
AcDbSpline
70
4
71
3
72
8
73
4
40
0
40
0
40
0
40
0
40
1
40
1
40
1
40
1
41
1
10
230.851589834027
20
11.9599402181329
30
0
41
1
10
230.904662361573
20
11.9628091630045
30
0
41
1
10
230.957713630607
20
11.9661043383975
30
0
41
1
10
231.01073416268
20
11.9698270430886
30
0
0
SPLINE
5
215
100
AcDbEntity
8
1
62
256
6
ByLayer
370
-1
48
1
60
0
100
AcDbSpline
70
4
71
3
72
9
73
5
40
0
40
0
40
0
40
0
40
0.5
40
1
40
1
40
1
40
1
41
1
10
212.701743476184
20
29.3146983786024
30
0
41
1
10
212.718061095489
20
29.37110636257
30
0
41
1
10
212.765736632464
20
29.4807428880399
30
0
41
1
10
212.839397746366
20
29.5724716198831
30
0
41
1
10
212.880419159772
20
29.6118505792898
30
0
0
SPLINE
5
216
100
AcDbEntity
8
1
62
256
6
ByLayer
370
-1
48
1
60
0
100
AcDbSpline
70
4
71
3
72
15
73
11
40
0
40
0
40
0
40
0
40
0.424997863749045
40
0.84999572749809
40
0.956245193435351
40
0.982807559919666
40
0.996088743161824
40
0.997748891067093
40
0.999409038972363
40
1
40
1
40
1
40
1
41
1
10
231.031907899328
20
28.5252749496463
30
0
41
1
10
231.026735309212
20
28.6739643584227
30
0
41
1
10
231.016392965422
20
28.9713401620035
30
0
41
1
10
231.004744708525
20
29.3059019263322
30
0
41
1
10
230.997967208371
20
29.5010444929404
30
0
41
1
10
230.996181373682
20
29.5521647455652
30
0
41
1
10
230.995683302294
20
29.5666776625463
30
0
41
1
10
230.995475638044
20
29.5724918250776
30
0
41
1
10
230.99543572277
20
29.5738591207494
30
0
41
1
10
230.995397361766
20
29.5746448413469
30
0
41
1
10
230.995385253343
20
29.5748511697479
30
0
0
SPLINE
5
217
100
AcDbEntity
8
1
62
256
6
ByLayer
370
-1
48
1
60
0
100
AcDbSpline
70
4
71
1
72
4
73
2
40
0
40
0
40
1
40
1
41
1
10
230.5648289149
20
13.9997923523168
30
0
41
1
10
230.78766169663
20
14.0075441977033
30
0
0
SPLINE
5
218
100
AcDbEntity
8
1
62
256
6
ByLayer
370
-1
48
1
60
0
100
AcDbSpline
70
4
71
3
72
8
73
4
40
0
40
0
40
0
40
0
40
1
40
1
40
1
40
1
41
1
10
214.203874629494
20
13.426272824096
30
0
41
1
10
214.341295321315
20
13.4311271702802
30
0
41
1
10
214.472059452846
20
13.4358618570257
30
0
41
1
10
214.578950025687
20
13.43985349401
30
0
0
SPLINE
5
219
100
AcDbEntity
8
1
62
256
6
ByLayer
370
-1
48
1
60
0
100
AcDbSpline
70
4
71
3
72
8
73
4
40
0
40
0
40
0
40
0
40
1
40
1
40
1
40
1
41
1
10
212.57778275623
20
28.929211072771
30
0
41
1
10
212.576728149507
20
28.9595279210099
30
0
41
1
10
212.575806991152
20
28.9898498262294
30
0
41
1
10
212.57502980006
20
29.020175096937
30
0
0
SPLINE
5
21A
100
AcDbEntity
8
1
62
256
6
ByLayer
370
-1
48
1
60
0
100
AcDbSpline
70
4
71
3
72
9
73
5
40
0
40
0
40
0
40
0
40
0.5
40
1
40
1
40
1
40
1
41
1
10
231.54842444493
20
12.6025337895873
30
0
41
1
10
231.531941091694
20
12.5461258056197
30
0
41
1
10
231.483913536143
20
12.4364892801498
30
0
41
1
10
231.409900173121
20
12.3447605483066
30
0
41
1
10
231.368712708269
20
12.3053815888999
30
0
0
SPLINE
5
21B
100
AcDbEntity
8
1
62
256
6
ByLayer
370
-1
48
1
60
0
100
AcDbSpline
70
4
71
3
72
9
73
5
40
0
40
0
40
0
40
0
40
0.5
40
1
40
1
40
1
40
1
41
1
10
230.744872259478
20
30.2380739972482
30
0
41
1
10
230.788583681248
20
30.2016882770484
30
0
41
1
10
230.868585122075
20
30.115371892527
30
0
41
1
10
230.923901313607
20
30.0093264648407
30
0
41
1
10
230.944149887015
20
29.954193313391
30
0
0
SPLINE
5
21C
100
AcDbEntity
8
1
62
256
6
ByLayer
370
-1
48
1
60
0
100
AcDbSpline
70
4
71
3
72
8
73
4
40
0
40
0
40
0
40
0
40
1
40
1
40
1
40
1
41
1
10
214.074832968762
20
27.9310204857868
30
0
41
1
10
213.96794239592
20
27.9270288488025
30
0
41
1
10
213.837178264389
20
27.922294162057
30
0
41
1
10
213.699757572569
20
27.9174398158729
30
0
0
SPLINE
5
21D
100
AcDbEntity
8
1
62
256
6
ByLayer
370
-1
48
1
60
0
100
AcDbSpline
70
4
71
1
72
4
73
2
40
0
40
0
40
1
40
1
41
1
10
214.622584165883
20
29.1393037773138
30
0
41
1
10
214.628612823916
20
28.9173199694167
30
0
0
SPLINE
5
21E
100
AcDbEntity
8
1
62
256
6
ByLayer
370
-1
48
1
60
0
100
AcDbSpline
70
4
71
3
72
20
73
16
40
0
40
0
40
0
40
0
40
0.0006369940731592
40
0.0022970655115758
40
0.0039571369499925
40
0.0172377084573259
40
0.0437988514719928
40
0.15004342353066
40
0.362532567647995
40
0.468777139706663
40
0.521899425735996
40
0.57502171176533
40
0.787510855882665
40
0.893755427941333
40
1
40
1
40
1
40
1
41
1
10
214.181579530768
20
11.4745578611555
30
0
41
1
10
214.181801814476
20
11.4745602731941
30
0
41
1
10
214.182604096821
20
11.474577342816
30
0
41
1
10
214.183984586581
20
11.4746326761846
30
0
41
1
10
214.189764709753
20
11.4748314073599
30
0
41
1
10
214.204238525291
20
11.4753435009539
30
0
41
1
10
214.255146348103
20
11.4771215991147
30
0
41
1
10
214.375478637454
20
11.4813377523821
30
0
41
1
10
214.523486543227
20
11.4864995235321
30
0
41
1
10
214.652925720271
20
11.4910038997426
30
0
41
1
10
214.726865560843
20
11.4935719487103
30
0
41
1
10
214.837796317717
20
11.4974371911043
30
0
41
1
10
214.967273488957
20
11.5019847996729
30
0
41
1
10
215.115322524389
20
11.5072319544669
30
0
41
1
10
215.189369507158
20
11.5098757917714
30
0
41
1
10
215.22639998813
20
11.511199124426
30
0
0
SPLINE
5
21F
100
AcDbEntity
8
1
62
256
6
ByLayer
370
-1
48
1
60
0
100
AcDbSpline
70
4
71
1
72
4
73
2
40
0
40
0
40
1
40
1
41
1
10
213.125906019773
20
27.8973307245767
30
0
41
1
10
212.713091584485
20
27.8831242103203
30
0
0
SPLINE
5
220
100
AcDbEntity
8
1
62
256
6
ByLayer
370
-1
48
1
60
0
100
AcDbSpline
70
4
71
1
72
4
73
2
40
0
40
0
40
1
40
1
41
1
10
229.743565225735
20
13.9722897402524
30
0
41
1
10
230.165065064323
20
13.9862116824029
30
0
0
SPLINE
5
221
100
AcDbEntity
8
1
62
256
6
ByLayer
370
-1
48
1
60
0
100
AcDbSpline
70
4
71
3
72
8
73
4
40
0
40
0
40
0
40
0
40
1
40
1
40
1
40
1
41
1
10
212.572735719397
20
29.2292169779517
30
0
41
1
10
212.572725372289
20
29.2671962711632
30
0
41
1
10
212.576991474373
20
29.30468724211
30
0
41
1
10
212.585500824811
20
29.3416925051303
30
0
0
SPLINE
5
222
100
AcDbEntity
8
1
62
256
6
ByLayer
370
-1
48
1
60
0
100
AcDbSpline
70
4
71
3
72
15
73
11
40
0
40
0
40
0
40
0
40
0.250193815306125
40
0.500387630612249
40
0.750581445918374
40
0.875678353571436
40
0.938226807397967
40
0.969501034311233
40
0.985138147767866
40
1
40
1
40
1
40
1
41
1
10
212.880419159772
20
29.6118505792898
30
0
41
1
10
212.871982072697
20
29.6198072268239
30
0
41
1
10
212.855107898546
20
29.635720521892
30
0
41
1
10
212.829801597791
20
29.6595857864906
30
0
41
1
10
212.808689038217
20
29.67949611734
30
0
41
1
10
212.793961339372
20
29.6933851654979
30
0
41
1
10
212.786523082876
20
29.7003998596303
30
0
41
1
10
212.782915565238
20
29.7038019516163
30
0
41
1
10
212.780683630208
20
29.7059067918522
30
0
41
1
10
212.780089670882
20
29.7064669288952
30
0
41
1
10
212.779169580129
20
29.7073346262129
30
0
0
SPLINE
5
223
100
AcDbEntity
8
1
62
256
6
ByLayer
370
-1
48
1
60
0
100
AcDbSpline
70
4
71
3
72
15
73
11
40
0
40
0
40
0
40
0
40
0.014644096970161
40
0.0302846668595236
40
0.0615658066382486
40
0.124128086195699
40
0.249252645310599
40
0.499501763540399
40
0.7497508817702
40
1
40
1
40
1
40
1
41
1
10
212.577717873612
20
28.9292087983653
30
0
41
1
10
212.578845159066
20
28.9292483144113
30
0
41
1
10
212.579277943595
20
28.9292634853099
30
0
41
1
10
212.581460374757
20
28.9293399886036
30
0
41
1
10
212.585010336799
20
28.9294644295451
30
0
41
1
10
212.592323021691
20
28.9297207695798
30
0
41
1
10
212.606806550936
20
28.9302284775481
30
0
41
1
10
212.627566876408
20
28.9309562133429
30
0
41
1
10
212.65245184447
20
28.9318285350238
30
0
41
1
10
212.66904497519
20
28.9324101933021
30
0
41
1
10
212.67734154055
20
28.9327010224413
30
0
0
SPLINE
5
224
100
AcDbEntity
8
1
62
256
6
ByLayer
370
-1
48
1
60
0
100
AcDbSpline
70
4
71
3
72
8
73
4
40
0
40
0
40
0
40
0
40
1
40
1
40
1
40
1
41
1
10
229.065821314459
20
29.0344631681954
30
0
41
1
10
229.06882485467
20
29.148768695891
30
0
41
1
10
229.068411805295
20
29.28435238475
30
0
41
1
10
229.064636550287
20
29.423362671603
30
0
0
SPLINE
5
225
100
AcDbEntity
8
1
62
256
6
ByLayer
370
-1
48
1
60
0
100
AcDbSpline
70
4
71
3
72
97
73
93
40
0
40
0
40
0
40
0
40
0.03125
40
0.0625
40
0.125
40
0.140625
40
0.15625
40
0.1875
40
0.25
40
0.28125
40
0.2890625
40
0.29296875
40
0.29345703125
40
0.2939453125
40
0.294189453125
40
0.29443359375
40
0.294921875
40
0.296875
40
0.3046875
40
0.3125
40
0.3203125
40
0.328125
40
0.34375
40
0.359375
40
0.3671875
40
0.37109375
40
0.375
40
0.37548828125
40
0.3759765625
40
0.376953125
40
0.37744140625
40
0.3779296875
40
0.37890625
40
0.380859375
40
0.3828125
40
0.38671875
40
0.390625
40
0.3984375
40
0.400390625
40
0.4013671875
40
0.40234375
40
0.40625
40
0.4375
40
0.453125
40
0.46875
40
0.484375
40
0.4921875
40
0.49609375
40
0.498046875
40
0.4990234375
40
0.49951171875
40
0.5
40
0.50048828125
40
0.5009765625
40
0.501953125
40
0.50390625
40
0.5078125
40
0.515625
40
0.53125
40
0.546875
40
0.5625
40
0.59375
40
0.595703125
40
0.59765625
40
0.5986328125
40
0.599609375
40
0.6015625
40
0.609375
40
0.6171875
40
0.62109375
40
0.623046875
40
0.6240234375
40
0.625
40
0.62548828125
40
0.6328125
40
0.640625
40
0.65625
40
0.6640625
40
0.671875
40
0.6875
40
0.703125
40
0.705078125
40
0.70556640625
40
0.705810546875
40
0.7060546875
40
0.70654296875
40
0.70703125
40
0.7109375
40
0.71875
40
0.75
40
0.875
40
1
40
1
40
1
40
1
41
1
10
214.475407706225
20
27.9459433043848
30
0
41
1
10
214.475322375922
20
27.9483961784828
30
0
41
1
10
214.475272049676
20
27.9533061294492
30
0
41
1
10
214.475651239692
20
27.9631192140878
30
0
41
1
10
214.476610862156
20
27.9716657032043
30
0
41
1
10
214.47787904356
20
27.9789184192835
30
0
41
1
10
214.478842580086
20
27.9837312748625
30
0
41
1
10
214.480836747356
20
27.9920877498528
30
0
41
1
10
214.483810660102
20
28.0014527445127
30
0
41
1
10
214.486776776696
20
28.0088554509842
30
0
41
1
10
214.488126360909
20
28.0119464189247
30
0
41
1
10
214.488517787991
20
28.0128209476952
30
0
41
1
10
214.488675558627
20
28.0131702138318
30
0
41
1
10
214.488715067917
20
28.0132575000168
30
0
41
1
10
214.488746715312
20
28.013327310725
30
0
41
1
10
214.488778389345
20
28.013397109263
30
0
41
1
10
214.488865602796
20
28.0135890049991
30
0
41
1
10
214.489199997293
20
28.0143210572826
30
0
41
1
10
214.489782814872
20
28.0155715826556
30
0
41
1
10
214.490580198881
20
28.0172292682168
30
0
41
1
10
214.491397754974
20
28.0188770228893
30
0
41
1
10
214.492514563452
20
28.0210604555538
30
0
41
1
10
214.493960395168
20
28.0237636727347
30
0
41
1
10
214.495471842915
20
28.0264304631452
30
0
41
1
10
214.49656387839
20
28.0282772198783
30
0
41
1
10
214.497197558337
20
28.0293266714961
30
0
41
1
10
214.497537611159
20
28.0298821029906
30
0
41
1
10
214.497738767086
20
28.0302081286586
30
0
41
1
10
214.497819329389
20
28.0303384767436
30
0
41
1
10
214.497900041509
20
28.0304687314478
30
0
41
1
10
214.497980903282
20
28.0305988925555
30
0
41
1
10
214.498061864769
20
28.0307289911938
30
0
41
1
10
214.498203808977
20
28.03095649964
30
0
41
1
10
214.498407333041
20
28.031281041569
30
0
41
1
10
214.498734560844
20
28.0317993010992
30
0
41
1
10
214.499146568981
20
28.0324452277244
30
0
41
1
10
214.499812097233
20
28.0334746249334
30
0
41
1
10
214.500402686471
20
28.0343699371441
30
0
41
1
10
214.500872075885
20
28.0350697910373
30
0
41
1
10
214.501043345817
20
28.035323888289
30
0
41
1
10
214.50130083293
20
28.0357046382313
30
0
41
1
10
214.502897635842
20
28.0380464789198
30
0
41
1
10
214.505232105412
20
28.0412752762557
30
0
41
1
10
214.508248134039
20
28.0451396565969
30
0
41
1
10
214.510580230045
20
28.0479814144817
30
0
41
1
10
214.512580919562
20
28.0503009687968
30
0
41
1
10
214.514010884602
20
28.051898381424
30
0
41
1
10
214.514733164265
20
28.0526904223475
30
0
41
1
10
214.5150961192
20
28.053084764394
30
0
41
1
10
214.515278049296
20
28.053281514305
30
0
41
1
10
214.51538213851
20
28.0533938222923
30
0
41
1
10
214.515460269958
20
28.0534779929622
30
0
41
1
10
214.515538465903
20
28.0535621032578
30
0
41
1
10
214.515642813093
20
28.0536741697596
30
0
41
1
10
214.51582564606
20
28.0538700745137
30
0
41
1
10
214.516192212117
20
28.0542610362716
30
0
41
1
10
214.516928933374
20
28.0550395587495
30
0
41
1
10
214.518416641635
20
28.056582919267
30
0
41
1
10
214.520582179482
20
28.0587481628265
30
0
41
1
10
214.523243548788
20
28.0612816955
30
0
41
1
10
214.526873458856
20
28.0645714354536
30
0
41
1
10
214.529802142665
20
28.0670357700754
30
0
41
1
10
214.531955484809
20
28.0687538060966
30
0
41
1
10
214.53225528763
20
28.0689915001332
30
0
41
1
10
214.532495564778
20
28.0691811006822
30
0
41
1
10
214.532736131313
20
28.0693703309665
30
0
41
1
10
214.533398880779
20
28.0698891849351
30
0
41
1
10
214.534489854631
20
28.0707298554877
30
0
41
1
10
214.53571338544
20
28.0716489130148
30
0
41
1
10
214.536575718452
20
28.0722842870426
30
0
41
1
10
214.537008338968
20
28.0725999724603
30
0
41
1
10
214.5372559645
20
28.0727797908093
30
0
41
1
10
214.537410902541
20
28.072891938096
30
0
41
1
10
214.537969143198
20
28.0732950217323
30
0
41
1
10
214.538965962719
20
28.0740054812714
30
0
41
1
10
214.540944917857
20
28.075380636052
30
0
41
1
10
214.542980708061
20
28.0767402770542
30
0
41
1
10
214.545040964407
20
28.0780620189225
30
0
41
1
10
214.547117212534
20
28.0793583088676
30
0
41
1
10
214.549741909198
20
28.0809306005042
30
0
41
1
10
214.552004850407
20
28.0822117783671
30
0
41
1
10
214.553245520252
20
28.0828917318358
30
0
41
1
10
214.553430136394
20
28.0829924511379
30
0
41
1
10
214.55349729048
20
28.0830290376094
30
0
41
1
10
214.553564458519
20
28.0830655982558
30
0
41
1
10
214.553648444709
20
28.0831112506309
30
0
41
1
10
214.553984528702
20
28.0832936017095
30
0
41
1
10
214.554826302852
20
28.0837465708845
30
0
41
1
10
214.557803865701
20
28.085313625237
30
0
41
1
10
214.56935332795
20
28.0909457936875
30
0
41
1
10
214.590275876977
20
28.0981262908995
30
0
41
1
10
214.609756717981
20
28.1007442279391
30
0
41
1
10
214.619530878667
20
28.101086852943
30
0
0
SPLINE
5
226
100
AcDbEntity
8
1
62
256
6
ByLayer
370
-1
48
1
60
0
100
AcDbSpline
70
4
71
1
72
4
73
2
40
0
40
0
40
1
40
1
41
1
10
213.217208641411
20
13.3919572185434
30
0
41
1
10
213.630023076699
20
13.4061637327998
30
0
0
SPLINE
5
227
100
AcDbEntity
8
1
62
256
6
ByLayer
370
-1
48
1
60
0
100
AcDbSpline
70
4
71
3
72
15
73
11
40
0
40
0
40
0
40
0
40
0.250193815306112
40
0.500387630612225
40
0.750581445918337
40
0.875678353571393
40
0.938226807397921
40
0.969501034311185
40
0.985138147767817
40
1
40
1
40
1
40
1
41
1
10
213.504259608563
20
11.6791581709416
30
0
41
1
10
213.496396142666
20
11.6706257110893
30
0
41
1
10
213.480669210872
20
11.6535607913849
30
0
41
1
10
213.4570834364
20
11.6279684283728
30
0
41
1
10
213.437406278783
20
11.6066172125637
30
0
41
1
10
213.423679887604
20
11.5917230319072
30
0
41
1
10
213.416747343734
20
11.5842006934092
30
0
41
1
10
213.413385094219
20
11.5805523964148
30
0
41
1
10
213.411304904121
20
11.5782952316061
30
0
41
1
10
213.410751326938
20
11.577694558168
30
0
41
1
10
213.409893791369
20
11.5767640667147
30
0
0
SPLINE
5
228
100
AcDbEntity
8
1
62
256
6
ByLayer
370
-1
48
1
60
0
100
AcDbSpline
70
4
71
3
72
25
73
21
40
0
40
0
40
0
40
0
40
0.125
40
0.1875
40
0.21875
40
0.234375
40
0.25
40
0.3125
40
0.34375
40
0.375
40
0.5
40
0.625
40
0.6875
40
0.71875
40
0.7265625
40
0.734375
40
0.75
40
0.8125
40
0.875
40
1
40
1
40
1
40
1
41
1
10
212.67734154055
20
28.9327010224413
30
0
41
1
10
212.67757813261
20
28.9497770821736
30
0
41
1
10
212.678004307492
20
28.9753676661193
30
0
41
1
10
212.678593335405
20
29.0052301647359
30
0
41
1
10
212.678928871151
20
29.0201285325921
30
0
41
1
10
212.679134897914
20
29.0286282181058
30
0
41
1
10
212.679459541222
20
29.0413609521924
30
0
41
1
10
212.679887547923
20
29.0561602119622
30
0
41
1
10
212.680428060611
20
29.0730803756711
30
0
41
1
10
212.681282070998
20
29.098507405091
30
0
41
1
10
212.682694786073
20
29.1369848673652
30
0
41
1
10
212.684483169076
20
29.1794875200322
30
0
41
1
10
212.685848875202
20
29.2094519882221
30
0
41
1
10
212.686511589271
20
29.2230890675178
30
0
41
1
10
212.686820311814
20
29.2297018074787
30
0
41
1
10
212.687030069324
20
29.2327221187027
30
0
41
1
10
212.687706018447
20
29.242052403004
30
0
41
1
10
212.689287309601
20
29.2567694345321
30
0
41
1
10
212.69344517674
20
29.2829234493123
30
0
41
1
10
212.698045102366
20
29.3021527101324
30
0
41
1
10
212.701743476184
20
29.3146983786024
30
0
0
SPLINE
5
229
100
AcDbEntity
8
1
62
256
6
ByLayer
370
-1
48
1
60
0
100
AcDbSpline
70
4
71
3
72
8
73
4
40
0
40
0
40
0
40
0
40
1
40
1
40
1
40
1
41
1
10
213.158501022447
20
12.2479553097227
30
0
41
1
10
213.159217055545
20
12.2316378731434
30
0
41
1
10
213.160012739249
20
12.2153237633519
30
0
41
1
10
213.160887630716
20
12.1990141383016
30
0
0
SPLINE
5
22A
100
AcDbEntity
8
1
62
256
6
ByLayer
370
-1
48
1
60
0
100
AcDbSpline
70
4
71
3
72
8
73
4
40
0
40
0
40
0
40
0
40
1
40
1
40
1
40
1
41
1
10
230.78766169663
20
14.0075441977033
30
0
41
1
10
230.906272336847
20
14.0116703919599
30
0
41
1
10
231.024866782492
20
14.0158499996333
30
0
41
1
10
231.138292866558
20
14.019901443613
30
0
0
SPLINE
5
22B
100
AcDbEntity
8
1
62
256
6
ByLayer
370
-1
48
1
60
0
100
AcDbSpline
70
4
71
3
72
8
73
4
40
0
40
0
40
0
40
0
40
1
40
1
40
1
40
1
41
1
10
229.058607892253
20
29.6453464795001
30
0
41
1
10
229.055398925496
20
29.7635052233252
30
0
41
1
10
229.05059681431
20
29.8831935272842
30
0
41
1
10
229.044410179585
20
29.9992117032489
30
0
0
SPLINE
5
22C
100
AcDbEntity
8
1
62
256
6
ByLayer
370
-1
48
1
60
0
100
AcDbSpline
70
4
71
3
72
8
73
4
40
0
40
0
40
0
40
0
40
1
40
1
40
1
40
1
41
1
10
231.677906530436
20
12.688015190238
30
0
41
1
10
231.677910454314
20
12.6500358970264
30
0
41
1
10
231.673650995243
20
12.6125449260797
30
0
41
1
10
231.665140743818
20
12.5755396630594
30
0
0
SPLINE
5
22D
100
AcDbEntity
8
1
62
256
6
ByLayer
370
-1
48
1
60
0
100
AcDbSpline
70
4
71
3
72
8
73
4
40
0
40
0
40
0
40
0
40
1
40
1
40
1
40
1
41
1
10
230.060711857974
20
28.4909593440937
30
0
41
1
10
229.921169928308
20
28.4861049979096
30
0
41
1
10
229.781798555861
20
28.4813703111641
30
0
41
1
10
229.660948007397
20
28.4773786741798
30
0
0
SPLINE
5
22E
100
AcDbEntity
8
1
62
256
6
ByLayer
370
-1
48
1
60
0
100
AcDbSpline
70
4
71
1
72
4
73
2
40
0
40
0
40
1
40
1
41
1
10
229.044410179585
20
29.9992117032489
30
0
41
1
10
229.022716552608
20
30.4060330437637
30
0
0
SPLINE
5
22F
100
AcDbEntity
8
1
62
256
6
ByLayer
370
-1
48
1
60
0
100
AcDbSpline
70
4
71
3
72
8
73
4
40
0
40
0
40
0
40
0
40
1
40
1
40
1
40
1
41
1
10
231.095716639712
20
29.5783417114376
30
0
41
1
10
231.094661980757
20
29.6086585571549
30
0
41
1
10
231.093470084281
20
29.6389709151626
30
0
41
1
10
231.092140466764
20
29.669276858467
30
0
0
SPLINE
5
230
100
AcDbEntity
8
1
62
256
6
ByLayer
370
-1
48
1
60
0
100
AcDbSpline
70
4
71
3
72
8
73
4
40
0
40
0
40
0
40
0
40
1
40
1
40
1
40
1
41
1
10
230.165065064323
20
13.9862116824029
30
0
41
1
10
230.285915612787
20
13.9902033193872
30
0
41
1
10
230.425286985234
20
13.9949380061327
30
0
41
1
10
230.5648289149
20
13.9997923523168
30
0
0
SPLINE
5
231
100
AcDbEntity
8
1
62
256
6
ByLayer
370
-1
48
1
60
0
100
AcDbSpline
70
4
71
3
72
15
73
11
40
0
40
0
40
0
40
0
40
0.250244249035879
40
0.500488498071758
40
0.750732747107637
40
0.875854871625577
40
0.938415933884547
40
0.969696465014032
40
0.985336730578774
40
1
40
1
40
1
40
1
41
1
10
231.085783288119
20
12.1052132724863
30
0
41
1
10
231.088769532732
20
12.0956502249267
30
0
41
1
10
231.094742021956
20
12.0765241298074
30
0
41
1
10
231.103699022543
20
12.0478405376315
30
0
41
1
10
231.111171567077
20
12.0239107167205
30
0
41
1
10
231.116384495768
20
12.0072170122635
30
0
41
1
10
231.119016958875
20
11.9987869024902
30
0
41
1
10
231.120294192286
20
11.9946967339209
30
0
41
1
10
231.121080919945
20
11.9921773441861
30
0
41
1
10
231.121268317128
20
11.9915772298617
30
0
41
1
10
231.121621908199
20
11.9904449019136
30
0
0
SPLINE
5
232
100
AcDbEntity
8
1
62
256
6
ByLayer
370
-1
48
1
60
0
100
AcDbSpline
70
4
71
3
72
8
73
4
40
0
40
0
40
0
40
0
40
1
40
1
40
1
40
1
41
1
10
215.174076718625
20
12.8827689999943
30
0
41
1
10
215.185033154037
20
12.7684634722987
30
0
41
1
10
215.194053444328
20
12.6328797834398
30
0
41
1
10
215.199949937182
20
12.4938694965867
30
0
0
SPLINE
5
233
100
AcDbEntity
8
1
62
256
6
ByLayer
370
-1
48
1
60
0
100
AcDbSpline
70
4
71
3
72
8
73
4
40
0
40
0
40
0
40
0
40
1
40
1
40
1
40
1
41
1
10
214.045636361613
20
11.3708228876942
30
0
41
1
10
213.992493366888
20
11.3699685226835
30
0
41
1
10
213.939346462134
20
11.3695514157238
30
0
41
1
10
213.886192364428
20
11.3695413536262
30
0
0
SPLINE
5
234
100
AcDbEntity
8
1
62
256
6
ByLayer
370
-1
48
1
60
0
100
AcDbSpline
70
4
71
3
72
8
73
4
40
0
40
0
40
0
40
0
40
1
40
1
40
1
40
1
41
1
10
214.094438037078
20
11.371844941617
30
0
41
1
10
214.078172758052
20
11.3714244529751
30
0
41
1
10
214.061905438984
20
11.3710844410605
30
0
41
1
10
214.045636361613
20
11.3708228876698
30
0
0
SPLINE
5
235
100
AcDbEntity
8
1
62
256
6
ByLayer
370
-1
48
1
60
0
100
AcDbSpline
70
4
71
3
72
8
73
4
40
0
40
0
40
0
40
0
40
1
40
1
40
1
40
1
41
1
10
213.239907395581
20
29.9474051251011
30
0
41
1
10
213.202165996198
20
29.9447551611845
30
0
41
1
10
213.165205644271
20
29.9378770430047
30
0
41
1
10
213.129023345161
20
29.926775466419
30
0
0
SPLINE
5
236
100
AcDbEntity
8
1
62
256
6
ByLayer
370
-1
48
1
60
0
100
AcDbSpline
70
4
71
3
72
9
73
5
40
0
40
0
40
0
40
0
40
0.5
40
1
40
1
40
1
40
1
41
1
10
212.880419159772
20
29.6118505792898
30
0
41
1
10
212.916619341144
20
29.6557762316048
30
0
41
1
10
213.002537472815
20
29.7361533244853
30
0
41
1
10
213.10816326933
20
29.7916969726698
30
0
41
1
10
213.16309060392
20
29.8120188957034
30
0
0
SPLINE
5
237
100
AcDbEntity
8
1
62
256
6
ByLayer
370
-1
48
1
60
0
100
AcDbSpline
70
4
71
3
72
9
73
5
40
0
40
0
40
0
40
0
40
0.5
40
1
40
1
40
1
40
1
41
1
10
213.80079908195
20
11.4992799699562
30
0
41
1
10
213.744522880426
20
11.5157431034194
30
0
41
1
10
213.635127545748
20
11.5637774348156
30
0
41
1
10
213.543571744863
20
11.6378967195329
30
0
41
1
10
213.504259608563
20
11.6791581709416
30
0
0
SPLINE
5
238
100
AcDbEntity
8
1
62
256
6
ByLayer
370
-1
48
1
60
0
100
AcDbSpline
70
4
71
3
72
8
73
4
40
0
40
0
40
0
40
0
40
1
40
1
40
1
40
1
41
1
10
213.48031216932
20
27.9096879704864
30
0
41
1
10
213.363504581273
20
27.9055617762298
30
0
41
1
10
213.243633319264
20
27.9013821685564
30
0
41
1
10
213.125906019773
20
27.8973307245767
30
0
0
SPLINE
5
239
100
AcDbEntity
8
1
62
256
6
ByLayer
370
-1
48
1
60
0
100
AcDbSpline
70
4
71
1
72
4
73
2
40
0
40
0
40
1
40
1
41
1
10
230.283544639704
20
28.4987111894802
30
0
41
1
10
230.060711857974
20
28.4909593440937
30
0
0
SPLINE
5
23A
100
AcDbEntity
8
1
62
256
6
ByLayer
370
-1
48
1
60
0
100
AcDbSpline
70
4
71
3
72
25
73
21
40
0
40
0
40
0
40
0
40
0.125
40
0.1875
40
0.25
40
0.265625
40
0.2734375
40
0.28125
40
0.3125
40
0.375
40
0.5
40
0.625
40
0.65625
40
0.6875
40
0.75
40
0.765625
40
0.78125
40
0.8125
40
0.875
40
1
40
1
40
1
40
1
41
1
10
213.304724005024
20
11.9630388547988
30
0
41
1
10
213.300115969384
20
11.9752887721191
30
0
41
1
10
213.294127460584
20
11.9941432793638
30
0
41
1
10
213.288092712293
20
12.0199385620476
30
0
41
1
10
213.285458354782
20
12.0345083549344
30
0
41
1
10
213.284119771504
20
12.0437676243714
30
0
41
1
10
213.283691961692
20
12.0467658215803
30
0
41
1
10
213.282928985313
20
12.0533404962772
30
0
41
1
10
213.281324225093
20
12.066898214679
30
0
41
1
10
213.277893154239
20
12.0966947870018
30
0
41
1
10
213.273172479622
20
12.138968880484
30
0
41
1
10
213.269106481852
20
12.1772534453415
30
0
41
1
10
213.266497283645
20
12.2025593508137
30
0
41
1
10
213.264788499302
20
12.2194007113199
30
0
41
1
10
213.263338496838
20
12.2341335385208
30
0
41
1
10
213.262134851204
20
12.2468123509634
30
0
41
1
10
213.261342115557
20
12.2552768314695
30
0
41
1
10
213.259978322898
20
12.2701153753186
30
0
41
1
10
213.257328581912
20
12.2998640429629
30
0
41
1
10
213.255136271308
20
12.3253625128464
30
0
41
1
10
213.253721199292
20
12.3423804064223
30
0
0
SPLINE
5
23B
100
AcDbEntity
8
1
62
256
6
ByLayer
370
-1
48
1
60
0
100
AcDbSpline
70
4
71
1
72
4
73
2
40
0
40
0
40
1
40
1
41
1
10
229.610100444995
20
13.3888117021806
30
0
41
1
10
229.571886834744
20
13.7874839637925
30
0
0
SPLINE
5
23C
100
AcDbEntity
8
1
62
256
6
ByLayer
370
-1
48
1
60
0
100
AcDbSpline
70
4
71
1
72
4
73
2
40
0
40
0
40
1
40
1
41
1
10
213.984429226246
20
13.4185209787095
30
0
41
1
10
214.203874629494
20
13.426272824096
30
0
0
SPLINE
5
23D
100
AcDbEntity
8
1
62
256
6
ByLayer
370
-1
48
1
60
0
100
AcDbSpline
70
4
71
3
72
25
73
21
40
0
40
0
40
0
40
0
40
0.125
40
0.1875
40
0.25
40
0.265625
40
0.2734375
40
0.28125
40
0.3125
40
0.375
40
0.5
40
0.625
40
0.65625
40
0.6875
40
0.75
40
0.765625
40
0.78125
40
0.8125
40
0.875
40
1
40
1
40
1
40
1
41
1
10
231.085783288119
20
12.1052132724863
30
0
41
1
10
231.07357802983
20
12.1005895979711
30
0
41
1
10
231.054794917664
20
12.0945785673989
30
0
41
1
10
231.029102307478
20
12.0885162364489
30
0
41
1
10
231.014592298672
20
12.0858674579155
30
0
41
1
10
231.005371680719
20
12.0845203312462
30
0
41
1
10
231.002386113955
20
12.0840896612052
30
0
41
1
10
230.99583888313
20
12.0833213358655
30
0
41
1
10
230.982337806701
20
12.0817053756683
30
0
41
1
10
230.952665678671
20
12.0782500970972
30
0
41
1
10
230.910568176814
20
12.073495604262
30
0
41
1
10
230.872443512503
20
12.069399804519
30
0
41
1
10
230.847243359777
20
12.0667711473428
30
0
41
1
10
230.83047238827
20
12.065049509108
30
0
41
1
10
230.815801141653
20
12.0635884290654
30
0
41
1
10
230.803175315154
20
12.0623754283619
30
0
41
1
10
230.794746206342
20
12.0615764907266
30
0
41
1
10
230.779969665925
20
12.0602019291524
30
0
41
1
10
230.750345292019
20
12.0575309331443
30
0
41
1
10
230.724953360747
20
12.0553207027111
30
0
41
1
10
230.708006569976
20
12.0538938565323
30
0
0
SPLINE
5
23E
100
AcDbEntity
8
1
62
256
6
ByLayer
370
-1
48
1
60
0
100
AcDbSpline
70
4
71
3
72
8
73
4
40
0
40
0
40
0
40
0
40
1
40
1
40
1
40
1
41
1
10
231.059353612628
20
29.9892779179577
30
0
41
1
10
231.018580042867
20
30.1231561606429
30
0
41
1
10
230.942741108799
20
30.2449921462789
30
0
41
1
10
230.840743551306
20
30.3404635159808
30
0
0
SPLINE
5
23F
100
AcDbEntity
8
1
62
256
6
ByLayer
370
-1
48
1
60
0
100
AcDbSpline
70
4
71
1
72
4
73
2
40
0
40
0
40
1
40
1
41
1
10
229.645389700068
20
12.777928390876
30
0
41
1
10
229.635973663552
20
12.999912198773
30
0
0
SPLINE
5
240
100
AcDbEntity
8
1
62
256
6
ByLayer
370
-1
48
1
60
0
100
AcDbSpline
70
4
71
3
72
15
73
11
40
0
40
0
40
0
40
0
40
0.424997863749041
40
0.849995727498082
40
0.956245193435342
40
0.982807559919657
40
0.996088743161815
40
0.997748891067084
40
0.999409038972354
40
1
40
1
40
1
40
1
41
1
10
213.217208641411
20
13.3919572185434
30
0
41
1
10
213.222381231527
20
13.243267809767
30
0
41
1
10
213.232723616777
20
12.9458920061862
30
0
41
1
10
213.244371728562
20
12.6113302418575
30
0
41
1
10
213.25114939715
20
12.4161876752493
30
0
41
1
10
213.25293511847
20
12.3650674226245
30
0
41
1
10
213.253433293104
20
12.3505545056434
30
0
41
1
10
213.253640875365
20
12.3447403431121
30
0
41
1
10
213.253680906775
20
12.3433730474403
30
0
41
1
10
213.25371910036
20
12.3425873268428
30
0
41
1
10
213.25373113397
20
12.3423809984418
30
0
0
SPLINE
5
241
100
AcDbEntity
8
1
62
256
6
ByLayer
370
-1
48
1
60
0
100
AcDbSpline
70
4
71
3
72
15
73
11
40
0
40
0
40
0
40
0
40
0.0146440969700153
40
0.0302846668593801
40
0.0615658066381098
40
0.124128086195569
40
0.249252645310488
40
0.499501763540325
40
0.749750881770163
40
1
40
1
40
1
40
1
41
1
10
231.672923695017
20
12.9880233698244
30
0
41
1
10
231.671796409563
20
12.9879838537784
30
0
41
1
10
231.671363625034
20
12.9879686828798
30
0
41
1
10
231.669181193872
20
12.9878921795861
30
0
41
1
10
231.66563123183
20
12.9877677386446
30
0
41
1
10
231.658318546938
20
12.9875113986099
30
0
41
1
10
231.643835017693
20
12.9870036906416
30
0
41
1
10
231.623074692221
20
12.9862759548468
30
0
41
1
10
231.598189724159
20
12.985403633166
30
0
41
1
10
231.581596593439
20
12.9848219748876
30
0
41
1
10
231.573300028079
20
12.9845311457484
30
0
0
SPLINE
5
242
100
AcDbEntity
8
1
62
256
6
ByLayer
370
-1
48
1
60
0
100
AcDbSpline
70
4
71
3
72
9
73
5
40
0
40
0
40
0
40
0
40
0.5
40
1
40
1
40
1
40
1
41
1
10
231.368712708269
20
12.3053815888999
30
0
41
1
10
231.332418366543
20
12.2614559365849
30
0
41
1
10
231.246360648976
20
12.1810788437044
30
0
41
1
10
231.140702659856
20
12.1255351955199
30
0
41
1
10
231.085783288119
20
12.1052132724863
30
0
0
SPLINE
5
243
100
AcDbEntity
8
1
62
256
6
ByLayer
370
-1
48
1
60
0
100
AcDbSpline
70
4
71
3
72
12
73
8
40
0
40
0
40
0
40
0
40
0.342482483786399
40
0.342482483786399
40
0.671240032903805
40
0.671240032903805
40
1
40
1
40
1
40
1
41
1
10
212.614295314111
20
27.87963426065
30
0
41
1
10
212.610127003528
20
27.9994550123981
30
0
41
1
10
212.606053686985
20
28.1192778706779
30
0
41
1
10
212.598055547953
20
28.3541206868834
30
0
41
1
10
212.594094652611
20
28.4691410252217
30
0
41
1
10
212.585954016423
20
28.6991759095303
30
0
41
1
10
212.581783861307
20
28.8141910455238
30
0
41
1
10
212.577782756226
20
28.9292110727709
30
0
0
SPLINE
5
244
100
AcDbEntity
8
1
62
256
6
ByLayer
370
-1
48
1
60
0
100
AcDbSpline
70
4
71
3
72
9
73
5
40
0
40
0
40
0
40
0
40
0.62500000000021
40
1
40
1
40
1
40
1
41
1
10
230.708006569976
20
12.0538938565323
30
0
41
1
10
230.708889733164
20
12.0330732143027
30
0
41
1
10
230.710302794265
20
11.9997601867354
30
0
41
1
10
230.711715855366
20
11.9664471591681
30
0
41
1
10
230.712245753279
20
11.9539547738304
30
0
0
SPLINE
5
245
100
AcDbEntity
8
1
62
256
6
ByLayer
370
-1
48
1
60
0
100
AcDbSpline
70
4
71
3
72
15
73
11
40
0
40
0
40
0
40
0
40
0.250193815306106
40
0.500387630612211
40
0.750581445918316
40
0.875678353571369
40
0.938226807397895
40
0.969501034311159
40
0.98513814776779
40
1
40
1
40
1
40
1
41
1
10
231.368712708269
20
12.3053815888999
30
0
41
1
10
231.377275603727
20
12.2974249413659
30
0
41
1
10
231.394401394642
20
12.2815116462977
30
0
41
1
10
231.420085046576
20
12.2576463816991
30
0
41
1
10
231.441512422976
20
12.2377360508497
30
0
41
1
10
231.456459731735
20
12.2238470026918
30
0
41
1
10
231.464008902698
20
12.2168323085594
30
0
41
1
10
231.467670213305
20
12.2134302165734
30
0
41
1
10
231.469935429505
20
12.2113253763374
30
0
41
1
10
231.470538245568
20
12.2107652392945
30
0
41
1
10
231.471472056119
20
12.2098975419768
30
0
0
SPLINE
5
246
100
AcDbEntity
8
1
62
256
6
ByLayer
370
-1
48
1
60
0
100
AcDbSpline
70
4
71
3
72
8
73
4
40
0
40
0
40
0
40
0
40
1
40
1
40
1
40
1
41
1
10
213.4098980178
20
11.5767686527148
30
0
41
1
10
213.511900576805
20
11.4812981080331
30
0
41
1
10
213.638264027758
20
11.4138556734679
30
0
41
1
10
213.774144499956
20
11.3823555620374
30
0
0
SPLINE
5
247
100
AcDbEntity
8
1
62
256
6
ByLayer
370
-1
48
1
60
0
100
AcDbSpline
70
4
71
3
72
8
73
4
40
0
40
0
40
0
40
0
40
1
40
1
40
1
40
1
41
1
10
214.619321907752
20
28.1297482043972
30
0
41
1
10
214.619102899612
20
28.1214134263361
30
0
41
1
10
214.619176915925
20
28.111261738203
30
0
41
1
10
214.619530878667
20
28.101086852943
30
0
0
SPLINE
5
248
100
AcDbEntity
8
1
62
256
6
ByLayer
370
-1
48
1
60
0
100
AcDbSpline
70
4
71
3
72
8
73
4
40
0
40
0
40
0
40
0
40
1
40
1
40
1
40
1
41
1
10
230.156202730973
20
30.5453872265728
30
0
41
1
10
230.172468871035
20
30.5458077152146
30
0
41
1
10
230.188737476083
20
30.5461477271292
30
0
41
1
10
230.205006432323
20
30.5464092805199
30
0
0
SPLINE
5
249
100
AcDbEntity
8
1
62
256
6
ByLayer
370
-1
48
1
60
0
100
AcDbSpline
70
4
71
1
72
4
73
2
40
0
40
0
40
1
40
1
41
1
10
229.662423714501
20
12.0172418266123
30
0
41
1
10
229.655812433116
20
12.4240631671271
30
0
0
SPLINE
5
24A
100
AcDbEntity
8
1
62
256
6
ByLayer
370
-1
48
1
60
0
100
AcDbSpline
70
4
71
3
72
25
73
21
40
0
40
0
40
0
40
0
40
0.125
40
0.1875
40
0.21875
40
0.234375
40
0.25
40
0.3125
40
0.34375
40
0.375
40
0.5
40
0.625
40
0.6875
40
0.71875
40
0.7265625
40
0.734375
40
0.75
40
0.8125
40
0.875
40
1
40
1
40
1
40
1
41
1
10
231.573300028079
20
12.9845311457484
30
0
41
1
10
231.573060808454
20
12.9674550860161
30
0
41
1
10
231.572630293889
20
12.9418645020704
30
0
41
1
10
231.572036263756
20
12.9120020034538
30
0
41
1
10
231.571697710011
20
12.8971036355977
30
0
41
1
10
231.571489745172
20
12.8886039500839
30
0
41
1
10
231.571161933224
20
12.8758712159973
30
0
41
1
10
231.570729365179
20
12.8610719562275
30
0
41
1
10
231.570183726578
20
12.8441517925186
30
0
41
1
10
231.569322729042
20
12.8187247630987
30
0
41
1
10
231.567904641255
20
12.7802473008245
30
0
41
1
10
231.566106453558
20
12.7377446481575
30
0
41
1
10
231.564737094279
20
12.7077801799676
30
0
41
1
10
231.564068533859
20
12.6941431006718
30
0
41
1
10
231.563761921051
20
12.687530360711
30
0
41
1
10
231.563532610979
20
12.6845100494871
30
0
41
1
10
231.562818273871
20
12.6751797651856
30
0
41
1
10
231.561165686174
20
12.6604627336576
30
0
41
1
10
231.556882500601
20
12.6343087188774
30
0
41
1
10
231.552186863456
20
12.6150794580574
30
0
41
1
10
231.54842444493
20
12.6025337895873
30
0
0
SPLINE
5
24B
100
AcDbEntity
8
1
62
256
6
ByLayer
370
-1
48
1
60
0
100
AcDbSpline
70
4
71
3
72
8
73
4
40
0
40
0
40
0
40
0
40
1
40
1
40
1
40
1
41
1
10
231.676630145622
20
12.848067964503
30
0
41
1
10
231.67748106168
20
12.794722170764
30
0
41
1
10
231.677901018829
20
12.7413677991103
30
0
41
1
10
231.67790653102
20
12.6880151902378
30
0
0
SPLINE
5
24C
100
AcDbEntity
8
1
62
256
6
ByLayer
370
-1
48
1
60
0
100
AcDbSpline
70
4
71
3
72
8
73
4
40
0
40
0
40
0
40
0
40
1
40
1
40
1
40
1
41
1
10
213.39905180244
20
29.9572919500568
30
0
41
1
10
213.345978891737
20
29.9544230051852
30
0
41
1
10
213.292927017339
20
29.9511278297922
30
0
41
1
10
213.239907395581
20
29.9474051251011
30
0
0
SPLINE
5
24D
100
AcDbEntity
8
1
62
256
6
ByLayer
370
-1
48
1
60
0
100
AcDbSpline
70
4
71
3
72
8
73
4
40
0
40
0
40
0
40
0
40
1
40
1
40
1
40
1
41
1
10
231.121618223468
20
11.9904567017706
30
0
41
1
10
231.254985989024
20
12.0313849860117
30
0
41
1
10
231.376356442444
20
12.1075116956866
30
0
41
1
10
231.471467454273
20
12.2099018180194
30
0
0
SPLINE
5
24E
100
AcDbEntity
8
1
62
256
6
ByLayer
370
-1
48
1
60
0
100
AcDbSpline
70
4
71
3
72
8
73
4
40
0
40
0
40
0
40
0
40
1
40
1
40
1
40
1
41
1
10
214.475407706225
20
27.9459433043848
30
0
41
1
10
214.465271539475
20
27.945587989562
30
0
41
1
10
214.455437621031
20
27.9452334848007
30
0
41
1
10
214.447643516761
20
27.9449424279373
30
0
0
SPLINE
5
24F
100
AcDbEntity
8
1
62
256
6
ByLayer
370
-1
48
1
60
0
100
AcDbSpline
70
4
71
3
72
8
73
4
40
0
40
0
40
0
40
0
40
1
40
1
40
1
40
1
41
1
10
213.154924928917
20
12.3388904567521
30
0
41
1
10
213.155979587872
20
12.3085736110348
30
0
41
1
10
213.157171153116
20
12.2782612530271
30
0
41
1
10
213.158501022447
20
12.2479553097227
30
0
0
SPLINE
5
250
100
AcDbEntity
8
1
62
256
6
ByLayer
370
-1
48
1
60
0
100
AcDbSpline
70
4
71
3
72
8
73
4
40
0
40
0
40
0
40
0
40
1
40
1
40
1
40
1
41
1
10
213.886192364424
20
11.3695413542075
30
0
41
1
10
213.848354382274
20
11.369534191458
30
0
41
1
10
213.811009397297
20
11.3738132551645
30
0
41
1
10
213.774144499981
20
11.3823555621531
30
0
0
SPLINE
5
251
100
AcDbEntity
8
1
62
256
6
ByLayer
370
-1
48
1
60
0
100
AcDbSpline
70
4
71
3
72
25
73
21
40
0
40
0
40
0
40
0
40
0.125
40
0.1875
40
0.21875
40
0.234375
40
0.25
40
0.3125
40
0.34375
40
0.375
40
0.5
40
0.625
40
0.6875
40
0.71875
40
0.7265625
40
0.734375
40
0.75
40
0.8125
40
0.875
40
1
40
1
40
1
40
1
41
1
10
230.069061922029
20
30.4426850736837
30
0
41
1
10
230.086071688416
20
30.442446259079
30
0
41
1
10
230.111562722622
20
30.4420162781483
30
0
41
1
10
230.141309084306
20
30.4414224895806
30
0
41
1
10
230.156149250374
20
30.4410841573791
30
0
41
1
10
230.164615622981
20
30.4408763708882
30
0
41
1
10
230.17729832085
20
30.4405488971233
30
0
41
1
10
230.192038984296
20
30.4401169661228
30
0
41
1
10
230.208892198718
20
30.439571816017
30
0
41
1
10
230.23421897704
20
30.4387110365301
30
0
41
1
10
230.272547334597
20
30.4372902284952
30
0
41
1
10
230.314883349492
20
30.4354900930866
30
0
41
1
10
230.344731967257
20
30.4341173366312
30
0
41
1
10
230.358314230174
20
30.4334491567606
30
0
41
1
10
230.36490286153
20
30.4331403138444
30
0
41
1
10
230.367901903277
20
30.4329199414706
30
0
41
1
10
230.377177489037
20
30.4322221430209
30
0
41
1
10
230.391802869545
20
30.4305990271496
30
0
41
1
10
230.417794701186
20
30.4263623790683
30
0
41
1
10
230.436902933104
20
30.4216968439134
30
0
41
1
10
230.449368839164
20
30.4179521982335
30
0
0
SPLINE
5
252
100
AcDbEntity
8
1
62
256
6
ByLayer
370
-1
48
1
60
0
100
AcDbSpline
70
4
71
3
72
15
73
11
40
0
40
0
40
0
40
0
40
0.25024424903588
40
0.50048849807176
40
0.750732747107639
40
0.875854871625579
40
0.938415933884549
40
0.969696465014034
40
0.985336730578777
40
1
40
1
40
1
40
1
41
1
10
213.16309060392
20
29.8120188957034
30
0
41
1
10
213.16025166569
20
29.8215819432631
30
0
41
1
10
213.15457378923
20
29.8407080383823
30
0
41
1
10
213.146058622293
20
29.8693916305582
30
0
41
1
10
213.138954685708
20
29.8933214514693
30
0
41
1
10
213.133998901949
20
29.9100151559262
30
0
41
1
10
213.131496293783
20
29.9184452656995
30
0
41
1
10
213.13028206413
20
29.9225354342688
30
0
41
1
10
213.129534144412
20
29.9250548240036
30
0
41
1
10
213.129355991215
20
29.925654938328
30
0
41
1
10
213.129019842191
20
29.9267872662761
30
0
0
SPLINE
5
253
100
AcDbEntity
8
1
62
256
6
ByLayer
370
-1
48
1
60
0
100
AcDbSpline
70
4
71
3
72
8
73
4
40
0
40
0
40
0
40
0
40
1
40
1
40
1
40
1
41
1
10
230.802834824911
20
11.9575445673172
30
0
41
1
10
230.819090236509
20
11.9582632674946
30
0
41
1
10
230.835342330674
20
11.9590619258491
30
0
41
1
10
230.851589834027
20
11.9599402181328
30
0
0
SPLINE
5
254
100
AcDbEntity
8
1
62
256
6
ByLayer
370
-1
48
1
60
0
100
AcDbSpline
70
4
71
3
72
8
73
4
40
0
40
0
40
0
40
0
40
1
40
1
40
1
40
1
41
1
10
213.191287956001
20
11.927954250232
30
0
41
1
10
213.232059465767
20
11.7940760075468
30
0
41
1
10
213.307894580821
20
11.6722400219109
30
0
41
1
10
213.409898017338
20
11.5767686522089
30
0
0
SPLINE
5
255
100
AcDbEntity
8
1
62
256
6
ByLayer
370
-1
48
1
60
0
100
AcDbSpline
70
4
71
3
72
9
73
5
40
0
40
0
40
0
40
0
40
0.5
40
1
40
1
40
1
40
1
41
1
10
230.449368839164
20
30.4179521982335
30
0
41
1
10
230.505479306757
20
30.4014890647703
30
0
41
1
10
230.61452262286
20
30.3534547333742
30
0
41
1
10
230.705726174624
20
30.2793354486569
30
0
41
1
10
230.744872259478
20
30.2380739972482
30
0
0
SPLINE
5
256
100
AcDbEntity
8
1
62
256
6
ByLayer
370
-1
48
1
60
0
100
AcDbSpline
70
4
71
3
72
25
73
21
40
0
40
0
40
0
40
0
40
0.125
40
0.1875
40
0.25
40
0.265625
40
0.2734375
40
0.28125
40
0.3125
40
0.375
40
0.5
40
0.625
40
0.65625
40
0.6875
40
0.75
40
0.765625
40
0.78125
40
0.8125
40
0.875
40
1
40
1
40
1
40
1
41
1
10
230.944149887015
20
29.954193313391
30
0
41
1
10
230.94875401145
20
29.9419433960705
30
0
41
1
10
230.954741816222
20
29.9230888888259
30
0
41
1
10
230.960785591831
20
29.8972936061421
30
0
41
1
10
230.963428632584
20
29.8827238132554
30
0
41
1
10
230.964774050197
20
29.8734645438184
30
0
41
1
10
230.965204302808
20
29.8704663466094
30
0
41
1
10
230.965972129688
20
29.8638916719125
30
0
41
1
10
230.96758699143
20
29.8503339535107
30
0
41
1
10
230.971040180962
20
29.8205373811879
30
0
41
1
10
230.975792307453
20
29.7782632877057
30
0
41
1
10
230.97988673766
20
29.7399787228482
30
0
41
1
10
230.982514848138
20
29.7146728173761
30
0
41
1
10
230.984236237557
20
29.6978314568698
30
0
41
1
10
230.985697275477
20
29.6830986296689
30
0
41
1
10
230.986910399582
20
29.6704198172263
30
0
41
1
10
230.987709458809
20
29.6619553367202
30
0
41
1
10
230.989084328054
20
29.6471167928711
30
0
41
1
10
230.991756251193
20
29.6173681252268
30
0
41
1
10
230.993967580267
20
29.5918696553433
30
0
41
1
10
230.995395341447
20
29.5748517617673
30
0
0
SPLINE
5
257
100
AcDbEntity
8
1
62
256
6
ByLayer
370
-1
48
1
60
0
100
AcDbSpline
70
4
71
3
72
8
73
4
40
0
40
0
40
0
40
0
40
1
40
1
40
1
40
1
41
1
10
231.089754005751
20
29.7182180298881
30
0
41
1
10
231.086895786502
20
29.7714934781782
30
0
41
1
10
231.083612847564
20
29.8247476982792
30
0
41
1
10
231.079904764046
20
29.8779703032749
30
0
0
SPLINE
5
258
100
AcDbEntity
8
1
62
256
6
ByLayer
370
-1
48
1
60
0
100
AcDbSpline
70
4
71
1
72
4
73
2
40
0
40
0
40
1
40
1
41
1
10
215.199949937182
20
12.4938694965867
30
0
41
1
10
215.209365973697
20
12.2718856886897
30
0
0
SPLINE
5
259
100
AcDbEntity
8
1
62
256
6
ByLayer
370
-1
48
1
60
0
100
AcDbSpline
70
4
71
1
72
4
73
2
40
0
40
0
40
1
40
1
41
1
10
229.055345634123
20
28.6357909065835
30
0
41
1
10
229.065821314459
20
29.0344631681954
30
0
0
SPLINE
5
25A
100
AcDbEntity
8
1
62
256
6
ByLayer
370
-1
48
1
60
0
100
AcDbSpline
70
4
71
3
72
15
73
11
40
0
40
0
40
0
40
0
40
0.0146440969701534
40
0.030284666859516
40
0.0615658066382413
40
0.124128086195692
40
0.249252645310593
40
0.499501763540395
40
0.749750881770198
40
1
40
1
40
1
40
1
41
1
10
230.065582986919
20
30.5426892868447
30
0
41
1
10
230.065622352595
20
30.5415576953434
30
0
41
1
10
230.065637465764
20
30.5411232576482
30
0
41
1
10
230.065713677939
20
30.5389324899531
30
0
41
1
10
230.065837645345
20
30.5353689676334
30
0
41
1
10
230.066093009929
20
30.5280283494727
30
0
41
1
10
230.066598785915
20
30.5134894954989
30
0
41
1
10
230.067323752456
20
30.4926498689564
30
0
41
1
10
230.068192754689
20
30.4676698443591
30
0
41
1
10
230.068772199582
20
30.4510133305755
30
0
41
1
10
230.069061922029
20
30.4426850736837
30
0
0
SPLINE
5
25B
100
AcDbEntity
8
1
62
256
6
ByLayer
370
-1
48
1
60
0
100
AcDbSpline
70
4
71
1
72
4
73
2
40
0
40
0
40
1
40
1
41
1
10
231.138292866558
20
14.019901443613
30
0
41
1
10
231.536024956253
20
14.0341079578694
30
0
0
SPLINE
5
25C
100
AcDbEntity
8
1
62
256
6
ByLayer
370
-1
48
1
60
0
100
AcDbSpline
70
4
71
1
72
4
73
2
40
0
40
0
40
1
40
1
41
1
10
214.586692826238
20
29.8999903415774
30
0
41
1
10
214.608386453215
20
29.4931690010626
30
0
0
SPLINE
5
25D
100
AcDbEntity
8
1
62
256
6
ByLayer
370
-1
48
1
60
0
100
AcDbSpline
70
4
71
3
72
20
73
16
40
0
40
0
40
0
40
0
40
0.0006369940731756
40
0.0022970655115922
40
0.0039571369500089
40
0.0172377084573421
40
0.0437988514720085
40
0.150043423530674
40
0.362532567648006
40
0.468777139706671
40
0.521899425736004
40
0.575021711765337
40
0.787510855882669
40
0.893755427941334
40
1
40
1
40
1
40
1
41
1
10
231.573289302522
20
12.984531029352
30
0
41
1
10
231.573286916753
20
12.9847541449901
30
0
41
1
10
231.573269973291
20
12.9855594304851
30
0
41
1
10
231.573214950886
20
12.9869450927046
30
0
41
1
10
231.573017366339
20
12.9927469031209
30
0
41
1
10
231.572507858991
20
13.0072753662719
30
0
41
1
10
231.570735580722
20
13.0583785986207
30
0
41
1
10
231.566508198939
20
13.179197914195
30
0
41
1
10
231.561257582412
20
13.3278800880021
30
0
41
1
10
231.556612324512
20
13.457972327495
30
0
41
1
10
231.553942132685
20
13.5323069488035
30
0
41
1
10
231.54994179806
20
13.6438118160064
30
0
41
1
10
231.545287538966
20
13.7739079980449
30
0
41
1
10
231.539989698244
20
13.9225934795602
30
0
41
1
10
231.537342785251
20
13.9969364962407
30
0
41
1
10
231.536024956253
20
14.0341079578694
30
0
0
SPLINE
5
25E
100
AcDbEntity
8
1
62
256
6
ByLayer
370
-1
48
1
60
0
100
AcDbSpline
70
4
71
3
72
15
73
11
40
0
40
0
40
0
40
0
40
0.250193815306095
40
0.500387630612191
40
0.750581445918286
40
0.875678353571334
40
0.938226807397858
40
0.96950103431112
40
0.98513814776775
40
1
40
1
40
1
40
1
41
1
10
230.744872259478
20
30.2380739972482
30
0
41
1
10
230.752861533758
20
30.2466064571004
30
0
41
1
10
230.768840082316
20
30.2636713768048
30
0
41
1
10
230.792803207967
20
30.2892637398169
30
0
41
1
10
230.812795182409
20
30.310614955626
30
0
41
1
10
230.826741183503
20
30.3255091362825
30
0
41
1
10
230.83378464184
20
30.3330314747805
30
0
41
1
10
230.837200684323
20
30.3366797717749
30
0
41
1
10
230.839314155592
20
30.3389369365836
30
0
41
1
10
230.839876589513
20
30.3395376100218
30
0
41
1
10
230.840747844879
20
30.340468101475
30
0
0
SPLINE
5
25F
100
AcDbEntity
8
1
62
256
6
ByLayer
370
-1
48
1
60
0
100
AcDbSpline
70
4
71
3
72
8
73
4
40
0
40
0
40
0
40
0
40
1
40
1
40
1
40
1
41
1
10
231.01073416268
20
11.9698270430886
30
0
41
1
10
231.04847621006
20
11.9724770070053
30
0
41
1
10
231.085437983851
20
11.979355125185
30
0
41
1
10
231.121618223468
20
11.9904567017707
30
0
0
SPLINE
5
260
100
AcDbEntity
8
1
62
256
6
ByLayer
370
-1
48
1
60
0
100
AcDbSpline
70
4
71
3
72
20
73
16
40
0
40
0
40
0
40
0
40
0.0006369940731799
40
0.0022970655115965
40
0.0039571369500132
40
0.0172377084573463
40
0.0437988514720127
40
0.150043423530678
40
0.362532567648009
40
0.468777139706674
40
0.521899425736006
40
0.575021711765339
40
0.78751085588267
40
0.893755427941335
40
1
40
1
40
1
40
1
41
1
10
212.67735226635
20
28.9327011388377
30
0
41
1
10
212.677354686302
20
28.9324780231997
30
0
41
1
10
212.677371752174
20
28.9316727377046
30
0
41
1
10
212.677426975386
20
28.9302870754852
30
0
41
1
10
212.677625340725
20
28.9244852650688
30
0
41
1
10
212.678136123224
20
28.9099568019178
30
0
41
1
10
212.679906508875
20
28.8588535695691
30
0
41
1
10
212.684079346155
20
28.7380342539946
30
0
41
1
10
212.689112987733
20
28.5893520801875
30
0
41
1
10
212.693442201231
20
28.4592598406947
30
0
41
1
10
212.695888562936
20
28.3849252193862
30
0
41
1
10
212.69958929627
20
28.2734203521833
30
0
41
1
10
212.703995644267
20
28.1433241701448
30
0
41
1
10
212.709152179117
20
27.9946386886295
30
0
41
1
10
212.711772819534
20
27.920295671949
30
0
41
1
10
212.713091584485
20
27.8831242103203
30
0
0
SPLINE
5
261
100
AcDbEntity
8
1
62
256
6
ByLayer
370
-1
48
1
60
0
100
AcDbSpline
70
4
71
1
72
4
73
2
40
0
40
0
40
1
40
1
41
1
10
229.064636550287
20
29.423362671603
30
0
41
1
10
229.058607892253
20
29.6453464795001
30
0
0
SPLINE
5
262
100
AcDbEntity
8
1
62
256
6
ByLayer
370
-1
48
1
60
0
100
AcDbSpline
70
4
71
3
72
8
73
4
40
0
40
0
40
0
40
0
40
1
40
1
40
1
40
1
41
1
10
214.185056315959
20
11.3746080118038
30
0
41
1
10
214.154854848713
20
11.3735493603602
30
0
41
1
10
214.124647111386
20
11.3726259040859
30
0
41
1
10
214.094438037079
20
11.371844941607
30
0
0
LINE
5
45
100
AcDbEntity
8
80
62
256
6
ByLayer
370
-1
48
1
60
0
100
AcDbLine
10
0
20
0
30
0
11
-7
21
0
31
0
39
0
210
0
220
0
230
1
0
LINE
5
46
100
AcDbEntity
8
81
62
256
6
ByLayer
370
-1
48
1
60
0
100
AcDbLine
10
232
20
0
30
0
11
239
21
0
31
0
39
0
210
0
220
0
230
1
0
LINE
5
47
100
AcDbEntity
8
1
62
256
6
ByLayer
370
-1
48
1
60
0
100
AcDbLine
10
0.2
20
31.25
30
0
11
0
21
31.05
31
0
39
0
210
0
220
0
230
1
0
LINE
5
49
100
AcDbEntity
8
1
62
256
6
ByLayer
370
-1
48
1
60
0
100
AcDbLine
10
0
20
-31.05
30
0
11
0.2
21
-31.25
31
0
39
0
210
0
220
0
230
1
0
LINE
5
4A
100
AcDbEntity
8
1
62
256
6
ByLayer
370
-1
48
1
60
0
100
AcDbLine
10
5
20
31.25
30
0
11
0.2
21
31.25
31
0
39
0
210
0
220
0
230
1
0
LINE
5
4B
100
AcDbEntity
8
1
62
256
6
ByLayer
370
-1
48
1
60
0
100
AcDbLine
10
0.2
20
-31.25
30
0
11
5
21
-31.25
31
0
39
0
210
0
220
0
230
1
0
LINE
5
4C
100
AcDbEntity
8
1
62
256
6
ByLayer
370
-1
48
1
60
0
100
AcDbLine
10
120.471196
20
29.6
30
0
11
42
21
29.6
31
0
39
0
210
0
220
0
230
1
0
LINE
5
4D
100
AcDbEntity
8
1
62
256
6
ByLayer
370
-1
48
1
60
0
100
AcDbLine
10
42
20
-29.6
30
0
11
96.664756
21
-29.6
31
0
39
0
210
0
220
0
230
1
0
LINE
5
4E
100
AcDbEntity
8
SK1
62
256
6
ByLayer
370
-1
48
1
60
0
100
AcDbLine
10
-2
20
-19.996
30
0
11
-1.552821
21
-19.787477
31
0
39
0
210
0
220
0
230
1
0
LINE
5
50
100
AcDbEntity
8
SK1
62
256
6
ByLayer
370
-1
48
1
60
0
100
AcDbLine
10
-1.552821
20
19.787477
30
0
11
-2
21
19.996
31
0
39
0
210
0
220
0
230
1
0
LINE
5
51
100
AcDbEntity
8
SK1
62
256
6
ByLayer
370
-1
48
1
60
0
100
AcDbLine
10
-2
20
19.996
30
0
11
-66.6
21
19.996
31
0
39
0
210
0
220
0
230
1
0
LINE
5
52
100
AcDbEntity
8
SK1
62
256
6
ByLayer
370
-1
48
1
60
0
100
AcDbLine
10
-66.6
20
-19.996
30
0
11
-2
21
-19.996
31
0
39
0
210
0
220
0
230
1
0
LINE
5
53
100
AcDbEntity
8
SK1
62
256
6
ByLayer
370
-1
48
1
60
0
100
AcDbLine
10
-0.15
20
19.75
30
0
11
-1.383773
21
19.75
31
0
39
0
210
0
220
0
230
1
0
LINE
5
54
100
AcDbEntity
8
SK1
62
256
6
ByLayer
370
-1
48
1
60
0
100
AcDbLine
10
-1.383773
20
-19.75
30
0
11
-0.15
21
-19.75
31
0
39
0
210
0
220
0
230
1
0
LINE
5
55
100
AcDbEntity
8
SK1
62
256
6
ByLayer
370
-1
48
1
60
0
100
AcDbLine
10
-68.6
20
-19.996
30
0
11
-68.516223
21
-19.892544
31
0
39
0
210
0
220
0
230
1
0
LINE
5
56
100
AcDbEntity
8
SK1
62
256
6
ByLayer
370
-1
48
1
60
0
100
AcDbLine
10
-68.516223
20
19.892544
30
0
11
-68.6
21
19.996
31
0
39
0
210
0
220
0
230
1
0
LINE
5
57
100
AcDbEntity
8
SK1
62
256
6
ByLayer
370
-1
48
1
60
0
100
AcDbLine
10
-68.6
20
19.996
30
0
11
-69
21
19.996
31
0
39
0
210
0
220
0
230
1
0
LINE
5
58
100
AcDbEntity
8
SK1
62
256
6
ByLayer
370
-1
48
1
60
0
100
AcDbLine
10
-69
20
-19.996
30
0
11
-68.6
21
-19.996
31
0
39
0
210
0
220
0
230
1
0
LINE
5
59
100
AcDbEntity
8
SK1
62
256
6
ByLayer
370
-1
48
1
60
0
100
AcDbLine
10
-66.6
20
19.996
30
0
11
-67.633814
21
19.639667
31
0
39
0
210
0
220
0
230
1
0
LINE
5
5A
100
AcDbEntity
8
SK1
62
256
6
ByLayer
370
-1
48
1
60
0
100
AcDbLine
10
-67.633814
20
-19.639667
30
0
11
-66.6
21
-19.996
31
0
39
0
210
0
220
0
230
1
0
LINE
5
5B
100
AcDbEntity
8
SK1
62
256
6
ByLayer
370
-1
48
1
60
0
100
AcDbLine
10
-69
20
19.996
30
0
11
-70
21
18.996
31
0
39
0
210
0
220
0
230
1
0
LINE
5
5C
100
AcDbEntity
8
SK1
62
256
6
ByLayer
370
-1
48
1
60
0
100
AcDbLine
10
-70
20
-18.996
30
0
11
-69
21
-19.996
31
0
39
0
210
0
220
0
230
1
0
LINE
5
5D
100
AcDbEntity
8
SK4
62
256
6
ByLayer
370
-1
48
0.05
60
0
100
AcDbLine
10
232
20
0
30
0
11
-70
21
0
31
0
39
0
210
0
220
0
230
1
0
LINE
5
5F
100
AcDbEntity
8
4
62
256
6
ByLayer
370
-1
48
0.05
60
0
100
AcDbLine
10
232
20
0
30
0
11
0
21
0
31
0
39
0
210
0
220
0
230
1
0
LINE
5
61
100
AcDbEntity
8
1
62
256
6
ByLayer
370
-1
48
1
60
0
100
AcDbLine
10
214.475408
20
27.945943
30
0
11
214.979525
21
13.454776
31
0
39
0
210
0
220
0
230
1
0
LINE
5
62
100
AcDbEntity
8
1
62
256
6
ByLayer
370
-1
48
1
60
0
100
AcDbLine
10
212.797885
20
21.748516
30
0
11
212.827585
21
21.748516
31
0
39
0
210
0
220
0
230
1
0
LINE
5
63
100
AcDbEntity
8
1
62
256
6
ByLayer
370
-1
48
1
60
0
100
AcDbLine
10
206.067981
20
13.93618
30
0
11
201.770367
21
15.85691
31
0
39
0
210
0
220
0
230
1
0
LINE
5
64
100
AcDbEntity
8
1
62
256
6
ByLayer
370
-1
48
1
60
0
100
AcDbLine
10
42
20
29.6
30
0
11
42
21
13.973198
31
0
39
0
210
0
220
0
230
1
0
LINE
5
65
100
AcDbEntity
8
1
62
256
6
ByLayer
370
-1
48
1
60
0
100
AcDbLine
10
215.519869
20
11.207943
30
0
11
229.595648
21
11.701358
31
0
39
0
210
0
220
0
230
1
0
LINE
5
66
100
AcDbEntity
8
1
62
256
6
ByLayer
370
-1
48
1
60
0
100
AcDbLine
10
212.619646
20
20.238569
30
0
11
212.876919
21
12.843076
31
0
39
0
210
0
220
0
230
1
0
LINE
5
67
100
AcDbEntity
8
1
62
256
6
ByLayer
370
-1
48
1
60
0
100
AcDbLine
10
212.580539
20
21.55599
30
0
11
212.324381
21
29.589326
31
0
39
0
210
0
220
0
230
1
0
LINE
5
68
100
AcDbEntity
8
1
62
256
6
ByLayer
370
-1
48
1
60
0
100
AcDbLine
10
203.08042
20
14.364538
30
0
11
205.674106
21
13.205344
31
0
39
0
210
0
220
0
230
1
0
LINE
5
69
100
AcDbEntity
8
1
62
256
6
ByLayer
370
-1
48
1
60
0
100
AcDbLine
10
230.258969
20
-14.671998
30
0
11
229.223194
21
-14.210485
31
0
39
0
210
0
220
0
230
1
0
LINE
5
6A
100
AcDbEntity
8
1
62
256
6
ByLayer
370
-1
48
1
60
0
100
AcDbLine
10
209.132514
20
19.601144
30
0
11
186.457763
21
23.145444
31
0
39
0
210
0
220
0
230
1
0
LINE
5
6B
100
AcDbEntity
8
1
62
256
6
ByLayer
370
-1
48
1
60
0
100
AcDbLine
10
203.977083
20
8.217894
30
0
11
203.218717
21
5.608959
31
0
39
0
210
0
220
0
230
1
0
LINE
5
6C
100
AcDbEntity
8
1
62
256
6
ByLayer
370
-1
48
1
60
0
100
AcDbLine
10
230.225153
20
-16.202894
30
0
11
230.868319
21
-16.280585
31
0
39
0
210
0
220
0
230
1
0
LINE
5
6D
100
AcDbEntity
8
1
62
256
6
ByLayer
370
-1
48
1
60
0
100
AcDbLine
10
212.376529
20
3.80669
30
0
11
214.417686
21
10.828694
31
0
39
0
210
0
220
0
230
1
0
LINE
5
6E
100
AcDbEntity
8
1
62
256
6
ByLayer
370
-1
48
1
60
0
100
AcDbLine
10
229.509518
20
-0.398296
30
0
11
226.564705
21
0.913833
31
0
39
0
210
0
220
0
230
1
0
LINE
5
6F
100
AcDbEntity
8
1
62
256
6
ByLayer
370
-1
48
1
60
0
100
AcDbLine
10
211.674615
20
-29.5631
30
0
11
229.6902
21
-29.5631
31
0
39
0
210
0
220
0
230
1
0
LINE
5
70
100
AcDbEntity
8
1
62
256
6
ByLayer
370
-1
48
1
60
0
100
AcDbLine
10
229.531878
20
1.01734
30
0
11
229.640965
21
1.013538
31
0
39
0
210
0
220
0
230
1
0
LINE
5
71
100
AcDbEntity
8
1
62
256
6
ByLayer
370
-1
48
1
60
0
100
AcDbLine
10
229.580944
20
1.168251
30
0
11
229.592854
21
1.167836
31
0
39
0
210
0
220
0
230
1
0
LINE
5
72
100
AcDbEntity
8
1
62
256
6
ByLayer
370
-1
48
1
60
0
100
AcDbLine
10
230.258969
20
-14.671998
30
0
11
230.202144
21
-15.31266
31
0
39
0
210
0
220
0
230
1
0
LINE
5
73
100
AcDbEntity
8
1
62
256
6
ByLayer
370
-1
48
1
60
0
100
AcDbLine
10
229.509518
20
-0.398296
30
0
11
230.258969
21
-14.671998
31
0
39
0
210
0
220
0
230
1
0
LINE
5
74
100
AcDbEntity
8
1
62
256
6
ByLayer
370
-1
48
1
60
0
100
AcDbLine
10
229.595648
20
11.701358
30
0
11
229.922193
21
11.704563
31
0
39
0
210
0
220
0
230
1
0
LINE
5
75
100
AcDbEntity
8
1
62
256
6
ByLayer
370
-1
48
1
60
0
100
AcDbLine
10
212.862216
20
11.49509
30
0
11
212.913363
21
11.49509
31
0
39
0
210
0
220
0
230
1
0
LINE
5
76
100
AcDbEntity
8
1
62
256
6
ByLayer
370
-1
48
1
60
0
100
AcDbLine
10
212.339844
20
29.584114
30
0
11
212.595835
21
21.55599
31
0
39
0
210
0
220
0
230
1
0
LINE
5
77
100
AcDbEntity
8
1
62
256
6
ByLayer
370
-1
48
1
60
0
100
AcDbLine
10
0.2
20
31.25
30
0
11
0.2
21
-31.25
31
0
39
0
210
0
220
0
230
1
0
LINE
5
78
100
AcDbEntity
8
1
62
256
6
ByLayer
370
-1
48
1
60
0
100
AcDbLine
10
212.432425
20
12.843076
30
0
11
212.876919
21
12.843076
31
0
39
0
210
0
220
0
230
1
0
LINE
5
79
100
AcDbEntity
8
1
62
256
6
ByLayer
370
-1
48
1
60
0
100
AcDbLine
10
229.592854
20
1.167836
30
0
11
229.68039
21
1.121237
31
0
39
0
210
0
220
0
230
1
0
LINE
5
7A
100
AcDbEntity
8
1
62
256
6
ByLayer
370
-1
48
1
60
0
100
AcDbLine
10
0
20
31.05
30
0
11
0
21
-31.05
31
0
39
0
210
0
220
0
230
1
0
LINE
5
7B
100
AcDbEntity
8
1
62
256
6
ByLayer
370
-1
48
1
60
0
100
AcDbLine
10
228.952532
20
-14.089885
30
0
11
227.825213
21
-13.587582
31
0
39
0
210
0
220
0
230
1
0
LINE
5
7C
100
AcDbEntity
8
1
62
256
6
ByLayer
370
-1
48
1
60
0
100
AcDbLine
10
226.545717
20
4.663412
30
0
11
229.595648
21
11.701358
31
0
39
0
210
0
220
0
230
1
0
LINE
5
7D
100
AcDbEntity
8
1
62
256
6
ByLayer
370
-1
48
1
60
0
100
AcDbLine
10
229.6902
20
-29.5631
30
0
11
230.868319
21
-16.280585
31
0
39
0
210
0
220
0
230
1
0
LINE
5
7E
100
AcDbEntity
8
1
62
256
6
ByLayer
370
-1
48
1
60
0
100
AcDbLine
10
229.68039
20
1.121237
30
0
11
230.447014
21
11.944657
31
0
39
0
210
0
220
0
230
1
0
LINE
5
7F
100
AcDbEntity
8
1
62
256
6
ByLayer
370
-1
48
1
60
0
100
AcDbLine
10
229.502009
20
0.420847
30
0
11
229.509518
21
-0.398296
31
0
39
0
210
0
220
0
230
1
0
LINE
5
80
100
AcDbEntity
8
1
62
256
6
ByLayer
370
-1
48
1
60
0
100
AcDbLine
10
205.674106
20
13.205344
30
0
11
205.604583
21
13.205344
31
0
39
0
210
0
220
0
230
1
0
LINE
5
81
100
AcDbEntity
8
1
62
256
6
ByLayer
370
-1
48
1
60
0
100
AcDbLine
10
212.175152
20
20.238569
30
0
11
212.432425
21
12.843076
31
0
39
0
210
0
220
0
230
1
0
LINE
5
82
100
AcDbEntity
8
1
62
256
6
ByLayer
370
-1
48
1
60
0
100
AcDbLine
10
209.13938
20
19.600325
30
0
11
209.13938
21
29.580528
31
0
39
0
210
0
220
0
230
1
0
LINE
5
83
100
AcDbEntity
8
1
62
256
6
ByLayer
370
-1
48
1
60
0
100
AcDbLine
10
42
20
-29.6
30
0
11
42
21
-23.139923
31
0
39
0
210
0
220
0
230
1
0
LINE
5
84
100
AcDbEntity
8
1
62
256
6
ByLayer
370
-1
48
1
60
0
100
AcDbLine
10
229.640965
20
1.013538
30
0
11
229.68039
21
1.121237
31
0
39
0
210
0
220
0
230
1
0
LINE
5
85
100
AcDbEntity
8
1
62
256
6
ByLayer
370
-1
48
1
60
0
100
AcDbLine
10
5
20
31.25
30
0
11
5
21
-31.25
31
0
39
0
210
0
220
0
230
1
0
LINE
5
86
100
AcDbEntity
8
1
62
256
6
ByLayer
370
-1
48
1
60
0
100
AcDbLine
10
212.175152
20
20.238569
30
0
11
212.619646
21
20.238569
31
0
39
0
210
0
220
0
230
1
0
LINE
5
87
100
AcDbEntity
8
1
62
256
6
ByLayer
370
-1
48
1
60
0
100
AcDbLine
10
212.580539
20
21.55599
30
0
11
212.595835
21
21.55599
31
0
39
0
210
0
220
0
230
1
0
LINE
5
88
100
AcDbEntity
8
SK1
62
256
6
ByLayer
370
-1
48
1
60
0
100
AcDbLine
10
-69
20
9.102615
30
0
11
-68.6
21
9.102615
31
0
39
0
210
0
220
0
230
1
0
LINE
5
89
100
AcDbEntity
8
SK1
62
256
6
ByLayer
370
-1
48
1
60
0
100
AcDbLine
10
-70
20
6.623111
30
0
11
-70
21
-6.623111
31
0
39
0
210
0
220
0
230
1
0
LINE
5
8A
100
AcDbEntity
8
SK1
62
256
6
ByLayer
370
-1
48
1
60
0
100
AcDbLine
10
-69
20
-9.102615
30
0
11
-69
21
-19.996
31
0
39
0
210
0
220
0
230
1
0
LINE
5
8B
100
AcDbEntity
8
SK1
62
256
6
ByLayer
370
-1
48
1
60
0
100
AcDbLine
10
-69
20
19.996
30
0
11
-69
21
9.102615
31
0
39
0
210
0
220
0
230
1
0
LINE
5
8C
100
AcDbEntity
8
SK1
62
256
6
ByLayer
370
-1
48
1
60
0
100
AcDbLine
10
-1.552821
20
19.787477
30
0
11
-1.552821
21
-19.787477
31
0
39
0
210
0
220
0
230
1
0
LINE
5
8D
100
AcDbEntity
8
SK1
62
256
6
ByLayer
370
-1
48
1
60
0
100
AcDbLine
10
-6.5
20
-9.102615
30
0
11
-66.6
21
-9.102615
31
0
39
0
210
0
220
0
230
1
0
LINE
5
8E
100
AcDbEntity
8
SK1
62
256
6
ByLayer
370
-1
48
1
60
0
100
AcDbLine
10
-66.6
20
9.102615
30
0
11
-6.5
21
9.102615
31
0
39
0
210
0
220
0
230
1
0
LINE
5
8F
100
AcDbEntity
8
SK1
62
256
6
ByLayer
370
-1
48
1
60
0
100
AcDbLine
10
-70
20
-6.623111
30
0
11
-70
21
-18.996
31
0
39
0
210
0
220
0
230
1
0
LINE
5
90
100
AcDbEntity
8
SK1
62
256
6
ByLayer
370
-1
48
1
60
0
100
AcDbLine
10
-70
20
18.996
30
0
11
-70
21
6.623111
31
0
39
0
210
0
220
0
230
1
0
LINE
5
91
100
AcDbEntity
8
SK1
62
256
6
ByLayer
370
-1
48
1
60
0
100
AcDbLine
10
-1.383773
20
19.75
30
0
11
-1.383773
21
-19.75
31
0
39
0
210
0
220
0
230
1
0
LINE
5
92
100
AcDbEntity
8
SK1
62
256
6
ByLayer
370
-1
48
1
60
0
100
AcDbLine
10
-2
20
-19.996
30
0
11
-2
21
19.996
31
0
39
0
210
0
220
0
230
1
0
LINE
5
93
100
AcDbEntity
8
SK1
62
256
6
ByLayer
370
-1
48
1
60
0
100
AcDbLine
10
-67.633814
20
-8.290603
30
0
11
-67.633814
21
-19.639667
31
0
39
0
210
0
220
0
230
1
0
LINE
5
94
100
AcDbEntity
8
SK1
62
256
6
ByLayer
370
-1
48
1
60
0
100
AcDbLine
10
-67.633814
20
19.639667
30
0
11
-67.633814
21
8.290603
31
0
39
0
210
0
220
0
230
1
0
LINE
5
95
100
AcDbEntity
8
SK1
62
256
6
ByLayer
370
-1
48
1
60
0
100
AcDbLine
10
-66.6
20
9.102615
30
0
11
-66.6
21
19.996
31
0
39
0
210
0
220
0
230
1
0
LINE
5
96
100
AcDbEntity
8
SK1
62
256
6
ByLayer
370
-1
48
1
60
0
100
AcDbLine
10
-66.6
20
-19.996
30
0
11
-66.6
21
-9.102615
31
0
39
0
210
0
220
0
230
1
0
LINE
5
97
100
AcDbEntity
8
SK1
62
256
6
ByLayer
370
-1
48
1
60
0
100
AcDbLine
10
-68.6
20
-19.996
30
0
11
-68.6
21
-9.102615
31
0
39
0
210
0
220
0
230
1
0
LINE
5
98
100
AcDbEntity
8
SK1
62
256
6
ByLayer
370
-1
48
1
60
0
100
AcDbLine
10
-68.6
20
9.102615
30
0
11
-68.6
21
19.996
31
0
39
0
210
0
220
0
230
1
0
LINE
5
99
100
AcDbEntity
8
SK1
62
256
6
ByLayer
370
-1
48
1
60
0
100
AcDbLine
10
-68.6
20
-9.102615
30
0
11
-69
21
-9.102615
31
0
39
0
210
0
220
0
230
1
0
LINE
5
9A
100
AcDbEntity
8
SK1
62
256
6
ByLayer
370
-1
48
1
60
0
100
AcDbLine
10
-68.516223
20
-8.873042
30
0
11
-68.516223
21
-19.892544
31
0
39
0
210
0
220
0
230
1
0
LINE
5
9B
100
AcDbEntity
8
SK1
62
256
6
ByLayer
370
-1
48
1
60
0
100
AcDbLine
10
-68.516223
20
19.892544
30
0
11
-68.516223
21
8.873042
31
0
39
0
210
0
220
0
230
1
0
LINE
5
9C
100
AcDbEntity
8
SK1
62
256
6
ByLayer
370
-1
48
1
60
0
100
AcDbLine
10
-6.5
20
9.102615
30
0
11
-6.5
21
-9.102615
31
0
39
0
210
0
220
0
230
1
0
LINE
5
9D
100
AcDbEntity
8
SK1
62
256
6
ByLayer
370
-1
48
1
60
0
100
AcDbLine
10
-0.15
20
19.75
30
0
11
-0.15
21
-19.75
31
0
39
0
210
0
220
0
230
1
0
LINE
5
9E
100
AcDbEntity
8
1
62
256
6
ByLayer
370
-1
48
1
60
0
100
AcDbLine
10
229.863661
20
-2.581912
30
0
11
230.84365
21
-2.704637
31
0
39
0
210
0
220
0
230
1
0
LINE
5
9F
100
AcDbEntity
8
1
62
256
6
ByLayer
370
-1
48
1
60
0
100
AcDbLine
10
231.461752
20
-9.117174
30
0
11
231.114687
21
-2.507147
31
0
39
0
210
0
220
0
230
1
0
LINE
5
A0
100
AcDbEntity
8
1
62
256
6
ByLayer
370
-1
48
1
60
0
100
AcDbLine
10
230.193614
20
-8.866058
30
0
11
231.173603
21
-8.988783
31
0
39
0
210
0
220
0
230
1
0
LINE
5
A1
100
AcDbEntity
8
1
62
256
6
ByLayer
370
-1
48
1
60
0
100
AcDbLine
10
231.711145
20
-11.273293
30
0
11
231.622546
21
-13.805699
31
0
39
0
210
0
220
0
230
1
0
LINE
5
A2
100
AcDbEntity
8
1
62
256
6
ByLayer
370
-1
48
1
60
0
100
AcDbLine
10
231.346233
20
-15.790266
30
0
11
230.21841
21
-16.199994
31
0
39
0
210
0
220
0
230
1
0
LINE
5
A3
100
AcDbEntity
8
1
62
256
6
ByLayer
370
-1
48
1
60
0
100
AcDbLine
10
230.070201
20
-11.028697
30
0
11
230.067562
21
-11.028273
31
0
39
0
210
0
220
0
230
1
0
LINE
5
A4
100
AcDbEntity
8
1
62
256
6
ByLayer
370
-1
48
1
60
0
100
AcDbLine
10
230.730409
20
-11.065121
30
0
11
230.64181
21
-13.597526
31
0
39
0
210
0
220
0
230
1
0
LINE
5
A5
100
AcDbEntity
8
1
62
256
6
ByLayer
370
-1
48
1
60
0
100
AcDbLine
10
231.999513
20
-11.426809
30
0
11
231.872129
21
-15.067781
31
0
39
0
210
0
220
0
230
1
0
LINE
5
A6
100
AcDbEntity
8
1
62
256
6
ByLayer
370
-1
48
1
60
0
100
AcDbLine
10
229.780105
20
-2.171988
30
0
11
230.702257
21
-2.010967
31
0
39
0
210
0
220
0
230
1
0
LINE
5
A7
100
AcDbEntity
8
1
62
256
6
ByLayer
370
-1
48
1
60
0
100
AcDbLine
10
230.64181
20
-13.597526
30
0
11
231.622546
21
-13.805699
31
0
39
0
210
0
220
0
230
1
0
LINE
5
A8
100
AcDbEntity
8
1
62
256
6
ByLayer
370
-1
48
1
60
0
100
AcDbLine
10
230.838037
20
-2.424501
30
0
11
231.114687
21
-2.507147
31
0
39
0
210
0
220
0
230
1
0
LINE
5
A9
100
AcDbEntity
8
1
62
256
6
ByLayer
370
-1
48
1
60
0
100
AcDbLine
10
230.178979
20
-15.676408
30
0
11
230.20325
21
-15.755548
31
0
39
0
210
0
220
0
230
1
0
LINE
5
AA
100
AcDbEntity
8
1
62
256
6
ByLayer
370
-1
48
1
60
0
100
AcDbLine
10
229.876326
20
0.532996
30
0
11
229.999211
21
0.615641
31
0
39
0
210
0
220
0
230
1
0
LINE
5
AB
100
AcDbEntity
8
1
62
256
6
ByLayer
370
-1
48
1
60
0
100
AcDbLine
10
231.754038
20
-10.258239
30
0
11
231.494002
21
-10.239597
31
0
39
0
210
0
220
0
230
1
0
LINE
5
AC
100
AcDbEntity
8
1
62
256
6
ByLayer
370
-1
48
1
60
0
100
AcDbLine
10
229.514108
20
-0.485476
30
0
11
230.108161
21
-0.381746
31
0
39
0
210
0
220
0
230
1
0
LINE
5
AD
100
AcDbEntity
8
1
62
256
6
ByLayer
370
-1
48
1
60
0
100
AcDbLine
10
230.20325
20
-15.755548
30
0
11
230.176445
21
-15.765286
31
0
39
0
210
0
220
0
230
1
0
LINE
5
AE
100
AcDbEntity
8
1
62
256
6
ByLayer
370
-1
48
1
60
0
100
AcDbLine
10
230.808569
20
-2.279929
30
0
11
231.085219
21
-2.362575
31
0
39
0
210
0
220
0
230
1
0
LINE
5
AF
100
AcDbEntity
8
1
62
256
6
ByLayer
370
-1
48
1
60
0
100
AcDbLine
10
229.572793
20
-1.603466
30
0
11
229.780105
21
-2.171988
31
0
39
0
210
0
220
0
230
1
0
LINE
5
B0
100
AcDbEntity
8
1
62
256
6
ByLayer
370
-1
48
1
60
0
100
AcDbLine
10
230.609623
20
-10.490127
30
0
11
231.494002
21
-10.239597
31
0
39
0
210
0
220
0
230
1
0
LINE
5
B1
100
AcDbEntity
8
1
62
256
6
ByLayer
370
-1
48
1
60
0
100
AcDbLine
10
230.193614
20
-8.866058
30
0
11
229.863661
21
-2.581912
31
0
39
0
210
0
220
0
230
1
0
LINE
5
B2
100
AcDbEntity
8
1
62
256
6
ByLayer
370
-1
48
1
60
0
100
AcDbLine
10
230.84365
20
-2.704637
30
0
11
231.173603
21
-8.988783
31
0
39
0
210
0
220
0
230
1
0
LINE
5
B3
100
AcDbEntity
8
1
62
256
6
ByLayer
370
-1
48
1
60
0
100
AcDbLine
10
231.702993
20
-14.85895
30
0
11
231.872129
21
-15.067781
31
0
39
0
210
0
220
0
230
1
0
LINE
5
B4
100
AcDbEntity
8
1
62
256
6
ByLayer
370
-1
48
1
60
0
100
AcDbLine
10
230.108161
20
-0.381746
30
0
11
230.702257
21
-2.010967
31
0
39
0
210
0
220
0
230
1
0
LINE
5
B5
100
AcDbEntity
8
1
62
256
6
ByLayer
370
-1
48
1
60
0
100
AcDbLine
10
229.999211
20
0.615641
30
0
11
231.085219
21
-2.362575
31
0
39
0
210
0
220
0
230
1
0
LINE
5
B6
100
AcDbEntity
8
1
62
256
6
ByLayer
370
-1
48
1
60
0
100
AcDbLine
10
230.730409
20
-11.065121
30
0
11
231.711145
21
-11.273293
31
0
39
0
210
0
220
0
230
1
0
LINE
5
B7
100
AcDbEntity
8
1
62
256
6
ByLayer
370
-1
48
1
60
0
100
AcDbLine
10
231.999513
20
-11.426809
30
0
11
231.711145
21
-11.273293
31
0
39
0
210
0
220
0
230
1
0
LINE
5
B8
100
AcDbEntity
8
1
62
256
6
ByLayer
370
-1
48
1
60
0
100
AcDbLine
10
230.341993
20
-13.587076
30
0
11
230.430592
21
-11.05467
31
0
39
0
210
0
220
0
230
1
0
LINE
5
B9
100
AcDbEntity
8
1
62
256
6
ByLayer
370
-1
48
1
60
0
100
AcDbLine
10
231.461752
20
-9.117174
30
0
11
231.173603
21
-8.988783
31
0
39
0
210
0
220
0
230
1
0
LINE
5
BA
100
AcDbEntity
8
1
62
256
6
ByLayer
370
-1
48
1
60
0
100
AcDbLine
10
231.177096
20
-15.581434
30
0
11
231.346233
21
-15.790266
31
0
39
0
210
0
220
0
230
1
0
LINE
5
BB
100
AcDbEntity
8
1
62
256
6
ByLayer
370
-1
48
1
60
0
100
AcDbLine
10
213.538396
20
29.963277
30
0
11
229.020002
21
30.505972
31
0
39
0
210
0
220
0
230
1
0
LINE
5
BC
100
AcDbEntity
8
1
62
256
6
ByLayer
370
-1
48
1
60
0
100
AcDbLine
10
229.055555
20
28.60713
30
0
11
214.619531
21
28.101087
31
0
39
0
210
0
220
0
230
1
0
LINE
5
BD
100
AcDbEntity
8
1
62
256
6
ByLayer
370
-1
48
1
60
0
100
AcDbLine
10
231.095717
20
29.578342
30
0
11
231.636346
21
14.037598
31
0
39
0
210
0
220
0
230
1
0
LINE
5
BE
100
AcDbEntity
8
1
62
256
6
ByLayer
370
-1
48
1
60
0
100
AcDbLine
10
226.677702
20
22.466218
30
0
11
226.573402
21
25.46439
31
0
39
0
210
0
220
0
230
1
0
LINE
5
BF
100
AcDbEntity
8
1
62
256
6
ByLayer
370
-1
48
1
60
0
100
AcDbLine
10
229.714225
20
13.971289
30
0
11
229.210108
21
28.462456
31
0
39
0
210
0
220
0
230
1
0
LINE
5
C0
100
AcDbEntity
8
1
62
256
6
ByLayer
370
-1
48
1
60
0
100
AcDbLine
10
214.447644
20
27.944942
30
0
11
214.951761
21
13.453775
31
0
39
0
210
0
220
0
230
1
0
LINE
5
C1
100
AcDbEntity
8
1
62
256
6
ByLayer
370
-1
48
1
60
0
100
AcDbLine
10
213.480312
20
27.909688
30
0
11
213.984429
21
13.418521
31
0
39
0
210
0
220
0
230
1
0
LINE
5
C2
100
AcDbEntity
8
1
62
256
6
ByLayer
370
-1
48
1
60
0
100
AcDbLine
10
223.60309
20
16.17795
30
0
11
226.589853
21
16.282649
31
0
39
0
210
0
220
0
230
1
0
LINE
5
C3
100
AcDbEntity
8
1
62
256
6
ByLayer
370
-1
48
1
60
0
100
AcDbLine
10
230.564829
20
13.999792
30
0
11
230.060712
21
28.490959
31
0
39
0
210
0
220
0
230
1
0
LINE
5
C4
100
AcDbEntity
8
1
62
256
6
ByLayer
370
-1
48
1
60
0
100
AcDbLine
10
226.253966
20
25.937949
30
0
11
223.267202
21
25.83325
31
0
39
0
210
0
220
0
230
1
0
LINE
5
C5
100
AcDbEntity
8
1
62
256
6
ByLayer
370
-1
48
1
60
0
100
AcDbLine
10
226.264296
20
25.753738
30
0
11
223.277532
21
25.649039
31
0
39
0
210
0
220
0
230
1
0
LINE
5
C6
100
AcDbEntity
8
1
62
256
6
ByLayer
370
-1
48
1
60
0
100
AcDbLine
10
213.154925
20
12.33889
30
0
11
212.614295
21
27.879634
31
0
39
0
210
0
220
0
230
1
0
LINE
5
C7
100
AcDbEntity
8
1
62
256
6
ByLayer
370
-1
48
1
60
0
100
AcDbLine
10
226.771313
20
19.775319
30
0
11
226.875613
21
16.777147
31
0
39
0
210
0
220
0
230
1
0
LINE
5
C8
100
AcDbEntity
8
1
62
256
6
ByLayer
370
-1
48
1
60
0
100
AcDbLine
10
229.04441
20
29.999212
30
0
11
214.608386
21
29.493169
31
0
39
0
210
0
220
0
230
1
0
LINE
5
C9
100
AcDbEntity
8
1
62
256
6
ByLayer
370
-1
48
1
60
0
100
AcDbLine
10
231.138293
20
14.019901
30
0
11
230.634176
21
28.511068
31
0
39
0
210
0
220
0
230
1
0
LINE
5
CA
100
AcDbEntity
8
1
62
256
6
ByLayer
370
-1
48
1
60
0
100
AcDbLine
10
215.134078
20
13.310103
30
0
11
229.570102
21
13.816145
31
0
39
0
210
0
220
0
230
1
0
LINE
5
CB
100
AcDbEntity
8
1
62
256
6
ByLayer
370
-1
48
1
60
0
100
AcDbLine
10
215.135863
20
13.281441
30
0
11
229.571887
21
13.787484
31
0
39
0
210
0
220
0
230
1
0
LINE
5
CC
100
AcDbEntity
8
1
62
256
6
ByLayer
370
-1
48
1
60
0
100
AcDbLine
10
213.125906
20
27.897331
30
0
11
213.630023
21
13.406164
31
0
39
0
210
0
220
0
230
1
0
LINE
5
CD
100
AcDbEntity
8
1
62
256
6
ByLayer
370
-1
48
1
60
0
100
AcDbLine
10
229.055346
20
28.635791
30
0
11
214.619322
21
28.129748
31
0
39
0
210
0
220
0
230
1
0
LINE
5
CE
100
AcDbEntity
8
1
62
256
6
ByLayer
370
-1
48
1
60
0
100
AcDbLine
10
217.027351
20
24.493437
30
0
11
218.389778
21
23.2181
31
0
39
0
210
0
220
0
230
1
0
LINE
5
CF
100
AcDbEntity
8
1
62
256
6
ByLayer
370
-1
48
1
60
0
100
AcDbLine
10
229.022717
20
30.406033
30
0
11
214.586693
21
29.89999
31
0
39
0
210
0
220
0
230
1
0
LINE
5
D0
100
AcDbEntity
8
1
62
256
6
ByLayer
370
-1
48
1
60
0
100
AcDbLine
10
231.536025
20
14.034108
30
0
11
231.031908
21
28.525275
31
0
39
0
210
0
220
0
230
1
0
LINE
5
D1
100
AcDbEntity
8
1
62
256
6
ByLayer
370
-1
48
1
60
0
100
AcDbLine
10
212.713092
20
27.883124
30
0
11
213.217209
21
13.391957
31
0
39
0
210
0
220
0
230
1
0
LINE
5
D2
100
AcDbEntity
8
1
62
256
6
ByLayer
370
-1
48
1
60
0
100
AcDbLine
10
218.228535
20
25.786471
30
0
11
219.590963
21
24.511134
31
0
39
0
210
0
220
0
230
1
0
LINE
5
D3
100
AcDbEntity
8
1
62
256
6
ByLayer
370
-1
48
1
60
0
100
AcDbLine
10
215.219789
20
11.91802
30
0
11
229.655812
21
12.424063
31
0
39
0
210
0
220
0
230
1
0
LINE
5
D4
100
AcDbEntity
8
1
62
256
6
ByLayer
370
-1
48
1
60
0
100
AcDbLine
10
215.230639
20
11.41126
30
0
11
230.712246
21
11.953955
31
0
39
0
210
0
220
0
230
1
0
LINE
5
D5
100
AcDbEntity
8
1
62
256
6
ByLayer
370
-1
48
1
60
0
100
AcDbLine
10
218.257876
20
17.539186
30
0
11
218.24428
21
17.551913
31
0
39
0
210
0
220
0
230
1
0
LINE
5
D6
100
AcDbEntity
8
1
62
256
6
ByLayer
370
-1
48
1
60
0
100
AcDbLine
10
227.055201
20
16.783579
30
0
11
226.950901
21
19.781752
31
0
39
0
210
0
220
0
230
1
0
LINE
5
D7
100
AcDbEntity
8
1
62
256
6
ByLayer
370
-1
48
1
60
0
100
AcDbLine
10
229.064637
20
29.423363
30
0
11
214.628613
21
28.91732
31
0
39
0
210
0
220
0
230
1
0
LINE
5
D8
100
AcDbEntity
8
1
62
256
6
ByLayer
370
-1
48
1
60
0
100
AcDbLine
10
217.72642
20
25.482618
30
0
11
217.883569
21
24.900669
31
0
39
0
210
0
220
0
230
1
0
LINE
5
D9
100
AcDbEntity
8
1
62
256
6
ByLayer
370
-1
48
1
60
0
100
AcDbLine
10
218.594524
20
24.607073
30
0
11
218.600467
21
24.585066
31
0
39
0
210
0
220
0
230
1
0
LINE
5
DA
100
AcDbEntity
8
1
62
256
6
ByLayer
370
-1
48
1
60
0
100
AcDbLine
10
230.787662
20
14.007544
30
0
11
230.283545
21
28.498711
31
0
39
0
210
0
220
0
230
1
0
LINE
5
DB
100
AcDbEntity
8
1
62
256
6
ByLayer
370
-1
48
1
60
0
100
AcDbLine
10
229.065821
20
29.034463
30
0
11
214.629798
21
28.52842
31
0
39
0
210
0
220
0
230
1
0
LINE
5
DC
100
AcDbEntity
8
1
62
256
6
ByLayer
370
-1
48
1
60
0
100
AcDbLine
10
218.012477
20
17.760605
30
0
11
218.012892
21
17.760216
31
0
39
0
210
0
220
0
230
1
0
LINE
5
DD
100
AcDbEntity
8
1
62
256
6
ByLayer
370
-1
48
1
60
0
100
AcDbLine
10
230.165065
20
13.986212
30
0
11
229.660948
21
28.477379
31
0
39
0
210
0
220
0
230
1
0
LINE
5
DE
100
AcDbEntity
8
1
62
256
6
ByLayer
370
-1
48
1
60
0
100
AcDbLine
10
215.19995
20
12.493869
30
0
11
229.635974
21
12.999912
31
0
39
0
210
0
220
0
230
1
0
LINE
5
DF
100
AcDbEntity
8
1
62
256
6
ByLayer
370
-1
48
1
60
0
100
AcDbLine
10
229.058608
20
29.645346
30
0
11
214.622584
21
29.139304
31
0
39
0
210
0
220
0
230
1
0
LINE
5
E0
100
AcDbEntity
8
1
62
256
6
ByLayer
370
-1
48
1
60
0
100
AcDbLine
10
226.587367
20
16.46686
30
0
11
223.600603
21
16.362161
31
0
39
0
210
0
220
0
230
1
0
LINE
5
E1
100
AcDbEntity
8
1
62
256
6
ByLayer
370
-1
48
1
60
0
100
AcDbLine
10
226.85729
20
22.472651
30
0
11
226.75299
21
25.470823
31
0
39
0
210
0
220
0
230
1
0
LINE
5
E2
100
AcDbEntity
8
1
62
256
6
ByLayer
370
-1
48
1
60
0
100
AcDbLine
10
215.209366
20
12.271886
30
0
11
229.64539
21
12.777928
31
0
39
0
210
0
220
0
230
1
0
LINE
5
E3
100
AcDbEntity
8
1
62
256
6
ByLayer
370
-1
48
1
60
0
100
AcDbLine
10
218.012477
20
17.760605
30
0
11
218.48715
21
18.271573
31
0
39
0
210
0
220
0
230
1
0
LINE
5
E4
100
AcDbEntity
8
1
62
256
6
ByLayer
370
-1
48
1
60
0
100
AcDbLine
10
215.2264
20
11.511199
30
0
11
229.662424
21
12.017242
31
0
39
0
210
0
220
0
230
1
0
LINE
5
E5
100
AcDbEntity
8
1
62
256
6
ByLayer
370
-1
48
1
60
0
100
AcDbLine
10
218.678938
20
17.580664
30
0
11
218.827567
21
17.441536
31
0
39
0
210
0
220
0
230
1
0
LINE
5
E6
100
AcDbEntity
8
1
62
256
6
ByLayer
370
-1
48
1
60
0
100
AcDbLine
10
214.074833
20
27.93102
30
0
11
214.57895
21
13.439853
31
0
39
0
210
0
220
0
230
1
0
LINE
5
E7
100
AcDbEntity
8
1
62
256
6
ByLayer
370
-1
48
1
60
0
100
AcDbLine
10
217.294284
20
25.017438
30
0
11
217.883569
21
24.900669
31
0
39
0
210
0
220
0
230
1
0
LINE
5
E8
100
AcDbEntity
8
1
62
256
6
ByLayer
370
-1
48
1
60
0
100
AcDbLine
10
213.699758
20
27.91744
30
0
11
214.203875
21
13.426273
31
0
39
0
210
0
220
0
230
1
0
LINE
5
E9
100
AcDbEntity
8
1
62
256
6
ByLayer
370
-1
48
1
60
0
100
AcDbLine
10
215.174077
20
12.882769
30
0
11
229.6101
21
13.388812
31
0
39
0
210
0
220
0
230
1
0
LINE
5
EA
100
AcDbEntity
8
1
62
256
6
ByLayer
370
-1
48
1
60
0
100
AcDbLine
10
229.743565
20
13.97229
30
0
11
229.239448
21
28.463457
31
0
39
0
210
0
220
0
230
1
0
LINE
5
EB
100
AcDbEntity
8
1
62
256
6
ByLayer
370
-1
48
1
60
0
100
AcDbLine
10
218.224928
20
24.209217
30
0
11
218.247213
21
24.204801
31
0
39
0
210
0
220
0
230
1
0
LINE
5
EC
100
AcDbEntity
8
1
62
256
6
ByLayer
370
-1
48
1
60
0
100
AcDbLine
10
218.224928
20
24.209217
30
0
11
218.805573
21
23.665689
31
0
39
0
210
0
220
0
230
1
0
LINE
5
ED
100
AcDbEntity
8
1
62
256
6
ByLayer
370
-1
48
1
60
0
100
AcDbLine
10
218.040201
20
17.341767
30
0
11
218.411772
21
16.993948
31
0
39
0
210
0
220
0
230
1
0
LINE
5
EE
100
AcDbEntity
8
1
62
256
6
ByLayer
370
-1
48
1
60
0
100
AcDbLine
10
218.594524
20
24.607073
30
0
11
219.175168
21
24.063545
31
0
39
0
210
0
220
0
230
1
0
LINE
5
EF
100
AcDbEntity
8
1
62
256
6
ByLayer
370
-1
48
1
60
0
100
AcDbLine
10
218.678938
20
17.580664
30
0
11
218.813665
21
17.725692
31
0
39
0
210
0
220
0
230
1
0
MTEXT
5
263
100
AcDbEntity
8
SK6
62
256
6
ByLayer
370
-1
48
1
60
0
100
AcDbMText
10
0.79375
20
-80.79375
30
0
210
0
220
0
230
1
1
\W00.730;\fsimplex.shx,bigfont.shx;880-D6100L40-03 
40
3.175
41
0
44
1.084337
50
0
71
7
72
5
7
DEFAULT
0
DIMENSION
5
293
100
AcDbEntity
8
SK2
62
256
6
ByLayer
370
-3
48
1
60
0
100
AcDbDimension
2
DimnDraft3D1
10
232
20
-70.11955
30
0
11
81
21
-70.11955
31
0
70
32
71
5
72
1
41
1
210
0
220
0
230
1
3
Standard
100
AcDbAlignedDimension
13
-70
23
-21.5875
33
0
14
232
24
-32.0875
34
0
50
0
100
AcDbRotatedDimension
1001
ACAD
1000
DSTYLE
1002
{
1070
   279
1070
     0
1070
   172
1070
     1
1070
   173
1070
     1
1070
   340
1005
264
1070
   271
1070
     1
1070
   272
1070
     2
1070
    77
1070
     1
1070
    73
1070
     0
1070
   171
1070
     3
1070
   274
1070
     4
1070
   177
1070
   150
1070
   176
1070
     9
1070
   178
1070
    43
1070
    78
1070
     8
1070
    48
1040
-0.005
1070
    41
1041
4.175
1070
   147
1041
2.25
1070
    42
1041
1.5875
1070
    44
1041
3.175
1070
   140
1041
4.5
1070
   343
1005
0
1070
   344
1005
0
1002
}
0
DIMENSION
5
29D
100
AcDbEntity
8
SK2
62
256
6
ByLayer
370
-3
48
1
60
0
100
AcDbDimension
2
DimnDraft3D2
10
0
20
-58.1508
30
0
11
-35
21
-58.1508
31
0
70
32
71
5
72
1
41
1
210
0
220
0
230
1
3
Standard
100
AcDbAlignedDimension
13
-70
23
-21.5875
33
0
14
0
24
-32.8375
34
0
50
0
100
AcDbRotatedDimension
1001
ACAD
1000
DSTYLE
1002
{
1070
   279
1070
     0
1070
   172
1070
     1
1070
   173
1070
     1
1070
   340
1005
264
1070
   271
1070
     1
1070
   272
1070
     2
1070
    77
1070
     1
1070
    73
1070
     0
1070
   171
1070
     3
1070
   274
1070
     4
1070
   177
1070
   150
1070
   176
1070
     9
1070
   178
1070
    43
1070
    78
1070
     8
1070
    48
1040
-0.005
1070
    41
1041
4.175
1070
   147
1041
2.25
1070
    42
1041
1.5875
1070
    44
1041
3.175
1070
   140
1041
4.5
1070
   343
1005
0
1070
   344
1005
0
1002
}
0
DIMENSION
5
2A8
100
AcDbEntity
8
2
62
256
6
ByLayer
370
-3
48
1
60
0
100
AcDbDimension
2
DimnDraft3D3
10
232
20
-58.1508
30
0
11
116
21
-58.1508
31
0
70
32
71
5
72
1
41
1
210
0
220
0
230
1
3
Standard
100
AcDbAlignedDimension
13
0
23
-32.8375
33
0
14
232
24
-32.0875
34
0
50
0
100
AcDbRotatedDimension
1001
ACAD
1000
DSTYLE
1002
{
1070
   279
1070
     0
1070
   172
1070
     1
1070
   173
1070
     1
1070
   340
1005
264
1070
   271
1070
     1
1070
   272
1070
     2
1070
    77
1070
     1
1070
    73
1070
     0
1070
   171
1070
     3
1070
   274
1070
     4
1070
   177
1070
   150
1070
   176
1070
     9
1070
   178
1070
    43
1070
    78
1070
     8
1070
    48
1040
-0.005
1070
    41
1041
4.175
1070
   147
1041
2.25
1070
    42
1041
1.5875
1070
    44
1041
3.175
1070
   140
1041
4.5
1070
   343
1005
0
1070
   344
1005
0
1002
}
0
DIMENSION
5
2B2
100
AcDbEntity
8
SK2
62
256
6
ByLayer
370
-3
48
1
60
0
100
AcDbDimension
2
DimnDraft3D4
10
232
20
-48.1508
30
0
11
137
21
-48.1508
31
0
70
32
71
5
72
1
41
1
210
0
220
0
230
1
3
Standard
100
AcDbAlignedDimension
13
42
23
-11.5875
33
0
14
232
24
-32.0875
34
0
50
0
100
AcDbRotatedDimension
1001
ACAD
1000
DSTYLE
1002
{
1070
   279
1070
     0
1070
   172
1070
     1
1070
   173
1070
     1
1070
   340
1005
264
1070
   271
1070
     1
1070
   272
1070
     2
1070
    77
1070
     1
1070
    73
1070
     0
1070
   171
1070
     3
1070
   274
1070
     4
1070
   177
1070
   150
1070
   176
1070
     9
1070
   178
1070
    43
1070
    78
1070
     8
1070
    48
1040
-0.005
1070
    41
1041
4.175
1070
   147
1041
2.25
1070
    42
1041
1.5875
1070
    44
1041
3.175
1070
   140
1041
4.5
1070
   343
1005
0
1070
   344
1005
0
1002
}
0
DIMENSION
5
2BD
100
AcDbEntity
8
SK2
62
256
6
ByLayer
370
-3
48
1
60
0
100
AcDbDimension
2
DimnDraft3D5
10
-81.9
20
-20
30
0
11
-82.1
21
3.884211
31
0
70
33
71
5
72
1
41
1
210
0
220
0
230
1
3
Standard
100
AcDbAlignedDimension
13
-71.5875
23
20
33
0
14
-71.5875
24
-20
34
0
1001
ACAD
1000
DSTYLE
1002
{
1070
   279
1070
     0
1070
    74
1070
     0
1070
   173
1070
     1
1070
   340
1005
264
1070
   271
1070
     2
1070
   272
1070
     2
1070
    77
1070
     1
1070
    73
1070
     0
1070
   171
1070
     3
1070
   274
1070
     4
1070
   177
1070
   150
1070
   176
1070
     9
1070
   178
1070
    43
1070
    78
1070
     8
1070
    48
1040
-0.005
1070
    41
1041
4.175
1070
   147
1041
2.25
1070
    42
1041
1.5875
1070
    44
1041
3.175
1070
   140
1041
4.5
1070
   343
1005
0
1070
   344
1005
0
1002
}
0
DIMENSION
5
2C8
100
AcDbEntity
8
SK2
62
256
6
ByLayer
370
-3
48
1
60
0
100
AcDbDimension
2
DimnDraft3D6
10
-91.9
20
31.25
30
0
11
-92.1
21
1.586842
31
0
70
33
71
5
72
1
41
1
210
0
220
0
230
1
3
Standard
100
AcDbAlignedDimension
13
-1.5875
23
-31.25
33
0
14
-1.5875
24
31.25
34
0
1001
ACAD
1000
DSTYLE
1002
{
1070
   279
1070
     0
1070
    74
1070
     0
1070
   173
1070
     1
1070
   340
1005
264
1070
   271
1070
     1
1070
   272
1070
     2
1070
    77
1070
     1
1070
    73
1070
     0
1070
   171
1070
     3
1070
   274
1070
     4
1070
   177
1070
   150
1070
   176
1070
     9
1070
   178
1070
    43
1070
    78
1070
     8
1070
    48
1040
-0.005
1070
    41
1041
4.175
1070
   147
1041
2.25
1070
    42
1041
1.5875
1070
    44
1041
3.175
1070
   140
1041
4.5
1070
   343
1005
0
1070
   344
1005
0
1002
}
0
DIMENSION
5
2D3
100
AcDbEntity
8
2
62
256
6
ByLayer
370
-3
48
1
60
0
100
AcDbDimension
2
DimnDraft3D7
10
262.15
20
-30.5
30
0
11
255.6
21
4.683553
31
0
70
33
71
5
72
1
41
1
210
0
220
0
230
1
3
Standard
100
AcDbAlignedDimension
13
233.5875
23
30.5
33
0
14
233.5875
24
-30.5
34
0
1001
ACAD
1000
DSTYLE
1002
{
1070
   279
1070
     0
1070
    74
1070
     0
1070
   173
1070
     1
1070
   340
1005
264
1070
   271
1070
     2
1070
   272
1070
     2
1070
    77
1070
     1
1070
    73
1070
     0
1070
   171
1070
     3
1070
   274
1070
     4
1070
   177
1070
   150
1070
   176
1070
     9
1070
   178
1070
    43
1070
    78
1070
     8
1070
    48
1040
-0.005
1070
    41
1041
4.175
1070
   147
1041
2.25
1070
    42
1041
1.5875
1070
    44
1041
3.175
1070
   140
1041
4.5
1070
   343
1005
0
1070
   344
1005
0
1002
}
0
ENDSEC
0
SECTION
2
OBJECTS
0
DICTIONARY
5
304
330
0
100
AcDbDictionary
280
0
281
1
3
ACAD_GROUP
350
305
3
ACAD_MLINESTYLE
350
306
0
DICTIONARY
5
305
330
0
100
AcDbDictionary
280
0
281
1
0
DICTIONARY
5
306
330
0
100
AcDbDictionary
280
0
281
1
3
Standard
350
18
0
MLINESTYLE
5
18
330
306
100
AcDbMlineStyle
2
Standard
70
0
3

62
256
51
90
52
90
71
2
49
-0.5
62
256
6
ByLayer
49
0.5
62
256
6
ByLayer
0
RASTERVARIABLES
5
2f2
330

100
AcDbRasterVariables
90
0
70
1
71
1
72
1
0
ENDSEC
0
EOF
