0
SECTION
2
HEADER
9
$ACADVER
1
AC1015
9
$DWGCODEPAGE
3
ANSI_1252
9
$HANDSEED
5
30a
9
$ANGBASE
50
0
9
$ANGDIR
70
0
9
$ATTMODE
70
1
9
$AUNITS
70
0
9
$AUPREC
70
0
9
$CECOLOR
62
256
9
$CELTSCALE
40
1
9
$CELTYPE
6
ByLayer
9
$CELWEIGHT
370
-1
9
$CLAYER
8
0
9
$CMLJUST
70
0
9
$CMLSCALE
40
1
9
$CMLSTYLE
2
Standard
9
$DIMSTYLE
2
Standard
9
$TEXTSIZE
40
0.2
9
$TEXTSTYLE
7
Standard
9
$LUNITS
70
2
9
$LUPREC
70
4
9
$EXTNAMES
290
1
9
$INSUNITS
70
4
9
$LTSCALE
40
1
9
$LWDISPLAY
290
0
9
$PDMODE
70
0
9
$PDSIZE
40
0
9
$PLINEGEN
70
0
0
ENDSEC
0
SECTION
2
CLASSES
0
CLASS
1
RASTERVARIABLES
2
AcDbRasterVariables
3
ISM
90
0
280
0
281
0
0
ENDSEC
0
SECTION
2
TABLES
0
TABLE
2
VPORT
5
300
100
AcDbSymbolTable
0
VPORT
5
1
100
AcDbSymbolTableRecord
100
AcDbViewportTableRecord
2
*Active
70
0
10
0
20
0
11
1
21
1
12
-1
22
1
13
0
23
0
14
0.5
24
0.5
15
10
25
10
16
0
26
0
36
1
17
0
27
0
37
0
0
ENDTAB
0
TABLE
2
LTYPE
5
301
100
AcDbSymbolTable
0
LTYPE
5
14
100
AcDbSymbolTableRecord
100
AcDbLinetypeTableRecord
70
0
2
ByBlock
3

72
65
73
0
40
0
0
LTYPE
5
15
100
AcDbSymbolTableRecord
100
AcDbLinetypeTableRecord
70
0
2
ByLayer
3

72
65
73
0
40
0
0
LTYPE
5
16
100
AcDbSymbolTableRecord
100
AcDbLinetypeTableRecord
70
0
2
CONTINUOUS
3
Solid line
72
65
73
0
40
0
0
LTYPE
5
3B
100
AcDbSymbolTableRecord
100
AcDbLinetypeTableRecord
70
0
2
DASHED
3
__ __ __ __ __ __ __ __ __
72
65
73
2
40
25.72
49
12.86
74
0
49
-12.86
74
0
0
LTYPE
5
3C
100
AcDbSymbolTableRecord
100
AcDbLinetypeTableRecord
70
0
2
HIDDEN
3
_ _ _ _ _ _ _ _ _ _ _ _ _ _ _
72
65
73
2
40
0.5
49
0.25
74
0
49
-0.25
74
0
0
LTYPE
5
3D
100
AcDbSymbolTableRecord
100
AcDbLinetypeTableRecord
70
0
2
PHANTOM
3
____ _ _ ____ _ _ _____ _ _ ____
72
65
73
6
40
50.5
49
18
74
0
49
-6.5
74
0
49
6.5
74
0
49
-6.5
74
0
49
6.5
74
0
49
-6.5
74
0
0
LTYPE
5
3E
100
AcDbSymbolTableRecord
100
AcDbLinetypeTableRecord
70
0
2
CENTER
3
____ _ ____ _ ____ _ ____
72
65
73
4
40
47.5
49
22
74
0
49
-8.5
74
0
49
8.5
74
0
49
-8.5
74
0
0
LTYPE
5
3F
100
AcDbSymbolTableRecord
100
AcDbLinetypeTableRecord
70
0
2
DOT
3
.........................
72
65
73
2
40
10
49
0
74
0
49
-10
74
0
0
LTYPE
5
40
100
AcDbSymbolTableRecord
100
AcDbLinetypeTableRecord
70
0
2
DASHDOT
3
_._._._._._._._._._._._._._._._.
72
65
73
4
40
70
49
31
74
0
49
-13
74
0
49
13
74
0
49
-13
74
0
0
ENDTAB
0
TABLE
2
LAYER
5
302
100
AcDbSymbolTable
0
LAYER
5
10
100
AcDbSymbolTableRecord
100
AcDbLayerTableRecord
2
0
70
0
62
7
6
CONTINUOUS
290
1
370
-3
390
0
0
LAYER
5
42
100
AcDbSymbolTableRecord
100
AcDbLayerTableRecord
2
81
70
0
62
-3
6
CONTINUOUS
290
1
370
-3
390
0
0
LAYER
5
44
100
AcDbSymbolTableRecord
100
AcDbLayerTableRecord
2
80
70
0
62
-6
6
CONTINUOUS
290
1
370
-3
390
0
0
LAYER
5
48
100
AcDbSymbolTableRecord
100
AcDbLayerTableRecord
2
1
70
0
62
4
6
CONTINUOUS
290
1
370
-3
390
0
0
LAYER
5
5F
100
AcDbSymbolTableRecord
100
AcDbLayerTableRecord
2
4
70
0
62
-2
6
CENTER
290
1
370
-3
390
0
0
LAYER
5
299
100
AcDbSymbolTableRecord
100
AcDbLayerTableRecord
2
2
70
0
62
7
6
CONTINUOUS
290
1
370
-3
390
0
0
LAYER
5
2ec
100
AcDbSymbolTableRecord
100
AcDbLayerTableRecord
2
SK1
70
0
62
4
6
CONTINUOUS
290
1
370
-3
390
0
0
LAYER
5
2ed
100
AcDbSymbolTableRecord
100
AcDbLayerTableRecord
2
SK4
70
0
62
2
6
CENTER
290
1
370
-3
390
0
0
LAYER
5
2ee
100
AcDbSymbolTableRecord
100
AcDbLayerTableRecord
2
SK6
70
0
62
5
6
CONTINUOUS
290
1
370
-3
390
0
0
LAYER
5
2ef
100
AcDbSymbolTableRecord
100
AcDbLayerTableRecord
2
SK2
70
0
62
7
6
CONTINUOUS
290
1
370
-3
390
0
0
ENDTAB
0
TABLE
2
STYLE
5
303
100
AcDbSymbolTable
0
STYLE
5
11
100
AcDbSymbolTableRecord
100
AcDbTextStyleTableRecord
2
Standard
3
txt
70
0
71
0
40
0
41
1
42
0
50
0
0
STYLE
5
25D
100
AcDbSymbolTableRecord
100
AcDbTextStyleTableRecord
2
DEFAULT
3
simplex.shx
70
0
71
0
40
0
41
1
42
0
50
0
0
STYLE
5
280
100
AcDbSymbolTableRecord
100
AcDbTextStyleTableRecord
2
DWGDirectTextStyle
3
SIMPLEX
70
0
71
0
40
0
41
1
42
0
50
0
0
ENDTAB
0
TABLE
2
DIMSTYLE
5
304
100
AcDbSymbolTable
100
AcDbDimStyleTable
0
DIMSTYLE
105
27
100
AcDbSymbolTableRecord
100
AcDbDimStyleTableRecord
2
Standard
70
0
3
<>
41
0.18
42
0.0625
44
0.18
140
0.18
147
0.09
73
0
74
0
77
1
271
2
275
0
278
52
280
0
340
11
0
ENDTAB
0
TABLE
2
VIEW
5
305
100
AcDbSymbolTable
0
ENDTAB
0
TABLE
2
UCS
5
306
100
AcDbSymbolTable
0
ENDTAB
0
TABLE
2
APPID
5
307
100
AcDbSymbolTable
0
APPID
5
12
100
AcDbSymbolTableRecord
100
AcDbRegAppTableRecord
2
ACAD
70
0
0
ENDTAB
0
TABLE
2
BLOCK_RECORD
5
308
100
AcDbSymbolTable
0
BLOCK_RECORD
5
1F
100
AcDbSymbolTableRecord
100
AcDbBlockTableRecord
2
*Model_Space
340
0
70
0
0
BLOCK_RECORD
5
1B
100
AcDbSymbolTableRecord
100
AcDbBlockTableRecord
2
*Paper_Space
340
0
70
0
0
BLOCK_RECORD
5
23
100
AcDbSymbolTableRecord
100
AcDbBlockTableRecord
2
*Paper_Space0
340
0
70
0
0
BLOCK_RECORD
5
282
100
AcDbSymbolTableRecord
100
AcDbBlockTableRecord
2
DimnDraft3D1
340
0
70
0
0
BLOCK_RECORD
5
28D
100
AcDbSymbolTableRecord
100
AcDbBlockTableRecord
2
DimnDraft3D2
340
0
70
0
0
BLOCK_RECORD
5
297
100
AcDbSymbolTableRecord
100
AcDbBlockTableRecord
2
DimnDraft3D3
340
0
70
0
0
BLOCK_RECORD
5
2A2
100
AcDbSymbolTableRecord
100
AcDbBlockTableRecord
2
DimnDraft3D4
340
0
70
0
0
BLOCK_RECORD
5
2AC
100
AcDbSymbolTableRecord
100
AcDbBlockTableRecord
2
DimnDraft3D5
340
0
70
0
0
BLOCK_RECORD
5
2B7
100
AcDbSymbolTableRecord
100
AcDbBlockTableRecord
2
DimnDraft3D6
340
0
70
0
0
BLOCK_RECORD
5
2C2
100
AcDbSymbolTableRecord
100
AcDbBlockTableRecord
2
DimnDraft3D7
340
0
70
0
0
ENDTAB
0
ENDSEC
0
SECTION
2
BLOCKS
0
BLOCK
5
20
100
AcDbEntity
8
0
100
AcDbBlockBegin
2
*Model_Space
70
0
10
0
20
0
30
0
3
*Model_Space
0
ENDBLK
5
21
100
AcDbEntity
8
0
100
AcDbBlockEnd
0
BLOCK
5
1C
100
AcDbEntity
8
0
100
AcDbBlockBegin
2
*Paper_Space
70
0
10
0
20
0
30
0
3
*Paper_Space
0
ENDBLK
5
1D
100
AcDbEntity
8
0
100
AcDbBlockEnd
0
BLOCK
5
24
100
AcDbEntity
8
0
100
AcDbBlockBegin
2
*Paper_Space0
70
0
10
0
20
0
30
0
3
*Paper_Space0
0
ENDBLK
5
25
100
AcDbEntity
8
0
100
AcDbBlockEnd
0
BLOCK
5
28A
100
AcDbEntity
8
0
100
AcDbBlockBegin
2
DimnDraft3D1
70
0
10
0
20
0
30
0
3
DimnDraft3D1
0
MTEXT
5
283
100
AcDbEntity
8
SK2
62
256
6
ByLayer
370
-1
48
1
60
0
100
AcDbMText
10
43.169737
20
-67.0258
30
0
210
0
220
0
230
1
1
\W01.000;\fsimplex.shx,bigfont.shx;(241) 
40
4.5
41
0
44
1.084337
50
0
71
7
72
5
7
DEFAULT
0
LINE
5
285
100
AcDbEntity
8
SK2
62
256
6
ByLayer
370
-1
48
1
60
0
100
AcDbLine
10
-70
20
-21.5875
30
0
11
-70
21
-73.29455
31
0
39
0
210
0
220
0
230
1
0
LINE
5
286
100
AcDbEntity
8
SK2
62
256
6
ByLayer
370
-1
48
1
60
0
100
AcDbLine
10
171
20
-32.0875
30
0
11
171
21
-73.29455
31
0
39
0
210
0
220
0
230
1
0
LINE
5
287
100
AcDbEntity
8
SK2
62
256
6
ByLayer
370
-1
48
1
60
0
100
AcDbLine
10
-70
20
-70.11955
30
0
11
171
21
-70.11955
31
0
39
0
210
0
220
0
230
1
0
SOLID
5
288
100
AcDbEntity
8
SK2
62
256
6
ByLayer
370
-1
48
1
60
0
100
AcDbTrace
10
-70
20
-70.11955
30
0
11
-65.825003
21
-69.193975
31
0
12
-65.824997
22
-71.045125
32
0
13
-70
23
-70.11955
33
0
39
0
210
0
220
0
230
1
0
SOLID
5
289
100
AcDbEntity
8
SK2
62
256
6
ByLayer
370
-1
48
1
60
0
100
AcDbTrace
10
171
20
-70.11955
30
0
11
166.825003
21
-71.045125
31
0
12
166.824997
22
-69.193975
32
0
13
171
23
-70.11955
33
0
39
0
210
0
220
0
230
1
0
ENDBLK
5
28B
100
AcDbEntity
8
0
100
AcDbBlockEnd
0
BLOCK
5
294
100
AcDbEntity
8
0
100
AcDbBlockBegin
2
DimnDraft3D2
70
0
10
0
20
0
30
0
3
DimnDraft3D2
0
MTEXT
5
28E
100
AcDbEntity
8
SK2
62
256
6
ByLayer
370
-1
48
1
60
0
100
AcDbMText
10
-36.503947
20
-57.0258
30
0
210
0
220
0
230
1
1
\W01.000;\fsimplex.shx,bigfont.shx;70 
40
4.5
41
0
44
1.084337
50
0
71
7
72
5
7
DEFAULT
0
LINE
5
28F
100
AcDbEntity
8
SK2
62
256
6
ByLayer
370
-1
48
1
60
0
100
AcDbLine
10
-70
20
-21.5875
30
0
11
-70
21
-61.3258
31
0
39
0
210
0
220
0
230
1
0
LINE
5
290
100
AcDbEntity
8
SK2
62
256
6
ByLayer
370
-1
48
1
60
0
100
AcDbLine
10
0
20
-32.8375
30
0
11
0
21
-61.3258
31
0
39
0
210
0
220
0
230
1
0
LINE
5
291
100
AcDbEntity
8
SK2
62
256
6
ByLayer
370
-1
48
1
60
0
100
AcDbLine
10
-70
20
-58.1508
30
0
11
0
21
-58.1508
31
0
39
0
210
0
220
0
230
1
0
SOLID
5
292
100
AcDbEntity
8
SK2
62
256
6
ByLayer
370
-1
48
1
60
0
100
AcDbTrace
10
-70
20
-58.1508
30
0
11
-65.825003
21
-57.225225
31
0
12
-65.824997
22
-59.076375
32
0
13
-70
23
-58.1508
33
0
39
0
210
0
220
0
230
1
0
SOLID
5
293
100
AcDbEntity
8
SK2
62
256
6
ByLayer
370
-1
48
1
60
0
100
AcDbTrace
10
0
20
-58.1508
30
0
11
-4.174997
21
-59.076375
31
0
12
-4.175003
22
-57.225225
32
0
13
0
23
-58.1508
33
0
39
0
210
0
220
0
230
1
0
ENDBLK
5
295
100
AcDbEntity
8
0
100
AcDbBlockEnd
0
BLOCK
5
29F
100
AcDbEntity
8
0
100
AcDbBlockBegin
2
DimnDraft3D3
70
0
10
0
20
0
30
0
3
DimnDraft3D3
0
MTEXT
5
298
100
AcDbEntity
8
2
62
256
6
ByLayer
370
-1
48
1
60
0
100
AcDbMText
10
83.469079
20
-57.0258
30
0
210
0
220
0
230
1
1
\W01.000;\fsimplex.shx,bigfont.shx;171 
40
4.5
41
0
44
1.084337
50
0
71
7
72
5
7
DEFAULT
0
LINE
5
29A
100
AcDbEntity
8
2
62
256
6
ByLayer
370
-1
48
1
60
0
100
AcDbLine
10
0
20
-32.8375
30
0
11
0
21
-61.3258
31
0
39
0
210
0
220
0
230
1
0
LINE
5
29B
100
AcDbEntity
8
2
62
256
6
ByLayer
370
-1
48
1
60
0
100
AcDbLine
10
171
20
-32.0875
30
0
11
171
21
-61.3258
31
0
39
0
210
0
220
0
230
1
0
LINE
5
29C
100
AcDbEntity
8
2
62
256
6
ByLayer
370
-1
48
1
60
0
100
AcDbLine
10
0
20
-58.1508
30
0
11
171
21
-58.1508
31
0
39
0
210
0
220
0
230
1
0
SOLID
5
29D
100
AcDbEntity
8
2
62
256
6
ByLayer
370
-1
48
1
60
0
100
AcDbTrace
10
0
20
-58.1508
30
0
11
4.174997
21
-57.225225
31
0
12
4.175003
22
-59.076375
32
0
13
0
23
-58.1508
33
0
39
0
210
0
220
0
230
1
0
SOLID
5
29E
100
AcDbEntity
8
2
62
256
6
ByLayer
370
-1
48
1
60
0
100
AcDbTrace
10
171
20
-58.1508
30
0
11
166.825003
21
-59.076375
31
0
12
166.824997
22
-57.225225
32
0
13
171
23
-58.1508
33
0
39
0
210
0
220
0
230
1
0
ENDBLK
5
2A0
100
AcDbEntity
8
0
100
AcDbBlockEnd
0
BLOCK
5
2A9
100
AcDbEntity
8
0
100
AcDbBlockBegin
2
DimnDraft3D4
70
0
10
0
20
0
30
0
3
DimnDraft3D4
0
MTEXT
5
2A3
100
AcDbEntity
8
SK2
62
256
6
ByLayer
370
-1
48
1
60
0
100
AcDbMText
10
103.906579
20
-47.0258
30
0
210
0
220
0
230
1
1
\W01.000;\fsimplex.shx,bigfont.shx;129 
40
4.5
41
0
44
1.084337
50
0
71
7
72
5
7
DEFAULT
0
LINE
5
2A4
100
AcDbEntity
8
SK2
62
256
6
ByLayer
370
-1
48
1
60
0
100
AcDbLine
10
42
20
-11.5875
30
0
11
42
21
-51.3258
31
0
39
0
210
0
220
0
230
1
0
LINE
5
2A5
100
AcDbEntity
8
SK2
62
256
6
ByLayer
370
-1
48
1
60
0
100
AcDbLine
10
171
20
-32.0875
30
0
11
171
21
-51.3258
31
0
39
0
210
0
220
0
230
1
0
LINE
5
2A6
100
AcDbEntity
8
SK2
62
256
6
ByLayer
370
-1
48
1
60
0
100
AcDbLine
10
42
20
-48.1508
30
0
11
171
21
-48.1508
31
0
39
0
210
0
220
0
230
1
0
SOLID
5
2A7
100
AcDbEntity
8
SK2
62
256
6
ByLayer
370
-1
48
1
60
0
100
AcDbTrace
10
42
20
-48.1508
30
0
11
46.174997
21
-47.225225
31
0
12
46.175003
22
-49.076375
32
0
13
42
23
-48.1508
33
0
39
0
210
0
220
0
230
1
0
SOLID
5
2A8
100
AcDbEntity
8
SK2
62
256
6
ByLayer
370
-1
48
1
60
0
100
AcDbTrace
10
171
20
-48.1508
30
0
11
166.825003
21
-49.076375
31
0
12
166.824997
22
-47.225225
32
0
13
171
23
-48.1508
33
0
39
0
210
0
220
0
230
1
0
ENDBLK
5
2AA
100
AcDbEntity
8
0
100
AcDbBlockEnd
0
BLOCK
5
2B4
100
AcDbEntity
8
0
100
AcDbBlockBegin
2
DimnDraft3D5
70
0
10
0
20
0
30
0
3
DimnDraft3D5
0
MTEXT
5
2AD
100
AcDbEntity
8
SK2
62
256
6
ByLayer
370
-1
48
1
60
0
100
AcDbMText
10
-80.975
20
5.009211
30
0
210
0
220
0
230
1
1
\W01.000;\fsimplex.shx,bigfont.shx;40 
40
4.5
41
0
44
1.084337
50
90
71
7
72
5
7
DEFAULT
0
MTEXT
5
2AE
100
AcDbEntity
8
SK2
62
256
6
ByLayer
370
-1
48
1
60
0
100
AcDbMText
10
-80.975
20
-8.490789
30
0
210
0
220
0
230
1
1
\W01.000;\fsimplex.shx,bigfont.shx;%%c 
40
4.5
41
0
44
1.084337
50
90
71
7
72
5
7
DEFAULT
0
LINE
5
2AF
100
AcDbEntity
8
SK2
62
256
6
ByLayer
370
-1
48
1
60
0
100
AcDbLine
10
-71.5875
20
20
30
0
11
-81.9
21
20
31
0
39
0
210
0
220
0
230
1
0
LINE
5
2B0
100
AcDbEntity
8
SK2
62
256
6
ByLayer
370
-1
48
1
60
0
100
AcDbLine
10
-71.5875
20
-20
30
0
11
-81.9
21
-20
31
0
39
0
210
0
220
0
230
1
0
LINE
5
2B1
100
AcDbEntity
8
SK2
62
256
6
ByLayer
370
-1
48
1
60
0
100
AcDbLine
10
-78.725
20
20
30
0
11
-78.725
21
-20
31
0
39
0
210
0
220
0
230
1
0
SOLID
5
2B2
100
AcDbEntity
8
SK2
62
256
6
ByLayer
370
-1
48
1
60
0
100
AcDbTrace
10
-78.725
20
20
30
0
11
-77.799425
21
15.825003
31
0
12
-79.650575
22
15.824997
32
0
13
-78.725
23
20
33
0
39
0
210
0
220
0
230
1
0
SOLID
5
2B3
100
AcDbEntity
8
SK2
62
256
6
ByLayer
370
-1
48
1
60
0
100
AcDbTrace
10
-78.725
20
-20
30
0
11
-79.650575
21
-15.825003
31
0
12
-77.799425
22
-15.824997
32
0
13
-78.725
23
-20
33
0
39
0
210
0
220
0
230
1
0
ENDBLK
5
2B5
100
AcDbEntity
8
0
100
AcDbBlockEnd
0
BLOCK
5
2BF
100
AcDbEntity
8
0
100
AcDbBlockBegin
2
DimnDraft3D6
70
0
10
0
20
0
30
0
3
DimnDraft3D6
0
MTEXT
5
2B8
100
AcDbEntity
8
SK2
62
256
6
ByLayer
370
-1
48
1
60
0
100
AcDbMText
10
-90.975
20
2.711842
30
0
210
0
220
0
230
1
1
\W01.000;\fsimplex.shx,bigfont.shx;62.5 
40
4.5
41
0
44
1.084337
50
90
71
7
72
5
7
DEFAULT
0
MTEXT
5
2B9
100
AcDbEntity
8
SK2
62
256
6
ByLayer
370
-1
48
1
60
0
100
AcDbMText
10
-90.975
20
-10.788158
30
0
210
0
220
0
230
1
1
\W01.000;\fsimplex.shx,bigfont.shx;%%c 
40
4.5
41
0
44
1.084337
50
90
71
7
72
5
7
DEFAULT
0
LINE
5
2BA
100
AcDbEntity
8
SK2
62
256
6
ByLayer
370
-1
48
1
60
0
100
AcDbLine
10
-1.5875
20
-31.25
30
0
11
-91.9
21
-31.25
31
0
39
0
210
0
220
0
230
1
0
LINE
5
2BB
100
AcDbEntity
8
SK2
62
256
6
ByLayer
370
-1
48
1
60
0
100
AcDbLine
10
-1.5875
20
31.25
30
0
11
-91.9
21
31.25
31
0
39
0
210
0
220
0
230
1
0
LINE
5
2BC
100
AcDbEntity
8
SK2
62
256
6
ByLayer
370
-1
48
1
60
0
100
AcDbLine
10
-88.725
20
-31.25
30
0
11
-88.725
21
31.25
31
0
39
0
210
0
220
0
230
1
0
SOLID
5
2BD
100
AcDbEntity
8
SK2
62
256
6
ByLayer
370
-1
48
1
60
0
100
AcDbTrace
10
-88.725
20
-31.25
30
0
11
-89.650575
21
-27.075003
31
0
12
-87.799425
22
-27.074997
32
0
13
-88.725
23
-31.25
33
0
39
0
210
0
220
0
230
1
0
SOLID
5
2BE
100
AcDbEntity
8
SK2
62
256
6
ByLayer
370
-1
48
1
60
0
100
AcDbTrace
10
-88.725
20
31.25
30
0
11
-87.799425
21
27.075003
31
0
12
-89.650575
22
27.074997
32
0
13
-88.725
23
31.25
33
0
39
0
210
0
220
0
230
1
0
ENDBLK
5
2C0
100
AcDbEntity
8
0
100
AcDbBlockEnd
0
BLOCK
5
2CA
100
AcDbEntity
8
0
100
AcDbBlockBegin
2
DimnDraft3D7
70
0
10
0
20
0
30
0
3
DimnDraft3D7
0
MTEXT
5
2C3
100
AcDbEntity
8
2
62
256
6
ByLayer
370
-1
48
1
60
0
100
AcDbMText
10
195.725
20
5.808553
30
0
210
0
220
0
230
1
1
\W01.000;\fsimplex.shx,bigfont.shx;61 
40
4.5
41
0
44
1.084337
50
90
71
7
72
5
7
DEFAULT
0
MTEXT
5
2C4
100
AcDbEntity
8
2
62
256
6
ByLayer
370
-1
48
1
60
0
100
AcDbMText
10
195.725
20
-7.691447
30
0
210
0
220
0
230
1
1
\W01.000;\fsimplex.shx,bigfont.shx;%%c 
40
4.5
41
0
44
1.084337
50
90
71
7
72
5
7
DEFAULT
0
LINE
5
2C5
100
AcDbEntity
8
2
62
256
6
ByLayer
370
-1
48
1
60
0
100
AcDbLine
10
172.5875
20
30.5
30
0
11
201.15
21
30.5
31
0
39
0
210
0
220
0
230
1
0
LINE
5
2C6
100
AcDbEntity
8
2
62
256
6
ByLayer
370
-1
48
1
60
0
100
AcDbLine
10
172.5875
20
-30.5
30
0
11
201.15
21
-30.5
31
0
39
0
210
0
220
0
230
1
0
LINE
5
2C7
100
AcDbEntity
8
2
62
256
6
ByLayer
370
-1
48
1
60
0
100
AcDbLine
10
197.975
20
30.5
30
0
11
197.975
21
-30.5
31
0
39
0
210
0
220
0
230
1
0
SOLID
5
2C8
100
AcDbEntity
8
2
62
256
6
ByLayer
370
-1
48
1
60
0
100
AcDbTrace
10
197.975
20
30.5
30
0
11
198.900575
21
26.325003
31
0
12
197.049425
22
26.324997
32
0
13
197.975
23
30.5
33
0
39
0
210
0
220
0
230
1
0
SOLID
5
2C9
100
AcDbEntity
8
2
62
256
6
ByLayer
370
-1
48
1
60
0
100
AcDbTrace
10
197.975
20
-30.5
30
0
11
197.049425
21
-26.325003
31
0
12
198.900575
22
-26.324997
32
0
13
197.975
23
-30.5
33
0
39
0
210
0
220
0
230
1
0
ENDBLK
5
2CB
100
AcDbEntity
8
0
100
AcDbBlockEnd
0
ENDSEC
0
SECTION
2
ENTITIES
0
ARC
5
EE
100
AcDbEntity
8
SK1
62
256
6
ByLayer
370
-1
48
1
60
0
100
AcDbCircle
39
0
10
1.383773
20
20.15
30
0
40
0.4
210
0
220
0
230
-1
100
AcDbArc
50
270
51
295
0
ARC
5
EF
100
AcDbEntity
8
SK1
62
256
6
ByLayer
370
-1
48
1
60
0
100
AcDbCircle
39
0
10
1.383773
20
-20.15
30
0
40
0.4
210
0
220
0
230
-1
100
AcDbArc
50
65
51
90
0
ARC
5
F0
100
AcDbEntity
8
SK1
62
256
6
ByLayer
370
-1
48
1
60
0
100
AcDbCircle
39
0
10
0.15
20
20.15
30
0
40
0.4
210
0
220
0
230
-1
100
AcDbArc
50
247.975687
51
270
0
ARC
5
F1
100
AcDbEntity
8
SK1
62
256
6
ByLayer
370
-1
48
1
60
0
100
AcDbCircle
39
0
10
0.15
20
-20.15
30
0
40
0.4
210
0
220
0
230
-1
100
AcDbArc
50
90
51
112.024313
0
ARC
5
F2
100
AcDbEntity
8
SK1
62
256
6
ByLayer
370
-1
48
1
60
0
100
AcDbCircle
39
0
10
67.894506
20
20.396
30
0
40
0.8
210
0
220
0
230
-1
100
AcDbArc
50
250.982048
51
321
0
ARC
5
F3
100
AcDbEntity
8
SK1
62
256
6
ByLayer
370
-1
48
1
60
0
100
AcDbCircle
39
0
10
67.894506
20
-20.396
30
0
40
0.8
210
0
220
0
230
-1
100
AcDbArc
50
39
51
109.017952
0
ELLIPSE
5
F4
100
AcDbEntity
8
1
62
256
6
ByLayer
370
-1
48
1
60
0
100
AcDbEllipse
10
149.135387
20
0
30
0
11
-138.063507003141
21
1.89373339150511
31
0
210
0
220
0
230
-1
40
0.213955
41
-1.58487988716994
42
-1.45996697399404
0
ELLIPSE
5
F5
100
AcDbEntity
8
1
62
256
6
ByLayer
370
-1
48
1
60
0
100
AcDbEllipse
10
152.672798
20
12.870996
30
0
11
-0.799516360141551
21
-0.0278134835287907
31
0
210
0
220
0
230
1
40
0.003042
41
0.0872135714666033
42
0.835501239378739
0
ELLIPSE
5
F6
100
AcDbEntity
8
1
62
256
6
ByLayer
370
-1
48
1
60
0
100
AcDbEllipse
10
153.709788
20
20.311857
30
0
11
-2.25092568282431E-15
21
-2.1
31
0
210
0
220
0
230
1
40
0.996195
41
-2.04006119942522
42
-1.53588974175501
0
ELLIPSE
5
F7
100
AcDbEntity
8
1
62
256
6
ByLayer
370
-1
48
1
60
0
100
AcDbEllipse
10
153.265294
20
20.311857
30
0
11
2.46005201886418E-15
21
2.1
31
0
210
0
220
0
230
1
40
0.996195
41
0.936707351596552
42
1.60570291183478
0
ELLIPSE
5
F8
100
AcDbEntity
8
1
62
256
6
ByLayer
370
-1
48
1
60
0
100
AcDbEllipse
10
152.204954
20
0.000962
30
0
11
-0.958370541168691
21
29.5989195171031
31
0
210
0
220
0
230
-1
40
0.087399
41
0.0296860254079292
42
0.0355947628362481
0
ELLIPSE
5
F9
100
AcDbEntity
8
1
62
256
6
ByLayer
370
-1
48
1
60
0
100
AcDbEllipse
10
168.908481
20
12.50459
30
0
11
-0.0132702249274551
21
0.800024193325157
31
0
210
0
220
0
230
-1
40
0.121023
41
2.37677328762611
42
-3.14077297212485
0
ELLIPSE
5
FA
100
AcDbEntity
8
1
62
256
6
ByLayer
370
-1
48
1
60
0
100
AcDbEllipse
10
168.21959
20
-17.209483
30
0
11
-0.160006559372033
21
3.27690360478249
31
0
210
0
220
0
230
-1
40
0.111049
41
-0.307662402866128
42
0.419792609774693
0
ELLIPSE
5
FB
100
AcDbEntity
8
1
62
256
6
ByLayer
370
-1
48
1
60
0
100
AcDbEllipse
10
152.365621
20
22.402276
30
0
11
-0.77330692509075
21
-0.824449282445476
31
0
210
0
220
0
230
-1
40
0.04503
41
-0.751663146369719
42
-0.698503673058117
0
ELLIPSE
5
FC
100
AcDbEntity
8
1
62
256
6
ByLayer
370
-1
48
1
60
0
100
AcDbEllipse
10
121.971143
20
23.269912
30
0
11
-1.91499587561404
21
-12.2512362966511
31
0
210
0
220
0
230
1
40
0.21448
41
1.38190803580148
42
1.54597161326913
0
ELLIPSE
5
FD
100
AcDbEntity
8
1
62
256
6
ByLayer
370
-1
48
1
60
0
100
AcDbEllipse
10
153.522568
20
12.916365
30
0
11
2.46005201886418E-15
21
2.1
31
0
210
0
220
0
230
1
40
0.996195
41
1.60570291183478
42
1.85734834615478
0
ELLIPSE
5
FE
100
AcDbEntity
8
1
62
256
6
ByLayer
370
-1
48
1
60
0
100
AcDbEllipse
10
161.210624
20
-7.526276
30
0
11
-2
21
2.02127811016473E-15
31
0
210
0
220
0
230
1
40
0.998135
41
-2.12106600584354
42
-1.02062521243922
0
ELLIPSE
5
FF
100
AcDbEntity
8
1
62
256
6
ByLayer
370
-1
48
1
60
0
100
AcDbEllipse
10
161.210624
20
-7.526276
30
0
11
-2
21
2.02127811016473E-15
31
0
210
0
220
0
230
1
40
0.998135
41
0
42
6.28318530717959
0
ELLIPSE
5
100
100
AcDbEntity
8
1
62
256
6
ByLayer
370
-1
48
1
60
0
100
AcDbEllipse
10
144.997665
20
13.93618
30
0
11
-0.32642564083682
21
-0.730374082922081
31
0
210
0
220
0
230
1
40
0.079621
41
0.0355698365710779
42
1.60636616336575
0
ELLIPSE
5
101
100
AcDbEntity
8
1
62
256
6
ByLayer
370
-1
48
1
60
0
100
AcDbEllipse
10
160.408787
20
-1.3E-05
30
0
11
-338.329623471812
21
-3.83361191630915E-13
31
0
210
0
220
0
230
-1
40
0.087489
41
1.53452485652574
42
1.54394059539984
0
ELLIPSE
5
102
100
AcDbEntity
8
1
62
256
6
ByLayer
370
-1
48
1
60
0
100
AcDbEllipse
10
161.210624
20
-7.025678
30
0
11
-1.65
21
1.6675544408859E-15
31
0
210
0
220
0
230
1
40
0.998135
41
3.14159250247964
42
0
0
ELLIPSE
5
103
100
AcDbEntity
8
1
62
256
6
ByLayer
370
-1
48
1
60
0
100
AcDbEllipse
10
161.210624
20
-7.025678
30
0
11
-1.65
21
1.6675544408859E-15
31
0
210
0
220
0
230
1
40
0.998135
41
0
42
0.447186085011951
0
ELLIPSE
5
104
100
AcDbEntity
8
1
62
256
6
ByLayer
370
-1
48
1
60
0
100
AcDbEllipse
10
161.210624
20
-7.025678
30
0
11
-1.65
21
1.6675544408859E-15
31
0
210
0
220
0
230
1
40
0.998135
41
2.6112522532977
42
3.14159250247965
0
ELLIPSE
5
105
100
AcDbEntity
8
1
62
256
6
ByLayer
370
-1
48
1
60
0
100
AcDbEllipse
10
161.994577
20
20.680754
30
0
11
2.34290668463255E-15
21
2
31
0
210
0
220
0
230
1
40
0.996195
41
0.101807365448952
42
1.57079654872776
0
ELLIPSE
5
106
100
AcDbEntity
8
1
62
256
6
ByLayer
370
-1
48
1
60
0
100
AcDbEllipse
10
161.994577
20
20.680754
30
0
11
2.34290668463255E-15
21
2
31
0
210
0
220
0
230
1
40
0.996195
41
1.57079654872776
42
3.03860729631731
0
ELLIPSE
5
107
100
AcDbEntity
8
1
62
256
6
ByLayer
370
-1
48
1
60
0
100
AcDbEllipse
10
152.847016
20
31.476253
30
0
11
2.24919041724725E-14
21
19.2
31
0
210
0
220
0
230
1
40
0.996195
41
2.72271363311116
42
3.07194059112382
0
ELLIPSE
5
108
100
AcDbEntity
8
1
62
256
6
ByLayer
370
-1
48
1
60
0
100
AcDbEllipse
10
152.777291
20
31.476253
30
0
11
-2.14373874554696E-14
21
-20
31
0
210
0
220
0
230
1
40
0.996195
41
-0.418879020478638
42
-0.0434047493287107
0
ELLIPSE
5
109
100
AcDbEntity
8
1
62
256
6
ByLayer
370
-1
48
1
60
0
100
AcDbEllipse
10
148.147238
20
19.7
30
0
11
1.17145334231393E-16
21
0.0999999999997999
31
0
210
0
220
0
230
1
40
0.97618
41
2.99017349066761
42
3.06495596900139
0
ELLIPSE
5
10A
100
AcDbEntity
8
1
62
256
6
ByLayer
370
-1
48
1
60
0
100
AcDbEllipse
10
173.721548
20
0
30
0
11
-67.3551063982087
21
28.6845548145632
31
0
210
0
220
0
230
-1
40
0.108448
41
-1.13080079610634
42
-0.367330198425039
0
ELLIPSE
5
10B
100
AcDbEntity
8
1
62
256
6
ByLayer
370
-1
48
1
60
0
100
AcDbEllipse
10
167.81723
20
-17.053089
30
0
11
-0.275107834925404
21
-3.10965088155849
31
0
210
0
220
0
230
-1
40
0.123586
41
-2.73543148435279
42
2.82029881018396
0
ELLIPSE
5
10C
100
AcDbEntity
8
1
62
256
6
ByLayer
370
-1
48
1
60
0
100
AcDbEllipse
10
153.87196
20
12.916365
30
0
11
-1.83236116208178
21
-1.63166900512431
31
0
210
0
220
0
230
-1
40
0.721468
41
-1.30152588459318
42
-0.789346067692021
0
ELLIPSE
5
10D
100
AcDbEntity
8
1
62
256
6
ByLayer
370
-1
48
1
60
0
100
AcDbEllipse
10
169.303033
20
-15.324847
30
0
11
-0.0775054657239717
21
-0.878086631931203
31
0
210
0
220
0
230
-1
40
0.115224
41
0.00370845515630554
42
1.57450478195027
0
ELLIPSE
5
10E
100
AcDbEntity
8
1
62
256
6
ByLayer
370
-1
48
1
60
0
100
AcDbEllipse
10
-47.360989
20
-1E-06
30
0
11
-526.425294884898
21
-28.6249965951409
31
0
210
0
220
0
230
-1
40
0.014313
41
-1.98638249230035
42
-1.95713632391283
0
ELLIPSE
5
10F
100
AcDbEntity
8
1
62
256
6
ByLayer
370
-1
48
1
60
0
100
AcDbEllipse
10
169.1556
20
0
30
0
11
-1.79607738936206
21
29.5992271421438
31
0
210
0
220
0
230
-1
40
0.119092
41
-2.04048422002084
42
-1.53269232095794
0
ELLIPSE
5
110
100
AcDbEntity
8
1
62
256
6
ByLayer
370
-1
48
1
60
0
100
AcDbEllipse
10
118.682186
20
23.793088
30
0
11
-30.8982615283154
21
17.1397057914178
31
0
210
0
220
0
230
-1
40
0.097504
41
-2.4178337285889
42
-1.66095996802753
0
ELLIPSE
5
111
100
AcDbEntity
8
1
62
256
6
ByLayer
370
-1
48
1
60
0
100
AcDbEllipse
10
152.415524
20
20.266488
30
0
11
-0.799516360141551
21
-0.0278134835287907
31
0
210
0
220
0
230
1
40
0.003042
41
0.08721357146807
42
0.835501239379545
0
ELLIPSE
5
112
100
AcDbEntity
8
1
62
256
6
ByLayer
370
-1
48
1
60
0
100
AcDbEllipse
10
168.600146
20
0.368588
30
0
11
-0.0139567840320756
21
0.800956077000817
31
0
210
0
220
0
230
-1
40
0.121671
41
-1.50338209606003
42
0.0674142307202118
0
ELLIPSE
5
113
100
AcDbEntity
8
1
62
256
6
ByLayer
370
-1
48
1
60
0
100
AcDbEllipse
10
161.384487
20
20.680754
30
0
11
2.63577002021162E-15
21
2.25
31
0
210
0
220
0
230
1
40
0.996195
41
-1.85157617454789
42
0
0
ELLIPSE
5
114
100
AcDbEntity
8
1
62
256
6
ByLayer
370
-1
48
1
60
0
100
AcDbEllipse
10
161.384487
20
20.680754
30
0
11
2.63577002021162E-15
21
2.25
31
0
210
0
220
0
230
1
40
0.996195
41
0
42
1.16248744141283
0
ELLIPSE
5
115
100
AcDbEntity
8
1
62
256
6
ByLayer
370
-1
48
1
60
0
100
AcDbEllipse
10
152.969327
20
0
30
0
11
-133.179627908275
21
-1.50905795159057E-13
31
0
210
0
220
0
230
-1
40
0.222256
41
1.40834931014342
42
1.53452484846586
0
ELLIPSE
5
116
100
AcDbEntity
8
1
62
256
6
ByLayer
370
-1
48
1
60
0
100
AcDbEllipse
10
121.149394
20
23.39836
30
0
11
-42.3987645734628
21
19.1702870612016
31
0
210
0
220
0
230
-1
40
0.009652
41
2.08272354316008
42
2.15261534039988
0
ELLIPSE
5
117
100
AcDbEntity
8
1
62
256
6
ByLayer
370
-1
48
1
60
0
100
AcDbEllipse
10
21.3
20
-15.656358
30
0
11
15
21
0
31
0
210
0
220
0
230
1
40
0.991553
41
3.14157018900176
42
-2.72722567573669
0
ELLIPSE
5
118
100
AcDbEntity
8
1
62
256
6
ByLayer
370
-1
48
1
60
0
100
AcDbEllipse
10
145.442184
20
19.601144
30
0
11
-1.91499587561404
21
-12.2512362966511
31
0
210
0
220
0
230
1
40
0.21448
41
1.56079376248503
42
1.60430917105588
0
ELLIPSE
5
119
100
AcDbEntity
8
1
62
256
6
ByLayer
370
-1
48
1
60
0
100
AcDbEllipse
10
171.270295
20
0
30
0
11
-2.43411000508253
21
-29.5984013591164
31
0
210
0
220
0
230
-1
40
0.126383
41
0.0395445095274784
42
1.08348893387718
0
ELLIPSE
5
11A
100
AcDbEntity
8
1
62
256
6
ByLayer
370
-1
48
1
60
0
100
AcDbEllipse
10
161.584945
20
20.680754
30
0
11
2.63577002021162E-15
21
2.25
31
0
210
0
220
0
230
1
40
0.996195
41
0.0349501263397862
42
1.57079643761665
0
ELLIPSE
5
11B
100
AcDbEntity
8
1
62
256
6
ByLayer
370
-1
48
1
60
0
100
AcDbEllipse
10
161.584945
20
20.680754
30
0
11
2.63577002021162E-15
21
2.25
31
0
210
0
220
0
230
1
40
0.996195
41
1.57079643761666
42
1.87572723107153
0
ELLIPSE
5
11C
100
AcDbEntity
8
1
62
256
6
ByLayer
370
-1
48
1
60
0
100
AcDbEllipse
10
153.967062
20
12.916365
30
0
11
-2.25092568282431E-15
21
-2.1
31
0
210
0
220
0
230
1
40
0.996195
41
-1.53588974175501
42
-0.989768096475471
0
ELLIPSE
5
11D
100
AcDbEntity
8
1
62
256
6
ByLayer
370
-1
48
1
60
0
100
AcDbEllipse
10
153.967062
20
12.916365
30
0
11
-2.25092568282431E-15
21
-2.1
31
0
210
0
220
0
230
1
40
0.996195
41
-0.883665763009205
42
-0.185238245500805
0
ELLIPSE
5
11E
100
AcDbEntity
8
1
62
256
6
ByLayer
370
-1
48
1
60
0
100
AcDbEllipse
10
145.442184
20
19.601144
30
0
11
-1.91499587561404
21
-12.2512362966511
31
0
210
0
220
0
230
1
40
0.21448
41
0.291223405280235
42
0.967035766752397
0
ELLIPSE
5
11F
100
AcDbEntity
8
1
62
256
6
ByLayer
370
-1
48
1
60
0
100
AcDbEllipse
10
53.884324
20
33.912592
30
0
11
-94.2364204813639
21
14.5616719082694
31
0
210
0
220
0
230
-1
40
0.130029
41
-3.11816699412391
42
-2.76361579665533
0
ELLIPSE
5
120
100
AcDbEntity
8
1
62
256
6
ByLayer
370
-1
48
1
60
0
100
AcDbEllipse
10
169.18602
20
0
30
0
11
-0.500685728902065
21
29.5999371181908
31
0
210
0
220
0
230
-1
40
0.121851
41
-1.53785756704546
42
-1.41052746655213
0
ELLIPSE
5
121
100
AcDbEntity
8
1
62
256
6
ByLayer
370
-1
48
1
60
0
100
AcDbEllipse
10
161.210624
20
-7.098557
30
0
11
-1.65
21
1.6675544408859E-15
31
0
210
0
220
0
230
1
40
0.998135
41
-3.1194053668462
42
-0.0222858030519286
0
ELLIPSE
5
122
100
AcDbEntity
8
1
62
256
6
ByLayer
370
-1
48
1
60
0
100
AcDbEllipse
10
161.210624
20
-7.098557
30
0
11
-1.65
21
1.6675544408859E-15
31
0
210
0
220
0
230
1
40
0.998135
41
0
42
6.28318530717959
0
ELLIPSE
5
123
100
AcDbEntity
8
1
62
256
6
ByLayer
370
-1
48
1
60
0
100
AcDbEllipse
10
161.584945
20
20.680754
30
0
11
2.34290668463255E-15
21
2
31
0
210
0
220
0
230
1
40
0.996195
41
-2.31505908012445
42
0
0
ELLIPSE
5
124
100
AcDbEntity
8
1
62
256
6
ByLayer
370
-1
48
1
60
0
100
AcDbEllipse
10
161.584945
20
20.680754
30
0
11
2.34290668463255E-15
21
2
31
0
210
0
220
0
230
1
40
0.996195
41
0
42
1.57079625281728
0
ELLIPSE
5
125
100
AcDbEntity
8
1
62
256
6
ByLayer
370
-1
48
1
60
0
100
AcDbEllipse
10
161.584945
20
20.680754
30
0
11
2.34290668463255E-15
21
2
31
0
210
0
220
0
230
1
40
0.996195
41
1.57079654872778
42
-2.77098265070852
0
ELLIPSE
5
126
100
AcDbEntity
8
1
62
256
6
ByLayer
370
-1
48
1
60
0
100
AcDbEllipse
10
161.210624
20
-7.025678
30
0
11
2.1
21
0
31
0
210
0
220
0
230
1
40
0.998135
41
0.147163772070476
42
2.99992604553378
0
ELLIPSE
5
127
100
AcDbEntity
8
1
62
256
6
ByLayer
370
-1
48
1
60
0
100
AcDbEllipse
10
157.199268
20
17.551913
30
0
11
0.373651049327859
21
-0.347109339165903
31
0
210
0
220
0
230
1
40
0.05944
41
1.47029936263275
42
2.15039938434915
0
ELLIPSE
5
128
100
AcDbEntity
8
1
62
256
6
ByLayer
370
-1
48
1
60
0
100
AcDbEllipse
10
157.503579
20
17.093412
30
0
11
6.37270618220054E-16
21
0.544
31
0
210
0
220
0
230
1
40
0.996195
41
1.74759996643897
42
-2.42145532631398
0
ELLIPSE
5
129
100
AcDbEntity
8
1
62
256
6
ByLayer
370
-1
48
1
60
0
100
AcDbEllipse
10
165.840159
20
16.777147
30
0
11
0.399758180070775
21
0.0139067417643955
31
0
210
0
220
0
230
1
40
0.003042
41
-1.48358275532889
42
-1.00467767045127
0
ELLIPSE
5
12A
100
AcDbEntity
8
1
62
256
6
ByLayer
370
-1
48
1
60
0
100
AcDbEllipse
10
165.061355
20
22.357036
30
0
11
0.377881813134091
21
0.131169109558966
31
0
210
0
220
0
230
1
40
0.028678
41
-1.9672716711023
42
-1.48836658622706
0
ELLIPSE
5
12B
100
AcDbEntity
8
1
62
256
6
ByLayer
370
-1
48
1
60
0
100
AcDbEllipse
10
162.28737
20
25.349222
30
0
11
-3.21560811832042E-16
21
-0.299999999999998
31
0
210
0
220
0
230
1
40
0.996195
41
-3.10668606854979
42
-0.265473614744811
0
ELLIPSE
5
12C
100
AcDbEntity
8
1
62
256
6
ByLayer
370
-1
48
1
60
0
100
AcDbEllipse
10
165.274134
20
25.453921
30
0
11
-3.21560811832043E-16
21
-0.299999999999999
31
0
210
0
220
0
230
1
40
0.996195
41
1.60570291183477
42
-3.10668606854979
0
ELLIPSE
5
12D
100
AcDbEntity
8
1
62
256
6
ByLayer
370
-1
48
1
60
0
100
AcDbEllipse
10
157.305657
20
24.505008
30
0
11
-3.27992028068685E-16
21
-0.306
31
0
210
0
220
0
230
1
40
0.996195
41
-0.194895099806065
42
1.83550459668068
0
ELLIPSE
5
12E
100
AcDbEntity
8
1
62
256
6
ByLayer
370
-1
48
1
60
0
100
AcDbEllipse
10
157.211947
20
17.565561
30
0
11
-0.71944107934438
21
-0.0251232539491046
31
0
210
0
220
0
230
-1
40
0.002159
41
-2.2760446950955
42
-1.63254358572119
0
ELLIPSE
5
12F
100
AcDbEntity
8
1
62
256
6
ByLayer
370
-1
48
1
60
0
100
AcDbEllipse
10
156.199097
20
24.717232
30
0
11
0.099131498336372
21
0.500272871578687
31
0
210
0
220
0
230
1
40
0.085506
41
-1.55385457642578
42
-0.910353467632208
0
ELLIPSE
5
130
100
AcDbEntity
8
1
62
256
6
ByLayer
370
-1
48
1
60
0
100
AcDbEllipse
10
165.270212
20
25.453921
30
0
11
-5.19131082315855E-16
21
-0.484323085911666
31
0
210
0
220
0
230
1
40
0.996195
41
1.6057029118348
42
-3.10668606854987
0
ELLIPSE
5
131
100
AcDbEntity
8
1
62
256
6
ByLayer
370
-1
48
1
60
0
100
AcDbEllipse
10
157.270097
20
24.505008
30
0
11
0.492364140378782
21
0.132956960212932
31
0
210
0
220
0
230
1
40
0.022802
41
-1.48655483674065
42
-0.843053727948011
0
ELLIPSE
5
132
100
AcDbEntity
8
1
62
256
6
ByLayer
370
-1
48
1
60
0
100
AcDbEllipse
10
156.199097
20
24.717232
30
0
11
-1.65004005466361
21
0.846499038410644
31
0
210
0
220
0
230
-1
40
0.010943
41
1.59212368541643
42
2.2356247942226
0
ELLIPSE
5
133
100
AcDbEntity
8
1
62
256
6
ByLayer
370
-1
48
1
60
0
100
AcDbEllipse
10
162.174098
20
25.059732
30
0
11
0.105319664736271
21
0.385885693204399
31
0
210
0
220
0
230
1
40
0.084103
41
-2.0267513630576
42
-1.54784627818304
0
ELLIPSE
5
134
100
AcDbEntity
8
1
62
256
6
ByLayer
370
-1
48
1
60
0
100
AcDbEllipse
10
157.247506
20
17.565561
30
0
11
3.5846472274878E-16
21
0.306
31
0
210
0
220
0
230
1
40
0.996195
41
0.881327184779148
42
2.39110107523224
0
ELLIPSE
5
135
100
AcDbEntity
8
1
62
256
6
ByLayer
370
-1
48
1
60
0
100
AcDbEllipse
10
157.270097
20
24.505008
30
0
11
-0.70556329141024
21
0.659061826765077
31
0
210
0
220
0
230
-1
40
0.031444
41
0.96094508782642
42
1.60444619679639
0
ELLIPSE
5
136
100
AcDbEntity
8
1
62
256
6
ByLayer
370
-1
48
1
60
0
100
AcDbEllipse
10
165.468123
20
19.764849
30
0
11
-5.19131082315857E-16
21
-0.484323085911668
31
0
210
0
220
0
230
1
40
0.996195
41
1.6057029118348
42
-1.83626994153952
0
ELLIPSE
5
137
100
AcDbEntity
8
1
62
256
6
ByLayer
370
-1
48
1
60
0
100
AcDbEllipse
10
162.565149
20
16.362161
30
0
11
0.0140130575244593
21
-0.399754467415708
31
0
210
0
220
0
230
1
40
0.087103
41
1.08883794108431
42
1.56774302595899
0
ELLIPSE
5
138
100
AcDbEntity
8
1
62
256
6
ByLayer
370
-1
48
1
60
0
100
AcDbEllipse
10
158.257448
20
16.703114
30
0
11
-0.406468958660142
21
0.308030819311541
31
0
210
0
220
0
230
1
40
0.052768
41
-2.28381636720057
42
-0.99681414961418
0
ELLIPSE
5
139
100
AcDbEntity
8
1
62
256
6
ByLayer
370
-1
48
1
60
0
100
AcDbEllipse
10
165.472045
20
19.764849
30
0
11
3.51436002694884E-16
21
0.300000000000001
31
0
210
0
220
0
230
1
40
0.996195
41
-1.53588974175502
42
1.30532271205024
0
ELLIPSE
5
13A
100
AcDbEntity
8
1
62
256
6
ByLayer
370
-1
48
1
60
0
100
AcDbEllipse
10
158.382473
20
24.287339
30
0
11
-3.27992028068685E-16
21
-0.306
31
0
210
0
220
0
230
1
40
0.996195
41
-0.750491578357432
42
2.39110107523211
0
ELLIPSE
5
13B
100
AcDbEntity
8
1
62
256
6
ByLayer
370
-1
48
1
60
0
100
AcDbEllipse
10
165.642248
20
22.466218
30
0
11
-0.399758180070775
21
-0.0139067417643951
31
0
210
0
220
0
230
1
40
0.003042
41
1.6580098982609
42
2.13691498313504
0
ELLIPSE
5
13C
100
AcDbEntity
8
1
62
256
6
ByLayer
370
-1
48
1
60
0
100
AcDbEllipse
10
156.945147
20
17.73237
30
0
11
2.34993540468645E-15
21
2.006
31
0
210
0
220
0
230
1
40
0.996195
41
-2.421455326314
42
-2.2211204839909
0
ELLIPSE
5
13D
100
AcDbEntity
8
1
62
256
6
ByLayer
370
-1
48
1
60
0
100
AcDbEllipse
10
157.673941
20
18.062882
30
0
11
-0.0546667450361105
21
-0.507061679667431
31
0
210
0
220
0
230
1
40
0.086657
41
1.58013866027565
42
2.22363976906918
0
ELLIPSE
5
13E
100
AcDbEntity
8
1
62
256
6
ByLayer
370
-1
48
1
60
0
100
AcDbEllipse
10
156.199097
20
24.717232
30
0
11
0.348527918949297
21
0.372328201608302
31
0
210
0
220
0
230
1
40
0.063742
41
-2.1547009679558
42
-1.51119985916242
0
ELLIPSE
5
13F
100
AcDbEntity
8
1
62
256
6
ByLayer
370
-1
48
1
60
0
100
AcDbEllipse
10
158.346914
20
24.287339
30
0
11
0.348527918949297
21
0.372328201608302
31
0
210
0
220
0
230
1
40
0.063742
41
-2.15470096795555
42
-0.867698750369056
0
ELLIPSE
5
140
100
AcDbEntity
8
1
62
256
6
ByLayer
370
-1
48
1
60
0
100
AcDbEllipse
10
161.191294
20
20.958616
30
0
11
-3.19627500372467E-15
21
-2.98196318032136
31
0
210
0
220
0
230
1
40
0.996195
41
0
42
6.28318530717959
0
ELLIPSE
5
141
100
AcDbEntity
8
1
62
256
6
ByLayer
370
-1
48
1
60
0
100
AcDbEllipse
10
156.984487
20
25.562676
30
0
11
-0.956951142891637
21
1.59255145021186
31
0
210
0
220
0
230
-1
40
0.020508
41
1.58311883783363
42
2.22661994680765
0
ELLIPSE
5
142
100
AcDbEntity
8
1
62
256
6
ByLayer
370
-1
48
1
60
0
100
AcDbEllipse
10
157.583518
20
17.217742
30
0
11
-0.348527918949297
21
-0.372328201608302
31
0
210
0
220
0
230
1
40
0.063742
41
0.986891685634244
42
2.2738939032205
0
ELLIPSE
5
143
100
AcDbEntity
8
1
62
256
6
ByLayer
370
-1
48
1
60
0
100
AcDbEllipse
10
158.026451
20
16.454454
30
0
11
-0.337063013710963
21
0.382738193531927
31
0
210
0
220
0
230
1
40
0.065516
41
-2.27193125321738
42
-0.984929035630804
0
ELLIPSE
5
144
100
AcDbEntity
8
1
62
256
6
ByLayer
370
-1
48
1
60
0
100
AcDbEllipse
10
157.503579
20
17.093412
30
0
11
1.35420006371761E-15
21
1.156
31
0
210
0
220
0
230
1
40
0.996195
41
1.74759996643894
42
-2.42145532631398
0
ELLIPSE
5
145
100
AcDbEntity
8
1
62
256
6
ByLayer
370
-1
48
1
60
0
100
AcDbEllipse
10
156.945147
20
17.73237
30
0
11
1.63300595918889E-15
21
1.394
31
0
210
0
220
0
230
1
40
0.996195
41
-2.42145532631397
42
-2.22112048399087
0
ELLIPSE
5
146
100
AcDbEntity
8
1
62
256
6
ByLayer
370
-1
48
1
60
0
100
AcDbEllipse
10
156.234656
20
24.717232
30
0
11
3.5846472274878E-16
21
0.306
31
0
210
0
220
0
230
1
40
0.996195
41
-0.194895099805997
42
2.39110107523212
0
ELLIPSE
5
147
100
AcDbEntity
8
1
62
256
6
ByLayer
370
-1
48
1
60
0
100
AcDbEllipse
10
161.351822
20
20.958616
30
0
11
-2.51889302601768E-15
21
-2.35
31
0
210
0
220
0
230
1
40
0.996195
41
3.09878844376696
42
0
0
ELLIPSE
5
148
100
AcDbEntity
8
1
62
256
6
ByLayer
370
-1
48
1
60
0
100
AcDbEllipse
10
161.351822
20
20.958616
30
0
11
-2.51889302601768E-15
21
-2.35
31
0
210
0
220
0
230
1
40
0.996195
41
0
42
0.0335758030814264
0
ELLIPSE
5
149
100
AcDbEntity
8
1
62
256
6
ByLayer
370
-1
48
1
60
0
100
AcDbEllipse
10
157.199268
20
17.551913
30
0
11
-0.373400828126681
21
0.346876892031235
31
0
210
0
220
0
230
1
40
0.05944
41
-1.63469437803416
42
-0.992087287820067
0
ELLIPSE
5
14A
100
AcDbEntity
8
1
62
256
6
ByLayer
370
-1
48
1
60
0
100
AcDbEllipse
10
161.16758
20
20.958616
30
0
11
-3.30786649004912E-15
21
-3.0860724021715
31
0
210
0
220
0
230
1
40
0.996195
41
2.2155101975546
42
0
0
ELLIPSE
5
14B
100
AcDbEntity
8
1
62
256
6
ByLayer
370
-1
48
1
60
0
100
AcDbEllipse
10
161.16758
20
20.958616
30
0
11
-3.30786649004912E-15
21
-3.0860724021715
31
0
210
0
220
0
230
1
40
0.996195
41
0
42
0.92608266050835
0
ELLIPSE
5
14C
100
AcDbEntity
8
1
62
256
6
ByLayer
370
-1
48
1
60
0
100
AcDbEllipse
10
165.572423
20
16.766677
30
0
11
-5.19131082315855E-16
21
-0.484323085911666
31
0
210
0
220
0
230
1
40
0.996195
41
0.034906585039867
42
1.6057029118348
0
ELLIPSE
5
14D
100
AcDbEntity
8
1
62
256
6
ByLayer
370
-1
48
1
60
0
100
AcDbEllipse
10
162.456383
20
16.945273
30
0
11
0.13206404143556
21
-0.377569978890943
31
0
210
0
220
0
230
1
40
0.082303
41
1.54201700516305
42
2.02092209003738
0
ELLIPSE
5
14E
100
AcDbEntity
8
1
62
256
6
ByLayer
370
-1
48
1
60
0
100
AcDbEllipse
10
156.984487
20
25.562676
30
0
11
0.348527918949297
21
0.372328201608302
31
0
210
0
220
0
230
1
40
0.063742
41
-1.51119985916242
42
-0.867698750369297
0
ELLIPSE
5
14F
100
AcDbEntity
8
1
62
256
6
ByLayer
370
-1
48
1
60
0
100
AcDbEllipse
10
156.634454
20
16.94391
30
0
11
0.502108561637824
21
0.0893699744321066
31
0
210
0
220
0
230
1
40
0.015329
41
-2.12838464107846
42
-0.841382423492335
0
ELLIPSE
5
150
100
AcDbEntity
8
1
62
256
6
ByLayer
370
-1
48
1
60
0
100
AcDbEllipse
10
162.589581
20
16.661978
30
0
11
3.5143600269488E-16
21
0.299999999999998
31
0
210
0
220
0
230
1
40
0.996195
41
0.335286784824451
42
-3.10668606854988
0
ELLIPSE
5
151
100
AcDbEntity
8
1
62
256
6
ByLayer
370
-1
48
1
60
0
100
AcDbEllipse
10
165.551912
20
16.46686
30
0
11
0.0140130575244593
21
-0.399754467415708
31
0
210
0
220
0
230
1
40
0.087103
41
1.08883794108431
42
1.56774302595899
0
ELLIPSE
5
152
100
AcDbEntity
8
1
62
256
6
ByLayer
370
-1
48
1
60
0
100
AcDbEllipse
10
161.094224
20
20.958616
30
0
11
4.76275080978689E-15
21
4.06567691408833
31
0
210
0
220
0
230
1
40
0.996195
41
-2.80630586876536
42
-1.83626994153954
0
ELLIPSE
5
153
100
AcDbEntity
8
1
62
256
6
ByLayer
370
-1
48
1
60
0
100
AcDbEllipse
10
156.984487
20
25.562676
30
0
11
0.492364140378782
21
0.132956960212932
31
0
210
0
220
0
230
1
40
0.022802
41
-2.13005594553371
42
-1.48655483674065
0
ELLIPSE
5
154
100
AcDbEntity
8
1
62
256
6
ByLayer
370
-1
48
1
60
0
100
AcDbEllipse
10
161.094224
20
20.958616
30
0
11
4.76275080978689E-15
21
4.06567691408833
31
0
210
0
220
0
230
1
40
0.996195
41
-1.23550954197047
42
-0.265473614744641
0
ELLIPSE
5
155
100
AcDbEntity
8
1
62
256
6
ByLayer
370
-1
48
1
60
0
100
AcDbEllipse
10
157.561524
20
23.441895
30
0
11
0.348527918949297
21
0.372328201608302
31
0
210
0
220
0
230
1
40
0.063742
41
-2.15470096795555
42
-0.867698750369098
0
ELLIPSE
5
156
100
AcDbEntity
8
1
62
256
6
ByLayer
370
-1
48
1
60
0
100
AcDbEllipse
10
161.098146
20
20.958616
30
0
11
-4.5554448342873E-15
21
-4.25
31
0
210
0
220
0
230
1
40
0.996195
41
0.335286784824426
42
1.30532271205025
0
ELLIPSE
5
157
100
AcDbEntity
8
1
62
256
6
ByLayer
370
-1
48
1
60
0
100
AcDbEllipse
10
165.576345
20
16.766677
30
0
11
3.51436002694881E-16
21
0.299999999999999
31
0
210
0
220
0
230
1
40
0.996195
41
-3.10668606854988
42
-1.53588974175502
0
ELLIPSE
5
158
100
AcDbEntity
8
1
62
256
6
ByLayer
370
-1
48
1
60
0
100
AcDbEllipse
10
165.735859
20
19.775319
30
0
11
-0.399758180070775
21
-0.0139067417643951
31
0
210
0
220
0
230
1
40
0.003042
41
1.6580098982609
42
2.13691498313426
0
ELLIPSE
5
159
100
AcDbEntity
8
1
62
256
6
ByLayer
370
-1
48
1
60
0
100
AcDbEllipse
10
157.673941
20
18.062882
30
0
11
0.373651049327859
21
-0.347109339165903
31
0
210
0
220
0
230
1
40
0.05944
41
1.50689827555572
42
2.15039938434926
0
ELLIPSE
5
15A
100
AcDbEntity
8
1
62
256
6
ByLayer
370
-1
48
1
60
0
100
AcDbEllipse
10
157.619077
20
17.217742
30
0
11
-5.83096938788774E-16
21
-0.544
31
0
210
0
220
0
230
1
40
0.996195
41
0.920472169598869
42
2.77549784972789
0
ELLIPSE
5
15B
100
AcDbEntity
8
1
62
256
6
ByLayer
370
-1
48
1
60
0
100
AcDbEllipse
10
157.619077
20
17.217742
30
0
11
-3.27992028068685E-16
21
-0.306
31
0
210
0
220
0
230
1
40
0.996195
41
-0.750491578357564
42
2.39110107523226
0
ELLIPSE
5
15C
100
AcDbEntity
8
1
62
256
6
ByLayer
370
-1
48
1
60
0
100
AcDbEllipse
10
162.242078
20
25.649039
30
0
11
-0.0140130575244593
21
0.399754467415708
31
0
210
0
220
0
230
1
40
0.087103
41
-1.5738496276308
42
-1.09494454275608
0
ELLIPSE
5
15D
100
AcDbEntity
8
1
62
256
6
ByLayer
370
-1
48
1
60
0
100
AcDbEllipse
10
157.619077
20
17.217742
30
0
11
-1.23908099492614E-15
21
-1.156
31
0
210
0
220
0
230
1
40
0.996195
41
0.920472169598906
42
3.03460218402553
0
ELLIPSE
5
15E
100
AcDbEntity
8
1
62
256
6
ByLayer
370
-1
48
1
60
0
100
AcDbEllipse
10
161.586654
20
20.958616
30
0
11
-2.51889302601768E-15
21
-2.35
31
0
210
0
220
0
230
1
40
0.996195
41
3.14159250310004
42
0
0
ELLIPSE
5
15F
100
AcDbEntity
8
1
62
256
6
ByLayer
370
-1
48
1
60
0
100
AcDbEllipse
10
156.670013
20
16.94391
30
0
11
3.58464722748779E-16
21
0.305999999999999
31
0
210
0
220
0
230
1
40
0.996195
41
-1.3939926871508
42
1.747599966439
0
ELLIPSE
5
160
100
AcDbEntity
8
1
62
256
6
ByLayer
370
-1
48
1
60
0
100
AcDbEllipse
10
165.148793
20
19.843559
30
0
11
0.386088292974541
21
-0.104574519018761
31
0
210
0
220
0
230
1
40
0.022867
41
1.48657225562256
42
1.96547734049768
0
ELLIPSE
5
161
100
AcDbEntity
8
1
62
256
6
ByLayer
370
-1
48
1
60
0
100
AcDbEllipse
10
162.283448
20
25.349222
30
0
11
-5.19131082315854E-16
21
-0.484323085911665
31
0
210
0
220
0
230
1
40
0.996195
41
-3.10668606854987
42
-0.265473614744714
0
ELLIPSE
5
162
100
AcDbEntity
8
1
62
256
6
ByLayer
370
-1
48
1
60
0
100
AcDbEllipse
10
165.537948
20
25.46439
30
0
11
0.399758180070775
21
0.0139067417643955
31
0
210
0
220
0
230
1
40
0.003042
41
-1.48358275532889
42
-1.00467767045566
0
ELLIPSE
5
163
100
AcDbEntity
8
1
62
256
6
ByLayer
370
-1
48
1
60
0
100
AcDbEllipse
10
165.374512
20
22.455748
30
0
11
-5.19131082315857E-16
21
-0.484323085911668
31
0
210
0
220
0
230
1
40
0.996195
41
-1.23550954197047
42
1.6057029118348
0
ELLIPSE
5
164
100
AcDbEntity
8
1
62
256
6
ByLayer
370
-1
48
1
60
0
100
AcDbEllipse
10
165.228842
20
25.753738
30
0
11
-0.0140130575244593
21
0.399754467415708
31
0
210
0
220
0
230
1
40
0.087103
41
-1.5738496276308
42
-1.09494454275608
0
ELLIPSE
5
165
100
AcDbEntity
8
1
62
256
6
ByLayer
370
-1
48
1
60
0
100
AcDbEllipse
10
157.270097
20
24.505008
30
0
11
0.099131498336372
21
0.500272871578687
31
0
210
0
220
0
230
1
40
0.085506
41
-2.19735568521892
42
-1.55385457642578
0
ELLIPSE
5
166
100
AcDbEntity
8
1
62
256
6
ByLayer
370
-1
48
1
60
0
100
AcDbEllipse
10
157.020046
20
25.562676
30
0
11
3.5846472274878E-16
21
0.306
31
0
210
0
220
0
230
1
40
0.996195
41
-0.75049157835767
42
1.83550459668067
0
ELLIPSE
5
167
100
AcDbEntity
8
1
62
256
6
ByLayer
370
-1
48
1
60
0
100
AcDbEllipse
10
162.585659
20
16.661978
30
0
11
-5.19131082315854E-16
21
-0.484323085911665
31
0
210
0
220
0
230
1
40
0.996195
41
-2.80630586876532
42
0.0349065850398082
0
ELLIPSE
5
168
100
AcDbEntity
8
1
62
256
6
ByLayer
370
-1
48
1
60
0
100
AcDbEllipse
10
157.21194
20
17.565563
30
0
11
-0.0251729966351026
21
0.720861431683697
31
0
210
0
220
0
230
-1
40
0.061596
41
1.5729501815304
42
1.6095463765022
0
ELLIPSE
5
169
100
AcDbEntity
8
1
62
256
6
ByLayer
370
-1
48
1
60
0
100
AcDbEllipse
10
157.7095
20
18.062882
30
0
11
3.5846472274878E-16
21
0.306
31
0
210
0
220
0
230
1
40
0.996195
41
-0.106990469564253
42
0.820304748434671
0
ELLIPSE
5
16A
100
AcDbEntity
8
1
62
256
6
ByLayer
370
-1
48
1
60
0
100
AcDbEllipse
10
165.378434
20
22.455748
30
0
11
-3.21560811832046E-16
21
-0.300000000000001
31
0
210
0
220
0
230
1
40
0.996195
41
-1.23550954197052
42
1.60570291183477
0
ELLIPSE
5
16B
100
AcDbEntity
8
1
62
256
6
ByLayer
370
-1
48
1
60
0
100
AcDbEllipse
10
161.098146
20
20.958616
30
0
11
4.97867670484417E-15
21
4.25
31
0
210
0
220
0
230
1
40
0.996195
41
-1.23550954197047
42
-0.265473614744653
0
ELLIPSE
5
16C
100
AcDbEntity
8
1
62
256
6
ByLayer
370
-1
48
1
60
0
100
AcDbEllipse
10
157.211947
20
17.565561
30
0
11
0.348527918949297
21
0.372328201608302
31
0
210
0
220
0
230
1
40
0.063742
41
-2.15470096795555
42
-1.5477987720853
0
ELLIPSE
5
16D
100
AcDbEntity
8
1
62
256
6
ByLayer
370
-1
48
1
60
0
100
AcDbEllipse
10
157.597083
20
23.441895
30
0
11
-3.27992028068685E-16
21
-0.306
31
0
210
0
220
0
230
1
40
0.996195
41
-0.750491578357564
42
2.39110107523223
0
ELLIPSE
5
16E
100
AcDbEntity
8
1
62
256
6
ByLayer
370
-1
48
1
60
0
100
AcDbEllipse
10
161.094224
20
20.958616
30
0
11
3.68413502519129E-15
21
3.14492681194351
31
0
210
0
220
0
230
1
40
0.996195
41
0
42
6.28318530717959
0
ELLIPSE
5
16F
100
AcDbEntity
8
1
62
256
6
ByLayer
370
-1
48
1
60
0
100
AcDbEllipse
10
168.464811
20
-13.556501
30
0
11
1.17771612505888
21
0
31
0
210
0
220
0
230
1
40
0.998135
41
-0.844913670681756
42
-0.0349065850398928
0
ELLIPSE
5
170
100
AcDbEntity
8
1
62
256
6
ByLayer
370
-1
48
1
60
0
100
AcDbEllipse
10
169.339263
20
-10.595486
30
0
11
0.360353747230943
21
0.173623664448766
31
0
210
0
220
0
230
1
40
0.055017
41
-2.51517670310464
42
-1.59729810677343
0
ELLIPSE
5
171
100
AcDbEntity
8
1
62
256
6
ByLayer
370
-1
48
1
60
0
100
AcDbEllipse
10
168.501036
20
-11.339723
30
0
11
-2.5
21
2.52659763770591E-15
31
0
210
0
220
0
230
1
40
0.998135
41
3.1066860685499
42
-2.69332860952306
0
ELLIPSE
5
172
100
AcDbEntity
8
1
62
256
6
ByLayer
370
-1
48
1
60
0
100
AcDbEllipse
10
168.464811
20
-13.556501
30
0
11
-0.877716125058898
21
8.87054195260078E-16
31
0
210
0
220
0
230
1
40
0.998135
41
2.6147846657235
42
3.10668606854994
0
ELLIPSE
5
173
100
AcDbEntity
8
1
62
256
6
ByLayer
370
-1
48
1
60
0
100
AcDbEllipse
10
173.45764
20
-8.643007
30
0
11
4.56987741599753
21
0
31
0
210
0
220
0
230
1
40
0.998135
41
-2.92587278882579
42
-2.69332860952308
0
ELLIPSE
5
174
100
AcDbEntity
8
1
62
256
6
ByLayer
370
-1
48
1
60
0
100
AcDbEllipse
10
173.45764
20
-8.960459
30
0
11
-3
21
3.03191716524709E-15
31
0
210
0
220
0
230
1
40
0.998135
41
0.0523598775598294
42
0.448264044066736
0
ELLIPSE
5
175
100
AcDbEntity
8
1
62
256
6
ByLayer
370
-1
48
1
60
0
100
AcDbEllipse
10
167.447888
20
-2.655971
30
0
11
1.41771612505888
21
0
31
0
210
0
220
0
230
1
40
0.998135
41
0.0523598775598188
42
0.349065850398684
0
ELLIPSE
5
176
100
AcDbEntity
8
1
62
256
6
ByLayer
370
-1
48
1
60
0
100
AcDbEllipse
10
161.45444
20
-7.932957
30
0
11
2.35
21
0
31
0
210
0
220
0
230
1
40
0.998135
41
1.43914375962752
42
2.37141152198153
0
ELLIPSE
5
177
100
AcDbEntity
8
1
62
256
6
ByLayer
370
-1
48
1
60
0
100
AcDbEllipse
10
168.501036
20
-11.02227
30
0
11
1.23012258400268
21
0
31
0
210
0
220
0
230
1
40
0.998135
41
-0.034906585039897
42
0.448264044066768
0
ELLIPSE
5
178
100
AcDbEntity
8
1
62
256
6
ByLayer
370
-1
48
1
60
0
100
AcDbEllipse
10
173.45764
20
-8.643007
30
0
11
-4.26987741599731
21
4.31530487702104E-15
31
0
210
0
220
0
230
1
40
0.998135
41
0.0523598775598241
42
0.448264044066734
0
ELLIPSE
5
179
100
AcDbEntity
8
1
62
256
6
ByLayer
370
-1
48
1
60
0
100
AcDbEllipse
10
169.430592
20
-11.030251
30
0
11
0.399755420109682
21
-0.0139858533144008
31
0
210
0
220
0
230
1
40
0.061011
41
-2.6910373680845
42
-1.56866178537651
0
ELLIPSE
5
17A
100
AcDbEntity
8
1
62
256
6
ByLayer
370
-1
48
1
60
0
100
AcDbEllipse
10
169.341993
20
-13.562656
30
0
11
0.399755420109682
21
-0.0139858533144008
31
0
210
0
220
0
230
1
40
0.061011
41
-1.9273369036229
42
-1.56866178537651
0
ELLIPSE
5
17B
100
AcDbEntity
8
1
62
256
6
ByLayer
370
-1
48
1
60
0
100
AcDbEllipse
10
168.501036
20
-11.02227
30
0
11
-0.930122584002571
21
9.40018209407124E-16
31
0
210
0
220
0
230
1
40
0.998135
41
3.1066860685501
42
-2.69332860952294
0
ELLIPSE
5
17C
100
AcDbEntity
8
1
62
256
6
ByLayer
370
-1
48
1
60
0
100
AcDbEllipse
10
161.45444
20
-8.097446
30
0
11
2.35
21
0
31
0
210
0
220
0
230
1
40
0.998135
41
1.16219312278313
42
2.45741291112767
0
ELLIPSE
5
17D
100
AcDbEntity
8
1
62
256
6
ByLayer
370
-1
48
1
60
0
100
AcDbEllipse
10
168.501036
20
-11.196258
30
0
11
-2.21145628187815
21
2.23498408707329E-15
31
0
210
0
220
0
230
1
40
0.998135
41
3.10668606854989
42
-2.69332860952305
0
ELLIPSE
5
17E
100
AcDbEntity
8
1
62
256
6
ByLayer
370
-1
48
1
60
0
100
AcDbEllipse
10
173.45764
20
-8.816995
30
0
11
-3.28854371812186
21
3.32353071587972E-15
31
0
210
0
220
0
230
1
40
0.998135
41
0.05235987755983
42
0.448264044066735
0
POINT
5
41
100
AcDbEntity
8
81
62
256
6
ByLayer
370
-1
48
1
60
0
100
AcDbPoint
10
171
20
0
30
0
39
0
210
0
220
0
230
1
50
360
0
POINT
5
43
100
AcDbEntity
8
80
62
256
6
ByLayer
370
-1
48
1
60
0
100
AcDbPoint
10
0
20
0
30
0
39
0
210
0
220
0
230
1
50
360
0
SPLINE
5
17F
100
AcDbEntity
8
1
62
256
6
ByLayer
370
-1
48
1
60
0
100
AcDbSpline
70
4
71
3
72
15
73
11
40
0
40
0
40
0
40
0
40
0.0932870219559677
40
0.186603222737901
40
0.279907629168787
40
0.373212082093301
40
0.466525001239879
40
0.559851639116735
40
0.779895203057818
40
1
40
1
40
1
40
1
41
1
10
42
20
29.5999999999999
30
0
41
1
10
40.8502912601397
20
29.6766654339304
30
0
41
1
10
38.5514741470109
20
29.8417500608777
30
0
41
1
10
35.1112595271351
20
30.1855574850828
30
0
41
1
10
31.6633814093187
20
30.4426214588667
30
0
41
1
10
28.2133763726493
20
30.6660571933122
30
0
41
1
10
24.7604740180315
20
30.8457054341303
30
0
41
1
10
19.7419298240119
20
31.0534170345047
30
0
41
1
10
13.1544632610732
20
31.2126977274365
30
0
41
1
10
7.71875578359524
20
31.2547815069615
30
0
41
1
10
5.00000000000003
20
31.25
30
0
0
SPLINE
5
180
100
AcDbEntity
8
1
62
256
6
ByLayer
370
-1
48
1
60
0
100
AcDbSpline
70
4
71
3
72
13
73
9
40
0
40
0
40
0
40
0
40
0.350087776128892
40
0.700028667789184
40
0.791656114216757
40
0.883277357035921
40
0.974897423380254
40
1
40
1
40
1
40
1
41
1
10
4.99999999999997
20
-31.25
30
0
41
1
10
8.4604791924431
20
-31.2598647875055
30
0
41
1
10
15.3774689474199
20
-31.1886452478675
30
0
41
1
10
23.1982945457457
20
-30.9344306895295
30
0
41
1
10
28.459762095703
20
-30.6486637099279
30
0
41
1
10
31.1705933202341
20
-30.4752319544247
30
0
41
1
10
33.2241708469655
20
-30.3259949303915
30
0
41
1
10
34.37373901084
20
-30.2310332687934
30
0
41
1
10
34.6209289449868
20
-30.2101319068988
30
0
0
SPLINE
5
181
100
AcDbEntity
8
1
62
256
6
ByLayer
370
-1
48
1
60
0
100
AcDbSpline
70
4
71
3
72
15
73
11
40
0
40
0
40
0
40
0
40
0.081944591767199
40
0.234245912930955
40
0.386314269569265
40
0.538179098831062
40
0.689898489258719
40
0.841550290709289
40
0.993207590369701
40
1
40
1
40
1
40
1
41
1
10
159.636255176925
20
-6.61492325010499
30
0
41
1
10
159.687944930912
20
-6.5520693234792
30
0
41
1
10
159.845127833611
20
-6.37999956727484
30
0
41
1
10
160.145038878649
20
-6.13667338300002
30
0
41
1
10
160.548561742586
20
-5.9223840811527
30
0
41
1
10
160.985721096382
20
-5.78949262603246
30
0
41
1
10
161.440154557001
20
-5.74283012139446
30
0
41
1
10
161.894913529537
20
-5.78400967659883
30
0
41
1
10
162.193530291973
20
-5.87082015051001
30
0
41
1
10
162.340097288032
20
-5.92996041417703
30
0
41
1
10
162.346369035208
20
-5.93252268157056
30
0
0
SPLINE
5
182
100
AcDbEntity
8
1
62
256
6
ByLayer
370
-1
48
1
60
0
100
AcDbSpline
70
4
71
3
72
24
73
20
40
0
40
0
40
0
40
0
40
0.0512219324959639
40
0.114795075180368
40
0.178268200557145
40
0.241581453348878
40
0.304701879023922
40
0.367626814561722
40
0.430381895458664
40
0.49301535153997
40
0.555590417373245
40
0.618167359708153
40
0.680802024190431
40
0.743557000804809
40
0.806479913224932
40
0.869596202215328
40
0.93290376586809
40
0.996370983435402
40
1
40
1
40
1
40
1
41
1
10
161.450745271216
20
23.299587239272
30
0
41
1
10
161.573209735341
20
23.2975131088031
30
0
41
1
10
161.842565028596
20
23.2703047423396
30
0
41
1
10
162.249059184367
20
23.1427540225691
30
0
41
1
10
162.649398238078
20
22.9282367452427
30
0
41
1
10
163.001203810238
20
22.6389927167471
30
0
41
1
10
163.290988714708
20
22.2873466110701
30
0
41
1
10
163.508082968887
20
21.8863381943724
30
0
41
1
10
163.64457299165
20
21.4511965056439
30
0
41
1
10
163.695643176143
20
20.9981689370433
30
0
41
1
10
163.659644305648
20
20.5440813454898
30
0
41
1
10
163.538114964248
20
20.1056800754996
30
0
41
1
10
163.335685803383
20
19.6991202939652
30
0
41
1
10
163.059841673704
20
19.3390378369695
30
0
41
1
10
162.720655055264
20
19.039466490313
30
0
41
1
10
162.330354206456
20
18.8082932424503
30
0
41
1
10
161.903457848901
20
18.6662400143842
30
0
41
1
10
161.595893015654
20
18.603021390821
30
0
41
1
10
161.43756862761
20
18.6117298971961
30
0
41
1
10
161.428999688994
20
18.6122761994238
30
0
0
SPLINE
5
183
100
AcDbEntity
8
1
62
256
6
ByLayer
370
-1
48
1
60
0
100
AcDbSpline
70
4
71
3
72
18
73
14
40
0
40
0
40
0
40
0
40
0.156260554175483
40
0.156260554175483
40
0.240634498757935
40
0.240634498757935
40
0.325008443340386
40
0.325008443340386
40
0.662504221670193
40
0.662504221670193
40
0.831252110835097
40
0.831252110835097
40
1
40
1
40
1
40
1
41
1
10
59.546033892321
20
29.5999995262212
30
0
41
1
10
62.1569719166498
20
29.6000036644751
30
0
41
1
10
64.7689891721687
20
29.5536546496066
30
0
41
1
10
68.7953433558312
20
29.4114970251753
30
0
41
1
10
70.2083123600707
20
29.3482282130375
30
0
41
1
10
73.0328012411103
20
29.1952686504079
30
0
41
1
10
74.4445338923004
20
29.1055808729909
30
0
41
1
10
81.5015805978486
20
28.5919034746054
30
0
41
1
10
87.1413371357033
20
27.9712569320754
30
0
41
1
10
95.6147405425307
20
26.746656014516
30
0
41
1
10
98.4430825857993
20
26.2893714428188
30
0
41
1
10
104.094176022046
20
25.2847618712904
30
0
41
1
10
106.918256410847
20
24.7373202422926
30
0
41
1
10
109.74257502789
20
24.1477494538964
30
0
0
SPLINE
5
184
100
AcDbEntity
8
1
62
256
6
ByLayer
370
-1
48
1
60
0
100
AcDbSpline
70
4
71
2
72
6
73
3
40
0
40
0
40
0
40
1
40
1
40
1
41
1
10
36.0570800226501
20
-27.5644400964441
30
0
41
1
10
36.0570800226501
20
-28.8263375651391
30
0
41
1
10
36.0570800226501
20
-30.0882350338341
30
0
0
SPLINE
5
185
100
AcDbEntity
8
1
62
256
6
ByLayer
370
-1
48
1
60
0
100
AcDbSpline
70
4
71
3
72
23
73
19
40
0
40
0
40
0
40
0
40
0.249999999999999
40
0.249999999999999
40
0.374999999999998
40
0.374999999999998
40
0.406249999999998
40
0.406249999999998
40
0.437499999999998
40
0.499999999999998
40
0.499999999999998
40
0.749999999999998
40
0.749999999999998
40
0.812499999999998
40
0.812499999999998
40
0.874999999999998
40
0.874999999999998
40
1
40
1
40
1
40
1
41
1
10
16.8020328658141
20
-29.4355935356389
30
0
41
1
10
15.739070270167
20
-29.2278136347845
30
0
41
1
10
14.7753494491143
20
-28.957246167763
30
0
41
1
10
13.4646795708961
20
-28.4335770005609
30
0
41
1
10
13.0504105071728
20
-28.2392736154367
30
0
41
1
10
12.5601438782343
20
-27.9683889191323
30
0
41
1
10
12.4633719439524
20
-27.9127450017741
30
0
41
1
10
12.2736544438624
20
-27.7992267745675
30
0
41
1
10
11.994453421732
20
-27.6254157640361
30
0
41
1
10
11.7309173939661
20
-27.4408870731779
30
0
41
1
10
10.8854202686376
20
-26.8014186204531
30
0
41
1
10
10.3140229542347
20
-26.2119956562698
30
0
41
1
10
9.70705738631904
20
-25.3675414810165
30
0
41
1
10
9.59091943426091
20
-25.1929847604628
30
0
41
1
10
9.37077475278096
20
-24.8360392178665
30
0
41
1
10
9.26650712026878
20
-24.6533252072795
30
0
41
1
10
8.96971367875619
20
-24.0924874318167
30
0
41
1
10
8.79316388909618
20
-23.701675041034
30
0
41
1
10
8.63465910864926
20
-23.293930943556
30
0
0
SPLINE
5
186
100
AcDbEntity
8
1
62
256
6
ByLayer
370
-1
48
1
60
0
100
AcDbSpline
70
4
71
3
72
18
73
14
40
0
40
0
40
0
40
0
40
0.25
40
0.25
40
0.5
40
0.5
40
0.625
40
0.625
40
0.6875
40
0.6875
40
0.75
40
0.75
40
1
40
1
40
1
40
1
41
1
10
151.375937349329
20
3.80669041177936
30
0
41
1
10
150.584994141472
20
3.75906186328595
30
0
41
1
10
149.799356552429
20
3.76159853397977
30
0
41
1
10
148.238401092246
20
3.86423724025607
30
0
41
1
10
147.46308329708
20
3.96434062659117
30
0
41
1
10
146.308056600761
20
4.18933568827248
30
0
41
1
10
145.924377108976
20
4.27684574661751
30
0
41
1
10
145.350921392393
20
4.42746075988728
30
0
41
1
10
145.160051971312
20
4.48092350311077
30
0
41
1
10
144.781218567667
20
4.59373504808468
30
0
41
1
10
144.592979888114
20
4.65315196265612
30
0
41
1
10
143.657676909399
20
4.96524534859768
30
0
41
1
10
142.928207968258
20
5.262775419251
30
0
41
1
10
142.21812540568
20
5.60895867564037
30
0
0
SPLINE
5
187
100
AcDbEntity
8
1
62
256
6
ByLayer
370
-1
48
1
60
0
100
AcDbSpline
70
4
71
3
72
18
73
14
40
0
40
0
40
0
40
0
40
0.249999999999987
40
0.249999999999987
40
0.499999999999974
40
0.499999999999974
40
0.562499999999979
40
0.562499999999979
40
0.624999999999984
40
0.624999999999984
40
0.749999999999993
40
0.749999999999993
40
1
40
1
40
1
40
1
41
1
10
147.863677108388
20
7.67663376135604
30
0
41
1
10
147.547998609279
20
7.61489149429693
30
0
41
1
10
147.197794124186
20
7.57609890021698
30
0
41
1
10
146.445474582411
20
7.54652201757938
30
0
41
1
10
146.043180781476
20
7.55578259365583
30
0
41
1
10
145.513493174918
20
7.60100838526367
30
0
41
1
10
145.406010016564
20
7.61176955735721
30
0
41
1
10
145.189975636256
20
7.63660100581521
30
0
41
1
10
145.081306069275
20
7.65067558236939
30
0
41
1
10
144.753524769176
20
7.69789691202695
30
0
41
1
10
144.532646440601
20
7.73603652007819
30
0
41
1
10
143.864160662263
20
7.87078140211105
30
0
41
1
10
143.410762064704
20
7.98763647914723
30
0
41
1
10
142.951918752493
20
8.13336091671314
30
0
0
SPLINE
5
188
100
AcDbEntity
8
1
62
256
6
ByLayer
370
-1
48
1
60
0
100
AcDbSpline
70
4
71
3
72
10
73
6
40
0
40
0
40
0
40
0
40
0.5
40
0.5
40
1
40
1
40
1
40
1
41
1
10
16.802032865814
20
-29.4355935356389
30
0
41
1
10
19.4652228921032
20
-29.8711231147805
30
0
41
1
10
22.1332967086188
20
-30.1655400429814
30
0
41
1
10
27.5024520384318
20
-30.4634580074788
30
0
41
1
10
30.1962490271031
20
-30.4661949048842
30
0
41
1
10
32.9020328658141
20
-30.3215107743286
30
0
0
SPLINE
5
189
100
AcDbEntity
8
1
62
256
6
ByLayer
370
-1
48
1
60
0
100
AcDbSpline
70
4
71
3
72
20
73
16
40
0
40
0
40
0
40
0
40
0.157065790208909
40
0.157065790208909
40
0.314131580417818
40
0.314131580417818
40
0.471197370626726
40
0.471197370626726
40
0.628263160835635
40
0.628263160835635
40
0.785328951044544
40
0.785328951044544
40
0.942394741253452
40
0.942394741253452
40
1
40
1
40
1
40
1
41
1
10
18.227145623365
20
-23.2175385499955
30
0
41
1
10
18.407825254714
20
-22.0341869012066
30
0
41
1
10
18.6297924220421
20
-20.7493203451751
30
0
41
1
10
19.1387280884612
20
-18.0782837744326
30
0
41
1
10
19.4256423398312
20
-16.6923984669185
30
0
41
1
10
20.0416479026244
20
-13.9296180908274
30
0
41
1
10
20.3706735536897
20
-12.553017508468
30
0
41
1
10
21.044720745629
20
-9.91838474157484
30
0
41
1
10
21.3896704394572
20
-8.66063338393732
30
0
41
1
10
22.0681114238238
20
-6.36384029258798
30
0
41
1
10
22.4015303989798
20
-5.32504337526316
30
0
41
1
10
23.030367634373
20
-3.54889315516147
30
0
41
1
10
23.3257188665177
20
-2.81172917317335
30
0
41
1
10
23.6873522654495
20
-2.05034718517982
30
0
41
1
10
23.7802486176888
20
-1.87027703232144
30
0
41
1
10
23.8685433432736
20
-1.71518347373706
30
0
0
SPLINE
5
18A
100
AcDbEntity
8
1
62
256
6
ByLayer
370
-1
48
1
60
0
100
AcDbSpline
70
4
71
4
72
13
73
8
40
0
40
0
40
0
40
0
40
0
40
0.173189121718795
40
0.173189121718795
40
0.173189121718795
40
1
40
1
40
1
40
1
40
1
41
0.993278609827798
10
43.2470598022523
20
-8.22067050650137
30
0
41
0.995959388982969
10
43.0317681635434
20
-8.97600147226535
30
0
41
0.998380638828907
10
42.8163559152115
20
-9.76449914772395
30
0
41
1
10
42.6044815304511
20
-10.5702052098822
30
0
41
1
10
41.4237980763265
20
-15.2100923536358
30
0
41
0.963092479819717
10
40.2137813536882
20
-20.6013879908471
30
0
41
0.978224144832425
10
39.4243376118457
20
-25.3885977009539
30
0
41
0.991434665781518
10
39.1094127917043
20
-28.356071246494
30
0
0
SPLINE
5
18B
100
AcDbEntity
8
1
62
256
6
ByLayer
370
-1
48
1
60
0
100
AcDbSpline
70
4
71
3
72
8
73
4
40
0
40
0
40
0
40
0
40
1
40
1
40
1
40
1
41
1
10
39.1094127917047
20
-28.3560712465023
30
0
41
1
10
38.9998582948734
20
-28.3561001073972
30
0
41
1
10
38.8905007476164
20
-28.3548093783078
30
0
41
1
10
38.7813360745975
20
-28.3521881978572
30
0
0
SPLINE
5
18C
100
AcDbEntity
8
1
62
256
6
ByLayer
370
-1
48
1
60
0
100
AcDbSpline
70
4
71
3
72
26
73
22
40
0
40
0
40
0
40
0
40
0.125
40
0.125
40
0.249999999999999
40
0.249999999999999
40
0.3125
40
0.3125
40
0.375
40
0.375
40
0.5
40
0.5
40
0.625
40
0.625
40
0.6875
40
0.6875
40
0.75
40
0.75
40
0.875
40
0.875
40
1
40
1
40
1
40
1
41
1
10
8.63465910864957
20
-23.2939309435563
30
0
41
1
10
8.82431951093037
20
-23.4510238852781
30
0
41
1
10
9.03337216389798
20
-23.5842539344238
30
0
41
1
10
9.49270598758034
20
-23.8096216474623
30
0
41
1
10
9.74297432481373
20
-23.9017252106629
30
0
41
1
10
10.1516799153678
20
-24.01172124641
30
0
41
1
10
10.2938366763187
20
-24.0437185829355
30
0
41
1
10
10.5865933623851
20
-24.0980107000462
30
0
41
1
10
10.7374353870248
20
-24.120399204256
30
0
41
1
10
11.2034067023131
20
-24.1741063008844
30
0
41
1
10
11.5319576464291
20
-24.1920318877844
30
0
41
1
10
12.2256848145537
20
-24.1946834889465
30
0
41
1
10
12.5908549941438
20
-24.1794024435662
30
0
41
1
10
13.167305965545
20
-24.1319625209179
30
0
41
1
10
13.3648147030241
20
-24.111969530365
30
0
41
1
10
13.7656786789505
20
-24.064180726968
30
0
41
1
10
13.9692346325574
20
-24.0363909149304
30
0
41
1
10
14.5891445146404
20
-23.9415955280012
30
0
41
1
10
15.0147270465733
20
-23.8632208820031
30
0
41
1
10
15.8901601369852
20
-23.6760858773378
30
0
41
1
10
16.3400116965124
20
-23.5673314413905
30
0
41
1
10
16.8020326763765
20
-23.4424210722877
30
0
0
SPLINE
5
18D
100
AcDbEntity
8
1
62
256
6
ByLayer
370
-1
48
1
60
0
100
AcDbSpline
70
4
71
3
72
8
73
4
40
0
40
0
40
0
40
0
40
1
40
1
40
1
40
1
41
1
10
38.7813363594633
20
-28.3521870507251
30
0
41
1
10
37.8725974798458
20
-28.1032326694887
30
0
41
1
10
36.964108305659
20
-27.8418338278951
30
0
41
1
10
36.0570800226501
20
-27.5644400959456
30
0
0
SPLINE
5
18E
100
AcDbEntity
8
1
62
256
6
ByLayer
370
-1
48
1
60
0
100
AcDbSpline
70
4
71
3
72
10
73
6
40
0
40
0
40
0
40
0
40
0.5
40
0.5
40
1
40
1
40
1
40
1
41
1
10
111.819294770146
20
23.4645704340862
30
0
41
1
10
113.119218432189
20
22.7477293595167
30
0
41
1
10
114.435635156472
20
22.0387044960356
30
0
41
1
10
117.09664939145
20
20.63400989816
30
0
41
1
10
118.441385597475
20
19.9384058927342
30
0
41
1
10
119.799911394025
20
19.2493368987457
30
0
0
SPLINE
5
18F
100
AcDbEntity
8
1
62
256
6
ByLayer
370
-1
48
1
60
0
100
AcDbSpline
70
4
71
3
72
60
73
56
40
0
40
0
40
0
40
0
40
0.0625000000000007
40
0.0625000000000007
40
0.125000000000001
40
0.125000000000001
40
0.140625000000001
40
0.140625000000001
40
0.156250000000001
40
0.156250000000001
40
0.187500000000001
40
0.187500000000001
40
0.250000000000001
40
0.250000000000001
40
0.281250000000001
40
0.281250000000001
40
0.296875000000001
40
0.296875000000001
40
0.312500000000001
40
0.312500000000001
40
0.375000000000001
40
0.375000000000001
40
0.437500000000001
40
0.437500000000001
40
0.453125000000001
40
0.453125000000001
40
0.468750000000001
40
0.468750000000001
40
0.500000000000001
40
0.500000000000001
40
0.562500000000001
40
0.562500000000001
40
0.578125
40
0.578125
40
0.59375
40
0.59375
40
0.625
40
0.625
40
0.6875
40
0.6875
40
0.71875
40
0.71875
40
0.734375
40
0.734375
40
0.75
40
0.75
40
0.8125
40
0.8125
40
0.84375
40
0.84375
40
0.875
40
0.875
40
0.9375
40
0.9375
40
1
40
1
40
1
40
1
41
1
10
24.7370900215439
20
-1.90756795810421
30
0
41
1
10
24.0310634710776
20
-1.74558391907576
30
0
41
1
10
23.3217332844057
20
-1.63616256399999
30
0
41
1
10
21.8968495582424
20
-1.51852645730739
30
0
41
1
10
21.1812950709966
20
-1.51032005609338
30
0
41
1
10
20.2828956474637
20
-1.56461648787749
30
0
41
1
10
20.1030167544723
20
-1.57871822985359
30
0
41
1
10
19.7428543679848
20
-1.61350018491018
30
0
41
1
10
19.5624426374722
20
-1.63421214238682
30
0
41
1
10
19.024975369322
20
-1.7057246384181
30
0
41
1
10
18.6702520720948
20
-1.76600222428942
30
0
41
1
10
17.6165682387038
20
-1.98367263370244
30
0
41
1
10
16.9280434792169
20
-2.17772528100988
30
0
41
1
10
15.9159904359778
20
-2.54169636321359
30
0
41
1
10
15.5821076916204
20
-2.67521324647223
30
0
41
1
10
15.0865840936685
20
-2.89413281297087
30
0
41
1
10
14.9220059154193
20
-2.97035789890092
30
0
41
1
10
14.5960522264114
20
-3.12843674343603
30
0
41
1
10
14.4349843532876
20
-3.21012677479936
30
0
41
1
10
13.6390408437498
20
-3.63158581438006
30
0
41
1
10
13.0322068908816
20
-4.01018503208294
30
0
41
1
10
11.876995675154
20
-4.84728482438447
30
0
41
1
10
11.328613418358
20
-5.30578339656199
30
0
41
1
10
10.681110911728
20
-5.93005577413777
30
0
41
1
10
10.5538044154984
20
-6.05722364424923
30
0
41
1
10
10.3051465687519
20
-6.31449164856073
30
0
41
1
10
10.1835520530845
20
-6.4448239695719
30
0
41
1
10
9.82685536528692
20
-6.84078578347143
30
0
41
1
10
9.59983046571034
20
-7.11137398863093
30
0
41
1
10
8.95050832918341
20
-7.94217695685228
30
0
41
1
10
8.55981994302465
20
-8.52134533457982
30
0
41
1
10
8.12454693546681
20
-9.27563762310348
30
0
41
1
10
8.04015814376692
20
-9.42801944442826
30
0
41
1
10
7.87676744970173
20
-9.73582446550435
30
0
41
1
10
7.79769208302656
20
-9.89143064646817
30
0
41
1
10
7.57063890258442
20
-10.3585546887847
30
0
41
1
10
7.43209930441671
20
-10.6716697380454
30
0
41
1
10
7.05336746590535
20
-11.6152953906793
30
0
41
1
10
6.84991849559708
20
-12.2500547209475
30
0
41
1
10
6.61487537580618
20
-13.2081801397337
30
0
41
1
10
6.54825375920083
20
-13.528561846204
30
0
41
1
10
6.46580155490742
20
-14.0103944590602
30
0
41
1
10
6.44128800151944
20
-14.1709658577883
30
0
41
1
10
6.39835364168599
20
-14.4899643613202
30
0
41
1
10
6.37988064096947
20
-14.6486863036261
30
0
41
1
10
6.30201899270554
20
-15.4384168463454
30
0
41
1
10
6.28594148927266
20
-16.0578030755447
30
0
41
1
10
6.32476809507605
20
-16.9682435200243
30
0
41
1
10
6.34824037805762
20
-17.2686141766394
30
0
41
1
10
6.41560177238657
20
-17.8630931498599
30
0
41
1
10
6.45965386985498
20
-18.157799521677
30
0
41
1
10
6.61967159897571
20
-19.0224304873831
30
0
41
1
10
6.76352826360511
20
-19.5759995712045
30
0
41
1
10
7.11764666647579
20
-20.6411746963925
30
0
41
1
10
7.32794394480257
20
-21.1527644715788
30
0
41
1
10
7.56942952077614
20
-21.6445061077879
30
0
0
SPLINE
5
190
100
AcDbEntity
8
1
62
256
6
ByLayer
370
-1
48
1
60
0
100
AcDbSpline
70
4
71
3
72
8
73
4
40
0
40
0
40
0
40
0
40
1
40
1
40
1
40
1
41
1
10
145.400949175828
20
12.8610701931531
30
0
41
1
10
145.765284249203
20
12.6644707932301
30
0
41
1
10
146.137125748128
20
12.4796387582941
30
0
41
1
10
146.518050116857
20
12.3074868274973
30
0
0
SPLINE
5
191
100
AcDbEntity
8
1
62
256
6
ByLayer
370
-1
48
1
60
0
100
AcDbSpline
70
4
71
3
72
16
73
12
40
0
40
0
40
0
40
0
40
0.153125665074154
40
0.153125665074154
40
0.435417110049453
40
0.435417110049453
40
0.717708555024751
40
0.717708555024751
40
0.858854277512375
40
0.858854277512375
40
1
40
1
40
1
40
1
41
1
10
155.065910001846
20
11.4326293620581
30
0
41
1
10
155.044778300975
20
11.4131460950285
30
0
41
1
10
155.023828344763
20
11.3946995654595
30
0
41
1
10
154.965087767513
20
11.3450883831042
30
0
41
1
10
154.927949063823
20
11.3162974851037
30
0
41
1
10
154.858417922733
20
11.2662734894871
30
0
41
1
10
154.826571519608
20
11.2454703427703
30
0
41
1
10
154.789404257485
20
11.2234682989567
30
0
41
1
10
154.77880974761
20
11.2176876219343
30
0
41
1
10
154.762769165195
20
11.2099643196108
30
0
41
1
10
154.757198353698
20
11.2079434026491
30
0
41
1
10
154.754402089907
20
11.2079434026491
30
0
0
SPLINE
5
192
100
AcDbEntity
8
1
62
256
6
ByLayer
370
-1
48
1
60
0
100
AcDbSpline
70
4
71
3
72
12
73
8
40
0
40
0
40
0
40
0
40
0.249999999999988
40
0.249999999999988
40
0.499999999999975
40
0.499999999999975
40
1
40
1
40
1
40
1
41
1
10
151.595242932939
20
21.5559895211304
30
0
41
1
10
151.59939136063
20
21.5559895211304
30
0
41
1
10
151.607430557072
20
21.561514706645
30
0
41
1
10
151.630411493954
20
21.5817858971693
30
0
41
1
10
151.645575752871
20
21.5967551834698
30
0
41
1
10
151.698468362361
20
21.6502480633879
30
0
41
1
10
151.74419136603
20
21.6976572342534
30
0
41
1
10
151.797292953151
20
21.7485155583307
30
0
0
SPLINE
5
193
100
AcDbEntity
8
1
62
256
6
ByLayer
370
-1
48
1
60
0
100
AcDbSpline
70
4
71
3
72
12
73
8
40
0
40
0
40
0
40
0
40
0.229810317913848
40
0.464455033995564
40
0.69909975007728
40
0.933744466158996
40
1
40
1
40
1
40
1
41
1
10
124.104201139657
20
20.6942831708076
30
0
41
1
10
123.639444808908
20
20.6592772665618
30
0
41
0.999999999999999
10
122.699771420346
20
20.5864606122253
30
0
41
0.999999999999999
10
121.284791349109
20
20.470608444381
30
0
41
0.999999999999999
10
119.860559405622
20
20.3476919109339
30
0
41
0.999999999999999
10
118.777937776817
20
20.2494935424047
30
0
41
0.999999999999999
10
118.17000452711
20
20.1926433927704
30
0
41
0.999999999999999
10
118.03615740981
20
20.1800443998158
30
0
0
SPLINE
5
194
100
AcDbEntity
8
1
62
256
6
ByLayer
370
-1
48
1
60
0
100
AcDbSpline
70
4
71
3
72
14
73
10
40
0
40
0
40
0
40
0
40
0.0417052450254474
40
0.0417052450254474
40
0.148182440022619
40
0.148182440022619
40
0.57409122001131
40
0.57409122001131
40
1
40
1
40
1
40
1
41
1
10
126.810703512239
20
15.5576111392889
30
0
41
1
10
126.784017680753
20
15.6248741955046
30
0
41
1
10
126.757067329303
20
15.6924592140714
30
0
41
1
10
126.660412470289
20
15.933364212538
30
0
41
1
10
126.589336649123
20
16.1078302741529
30
0
41
1
10
126.223994953624
20
16.9856767289981
30
0
41
1
10
125.899897723897
20
17.7058055652725
30
0
41
1
10
125.14086425982
20
19.1460645708388
30
0
41
1
10
124.705688379406
20
19.8661248602459
30
0
41
1
10
124.19247400086
20
20.5661113869672
30
0
0
SPLINE
5
195
100
AcDbEntity
8
1
62
256
6
ByLayer
370
-1
48
1
60
0
100
AcDbSpline
70
4
71
3
72
18
73
14
40
0
40
0
40
0
40
0
40
0.0111248501427189
40
0.0111248501427189
40
0.208899880114175
40
0.208899880114175
40
0.406674910085631
40
0.406674910085631
40
0.604449940057088
40
0.604449940057088
40
0.802224970028544
40
0.802224970028544
40
1
40
1
40
1
40
1
41
1
10
90.2518572336021
20
-22.5140042567514
30
0
41
1
10
90.0622033101578
20
-22.5540584110111
30
0
41
1
10
89.8725544872018
20
-22.5939303474162
30
0
41
1
10
86.3114586888829
20
-23.3391993079278
30
0
41
1
10
82.9415791121125
20
-23.9863888334168
30
0
41
1
10
76.199593901675
20
-25.154156573881
30
0
41
1
10
72.8274252358057
20
-25.6758808970414
30
0
41
1
10
66.0759068568498
20
-26.5869485289632
30
0
41
1
10
62.70359699854
20
-26.9760949495104
30
0
41
1
10
55.9630434453197
20
-27.6167267639159
30
0
41
1
10
52.5945596985671
20
-27.8672214559674
30
0
41
1
10
45.8553590791627
20
-28.2215543943444
30
0
41
1
10
42.484558951015
20
-28.3256710959344
30
0
41
1
10
39.1094127917034
20
-28.3560712465021
30
0
0
SPLINE
5
196
100
AcDbEntity
8
1
62
256
6
ByLayer
370
-1
48
1
60
0
100
AcDbSpline
70
4
71
3
72
93
73
89
40
-0.0312500000000037
40
-0.0312500000000037
40
0
40
0
40
0.0312499999999931
40
0.0312499999999931
40
0.0468749999999893
40
0.0468749999999893
40
0.0624999999999854
40
0.0624999999999854
40
0.0937499999999797
40
0.0937499999999797
40
0.124999999999974
40
0.124999999999974
40
0.156249999999968
40
0.156249999999968
40
0.171874999999968
40
0.171874999999968
40
0.187499999999967
40
0.187499999999967
40
0.218749999999966
40
0.218749999999966
40
0.249999999999965
40
0.249999999999965
40
0.265624999999965
40
0.265624999999965
40
0.281249999999964
40
0.281249999999964
40
0.312499999999964
40
0.312499999999964
40
0.328124999999963
40
0.328124999999963
40
0.343749999999963
40
0.343749999999963
40
0.374999999999962
40
0.374999999999962
40
0.406249999999961
40
0.406249999999961
40
0.421874999999961
40
0.421874999999961
40
0.43749999999996
40
0.43749999999996
40
0.46874999999996
40
0.46874999999996
40
0.484374999999959
40
0.484374999999959
40
0.499999999999959
40
0.499999999999959
40
0.531249999999958
40
0.531249999999958
40
0.546874999999958
40
0.546874999999958
40
0.562499999999958
40
0.562499999999958
40
0.59374999999996
40
0.59374999999996
40
0.624999999999962
40
0.624999999999962
40
0.640624999999961
40
0.640624999999961
40
0.65624999999996
40
0.65624999999996
40
0.687499999999963
40
0.687499999999963
40
0.718749999999966
40
0.718749999999966
40
0.749999999999969
40
0.749999999999969
40
0.76562499999997
40
0.76562499999997
40
0.781249999999971
40
0.796874999999973
40
0.796874999999973
40
0.812499999999974
40
0.812499999999974
40
0.843749999999977
40
0.843749999999977
40
0.859374999999981
40
0.859374999999981
40
0.874999999999985
40
0.874999999999985
40
0.906249999999989
40
0.906249999999989
40
0.937499999999993
40
0.937499999999993
40
0.953124999999994
40
0.953124999999994
40
0.968749999999996
40
0.968749999999996
40
1
40
1
40
1.03124999999999
40
1.03124999999999
41
1
10
159.120619374448
20
-6.51683530731
30
0
41
1
10
159.106385093521
20
-6.24099826624754
30
0
41
1
10
159.112435563998
20
-6.10437208034742
30
0
41
1
10
159.140720061041
20
-5.90132915240758
30
0
41
1
10
159.153371994274
20
-5.83396675770055
30
0
41
1
10
159.185303956976
20
-5.69990296772164
30
0
41
1
10
159.204717285933
20
-5.63287322586496
30
0
41
1
10
159.272043020231
20
-5.43663169289593
30
0
41
1
10
159.328998026108
20
-5.31145061603925
30
0
41
1
10
159.467031953386
20
-5.07245510235029
30
0
41
1
10
159.54923858899
20
-4.95758666083407
30
0
41
1
10
159.732455024599
20
-4.74889652289352
30
0
41
1
10
159.833618174231
20
-4.65420715393282
30
0
41
1
10
159.999992493261
20
-4.52702991607629
30
0
41
1
10
160.058268562871
20
-4.48692630988629
30
0
41
1
10
160.177699775147
20
-4.4133400454549
30
0
41
1
10
160.238887160095
20
-4.37977003258655
30
0
41
1
10
160.426772650487
20
-4.2885419145118
30
0
41
1
10
160.557749365632
20
-4.24026815839915
30
0
41
1
10
160.831700311367
20
-4.17009420999199
30
0
41
1
10
160.970096478841
20
-4.14939210267662
30
0
41
1
10
161.179217045146
20
-4.13920443831009
30
0
41
1
10
161.249209959696
20
-4.13930528498264
30
0
41
1
10
161.389782625581
20
-4.14668032377094
30
0
41
1
10
161.460404449223
20
-4.15401392686661
30
0
41
1
10
161.668276452824
20
-4.18630911343337
30
0
41
1
10
161.803223845062
20
-4.22149189646859
30
0
41
1
10
162.000217991679
20
-4.29462310289466
30
0
41
1
10
162.065331438309
20
-4.32261078904094
30
0
41
1
10
162.191428887018
20
-4.38455725378955
30
0
41
1
10
162.25246422619
20
-4.41847958369883
30
0
41
1
10
162.429703891412
20
-4.52882466244316
30
0
41
1
10
162.540221060627
20
-4.6138593312385
30
0
41
1
10
162.744756437318
20
-4.80676706131547
30
0
41
1
10
162.835632024665
20
-4.91162765403124
30
0
41
1
10
162.955747919203
20
-5.08079745363221
30
0
41
1
10
162.993066642505
20
-5.13918229027138
30
0
41
1
10
163.062177742338
20
-5.25999353325687
30
0
41
1
10
163.093901827937
20
-5.32239460056169
30
0
41
1
10
163.178835889706
20
-5.51163709992542
30
0
41
1
10
163.222680258541
20
-5.64178380141681
30
0
41
1
10
163.269663582233
20
-5.84280939669202
30
0
41
1
10
163.282211769436
20
-5.91113874073994
30
0
41
1
10
163.300583885652
20
-6.04795286417101
30
0
41
1
10
163.306428095156
20
-6.11628117398794
30
0
41
1
10
163.314265682115
20
-6.32103282205191
30
0
41
1
10
163.306652120564
20
-6.45722357434065
30
0
41
1
10
163.275649083958
20
-6.66104299480483
30
0
41
1
10
163.262017730654
20
-6.72871876114172
30
0
41
1
10
163.228751181633
20
-6.86120200153124
30
0
41
1
10
163.209070888411
20
-6.92634580221855
30
0
41
1
10
163.141005350869
20
-7.11853890802342
30
0
41
1
10
163.08344248514
20
-7.24279504274932
30
0
41
1
10
162.94397090396
20
-7.48056939141887
30
0
41
1
10
162.863873677505
20
-7.59117784066291
30
0
41
1
10
162.728401423011
20
-7.74495195991736
30
0
41
1
10
162.680671352786
20
-7.7941724837728
30
0
41
1
10
162.579871022318
20
-7.88840390627021
30
0
41
1
10
162.526507050646
20
-7.93360832326707
30
0
41
1
10
162.361517734756
20
-8.05987877803537
30
0
41
1
10
162.244384667384
20
-8.13249295451698
30
0
41
1
10
161.995612456023
20
-8.25437773246028
30
0
41
1
10
161.862385913828
20
-8.30385724767896
30
0
41
1
10
161.592340862836
20
-8.37379824427131
30
0
41
1
10
161.454659939569
20
-8.39501734479902
30
0
41
1
10
161.244029831123
20
-8.40563434564734
30
0
41
1
10
161.172899931001
20
-8.4055566563037
30
0
41
1
10
161.032675009183
20
-8.3981995747653
30
0
41
1
10
160.893674248261
20
-8.38373201743963
30
0
41
1
10
160.757067489197
20
-8.35534967002201
30
0
41
1
10
160.621665705113
20
-8.31995435089044
30
0
41
1
10
160.554191208418
20
-8.29859183965564
30
0
41
1
10
160.357350252126
20
-8.2250735827607
30
0
41
1
10
160.233077288087
20
-8.1636679638541
30
0
41
1
10
160.056628032771
20
-8.05370709940237
30
0
41
1
10
159.999243396371
20
-8.01386446425772
30
0
41
1
10
159.889050710166
20
-7.92894515335598
30
0
41
1
10
159.836527584506
20
-7.88413223005537
30
0
41
1
10
159.686342606168
20
-7.742910851907
30
0
41
1
10
159.595995946209
20
-7.63978347728084
30
0
41
1
10
159.434870861358
20
-7.41539933611762
30
0
41
1
10
159.36607131502
20
-7.29675243195635
30
0
41
1
10
159.280620452439
20
-7.11125260999529
30
0
41
1
10
159.25505063022
20
-7.04806188055144
30
0
41
1
10
159.209807639233
20
-6.91892146266466
30
0
41
1
10
159.190077527231
20
-6.85269010745134
30
0
41
1
10
159.140729051706
20
-6.65254237906586
30
0
41
1
10
159.120619374448
20
-6.51683530731
30
0
41
1
10
159.106385093521
20
-6.24099826624754
30
0
0
SPLINE
5
197
100
AcDbEntity
8
1
62
256
6
ByLayer
370
-1
48
1
60
0
100
AcDbSpline
70
4
71
3
72
8
73
4
40
0
40
0
40
0
40
0
40
1
40
1
40
1
40
1
41
1
10
111.819294770146
20
23.4645704340862
30
0
41
1
10
111.133920957855
20
23.6830230576744
30
0
41
1
10
110.441496293877
20
23.9109989304842
30
0
41
1
10
109.742575027894
20
24.1477494538922
30
0
0
SPLINE
5
198
100
AcDbEntity
8
1
62
256
6
ByLayer
370
-1
48
1
60
0
100
AcDbSpline
70
4
71
3
72
20
73
16
40
0
40
0
40
0
40
0
40
0.125000000000001
40
0.125000000000001
40
0.250000000000001
40
0.250000000000001
40
0.500000000000003
40
0.500000000000003
40
0.625000000000002
40
0.625000000000002
40
0.750000000000001
40
0.750000000000001
40
0.875000000000001
40
0.875000000000001
40
1
40
1
40
1
40
1
41
1
10
151.912771221884
20
11.4950897155181
30
0
41
1
10
151.917743568866
20
11.4950897155181
30
0
41
1
10
151.916684948955
20
11.5016750351143
30
0
41
1
10
151.904166968727
20
11.526324793201
30
0
41
1
10
151.892651537846
20
11.5446598831045
30
0
41
1
10
151.848677347674
20
11.6125859895477
30
0
41
1
10
151.806508975928
20
11.6761506662781
30
0
41
1
10
151.740940737157
20
11.7884324319769
30
0
41
1
10
151.718487656705
20
11.8288837433285
30
0
41
1
10
151.673375434115
20
11.9163517577114
30
0
41
1
10
151.651183505458
20
11.9624933844634
30
0
41
1
10
151.608653782121
20
12.0587992861654
30
0
41
1
10
151.588229288484
20
12.109116458054
30
0
41
1
10
151.549524357129
20
12.2147059365413
30
0
41
1
10
151.531785342452
20
12.2685623884892
30
0
41
1
10
151.515862167872
20
12.3228076587208
30
0
0
SPLINE
5
199
100
AcDbEntity
8
1
62
256
6
ByLayer
370
-1
48
1
60
0
100
AcDbSpline
70
4
71
3
72
8
73
4
40
0
40
0
40
0
40
0
40
1
40
1
40
1
40
1
41
1
10
32.9020328658141
20
-30.3215107743286
30
0
41
1
10
33.9030035226392
20
-30.2715343361623
30
0
41
1
10
34.9545812096429
20
-30.1891665968111
30
0
41
1
10
36.0570800238851
20
-30.0882350336539
30
0
0
SPLINE
5
19A
100
AcDbEntity
8
1
62
256
6
ByLayer
370
-1
48
1
60
0
100
AcDbSpline
70
4
71
3
72
36
73
32
40
0
40
0
40
0
40
0
40
0.06250000000001
40
0.06250000000001
40
0.0937500000000126
40
0.0937500000000126
40
0.125000000000015
40
0.125000000000015
40
0.250000000000016
40
0.250000000000016
40
0.375000000000017
40
0.375000000000017
40
0.406250000000017
40
0.406250000000017
40
0.437500000000016
40
0.437500000000016
40
0.500000000000015
40
0.500000000000015
40
0.562500000000014
40
0.562500000000014
40
0.593750000000013
40
0.593750000000013
40
0.625000000000012
40
0.625000000000012
40
0.750000000000007
40
0.750000000000007
40
0.875000000000002
40
0.875000000000002
40
0.937500000000001
40
0.937500000000001
40
1
40
1
40
1
40
1
41
1
10
146.518050116857
20
12.3074868274973
30
0
41
1
10
146.769544135455
20
12.1938286201476
30
0
41
1
10
147.018909473934
20
12.0840162615058
30
0
41
1
10
147.389112749425
20
11.9243672812058
30
0
41
1
10
147.511871170731
20
11.8719951793978
30
0
41
1
10
147.755967628264
20
11.7688113538493
30
0
41
1
10
147.877270107564
20
11.7180170570782
30
0
41
1
10
148.474266852288
20
11.4698903654362
30
0
41
1
10
148.926243383106
20
11.2881607894672
30
0
41
1
10
149.769704674159
20
10.9453289377699
30
0
41
1
10
150.161383908683
20
10.7843297223448
30
0
41
1
10
150.601921016629
20
10.5868002915057
30
0
41
1
10
150.687750148296
20
10.5473677164776
30
0
41
1
10
150.852159837505
20
10.4694633164369
30
0
41
1
10
150.930926009408
20
10.4309134354868
30
0
41
1
10
151.156567278401
20
10.3160587046438
30
0
41
1
10
151.292818134107
20
10.2405469257779
30
0
41
1
10
151.53444816585
20
10.0895063708628
30
0
41
1
10
151.639843153007
20
10.0139791869841
30
0
41
1
10
151.771979054249
20
9.89910867640697
30
0
41
1
10
151.81154385929
20
9.86064137036712
30
0
41
1
10
151.880539839629
20
9.78412417784995
30
0
41
1
10
151.910135579825
20
9.7459369486788
30
0
41
1
10
152.033437694766
20
9.55492556785515
30
0
41
1
10
152.053876227786
20
9.40147797730569
30
0
41
1
10
151.922709907041
20
9.08848087811691
30
0
41
1
10
151.774417215149
20
8.93698881391225
30
0
41
1
10
151.440077084678
20
8.72194804148174
30
0
41
1
10
151.308945735058
20
8.65209504145588
30
0
41
1
10
151.017337136754
20
8.52147284459218
30
0
41
1
10
150.856433107292
20
8.4603009511132
30
0
41
1
10
150.68183095765
20
8.40391064064519
30
0
0
SPLINE
5
19B
100
AcDbEntity
8
1
62
256
6
ByLayer
370
-1
48
1
60
0
100
AcDbSpline
70
4
71
2
72
6
73
3
40
0
40
0
40
0
40
1
40
1
40
1
41
1
10
16.802032865814
20
-23.4424210210721
30
0
41
1
10
16.802032865814
20
-26.4390072783555
30
0
41
1
10
16.8020328658141
20
-29.4355935356389
30
0
0
SPLINE
5
19C
100
AcDbEntity
8
1
62
256
6
ByLayer
370
-1
48
1
60
0
100
AcDbSpline
70
4
71
3
72
22
73
18
40
0
40
0
40
0
40
0
40
0.125
40
0.125
40
0.25
40
0.25
40
0.375
40
0.375
40
0.5
40
0.5
40
0.625
40
0.625
40
0.75
40
0.75
40
0.875
40
0.875
40
1
40
1
40
1
40
1
41
1
10
124.10420114051
20
20.6942831708718
30
0
41
1
10
124.057591769898
20
20.7661100372057
30
0
41
1
10
124.020613783904
20
20.8423989590984
30
0
41
1
10
123.964214555899
20
21.0031383078607
30
0
41
1
10
123.944849212156
20
21.0885180180358
30
0
41
1
10
123.924683283104
20
21.2598048710687
30
0
41
1
10
123.923473186108
20
21.3463713530976
30
0
41
1
10
123.937857823901
20
21.5212809840955
30
0
41
1
10
123.953318392251
20
21.6074901292719
30
0
41
1
10
123.998898055837
20
21.776293480877
30
0
41
1
10
124.029420620233
20
21.8598268682337
30
0
41
1
10
124.103106812194
20
22.0195909691166
30
0
41
1
10
124.146119788654
20
22.0958878625147
30
0
41
1
10
124.243873140276
20
22.2416667598014
30
0
41
1
10
124.299010573416
20
22.3114556491156
30
0
41
1
10
124.417936316756
20
22.4404955009156
30
0
41
1
10
124.481962621224
20
22.5002001669753
30
0
41
1
10
124.55043951492
20
22.5552091850792
30
0
0
SPLINE
5
19D
100
AcDbEntity
8
1
62
256
6
ByLayer
370
-1
48
1
60
0
100
AcDbSpline
70
4
71
3
72
13
73
9
40
0
40
0
40
0
40
0
40
0.249999999999998
40
0.249999999999998
40
0.374999999999997
40
0.374999999999997
40
0.499999999999997
40
1
40
1
40
1
40
1
41
1
10
42
20
-29.512770427189
30
0
41
1
10
41.5067641733071
20
-29.5265934990001
30
0
41
1
10
41.0121756750007
20
-29.5583583794263
30
0
41
1
10
40.2687585951893
20
-29.6343504689311
30
0
41
1
10
40.0206178469023
20
-29.6659638244482
30
0
41
1
10
39.5246119307348
20
-29.725503257532
30
0
41
1
10
38.2849406653327
20
-29.8707514053122
30
0
41
1
10
37.0468527604647
20
-29.9979807068436
30
0
41
1
10
36.05708002265
20
-30.0882350337669
30
0
0
SPLINE
5
19E
100
AcDbEntity
8
1
62
256
6
ByLayer
370
-1
48
1
60
0
100
AcDbSpline
70
4
71
3
72
10
73
6
40
0
40
0
40
0
40
0
40
0.5
40
0.5
40
1
40
1
40
1
40
1
41
1
10
124.55043951492
20
22.5552091850792
30
0
41
1
10
124.695341191894
20
22.6716119384988
30
0
41
1
10
124.847134915903
20
22.7756492318683
30
0
41
1
10
125.158947548953
20
22.9688756018368
30
0
41
1
10
125.319067651048
20
23.057885545481
30
0
41
1
10
125.482083289614
20
23.1416424384808
30
0
0
SPLINE
5
19F
100
AcDbEntity
8
1
62
256
6
ByLayer
370
-1
48
1
60
0
100
AcDbSpline
70
4
71
3
72
8
73
4
40
0
40
0
40
0
40
0
40
1
40
1
40
1
40
1
41
1
10
32.9020328658142
20
-26.988873567864
30
0
41
1
10
32.9020328658142
20
-28.0997526366855
30
0
41
1
10
32.9020328658142
20
-29.2106317055071
30
0
41
1
10
32.9020328658142
20
-30.3215107743287
30
0
0
SPLINE
5
1A0
100
AcDbEntity
8
1
62
256
6
ByLayer
370
-1
48
1
60
0
100
AcDbSpline
70
4
71
3
72
22
73
18
40
0
40
0
40
0
40
0
40
0.338352237429072
40
0.338352237429072
40
0.422940296786341
40
0.422940296786341
40
0.50752835614361
40
0.50752835614361
40
0.676704474858131
40
0.676704474858131
40
0.761292534215391
40
0.761292534215391
40
0.845880593572651
40
0.845880593572651
40
0.930468652929911
40
0.930468652929911
40
1
40
1
40
1
40
1
41
1
10
160.626052867563
20
20.6074647334829
30
0
41
1
10
160.654815564326
20
20.3675837300136
30
0
41
1
10
160.722711669595
20
20.130114527236
30
0
41
1
10
160.863802681884
20
19.8382793406167
30
0
41
1
10
160.894879104651
20
19.7802901205955
30
0
41
1
10
160.962229369041
20
19.6665838460066
30
0
41
1
10
160.998592986753
20
19.6106707150865
30
0
41
1
10
161.116147784573
20
19.4459901988818
30
0
41
1
10
161.20569003905
20
19.3402317061056
30
0
41
1
10
161.359945452928
20
19.1892878721436
30
0
41
1
10
161.414597089583
20
19.1404393772561
30
0
41
1
10
161.528914126571
20
19.0476287846741
30
0
41
1
10
161.588811798271
20
19.0034279463211
30
0
41
1
10
161.714492363688
20
18.9198523182666
30
0
41
1
10
161.780271808815
20
18.8804745021563
30
0
41
1
10
161.90608315208
20
18.8136997040136
30
0
41
1
10
161.96508507683
20
18.7854573128344
30
0
41
1
10
162.025382226471
20
18.7597325760022
30
0
0
SPLINE
5
1A1
100
AcDbEntity
8
1
62
256
6
ByLayer
370
-1
48
1
60
0
100
AcDbSpline
70
4
71
3
72
26
73
22
40
0
40
0
40
0
40
0
40
0.0324502222643643
40
0.0324502222643643
40
0.106877128244031
40
0.106877128244031
40
0.181304034223697
40
0.181304034223697
40
0.255730940203363
40
0.255730940203363
40
0.404584752162692
40
0.404584752162692
40
0.479011658142356
40
0.479011658142356
40
0.55343856412202
40
0.55343856412202
40
0.702292376081346
40
0.702292376081346
40
0.851146188040673
40
0.851146188040673
40
1
40
1
40
1
40
1
41
1
10
161.795160919043
20
22.6446950422878
30
0
41
1
10
161.763797173246
20
22.6323860714709
30
0
41
1
10
161.733118802323
20
22.6193951007145
30
0
41
1
10
161.634957907814
20
22.5747685334677
30
0
41
1
10
161.57053310769
20
22.540579448896
30
0
41
1
10
161.44845646655
20
22.4667127188927
30
0
41
1
10
161.390584617654
20
22.4268513071113
30
0
41
1
10
161.281996809526
20
22.3428556846598
30
0
41
1
10
161.231703856902
20
22.299102015749
30
0
41
1
10
161.091010897998
20
22.1631999424483
30
0
41
1
10
161.010676712878
20
22.066457469579
30
0
41
1
10
160.906735966238
20
21.9132359150648
30
0
41
1
10
160.874903989824
20
21.8607659533986
30
0
41
1
10
160.817385291001
20
21.7548713402076
30
0
41
1
10
160.791547453783
20
21.7012354282595
30
0
41
1
10
160.722095219015
20
21.5383395793776
30
0
41
1
10
160.686476187071
20
21.4271019292302
30
0
41
1
10
160.634957797842
20
21.1994390873484
30
0
41
1
10
160.619074309147
20
21.0824290585641
30
0
41
1
10
160.607491923915
20
20.8463751626537
30
0
41
1
10
160.611671519182
20
20.7274052352176
30
0
41
1
10
160.626052867563
20
20.6074647334829
30
0
0
SPLINE
5
1A2
100
AcDbEntity
8
1
62
256
6
ByLayer
370
-1
48
1
60
0
100
AcDbSpline
70
4
71
3
72
28
73
24
40
0
40
0
40
0
40
0
40
0.0625000000000216
40
0.0625000000000216
40
0.0937500000000203
40
0.0937500000000203
40
0.125000000000019
40
0.125000000000019
40
0.156250000000018
40
0.156250000000018
40
0.187500000000016
40
0.187500000000016
40
0.250000000000013
40
0.250000000000013
40
0.375000000000008
40
0.375000000000008
40
0.43750000000001
40
0.43750000000001
40
0.500000000000013
40
0.500000000000013
40
0.750000000000007
40
0.750000000000007
40
1
40
1
40
1
40
1
41
1
10
153.417093689549
20
10.8286941707506
30
0
41
1
10
153.347669331512
20
10.8212878703715
30
0
41
1
10
153.278004763093
20
10.8171065110203
30
0
41
1
10
153.173113632769
20
10.8161291650675
30
0
41
1
10
153.138495569424
20
10.8167080116204
30
0
41
1
10
153.071785718035
20
10.8194808127347
30
0
41
1
10
153.039384977117
20
10.8216704313101
30
0
41
1
10
152.976287863601
20
10.8274819153041
30
0
41
1
10
152.945576911357
20
10.8311192414285
30
0
41
1
10
152.887307839575
20
10.8394089314084
30
0
41
1
10
152.859494867219
20
10.8440814859962
30
0
41
1
10
152.779315290153
20
10.8593959528158
30
0
41
1
10
152.729849916944
20
10.8714216849493
30
0
41
1
10
152.593691455236
20
10.9103508458962
30
0
41
1
10
152.518431534201
20
10.9399035391465
30
0
41
1
10
152.417850696916
20
10.9869911930512
30
0
41
1
10
152.386440505383
20
11.0032205199762
30
0
41
1
10
152.327765577005
20
11.0360652237619
30
0
41
1
10
152.300408974824
20
11.0527207398612
30
0
41
1
10
152.171490980766
20
11.1368928803794
30
0
41
1
10
152.092385921152
20
11.2069417371084
30
0
41
1
10
151.959320905078
20
11.3494054351509
30
0
41
1
10
151.905970252676
20
11.4219682867048
30
0
41
1
10
151.861624148987
20
11.4950897155182
30
0
0
SPLINE
5
1A3
100
AcDbEntity
8
1
62
256
6
ByLayer
370
-1
48
1
60
0
100
AcDbSpline
70
4
71
3
72
18
73
14
40
0
40
0
40
0
40
0
40
0.0889997487900035
40
0.0889997487900035
40
0.271199799032003
40
0.271199799032003
40
0.453399849274003
40
0.453399849274003
40
0.635599899516002
40
0.635599899516002
40
0.817799949758002
40
0.817799949758002
40
1
40
1
40
1
40
1
41
1
10
102.088656517561
20
25.6397061320866
30
0
41
1
10
102.960623483213
20
25.7984159955492
30
0
41
1
10
103.832483380232
20
25.9527126339103
30
0
41
1
10
106.48773153577
20
26.4088733704936
30
0
41
1
10
108.27052156922
20
26.6960584526561
30
0
41
1
10
111.835176845034
20
27.230705864701
30
0
41
1
10
113.61703939197
20
27.4782171673351
30
0
41
1
10
117.179489283868
20
27.9340503625899
30
0
41
1
10
118.959565920519
20
28.142769074871
30
0
41
1
10
122.520589909888
20
28.5187429553893
30
0
41
1
10
124.301881513871
20
28.6858514923096
30
0
41
1
10
127.864705303537
20
28.9793163902701
30
0
41
1
10
129.64659104093
20
29.1053674027768
30
0
41
1
10
131.429721556578
20
29.2103004231966
30
0
0
SPLINE
5
1A4
100
AcDbEntity
8
1
62
256
6
ByLayer
370
-1
48
1
60
0
100
AcDbSpline
70
4
71
3
72
38
73
34
40
0
40
0
40
0
40
0
40
0.125
40
0.125
40
0.25
40
0.25
40
0.3125
40
0.3125
40
0.375
40
0.375
40
0.4375
40
0.4375
40
0.5
40
0.5
40
0.625
40
0.625
40
0.65625
40
0.65625
40
0.6875
40
0.6875
40
0.75
40
0.75
40
0.812500000000001
40
0.812500000000001
40
0.843750000000001
40
0.843750000000001
40
0.875000000000001
40
0.875000000000001
40
0.906250000000001
40
0.906250000000001
40
0.9375
40
0.9375
40
1
40
1
40
1
40
1
41
1
10
45.8370900215442
20
-9.2684907487899
30
0
41
1
10
49.4929398269202
20
-10.5336098867412
30
0
41
1
10
53.144040331467
20
-11.7684081210585
30
0
41
1
10
60.4434458967416
20
-14.1604560527318
30
0
41
1
10
64.0926411319914
20
-15.3154680287268
30
0
41
1
10
69.5714097865751
20
-16.9730510493631
30
0
41
1
10
71.3980198251065
20
-17.5141813020592
30
0
41
1
10
75.0536783200807
20
-18.5695810925148
30
0
41
1
10
76.8810608182778
20
-19.0834272439154
30
0
41
1
10
80.5341302170832
20
-20.0795525218943
30
0
41
1
10
82.3603441591254
20
-20.561667432299
30
0
41
1
10
86.0121447747723
20
-21.4942189287676
30
0
41
1
10
87.8373907653805
20
-21.9452820540136
30
0
41
1
10
93.3135916344329
20
-23.2480559537327
30
0
41
1
10
96.9652575075903
20
-24.0489775953756
30
0
41
1
10
101.534976883507
20
-24.9583584672678
30
0
41
1
10
102.44921958971
20
-25.1356303283443
30
0
41
1
10
104.276500840172
20
-25.4804426622395
30
0
41
1
10
105.189735265488
20
-25.6480775489389
30
0
41
1
10
107.928547555848
20
-26.1362106598431
30
0
41
1
10
109.75328418798
20
-26.4418814339676
30
0
41
1
10
113.401115587945
20
-27.0129650115793
30
0
41
1
10
115.223801044817
20
-27.2787799354116
30
0
41
1
10
117.958682041123
20
-27.6450542132408
30
0
41
1
10
118.870332052429
20
-27.761889812683
30
0
41
1
10
120.693058564636
20
-27.985595322762
30
0
41
1
10
121.604271845757
20
-28.0923136089579
30
0
41
1
10
123.427439395146
20
-28.2945907586715
30
0
41
1
10
124.339316481179
20
-28.3902377499351
30
0
41
1
10
126.163122331685
20
-28.5710001374374
30
0
41
1
10
127.075087896717
20
-28.6560775262412
30
0
41
1
10
129.811417164365
20
-28.8951614293553
30
0
41
1
10
131.636246254018
20
-29.0329762036936
30
0
41
1
10
133.462516074282
20
-29.1486753936544
30
0
0
SPLINE
5
1A5
100
AcDbEntity
8
1
62
256
6
ByLayer
370
-1
48
1
60
0
100
AcDbSpline
70
4
71
3
72
14
73
10
40
0
40
0
40
0
40
0
40
0.499999999999982
40
0.499999999999982
40
0.624999999999986
40
0.624999999999986
40
0.749999999999991
40
0.749999999999991
40
1
40
1
40
1
40
1
41
1
10
145.400949175828
20
12.8610701931531
30
0
41
1
10
146.427642317619
20
12.4597918434184
30
0
41
1
10
147.482004531897
20
12.1435087546944
30
0
41
1
10
148.83518466868
20
11.8563981049359
30
0
41
1
10
149.10759310802
20
11.8044220344925
30
0
41
1
10
149.656016882409
20
11.7115533792032
30
0
41
1
10
149.932533799715
20
11.670618137231
30
0
41
1
10
150.760113893184
20
11.5656454214964
30
0
41
1
10
151.311181843951
20
11.518991273745
30
0
41
1
10
151.861624148987
20
11.4950897155182
30
0
0
SPLINE
5
1A6
100
AcDbEntity
8
1
62
256
6
ByLayer
370
-1
48
1
60
0
100
AcDbSpline
70
4
71
3
72
8
73
4
40
0
40
0
40
0
40
0
40
1
40
1
40
1
40
1
41
1
10
144.603997464399
20
13.2053437976305
30
0
41
1
10
144.866261000242
20
13.0847519883871
30
0
41
1
10
145.131839869039
20
12.9699842395294
30
0
41
1
10
145.400949175828
20
12.8610701931531
30
0
0
SPLINE
5
1A7
100
AcDbEntity
8
1
62
256
6
ByLayer
370
-1
48
1
60
0
100
AcDbSpline
70
4
71
3
72
8
73
4
40
0
40
0
40
0
40
0
40
1
40
1
40
1
40
1
41
1
10
124.19247400086
20
20.5661113869672
30
0
41
1
10
124.16184948133
20
20.6078809708968
30
0
41
1
10
124.132509917969
20
20.6506640461702
30
0
41
1
10
124.104201140506
20
20.6942831708716
30
0
0
SPLINE
5
1A8
100
AcDbEntity
8
1
62
256
6
ByLayer
370
-1
48
1
60
0
100
AcDbSpline
70
4
71
3
72
8
73
4
40
0
40
0
40
0
40
0
40
1
40
1
40
1
40
1
41
1
10
8.63465910864926
20
-23.293930943556
30
0
41
1
10
8.21781122476841
20
-22.7890127289446
30
0
41
1
10
7.86242837799259
20
-22.2411452108659
30
0
41
1
10
7.56942952077404
20
-21.6445061077836
30
0
0
SPLINE
5
1A9
100
AcDbEntity
8
1
62
256
6
ByLayer
370
-1
48
1
60
0
100
AcDbSpline
70
4
71
3
72
8
73
4
40
0
40
0
40
0
40
0
40
1
40
1
40
1
40
1
41
1
10
18.2271458671011
20
-23.2175369536587
30
0
41
1
10
17.7537365760426
20
-23.3293099207271
30
0
41
1
10
17.2789698058939
20
-23.4050121263007
30
0
41
1
10
16.802032865814
20
-23.4424210210721
30
0
0
SPLINE
5
1AA
100
AcDbEntity
8
1
62
256
6
ByLayer
370
-1
48
1
60
0
100
AcDbSpline
70
4
71
3
72
18
73
14
40
0
40
0
40
0
40
0
40
0.249999999999986
40
0.249999999999986
40
0.499999999999973
40
0.499999999999973
40
0.562499999999974
40
0.562499999999974
40
0.624999999999976
40
0.624999999999976
40
0.749999999999987
40
0.749999999999987
40
1
40
1
40
1
40
1
41
1
10
131.429721556577
20
29.2103004232149
30
0
41
1
10
131.111019500136
20
28.5494149584428
30
0
41
1
10
130.752148948533
20
27.9181173052296
30
0
41
1
10
129.936493472498
20
26.7276449897339
30
0
41
1
10
129.479491079015
20
26.1686305135197
30
0
41
1
10
128.839789917813
20
25.520280825217
30
0
41
1
10
128.708244636038
20
25.3929540262102
30
0
41
1
10
128.44139001159
20
25.1460925110394
30
0
41
1
10
128.305747933974
20
25.0261973672422
30
0
41
1
10
127.89247620416
20
24.6766417792437
30
0
41
1
10
127.60849533133
20
24.4571203155973
30
0
41
1
10
126.733615955312
20
23.8351717741165
30
0
41
1
10
126.119814483756
20
23.4693066053065
30
0
41
1
10
125.482083289614
20
23.1416424384806
30
0
0
SPLINE
5
1AB
100
AcDbEntity
8
1
62
256
6
ByLayer
370
-1
48
1
60
0
100
AcDbSpline
70
4
71
3
72
8
73
4
40
0
40
0
40
0
40
0
40
1
40
1
40
1
40
1
41
1
10
42
20
-7.56492876093915
30
0
41
1
10
43.2890673554226
20
-8.11687931960805
30
0
41
1
10
44.5675464073587
20
-8.68623400701367
30
0
41
1
10
45.8370900215443
20
-9.26849074878962
30
0
0
SPLINE
5
1AC
100
AcDbEntity
8
1
62
256
6
ByLayer
370
-1
48
1
60
0
100
AcDbSpline
70
4
71
3
72
10
73
6
40
0
40
0
40
0
40
0
40
0.5
40
0.5
40
1
40
1
40
1
40
1
41
1
10
32.9020328658141
20
-26.988873567864
30
0
41
1
10
33.4147623752442
20
-27.0380029366541
30
0
41
1
10
33.9340600947683
20
-27.1123160571529
30
0
41
1
10
34.9856044641883
20
-27.3060311212326
30
0
41
1
10
35.5178577034151
20
-27.4254155844056
30
0
41
1
10
36.0570800238851
20
-27.564440096264
30
0
0
SPLINE
5
1AD
100
AcDbEntity
8
1
62
256
6
ByLayer
370
-1
48
1
60
0
100
AcDbSpline
70
4
71
3
72
10
73
6
40
0
40
0
40
0
40
0
40
0.5
40
0.5
40
1
40
1
40
1
40
1
41
1
10
148.139764570634
20
19.6002935153733
30
0
41
1
10
148.139764570634
20
19.5094751897737
30
0
41
1
10
148.132115650898
20
19.4186110297405
30
0
41
1
10
148.102236086992
20
19.2409212917532
30
0
41
1
10
148.080054460162
20
19.153624435295
30
0
41
1
10
148.050538035156
20
19.0678954610152
30
0
0
SPLINE
5
1AE
100
AcDbEntity
8
1
62
256
6
ByLayer
370
-1
48
1
60
0
100
AcDbSpline
70
4
71
3
72
14
73
10
40
0
40
0
40
0
40
0
40
0.25
40
0.25
40
0.5
40
0.5
40
0.75
40
0.75
40
1
40
1
40
1
40
1
41
1
10
18.2271453063304
20
-23.2175393301021
30
0
41
1
10
19.4390344809776
20
-23.6557015558652
30
0
41
1
10
20.6588647893952
20
-24.046674768405
30
0
41
1
10
23.1059024305862
20
-24.7659191419959
30
0
41
1
10
24.3330977127513
20
-25.0938101232626
30
0
41
1
10
26.7861964234905
20
-25.7030375590201
30
0
41
1
10
28.012938605103
20
-25.9844638059996
30
0
41
1
10
30.4616079383571
20
-26.5116406970697
30
0
41
1
10
31.6835722885213
20
-26.7573758026141
30
0
41
1
10
32.9020328658142
20
-26.988873567864
30
0
0
SPLINE
5
1AF
100
AcDbEntity
8
1
62
256
6
ByLayer
370
-1
48
1
60
0
100
AcDbSpline
70
4
71
3
72
28
73
24
40
0
40
0
40
0
40
0
40
0.0625000000000168
40
0.0625000000000168
40
0.0937500000000114
40
0.0937500000000114
40
0.125000000000006
40
0.125000000000006
40
0.156250000000003
40
0.156250000000003
40
0.187500000000001
40
0.187500000000001
40
0.24999999999999
40
0.24999999999999
40
0.312499999999979
40
0.312499999999979
40
0.374999999999968
40
0.374999999999968
40
0.499999999999965
40
0.499999999999965
40
0.749999999999982
40
0.749999999999982
40
1
40
1
40
1
40
1
41
1
10
140.770136319703
20
15.8567487962944
30
0
41
1
10
140.713089294475
20
15.8473577351667
30
0
41
1
10
140.657078626543
20
15.834221983613
30
0
41
1
10
140.576719958574
20
15.8012863921367
30
0
41
1
10
140.550497694926
20
15.7879075974741
30
0
41
1
10
140.503242021734
20
15.7546263512024
30
0
41
1
10
140.482309893358
20
15.7346505237583
30
0
41
1
10
140.451332802592
20
15.6878760209188
30
0
41
1
10
140.441915114685
20
15.6616058396757
30
0
41
1
10
140.435378253655
20
15.6081536190467
30
0
41
1
10
140.43793121598
20
15.5817598788082
30
0
41
1
10
140.455972675441
20
15.5049664204038
30
0
41
1
10
140.480728113781
20
15.4582592654148
30
0
41
1
10
140.538240257033
20
15.3711756827663
30
0
41
1
10
140.571330816009
20
15.3310243481297
30
0
41
1
10
140.642030832084
20
15.2542743087414
30
0
41
1
10
140.679749388546
20
15.2177601647691
30
0
41
1
10
140.79757687435
20
15.1118998700664
30
0
41
1
10
140.881175941454
20
15.0471137922948
30
0
41
1
10
141.138546454655
20
14.8632987358198
30
0
41
1
10
141.319844048302
20
14.7540447959517
30
0
41
1
10
141.69258420009
20
14.5492780813525
30
0
41
1
10
141.88435061808
20
14.4542049835035
30
0
41
1
10
142.080097643005
20
14.3644175927407
30
0
0
SPLINE
5
1B0
100
AcDbEntity
8
1
62
256
6
ByLayer
370
-1
48
1
60
0
100
AcDbSpline
70
4
71
3
72
18
73
14
40
0
40
0
40
0
40
0
40
0.0624999999999986
40
0.0624999999999986
40
0.0937499999999978
40
0.0937499999999978
40
0.124999999999997
40
0.124999999999997
40
0.249999999999997
40
0.249999999999997
40
0.499999999999999
40
0.499999999999999
40
1
40
1
40
1
40
1
41
1
10
42
20
-7.56492876093915
30
0
41
1
10
41.6502469671606
20
-7.41517213180742
30
0
41
1
10
41.2999963974277
20
-7.27025099554146
30
0
41
1
10
40.7740543836709
20
-7.0598312361407
30
0
41
1
10
40.5986461511063
20
-6.99085176229474
30
0
41
1
10
40.2476729677528
20
-6.85516636974265
30
0
41
1
10
40.0721367218748
20
-6.78873594423982
30
0
41
1
10
39.1936151293344
20
-6.45693201215298
30
0
41
1
10
38.4882653974676
20
-6.19481516928008
30
0
41
1
10
36.3639512459617
20
-5.42086996295757
30
0
41
1
10
34.9366690746079
20
-4.92147542134484
30
0
41
1
10
30.617180454936
20
-3.49121577741909
30
0
41
1
10
27.6996425022962
20
-2.63349196515668
30
0
41
1
10
24.7370900215412
20
-1.90756795811549
30
0
0
SPLINE
5
1B1
100
AcDbEntity
8
1
62
256
6
ByLayer
370
-1
48
1
60
0
100
AcDbSpline
70
4
71
3
72
8
73
4
40
0
40
0
40
0
40
0
40
1
40
1
40
1
40
1
41
1
10
150.681830957657
20
8.40391064064812
30
0
41
1
10
149.756847957344
20
8.10517389157363
30
0
41
1
10
148.81194125846
20
7.86210086970041
30
0
41
1
10
147.863677108388
20
7.6766337613559
30
0
0
SPLINE
5
1B2
100
AcDbEntity
8
1
62
256
6
ByLayer
370
-1
48
1
60
0
100
AcDbSpline
70
4
71
3
72
10
73
6
40
0
40
0
40
0
40
0
40
0.5
40
0.5
40
1
40
1
40
1
40
1
41
1
10
140.728256523204
20
8.95490171605917
30
0
41
1
10
141.110519925687
20
8.79482717943159
30
0
41
1
10
141.48678378496
20
8.64667193195749
30
0
41
1
10
142.227937096731
20
8.37295896461677
30
0
41
1
10
142.592824110776
20
8.24740608922517
30
0
41
1
10
142.951918752493
20
8.13336091671314
30
0
0
SPLINE
5
1B3
100
AcDbEntity
8
1
62
256
6
ByLayer
370
-1
48
1
60
0
100
AcDbSpline
70
4
71
3
72
24
73
20
40
0
40
0
40
0
40
0
40
0.0861587735080374
40
0.0861587735080374
40
0.200388926819533
40
0.200388926819533
40
0.314619080131028
40
0.314619080131028
40
0.428849233442523
40
0.428849233442523
40
0.543079386754019
40
0.543079386754019
40
0.657309540065514
40
0.657309540065514
40
0.771539693377009
40
0.771539693377009
40
0.885769846688505
40
0.885769846688505
40
1
40
1
40
1
40
1
41
1
10
42.247992399012
20
-7.66605229435228
30
0
41
1
10
42.0856950918432
20
-8.17590653128809
30
0
41
1
10
41.9238566794911
20
-8.71414499764165
30
0
41
1
10
41.5519249535546
20
-10.0208778243245
30
0
41
1
10
41.3432963554853
20
-10.8072315590282
30
0
41
1
10
40.9394273794284
20
-12.4379396724713
30
0
41
1
10
40.7441938164204
20
-13.2822665342601
30
0
41
1
10
40.3733158526888
20
-15.0021075900976
30
0
41
1
10
40.1976777102468
20
-15.8775927631456
30
0
41
1
10
39.8715694013798
20
-17.6319466571871
30
0
41
1
10
39.7211047377828
20
-18.510785774802
30
0
41
1
10
39.4501228953864
20
-20.2439363162085
30
0
41
1
10
39.3296102891981
20
-21.0982184944119
30
0
41
1
10
39.1223609739402
20
-22.7551228855783
30
0
41
1
10
39.0356277620439
20
-23.5577171395486
30
0
41
1
10
38.8986929654138
20
-25.0857540698183
30
0
41
1
10
38.8484936913498
20
-25.8111709616648
30
0
41
1
10
38.786222299446
20
-27.1618117975023
30
0
41
1
10
38.7741512323882
20
-27.7870129504636
30
0
41
1
10
38.781336071431
20
-28.3521879487689
30
0
0
SPLINE
5
1B4
100
AcDbEntity
8
1
62
256
6
ByLayer
370
-1
48
1
60
0
100
AcDbSpline
70
4
71
3
72
18
73
14
40
0
40
0
40
0
40
0
40
0.393197677991515
40
0.393197677991515
40
0.491497097489394
40
0.491497097489394
40
0.589796516987272
40
0.589796516987272
40
0.786395355983028
40
0.786395355983028
40
0.982994194978784
40
0.982994194978784
40
1
40
1
40
1
40
1
41
1
10
42
20
-29.512770427189
30
0
41
1
10
48.5217379511994
20
-29.3299968994887
30
0
41
1
10
55.0271357341122
20
-28.8596061056028
30
0
41
1
10
63.1686293106018
20
-27.9309767708177
30
0
41
1
10
64.7974118189668
20
-27.728283686354
30
0
41
1
10
68.056658333221
20
-27.2896539256969
30
0
41
1
10
69.687770119635
20
-27.0536150234435
30
0
41
1
10
74.5792050375961
20
-26.29758710387
30
0
41
1
10
77.8370422701059
20
-25.7298848548838
30
0
41
1
10
84.351323891453
20
-24.4744264827455
30
0
41
1
10
87.6077045077346
20
-23.7865450805641
30
0
41
1
10
91.1479326960061
20
-22.9785776616417
30
0
41
1
10
91.4297975608475
20
-22.9138357424353
30
0
41
1
10
91.7116793168505
20
-22.8486801955648
30
0
0
SPLINE
5
1B5
100
AcDbEntity
8
1
62
256
6
ByLayer
370
-1
48
1
60
0
100
AcDbSpline
70
4
71
3
72
12
73
8
40
0
40
0
40
0
40
0
40
0.250000000000015
40
0.250000000000015
40
0.50000000000003
40
0.50000000000003
40
1
40
1
40
1
40
1
41
1
10
151.339251544804
20
29.5841135544576
30
0
41
1
10
151.344564988781
20
29.5821466412613
30
0
41
1
10
151.356478437633
20
29.5800542780878
30
0
41
1
10
151.392989631018
20
29.5756741158165
30
0
41
1
10
151.418005234161
20
29.5733622359132
30
0
41
1
10
151.509160872503
20
29.5665785307494
30
0
41
1
10
151.593179980605
20
29.562105180719
30
0
41
1
10
151.693506253798
20
29.5585701889644
30
0
0
SPLINE
5
1B6
100
AcDbEntity
8
1
62
256
6
ByLayer
370
-1
48
1
60
0
100
AcDbSpline
70
4
71
3
72
8
73
4
40
0
40
0
40
0
40
0
40
1
40
1
40
1
40
1
41
1
10
168.065229314459
20
29.0344631681955
30
0
41
1
10
168.06823285467
20
29.1487686958911
30
0
41
1
10
168.067819805295
20
29.28435238475
30
0
41
1
10
168.064044550287
20
29.4233626716031
30
0
0
SPLINE
5
1B7
100
AcDbEntity
8
1
62
256
6
ByLayer
370
-1
48
1
60
0
100
AcDbSpline
70
4
71
3
72
9
73
5
40
0
40
0
40
0
40
0
40
0.5
40
1
40
1
40
1
40
1
41
1
10
170.368120708269
20
12.3053815889
30
0
41
1
10
170.331826366543
20
12.261455936585
30
0
41
1
10
170.245768648976
20
12.1810788437045
30
0
41
1
10
170.140110659856
20
12.12553519552
30
0
41
1
10
170.085191288119
20
12.1052132724864
30
0
0
SPLINE
5
1B8
100
AcDbEntity
8
1
62
256
6
ByLayer
370
-1
48
1
60
0
100
AcDbSpline
70
4
71
3
72
25
73
21
40
0
40
0
40
0
40
0
40
0.125
40
0.1875
40
0.25
40
0.265625
40
0.2734375
40
0.28125
40
0.3125
40
0.375
40
0.5
40
0.625
40
0.65625
40
0.6875
40
0.75
40
0.765625
40
0.78125
40
0.8125
40
0.875
40
1
40
1
40
1
40
1
41
1
10
152.16249860392
20
29.8120188957035
30
0
41
1
10
152.174699951004
20
29.8166425702187
30
0
41
1
10
152.193482359142
20
29.8226536007909
30
0
41
1
10
152.219183996647
20
29.8287159317409
30
0
41
1
10
152.233702688694
20
29.8313647102743
30
0
41
1
10
152.242930140983
20
29.8327118369436
30
0
41
1
10
152.245918150546
20
29.8331425069846
30
0
41
1
10
152.25247023187
20
29.8339108323243
30
0
41
1
10
152.265981409822
20
29.8355267925215
30
0
41
1
10
152.29567565653
20
29.8389820710926
30
0
41
1
10
152.337804610261
20
29.8437365639278
30
0
41
1
10
152.375957707009
20
29.8478323636708
30
0
41
1
10
152.401176772006
20
29.850461020847
30
0
41
1
10
152.417960348589
20
29.8521826590818
30
0
41
1
10
152.432642630663
20
29.8536437391244
30
0
41
1
10
152.445277935632
20
29.8548567398278
30
0
41
1
10
152.453713368024
20
29.8556556774632
30
0
41
1
10
152.468500985027
20
29.8570302390373
30
0
41
1
10
152.498147541086
20
29.8597012350455
30
0
41
1
10
152.523558490828
20
29.8619114654786
30
0
41
1
10
152.540517970763
20
29.8633383116575
30
0
0
SPLINE
5
1B9
100
AcDbEntity
8
1
62
256
6
ByLayer
370
-1
48
1
60
0
100
AcDbSpline
70
4
71
3
72
8
73
4
40
0
40
0
40
0
40
0
40
1
40
1
40
1
40
1
41
1
10
153.045044361612
20
11.3708228876943
30
0
41
1
10
152.991901366888
20
11.3699685226835
30
0
41
1
10
152.938754462134
20
11.369551415724
30
0
41
1
10
152.885600364428
20
11.3695413536263
30
0
0
SPLINE
5
1BA
100
AcDbEntity
8
1
62
256
6
ByLayer
370
-1
48
1
60
0
100
AcDbSpline
70
4
71
3
72
8
73
4
40
0
40
0
40
0
40
0
40
1
40
1
40
1
40
1
41
1
10
169.633583809632
20
28.5110684353899
30
0
41
1
10
169.520157725566
20
28.5070169914102
30
0
41
1
10
169.401563279921
20
28.5028373837368
30
0
41
1
10
169.282952639704
20
28.4987111894803
30
0
0
SPLINE
5
1BB
100
AcDbEntity
8
1
62
256
6
ByLayer
370
-1
48
1
60
0
100
AcDbSpline
70
4
71
3
72
8
73
4
40
0
40
0
40
0
40
0
40
1
40
1
40
1
40
1
41
1
10
152.154332928917
20
12.3388904567522
30
0
41
1
10
152.155387587872
20
12.3085736110349
30
0
41
1
10
152.156579153116
20
12.2782612530272
30
0
41
1
10
152.157909022447
20
12.2479553097228
30
0
0
SPLINE
5
1BC
100
AcDbEntity
8
1
62
256
6
ByLayer
370
-1
48
1
60
0
100
AcDbSpline
70
4
71
3
72
9
73
5
40
0
40
0
40
0
40
0
40
0.5
40
1
40
1
40
1
40
1
41
1
10
152.80020708195
20
11.4992799699563
30
0
41
1
10
152.743930880426
20
11.5157431034194
30
0
41
1
10
152.634535545748
20
11.5637774348157
30
0
41
1
10
152.542979744863
20
11.6378967195329
30
0
41
1
10
152.503667608563
20
11.6791581709416
30
0
0
SPLINE
5
1BD
100
AcDbEntity
8
1
62
256
6
ByLayer
370
-1
48
1
60
0
100
AcDbSpline
70
4
71
1
72
4
73
2
40
0
40
0
40
1
40
1
41
1
10
154.219196706746
20
11.9180204649409
30
0
41
1
10
154.22580798813
20
11.5111991244261
30
0
0
SPLINE
5
1BE
100
AcDbEntity
8
1
62
256
6
ByLayer
370
-1
48
1
60
0
100
AcDbSpline
70
4
71
3
72
8
73
4
40
0
40
0
40
0
40
0
40
1
40
1
40
1
40
1
41
1
10
152.170144794215
20
12.0392618649149
30
0
41
1
10
152.172784998217
20
12.0013759742812
30
0
41
1
10
152.179637654013
20
11.9642737261667
30
0
41
1
10
152.190695956001
20
11.9279542502321
30
0
0
SPLINE
5
1BF
100
AcDbEntity
8
1
62
256
6
ByLayer
370
-1
48
1
60
0
100
AcDbSpline
70
4
71
1
72
4
73
2
40
0
40
0
40
1
40
1
41
1
10
153.447051516761
20
27.9449424279374
30
0
41
1
10
153.074240968762
20
27.9310204857869
30
0
0
SPLINE
5
1C0
100
AcDbEntity
8
1
62
256
6
ByLayer
370
-1
48
1
60
0
100
AcDbSpline
70
4
71
3
72
25
73
21
40
0
40
0
40
0
40
0
40
0.125
40
0.1875
40
0.21875
40
0.234375
40
0.25
40
0.3125
40
0.34375
40
0.375
40
0.5
40
0.625
40
0.6875
40
0.71875
40
0.7265625
40
0.734375
40
0.75
40
0.8125
40
0.875
40
1
40
1
40
1
40
1
41
1
10
153.1809876466
20
11.4745470945061
30
0
41
1
10
153.163975252648
20
11.4747859091108
30
0
41
1
10
153.138479878759
20
11.4752158900416
30
0
41
1
10
153.108728514855
20
11.4758096786092
30
0
41
1
10
153.093885330787
20
11.4761480108107
30
0
41
1
10
153.085417020105
20
11.4763557973017
30
0
41
1
10
153.072731153596
20
11.4766832710666
30
0
41
1
10
153.057985928806
20
11.477115202067
30
0
41
1
10
153.041127588472
20
11.4776603521729
30
0
41
1
10
153.015793823001
20
11.4785211316598
30
0
41
1
10
152.977460092731
20
11.4799419396946
30
0
41
1
10
152.935114273143
20
11.4817420751032
30
0
41
1
10
152.905262002224
20
11.4831148315586
30
0
41
1
10
152.891673892957
20
11.4837830114292
30
0
41
1
10
152.885087371335
20
11.4840918543454
30
0
41
1
10
152.882068777026
20
11.4843122267192
30
0
41
1
10
152.872754803281
20
11.485010025169
30
0
41
1
10
152.858058126229
20
11.4866331410402
30
0
41
1
10
152.831940976155
20
11.4908697891216
30
0
41
1
10
152.812737032718
20
11.4955353242764
30
0
41
1
10
152.80020708195
20
11.4992799699563
30
0
0
SPLINE
5
1C1
100
AcDbEntity
8
1
62
256
6
ByLayer
370
-1
48
1
60
0
100
AcDbSpline
70
4
71
3
72
15
73
11
40
0
40
0
40
0
40
0
40
0.0146440969701178
40
0.030284666859481
40
0.0615658066382074
40
0.12412808619566
40
0.249252645310566
40
0.499501763540377
40
0.749750881770189
40
1
40
1
40
1
40
1
41
1
10
151.577125873612
20
28.9292087983654
30
0
41
1
10
151.578253159066
20
28.9292483144114
30
0
41
1
10
151.578685943595
20
28.92926348531
30
0
41
1
10
151.580868374757
20
28.9293399886037
30
0
41
1
10
151.584418336799
20
28.9294644295452
30
0
41
1
10
151.591731021691
20
28.9297207695799
30
0
41
1
10
151.606214550936
20
28.9302284775482
30
0
41
1
10
151.626974876408
20
28.930956213343
30
0
41
1
10
151.65185984447
20
28.9318285350238
30
0
41
1
10
151.66845297519
20
28.9324101933022
30
0
41
1
10
151.67674954055
20
28.9327010224414
30
0
0
SPLINE
5
1C2
100
AcDbEntity
8
1
62
256
6
ByLayer
370
-1
48
1
60
0
100
AcDbSpline
70
4
71
3
72
8
73
4
40
0
40
0
40
0
40
0
40
1
40
1
40
1
40
1
41
1
10
152.4093060178
20
11.5767686527149
30
0
41
1
10
152.511308576805
20
11.4812981080332
30
0
41
1
10
152.637672027758
20
11.413855673468
30
0
41
1
10
152.773552499956
20
11.3823555620375
30
0
0
SPLINE
5
1C3
100
AcDbEntity
8
1
62
256
6
ByLayer
370
-1
48
1
60
0
100
AcDbSpline
70
4
71
3
72
25
73
21
40
0
40
0
40
0
40
0
40
0.125
40
0.1875
40
0.25
40
0.265625
40
0.2734375
40
0.28125
40
0.3125
40
0.375
40
0.5
40
0.625
40
0.65625
40
0.6875
40
0.75
40
0.765625
40
0.78125
40
0.8125
40
0.875
40
1
40
1
40
1
40
1
41
1
10
152.304132005024
20
11.9630388547988
30
0
41
1
10
152.299523969384
20
11.9752887721192
30
0
41
1
10
152.293535460584
20
11.9941432793639
30
0
41
1
10
152.287500712293
20
12.0199385620477
30
0
41
1
10
152.284866354782
20
12.0345083549345
30
0
41
1
10
152.283527771504
20
12.0437676243714
30
0
41
1
10
152.283099961692
20
12.0467658215804
30
0
41
1
10
152.282336985313
20
12.0533404962773
30
0
41
1
10
152.280732225093
20
12.0668982146791
30
0
41
1
10
152.277301154239
20
12.0966947870019
30
0
41
1
10
152.272580479622
20
12.1389688804841
30
0
41
1
10
152.268514481851
20
12.1772534453416
30
0
41
1
10
152.265905283645
20
12.2025593508137
30
0
41
1
10
152.264196499302
20
12.21940071132
30
0
41
1
10
152.262746496838
20
12.2341335385209
30
0
41
1
10
152.261542851204
20
12.2468123509635
30
0
41
1
10
152.260750115557
20
12.2552768314696
30
0
41
1
10
152.259386322898
20
12.2701153753187
30
0
41
1
10
152.256736581912
20
12.299864042963
30
0
41
1
10
152.254544271309
20
12.3253625128464
30
0
41
1
10
152.253129199292
20
12.3423804064224
30
0
0
SPLINE
5
1C4
100
AcDbEntity
8
1
62
256
6
ByLayer
370
-1
48
1
60
0
100
AcDbSpline
70
4
71
3
72
97
73
93
40
0
40
0
40
0
40
0
40
0.03125
40
0.0625
40
0.125
40
0.140625
40
0.15625
40
0.1875
40
0.25
40
0.28125
40
0.2890625
40
0.29296875
40
0.29345703125
40
0.2939453125
40
0.294189453125
40
0.29443359375
40
0.294921875
40
0.296875
40
0.3046875
40
0.3125
40
0.3203125
40
0.328125
40
0.34375
40
0.359375
40
0.3671875
40
0.37109375
40
0.375
40
0.37548828125
40
0.3759765625
40
0.376953125
40
0.37744140625
40
0.3779296875
40
0.37890625
40
0.380859375
40
0.3828125
40
0.38671875
40
0.390625
40
0.3984375
40
0.400390625
40
0.4013671875
40
0.40234375
40
0.40625
40
0.4375
40
0.453125
40
0.46875
40
0.484375
40
0.4921875
40
0.49609375
40
0.498046875
40
0.4990234375
40
0.49951171875
40
0.5
40
0.50048828125
40
0.5009765625
40
0.501953125
40
0.50390625
40
0.5078125
40
0.515625
40
0.53125
40
0.546875
40
0.5625
40
0.59375
40
0.595703125
40
0.59765625
40
0.5986328125
40
0.599609375
40
0.6015625
40
0.609375
40
0.6171875
40
0.62109375
40
0.623046875
40
0.6240234375
40
0.625
40
0.62548828125
40
0.6328125
40
0.640625
40
0.65625
40
0.6640625
40
0.671875
40
0.6875
40
0.703125
40
0.705078125
40
0.70556640625
40
0.705810546875
40
0.7060546875
40
0.70654296875
40
0.70703125
40
0.7109375
40
0.71875
40
0.75
40
0.875
40
1
40
1
40
1
40
1
41
1
10
168.054962605038
20
28.6071295551294
30
0
41
1
10
168.057406145209
20
28.6072152113804
30
0
41
1
10
168.06229741233
20
28.6072657298648
30
0
41
1
10
168.072073155219
20
28.6068850914036
30
0
41
1
10
168.080587122364
20
28.605921803338
30
0
41
1
10
168.087812239669
20
28.6046487776875
30
0
41
1
10
168.092606780879
20
28.6036815606079
30
0
41
1
10
168.100931456959
20
28.6016797759433
30
0
41
1
10
168.110260814987
20
28.5986945033341
30
0
41
1
10
168.117635351926
20
28.5957170566559
30
0
41
1
10
168.1207145578
20
28.5943623172509
30
0
41
1
10
168.121585758724
20
28.5939693949804
30
0
41
1
10
168.121933695798
20
28.5938110216866
30
0
41
1
10
168.122020649833
20
28.5937713614777
30
0
41
1
10
168.12209019489
20
28.5937395931942
30
0
41
1
10
168.122159727823
20
28.5937077981715
30
0
41
1
10
168.122350893339
20
28.5936202515802
30
0
41
1
10
168.123080159942
20
28.5932845797503
30
0
41
1
10
168.124325926688
20
28.5926995359027
30
0
41
1
10
168.125977304256
20
28.5918991060165
30
0
41
1
10
168.127618788724
20
28.5910784269919
30
0
41
1
10
168.129793912768
20
28.5899573524865
30
0
41
1
10
168.132486843391
20
28.5885059979287
30
0
41
1
10
168.135143485859
20
28.5869887766966
30
0
41
1
10
168.136983215126
20
28.5858925698242
30
0
41
1
10
168.138028673263
20
28.5852564693221
30
0
41
1
10
168.138581991173
20
28.5849151175539
30
0
41
1
10
168.138906776215
20
28.5847131932438
30
0
41
1
10
168.139036628286
20
28.5846323232055
30
0
41
1
10
168.139166387332
20
28.5845513027782
30
0
41
1
10
168.139296053137
20
28.5844701321264
30
0
41
1
10
168.139425656711
20
28.5843888613798
30
0
41
1
10
168.139652299419
20
28.5842463749685
30
0
41
1
10
168.139975606368
20
28.5840420734757
30
0
41
1
10
168.140491893764
20
28.5837135957149
30
0
41
1
10
168.141135362443
20
28.5833000137741
30
0
41
1
10
168.142160842485
20
28.5826319433125
30
0
41
1
10
168.143052747763
20
28.5820390981197
30
0
41
1
10
168.1437499385
20
28.581567915714
30
0
41
1
10
168.144003068835
20
28.5813959915593
30
0
41
1
10
168.144382369909
20
28.5811375208874
30
0
41
1
10
168.146715299187
20
28.579534618447
30
0
41
1
10
168.149931809974
20
28.577191231583
30
0
41
1
10
168.153781485182
20
28.574163682216
30
0
41
1
10
168.15661242932
20
28.5718226779823
30
0
41
1
10
168.15892315703
20
28.5698143461567
30
0
41
1
10
168.16051449102
20
28.5683789188824
30
0
41
1
10
168.161303517989
20
28.5676538802287
30
0
41
1
10
168.161696359445
20
28.5672895388642
30
0
41
1
10
168.161892360663
20
28.5671069138247
30
0
41
1
10
168.162004241284
20
28.5670024270074
30
0
41
1
10
168.16208809166
20
28.5669239971097
30
0
41
1
10
168.16217188189
20
28.5668455024684
30
0
41
1
10
168.162283521945
20
28.5667407566897
30
0
41
1
10
168.162478681222
20
28.5665572253304
30
0
41
1
10
168.162868155253
20
28.5661892590502
30
0
41
1
10
168.163643715217
20
28.5654497236385
30
0
41
1
10
168.165181202782
20
28.5639563325735
30
0
41
1
10
168.167338206936
20
28.5617825227232
30
0
41
1
10
168.169862098753
20
28.5591109874194
30
0
41
1
10
168.173139320253
20
28.5554672116842
30
0
41
1
10
168.175594277338
20
28.5525273407785
30
0
41
1
10
168.177305775713
20
28.5503657732175
30
0
41
1
10
168.177542565252
20
28.550064825199
30
0
41
1
10
168.177731444314
20
28.5498236302311
30
0
41
1
10
168.17791995452
20
28.5495821447705
30
0
41
1
10
168.178436834092
20
28.5489168637097
30
0
41
1
10
168.17927430564
20
28.5478217225149
30
0
41
1
10
168.180189865875
20
28.5465935180163
30
0
41
1
10
168.180822822113
20
28.5457278910323
30
0
41
1
10
168.181137306253
20
28.545293617977
30
0
41
1
10
168.181316440338
20
28.5450450465552
30
0
41
1
10
168.181428160871
20
28.5448895166765
30
0
41
1
10
168.181829710652
20
28.5443291436307
30
0
41
1
10
168.182537466678
20
28.5433285164214
30
0
41
1
10
168.18390738858
20
28.541342001996
30
0
41
1
10
168.185261855738
20
28.5392984354041
30
0
41
1
10
168.186578567979
20
28.5372303092139
30
0
41
1
10
168.187869925149
20
28.5351461301558
30
0
41
1
10
168.189436233742
20
28.5325114075767
30
0
41
1
10
168.190712536336
20
28.5302398223008
30
0
41
1
10
168.191389902376
20
28.5289944132985
30
0
41
1
10
168.191490238411
20
28.5288090919522
30
0
41
1
10
168.19152668566
20
28.5287416813486
30
0
41
1
10
168.191563107182
20
28.5286742567393
30
0
41
1
10
168.191608585836
20
28.5285899497353
30
0
41
1
10
168.191790243014
20
28.5282525819558
30
0
41
1
10
168.192241488504
20
28.5274075923653
30
0
41
1
10
168.193802579742
20
28.5244186557098
30
0
41
1
10
168.199413316091
20
28.5128250763915
30
0
41
1
10
168.206566489343
20
28.491822606626
30
0
41
1
10
168.209174464342
20
28.472267351974
30
0
41
1
10
168.209515785555
20
28.4624558555819
30
0
0
SPLINE
5
1C5
100
AcDbEntity
8
1
62
256
6
ByLayer
370
-1
48
1
60
0
100
AcDbSpline
70
4
71
3
72
8
73
4
40
0
40
0
40
0
40
0
40
1
40
1
40
1
40
1
41
1
10
151.57719075623
20
28.9292110727711
30
0
41
1
10
151.576136149507
20
28.95952792101
30
0
41
1
10
151.575214991152
20
28.9898498262295
30
0
41
1
10
151.574437800061
20
29.0201750969371
30
0
0
SPLINE
5
1C6
100
AcDbEntity
8
1
62
256
6
ByLayer
370
-1
48
1
60
0
100
AcDbSpline
70
4
71
1
72
4
73
2
40
0
40
0
40
1
40
1
41
1
10
154.135271108373
20
13.2814412616063
30
0
41
1
10
154.173484718625
20
12.8827689999944
30
0
0
SPLINE
5
1C7
100
AcDbEntity
8
1
62
256
6
ByLayer
370
-1
48
1
60
0
100
AcDbSpline
70
4
71
3
72
15
73
11
40
0
40
0
40
0
40
0
40
0.250244249035888
40
0.500488498071776
40
0.750732747107664
40
0.875854871625608
40
0.93841593388458
40
0.969696465014066
40
0.985336730578809
40
1
40
1
40
1
40
1
41
1
10
152.16249860392
20
29.8120188957035
30
0
41
1
10
152.15965966569
20
29.8215819432631
30
0
41
1
10
152.15398178923
20
29.8407080383824
30
0
41
1
10
152.145466622293
20
29.8693916305583
30
0
41
1
10
152.138362685708
20
29.8933214514694
30
0
41
1
10
152.133406901949
20
29.9100151559262
30
0
41
1
10
152.130904293783
20
29.9184452656996
30
0
41
1
10
152.12969006413
20
29.9225354342689
30
0
41
1
10
152.128942144412
20
29.9250548240037
30
0
41
1
10
152.128763991215
20
29.9256549383281
30
0
41
1
10
152.128427842191
20
29.9267872662762
30
0
0
SPLINE
5
1C8
100
AcDbEntity
8
1
62
256
6
ByLayer
370
-1
48
1
60
0
100
AcDbSpline
70
4
71
1
72
4
73
2
40
0
40
0
40
1
40
1
41
1
10
152.699165572568
20
27.9174398158729
30
0
41
1
10
152.47972016932
20
27.9096879704865
30
0
0
SPLINE
5
1C9
100
AcDbEntity
8
1
62
256
6
ByLayer
370
-1
48
1
60
0
100
AcDbSpline
70
4
71
3
72
15
73
11
40
0
40
0
40
0
40
0
40
0.250193815306119
40
0.500387630612238
40
0.750581445918356
40
0.875678353571416
40
0.938226807397945
40
0.96950103431121
40
0.985138147767843
40
1
40
1
40
1
40
1
41
1
10
169.744280259478
20
30.2380739972483
30
0
41
1
10
169.752269533758
20
30.2466064571005
30
0
41
1
10
169.768248082316
20
30.2636713768049
30
0
41
1
10
169.792211207968
20
30.2892637398169
30
0
41
1
10
169.812203182409
20
30.3106149556261
30
0
41
1
10
169.826149183503
20
30.3255091362826
30
0
41
1
10
169.83319264184
20
30.3330314747806
30
0
41
1
10
169.836608684323
20
30.336679771775
30
0
41
1
10
169.838722155592
20
30.3389369365837
30
0
41
1
10
169.839284589513
20
30.3395376100218
30
0
41
1
10
169.840155844879
20
30.3404681014751
30
0
0
SPLINE
5
1CA
100
AcDbEntity
8
1
62
256
6
ByLayer
370
-1
48
1
60
0
100
AcDbSpline
70
4
71
3
72
15
73
11
40
0
40
0
40
0
40
0
40
0.0146440969701627
40
0.0302846668595252
40
0.0615658066382502
40
0.1241280861957
40
0.2492526453106
40
0.4995017635404
40
0.7497508817702
40
1
40
1
40
1
40
1
41
1
10
170.672331695017
20
12.9880233698245
30
0
41
1
10
170.671204409563
20
12.9879838537785
30
0
41
1
10
170.670771625034
20
12.9879686828799
30
0
41
1
10
170.668589193872
20
12.9878921795862
30
0
41
1
10
170.66503923183
20
12.9877677386447
30
0
41
1
10
170.657726546938
20
12.98751139861
30
0
41
1
10
170.643243017693
20
12.9870036906417
30
0
41
1
10
170.622482692221
20
12.9862759548469
30
0
41
1
10
170.597597724159
20
12.985403633166
30
0
41
1
10
170.581004593439
20
12.9848219748877
30
0
41
1
10
170.572708028079
20
12.9845311457485
30
0
0
SPLINE
5
1CB
100
AcDbEntity
8
1
62
256
6
ByLayer
370
-1
48
1
60
0
100
AcDbSpline
70
4
71
3
72
8
73
4
40
0
40
0
40
0
40
0
40
1
40
1
40
1
40
1
41
1
10
152.4472146643
20
29.9596876008726
30
0
41
1
10
152.430959388285
20
29.9589689006952
30
0
41
1
10
152.414707423093
20
29.9581702423407
30
0
41
1
10
152.39845980244
20
29.957291950057
30
0
0
SPLINE
5
1CC
100
AcDbEntity
8
1
62
256
6
ByLayer
370
-1
48
1
60
0
100
AcDbSpline
70
4
71
1
72
4
73
2
40
0
40
0
40
1
40
1
41
1
10
168.054753634123
20
28.6357909065835
30
0
41
1
10
168.065229314459
20
29.0344631681955
30
0
0
SPLINE
5
1CD
100
AcDbEntity
8
1
62
256
6
ByLayer
370
-1
48
1
60
0
100
AcDbSpline
70
4
71
3
72
8
73
4
40
0
40
0
40
0
40
0
40
1
40
1
40
1
40
1
41
1
10
154.173484718625
20
12.8827689999944
30
0
41
1
10
154.184441154037
20
12.7684634722988
30
0
41
1
10
154.193461444328
20
12.6328797834399
30
0
41
1
10
154.199357937182
20
12.4938694965868
30
0
0
SPLINE
5
1CE
100
AcDbEntity
8
1
62
256
6
ByLayer
370
-1
48
1
60
0
100
AcDbSpline
70
4
71
3
72
15
73
11
40
0
40
0
40
0
40
0
40
0.250193815306115
40
0.500387630612229
40
0.750581445918344
40
0.875678353571401
40
0.93822680739793
40
0.969501034311194
40
0.985138147767826
40
1
40
1
40
1
40
1
41
1
10
170.368120708269
20
12.3053815889
30
0
41
1
10
170.376683603727
20
12.2974249413659
30
0
41
1
10
170.393809394642
20
12.2815116462978
30
0
41
1
10
170.419493046576
20
12.2576463816992
30
0
41
1
10
170.440920422976
20
12.2377360508497
30
0
41
1
10
170.455867731735
20
12.2238470026919
30
0
41
1
10
170.463416902698
20
12.2168323085595
30
0
41
1
10
170.467078213305
20
12.2134302165735
30
0
41
1
10
170.469343429505
20
12.2113253763375
30
0
41
1
10
170.469946245568
20
12.2107652392946
30
0
41
1
10
170.47088005612
20
12.2098975419769
30
0
0
SPLINE
5
1CF
100
AcDbEntity
8
1
62
256
6
ByLayer
370
-1
48
1
60
0
100
AcDbSpline
70
4
71
1
72
4
73
2
40
0
40
0
40
1
40
1
41
1
10
168.064044550287
20
29.4233626716031
30
0
41
1
10
168.058015892253
20
29.6453464795002
30
0
0
SPLINE
5
1D0
100
AcDbEntity
8
1
62
256
6
ByLayer
370
-1
48
1
60
0
100
AcDbSpline
70
4
71
3
72
8
73
4
40
0
40
0
40
0
40
0
40
1
40
1
40
1
40
1
41
1
10
153.951168573687
20
13.4537754361605
30
0
41
1
10
153.958962677957
20
13.454066493024
30
0
41
1
10
153.968796596401
20
13.4544209977852
30
0
41
1
10
153.978932763151
20
13.454776312608
30
0
0
SPLINE
5
1D1
100
AcDbEntity
8
1
62
256
6
ByLayer
370
-1
48
1
60
0
100
AcDbSpline
70
4
71
3
72
9
73
5
40
0
40
0
40
0
40
0
40
0.5
40
1
40
1
40
1
40
1
41
1
10
169.448776839164
20
30.4179521982336
30
0
41
1
10
169.504887306757
20
30.4014890647704
30
0
41
1
10
169.613930622859
20
30.3534547333742
30
0
41
1
10
169.705134174624
20
30.279335448657
30
0
41
1
10
169.744280259478
20
30.2380739972483
30
0
0
SPLINE
5
1D2
100
AcDbEntity
8
1
62
256
6
ByLayer
370
-1
48
1
60
0
100
AcDbSpline
70
4
71
3
72
8
73
4
40
0
40
0
40
0
40
0
40
1
40
1
40
1
40
1
41
1
10
153.093846037078
20
11.3718449416171
30
0
41
1
10
153.077580758052
20
11.3714244529752
30
0
41
1
10
153.061313438983
20
11.3710844410606
30
0
41
1
10
153.045044361613
20
11.3708228876699
30
0
0
SPLINE
5
1D3
100
AcDbEntity
8
1
62
256
6
ByLayer
370
-1
48
1
60
0
100
AcDbSpline
70
4
71
3
72
8
73
4
40
0
40
0
40
0
40
0
40
1
40
1
40
1
40
1
41
1
10
168.058015892253
20
29.6453464795002
30
0
41
1
10
168.054806925496
20
29.7635052233252
30
0
41
1
10
168.05000481431
20
29.8831935272843
30
0
41
1
10
168.043818179585
20
29.999211703249
30
0
0
SPLINE
5
1D4
100
AcDbEntity
8
1
62
256
6
ByLayer
370
-1
48
1
60
0
100
AcDbSpline
70
4
71
3
72
15
73
11
40
0
40
0
40
0
40
0
40
0.25023945844031
40
0.50047891688062
40
0.75071837532093
40
0.875838104541085
40
0.938397969151163
40
0.969677901456202
40
0.985317867608721
40
1
40
1
40
1
40
1
41
1
10
169.448776839164
20
30.4179521982336
30
0
41
1
10
169.451037524954
20
30.4276958988814
30
0
41
1
10
169.455558896533
20
30.4471833001771
30
0
41
1
10
169.462339641774
20
30.4764087467646
30
0
41
1
10
169.467996604761
20
30.5007906198087
30
0
41
1
10
169.471942963933
20
30.5177996807715
30
0
41
1
10
169.47393582544
20
30.5263890415948
30
0
41
1
10
169.474902733311
20
30.5305564764935
30
0
41
1
10
169.475498497272
20
30.5331242573494
30
0
41
1
10
169.475640357172
20
30.5337356826065
30
0
41
1
10
169.475908907555
20
30.5348931519712
30
0
0
SPLINE
5
1D5
100
AcDbEntity
8
1
62
256
6
ByLayer
370
-1
48
1
60
0
100
AcDbSpline
70
4
71
1
72
4
73
2
40
0
40
0
40
1
40
1
41
1
10
170.535432956253
20
14.0341079578695
30
0
41
1
10
170.635754254518
20
14.0375979075398
30
0
0
SPLINE
5
1D6
100
AcDbEntity
8
1
62
256
6
ByLayer
370
-1
48
1
60
0
100
AcDbSpline
70
4
71
3
72
8
73
4
40
0
40
0
40
0
40
0
40
1
40
1
40
1
40
1
41
1
10
153.628020823916
20
28.9173199694168
30
0
41
1
10
153.631796078925
20
28.7783096825638
30
0
41
1
10
153.6322091283
20
28.6427259937048
30
0
41
1
10
153.629205588089
20
28.5284204660092
30
0
0
SPLINE
5
1D7
100
AcDbEntity
8
1
62
256
6
ByLayer
370
-1
48
1
60
0
100
AcDbSpline
70
4
71
3
72
9
73
5
40
0
40
0
40
0
40
0
40
0.5
40
1
40
1
40
1
40
1
41
1
10
152.503667608563
20
11.6791581709416
30
0
41
1
10
152.45986202644
20
11.7155438911414
30
0
41
1
10
152.379720999716
20
11.8018602756628
30
0
41
1
10
152.324372615579
20
11.9079057033491
30
0
41
1
10
152.304132005024
20
11.9630388547988
30
0
0
SPLINE
5
1D8
100
AcDbEntity
8
1
62
256
6
ByLayer
370
-1
48
1
60
0
100
AcDbSpline
70
4
71
3
72
15
73
11
40
0
40
0
40
0
40
0
40
0.424997863749043
40
0.849995727498087
40
0.956245193435348
40
0.982807559919663
40
0.99608874316182
40
0.99774889106709
40
0.99940903897236
40
1
40
1
40
1
40
1
41
1
10
170.031315899327
20
28.5252749496464
30
0
41
1
10
170.026143309212
20
28.6739643584228
30
0
41
1
10
170.015800965422
20
28.9713401620036
30
0
41
1
10
170.004152708525
20
29.3059019263323
30
0
41
1
10
169.997375208371
20
29.5010444929405
30
0
41
1
10
169.995589373682
20
29.5521647455653
30
0
41
1
10
169.995091302294
20
29.5666776625464
30
0
41
1
10
169.994883638044
20
29.5724918250777
30
0
41
1
10
169.99484372277
20
29.5738591207494
30
0
41
1
10
169.994805361766
20
29.574644841347
30
0
41
1
10
169.994793253343
20
29.5748511697479
30
0
0
SPLINE
5
1D9
100
AcDbEntity
8
1
62
256
6
ByLayer
370
-1
48
1
60
0
100
AcDbSpline
70
4
71
1
72
4
73
2
40
0
40
0
40
1
40
1
41
1
10
151.712499584485
20
27.8831242103204
30
0
41
1
10
151.613703314111
20
27.8796342606501
30
0
0
SPLINE
5
1DA
100
AcDbEntity
8
1
62
256
6
ByLayer
370
-1
48
1
60
0
100
AcDbSpline
70
4
71
1
72
4
73
2
40
0
40
0
40
1
40
1
41
1
10
170.137700866558
20
14.0199014436131
30
0
41
1
10
170.535432956253
20
14.0341079578695
30
0
0
SPLINE
5
1DB
100
AcDbEntity
8
1
62
256
6
ByLayer
370
-1
48
1
60
0
100
AcDbSpline
70
4
71
3
72
15
73
11
40
0
40
0
40
0
40
0
40
0.250193815306115
40
0.50038763061223
40
0.750581445918345
40
0.875678353571402
40
0.938226807397931
40
0.969501034311195
40
0.985138147767827
40
1
40
1
40
1
40
1
41
1
10
152.503667608563
20
11.6791581709416
30
0
41
1
10
152.495804142666
20
11.6706257110894
30
0
41
1
10
152.480077210872
20
11.653560791385
30
0
41
1
10
152.4564914364
20
11.6279684283729
30
0
41
1
10
152.436814278783
20
11.6066172125638
30
0
41
1
10
152.423087887604
20
11.5917230319072
30
0
41
1
10
152.416155343734
20
11.5842006934093
30
0
41
1
10
152.412793094219
20
11.5805523964148
30
0
41
1
10
152.410712904121
20
11.5782952316062
30
0
41
1
10
152.410159326938
20
11.577694558168
30
0
41
1
10
152.409301791369
20
11.5767640667148
30
0
0
SPLINE
5
1DC
100
AcDbEntity
8
1
62
256
6
ByLayer
370
-1
48
1
60
0
100
AcDbSpline
70
4
71
3
72
25
73
21
40
0
40
0
40
0
40
0
40
0.125
40
0.1875
40
0.21875
40
0.234375
40
0.25
40
0.3125
40
0.34375
40
0.375
40
0.5
40
0.625
40
0.6875
40
0.71875
40
0.7265625
40
0.734375
40
0.75
40
0.8125
40
0.875
40
1
40
1
40
1
40
1
41
1
10
170.572708028079
20
12.9845311457485
30
0
41
1
10
170.572468808454
20
12.9674550860162
30
0
41
1
10
170.572038293889
20
12.9418645020705
30
0
41
1
10
170.571444263756
20
12.9120020034539
30
0
41
1
10
170.571105710011
20
12.8971036355977
30
0
41
1
10
170.570897745172
20
12.888603950084
30
0
41
1
10
170.570569933224
20
12.8758712159973
30
0
41
1
10
170.570137365179
20
12.8610719562276
30
0
41
1
10
170.569591726578
20
12.8441517925187
30
0
41
1
10
170.568730729042
20
12.8187247630988
30
0
41
1
10
170.567312641255
20
12.7802473008246
30
0
41
1
10
170.565514453558
20
12.7377446481576
30
0
41
1
10
170.564145094279
20
12.7077801799677
30
0
41
1
10
170.563476533859
20
12.6941431006719
30
0
41
1
10
170.563169921051
20
12.6875303607111
30
0
41
1
10
170.562940610979
20
12.6845100494871
30
0
41
1
10
170.562226273871
20
12.6751797651857
30
0
41
1
10
170.560573686174
20
12.6604627336577
30
0
41
1
10
170.556290500601
20
12.6343087188775
30
0
41
1
10
170.551594863456
20
12.6150794580574
30
0
41
1
10
170.54783244493
20
12.6025337895874
30
0
0
SPLINE
5
1DD
100
AcDbEntity
8
1
62
256
6
ByLayer
370
-1
48
1
60
0
100
AcDbSpline
70
4
71
3
72
8
73
4
40
0
40
0
40
0
40
0
40
1
40
1
40
1
40
1
41
1
10
152.160295630716
20
12.1990141383017
30
0
41
1
10
152.163153466808
20
12.1457386900116
30
0
41
1
10
152.166435800381
20
12.0924844699106
30
0
41
1
10
152.170144794215
20
12.0392618649149
30
0
0
SPLINE
5
1DE
100
AcDbEntity
8
1
62
256
6
ByLayer
370
-1
48
1
60
0
100
AcDbSpline
70
4
71
3
72
12
73
8
40
0
40
0
40
0
40
0
40
0.34248248378641
40
0.34248248378641
40
0.671240032903812
40
0.671240032903812
40
1
40
1
40
1
40
1
41
1
10
168.019410397195
20
30.5059721264657
30
0
41
1
10
168.138775194808
20
30.5101563593178
30
0
41
1
10
168.258171586266
20
30.5142748432647
30
0
41
1
10
168.492173978037
20
30.5223569605744
30
0
41
1
10
168.606769169554
20
30.5263455740873
30
0
41
1
10
168.835885821332
20
30.534474262041
30
0
41
1
10
168.950410849782
20
30.538607705932
30
0
41
1
10
169.06499325267
20
30.5426241563897
30
0
0
SPLINE
5
1DF
100
AcDbEntity
8
1
62
256
6
ByLayer
370
-1
48
1
60
0
100
AcDbSpline
70
4
71
3
72
12
73
8
40
0
40
0
40
0
40
0
40
0.342482483786397
40
0.342482483786397
40
0.671240032903805
40
0.671240032903805
40
1
40
1
40
1
40
1
41
1
10
170.635754254518
20
14.0375979075398
30
0
41
1
10
170.639922565101
20
13.9177771557917
30
0
41
1
10
170.644054872303
20
13.7979542975119
30
0
41
1
10
170.652159458098
20
13.5631114813064
30
0
41
1
10
170.656145434024
20
13.448091142968
30
0
41
1
10
170.664200309519
20
13.2180562586595
30
0
41
1
10
170.668265584182
20
13.103041122666
30
0
41
1
10
170.672266812403
20
12.9880210954189
30
0
0
SPLINE
5
1E0
100
AcDbEntity
8
1
62
256
6
ByLayer
370
-1
48
1
60
0
100
AcDbSpline
70
4
71
3
72
25
73
21
40
0
40
0
40
0
40
0
40
0.125
40
0.1875
40
0.25
40
0.265625
40
0.2734375
40
0.28125
40
0.3125
40
0.375
40
0.5
40
0.625
40
0.65625
40
0.6875
40
0.75
40
0.765625
40
0.78125
40
0.8125
40
0.875
40
1
40
1
40
1
40
1
41
1
10
170.085191288119
20
12.1052132724864
30
0
41
1
10
170.07298602983
20
12.1005895979711
30
0
41
1
10
170.054202917664
20
12.0945785673989
30
0
41
1
10
170.028510307477
20
12.088516236449
30
0
41
1
10
170.014000298672
20
12.0858674579156
30
0
41
1
10
170.004779680719
20
12.0845203312463
30
0
41
1
10
170.001794113955
20
12.0840896612053
30
0
41
1
10
169.99524688313
20
12.0833213358656
30
0
41
1
10
169.981745806701
20
12.0817053756684
30
0
41
1
10
169.952073678671
20
12.0782500970972
30
0
41
1
10
169.909976176814
20
12.0734956042621
30
0
41
1
10
169.871851512503
20
12.0693998045191
30
0
41
1
10
169.846651359777
20
12.0667711473429
30
0
41
1
10
169.82988038827
20
12.0650495091081
30
0
41
1
10
169.815209141652
20
12.0635884290654
30
0
41
1
10
169.802583315154
20
12.062375428362
30
0
41
1
10
169.794154206342
20
12.0615764907266
30
0
41
1
10
169.779377665925
20
12.0602019291525
30
0
41
1
10
169.749753292019
20
12.0575309331444
30
0
41
1
10
169.724361360747
20
12.0553207027112
30
0
41
1
10
169.707414569976
20
12.0538938565323
30
0
0
SPLINE
5
1E1
100
AcDbEntity
8
1
62
256
6
ByLayer
370
-1
48
1
60
0
100
AcDbSpline
70
4
71
1
72
4
73
2
40
0
40
0
40
1
40
1
41
1
10
168.043818179585
20
29.999211703249
30
0
41
1
10
168.022124552608
20
30.4060330437638
30
0
0
SPLINE
5
1E2
100
AcDbEntity
8
1
62
256
6
ByLayer
370
-1
48
1
60
0
100
AcDbSpline
70
4
71
3
72
8
73
4
40
0
40
0
40
0
40
0
40
1
40
1
40
1
40
1
41
1
10
170.121026223468
20
11.9904567017707
30
0
41
1
10
170.254393989023
20
12.0313849860117
30
0
41
1
10
170.375764442444
20
12.1075116956867
30
0
41
1
10
170.470875454273
20
12.2099018180194
30
0
0
SPLINE
5
1E3
100
AcDbEntity
8
1
62
256
6
ByLayer
370
-1
48
1
60
0
100
AcDbSpline
70
4
71
3
72
8
73
4
40
0
40
0
40
0
40
0
40
1
40
1
40
1
40
1
41
1
10
170.676038145622
20
12.848067964503
30
0
41
1
10
170.67688906168
20
12.7947221707641
30
0
41
1
10
170.677309018829
20
12.7413677991104
30
0
41
1
10
170.67731453102
20
12.6880151902379
30
0
0
SPLINE
5
1E4
100
AcDbEntity
8
1
62
256
6
ByLayer
370
-1
48
1
60
0
100
AcDbSpline
70
4
71
3
72
8
73
4
40
0
40
0
40
0
40
0
40
1
40
1
40
1
40
1
41
1
10
153.618729907752
20
28.1297482043973
30
0
41
1
10
153.618510899612
20
28.1214134263362
30
0
41
1
10
153.618584915925
20
28.1112617382031
30
0
41
1
10
153.618938878668
20
28.1010868529431
30
0
0
SPLINE
5
1E5
100
AcDbEntity
8
1
62
256
6
ByLayer
370
-1
48
1
60
0
100
AcDbSpline
70
4
71
3
72
8
73
4
40
0
40
0
40
0
40
0
40
1
40
1
40
1
40
1
41
1
10
151.57443780007
20
29.0201750969374
30
0
41
1
10
151.574019342033
20
29.0365029388494
30
0
41
1
10
151.573681266956
20
29.0528330418802
30
0
41
1
10
151.573420648289
20
29.0691642036865
30
0
0
SPLINE
5
1E6
100
AcDbEntity
8
1
62
256
6
ByLayer
370
-1
48
1
60
0
100
AcDbSpline
70
4
71
3
72
8
73
4
40
0
40
0
40
0
40
0
40
1
40
1
40
1
40
1
41
1
10
169.711653753279
20
11.9539547738304
30
0
41
1
10
169.741855234245
20
11.9550134614115
30
0
41
1
10
169.772052078963
20
11.9562097444899
30
0
41
1
10
169.802242824911
20
11.9575445673173
30
0
0
SPLINE
5
1E7
100
AcDbEntity
8
1
62
256
6
ByLayer
370
-1
48
1
60
0
100
AcDbSpline
70
4
71
3
72
8
73
4
40
0
40
0
40
0
40
0
40
1
40
1
40
1
40
1
41
1
10
152.53780381535
20
29.9632773943594
30
0
41
1
10
152.507602334384
20
29.9622187067784
30
0
41
1
10
152.477405158434
20
29.9610224236999
30
0
41
1
10
152.4472146643
20
29.9596876008726
30
0
0
SPLINE
5
1E8
100
AcDbEntity
8
1
62
256
6
ByLayer
370
-1
48
1
60
0
100
AcDbSpline
70
4
71
3
72
15
73
11
40
0
40
0
40
0
40
0
40
0.250239458440324
40
0.500478916880648
40
0.750718375320972
40
0.875838104541134
40
0.938397969151215
40
0.969677901456255
40
0.985317867608775
40
1
40
1
40
1
40
1
41
1
10
151.701151476184
20
29.3146983786025
30
0
41
1
10
151.691464588572
20
29.3169478891459
30
0
41
1
10
151.672090813348
20
29.3214469102328
30
0
41
1
10
151.643035772893
20
29.3281941362212
30
0
41
1
10
151.618796064338
20
29.3338231351472
30
0
41
1
10
151.601886178876
20
29.3377499862844
30
0
41
1
10
151.593346900427
20
29.3397329964806
30
0
41
1
10
151.589203764779
20
29.3406951246373
30
0
41
1
10
151.586650955999
20
29.3412879435587
30
0
41
1
10
151.586043095807
20
29.3414291022019
30
0
41
1
10
151.584892375352
20
29.3416963250604
30
0
0
SPLINE
5
1E9
100
AcDbEntity
8
1
62
256
6
ByLayer
370
-1
48
1
60
0
100
AcDbSpline
70
4
71
1
72
4
73
2
40
0
40
0
40
1
40
1
41
1
10
153.629205588089
20
28.5284204660092
30
0
41
1
10
153.618729907752
20
28.1297482043973
30
0
0
SPLINE
5
1EA
100
AcDbEntity
8
1
62
256
6
ByLayer
370
-1
48
1
60
0
100
AcDbSpline
70
4
71
1
72
4
73
2
40
0
40
0
40
1
40
1
41
1
10
168.022124552608
20
30.4060330437638
30
0
41
1
10
168.019410397195
20
30.5059721264657
30
0
0
SPLINE
5
1EB
100
AcDbEntity
8
1
62
256
6
ByLayer
370
-1
48
1
60
0
100
AcDbSpline
70
4
71
3
72
8
73
4
40
0
40
0
40
0
40
0
40
1
40
1
40
1
40
1
41
1
10
152.47972016932
20
27.9096879704865
30
0
41
1
10
152.362912581273
20
27.9055617762299
30
0
41
1
10
152.243041319264
20
27.9013821685565
30
0
41
1
10
152.125314019773
20
27.8973307245768
30
0
0
SPLINE
5
1EC
100
AcDbEntity
8
1
62
256
6
ByLayer
370
-1
48
1
60
0
100
AcDbSpline
70
4
71
3
72
15
73
11
40
0
40
0
40
0
40
0
40
0.250239458440331
40
0.500478916880662
40
0.750718375320993
40
0.875838104541159
40
0.938397969151241
40
0.969677901456283
40
0.985317867608803
40
1
40
1
40
1
40
1
41
1
10
152.80020708195
20
11.4992799699563
30
0
41
1
10
152.797985866787
20
11.4895362693085
30
0
41
1
10
152.79354343646
20
11.4700488680127
30
0
41
1
10
152.786881080188
20
11.4408234214253
30
0
41
1
10
152.781322885404
20
11.4164415483812
30
0
41
1
10
152.777445428009
20
11.3994324874184
30
0
41
1
10
152.775487361028
20
11.3908431265951
30
0
41
1
10
152.774537334963
20
11.3866756916963
30
0
41
1
10
152.773951972791
20
11.3841079108405
30
0
41
1
10
152.773812589706
20
11.3834964855834
30
0
41
1
10
152.7735487281
20
11.3823390162187
30
0
0
SPLINE
5
1ED
100
AcDbEntity
8
1
62
256
6
ByLayer
370
-1
48
1
60
0
100
AcDbSpline
70
4
71
3
72
8
73
4
40
0
40
0
40
0
40
0
40
1
40
1
40
1
40
1
41
1
10
170.672266812399
20
12.9880210954187
30
0
41
1
10
170.673321451587
20
12.9577042471799
30
0
41
1
10
170.67424017772
20
12.9273823419604
30
0
41
1
10
170.675018967991
20
12.8970570712528
30
0
0
SPLINE
5
1EE
100
AcDbEntity
8
1
62
256
6
ByLayer
370
-1
48
1
60
0
100
AcDbSpline
70
4
71
3
72
8
73
4
40
0
40
0
40
0
40
0
40
1
40
1
40
1
40
1
41
1
10
154.208773973697
20
12.2718856886897
30
0
41
1
10
154.213785992624
20
12.1537269448646
30
0
41
1
10
154.217311287446
20
12.0340386409055
30
0
41
1
10
154.219196706746
20
11.9180204649409
30
0
0
SPLINE
5
1EF
100
AcDbEntity
8
1
62
256
6
ByLayer
370
-1
48
1
60
0
100
AcDbSpline
70
4
71
3
72
8
73
4
40
0
40
0
40
0
40
0
40
1
40
1
40
1
40
1
41
1
10
168.713632842481
20
13.971288863805
30
0
41
1
10
168.72376900923
20
13.9716441786278
30
0
41
1
10
168.734161206576
20
13.971998683389
30
0
41
1
10
168.742973225735
20
13.9722897402525
30
0
0
SPLINE
5
1F0
100
AcDbEntity
8
1
62
256
6
ByLayer
370
-1
48
1
60
0
100
AcDbSpline
70
4
71
3
72
8
73
4
40
0
40
0
40
0
40
0
40
1
40
1
40
1
40
1
41
1
10
170.01014216268
20
11.9698270430887
30
0
41
1
10
170.04788421006
20
11.9724770070054
30
0
41
1
10
170.084845983851
20
11.9793551251851
30
0
41
1
10
170.121026223468
20
11.9904567017708
30
0
0
SPLINE
5
1F1
100
AcDbEntity
8
1
62
256
6
ByLayer
370
-1
48
1
60
0
100
AcDbSpline
70
4
71
3
72
8
73
4
40
0
40
0
40
0
40
0
40
1
40
1
40
1
40
1
41
1
10
153.474815706225
20
27.9459433043849
30
0
41
1
10
153.464679539475
20
27.9455879895621
30
0
41
1
10
153.454845621031
20
27.9452334848008
30
0
41
1
10
153.447051516761
20
27.9449424279374
30
0
0
SPLINE
5
1F2
100
AcDbEntity
8
1
62
256
6
ByLayer
370
-1
48
1
60
0
100
AcDbSpline
70
4
71
3
72
8
73
4
40
0
40
0
40
0
40
0
40
1
40
1
40
1
40
1
41
1
10
170.091548466764
20
29.6692768584671
30
0
41
1
10
170.090832569249
20
29.6855942950464
30
0
41
1
10
170.090037014517
20
29.7019084048379
30
0
41
1
10
170.089162005751
20
29.7182180298881
30
0
0
SPLINE
5
1F3
100
AcDbEntity
8
1
62
256
6
ByLayer
370
-1
48
1
60
0
100
AcDbSpline
70
4
71
3
72
8
73
4
40
0
40
0
40
0
40
0
40
1
40
1
40
1
40
1
41
1
10
170.675018967981
20
12.8970570712525
30
0
41
1
10
170.675438287055
20
12.8807292293405
30
0
41
1
10
170.675777648111
20
12.8643991263097
30
0
41
1
10
170.676038145647
20
12.8480679645034
30
0
0
SPLINE
5
1F4
100
AcDbEntity
8
1
62
256
6
ByLayer
370
-1
48
1
60
0
100
AcDbSpline
70
4
71
3
72
20
73
16
40
0
40
0
40
0
40
0
40
0.0006369940731852
40
0.0022970655116018
40
0.0039571369500185
40
0.0172377084573515
40
0.0437988514720177
40
0.150043423530682
40
0.362532567648012
40
0.468777139706677
40
0.521899425736009
40
0.575021711765341
40
0.787510855882671
40
0.893755427941335
40
1
40
1
40
1
40
1
41
1
10
153.180987530769
20
11.4745578611555
30
0
41
1
10
153.181209814476
20
11.4745602731942
30
0
41
1
10
153.182012096821
20
11.4745773428161
30
0
41
1
10
153.183392586581
20
11.4746326761847
30
0
41
1
10
153.189172709753
20
11.47483140736
30
0
41
1
10
153.203646525291
20
11.475343500954
30
0
41
1
10
153.254554348103
20
11.4771215991147
30
0
41
1
10
153.374886637454
20
11.4813377523822
30
0
41
1
10
153.522894543227
20
11.4864995235322
30
0
41
1
10
153.652333720272
20
11.4910038997427
30
0
41
1
10
153.726273560843
20
11.4935719487104
30
0
41
1
10
153.837204317717
20
11.4974371911043
30
0
41
1
10
153.966681488957
20
11.501984799673
30
0
41
1
10
154.114730524389
20
11.507231954467
30
0
41
1
10
154.188777507158
20
11.5098757917715
30
0
41
1
10
154.22580798813
20
11.5111991244261
30
0
0
SPLINE
5
1F5
100
AcDbEntity
8
1
62
256
6
ByLayer
370
-1
48
1
60
0
100
AcDbSpline
70
4
71
3
72
15
73
11
40
0
40
0
40
0
40
0
40
0.424997863749036
40
0.849995727498072
40
0.956245193435331
40
0.982807559919646
40
0.996088743161803
40
0.997748891067073
40
0.999409038972342
40
1
40
1
40
1
40
1
41
1
10
153.586100826238
20
29.8999903415775
30
0
41
1
10
153.437977225553
20
29.8947979930077
30
0
41
1
10
153.141733047415
20
29.8844161223355
30
0
41
1
10
152.80844431905
20
29.872723443823
30
0
41
1
10
152.61404441304
20
29.8659199701807
30
0
41
1
10
152.563118631726
20
29.8641273707945
30
0
41
1
10
152.548660992399
20
29.8636273450342
30
0
41
1
10
152.542868913516
20
29.8634189286917
30
0
41
1
10
152.541506878885
20
29.8633788026575
30
0
41
1
10
152.540724064483
20
29.8633403791501
30
0
41
1
10
152.540518483817
20
29.8633282620246
30
0
0
SPLINE
5
1F6
100
AcDbEntity
8
1
62
256
6
ByLayer
370
-1
48
1
60
0
100
AcDbSpline
70
4
71
1
72
4
73
2
40
0
40
0
40
1
40
1
41
1
10
169.282952639704
20
28.4987111894803
30
0
41
1
10
169.060119857974
20
28.4909593440938
30
0
0
SPLINE
5
1F7
100
AcDbEntity
8
1
62
256
6
ByLayer
370
-1
48
1
60
0
100
AcDbSpline
70
4
71
3
72
9
73
5
40
0
40
0
40
0
40
0
40
0.5
40
1
40
1
40
1
40
1
41
1
10
169.744280259478
20
30.2380739972483
30
0
41
1
10
169.787991681248
20
30.2016882770485
30
0
41
1
10
169.867993122075
20
30.115371892527
30
0
41
1
10
169.923309313607
20
30.0093264648408
30
0
41
1
10
169.943557887014
20
29.954193313391
30
0
0
SPLINE
5
1F8
100
AcDbEntity
8
1
62
256
6
ByLayer
370
-1
48
1
60
0
100
AcDbSpline
70
4
71
3
72
25
73
21
40
0
40
0
40
0
40
0
40
0.125
40
0.1875
40
0.21875
40
0.234375
40
0.25
40
0.3125
40
0.34375
40
0.375
40
0.5
40
0.625
40
0.6875
40
0.71875
40
0.7265625
40
0.734375
40
0.75
40
0.8125
40
0.875
40
1
40
1
40
1
40
1
41
1
10
169.068469922028
20
30.4426850736837
30
0
41
1
10
169.085479688415
20
30.442446259079
30
0
41
1
10
169.110970722622
20
30.4420162781483
30
0
41
1
10
169.140717084305
20
30.4414224895806
30
0
41
1
10
169.155557250374
20
30.4410841573792
30
0
41
1
10
169.164023622981
20
30.4408763708882
30
0
41
1
10
169.17670632085
20
30.4405488971233
30
0
41
1
10
169.191446984296
20
30.4401169661228
30
0
41
1
10
169.208300198718
20
30.439571816017
30
0
41
1
10
169.23362697704
20
30.4387110365301
30
0
41
1
10
169.271955334597
20
30.4372902284953
30
0
41
1
10
169.314291349492
20
30.4354900930867
30
0
41
1
10
169.344139967257
20
30.4341173366312
30
0
41
1
10
169.357722230174
20
30.4334491567606
30
0
41
1
10
169.36431086153
20
30.4331403138444
30
0
41
1
10
169.367309903277
20
30.4329199414707
30
0
41
1
10
169.376585489037
20
30.4322221430209
30
0
41
1
10
169.391210869545
20
30.4305990271496
30
0
41
1
10
169.417202701186
20
30.4263623790683
30
0
41
1
10
169.436310933104
20
30.4216968439135
30
0
41
1
10
169.448776839164
20
30.4179521982336
30
0
0
SPLINE
5
1F9
100
AcDbEntity
8
1
62
256
6
ByLayer
370
-1
48
1
60
0
100
AcDbSpline
70
4
71
3
72
8
73
4
40
0
40
0
40
0
40
0
40
1
40
1
40
1
40
1
41
1
10
152.629431076699
20
13.4061637327999
30
0
41
1
10
152.74715837619
20
13.4102151767796
30
0
41
1
10
152.867029638199
20
13.414394784453
30
0
41
1
10
152.983837226246
20
13.4185209787096
30
0
0
SPLINE
5
1FA
100
AcDbEntity
8
1
62
256
6
ByLayer
370
-1
48
1
60
0
100
AcDbSpline
70
4
71
3
72
8
73
4
40
0
40
0
40
0
40
0
40
1
40
1
40
1
40
1
41
1
10
168.054962605038
20
28.6071295551294
30
0
41
1
10
168.054608642295
20
28.6173044403894
30
0
41
1
10
168.054534625982
20
28.6274561285224
30
0
41
1
10
168.054753634123
20
28.6357909065835
30
0
0
SPLINE
5
1FB
100
AcDbEntity
8
1
62
256
6
ByLayer
370
-1
48
1
60
0
100
AcDbSpline
70
4
71
3
72
8
73
4
40
0
40
0
40
0
40
0
40
1
40
1
40
1
40
1
41
1
10
152.128431345161
20
29.9267754664192
30
0
41
1
10
151.995061519611
20
29.8858471821781
30
0
41
1
10
151.873687247176
20
29.8097204725032
30
0
41
1
10
151.778582114372
20
29.7073303501705
30
0
0
SPLINE
5
1FC
100
AcDbEntity
8
1
62
256
6
ByLayer
370
-1
48
1
60
0
100
AcDbSpline
70
4
71
3
72
9
73
5
40
0
40
0
40
0
40
0
40
0.5
40
1
40
1
40
1
40
1
41
1
10
170.54783244493
20
12.6025337895874
30
0
41
1
10
170.531349091694
20
12.5461258056198
30
0
41
1
10
170.483321536143
20
12.4364892801499
30
0
41
1
10
170.409308173121
20
12.3447605483067
30
0
41
1
10
170.368120708269
20
12.3053815889
30
0
0
SPLINE
5
1FD
100
AcDbEntity
8
1
62
256
6
ByLayer
370
-1
48
1
60
0
100
AcDbSpline
70
4
71
3
72
8
73
4
40
0
40
0
40
0
40
0
40
1
40
1
40
1
40
1
41
1
10
154.133485943668
20
13.3101026130605
30
0
41
1
10
154.13383990641
20
13.2999277278005
30
0
41
1
10
154.134472201625
20
13.2897760396675
30
0
41
1
10
154.135271108373
20
13.2814412616063
30
0
0
SPLINE
5
1FE
100
AcDbEntity
8
1
62
256
6
ByLayer
370
-1
48
1
60
0
100
AcDbSpline
70
4
71
1
72
4
73
2
40
0
40
0
40
1
40
1
41
1
10
152.983837226246
20
13.4185209787096
30
0
41
1
10
153.203282629494
20
13.4262728240961
30
0
0
SPLINE
5
1FF
100
AcDbEntity
8
1
62
256
6
ByLayer
370
-1
48
1
60
0
100
AcDbSpline
70
4
71
3
72
8
73
4
40
0
40
0
40
0
40
0
40
1
40
1
40
1
40
1
41
1
10
169.060119857974
20
28.4909593440938
30
0
41
1
10
168.920577928308
20
28.4861049979096
30
0
41
1
10
168.781206555861
20
28.4813703111641
30
0
41
1
10
168.660356007397
20
28.4773786741799
30
0
0
SPLINE
5
200
100
AcDbEntity
8
1
62
256
6
ByLayer
370
-1
48
1
60
0
100
AcDbSpline
70
4
71
3
72
15
73
11
40
0
40
0
40
0
40
0
40
0.250244249035891
40
0.500488498071781
40
0.750732747107672
40
0.875854871625617
40
0.93841593388459
40
0.969696465014076
40
0.98533673057882
40
1
40
1
40
1
40
1
41
1
10
170.085191288119
20
12.1052132724864
30
0
41
1
10
170.088177532731
20
12.0956502249267
30
0
41
1
10
170.094150021956
20
12.0765241298075
30
0
41
1
10
170.103107022543
20
12.0478405376316
30
0
41
1
10
170.110579567077
20
12.0239107167205
30
0
41
1
10
170.115792495768
20
12.0072170122636
30
0
41
1
10
170.118424958875
20
11.9987869024903
30
0
41
1
10
170.119702192286
20
11.994696733921
30
0
41
1
10
170.120488919945
20
11.9921773441862
30
0
41
1
10
170.120676317128
20
11.9915772298618
30
0
41
1
10
170.121029908199
20
11.9904449019137
30
0
0
SPLINE
5
201
100
AcDbEntity
8
1
62
256
6
ByLayer
370
-1
48
1
60
0
100
AcDbSpline
70
4
71
3
72
25
73
21
40
0
40
0
40
0
40
0
40
0.125
40
0.1875
40
0.21875
40
0.234375
40
0.25
40
0.3125
40
0.34375
40
0.375
40
0.5
40
0.625
40
0.6875
40
0.71875
40
0.7265625
40
0.734375
40
0.75
40
0.8125
40
0.875
40
1
40
1
40
1
40
1
41
1
10
151.67674954055
20
28.9327010224414
30
0
41
1
10
151.67698613261
20
28.9497770821737
30
0
41
1
10
151.677412307492
20
28.9753676661194
30
0
41
1
10
151.678001335405
20
29.005230164736
30
0
41
1
10
151.678336871151
20
29.0201285325921
30
0
41
1
10
151.678542897914
20
29.0286282181058
30
0
41
1
10
151.678867541222
20
29.0413609521925
30
0
41
1
10
151.679295547922
20
29.0561602119623
30
0
41
1
10
151.679836060611
20
29.0730803756712
30
0
41
1
10
151.680690070998
20
29.0985074050911
30
0
41
1
10
151.682102786073
20
29.1369848673653
30
0
41
1
10
151.683891169076
20
29.1794875200323
30
0
41
1
10
151.685256875202
20
29.2094519882222
30
0
41
1
10
151.685919589271
20
29.2230890675179
30
0
41
1
10
151.686228311814
20
29.2297018074787
30
0
41
1
10
151.686438069323
20
29.2327221187028
30
0
41
1
10
151.687114018447
20
29.2420524030041
30
0
41
1
10
151.688695309601
20
29.2567694345322
30
0
41
1
10
151.69285317674
20
29.2829234493124
30
0
41
1
10
151.697453102366
20
29.3021527101325
30
0
41
1
10
151.701151476184
20
29.3146983786025
30
0
0
SPLINE
5
202
100
AcDbEntity
8
1
62
256
6
ByLayer
370
-1
48
1
60
0
100
AcDbSpline
70
4
71
1
72
4
73
2
40
0
40
0
40
1
40
1
41
1
10
152.216616641411
20
13.3919572185435
30
0
41
1
10
152.629431076699
20
13.4061637327999
30
0
0
SPLINE
5
203
100
AcDbEntity
8
1
62
256
6
ByLayer
370
-1
48
1
60
0
100
AcDbSpline
70
4
71
1
72
4
73
2
40
0
40
0
40
1
40
1
41
1
10
168.660356007397
20
28.4773786741799
30
0
41
1
10
168.238856168809
20
28.4634567320293
30
0
0
SPLINE
5
204
100
AcDbEntity
8
1
62
256
6
ByLayer
370
-1
48
1
60
0
100
AcDbSpline
70
4
71
3
72
9
73
5
40
0
40
0
40
0
40
0
40
0.625000000001824
40
1
40
1
40
1
40
1
41
1
10
152.253129199292
20
12.3423804064224
30
0
41
1
10
152.232546642964
20
12.3416533335745
30
0
41
1
10
152.199614552839
20
12.3404900170177
30
0
41
1
10
152.166682462714
20
12.339326700461
30
0
41
1
10
152.154332928917
20
12.3388904567522
30
0
0
SPLINE
5
205
100
AcDbEntity
8
1
62
256
6
ByLayer
370
-1
48
1
60
0
100
AcDbSpline
70
4
71
3
72
8
73
4
40
0
40
0
40
0
40
0
40
1
40
1
40
1
40
1
41
1
10
169.155610730973
20
30.5453872265728
30
0
41
1
10
169.171876871035
20
30.5458077152147
30
0
41
1
10
169.188145476083
20
30.5461477271293
30
0
41
1
10
169.204414432323
20
30.5464092805199
30
0
0
SPLINE
5
206
100
AcDbEntity
8
1
62
256
6
ByLayer
370
-1
48
1
60
0
100
AcDbSpline
70
4
71
3
72
8
73
4
40
0
40
0
40
0
40
0
40
1
40
1
40
1
40
1
41
1
10
153.074240968762
20
27.9310204857869
30
0
41
1
10
152.96735039592
20
27.9270288488026
30
0
41
1
10
152.836586264389
20
27.9222941620571
30
0
41
1
10
152.699165572568
20
27.9174398158729
30
0
0
SPLINE
5
207
100
AcDbEntity
8
1
62
256
6
ByLayer
370
-1
48
1
60
0
100
AcDbSpline
70
4
71
3
72
9
73
5
40
0
40
0
40
0
40
0
40
0.624999999999938
40
1
40
1
40
1
40
1
41
1
10
169.994803341447
20
29.5748517617674
30
0
41
1
10
170.015703611919
20
29.5755788346154
30
0
41
1
10
170.049144044674
20
29.5767421511722
30
0
41
1
10
170.082584477429
20
29.5779054677289
30
0
41
1
10
170.095124639712
20
29.5783417114377
30
0
0
SPLINE
5
208
100
AcDbEntity
8
1
62
256
6
ByLayer
370
-1
48
1
60
0
100
AcDbSpline
70
4
71
3
72
12
73
8
40
0
40
0
40
0
40
0
40
0.342482483786399
40
0.342482483786399
40
0.671240032903805
40
0.671240032903805
40
1
40
1
40
1
40
1
41
1
10
151.61370331411
20
27.8796342606501
30
0
41
1
10
151.609535003528
20
27.9994550123982
30
0
41
1
10
151.605461686985
20
28.119277870678
30
0
41
1
10
151.597463547953
20
28.3541206868835
30
0
41
1
10
151.593502652611
20
28.4691410252218
30
0
41
1
10
151.585362016423
20
28.6991759095304
30
0
41
1
10
151.581191861307
20
28.8141910455238
30
0
41
1
10
151.577190756226
20
28.929211072771
30
0
0
SPLINE
5
209
100
AcDbEntity
8
1
62
256
6
ByLayer
370
-1
48
1
60
0
100
AcDbSpline
70
4
71
3
72
8
73
4
40
0
40
0
40
0
40
0
40
1
40
1
40
1
40
1
41
1
10
153.203282629494
20
13.4262728240961
30
0
41
1
10
153.340703321315
20
13.4311271702803
30
0
41
1
10
153.471467452846
20
13.4358618570257
30
0
41
1
10
153.578358025687
20
13.43985349401
30
0
0
SPLINE
5
20A
100
AcDbEntity
8
1
62
256
6
ByLayer
370
-1
48
1
60
0
100
AcDbSpline
70
4
71
3
72
15
73
11
40
0
40
0
40
0
40
0
40
0.250193815306146
40
0.500387630612292
40
0.750581445918438
40
0.875678353571511
40
0.938226807398048
40
0.969501034311316
40
0.98513814776795
40
1
40
1
40
1
40
1
41
1
10
151.879827159772
20
29.6118505792899
30
0
41
1
10
151.871390072696
20
29.619807226824
30
0
41
1
10
151.854515898546
20
29.6357205218921
30
0
41
1
10
151.829209597791
20
29.6595857864907
30
0
41
1
10
151.808097038217
20
29.6794961173401
30
0
41
1
10
151.793369339372
20
29.693385165498
30
0
41
1
10
151.785931082876
20
29.7003998596304
30
0
41
1
10
151.782323565238
20
29.7038019516164
30
0
41
1
10
151.780091630208
20
29.7059067918523
30
0
41
1
10
151.779497670882
20
29.7064669288953
30
0
41
1
10
151.778577580129
20
29.7073346262129
30
0
0
SPLINE
5
20B
100
AcDbEntity
8
1
62
256
6
ByLayer
370
-1
48
1
60
0
100
AcDbSpline
70
4
71
3
72
9
73
5
40
0
40
0
40
0
40
0
40
0.5
40
1
40
1
40
1
40
1
41
1
10
151.879827159772
20
29.6118505792899
30
0
41
1
10
151.916027341144
20
29.6557762316049
30
0
41
1
10
152.001945472814
20
29.7361533244854
30
0
41
1
10
152.10757126933
20
29.7916969726699
30
0
41
1
10
152.16249860392
20
29.8120188957035
30
0
0
SPLINE
5
20C
100
AcDbEntity
8
1
62
256
6
ByLayer
370
-1
48
1
60
0
100
AcDbSpline
70
4
71
3
72
8
73
4
40
0
40
0
40
0
40
0
40
1
40
1
40
1
40
1
41
1
10
170.058761612628
20
29.9892779179578
30
0
41
1
10
170.017988042867
20
30.123156160643
30
0
41
1
10
169.942149108799
20
30.244992146279
30
0
41
1
10
169.840151551306
20
30.3404635159809
30
0
0
SPLINE
5
20D
100
AcDbEntity
8
1
62
256
6
ByLayer
370
-1
48
1
60
0
100
AcDbSpline
70
4
71
3
72
20
73
16
40
0
40
0
40
0
40
0
40
0.0006369940731741
40
0.0022970655115907
40
0.0039571369500074
40
0.0172377084573406
40
0.0437988514720071
40
0.150043423530673
40
0.362532567648005
40
0.468777139706671
40
0.521899425736004
40
0.575021711765337
40
0.787510855882668
40
0.893755427941334
40
1
40
1
40
1
40
1
41
1
10
169.068470038103
20
30.4426743070343
30
0
41
1
10
169.068247788579
20
30.4426718949957
30
0
41
1
10
169.067445628643
20
30.4426548253738
30
0
41
1
10
169.066065339691
20
30.4425994920052
30
0
41
1
10
169.060285997311
20
30.4424007608299
30
0
41
1
10
169.045813456924
20
30.4418886672359
30
0
41
1
10
168.994903741493
20
30.4401105690751
30
0
41
1
10
168.87451690764
20
30.4358944158076
30
0
41
1
10
168.726292026918
20
30.4307326446577
30
0
41
1
10
168.596536805471
20
30.4262282684472
30
0
41
1
10
168.522373134778
20
30.4236602194794
30
0
41
1
10
168.411142776614
20
30.4197949770855
30
0
41
1
10
168.281417694276
20
30.4152473685169
30
0
41
1
10
168.133227352972
20
30.4100002137229
30
0
41
1
10
168.059154097626
20
30.4073563764184
30
0
41
1
10
168.022124552608
20
30.4060330437638
30
0
0
SPLINE
5
20E
100
AcDbEntity
8
1
62
256
6
ByLayer
370
-1
48
1
60
0
100
AcDbSpline
70
4
71
3
72
8
73
4
40
0
40
0
40
0
40
0
40
1
40
1
40
1
40
1
41
1
10
151.778582114868
20
29.7073303496986
30
0
41
1
10
151.683477804848
20
29.6049411091372
30
0
41
1
10
151.616292957515
20
29.4780959223609
30
0
41
1
10
151.584908824697
20
29.3416925051571
30
0
0
SPLINE
5
20F
100
AcDbEntity
8
1
62
256
6
ByLayer
370
-1
48
1
60
0
100
AcDbSpline
70
4
71
3
72
8
73
4
40
0
40
0
40
0
40
0
40
1
40
1
40
1
40
1
41
1
10
152.885600364424
20
11.3695413542075
30
0
41
1
10
152.847762382274
20
11.3695341914581
30
0
41
1
10
152.810417397297
20
11.3738132551646
30
0
41
1
10
152.773552499981
20
11.3823555621532
30
0
0
SPLINE
5
210
100
AcDbEntity
8
1
62
256
6
ByLayer
370
-1
48
1
60
0
100
AcDbSpline
70
4
71
3
72
25
73
21
40
0
40
0
40
0
40
0
40
0.125
40
0.1875
40
0.25
40
0.265625
40
0.2734375
40
0.28125
40
0.3125
40
0.375
40
0.5
40
0.625
40
0.65625
40
0.6875
40
0.75
40
0.765625
40
0.78125
40
0.8125
40
0.875
40
1
40
1
40
1
40
1
41
1
10
169.943557887014
20
29.954193313391
30
0
41
1
10
169.94816201145
20
29.9419433960706
30
0
41
1
10
169.954149816222
20
29.923088888826
30
0
41
1
10
169.960193591832
20
29.8972936061422
30
0
41
1
10
169.962836632584
20
29.8827238132554
30
0
41
1
10
169.964182050197
20
29.8734645438184
30
0
41
1
10
169.964612302808
20
29.8704663466095
30
0
41
1
10
169.965380129688
20
29.8638916719126
30
0
41
1
10
169.96699499143
20
29.8503339535108
30
0
41
1
10
169.970448180962
20
29.820537381188
30
0
41
1
10
169.975200307453
20
29.7782632877058
30
0
41
1
10
169.97929473766
20
29.7399787228483
30
0
41
1
10
169.981922848138
20
29.7146728173761
30
0
41
1
10
169.983644237557
20
29.6978314568699
30
0
41
1
10
169.985105275478
20
29.6830986296689
30
0
41
1
10
169.986318399582
20
29.6704198172264
30
0
41
1
10
169.987117458809
20
29.6619553367203
30
0
41
1
10
169.988492328054
20
29.6471167928712
30
0
41
1
10
169.991164251192
20
29.6173681252269
30
0
41
1
10
169.993375580267
20
29.5918696553434
30
0
41
1
10
169.994803341447
20
29.5748517617674
30
0
0
SPLINE
5
211
100
AcDbEntity
8
1
62
256
6
ByLayer
370
-1
48
1
60
0
100
AcDbSpline
70
4
71
3
72
15
73
11
40
0
40
0
40
0
40
0
40
0.424997863749044
40
0.849995727498088
40
0.956245193435349
40
0.982807559919665
40
0.996088743161822
40
0.997748891067092
40
0.999409038972362
40
1
40
1
40
1
40
1
41
1
10
168.6618317145
20
12.0172418266124
30
0
41
1
10
168.809955315186
20
12.0224341751821
30
0
41
1
10
169.106199534784
20
12.0328160458544
30
0
41
1
10
169.439488118037
20
12.0445087243669
30
0
41
1
10
169.633888192481
20
12.0513121980092
30
0
41
1
10
169.684813860426
20
12.0531047973953
30
0
41
1
10
169.699271603
20
12.0536048231556
30
0
41
1
10
169.705063599892
20
12.0538132394982
30
0
41
1
10
169.706425750659
20
12.0538533655324
30
0
41
1
10
169.707208397643
20
12.0538917890397
30
0
41
1
10
169.707413903496
20
12.0539039061653
30
0
0
SPLINE
5
212
100
AcDbEntity
8
1
62
256
6
ByLayer
370
-1
48
1
60
0
100
AcDbSpline
70
4
71
3
72
15
73
11
40
0
40
0
40
0
40
0
40
0.0146440969701673
40
0.0302846668595297
40
0.0615658066382545
40
0.124128086195704
40
0.249252645310604
40
0.499501763540402
40
0.749750881770201
40
1
40
1
40
1
40
1
41
1
10
153.18446658171
20
11.3745428813451
30
0
41
1
10
153.184427216034
20
11.3756744728464
30
0
41
1
10
153.184412102865
20
11.3761089105417
30
0
41
1
10
153.18433589069
20
11.3782996782367
30
0
41
1
10
153.184211923284
20
11.3818632005564
30
0
41
1
10
153.1839565587
20
11.389203818717
30
0
41
1
10
153.183450782714
20
11.4037426726909
30
0
41
1
10
153.182725816174
20
11.4245822992334
30
0
41
1
10
153.18185681394
20
11.4495623238307
30
0
41
1
10
153.181277369047
20
11.4662188376143
30
0
41
1
10
153.1809876466
20
11.4745470945061
30
0
0
SPLINE
5
213
100
AcDbEntity
8
1
62
256
6
ByLayer
370
-1
48
1
60
0
100
AcDbSpline
70
4
71
3
72
15
73
11
40
0
40
0
40
0
40
0
40
0.424997863749042
40
0.849995727498083
40
0.956245193435343
40
0.982807559919658
40
0.996088743161816
40
0.997748891067086
40
0.999409038972355
40
1
40
1
40
1
40
1
41
1
10
152.216616641411
20
13.3919572185435
30
0
41
1
10
152.221789231527
20
13.2432678097671
30
0
41
1
10
152.232131616777
20
12.9458920061863
30
0
41
1
10
152.243779728562
20
12.6113302418576
30
0
41
1
10
152.25055739715
20
12.4161876752494
30
0
41
1
10
152.25234311847
20
12.3650674226246
30
0
41
1
10
152.252841293104
20
12.3505545056435
30
0
41
1
10
152.253048875365
20
12.3447403431122
30
0
41
1
10
152.253088906775
20
12.3433730474404
30
0
41
1
10
152.25312710036
20
12.3425873268429
30
0
41
1
10
152.25313913397
20
12.3423809984419
30
0
0
SPLINE
5
214
100
AcDbEntity
8
1
62
256
6
ByLayer
370
-1
48
1
60
0
100
AcDbSpline
70
4
71
3
72
8
73
4
40
0
40
0
40
0
40
0
40
1
40
1
40
1
40
1
41
1
10
170.095124639712
20
29.5783417114377
30
0
41
1
10
170.094069980757
20
29.608658557155
30
0
41
1
10
170.092878084281
20
29.6389709151627
30
0
41
1
10
170.091548466764
20
29.6692768584671
30
0
0
SPLINE
5
215
100
AcDbEntity
8
1
62
256
6
ByLayer
370
-1
48
1
60
0
100
AcDbSpline
70
4
71
3
72
9
73
5
40
0
40
0
40
0
40
0
40
0.62500000000021
40
1
40
1
40
1
40
1
41
1
10
169.707414569976
20
12.0538938565323
30
0
41
1
10
169.708297733164
20
12.0330732143028
30
0
41
1
10
169.709710794265
20
11.9997601867355
30
0
41
1
10
169.711123855366
20
11.9664471591682
30
0
41
1
10
169.711653753279
20
11.9539547738305
30
0
0
SPLINE
5
216
100
AcDbEntity
8
1
62
256
6
ByLayer
370
-1
48
1
60
0
100
AcDbSpline
70
4
71
3
72
8
73
4
40
0
40
0
40
0
40
0
40
1
40
1
40
1
40
1
41
1
10
170.079312764046
20
29.877970303275
30
0
41
1
10
170.076673208041
20
29.9158561939086
30
0
41
1
10
170.069821974109
20
29.9529584420232
30
0
41
1
10
170.058761612628
20
29.9892779179578
30
0
0
SPLINE
5
217
100
AcDbEntity
8
1
62
256
6
ByLayer
370
-1
48
1
60
0
100
AcDbSpline
70
4
71
3
72
8
73
4
40
0
40
0
40
0
40
0
40
1
40
1
40
1
40
1
41
1
10
169.78706969663
20
14.0075441977034
30
0
41
1
10
169.905680336846
20
14.0116703919599
30
0
41
1
10
170.024274782492
20
14.0158499996334
30
0
41
1
10
170.137700866558
20
14.0199014436131
30
0
0
SPLINE
5
218
100
AcDbEntity
8
1
62
256
6
ByLayer
370
-1
48
1
60
0
100
AcDbSpline
70
4
71
3
72
8
73
4
40
0
40
0
40
0
40
0
40
1
40
1
40
1
40
1
41
1
10
168.238856168809
20
28.4634567320293
30
0
41
1
10
168.23004414965
20
28.4631656751659
30
0
41
1
10
168.219651952304
20
28.4628111704046
30
0
41
1
10
168.209515785555
20
28.4624558555819
30
0
0
SPLINE
5
219
100
AcDbEntity
8
1
62
256
6
ByLayer
370
-1
48
1
60
0
100
AcDbSpline
70
4
71
3
72
20
73
16
40
0
40
0
40
0
40
0
40
0.0006369940731808
40
0.0022970655115975
40
0.0039571369500141
40
0.0172377084573473
40
0.0437988514720136
40
0.150043423530679
40
0.362532567648009
40
0.468777139706674
40
0.521899425736007
40
0.575021711765339
40
0.78751085588267
40
0.893755427941335
40
1
40
1
40
1
40
1
41
1
10
151.67676026635
20
28.9327011388378
30
0
41
1
10
151.676762686302
20
28.9324780231997
30
0
41
1
10
151.676779752173
20
28.9316727377046
30
0
41
1
10
151.676834975386
20
28.9302870754852
30
0
41
1
10
151.677033340725
20
28.9244852650689
30
0
41
1
10
151.677544123224
20
28.9099568019179
30
0
41
1
10
151.679314508875
20
28.8588535695691
30
0
41
1
10
151.683487346155
20
28.7380342539947
30
0
41
1
10
151.688520987733
20
28.5893520801876
30
0
41
1
10
151.692850201231
20
28.4592598406948
30
0
41
1
10
151.695296562936
20
28.3849252193863
30
0
41
1
10
151.69899729627
20
28.2734203521834
30
0
41
1
10
151.703403644267
20
28.1433241701449
30
0
41
1
10
151.708560179117
20
27.9946386886296
30
0
41
1
10
151.711180819534
20
27.920295671949
30
0
41
1
10
151.712499584485
20
27.8831242103204
30
0
0
SPLINE
5
21A
100
AcDbEntity
8
1
62
256
6
ByLayer
370
-1
48
1
60
0
100
AcDbSpline
70
4
71
1
72
4
73
2
40
0
40
0
40
1
40
1
41
1
10
168.609508444995
20
13.3888117021807
30
0
41
1
10
168.571294834744
20
13.7874839637926
30
0
0
SPLINE
5
21B
100
AcDbEntity
8
1
62
256
6
ByLayer
370
-1
48
1
60
0
100
AcDbSpline
70
4
71
3
72
8
73
4
40
0
40
0
40
0
40
0
40
1
40
1
40
1
40
1
41
1
10
170.089162005751
20
29.7182180298881
30
0
41
1
10
170.086303786502
20
29.7714934781783
30
0
41
1
10
170.083020847564
20
29.8247476982793
30
0
41
1
10
170.079312764046
20
29.877970303275
30
0
0
SPLINE
5
21C
100
AcDbEntity
8
1
62
256
6
ByLayer
370
-1
48
1
60
0
100
AcDbSpline
70
4
71
3
72
8
73
4
40
0
40
0
40
0
40
0
40
1
40
1
40
1
40
1
41
1
10
169.204414432323
20
30.5464092804956
30
0
41
1
10
169.257557031375
20
30.5472636455063
30
0
41
1
10
169.310712810944
20
30.5476807524659
30
0
41
1
10
169.363857885415
20
30.5476908145636
30
0
0
SPLINE
5
21D
100
AcDbEntity
8
1
62
256
6
ByLayer
370
-1
48
1
60
0
100
AcDbSpline
70
4
71
3
72
8
73
4
40
0
40
0
40
0
40
0
40
1
40
1
40
1
40
1
41
1
10
152.157909022447
20
12.2479553097228
30
0
41
1
10
152.158625055544
20
12.2316378731435
30
0
41
1
10
152.159420739249
20
12.2153237633519
30
0
41
1
10
152.160295630716
20
12.1990141383017
30
0
0
SPLINE
5
21E
100
AcDbEntity
8
1
62
256
6
ByLayer
370
-1
48
1
60
0
100
AcDbSpline
70
4
71
3
72
12
73
8
40
0
40
0
40
0
40
0
40
0.342482483786388
40
0.342482483786388
40
0.671240032903799
40
0.671240032903799
40
1
40
1
40
1
40
1
41
1
10
154.230047171434
20
11.4112600417242
30
0
41
1
10
154.110682373821
20
11.4070758088721
30
0
41
1
10
153.991344973022
20
11.4029573249252
30
0
41
1
10
153.757449028014
20
11.3948752076155
30
0
41
1
10
153.642878917081
20
11.3908865941026
30
0
41
1
10
153.41367650461
20
11.3827579061489
30
0
41
1
10
153.299046595707
20
11.3786244622579
30
0
41
1
10
153.184464315959
20
11.3746080118002
30
0
0
SPLINE
5
21F
100
AcDbEntity
8
1
62
256
6
ByLayer
370
-1
48
1
60
0
100
AcDbSpline
70
4
71
1
72
4
73
2
40
0
40
0
40
1
40
1
41
1
10
168.644797700068
20
12.777928390876
30
0
41
1
10
168.635381663552
20
12.999912198773
30
0
0
SPLINE
5
220
100
AcDbEntity
8
1
62
256
6
ByLayer
370
-1
48
1
60
0
100
AcDbSpline
70
4
71
3
72
8
73
4
40
0
40
0
40
0
40
0
40
1
40
1
40
1
40
1
41
1
10
170.677314530436
20
12.6880151902381
30
0
41
1
10
170.677318454314
20
12.6500358970265
30
0
41
1
10
170.673058995243
20
12.6125449260798
30
0
41
1
10
170.664548743818
20
12.5755396630595
30
0
0
SPLINE
5
221
100
AcDbEntity
8
1
62
256
6
ByLayer
370
-1
48
1
60
0
100
AcDbSpline
70
4
71
3
72
97
73
93
40
0
40
0
40
0
40
0
40
0.03125
40
0.0625
40
0.125
40
0.140625
40
0.15625
40
0.1875
40
0.25
40
0.28125
40
0.2890625
40
0.29296875
40
0.29345703125
40
0.2939453125
40
0.294189453125
40
0.29443359375
40
0.294921875
40
0.296875
40
0.3046875
40
0.3125
40
0.3203125
40
0.328125
40
0.34375
40
0.359375
40
0.3671875
40
0.37109375
40
0.375
40
0.37548828125
40
0.3759765625
40
0.376953125
40
0.37744140625
40
0.3779296875
40
0.37890625
40
0.380859375
40
0.3828125
40
0.38671875
40
0.390625
40
0.3984375
40
0.400390625
40
0.4013671875
40
0.40234375
40
0.40625
40
0.4375
40
0.453125
40
0.46875
40
0.484375
40
0.4921875
40
0.49609375
40
0.498046875
40
0.4990234375
40
0.49951171875
40
0.5
40
0.50048828125
40
0.5009765625
40
0.501953125
40
0.50390625
40
0.5078125
40
0.515625
40
0.53125
40
0.546875
40
0.5625
40
0.59375
40
0.595703125
40
0.59765625
40
0.5986328125
40
0.599609375
40
0.6015625
40
0.609375
40
0.6171875
40
0.62109375
40
0.623046875
40
0.6240234375
40
0.625
40
0.62548828125
40
0.6328125
40
0.640625
40
0.65625
40
0.6640625
40
0.671875
40
0.6875
40
0.703125
40
0.705078125
40
0.70556640625
40
0.705810546875
40
0.7060546875
40
0.70654296875
40
0.70703125
40
0.7109375
40
0.71875
40
0.75
40
0.875
40
1
40
1
40
1
40
1
41
1
10
168.713632842481
20
13.971288863805
30
0
41
1
10
168.713718172784
20
13.968835989707
30
0
41
1
10
168.71376849903
20
13.9639260387406
30
0
41
1
10
168.713389309013
20
13.954112954102
30
0
41
1
10
168.712429686549
20
13.9455664649855
30
0
41
1
10
168.711161505146
20
13.9383137489063
30
0
41
1
10
168.710197968619
20
13.9335008933273
30
0
41
1
10
168.70820380135
20
13.925144418337
30
0
41
1
10
168.705229888604
20
13.9157794236771
30
0
41
1
10
168.702263772009
20
13.9083767172056
30
0
41
1
10
168.700914187797
20
13.905285749265
30
0
41
1
10
168.700522760714
20
13.9044112204946
30
0
41
1
10
168.700364990078
20
13.904061954358
30
0
41
1
10
168.700325480789
20
13.9039746681729
30
0
41
1
10
168.700293833393
20
13.9039048574649
30
0
41
1
10
168.70026215936
20
13.9038350589268
30
0
41
1
10
168.70017494591
20
13.9036431631907
30
0
41
1
10
168.699840551413
20
13.9029111109072
30
0
41
1
10
168.699257733833
20
13.9016605855341
30
0
41
1
10
168.698460349825
20
13.900002899973
30
0
41
1
10
168.697642793732
20
13.8983551453005
30
0
41
1
10
168.696525985253
20
13.896171712636
30
0
41
1
10
168.695080153538
20
13.8934684954551
30
0
41
1
10
168.69356870579
20
13.8908017050446
30
0
41
1
10
168.692476670316
20
13.8889549483115
30
0
41
1
10
168.691842990369
20
13.8879054966937
30
0
41
1
10
168.691502937547
20
13.8873500651991
30
0
41
1
10
168.69130178162
20
13.8870240395312
30
0
41
1
10
168.691221219316
20
13.8868936914462
30
0
41
1
10
168.691140507196
20
13.886763436742
30
0
41
1
10
168.691059645423
20
13.8866332756343
30
0
41
1
10
168.690978683936
20
13.886503176996
30
0
41
1
10
168.690836739729
20
13.8862756685498
30
0
41
1
10
168.690633215665
20
13.8859511266208
30
0
41
1
10
168.690305987861
20
13.8854328670906
30
0
41
1
10
168.689893979725
20
13.8847869404654
30
0
41
1
10
168.689228451473
20
13.8837575432564
30
0
41
1
10
168.688637862235
20
13.8828622310456
30
0
41
1
10
168.68816847282
20
13.8821623771525
30
0
41
1
10
168.687997202889
20
13.8819082799008
30
0
41
1
10
168.687739715776
20
13.8815275299585
30
0
41
1
10
168.686142912863
20
13.8791856892699
30
0
41
1
10
168.683808443294
20
13.8759568919342
30
0
41
1
10
168.680792414666
20
13.8720925115928
30
0
41
1
10
168.678460318661
20
13.8692507537081
30
0
41
1
10
168.676459629144
20
13.866931199393
30
0
41
1
10
168.675029664104
20
13.8653337867658
30
0
41
1
10
168.674307384441
20
13.8645417458423
30
0
41
1
10
168.673944429505
20
13.8641474037958
30
0
41
1
10
168.673762499409
20
13.8639506538848
30
0
41
1
10
168.673658410196
20
13.8638383458975
30
0
41
1
10
168.673580278748
20
13.8637541752276
30
0
41
1
10
168.673502082802
20
13.863670064932
30
0
41
1
10
168.673397735613
20
13.8635579984302
30
0
41
1
10
168.673214902646
20
13.8633620936761
30
0
41
1
10
168.672848336588
20
13.8629711319182
30
0
41
1
10
168.672111615332
20
13.8621926094403
30
0
41
1
10
168.670623907071
20
13.8606492489228
30
0
41
1
10
168.668458369223
20
13.8584840053632
30
0
41
1
10
168.665796999918
20
13.8559504726898
30
0
41
1
10
168.66216708985
20
13.8526607327362
30
0
41
1
10
168.65923840604
20
13.8501963981144
30
0
41
1
10
168.657085063896
20
13.8484783620932
30
0
41
1
10
168.656785261076
20
13.8482406680566
30
0
41
1
10
168.656544983928
20
13.8480510675076
30
0
41
1
10
168.656304417392
20
13.8478618372233
30
0
41
1
10
168.655641667927
20
13.8473429832547
30
0
41
1
10
168.654550694075
20
13.8465023127021
30
0
41
1
10
168.653327163265
20
13.845583255175
30
0
41
1
10
168.652464830253
20
13.8449478811471
30
0
41
1
10
168.652032209738
20
13.8446321957294
30
0
41
1
10
168.651784584205
20
13.8444523773805
30
0
41
1
10
168.651629646165
20
13.8443402300938
30
0
41
1
10
168.651071405508
20
13.8439371464575
30
0
41
1
10
168.650074585987
20
13.8432266869183
30
0
41
1
10
168.648095630849
20
13.8418515321378
30
0
41
1
10
168.646059840645
20
13.8404918911356
30
0
41
1
10
168.643999584299
20
13.8391701492673
30
0
41
1
10
168.641923336171
20
13.8378738593222
30
0
41
1
10
168.639298639507
20
13.8363015676856
30
0
41
1
10
168.637035698299
20
13.8350203898227
30
0
41
1
10
168.635795028454
20
13.834340436354
30
0
41
1
10
168.635610412311
20
13.8342397170519
30
0
41
1
10
168.635543258225
20
13.8342031305804
30
0
41
1
10
168.635476090187
20
13.834166569934
30
0
41
1
10
168.635392103997
20
13.8341209175589
30
0
41
1
10
168.635056020004
20
13.8339385664803
30
0
41
1
10
168.634214245854
20
13.8334855973053
30
0
41
1
10
168.631236683004
20
13.8319185429527
30
0
41
1
10
168.619687220756
20
13.8262863745023
30
0
41
1
10
168.598764671728
20
13.8191058772903
30
0
41
1
10
168.579283830724
20
13.8164879402506
30
0
41
1
10
168.569509670038
20
13.8161453152468
30
0
0
SPLINE
5
222
100
AcDbEntity
8
1
62
256
6
ByLayer
370
-1
48
1
60
0
100
AcDbSpline
70
4
71
3
72
8
73
4
40
0
40
0
40
0
40
0
40
1
40
1
40
1
40
1
41
1
10
151.572143719397
20
29.2292169779518
30
0
41
1
10
151.572133372289
20
29.2671962711633
30
0
41
1
10
151.576399474373
20
29.30468724211
30
0
41
1
10
151.584908824811
20
29.3416925051304
30
0
0
SPLINE
5
223
100
AcDbEntity
8
1
62
256
6
ByLayer
370
-1
48
1
60
0
100
AcDbSpline
70
4
71
3
72
8
73
4
40
0
40
0
40
0
40
0
40
1
40
1
40
1
40
1
41
1
10
168.635381663552
20
12.999912198773
30
0
41
1
10
168.629485170698
20
13.1389224856261
30
0
41
1
10
168.620464880407
20
13.2745061744851
30
0
41
1
10
168.609508444995
20
13.3888117021807
30
0
0
SPLINE
5
224
100
AcDbEntity
8
1
62
256
6
ByLayer
370
-1
48
1
60
0
100
AcDbSpline
70
4
71
3
72
8
73
4
40
0
40
0
40
0
40
0
40
1
40
1
40
1
40
1
41
1
10
151.573420648313
20
29.0691642036868
30
0
41
1
10
151.572569336583
20
29.1225099974258
30
0
41
1
10
151.572158254249
20
29.1758643690795
30
0
41
1
10
151.572143718823
20
29.229216977952
30
0
0
SPLINE
5
225
100
AcDbEntity
8
1
62
256
6
ByLayer
370
-1
48
1
60
0
100
AcDbSpline
70
4
71
3
72
15
73
11
40
0
40
0
40
0
40
0
40
0.250239458440301
40
0.500478916880601
40
0.750718375320902
40
0.875838104541052
40
0.938397969151128
40
0.969677901456165
40
0.985317867608684
40
1
40
1
40
1
40
1
41
1
10
170.54783244493
20
12.6025337895874
30
0
41
1
10
170.557558803168
20
12.600284279044
30
0
41
1
10
170.577011519645
20
12.5957852579571
30
0
41
1
10
170.606184949069
20
12.5890380319686
30
0
41
1
10
170.630523425827
20
12.5834090330427
30
0
41
1
10
170.647502213066
20
12.5794821819054
30
0
41
1
10
170.656076286041
20
12.5774991717092
30
0
41
1
10
170.660236303495
20
12.5765370435525
30
0
41
1
10
170.662799514064
20
12.5759442246311
30
0
41
1
10
170.66340985107
20
12.575803065988
30
0
41
1
10
170.664565260303
20
12.5755358431295
30
0
0
SPLINE
5
226
100
AcDbEntity
8
1
62
256
6
ByLayer
370
-1
48
1
60
0
100
AcDbSpline
70
4
71
3
72
97
73
93
40
0
40
0
40
0
40
0
40
0.03125
40
0.0625
40
0.125
40
0.140625
40
0.15625
40
0.1875
40
0.25
40
0.28125
40
0.2890625
40
0.29296875
40
0.29345703125
40
0.2939453125
40
0.294189453125
40
0.29443359375
40
0.294921875
40
0.296875
40
0.3046875
40
0.3125
40
0.3203125
40
0.328125
40
0.34375
40
0.359375
40
0.3671875
40
0.37109375
40
0.375
40
0.37548828125
40
0.3759765625
40
0.376953125
40
0.37744140625
40
0.3779296875
40
0.37890625
40
0.380859375
40
0.3828125
40
0.38671875
40
0.390625
40
0.3984375
40
0.400390625
40
0.4013671875
40
0.40234375
40
0.40625
40
0.4375
40
0.453125
40
0.46875
40
0.484375
40
0.4921875
40
0.49609375
40
0.498046875
40
0.4990234375
40
0.49951171875
40
0.5
40
0.50048828125
40
0.5009765625
40
0.501953125
40
0.50390625
40
0.5078125
40
0.515625
40
0.53125
40
0.546875
40
0.5625
40
0.59375
40
0.595703125
40
0.59765625
40
0.5986328125
40
0.599609375
40
0.6015625
40
0.609375
40
0.6171875
40
0.62109375
40
0.623046875
40
0.6240234375
40
0.625
40
0.62548828125
40
0.6328125
40
0.640625
40
0.65625
40
0.6640625
40
0.671875
40
0.6875
40
0.703125
40
0.705078125
40
0.70556640625
40
0.705810546875
40
0.7060546875
40
0.70654296875
40
0.70703125
40
0.7109375
40
0.71875
40
0.75
40
0.875
40
1
40
1
40
1
40
1
41
1
10
153.474815706225
20
27.9459433043849
30
0
41
1
10
153.474730375922
20
27.9483961784829
30
0
41
1
10
153.474680049676
20
27.9533061294493
30
0
41
1
10
153.475059239693
20
27.9631192140879
30
0
41
1
10
153.476018862156
20
27.9716657032044
30
0
41
1
10
153.47728704356
20
27.9789184192836
30
0
41
1
10
153.478250580086
20
27.9837312748626
30
0
41
1
10
153.480244747356
20
27.9920877498529
30
0
41
1
10
153.483218660102
20
28.0014527445128
30
0
41
1
10
153.486184776696
20
28.0088554509843
30
0
41
1
10
153.487534360909
20
28.0119464189248
30
0
41
1
10
153.487925787991
20
28.0128209476953
30
0
41
1
10
153.488083558627
20
28.0131702138319
30
0
41
1
10
153.488123067917
20
28.0132575000169
30
0
41
1
10
153.488154715312
20
28.013327310725
30
0
41
1
10
153.488186389345
20
28.0133971092631
30
0
41
1
10
153.488273602796
20
28.0135890049992
30
0
41
1
10
153.488607997293
20
28.0143210572827
30
0
41
1
10
153.489190814872
20
28.0155715826557
30
0
41
1
10
153.489988198881
20
28.0172292682168
30
0
41
1
10
153.490805754974
20
28.0188770228894
30
0
41
1
10
153.491922563452
20
28.0210604555539
30
0
41
1
10
153.493368395168
20
28.0237636727348
30
0
41
1
10
153.494879842915
20
28.0264304631453
30
0
41
1
10
153.495971878389
20
28.0282772198784
30
0
41
1
10
153.496605558337
20
28.0293266714961
30
0
41
1
10
153.496945611159
20
28.0298821029907
30
0
41
1
10
153.497146767086
20
28.0302081286586
30
0
41
1
10
153.497227329389
20
28.0303384767437
30
0
41
1
10
153.497308041509
20
28.0304687314479
30
0
41
1
10
153.497388903282
20
28.0305988925556
30
0
41
1
10
153.497469864769
20
28.0307289911939
30
0
41
1
10
153.497611808977
20
28.0309564996401
30
0
41
1
10
153.497815333041
20
28.0312810415691
30
0
41
1
10
153.498142560844
20
28.0317993010993
30
0
41
1
10
153.498554568981
20
28.0324452277245
30
0
41
1
10
153.499220097233
20
28.0334746249334
30
0
41
1
10
153.499810686471
20
28.0343699371442
30
0
41
1
10
153.500280075885
20
28.0350697910374
30
0
41
1
10
153.500451345816
20
28.035323888289
30
0
41
1
10
153.500708832929
20
28.0357046382314
30
0
41
1
10
153.502305635842
20
28.0380464789199
30
0
41
1
10
153.504640105412
20
28.0412752762557
30
0
41
1
10
153.507656134039
20
28.045139656597
30
0
41
1
10
153.509988230045
20
28.0479814144817
30
0
41
1
10
153.511988919562
20
28.0503009687969
30
0
41
1
10
153.513418884602
20
28.0518983814241
30
0
41
1
10
153.514141164265
20
28.0526904223476
30
0
41
1
10
153.5145041192
20
28.0530847643941
30
0
41
1
10
153.514686049296
20
28.0532815143051
30
0
41
1
10
153.51479013851
20
28.0533938222924
30
0
41
1
10
153.514868269958
20
28.0534779929623
30
0
41
1
10
153.514946465904
20
28.0535621032578
30
0
41
1
10
153.515050813093
20
28.0536741697596
30
0
41
1
10
153.51523364606
20
28.0538700745138
30
0
41
1
10
153.515600212117
20
28.0542610362716
30
0
41
1
10
153.516336933374
20
28.0550395587495
30
0
41
1
10
153.517824641635
20
28.056582919267
30
0
41
1
10
153.519990179482
20
28.0587481628266
30
0
41
1
10
153.522651548788
20
28.0612816955001
30
0
41
1
10
153.526281458856
20
28.0645714354536
30
0
41
1
10
153.529210142665
20
28.0670357700755
30
0
41
1
10
153.531363484809
20
28.0687538060967
30
0
41
1
10
153.53166328763
20
28.0689915001333
30
0
41
1
10
153.531903564778
20
28.0691811006823
30
0
41
1
10
153.532144131313
20
28.0693703309666
30
0
41
1
10
153.532806880779
20
28.0698891849352
30
0
41
1
10
153.533897854631
20
28.0707298554877
30
0
41
1
10
153.535121385441
20
28.0716489130149
30
0
41
1
10
153.535983718453
20
28.0722842870427
30
0
41
1
10
153.536416338968
20
28.0725999724604
30
0
41
1
10
153.5366639645
20
28.0727797908094
30
0
41
1
10
153.536818902541
20
28.0728919380961
30
0
41
1
10
153.537377143198
20
28.0732950217324
30
0
41
1
10
153.538373962719
20
28.0740054812715
30
0
41
1
10
153.540352917857
20
28.0753806360521
30
0
41
1
10
153.542388708061
20
28.0767402770543
30
0
41
1
10
153.544448964407
20
28.0780620189226
30
0
41
1
10
153.546525212534
20
28.0793583088677
30
0
41
1
10
153.549149909198
20
28.0809306005043
30
0
41
1
10
153.551412850407
20
28.0822117783672
30
0
41
1
10
153.552653520252
20
28.0828917318358
30
0
41
1
10
153.552838136394
20
28.082992451138
30
0
41
1
10
153.55290529048
20
28.0830290376095
30
0
41
1
10
153.552972458518
20
28.0830655982558
30
0
41
1
10
153.553056444709
20
28.083111250631
30
0
41
1
10
153.553392528702
20
28.0832936017096
30
0
41
1
10
153.554234302852
20
28.0837465708846
30
0
41
1
10
153.557211865701
20
28.0853136252371
30
0
41
1
10
153.56876132795
20
28.0909457936875
30
0
41
1
10
153.589683876977
20
28.0981262908996
30
0
41
1
10
153.609164717981
20
28.1007442279392
30
0
41
1
10
153.618938878668
20
28.1010868529431
30
0
0
SPLINE
5
227
100
AcDbEntity
8
1
62
256
6
ByLayer
370
-1
48
1
60
0
100
AcDbSpline
70
4
71
1
72
4
73
2
40
0
40
0
40
1
40
1
41
1
10
153.578358025687
20
13.43985349401
30
0
41
1
10
153.951168573687
20
13.4537754361605
30
0
0
SPLINE
5
228
100
AcDbEntity
8
1
62
256
6
ByLayer
370
-1
48
1
60
0
100
AcDbSpline
70
4
71
3
72
15
73
11
40
0
40
0
40
0
40
0
40
0.0146440969701536
40
0.0302846668595162
40
0.0615658066382415
40
0.124128086195692
40
0.249252645310593
40
0.499501763540395
40
0.749750881770198
40
1
40
1
40
1
40
1
41
1
10
169.064990986919
20
30.5426892868447
30
0
41
1
10
169.065030352595
20
30.5415576953434
30
0
41
1
10
169.065045465764
20
30.5411232576482
30
0
41
1
10
169.065121677939
20
30.5389324899532
30
0
41
1
10
169.065245645345
20
30.5353689676335
30
0
41
1
10
169.065501009929
20
30.5280283494728
30
0
41
1
10
169.066006785915
20
30.513489495499
30
0
41
1
10
169.066731752455
20
30.4926498689564
30
0
41
1
10
169.067600754689
20
30.4676698443592
30
0
41
1
10
169.068180199582
20
30.4510133305756
30
0
41
1
10
169.068469922028
20
30.4426850736837
30
0
0
SPLINE
5
229
100
AcDbEntity
8
1
62
256
6
ByLayer
370
-1
48
1
60
0
100
AcDbSpline
70
4
71
3
72
8
73
4
40
0
40
0
40
0
40
0
40
1
40
1
40
1
40
1
41
1
10
169.164473064323
20
13.986211682403
30
0
41
1
10
169.285323612787
20
13.9902033193873
30
0
41
1
10
169.424694985234
20
13.9949380061327
30
0
41
1
10
169.5642369149
20
13.9997923523169
30
0
0
SPLINE
5
22A
100
AcDbEntity
8
1
62
256
6
ByLayer
370
-1
48
1
60
0
100
AcDbSpline
70
4
71
1
72
4
73
2
40
0
40
0
40
1
40
1
41
1
10
169.5642369149
20
13.9997923523169
30
0
41
1
10
169.78706969663
20
14.0075441977034
30
0
0
SPLINE
5
22B
100
AcDbEntity
8
1
62
256
6
ByLayer
370
-1
48
1
60
0
100
AcDbSpline
70
4
71
3
72
8
73
4
40
0
40
0
40
0
40
0
40
1
40
1
40
1
40
1
41
1
10
169.36385788541
20
30.5476908139823
30
0
41
1
10
169.401689444329
20
30.5476979767318
30
0
41
1
10
169.439041072319
20
30.5434189130253
30
0
41
1
10
169.475905068648
20
30.5348766060366
30
0
0
SPLINE
5
22C
100
AcDbEntity
8
1
62
256
6
ByLayer
370
-1
48
1
60
0
100
AcDbSpline
70
4
71
3
72
8
73
4
40
0
40
0
40
0
40
0
40
1
40
1
40
1
40
1
41
1
10
168.571294834744
20
13.7874839637926
30
0
41
1
10
168.570495927995
20
13.7958187418537
30
0
41
1
10
168.569863632781
20
13.8059704299868
30
0
41
1
10
168.569509670038
20
13.8161453152468
30
0
0
SPLINE
5
22D
100
AcDbEntity
8
1
62
256
6
ByLayer
370
-1
48
1
60
0
100
AcDbSpline
70
4
71
3
72
8
73
4
40
0
40
0
40
0
40
0
40
1
40
1
40
1
40
1
41
1
10
152.239315395581
20
29.9474051251012
30
0
41
1
10
152.201573996198
20
29.9447551611845
30
0
41
1
10
152.164613644271
20
29.9378770430048
30
0
41
1
10
152.128431345161
20
29.9267754664191
30
0
0
SPLINE
5
22E
100
AcDbEntity
8
1
62
256
6
ByLayer
370
-1
48
1
60
0
100
AcDbSpline
70
4
71
1
72
4
73
2
40
0
40
0
40
1
40
1
41
1
10
170.031315899327
20
28.5252749496464
30
0
41
1
10
169.633583809632
20
28.5110684353899
30
0
0
SPLINE
5
22F
100
AcDbEntity
8
1
62
256
6
ByLayer
370
-1
48
1
60
0
100
AcDbSpline
70
4
71
1
72
4
73
2
40
0
40
0
40
1
40
1
41
1
10
153.621992165883
20
29.1393037773139
30
0
41
1
10
153.628020823916
20
28.9173199694168
30
0
0
SPLINE
5
230
100
AcDbEntity
8
1
62
256
6
ByLayer
370
-1
48
1
60
0
100
AcDbSpline
70
4
71
3
72
9
73
5
40
0
40
0
40
0
40
0
40
0.5
40
1
40
1
40
1
40
1
41
1
10
151.701151476184
20
29.3146983786025
30
0
41
1
10
151.717469095489
20
29.37110636257
30
0
41
1
10
151.765144632465
20
29.48074288804
30
0
41
1
10
151.838805746366
20
29.5724716198831
30
0
41
1
10
151.879827159772
20
29.6118505792899
30
0
0
SPLINE
5
231
100
AcDbEntity
8
1
62
256
6
ByLayer
370
-1
48
1
60
0
100
AcDbSpline
70
4
71
3
72
8
73
4
40
0
40
0
40
0
40
0
40
1
40
1
40
1
40
1
41
1
10
169.802242824911
20
11.9575445673173
30
0
41
1
10
169.818498236509
20
11.9582632674947
30
0
41
1
10
169.834750330674
20
11.9590619258491
30
0
41
1
10
169.850997834027
20
11.9599402181329
30
0
0
SPLINE
5
232
100
AcDbEntity
8
1
62
256
6
ByLayer
370
-1
48
1
60
0
100
AcDbSpline
70
4
71
1
72
4
73
2
40
0
40
0
40
1
40
1
41
1
10
168.742973225734
20
13.9722897402524
30
0
41
1
10
169.164473064323
20
13.986211682403
30
0
0
SPLINE
5
233
100
AcDbEntity
8
1
62
256
6
ByLayer
370
-1
48
1
60
0
100
AcDbSpline
70
4
71
3
72
8
73
4
40
0
40
0
40
0
40
0
40
1
40
1
40
1
40
1
41
1
10
152.190695956001
20
11.927954250232
30
0
41
1
10
152.231467465767
20
11.7940760075469
30
0
41
1
10
152.307302580821
20
11.6722400219109
30
0
41
1
10
152.409306017338
20
11.576768652209
30
0
0
SPLINE
5
234
100
AcDbEntity
8
1
62
256
6
ByLayer
370
-1
48
1
60
0
100
AcDbSpline
70
4
71
3
72
8
73
4
40
0
40
0
40
0
40
0
40
1
40
1
40
1
40
1
41
1
10
153.184464315959
20
11.3746080118039
30
0
41
1
10
153.154262848713
20
11.3735493603603
30
0
41
1
10
153.124055111386
20
11.372625904086
30
0
41
1
10
153.093846037079
20
11.3718449416071
30
0
0
SPLINE
5
235
100
AcDbEntity
8
1
62
256
6
ByLayer
370
-1
48
1
60
0
100
AcDbSpline
70
4
71
3
72
8
73
4
40
0
40
0
40
0
40
0
40
1
40
1
40
1
40
1
41
1
10
169.06499325267
20
30.542624156386
30
0
41
1
10
169.095194752382
20
30.5436828078296
30
0
41
1
10
169.125400057486
20
30.5446062641039
30
0
41
1
10
169.155610730973
20
30.5453872265828
30
0
0
SPLINE
5
236
100
AcDbEntity
8
1
62
256
6
ByLayer
370
-1
48
1
60
0
100
AcDbSpline
70
4
71
3
72
9
73
5
40
0
40
0
40
0
40
0
40
0.625000000000489
40
1
40
1
40
1
40
1
41
1
10
152.540517970763
20
29.8633383116575
30
0
41
1
10
152.539952521719
20
29.8841589538871
30
0
41
1
10
152.539047803248
20
29.9174719814544
30
0
41
1
10
152.538143084777
20
29.9507850090216
30
0
41
1
10
152.53780381535
20
29.9632773943593
30
0
0
SPLINE
5
237
100
AcDbEntity
8
1
62
256
6
ByLayer
370
-1
48
1
60
0
100
AcDbSpline
70
4
71
1
72
4
73
2
40
0
40
0
40
1
40
1
41
1
10
168.6618317145
20
12.0172418266124
30
0
41
1
10
168.655220433116
20
12.4240631671272
30
0
0
SPLINE
5
238
100
AcDbEntity
8
1
62
256
6
ByLayer
370
-1
48
1
60
0
100
AcDbSpline
70
4
71
3
72
8
73
4
40
0
40
0
40
0
40
0
40
1
40
1
40
1
40
1
41
1
10
168.655220433116
20
12.4240631671272
30
0
41
1
10
168.653335013816
20
12.5400813430918
30
0
41
1
10
168.649809718994
20
12.6597696470509
30
0
41
1
10
168.644797700068
20
12.777928390876
30
0
0
SPLINE
5
239
100
AcDbEntity
8
1
62
256
6
ByLayer
370
-1
48
1
60
0
100
AcDbSpline
70
4
71
1
72
4
73
2
40
0
40
0
40
1
40
1
41
1
10
153.586100826238
20
29.8999903415775
30
0
41
1
10
153.607794453215
20
29.4931690010627
30
0
0
SPLINE
5
23A
100
AcDbEntity
8
1
62
256
6
ByLayer
370
-1
48
1
60
0
100
AcDbSpline
70
4
71
3
72
8
73
4
40
0
40
0
40
0
40
0
40
1
40
1
40
1
40
1
41
1
10
169.840151550828
20
30.3404635154749
30
0
41
1
10
169.738154872655
20
30.4359340601567
30
0
41
1
10
169.611793318518
20
30.5033764947219
30
0
41
1
10
169.475905068676
20
30.5348766061524
30
0
0
SPLINE
5
23B
100
AcDbEntity
8
1
62
256
6
ByLayer
370
-1
48
1
60
0
100
AcDbSpline
70
4
71
3
72
20
73
16
40
0
40
0
40
0
40
0
40
0.0006369940731756
40
0.0022970655115922
40
0.0039571369500089
40
0.0172377084573421
40
0.0437988514720085
40
0.150043423530674
40
0.362532567648006
40
0.468777139706671
40
0.521899425736004
40
0.575021711765337
40
0.787510855882669
40
0.893755427941334
40
1
40
1
40
1
40
1
41
1
10
170.572697302522
20
12.9845310293521
30
0
41
1
10
170.572694916753
20
12.9847541449902
30
0
41
1
10
170.572677973291
20
12.9855594304852
30
0
41
1
10
170.572622950886
20
12.9869450927046
30
0
41
1
10
170.572425366339
20
12.992746903121
30
0
41
1
10
170.571915858991
20
13.007275366272
30
0
41
1
10
170.570143580722
20
13.0583785986208
30
0
41
1
10
170.565916198939
20
13.1791979141951
30
0
41
1
10
170.560665582412
20
13.3278800880022
30
0
41
1
10
170.556020324512
20
13.4579723274951
30
0
41
1
10
170.553350132685
20
13.5323069488036
30
0
41
1
10
170.54934979806
20
13.6438118160065
30
0
41
1
10
170.544695538966
20
13.773907998045
30
0
41
1
10
170.539397698244
20
13.9225934795603
30
0
41
1
10
170.53675078525
20
13.9969364962408
30
0
41
1
10
170.535432956253
20
14.0341079578695
30
0
0
SPLINE
5
23C
100
AcDbEntity
8
1
62
256
6
ByLayer
370
-1
48
1
60
0
100
AcDbSpline
70
4
71
1
72
4
73
2
40
0
40
0
40
1
40
1
41
1
10
154.199357937182
20
12.4938694965868
30
0
41
1
10
154.208773973697
20
12.2718856886897
30
0
0
SPLINE
5
23D
100
AcDbEntity
8
1
62
256
6
ByLayer
370
-1
48
1
60
0
100
AcDbSpline
70
4
71
3
72
8
73
4
40
0
40
0
40
0
40
0
40
1
40
1
40
1
40
1
41
1
10
152.39845980244
20
29.9572919500569
30
0
41
1
10
152.345386891736
20
29.9544230051853
30
0
41
1
10
152.292335017339
20
29.9511278297923
30
0
41
1
10
152.239315395581
20
29.9474051251012
30
0
0
SPLINE
5
23E
100
AcDbEntity
8
1
62
256
6
ByLayer
370
-1
48
1
60
0
100
AcDbSpline
70
4
71
3
72
8
73
4
40
0
40
0
40
0
40
0
40
1
40
1
40
1
40
1
41
1
10
153.607794453215
20
29.4931690010627
30
0
41
1
10
153.613981087939
20
29.377150825098
30
0
41
1
10
153.618783199126
20
29.257462521139
30
0
41
1
10
153.621992165883
20
29.1393037773139
30
0
0
SPLINE
5
23F
100
AcDbEntity
8
1
62
256
6
ByLayer
370
-1
48
1
60
0
100
AcDbSpline
70
4
71
3
72
8
73
4
40
0
40
0
40
0
40
0
40
1
40
1
40
1
40
1
41
1
10
170.470875453761
20
12.2099018184912
30
0
41
1
10
170.565985644612
20
12.3122910590526
30
0
41
1
10
170.63317238876
20
12.439136245829
30
0
41
1
10
170.664548743935
20
12.5755396630328
30
0
0
SPLINE
5
240
100
AcDbEntity
8
1
62
256
6
ByLayer
370
-1
48
1
60
0
100
AcDbSpline
70
4
71
3
72
10
73
6
40
0
40
0
40
0
40
0
40
0.5
40
0.5
40
1
40
1
40
1
40
1
41
1
10
157.81307276723
20
17.7256923324182
30
0
41
1
10
157.804043414489
20
17.7774113931671
30
0
41
1
10
157.791494762676
20
17.8317574493612
30
0
41
1
10
157.75947682949
20
17.9455243720809
30
0
41
1
10
157.739775477204
20
18.0051126976447
30
0
41
1
10
157.718390141291
20
18.0628815810458
30
0
0
SPLINE
5
241
100
AcDbEntity
8
1
62
256
6
ByLayer
370
-1
48
1
60
0
100
AcDbSpline
70
4
71
3
72
97
73
93
40
0
40
0
40
0
40
0
40
0.03125
40
0.0625
40
0.125
40
0.140625
40
0.15625
40
0.1875
40
0.25
40
0.28125
40
0.2890625
40
0.29296875
40
0.29345703125
40
0.2939453125
40
0.294189453125
40
0.29443359375
40
0.294921875
40
0.296875
40
0.3046875
40
0.3125
40
0.3203125
40
0.328125
40
0.34375
40
0.359375
40
0.3671875
40
0.37109375
40
0.375
40
0.37548828125
40
0.3759765625
40
0.376953125
40
0.37744140625
40
0.3779296875
40
0.37890625
40
0.380859375
40
0.3828125
40
0.38671875
40
0.390625
40
0.3984375
40
0.400390625
40
0.4013671875
40
0.40234375
40
0.40625
40
0.4375
40
0.453125
40
0.46875
40
0.484375
40
0.4921875
40
0.49609375
40
0.498046875
40
0.4990234375
40
0.49951171875
40
0.5
40
0.50048828125
40
0.5009765625
40
0.501953125
40
0.50390625
40
0.5078125
40
0.515625
40
0.53125
40
0.546875
40
0.5625
40
0.59375
40
0.595703125
40
0.59765625
40
0.5986328125
40
0.599609375
40
0.6015625
40
0.609375
40
0.6171875
40
0.62109375
40
0.623046875
40
0.6240234375
40
0.625
40
0.62548828125
40
0.6328125
40
0.640625
40
0.65625
40
0.6640625
40
0.671875
40
0.6875
40
0.703125
40
0.705078125
40
0.70556640625
40
0.705810546875
40
0.7060546875
40
0.70654296875
40
0.70703125
40
0.7109375
40
0.71875
40
0.75
40
0.875
40
1
40
1
40
1
40
1
41
1
10
154.133485943668
20
13.3101026130605
30
0
41
1
10
154.131042403496
20
13.3100169568095
30
0
41
1
10
154.126151136376
20
13.3099664383251
30
0
41
1
10
154.116375393487
20
13.3103470767863
30
0
41
1
10
154.107861426342
20
13.3113103648518
30
0
41
1
10
154.100636309037
20
13.3125833905024
30
0
41
1
10
154.095841767826
20
13.313550607582
30
0
41
1
10
154.087517091746
20
13.3155523922466
30
0
41
1
10
154.078187733718
20
13.3185376648558
30
0
41
1
10
154.07081319678
20
13.321515111534
30
0
41
1
10
154.067733990906
20
13.322869850939
30
0
41
1
10
154.066862789981
20
13.3232627732094
30
0
41
1
10
154.066514852908
20
13.3234211465033
30
0
41
1
10
154.066427898873
20
13.3234608067122
30
0
41
1
10
154.066358353816
20
13.3234925749956
30
0
41
1
10
154.066288820882
20
13.3235243700183
30
0
41
1
10
154.066097655367
20
13.3236119166096
30
0
41
1
10
154.065368388763
20
13.3239475884396
30
0
41
1
10
154.064122622017
20
13.3245326322872
30
0
41
1
10
154.06247124445
20
13.3253330621733
30
0
41
1
10
154.060829759981
20
13.326153741198
30
0
41
1
10
154.058654635938
20
13.3272748157034
30
0
41
1
10
154.055961705314
20
13.3287261702612
30
0
41
1
10
154.053305062846
20
13.3302433914933
30
0
41
1
10
154.05146533358
20
13.3313395983656
30
0
41
1
10
154.050419875443
20
13.3319756988678
30
0
41
1
10
154.049866557533
20
13.332317050636
30
0
41
1
10
154.049541772491
20
13.332518974946
30
0
41
1
10
154.049411920419
20
13.3325998449843
30
0
41
1
10
154.049282161374
20
13.3326808654116
30
0
41
1
10
154.049152495568
20
13.3327620360634
30
0
41
1
10
154.049022891995
20
13.33284330681
30
0
41
1
10
154.048796249287
20
13.3329857932214
30
0
41
1
10
154.048472942338
20
13.3331900947142
30
0
41
1
10
154.047956654941
20
13.333518572475
30
0
41
1
10
154.047313186262
20
13.3339321544158
30
0
41
1
10
154.04628770622
20
13.3346002248773
30
0
41
1
10
154.045395800943
20
13.3351930700702
30
0
41
1
10
154.044698610205
20
13.3356642524759
30
0
41
1
10
154.04444547987
20
13.3358361766306
30
0
41
1
10
154.044066178796
20
13.3360946473025
30
0
41
1
10
154.041733249519
20
13.3376975497429
30
0
41
1
10
154.038516738731
20
13.3400409366068
30
0
41
1
10
154.034667063524
20
13.3430684859739
30
0
41
1
10
154.031836119386
20
13.3454094902075
30
0
41
1
10
154.029525391675
20
13.3474178220331
30
0
41
1
10
154.027934057686
20
13.3488532493074
30
0
41
1
10
154.027145030717
20
13.3495782879612
30
0
41
1
10
154.026752189261
20
13.3499426293256
30
0
41
1
10
154.026556188043
20
13.3501252543652
30
0
41
1
10
154.026444307421
20
13.3502297411824
30
0
41
1
10
154.026360457046
20
13.3503081710801
30
0
41
1
10
154.026276666816
20
13.3503866657214
30
0
41
1
10
154.026165026761
20
13.3504914115002
30
0
41
1
10
154.025969867483
20
13.3506749428595
30
0
41
1
10
154.025580393453
20
13.3510429091397
30
0
41
1
10
154.024804833488
20
13.3517824445514
30
0
41
1
10
154.023267345923
20
13.3532758356164
30
0
41
1
10
154.021110341769
20
13.3554496454667
30
0
41
1
10
154.018586449952
20
13.3581211807704
30
0
41
1
10
154.015309228453
20
13.3617649565057
30
0
41
1
10
154.012854271368
20
13.3647048274113
30
0
41
1
10
154.011142772993
20
13.3668663949724
30
0
41
1
10
154.010905983454
20
13.3671673429909
30
0
41
1
10
154.010717104392
20
13.3674085379587
30
0
41
1
10
154.010528594186
20
13.3676500234193
30
0
41
1
10
154.010011714613
20
13.3683153044802
30
0
41
1
10
154.009174243066
20
13.3694104456749
30
0
41
1
10
154.00825868283
20
13.3706386501736
30
0
41
1
10
154.007625726592
20
13.3715042771575
30
0
41
1
10
154.007311242453
20
13.3719385502129
30
0
41
1
10
154.007132108367
20
13.3721871216346
30
0
41
1
10
154.007020387835
20
13.3723426515133
30
0
41
1
10
154.006618838053
20
13.3729030245592
30
0
41
1
10
154.005911082027
20
13.3739036517684
30
0
41
1
10
154.004541160126
20
13.3758901661938
30
0
41
1
10
154.003186692968
20
13.3779337327858
30
0
41
1
10
154.001869980727
20
13.380001858976
30
0
41
1
10
154.000578623556
20
13.3820860380341
30
0
41
1
10
153.999012314964
20
13.3847207606132
30
0
41
1
10
153.99773601237
20
13.3869923458891
30
0
41
1
10
153.997058646329
20
13.3882377548913
30
0
41
1
10
153.996958310294
20
13.3884230762376
30
0
41
1
10
153.996921863045
20
13.3884904868413
30
0
41
1
10
153.996885441523
20
13.3885579114506
30
0
41
1
10
153.996839962869
20
13.3886422184546
30
0
41
1
10
153.996658305692
20
13.3889795862341
30
0
41
1
10
153.996207060201
20
13.3898245758246
30
0
41
1
10
153.994645968964
20
13.39281351248
30
0
41
1
10
153.989035232614
20
13.4044070917984
30
0
41
1
10
153.981882059362
20
13.4254095615639
30
0
41
1
10
153.979274084363
20
13.4449648162159
30
0
41
1
10
153.978932763151
20
13.454776312608
30
0
0
SPLINE
5
242
100
AcDbEntity
8
1
62
256
6
ByLayer
370
-1
48
1
60
0
100
AcDbSpline
70
4
71
1
72
4
73
2
40
0
40
0
40
1
40
1
41
1
10
152.125314019773
20
27.8973307245768
30
0
41
1
10
151.712499584485
20
27.8831242103204
30
0
0
SPLINE
5
243
100
AcDbEntity
8
1
62
256
6
ByLayer
370
-1
48
1
60
0
100
AcDbSpline
70
4
71
1
72
4
73
2
40
0
40
0
40
1
40
1
41
1
10
154.22580798813
20
11.5111991244261
30
0
41
1
10
154.230047171434
20
11.4112600417242
30
0
0
SPLINE
5
244
100
AcDbEntity
8
1
62
256
6
ByLayer
370
-1
48
1
60
0
100
AcDbSpline
70
4
71
3
72
8
73
4
40
0
40
0
40
0
40
0
40
1
40
1
40
1
40
1
41
1
10
169.850997834027
20
11.9599402181329
30
0
41
1
10
169.904070361573
20
11.9628091630046
30
0
41
1
10
169.957121630607
20
11.9661043383976
30
0
41
1
10
170.01014216268
20
11.9698270430887
30
0
0
SPLINE
5
245
100
AcDbEntity
8
1
62
256
6
ByLayer
370
-1
48
1
60
0
100
AcDbSpline
70
4
71
3
72
15
73
11
40
0
40
0
40
0
40
0
40
0.250244249035881
40
0.500488498071762
40
0.750732747107644
40
0.875854871625584
40
0.938415933884555
40
0.96969646501404
40
0.985336730578782
40
1
40
1
40
1
40
1
41
1
10
152.304132005024
20
11.9630388547988
30
0
41
1
10
152.294679000939
20
11.9601151377516
30
0
41
1
10
152.275772992769
20
11.9542677036571
30
0
41
1
10
152.247419467145
20
11.9454982494745
30
0
41
1
10
152.223765010402
20
11.9381821690202
30
0
41
1
10
152.207263402997
20
11.9330783913805
30
0
41
1
10
152.198930299807
20
11.9305010481747
30
0
41
1
10
152.194887197443
20
11.9292505581508
30
0
41
1
10
152.192396798717
20
11.9284803034103
30
0
41
1
10
152.191803590002
20
11.9282968300489
30
0
41
1
10
152.190684291927
20
11.9279506426537
30
0
0
SPLINE
5
246
100
AcDbEntity
8
1
62
256
6
ByLayer
370
-1
48
1
60
0
100
AcDbSpline
70
4
71
3
72
15
73
11
40
0
40
0
40
0
40
0
40
0.250244249035892
40
0.500488498071785
40
0.750732747107677
40
0.875854871625623
40
0.938415933884596
40
0.969696465014083
40
0.985336730578826
40
1
40
1
40
1
40
1
41
1
10
169.943557887014
20
29.954193313391
30
0
41
1
10
169.953158197482
20
29.9571170304383
30
0
41
1
10
169.972358818418
20
29.9629644645327
30
0
41
1
10
170.00115417769
20
29.9717339187154
30
0
41
1
10
170.025177242383
20
29.9790499991697
30
0
41
1
10
170.04193599472
20
29.9841537768094
30
0
41
1
10
170.050398952851
20
29.9867311200152
30
0
41
1
10
170.054505058973
20
29.9879816100391
30
0
41
1
10
170.05703426564
20
29.9887518647796
30
0
41
1
10
170.057636718341
20
29.988935338141
30
0
41
1
10
170.058773458463
20
29.9892815255362
30
0
0
SPLINE
5
247
100
AcDbEntity
8
1
62
256
6
ByLayer
370
-1
48
1
60
0
100
AcDbSpline
70
4
71
3
72
28
73
24
40
0
40
0
40
0
40
0
40
0.125
40
0.125
40
0.249999999999999
40
0.249999999999999
40
0.374999999999999
40
0.374999999999999
40
0.437499999999999
40
0.437499999999999
40
0.499999999999999
40
0.499999999999999
40
0.562499999999998
40
0.562499999999998
40
0.624999999999998
40
0.624999999999998
40
0.687499999999998
40
0.687499999999998
40
0.749999999999998
40
0.749999999999998
40
0.874999999999999
40
0.874999999999999
40
1
40
1
40
1
40
1
41
1
10
170.702992824918
20
-14.8589495562156
30
0
41
1
10
170.708358116654
20
-14.892579351421
30
0
41
1
10
170.712338892379
20
-14.9274724540812
30
0
41
1
10
170.716144686466
20
-15.0010022055102
30
0
41
1
10
170.716051219822
20
-15.0395668952615
30
0
41
1
10
170.708501655842
20
-15.1232631569716
30
0
41
1
10
170.701265774403
20
-15.1678756426323
30
0
41
1
10
170.678850833962
20
-15.2410177110972
30
0
41
1
10
170.669143898085
20
-15.2670179381543
30
0
41
1
10
170.644185554885
20
-15.3194213488016
30
0
41
1
10
170.628609708979
20
-15.3462448801002
30
0
41
1
10
170.592864592395
20
-15.3958460509144
30
0
41
1
10
170.572653941013
20
-15.4186975056838
30
0
41
1
10
170.53142251957
20
-15.4577241298697
30
0
41
1
10
170.51099460536
20
-15.4736179773984
30
0
41
1
10
170.470651386981
20
-15.5008063397368
30
0
41
1
10
170.450927695133
20
-15.5119255813189
30
0
41
1
10
170.412893265165
20
-15.5306253198233
30
0
41
1
10
170.394414102505
20
-15.5382899283559
30
0
41
1
10
170.340096187205
20
-15.5578016224256
30
0
41
1
10
170.305662108206
20
-15.5661180354613
30
0
41
1
10
170.239668500422
20
-15.5773890987257
30
0
41
1
10
170.207951773619
20
-15.5803101644719
30
0
41
1
10
170.177096277963
20
-15.5814339582319
30
0
0
SPLINE
5
248
100
AcDbEntity
8
1
62
256
6
ByLayer
370
-1
48
1
60
0
100
AcDbSpline
70
4
71
3
72
8
73
4
40
0
40
0
40
0
40
0
40
1
40
1
40
1
40
1
41
1
10
170.08521890452
20
-2.36257531473322
30
0
41
1
10
170.102257322153
20
-2.40930066738392
30
0
41
1
10
170.112080141148
20
-2.45749131199676
30
0
41
1
10
170.114687361504
20
-2.50714724857292
30
0
0
SPLINE
5
249
100
AcDbEntity
8
1
62
256
6
ByLayer
370
-1
48
1
60
0
100
AcDbSpline
70
4
71
3
72
8
73
4
40
0
40
0
40
0
40
0
40
1
40
1
40
1
40
1
41
1
10
169.069272515421
20
-11.059104591488
30
0
41
1
10
169.06963435142
20
-11.0488302957641
30
0
41
1
10
169.069996176436
20
-11.0385559982345
30
0
41
1
10
169.070357990417
20
-11.0282816988913
30
0
0
SPLINE
5
24A
100
AcDbEntity
8
1
62
256
6
ByLayer
370
-1
48
1
60
0
100
AcDbSpline
70
4
71
3
72
10
73
6
40
0
40
0
40
0
40
0
40
0.5
40
0.5
40
1
40
1
40
1
40
1
41
1
10
169.808568790979
20
-2.27992875878081
30
0
41
1
10
169.817858622076
20
-2.30178130269016
30
0
41
1
10
169.82593738564
20
-2.32656936193166
30
0
41
1
10
169.836212532277
20
-2.37689907847647
30
0
41
1
10
169.838325764063
20
-2.4021665821345
30
0
41
1
10
169.838037247963
20
-2.42450069262077
30
0
0
SPLINE
5
24B
100
AcDbEntity
8
1
62
256
6
ByLayer
370
-1
48
1
60
0
100
AcDbSpline
70
4
71
3
72
20
73
16
40
0
40
0
40
0
40
0
40
0.250000000000019
40
0.250000000000019
40
0.500000000000037
40
0.500000000000037
40
0.625000000000028
40
0.625000000000028
40
0.750000000000018
40
0.750000000000018
40
0.875000000000009
40
0.875000000000009
40
0.937500000000005
40
0.937500000000005
40
1
40
1
40
1
40
1
41
1
10
170.177096277963
20
-15.5814339582328
30
0
41
1
10
170.117350057551
20
-15.5836099864655
30
0
41
1
10
170.055142995358
20
-15.5869474992215
30
0
41
1
10
169.922428533064
20
-15.5975401736012
30
0
41
1
10
169.85251664791
20
-15.6046960122801
30
0
41
1
10
169.737797376911
20
-15.6207481925856
30
0
41
1
10
169.697875223387
20
-15.6270013437916
30
0
41
1
10
169.61286415539
20
-15.642279056675
30
0
41
1
10
169.568148672264
20
-15.6512351604292
30
0
41
1
10
169.472858300059
20
-15.6730688933424
30
0
41
1
10
169.421833012128
20
-15.6860908113773
30
0
41
1
10
169.342432596587
20
-15.7091563129405
30
0
41
1
10
169.31536138749
20
-15.7174631248638
30
0
41
1
10
169.259762410167
20
-15.7355668236289
30
0
41
1
10
169.231221123583
20
-15.7453866606928
30
0
41
1
10
169.203249860076
20
-15.7555483789529
30
0
0
SPLINE
5
24C
100
AcDbEntity
8
1
62
256
6
ByLayer
370
-1
48
1
60
0
100
AcDbSpline
70
4
71
3
72
20
73
16
40
0
40
0
40
0
40
0
40
0.0624999999999983
40
0.0624999999999983
40
0.124999999999997
40
0.124999999999997
40
0.249999999999996
40
0.249999999999996
40
0.374999999999996
40
0.374999999999996
40
0.499999999999996
40
0.499999999999996
40
0.749999999999998
40
0.749999999999998
40
1
40
1
40
1
40
1
41
1
10
170.622545918307
20
-13.8056986036448
30
0
41
1
10
170.621497504083
20
-13.8356652605842
30
0
41
1
10
170.620798850618
20
-13.8659870092056
30
0
41
1
10
170.620097264694
20
-13.9252138456094
30
0
41
1
10
170.620082012801
20
-13.9544297289328
30
0
41
1
10
170.620923085393
20
-14.0410267022434
30
0
41
1
10
170.622628142771
20
-14.0951562932809
30
0
41
1
10
170.627415682723
20
-14.1975992319314
30
0
41
1
10
170.630531997664
20
-14.2462979964445
30
0
41
1
10
170.637481333398
20
-14.3375739948083
30
0
41
1
10
170.641339571598
20
-14.3806095530764
30
0
41
1
10
170.653670102857
20
-14.5045881769839
30
0
41
1
10
170.662881440111
20
-14.580516989219
30
0
41
1
10
170.68234753752
20
-14.7252952172608
30
0
41
1
10
170.692538627513
20
-14.7934223612314
30
0
41
1
10
170.702992824918
20
-14.8589495562156
30
0
0
SPLINE
5
24D
100
AcDbEntity
8
1
62
256
6
ByLayer
370
-1
48
1
60
0
100
AcDbSpline
70
4
71
3
72
22
73
18
40
0
40
0
40
0
40
0
40
0.0356676293746645
40
0.0356676293746645
40
0.142815670555258
40
0.142815670555258
40
0.24996371173585
40
0.24996371173585
40
0.357111752916443
40
0.357111752916443
40
0.464259794097036
40
0.464259794097036
40
0.571407835277629
40
0.571407835277629
40
0.785703917638814
40
0.785703917638814
40
1
40
1
40
1
40
1
41
1
10
168.533444687003
20
0.99522833592431
30
0
41
1
10
168.541796525732
20
0.991386614764139
30
0
41
1
10
168.550247976541
20
0.987282836511866
30
0
41
1
10
168.584301803492
20
0.969747134977354
30
0
41
1
10
168.610755359219
20
0.953781024377633
30
0
41
1
10
168.660410962413
20
0.918064394311813
30
0
41
1
10
168.683685644706
20
0.898271255418109
30
0
41
1
10
168.72414991029
20
0.858478906272893
30
0
41
1
10
168.741016386296
20
0.839030263341101
30
0
41
1
10
168.770444295865
20
0.800946951443905
30
0
41
1
10
168.782823318445
20
0.782496739882646
30
0
41
1
10
168.804161341255
20
0.747131736385199
30
0
41
1
10
168.813216021054
20
0.73006022355159
30
0
41
1
10
168.837044887595
20
0.68011634894458
30
0
41
1
10
168.848408674045
20
0.648772674106766
30
0
41
1
10
168.865882581765
20
0.589072409798547
30
0
41
1
10
168.871978415364
20
0.560578238979588
30
0
41
1
10
168.876326078649
20
0.532996055299577
30
0
0
SPLINE
5
24E
100
AcDbEntity
8
1
62
256
6
ByLayer
370
-1
48
1
60
0
100
AcDbSpline
70
4
71
3
72
14
73
10
40
0
40
0
40
0
40
0
40
0.250000000000002
40
0.250000000000002
40
0.500000000000004
40
0.500000000000004
40
0.750000000000002
40
0.750000000000002
40
1
40
1
40
1
40
1
41
1
10
170.872129498651
20
-15.0677812461715
30
0
41
1
10
170.869361540541
20
-15.1468973524512
30
0
41
1
10
170.85479424022
20
-15.2252003615569
30
0
41
1
10
170.803272984669
20
-15.3745534320678
30
0
41
1
10
170.766272396589
20
-15.4454683781881
30
0
41
1
10
170.673345193717
20
-15.5731207823171
30
0
41
1
10
170.617131082972
20
-15.6302088038217
30
0
41
1
10
170.490870402512
20
-15.7251545258294
30
0
41
1
10
170.420762101302
20
-15.7631898523355
30
0
41
1
10
170.346232951696
20
-15.7902656481879
30
0
0
SPLINE
5
24F
100
AcDbEntity
8
1
62
256
6
ByLayer
370
-1
48
1
60
0
100
AcDbSpline
70
4
71
3
72
10
73
6
40
0
40
0
40
0
40
0
40
0.5
40
0.5
40
1
40
1
40
1
40
1
41
1
10
169.84364969775
20
-2.70463724365484
30
0
41
1
10
169.84101346512
20
-2.65442875245998
30
0
41
1
10
169.839331476383
20
-2.6061008611282
30
0
41
1
10
169.837561184293
20
-2.51258587353487
30
0
41
1
10
169.837487274263
20
-2.46707430770627
30
0
41
1
10
169.838037247963
20
-2.42450069262102
30
0
0
SPLINE
5
250
100
AcDbEntity
8
1
62
256
6
ByLayer
370
-1
48
1
60
0
100
AcDbSpline
70
4
71
3
72
20
73
16
40
0
40
0
40
0
40
0
40
0.250000000000004
40
0.250000000000004
40
0.500000000000009
40
0.500000000000009
40
0.625000000000007
40
0.625000000000007
40
0.750000000000005
40
0.750000000000005
40
0.875000000000003
40
0.875000000000003
40
0.937500000000001
40
0.937500000000001
40
1
40
1
40
1
40
1
41
1
10
168.87632607865
20
0.532996055298867
30
0
41
1
10
168.884744561109
20
0.479588025690845
30
0
41
1
10
168.89424125462
20
0.423638459716159
30
0
41
1
10
168.916871411851
20
0.303166809692726
30
0
41
1
10
168.929867985586
20
0.23920181812386
30
0
41
1
10
168.954135551445
20
0.13286664334143
30
0
41
1
10
168.963035822721
20
0.0956494719510204
30
0
41
1
10
168.98332725855
20
0.0157728420594765
30
0
41
1
10
168.994628368954
20
-0.0265353098758681
30
0
41
1
10
169.020586737521
20
-0.117571728264551
30
0
41
1
10
169.035394731207
20
-0.166743387989953
30
0
41
1
10
169.060349681523
20
-0.244152803009769
30
0
41
1
10
169.069160093458
20
-0.270686352027639
30
0
41
1
10
169.087966822452
20
-0.325513674163261
30
0
41
1
10
169.097980370238
20
-0.353826692057254
30
0
41
1
10
169.108161077569
20
-0.381745783519591
30
0
0
SPLINE
5
251
100
AcDbEntity
8
1
62
256
6
ByLayer
370
-1
48
1
60
0
100
AcDbSpline
70
4
71
3
72
12
73
8
40
0
40
0
40
0
40
0
40
0.148515300896682
40
0.148515300896682
40
0.574257650448341
40
0.574257650448341
40
1
40
1
40
1
40
1
41
1
10
168.648343844478
20
1.03353111298986
30
0
41
1
10
168.672237441885
20
1.01972712358105
30
0
41
1
10
168.695408310515
20
1.00469845446281
30
0
41
1
10
168.781660423491
20
0.942143458077766
30
0
41
1
10
168.838855124642
20
0.886034197981076
30
0
41
1
10
168.933978270492
20
0.760009019141791
30
0
41
1
10
168.97208467312
20
0.690031484045903
30
0
41
1
10
168.999211065162
20
0.615641346327578
30
0
0
SPLINE
5
252
100
AcDbEntity
8
1
62
256
6
ByLayer
370
-1
48
1
60
0
100
AcDbSpline
70
4
71
3
72
10
73
6
40
0
40
0
40
0
40
0
40
0.5
40
0.5
40
1
40
1
40
1
40
1
41
1
10
169.70225710473
20
-2.01096669909543
30
0
41
1
10
169.719182438663
20
-2.05738193634295
30
0
41
1
10
169.737137521074
20
-2.10448141462487
30
0
41
1
10
169.772784754372
20
-2.19441756071563
30
0
41
1
10
169.790879401051
20
-2.23831786552364
30
0
41
1
10
169.808568790979
20
-2.27992875878078
30
0
0
SPLINE
5
253
100
AcDbEntity
8
SK1
62
256
6
ByLayer
370
-1
48
1
60
0
100
AcDbSpline
70
4
71
3
72
8
73
4
40
0
40
0
40
0
40
0
40
1
40
1
40
1
40
1
41
1
10
-67.6338144512152
20
8.29060283092377
30
0
41
1
10
-67.2932836983815
20
8.56864972917003
30
0
41
1
10
-66.9484012097206
20
8.83881772536409
30
0
41
1
10
-66.6
20
9.10261500888626
30
0
0
SPLINE
5
254
100
AcDbEntity
8
SK1
62
256
6
ByLayer
370
-1
48
1
60
0
100
AcDbSpline
70
4
71
3
72
8
73
4
40
0
40
0
40
0
40
0
40
1
40
1
40
1
40
1
41
1
10
-66.6
20
-9.10261500888609
30
0
41
1
10
-66.9484012097206
20
-8.83881772536392
30
0
41
1
10
-67.2932836983816
20
-8.56864972916986
30
0
41
1
10
-67.6338144512153
20
-8.2906028309236
30
0
0
SPLINE
5
255
100
AcDbEntity
8
SK1
62
256
6
ByLayer
370
-1
48
1
60
0
100
AcDbSpline
70
4
71
3
72
72
73
68
40
0
40
0
40
0
40
0
40
0.0156250000000003
40
0.0156250000000003
40
0.0312500000000005
40
0.0312500000000005
40
0.0468750000000008
40
0.0468750000000008
40
0.062500000000001
40
0.062500000000001
40
0.0937500000000014
40
0.0937500000000014
40
0.109375000000002
40
0.109375000000002
40
0.125000000000002
40
0.125000000000002
40
0.156250000000002
40
0.156250000000002
40
0.187500000000002
40
0.187500000000002
40
0.218750000000001
40
0.218750000000001
40
0.250000000000001
40
0.250000000000001
40
0.312500000000001
40
0.312500000000001
40
0.375000000000002
40
0.375000000000002
40
0.406250000000002
40
0.406250000000002
40
0.437500000000002
40
0.437500000000002
40
0.500000000000002
40
0.500000000000002
40
0.562500000000002
40
0.562500000000002
40
0.625000000000002
40
0.625000000000002
40
0.687500000000002
40
0.687500000000002
40
0.718750000000002
40
0.718750000000002
40
0.750000000000002
40
0.750000000000002
40
0.812500000000002
40
0.812500000000002
40
0.843750000000001
40
0.843750000000001
40
0.859375000000001
40
0.859375000000001
40
0.875000000000001
40
0.875000000000001
40
0.906250000000001
40
0.906250000000001
40
0.921875000000001
40
0.921875000000001
40
0.937500000000001
40
0.937500000000001
40
0.953125000000001
40
0.953125000000001
40
0.96875
40
0.96875
40
0.9765625
40
0.9765625
40
0.984375
40
0.984375
40
1
40
1
40
1
40
1
41
1
10
-6.5
20
-9.10261500888618
30
0
41
1
10
-6.38914660019725
20
-9.10261500888618
30
0
41
1
10
-6.27612961385466
20
-9.09015098385046
30
0
41
1
10
-6.05985917895461
20
-9.04281130004992
30
0
41
1
10
-5.95475985097423
20
-9.00792576349431
30
0
41
1
10
-5.75343258145492
20
-8.91941414226187
30
0
41
1
10
-5.65919810333844
20
-8.86684398682266
30
0
41
1
10
-5.48088894318994
20
-8.74834825662376
30
0
41
1
10
-5.39640443529882
20
-8.68198569080923
30
0
41
1
10
-5.15892238475899
20
-8.4684605676342
30
0
41
1
10
-5.02365441240056
20
-8.30974008062717
30
0
41
1
10
-4.84296399719619
20
-8.05482884459988
30
0
41
1
10
-4.78642322072847
20
-7.96675301550394
30
0
41
1
10
-4.68042079967142
20
-7.78654390286022
30
0
41
1
10
-4.63122526195846
20
-7.69491452027412
30
0
41
1
10
-4.49299887645103
20
-7.41608134345648
30
0
41
1
10
-4.41323038468988
20
-7.22496300624556
30
0
41
1
10
-4.27152687943763
20
-6.8343560263894
30
0
41
1
10
-4.20965906429049
20
-6.6348461887967
30
0
41
1
10
-4.09961007502051
20
-6.2286775881141
30
0
41
1
10
-4.05150917072524
20
-6.02203194443632
30
0
41
1
10
-3.96692144189856
20
-5.6074574550413
30
0
41
1
10
-3.93025488815388
20
-5.39884469275898
30
0
41
1
10
-3.83321097175369
20
-4.76942146087168
30
0
41
1
10
-3.78559277520367
20
-4.34504706257979
30
0
41
1
10
-3.7112361899147
20
-3.48808137992401
30
0
41
1
10
-3.68460707386046
20
-3.05547999795235
30
0
41
1
10
-3.65470782442822
20
-2.40091890566339
30
0
41
1
10
-3.64643900603767
20
-2.18145148399697
30
0
41
1
10
-3.63274891948819
20
-1.74230735687166
30
0
41
1
10
-3.62733252136272
20
-1.52296705685933
30
0
41
1
10
-3.61463310465442
20
-0.865617065631682
30
0
41
1
10
-3.61080933488054
20
-0.428275684574771
30
0
41
1
10
-3.61090950897167
20
0.444684991040077
30
0
41
1
10
-3.61483745040269
20
0.88030412472645
30
0
41
1
10
-3.63179619285316
20
1.74979970758309
30
0
41
1
10
-3.64481102904037
20
2.18367646184913
30
0
41
1
10
-3.68431141261161
20
3.04958358359085
30
0
41
1
10
-3.71074384326306
20
3.48161507013518
30
0
41
1
10
-3.76673696017031
20
4.12812283873399
30
0
41
1
10
-3.78821526595235
20
4.34375014492497
30
0
41
1
10
-3.83787895821774
20
4.77101649951717
30
0
41
1
10
-3.86607610819138
20
4.9829568382882
30
0
41
1
10
-3.96342969061479
20
5.61325776204001
30
0
41
1
10
-4.04484226281082
20
6.02618785295124
30
0
41
1
10
-4.20877761048993
20
6.63176810724454
30
0
41
1
10
-4.27047938114893
20
6.83131020667685
30
0
41
1
10
-4.37747378301123
20
7.1264778598424
30
0
41
1
10
-4.41562361112287
20
7.22427655673613
30
0
41
1
10
-4.49679279030673
20
7.41629459142595
30
0
41
1
10
-4.5398877733324
20
7.51074836914336
30
0
41
1
10
-4.67791145216944
20
7.78892537172752
30
0
41
1
10
-4.78135481362554
20
7.96756739375849
30
0
41
1
10
-4.96130737226687
20
8.22195198147358
30
0
41
1
10
-5.02546297402537
20
8.30446540137604
30
0
41
1
10
-5.16438164479459
20
8.46391044858186
30
0
41
1
10
-5.23841496286948
20
8.53994273964545
30
0
41
1
10
-5.39629023089529
20
8.68187427767452
30
0
41
1
10
-5.4804954947721
20
8.74813957968226
30
0
41
1
10
-5.66096910628903
20
8.86796771603022
30
0
41
1
10
-5.75541196182655
20
8.92033547523616
30
0
41
1
10
-5.90448373735469
20
8.98579651940287
30
0
41
1
10
-5.95541416893875
20
9.00542573092372
30
0
41
1
10
-6.06002939197239
20
9.03984379515771
30
0
41
1
10
-6.1141052041134
20
9.05470732343474
30
0
41
1
10
-6.277583542549
20
9.09042477028081
30
0
41
1
10
-6.38802552881097
20
9.10261500888618
30
0
41
1
10
-6.5
20
9.10261500888618
30
0
0
SPLINE
5
256
100
AcDbEntity
8
SK1
62
256
6
ByLayer
370
-1
48
1
60
0
100
AcDbSpline
70
4
71
3
72
20
73
16
40
0
40
0
40
0
40
0
40
0.125000000000019
40
0.125000000000019
40
0.187500000000028
40
0.187500000000028
40
0.250000000000038
40
0.250000000000038
40
0.375000000000024
40
0.375000000000024
40
0.50000000000001
40
0.50000000000001
40
0.750000000000005
40
0.750000000000005
40
1
40
1
40
1
40
1
41
1
10
-67.6338144512151
20
-8.29060283092329
30
0
41
1
10
-67.6746000935235
20
-8.25730093016261
30
0
41
1
10
-67.7199836490945
20
-8.22876323292448
30
0
41
1
10
-67.7948550962205
20
-8.20056981372309
30
0
41
1
10
-67.8205420829085
20
-8.19379354056497
30
0
41
1
10
-67.8728129362724
20
-8.18630243082055
30
0
41
1
10
-67.8998340844743
20
-8.1856286499503
30
0
41
1
10
-67.9787783127119
20
-8.19310764466417
30
0
41
1
10
-68.0301252704948
20
-8.21095104743222
30
0
41
1
10
-68.1222359195847
20
-8.26210721442101
30
0
41
1
10
-68.1643255549633
20
-8.29567338223035
30
0
41
1
10
-68.2768770736766
20
-8.40615789436035
30
0
41
1
10
-68.3371994967397
20
-8.49473748926303
30
0
41
1
10
-68.4387470357031
20
-8.67793923211124
30
0
41
1
10
-68.4804562077026
20
-8.77402168984949
30
0
41
1
10
-68.5162227297291
20
-8.87304222606727
30
0
0
SPLINE
5
257
100
AcDbEntity
8
SK1
62
256
6
ByLayer
370
-1
48
1
60
0
100
AcDbSpline
70
4
71
3
72
8
73
4
40
0
40
0
40
0
40
0
40
1
40
1
40
1
40
1
41
1
10
-68.5162227297291
20
-8.87304222606727
30
0
41
1
10
-68.5439066952102
20
-8.94968599658964
30
0
41
1
10
-68.571834450002
20
-9.02620926996545
30
0
41
1
10
-68.6
20
-9.10261500888612
30
0
0
SPLINE
5
258
100
AcDbEntity
8
SK1
62
256
6
ByLayer
370
-1
48
1
60
0
100
AcDbSpline
70
4
71
3
72
20
73
16
40
0
40
0
40
0
40
0
40
0.249999999999997
40
0.249999999999997
40
0.374999999999998
40
0.374999999999998
40
0.499999999999998
40
0.499999999999998
40
0.624999999999999
40
0.624999999999999
40
0.749999999999999
40
0.749999999999999
40
0.875
40
0.875
40
1
40
1
40
1
40
1
41
1
10
-68.5162227297303
20
8.87304222606696
30
0
41
1
10
-68.4805102229812
20
8.77417123253394
30
0
41
1
10
-68.4382573152345
20
8.67693148618665
30
0
41
1
10
-68.3621710721186
20
8.53985159931514
30
0
41
1
10
-68.3346894685715
20
8.49562896904695
30
0
41
1
10
-68.2739659602408
20
8.41118058772861
30
0
41
1
10
-68.2407881315988
20
8.37091037639976
30
0
41
1
10
-68.1654488761744
20
8.29660337023134
30
0
41
1
10
-68.123541484252
20
8.2629600402953
30
0
41
1
10
-68.0305243323762
20
8.21104725205689
30
0
41
1
10
-67.9795833203366
20
8.19319188549028
30
0
41
1
10
-67.872813969243
20
8.18306085753042
30
0
41
1
10
-67.8196144054522
20
8.19122791676685
30
0
41
1
10
-67.7199392264586
20
8.22879859450236
30
0
41
1
10
-67.6749143258214
20
8.2570443562262
30
0
41
1
10
-67.6338144512151
20
8.29060283092346
30
0
0
SPLINE
5
259
100
AcDbEntity
8
SK1
62
256
6
ByLayer
370
-1
48
1
60
0
100
AcDbSpline
70
4
71
3
72
8
73
4
40
0
40
0
40
0
40
0
40
1
40
1
40
1
40
1
41
1
10
-68.6
20
9.10261500888626
30
0
41
1
10
-68.571834450002
20
9.02620926996562
30
0
41
1
10
-68.5439066952102
20
8.94968599658984
30
0
41
1
10
-68.516222729729
20
8.87304222606744
30
0
0
SPLINE
5
25A
100
AcDbEntity
8
SK1
62
256
6
ByLayer
370
-1
48
1
60
0
100
AcDbSpline
70
4
71
3
72
8
73
4
40
0
40
0
40
0
40
0
40
1
40
1
40
1
40
1
41
1
10
-70
20
6.62311105146222
30
0
41
1
10
-69.7055026821388
20
7.46777015601646
30
0
41
1
10
-69.3687115489839
20
8.29265478028327
30
0
41
1
10
-69
20
9.10261500888626
30
0
0
SPLINE
5
25B
100
AcDbEntity
8
SK1
62
256
6
ByLayer
370
-1
48
1
60
0
100
AcDbSpline
70
4
71
3
72
8
73
4
40
0
40
0
40
0
40
0
40
1
40
1
40
1
40
1
41
1
10
-69
20
-9.10261500888609
30
0
41
1
10
-69.3687115489839
20
-8.2926547802831
30
0
41
1
10
-69.7055026821388
20
-7.46777015601629
30
0
41
1
10
-70
20
-6.62311105146205
30
0
0
LINE
5
45
100
AcDbEntity
8
80
62
256
6
ByLayer
370
-1
48
1
60
0
100
AcDbLine
10
0
20
0
30
0
11
-7
21
0
31
0
39
0
210
0
220
0
230
1
0
LINE
5
46
100
AcDbEntity
8
81
62
256
6
ByLayer
370
-1
48
1
60
0
100
AcDbLine
10
171
20
0
30
0
11
178
21
0
31
0
39
0
210
0
220
0
230
1
0
LINE
5
47
100
AcDbEntity
8
1
62
256
6
ByLayer
370
-1
48
1
60
0
100
AcDbLine
10
0.2
20
31.25
30
0
11
0
21
31.05
31
0
39
0
210
0
220
0
230
1
0
LINE
5
49
100
AcDbEntity
8
1
62
256
6
ByLayer
370
-1
48
1
60
0
100
AcDbLine
10
0
20
-31.05
30
0
11
0.2
21
-31.25
31
0
39
0
210
0
220
0
230
1
0
LINE
5
4A
100
AcDbEntity
8
1
62
256
6
ByLayer
370
-1
48
1
60
0
100
AcDbLine
10
5
20
31.25
30
0
11
0.2
21
31.25
31
0
39
0
210
0
220
0
230
1
0
LINE
5
4B
100
AcDbEntity
8
1
62
256
6
ByLayer
370
-1
48
1
60
0
100
AcDbLine
10
0.2
20
-31.25
30
0
11
5
21
-31.25
31
0
39
0
210
0
220
0
230
1
0
LINE
5
4C
100
AcDbEntity
8
1
62
256
6
ByLayer
370
-1
48
1
60
0
100
AcDbLine
10
59.548713
20
29.6
30
0
11
42
21
29.6
31
0
39
0
210
0
220
0
230
1
0
LINE
5
4D
100
AcDbEntity
8
SK1
62
256
6
ByLayer
370
-1
48
1
60
0
100
AcDbLine
10
-2
20
19.996
30
0
11
-66.6
21
19.996
31
0
39
0
210
0
220
0
230
1
0
LINE
5
4F
100
AcDbEntity
8
SK1
62
256
6
ByLayer
370
-1
48
1
60
0
100
AcDbLine
10
-66.6
20
-19.996
30
0
11
-2
21
-19.996
31
0
39
0
210
0
220
0
230
1
0
LINE
5
50
100
AcDbEntity
8
SK1
62
256
6
ByLayer
370
-1
48
1
60
0
100
AcDbLine
10
-2
20
-19.996
30
0
11
-1.552821
21
-19.787477
31
0
39
0
210
0
220
0
230
1
0
LINE
5
51
100
AcDbEntity
8
SK1
62
256
6
ByLayer
370
-1
48
1
60
0
100
AcDbLine
10
-1.552821
20
19.787477
30
0
11
-2
21
19.996
31
0
39
0
210
0
220
0
230
1
0
LINE
5
52
100
AcDbEntity
8
SK1
62
256
6
ByLayer
370
-1
48
1
60
0
100
AcDbLine
10
-0.15
20
19.75
30
0
11
-1.383773
21
19.75
31
0
39
0
210
0
220
0
230
1
0
LINE
5
53
100
AcDbEntity
8
SK1
62
256
6
ByLayer
370
-1
48
1
60
0
100
AcDbLine
10
-1.383773
20
-19.75
30
0
11
-0.15
21
-19.75
31
0
39
0
210
0
220
0
230
1
0
LINE
5
54
100
AcDbEntity
8
SK1
62
256
6
ByLayer
370
-1
48
1
60
0
100
AcDbLine
10
-69
20
19.996
30
0
11
-70
21
18.996
31
0
39
0
210
0
220
0
230
1
0
LINE
5
55
100
AcDbEntity
8
SK1
62
256
6
ByLayer
370
-1
48
1
60
0
100
AcDbLine
10
-70
20
-18.996
30
0
11
-69
21
-19.996
31
0
39
0
210
0
220
0
230
1
0
LINE
5
56
100
AcDbEntity
8
SK1
62
256
6
ByLayer
370
-1
48
1
60
0
100
AcDbLine
10
-66.6
20
19.996
30
0
11
-67.633814
21
19.639667
31
0
39
0
210
0
220
0
230
1
0
LINE
5
57
100
AcDbEntity
8
SK1
62
256
6
ByLayer
370
-1
48
1
60
0
100
AcDbLine
10
-67.633814
20
-19.639667
30
0
11
-66.6
21
-19.996
31
0
39
0
210
0
220
0
230
1
0
LINE
5
58
100
AcDbEntity
8
SK1
62
256
6
ByLayer
370
-1
48
1
60
0
100
AcDbLine
10
-68.6
20
19.996
30
0
11
-69
21
19.996
31
0
39
0
210
0
220
0
230
1
0
LINE
5
59
100
AcDbEntity
8
SK1
62
256
6
ByLayer
370
-1
48
1
60
0
100
AcDbLine
10
-69
20
-19.996
30
0
11
-68.6
21
-19.996
31
0
39
0
210
0
220
0
230
1
0
LINE
5
5A
100
AcDbEntity
8
SK1
62
256
6
ByLayer
370
-1
48
1
60
0
100
AcDbLine
10
-68.6
20
-19.996
30
0
11
-68.516223
21
-19.892544
31
0
39
0
210
0
220
0
230
1
0
LINE
5
5B
100
AcDbEntity
8
SK1
62
256
6
ByLayer
370
-1
48
1
60
0
100
AcDbLine
10
-68.516223
20
19.892544
30
0
11
-68.6
21
19.996
31
0
39
0
210
0
220
0
230
1
0
LINE
5
5C
100
AcDbEntity
8
SK4
62
256
6
ByLayer
370
-1
48
0.05
60
0
100
AcDbLine
10
171
20
0
30
0
11
-70
21
0
31
0
39
0
210
0
220
0
230
1
0
LINE
5
5E
100
AcDbEntity
8
4
62
256
6
ByLayer
370
-1
48
0.05
60
0
100
AcDbLine
10
171
20
0
30
0
11
0
21
0
31
0
39
0
210
0
220
0
230
1
0
LINE
5
60
100
AcDbEntity
8
1
62
256
6
ByLayer
370
-1
48
1
60
0
100
AcDbLine
10
153.474816
20
27.945943
30
0
11
153.978933
21
13.454776
31
0
39
0
210
0
220
0
230
1
0
LINE
5
61
100
AcDbEntity
8
1
62
256
6
ByLayer
370
-1
48
1
60
0
100
AcDbLine
10
168.6902
20
-29.5631
30
0
11
169.868319
21
-16.280585
31
0
39
0
210
0
220
0
230
1
0
LINE
5
62
100
AcDbEntity
8
1
62
256
6
ByLayer
370
-1
48
1
60
0
100
AcDbLine
10
151.431833
20
12.843076
30
0
11
151.876327
21
12.843076
31
0
39
0
210
0
220
0
230
1
0
LINE
5
63
100
AcDbEntity
8
1
62
256
6
ByLayer
370
-1
48
1
60
0
100
AcDbLine
10
168.680322
20
1.12124
30
0
11
169.446474
21
11.944658
31
0
39
0
210
0
220
0
230
1
0
LINE
5
64
100
AcDbEntity
8
1
62
256
6
ByLayer
370
-1
48
1
60
0
100
AcDbLine
10
154.519277
20
11.207943
30
0
11
168.595134
21
11.701361
31
0
39
0
210
0
220
0
230
1
0
LINE
5
65
100
AcDbEntity
8
1
62
256
6
ByLayer
370
-1
48
1
60
0
100
AcDbLine
10
144.673514
20
13.205344
30
0
11
144.603997
21
13.205344
31
0
39
0
210
0
220
0
230
1
0
LINE
5
66
100
AcDbEntity
8
1
62
256
6
ByLayer
370
-1
48
1
60
0
100
AcDbLine
10
168.595134
20
11.701361
30
0
11
168.921672
21
11.704565
31
0
39
0
210
0
220
0
230
1
0
LINE
5
67
100
AcDbEntity
8
1
62
256
6
ByLayer
370
-1
48
1
60
0
100
AcDbLine
10
169.225153
20
-16.202894
30
0
11
169.868319
21
-16.280585
31
0
39
0
210
0
220
0
230
1
0
LINE
5
68
100
AcDbEntity
8
1
62
256
6
ByLayer
370
-1
48
1
60
0
100
AcDbLine
10
151.579947
20
21.55599
30
0
11
151.323789
21
29.589326
31
0
39
0
210
0
220
0
230
1
0
LINE
5
69
100
AcDbEntity
8
1
62
256
6
ByLayer
370
-1
48
1
60
0
100
AcDbLine
10
168.640902
20
1.01354
30
0
11
168.680322
21
1.12124
31
0
39
0
210
0
220
0
230
1
0
LINE
5
6A
100
AcDbEntity
8
1
62
256
6
ByLayer
370
-1
48
1
60
0
100
AcDbLine
10
168.501975
20
0.420848
30
0
11
168.509518
21
-0.398296
31
0
39
0
210
0
220
0
230
1
0
LINE
5
6B
100
AcDbEntity
8
1
62
256
6
ByLayer
370
-1
48
1
60
0
100
AcDbLine
10
169.258969
20
-14.671998
30
0
11
169.202144
21
-15.31266
31
0
39
0
210
0
220
0
230
1
0
LINE
5
6C
100
AcDbEntity
8
1
62
256
6
ByLayer
370
-1
48
1
60
0
100
AcDbLine
10
42
20
29.6
30
0
11
42
21
-7.564929
31
0
39
0
210
0
220
0
230
1
0
LINE
5
6D
100
AcDbEntity
8
1
62
256
6
ByLayer
370
-1
48
1
60
0
100
AcDbLine
10
168.580877
20
1.168254
30
0
11
168.592786
21
1.167839
31
0
39
0
210
0
220
0
230
1
0
LINE
5
6E
100
AcDbEntity
8
1
62
256
6
ByLayer
370
-1
48
1
60
0
100
AcDbLine
10
169.258969
20
-14.671998
30
0
11
168.221791
21
-14.209859
31
0
39
0
210
0
220
0
230
1
0
LINE
5
6F
100
AcDbEntity
8
1
62
256
6
ByLayer
370
-1
48
1
60
0
100
AcDbLine
10
148.139765
20
19.600294
30
0
11
148.139765
21
29.580531
31
0
39
0
210
0
220
0
230
1
0
LINE
5
70
100
AcDbEntity
8
1
62
256
6
ByLayer
370
-1
48
1
60
0
100
AcDbLine
10
165.545559
20
4.663438
30
0
11
168.595134
21
11.701361
31
0
39
0
210
0
220
0
230
1
0
LINE
5
71
100
AcDbEntity
8
1
62
256
6
ByLayer
370
-1
48
1
60
0
100
AcDbLine
10
145.067389
20
13.93618
30
0
11
140.770136
21
15.856749
31
0
39
0
210
0
220
0
230
1
0
LINE
5
72
100
AcDbEntity
8
1
62
256
6
ByLayer
370
-1
48
1
60
0
100
AcDbLine
10
151.339252
20
29.584114
30
0
11
151.595243
21
21.55599
31
0
39
0
210
0
220
0
230
1
0
LINE
5
73
100
AcDbEntity
8
1
62
256
6
ByLayer
370
-1
48
1
60
0
100
AcDbLine
10
142.951919
20
8.133361
30
0
11
142.218125
21
5.608959
31
0
39
0
210
0
220
0
230
1
0
LINE
5
74
100
AcDbEntity
8
1
62
256
6
ByLayer
370
-1
48
1
60
0
100
AcDbLine
10
150.674615
20
-29.5631
30
0
11
168.6902
21
-29.5631
31
0
39
0
210
0
220
0
230
1
0
LINE
5
75
100
AcDbEntity
8
1
62
256
6
ByLayer
370
-1
48
1
60
0
100
AcDbLine
10
0
20
31.05
30
0
11
0
21
-31.05
31
0
39
0
210
0
220
0
230
1
0
LINE
5
76
100
AcDbEntity
8
1
62
256
6
ByLayer
370
-1
48
1
60
0
100
AcDbLine
10
151.797293
20
21.748516
30
0
11
151.826993
21
21.748516
31
0
39
0
210
0
220
0
230
1
0
LINE
5
77
100
AcDbEntity
8
1
62
256
6
ByLayer
370
-1
48
1
60
0
100
AcDbLine
10
168.509518
20
-0.398296
30
0
11
169.258969
21
-14.671998
31
0
39
0
210
0
220
0
230
1
0
LINE
5
78
100
AcDbEntity
8
1
62
256
6
ByLayer
370
-1
48
1
60
0
100
AcDbLine
10
151.17456
20
20.238569
30
0
11
151.619054
21
20.238569
31
0
39
0
210
0
220
0
230
1
0
LINE
5
79
100
AcDbEntity
8
1
62
256
6
ByLayer
370
-1
48
1
60
0
100
AcDbLine
10
151.17456
20
20.238569
30
0
11
151.431833
21
12.843076
31
0
39
0
210
0
220
0
230
1
0
LINE
5
7A
100
AcDbEntity
8
1
62
256
6
ByLayer
370
-1
48
1
60
0
100
AcDbLine
10
151.375937
20
3.80669
30
0
11
153.417094
21
10.828694
31
0
39
0
210
0
220
0
230
1
0
LINE
5
7B
100
AcDbEntity
8
1
62
256
6
ByLayer
370
-1
48
1
60
0
100
AcDbLine
10
168.592786
20
1.167839
30
0
11
168.680322
21
1.12124
31
0
39
0
210
0
220
0
230
1
0
LINE
5
7C
100
AcDbEntity
8
1
62
256
6
ByLayer
370
-1
48
1
60
0
100
AcDbLine
10
167.956897
20
-14.09183
30
0
11
166.825213
21
-13.587582
31
0
39
0
210
0
220
0
230
1
0
LINE
5
7D
100
AcDbEntity
8
1
62
256
6
ByLayer
370
-1
48
1
60
0
100
AcDbLine
10
151.861624
20
11.49509
30
0
11
151.912771
21
11.49509
31
0
39
0
210
0
220
0
230
1
0
LINE
5
7E
100
AcDbEntity
8
1
62
256
6
ByLayer
370
-1
48
1
60
0
100
AcDbLine
10
148.132514
20
19.601144
30
0
11
125.482083
21
23.141642
31
0
39
0
210
0
220
0
230
1
0
LINE
5
7F
100
AcDbEntity
8
1
62
256
6
ByLayer
370
-1
48
1
60
0
100
AcDbLine
10
168.531817
20
1.017343
30
0
11
168.640902
21
1.01354
31
0
39
0
210
0
220
0
230
1
0
LINE
5
80
100
AcDbEntity
8
1
62
256
6
ByLayer
370
-1
48
1
60
0
100
AcDbLine
10
151.579947
20
21.55599
30
0
11
151.595243
21
21.55599
31
0
39
0
210
0
220
0
230
1
0
LINE
5
81
100
AcDbEntity
8
1
62
256
6
ByLayer
370
-1
48
1
60
0
100
AcDbLine
10
5
20
31.25
30
0
11
5
21
-31.25
31
0
39
0
210
0
220
0
230
1
0
LINE
5
82
100
AcDbEntity
8
1
62
256
6
ByLayer
370
-1
48
1
60
0
100
AcDbLine
10
151.619054
20
20.238569
30
0
11
151.876327
21
12.843076
31
0
39
0
210
0
220
0
230
1
0
LINE
5
83
100
AcDbEntity
8
1
62
256
6
ByLayer
370
-1
48
1
60
0
100
AcDbLine
10
0.2
20
31.25
30
0
11
0.2
21
-31.25
31
0
39
0
210
0
220
0
230
1
0
LINE
5
84
100
AcDbEntity
8
1
62
256
6
ByLayer
370
-1
48
1
60
0
100
AcDbLine
10
168.509518
20
-0.398296
30
0
11
165.564705
21
0.913833
31
0
39
0
210
0
220
0
230
1
0
LINE
5
85
100
AcDbEntity
8
1
62
256
6
ByLayer
370
-1
48
1
60
0
100
AcDbLine
10
142.080098
20
14.364418
30
0
11
144.673514
21
13.205344
31
0
39
0
210
0
220
0
230
1
0
LINE
5
86
100
AcDbEntity
8
1
62
256
6
ByLayer
370
-1
48
1
60
0
100
AcDbLine
10
168.058016
20
29.645346
30
0
11
153.621992
21
29.139304
31
0
39
0
210
0
220
0
230
1
0
LINE
5
87
100
AcDbEntity
8
1
62
256
6
ByLayer
370
-1
48
1
60
0
100
AcDbLine
10
157.257284
20
17.539186
30
0
11
157.243688
21
17.551913
31
0
39
0
210
0
220
0
230
1
0
LINE
5
88
100
AcDbEntity
8
1
62
256
6
ByLayer
370
-1
48
1
60
0
100
AcDbLine
10
165.263704
20
25.753738
30
0
11
162.27694
21
25.649039
31
0
39
0
210
0
220
0
230
1
0
LINE
5
89
100
AcDbEntity
8
1
62
256
6
ByLayer
370
-1
48
1
60
0
100
AcDbLine
10
165.856698
20
22.472651
30
0
11
165.752398
21
25.470823
31
0
39
0
210
0
220
0
230
1
0
LINE
5
8A
100
AcDbEntity
8
1
62
256
6
ByLayer
370
-1
48
1
60
0
100
AcDbLine
10
152.537804
20
29.963277
30
0
11
168.01941
21
30.505972
31
0
39
0
210
0
220
0
230
1
0
LINE
5
8B
100
AcDbEntity
8
1
62
256
6
ByLayer
370
-1
48
1
60
0
100
AcDbLine
10
168.054963
20
28.60713
30
0
11
153.618939
21
28.101087
31
0
39
0
210
0
220
0
230
1
0
LINE
5
8C
100
AcDbEntity
8
1
62
256
6
ByLayer
370
-1
48
1
60
0
100
AcDbLine
10
156.293692
20
25.017438
30
0
11
156.882977
21
24.900669
31
0
39
0
210
0
220
0
230
1
0
LINE
5
8D
100
AcDbEntity
8
1
62
256
6
ByLayer
370
-1
48
1
60
0
100
AcDbLine
10
154.135271
20
13.281441
30
0
11
168.571295
21
13.787484
31
0
39
0
210
0
220
0
230
1
0
LINE
5
8E
100
AcDbEntity
8
1
62
256
6
ByLayer
370
-1
48
1
60
0
100
AcDbLine
10
165.586775
20
16.46686
30
0
11
162.600011
21
16.362161
31
0
39
0
210
0
220
0
230
1
0
LINE
5
8F
100
AcDbEntity
8
1
62
256
6
ByLayer
370
-1
48
1
60
0
100
AcDbLine
10
165.67711
20
22.466218
30
0
11
165.57281
21
25.46439
31
0
39
0
210
0
220
0
230
1
0
LINE
5
90
100
AcDbEntity
8
1
62
256
6
ByLayer
370
-1
48
1
60
0
100
AcDbLine
10
168.043818
20
29.999212
30
0
11
153.607794
21
29.493169
31
0
39
0
210
0
220
0
230
1
0
LINE
5
91
100
AcDbEntity
8
1
62
256
6
ByLayer
370
-1
48
1
60
0
100
AcDbLine
10
170.095125
20
29.578342
30
0
11
170.635754
21
14.037598
31
0
39
0
210
0
220
0
230
1
0
LINE
5
92
100
AcDbEntity
8
1
62
256
6
ByLayer
370
-1
48
1
60
0
100
AcDbLine
10
168.064045
20
29.423363
30
0
11
153.628021
21
28.91732
31
0
39
0
210
0
220
0
230
1
0
LINE
5
93
100
AcDbEntity
8
1
62
256
6
ByLayer
370
-1
48
1
60
0
100
AcDbLine
10
168.713633
20
13.971289
30
0
11
168.209516
21
28.462456
31
0
39
0
210
0
220
0
230
1
0
LINE
5
94
100
AcDbEntity
8
1
62
256
6
ByLayer
370
-1
48
1
60
0
100
AcDbLine
10
151.7125
20
27.883124
30
0
11
152.216617
21
13.391957
31
0
39
0
210
0
220
0
230
1
0
LINE
5
95
100
AcDbEntity
8
1
62
256
6
ByLayer
370
-1
48
1
60
0
100
AcDbLine
10
154.219197
20
11.91802
30
0
11
168.65522
21
12.424063
31
0
39
0
210
0
220
0
230
1
0
LINE
5
96
100
AcDbEntity
8
1
62
256
6
ByLayer
370
-1
48
1
60
0
100
AcDbLine
10
157.224336
20
24.209217
30
0
11
157.804981
21
23.665689
31
0
39
0
210
0
220
0
230
1
0
LINE
5
97
100
AcDbEntity
8
1
62
256
6
ByLayer
370
-1
48
1
60
0
100
AcDbLine
10
157.678346
20
17.580664
30
0
11
157.826975
21
17.441536
31
0
39
0
210
0
220
0
230
1
0
LINE
5
98
100
AcDbEntity
8
1
62
256
6
ByLayer
370
-1
48
1
60
0
100
AcDbLine
10
157.011885
20
17.760605
30
0
11
157.486558
21
18.271573
31
0
39
0
210
0
220
0
230
1
0
LINE
5
99
100
AcDbEntity
8
1
62
256
6
ByLayer
370
-1
48
1
60
0
100
AcDbLine
10
157.039609
20
17.341767
30
0
11
157.41118
21
16.993948
31
0
39
0
210
0
220
0
230
1
0
LINE
5
9A
100
AcDbEntity
8
1
62
256
6
ByLayer
370
-1
48
1
60
0
100
AcDbLine
10
153.074241
20
27.93102
30
0
11
153.578358
21
13.439853
31
0
39
0
210
0
220
0
230
1
0
LINE
5
9B
100
AcDbEntity
8
1
62
256
6
ByLayer
370
-1
48
1
60
0
100
AcDbLine
10
168.022125
20
30.406033
30
0
11
153.586101
21
29.89999
31
0
39
0
210
0
220
0
230
1
0
LINE
5
9C
100
AcDbEntity
8
1
62
256
6
ByLayer
370
-1
48
1
60
0
100
AcDbLine
10
168.054754
20
28.635791
30
0
11
153.61873
21
28.129748
31
0
39
0
210
0
220
0
230
1
0
LINE
5
9D
100
AcDbEntity
8
1
62
256
6
ByLayer
370
-1
48
1
60
0
100
AcDbLine
10
152.154333
20
12.33889
30
0
11
151.613703
21
27.879634
31
0
39
0
210
0
220
0
230
1
0
LINE
5
9E
100
AcDbEntity
8
1
62
256
6
ByLayer
370
-1
48
1
60
0
100
AcDbLine
10
165.770721
20
19.775319
30
0
11
165.875021
21
16.777147
31
0
39
0
210
0
220
0
230
1
0
LINE
5
9F
100
AcDbEntity
8
1
62
256
6
ByLayer
370
-1
48
1
60
0
100
AcDbLine
10
152.47972
20
27.909688
30
0
11
152.983837
21
13.418521
31
0
39
0
210
0
220
0
230
1
0
LINE
5
A0
100
AcDbEntity
8
1
62
256
6
ByLayer
370
-1
48
1
60
0
100
AcDbLine
10
165.253374
20
25.937949
30
0
11
162.26661
21
25.83325
31
0
39
0
210
0
220
0
230
1
0
LINE
5
A1
100
AcDbEntity
8
1
62
256
6
ByLayer
370
-1
48
1
60
0
100
AcDbLine
10
169.564237
20
13.999792
30
0
11
169.06012
21
28.490959
31
0
39
0
210
0
220
0
230
1
0
LINE
5
A2
100
AcDbEntity
8
1
62
256
6
ByLayer
370
-1
48
1
60
0
100
AcDbLine
10
166.054609
20
16.783579
30
0
11
165.950309
21
19.781752
31
0
39
0
210
0
220
0
230
1
0
LINE
5
A3
100
AcDbEntity
8
1
62
256
6
ByLayer
370
-1
48
1
60
0
100
AcDbLine
10
157.227943
20
25.786471
30
0
11
158.590371
21
24.511134
31
0
39
0
210
0
220
0
230
1
0
LINE
5
A4
100
AcDbEntity
8
1
62
256
6
ByLayer
370
-1
48
1
60
0
100
AcDbLine
10
168.065229
20
29.034463
30
0
11
153.629206
21
28.52842
31
0
39
0
210
0
220
0
230
1
0
LINE
5
A5
100
AcDbEntity
8
1
62
256
6
ByLayer
370
-1
48
1
60
0
100
AcDbLine
10
162.602498
20
16.17795
30
0
11
165.589261
21
16.282649
31
0
39
0
210
0
220
0
230
1
0
LINE
5
A6
100
AcDbEntity
8
1
62
256
6
ByLayer
370
-1
48
1
60
0
100
AcDbLine
10
154.225808
20
11.511199
30
0
11
168.661832
21
12.017242
31
0
39
0
210
0
220
0
230
1
0
LINE
5
A7
100
AcDbEntity
8
1
62
256
6
ByLayer
370
-1
48
1
60
0
100
AcDbLine
10
157.678346
20
17.580664
30
0
11
157.813073
21
17.725692
31
0
39
0
210
0
220
0
230
1
0
LINE
5
A8
100
AcDbEntity
8
1
62
256
6
ByLayer
370
-1
48
1
60
0
100
AcDbLine
10
152.125314
20
27.897331
30
0
11
152.629431
21
13.406164
31
0
39
0
210
0
220
0
230
1
0
LINE
5
A9
100
AcDbEntity
8
1
62
256
6
ByLayer
370
-1
48
1
60
0
100
AcDbLine
10
154.199358
20
12.493869
30
0
11
168.635382
21
12.999912
31
0
39
0
210
0
220
0
230
1
0
LINE
5
AA
100
AcDbEntity
8
1
62
256
6
ByLayer
370
-1
48
1
60
0
100
AcDbLine
10
169.78707
20
14.007544
30
0
11
169.282953
21
28.498711
31
0
39
0
210
0
220
0
230
1
0
LINE
5
AB
100
AcDbEntity
8
1
62
256
6
ByLayer
370
-1
48
1
60
0
100
AcDbLine
10
156.725828
20
25.482618
30
0
11
156.882977
21
24.900669
31
0
39
0
210
0
220
0
230
1
0
LINE
5
AC
100
AcDbEntity
8
1
62
256
6
ByLayer
370
-1
48
1
60
0
100
AcDbLine
10
170.535433
20
14.034108
30
0
11
170.031316
21
28.525275
31
0
39
0
210
0
220
0
230
1
0
LINE
5
AD
100
AcDbEntity
8
1
62
256
6
ByLayer
370
-1
48
1
60
0
100
AcDbLine
10
157.593932
20
24.607073
30
0
11
158.174576
21
24.063545
31
0
39
0
210
0
220
0
230
1
0
LINE
5
AE
100
AcDbEntity
8
1
62
256
6
ByLayer
370
-1
48
1
60
0
100
AcDbLine
10
154.208774
20
12.271886
30
0
11
168.644798
21
12.777928
31
0
39
0
210
0
220
0
230
1
0
LINE
5
AF
100
AcDbEntity
8
1
62
256
6
ByLayer
370
-1
48
1
60
0
100
AcDbLine
10
154.230047
20
11.41126
30
0
11
169.711654
21
11.953955
31
0
39
0
210
0
220
0
230
1
0
LINE
5
B0
100
AcDbEntity
8
1
62
256
6
ByLayer
370
-1
48
1
60
0
100
AcDbLine
10
157.224336
20
24.209217
30
0
11
157.246621
21
24.204801
31
0
39
0
210
0
220
0
230
1
0
LINE
5
B1
100
AcDbEntity
8
1
62
256
6
ByLayer
370
-1
48
1
60
0
100
AcDbLine
10
157.011885
20
17.760605
30
0
11
157.0123
21
17.760216
31
0
39
0
210
0
220
0
230
1
0
LINE
5
B2
100
AcDbEntity
8
1
62
256
6
ByLayer
370
-1
48
1
60
0
100
AcDbLine
10
169.164473
20
13.986212
30
0
11
168.660356
21
28.477379
31
0
39
0
210
0
220
0
230
1
0
LINE
5
B3
100
AcDbEntity
8
1
62
256
6
ByLayer
370
-1
48
1
60
0
100
AcDbLine
10
154.133486
20
13.310103
30
0
11
168.56951
21
13.816145
31
0
39
0
210
0
220
0
230
1
0
LINE
5
B4
100
AcDbEntity
8
1
62
256
6
ByLayer
370
-1
48
1
60
0
100
AcDbLine
10
157.593932
20
24.607073
30
0
11
157.599875
21
24.585066
31
0
39
0
210
0
220
0
230
1
0
LINE
5
B5
100
AcDbEntity
8
1
62
256
6
ByLayer
370
-1
48
1
60
0
100
AcDbLine
10
154.173485
20
12.882769
30
0
11
168.609508
21
13.388812
31
0
39
0
210
0
220
0
230
1
0
LINE
5
B6
100
AcDbEntity
8
1
62
256
6
ByLayer
370
-1
48
1
60
0
100
AcDbLine
10
168.742973
20
13.97229
30
0
11
168.238856
21
28.463457
31
0
39
0
210
0
220
0
230
1
0
LINE
5
B7
100
AcDbEntity
8
1
62
256
6
ByLayer
370
-1
48
1
60
0
100
AcDbLine
10
153.447052
20
27.944942
30
0
11
153.951169
21
13.453775
31
0
39
0
210
0
220
0
230
1
0
LINE
5
B8
100
AcDbEntity
8
1
62
256
6
ByLayer
370
-1
48
1
60
0
100
AcDbLine
10
156.026759
20
24.493437
30
0
11
157.389186
21
23.2181
31
0
39
0
210
0
220
0
230
1
0
LINE
5
B9
100
AcDbEntity
8
1
62
256
6
ByLayer
370
-1
48
1
60
0
100
AcDbLine
10
170.137701
20
14.019901
30
0
11
169.633584
21
28.511068
31
0
39
0
210
0
220
0
230
1
0
LINE
5
BA
100
AcDbEntity
8
1
62
256
6
ByLayer
370
-1
48
1
60
0
100
AcDbLine
10
152.699166
20
27.91744
30
0
11
153.203283
21
13.426273
31
0
39
0
210
0
220
0
230
1
0
LINE
5
BB
100
AcDbEntity
8
1
62
256
6
ByLayer
370
-1
48
1
60
0
100
AcDbLine
10
169.838037
20
-2.424501
30
0
11
170.114687
21
-2.507147
31
0
39
0
210
0
220
0
230
1
0
LINE
5
BC
100
AcDbEntity
8
1
62
256
6
ByLayer
370
-1
48
1
60
0
100
AcDbLine
10
169.193614
20
-8.866058
30
0
11
168.863661
21
-2.581912
31
0
39
0
210
0
220
0
230
1
0
LINE
5
BD
100
AcDbEntity
8
1
62
256
6
ByLayer
370
-1
48
1
60
0
100
AcDbLine
10
170.461752
20
-9.117174
30
0
11
170.114687
21
-2.507147
31
0
39
0
210
0
220
0
230
1
0
LINE
5
BE
100
AcDbEntity
8
1
62
256
6
ByLayer
370
-1
48
1
60
0
100
AcDbLine
10
170.754038
20
-10.258239
30
0
11
170.494002
21
-10.239597
31
0
39
0
210
0
220
0
230
1
0
LINE
5
BF
100
AcDbEntity
8
1
62
256
6
ByLayer
370
-1
48
1
60
0
100
AcDbLine
10
169.193614
20
-8.866058
30
0
11
170.173603
21
-8.988783
31
0
39
0
210
0
220
0
230
1
0
LINE
5
C0
100
AcDbEntity
8
1
62
256
6
ByLayer
370
-1
48
1
60
0
100
AcDbLine
10
169.84365
20
-2.704637
30
0
11
170.173603
21
-8.988783
31
0
39
0
210
0
220
0
230
1
0
LINE
5
C1
100
AcDbEntity
8
1
62
256
6
ByLayer
370
-1
48
1
60
0
100
AcDbLine
10
170.711145
20
-11.273293
30
0
11
170.622546
21
-13.805699
31
0
39
0
210
0
220
0
230
1
0
LINE
5
C2
100
AcDbEntity
8
1
62
256
6
ByLayer
370
-1
48
1
60
0
100
AcDbLine
10
168.780105
20
-2.171988
30
0
11
169.702257
21
-2.010967
31
0
39
0
210
0
220
0
230
1
0
LINE
5
C3
100
AcDbEntity
8
1
62
256
6
ByLayer
370
-1
48
1
60
0
100
AcDbLine
10
170.702993
20
-14.85895
30
0
11
170.872129
21
-15.067781
31
0
39
0
210
0
220
0
230
1
0
LINE
5
C4
100
AcDbEntity
8
1
62
256
6
ByLayer
370
-1
48
1
60
0
100
AcDbLine
10
170.461752
20
-9.117174
30
0
11
170.173603
21
-8.988783
31
0
39
0
210
0
220
0
230
1
0
LINE
5
C5
100
AcDbEntity
8
1
62
256
6
ByLayer
370
-1
48
1
60
0
100
AcDbLine
10
168.863661
20
-2.581912
30
0
11
169.84365
21
-2.704637
31
0
39
0
210
0
220
0
230
1
0
LINE
5
C6
100
AcDbEntity
8
1
62
256
6
ByLayer
370
-1
48
1
60
0
100
AcDbLine
10
169.64181
20
-13.597526
30
0
11
170.622546
21
-13.805699
31
0
39
0
210
0
220
0
230
1
0
LINE
5
C7
100
AcDbEntity
8
1
62
256
6
ByLayer
370
-1
48
1
60
0
100
AcDbLine
10
168.999211
20
0.615641
30
0
11
170.085219
21
-2.362575
31
0
39
0
210
0
220
0
230
1
0
LINE
5
C8
100
AcDbEntity
8
1
62
256
6
ByLayer
370
-1
48
1
60
0
100
AcDbLine
10
170.999513
20
-11.426809
30
0
11
170.711145
21
-11.273293
31
0
39
0
210
0
220
0
230
1
0
LINE
5
C9
100
AcDbEntity
8
1
62
256
6
ByLayer
370
-1
48
1
60
0
100
AcDbLine
10
169.341993
20
-13.587076
30
0
11
169.430592
21
-11.05467
31
0
39
0
210
0
220
0
230
1
0
LINE
5
CA
100
AcDbEntity
8
1
62
256
6
ByLayer
370
-1
48
1
60
0
100
AcDbLine
10
168.572793
20
-1.603466
30
0
11
168.780105
21
-2.171988
31
0
39
0
210
0
220
0
230
1
0
LINE
5
CB
100
AcDbEntity
8
1
62
256
6
ByLayer
370
-1
48
1
60
0
100
AcDbLine
10
169.730409
20
-11.065121
30
0
11
169.64181
21
-13.597526
31
0
39
0
210
0
220
0
230
1
0
LINE
5
CC
100
AcDbEntity
8
1
62
256
6
ByLayer
370
-1
48
1
60
0
100
AcDbLine
10
170.999513
20
-11.426809
30
0
11
170.872129
21
-15.067781
31
0
39
0
210
0
220
0
230
1
0
LINE
5
CD
100
AcDbEntity
8
1
62
256
6
ByLayer
370
-1
48
1
60
0
100
AcDbLine
10
169.108161
20
-0.381746
30
0
11
169.702257
21
-2.010967
31
0
39
0
210
0
220
0
230
1
0
LINE
5
CE
100
AcDbEntity
8
1
62
256
6
ByLayer
370
-1
48
1
60
0
100
AcDbLine
10
169.808569
20
-2.279929
30
0
11
170.085219
21
-2.362575
31
0
39
0
210
0
220
0
230
1
0
LINE
5
CF
100
AcDbEntity
8
1
62
256
6
ByLayer
370
-1
48
1
60
0
100
AcDbLine
10
169.178979
20
-15.676408
30
0
11
169.20325
21
-15.755548
31
0
39
0
210
0
220
0
230
1
0
LINE
5
D0
100
AcDbEntity
8
1
62
256
6
ByLayer
370
-1
48
1
60
0
100
AcDbLine
10
169.070201
20
-11.028587
30
0
11
169.067579
21
-11.028165
31
0
39
0
210
0
220
0
230
1
0
LINE
5
D1
100
AcDbEntity
8
1
62
256
6
ByLayer
370
-1
48
1
60
0
100
AcDbLine
10
169.609623
20
-10.490127
30
0
11
170.494002
21
-10.239597
31
0
39
0
210
0
220
0
230
1
0
LINE
5
D2
100
AcDbEntity
8
1
62
256
6
ByLayer
370
-1
48
1
60
0
100
AcDbLine
10
168.876326
20
0.532996
30
0
11
168.999211
21
0.615641
31
0
39
0
210
0
220
0
230
1
0
LINE
5
D3
100
AcDbEntity
8
1
62
256
6
ByLayer
370
-1
48
1
60
0
100
AcDbLine
10
169.730409
20
-11.065121
30
0
11
170.711145
21
-11.273293
31
0
39
0
210
0
220
0
230
1
0
LINE
5
D4
100
AcDbEntity
8
1
62
256
6
ByLayer
370
-1
48
1
60
0
100
AcDbLine
10
169.20325
20
-15.755548
30
0
11
169.176445
21
-15.765286
31
0
39
0
210
0
220
0
230
1
0
LINE
5
D5
100
AcDbEntity
8
1
62
256
6
ByLayer
370
-1
48
1
60
0
100
AcDbLine
10
168.514108
20
-0.485476
30
0
11
169.108161
21
-0.381746
31
0
39
0
210
0
220
0
230
1
0
LINE
5
D6
100
AcDbEntity
8
1
62
256
6
ByLayer
370
-1
48
1
60
0
100
AcDbLine
10
170.346233
20
-15.790266
30
0
11
169.21841
21
-16.199994
31
0
39
0
210
0
220
0
230
1
0
LINE
5
D7
100
AcDbEntity
8
1
62
256
6
ByLayer
370
-1
48
1
60
0
100
AcDbLine
10
170.177096
20
-15.581434
30
0
11
170.346233
21
-15.790266
31
0
39
0
210
0
220
0
230
1
0
LINE
5
D8
100
AcDbEntity
8
SK1
62
256
6
ByLayer
370
-1
48
1
60
0
100
AcDbLine
10
-68.6
20
-19.996
30
0
11
-68.6
21
-9.102615
31
0
39
0
210
0
220
0
230
1
0
LINE
5
D9
100
AcDbEntity
8
SK1
62
256
6
ByLayer
370
-1
48
1
60
0
100
AcDbLine
10
-68.6
20
9.102615
30
0
11
-68.6
21
19.996
31
0
39
0
210
0
220
0
230
1
0
LINE
5
DA
100
AcDbEntity
8
SK1
62
256
6
ByLayer
370
-1
48
1
60
0
100
AcDbLine
10
-69
20
-9.102615
30
0
11
-69
21
-19.996
31
0
39
0
210
0
220
0
230
1
0
LINE
5
DB
100
AcDbEntity
8
SK1
62
256
6
ByLayer
370
-1
48
1
60
0
100
AcDbLine
10
-69
20
19.996
30
0
11
-69
21
9.102615
31
0
39
0
210
0
220
0
230
1
0
LINE
5
DC
100
AcDbEntity
8
SK1
62
256
6
ByLayer
370
-1
48
1
60
0
100
AcDbLine
10
-2
20
-19.996
30
0
11
-2
21
19.996
31
0
39
0
210
0
220
0
230
1
0
LINE
5
DD
100
AcDbEntity
8
SK1
62
256
6
ByLayer
370
-1
48
1
60
0
100
AcDbLine
10
-68.6
20
-9.102615
30
0
11
-69
21
-9.102615
31
0
39
0
210
0
220
0
230
1
0
LINE
5
DE
100
AcDbEntity
8
SK1
62
256
6
ByLayer
370
-1
48
1
60
0
100
AcDbLine
10
-69
20
9.102615
30
0
11
-68.6
21
9.102615
31
0
39
0
210
0
220
0
230
1
0
LINE
5
DF
100
AcDbEntity
8
SK1
62
256
6
ByLayer
370
-1
48
1
60
0
100
AcDbLine
10
-67.633814
20
-8.290603
30
0
11
-67.633814
21
-19.639667
31
0
39
0
210
0
220
0
230
1
0
LINE
5
E0
100
AcDbEntity
8
SK1
62
256
6
ByLayer
370
-1
48
1
60
0
100
AcDbLine
10
-67.633814
20
19.639667
30
0
11
-67.633814
21
8.290603
31
0
39
0
210
0
220
0
230
1
0
LINE
5
E1
100
AcDbEntity
8
SK1
62
256
6
ByLayer
370
-1
48
1
60
0
100
AcDbLine
10
-6.5
20
9.102615
30
0
11
-6.5
21
-9.102615
31
0
39
0
210
0
220
0
230
1
0
LINE
5
E2
100
AcDbEntity
8
SK1
62
256
6
ByLayer
370
-1
48
1
60
0
100
AcDbLine
10
-70
20
6.623111
30
0
11
-70
21
-6.623111
31
0
39
0
210
0
220
0
230
1
0
LINE
5
E3
100
AcDbEntity
8
SK1
62
256
6
ByLayer
370
-1
48
1
60
0
100
AcDbLine
10
-1.552821
20
19.787477
30
0
11
-1.552821
21
-19.787477
31
0
39
0
210
0
220
0
230
1
0
LINE
5
E4
100
AcDbEntity
8
SK1
62
256
6
ByLayer
370
-1
48
1
60
0
100
AcDbLine
10
-1.383773
20
19.75
30
0
11
-1.383773
21
-19.75
31
0
39
0
210
0
220
0
230
1
0
LINE
5
E5
100
AcDbEntity
8
SK1
62
256
6
ByLayer
370
-1
48
1
60
0
100
AcDbLine
10
-0.15
20
19.75
30
0
11
-0.15
21
-19.75
31
0
39
0
210
0
220
0
230
1
0
LINE
5
E6
100
AcDbEntity
8
SK1
62
256
6
ByLayer
370
-1
48
1
60
0
100
AcDbLine
10
-6.5
20
-9.102615
30
0
11
-66.6
21
-9.102615
31
0
39
0
210
0
220
0
230
1
0
LINE
5
E7
100
AcDbEntity
8
SK1
62
256
6
ByLayer
370
-1
48
1
60
0
100
AcDbLine
10
-66.6
20
9.102615
30
0
11
-66.6
21
19.996
31
0
39
0
210
0
220
0
230
1
0
LINE
5
E8
100
AcDbEntity
8
SK1
62
256
6
ByLayer
370
-1
48
1
60
0
100
AcDbLine
10
-66.6
20
-19.996
30
0
11
-66.6
21
-9.102615
31
0
39
0
210
0
220
0
230
1
0
LINE
5
E9
100
AcDbEntity
8
SK1
62
256
6
ByLayer
370
-1
48
1
60
0
100
AcDbLine
10
-70
20
-6.623111
30
0
11
-70
21
-18.996
31
0
39
0
210
0
220
0
230
1
0
LINE
5
EA
100
AcDbEntity
8
SK1
62
256
6
ByLayer
370
-1
48
1
60
0
100
AcDbLine
10
-70
20
18.996
30
0
11
-70
21
6.623111
31
0
39
0
210
0
220
0
230
1
0
LINE
5
EB
100
AcDbEntity
8
SK1
62
256
6
ByLayer
370
-1
48
1
60
0
100
AcDbLine
10
-66.6
20
9.102615
30
0
11
-6.5
21
9.102615
31
0
39
0
210
0
220
0
230
1
0
LINE
5
EC
100
AcDbEntity
8
SK1
62
256
6
ByLayer
370
-1
48
1
60
0
100
AcDbLine
10
-68.516223
20
-8.873042
30
0
11
-68.516223
21
-19.892544
31
0
39
0
210
0
220
0
230
1
0
LINE
5
ED
100
AcDbEntity
8
SK1
62
256
6
ByLayer
370
-1
48
1
60
0
100
AcDbLine
10
-68.516223
20
19.892544
30
0
11
-68.516223
21
8.873042
31
0
39
0
210
0
220
0
230
1
0
MTEXT
5
25C
100
AcDbEntity
8
SK6
62
256
6
ByLayer
370
-1
48
1
60
0
100
AcDbMText
10
0.79375
20
-80.79375
30
0
210
0
220
0
230
1
1
\W00.730;\fsimplex.shx,bigfont.shx;880-D6100L40-02 
40
3.175
41
0
44
1.084337
50
0
71
7
72
5
7
DEFAULT
0
DIMENSION
5
28C
100
AcDbEntity
8
SK2
62
256
6
ByLayer
370
-3
48
1
60
0
100
AcDbDimension
2
DimnDraft3D1
10
171
20
-70.11955
30
0
11
50.5
21
-70.11955
31
0
70
32
71
5
72
1
41
1
210
0
220
0
230
1
3
Standard
100
AcDbAlignedDimension
13
-70
23
-21.5875
33
0
14
171
24
-32.0875
34
0
50
0
100
AcDbRotatedDimension
1001
ACAD
1000
DSTYLE
1002
{
1070
   279
1070
     0
1070
   172
1070
     1
1070
   173
1070
     1
1070
   340
1005
25D
1070
   271
1070
     1
1070
   272
1070
     2
1070
    77
1070
     1
1070
    73
1070
     0
1070
   171
1070
     3
1070
   274
1070
     4
1070
   177
1070
   150
1070
   176
1070
     9
1070
   178
1070
    43
1070
    78
1070
     8
1070
    48
1040
-0.005
1070
    41
1041
4.175
1070
   147
1041
2.25
1070
    42
1041
1.5875
1070
    44
1041
3.175
1070
   140
1041
4.5
1070
   343
1005
0
1070
   344
1005
0
1002
}
0
DIMENSION
5
296
100
AcDbEntity
8
SK2
62
256
6
ByLayer
370
-3
48
1
60
0
100
AcDbDimension
2
DimnDraft3D2
10
0
20
-58.1508
30
0
11
-35
21
-58.1508
31
0
70
32
71
5
72
1
41
1
210
0
220
0
230
1
3
Standard
100
AcDbAlignedDimension
13
-70
23
-21.5875
33
0
14
0
24
-32.8375
34
0
50
0
100
AcDbRotatedDimension
1001
ACAD
1000
DSTYLE
1002
{
1070
   279
1070
     0
1070
   172
1070
     1
1070
   173
1070
     1
1070
   340
1005
25D
1070
   271
1070
     1
1070
   272
1070
     2
1070
    77
1070
     1
1070
    73
1070
     0
1070
   171
1070
     3
1070
   274
1070
     4
1070
   177
1070
   150
1070
   176
1070
     9
1070
   178
1070
    43
1070
    78
1070
     8
1070
    48
1040
-0.005
1070
    41
1041
4.175
1070
   147
1041
2.25
1070
    42
1041
1.5875
1070
    44
1041
3.175
1070
   140
1041
4.5
1070
   343
1005
0
1070
   344
1005
0
1002
}
0
DIMENSION
5
2A1
100
AcDbEntity
8
2
62
256
6
ByLayer
370
-3
48
1
60
0
100
AcDbDimension
2
DimnDraft3D3
10
171
20
-58.1508
30
0
11
85.5
21
-58.1508
31
0
70
32
71
5
72
1
41
1
210
0
220
0
230
1
3
Standard
100
AcDbAlignedDimension
13
0
23
-32.8375
33
0
14
171
24
-32.0875
34
0
50
0
100
AcDbRotatedDimension
1001
ACAD
1000
DSTYLE
1002
{
1070
   279
1070
     0
1070
   172
1070
     1
1070
   173
1070
     1
1070
   340
1005
25D
1070
   271
1070
     1
1070
   272
1070
     2
1070
    77
1070
     1
1070
    73
1070
     0
1070
   171
1070
     3
1070
   274
1070
     4
1070
   177
1070
   150
1070
   176
1070
     9
1070
   178
1070
    43
1070
    78
1070
     8
1070
    48
1040
-0.005
1070
    41
1041
4.175
1070
   147
1041
2.25
1070
    42
1041
1.5875
1070
    44
1041
3.175
1070
   140
1041
4.5
1070
   343
1005
0
1070
   344
1005
0
1002
}
0
DIMENSION
5
2AB
100
AcDbEntity
8
SK2
62
256
6
ByLayer
370
-3
48
1
60
0
100
AcDbDimension
2
DimnDraft3D4
10
171
20
-48.1508
30
0
11
106.5
21
-48.1508
31
0
70
32
71
5
72
1
41
1
210
0
220
0
230
1
3
Standard
100
AcDbAlignedDimension
13
42
23
-11.5875
33
0
14
171
24
-32.0875
34
0
50
0
100
AcDbRotatedDimension
1001
ACAD
1000
DSTYLE
1002
{
1070
   279
1070
     0
1070
   172
1070
     1
1070
   173
1070
     1
1070
   340
1005
25D
1070
   271
1070
     1
1070
   272
1070
     2
1070
    77
1070
     1
1070
    73
1070
     0
1070
   171
1070
     3
1070
   274
1070
     4
1070
   177
1070
   150
1070
   176
1070
     9
1070
   178
1070
    43
1070
    78
1070
     8
1070
    48
1040
-0.005
1070
    41
1041
4.175
1070
   147
1041
2.25
1070
    42
1041
1.5875
1070
    44
1041
3.175
1070
   140
1041
4.5
1070
   343
1005
0
1070
   344
1005
0
1002
}
0
DIMENSION
5
2B6
100
AcDbEntity
8
SK2
62
256
6
ByLayer
370
-3
48
1
60
0
100
AcDbDimension
2
DimnDraft3D5
10
-81.9
20
-20
30
0
11
-82.1
21
3.884211
31
0
70
33
71
5
72
1
41
1
210
0
220
0
230
1
3
Standard
100
AcDbAlignedDimension
13
-71.5875
23
20
33
0
14
-71.5875
24
-20
34
0
1001
ACAD
1000
DSTYLE
1002
{
1070
   279
1070
     0
1070
    74
1070
     0
1070
   173
1070
     1
1070
   340
1005
25D
1070
   271
1070
     2
1070
   272
1070
     2
1070
    77
1070
     1
1070
    73
1070
     0
1070
   171
1070
     3
1070
   274
1070
     4
1070
   177
1070
   150
1070
   176
1070
     9
1070
   178
1070
    43
1070
    78
1070
     8
1070
    48
1040
-0.005
1070
    41
1041
4.175
1070
   147
1041
2.25
1070
    42
1041
1.5875
1070
    44
1041
3.175
1070
   140
1041
4.5
1070
   343
1005
0
1070
   344
1005
0
1002
}
0
DIMENSION
5
2C1
100
AcDbEntity
8
SK2
62
256
6
ByLayer
370
-3
48
1
60
0
100
AcDbDimension
2
DimnDraft3D6
10
-91.9
20
31.25
30
0
11
-92.1
21
1.586842
31
0
70
33
71
5
72
1
41
1
210
0
220
0
230
1
3
Standard
100
AcDbAlignedDimension
13
-1.5875
23
-31.25
33
0
14
-1.5875
24
31.25
34
0
1001
ACAD
1000
DSTYLE
1002
{
1070
   279
1070
     0
1070
    74
1070
     0
1070
   173
1070
     1
1070
   340
1005
25D
1070
   271
1070
     1
1070
   272
1070
     2
1070
    77
1070
     1
1070
    73
1070
     0
1070
   171
1070
     3
1070
   274
1070
     4
1070
   177
1070
   150
1070
   176
1070
     9
1070
   178
1070
    43
1070
    78
1070
     8
1070
    48
1040
-0.005
1070
    41
1041
4.175
1070
   147
1041
2.25
1070
    42
1041
1.5875
1070
    44
1041
3.175
1070
   140
1041
4.5
1070
   343
1005
0
1070
   344
1005
0
1002
}
0
DIMENSION
5
2CC
100
AcDbEntity
8
2
62
256
6
ByLayer
370
-3
48
1
60
0
100
AcDbDimension
2
DimnDraft3D7
10
201.15
20
-30.5
30
0
11
194.6
21
4.683553
31
0
70
33
71
5
72
1
41
1
210
0
220
0
230
1
3
Standard
100
AcDbAlignedDimension
13
172.5875
23
30.5
33
0
14
172.5875
24
-30.5
34
0
1001
ACAD
1000
DSTYLE
1002
{
1070
   279
1070
     0
1070
    74
1070
     0
1070
   173
1070
     1
1070
   340
1005
25D
1070
   271
1070
     2
1070
   272
1070
     2
1070
    77
1070
     1
1070
    73
1070
     0
1070
   171
1070
     3
1070
   274
1070
     4
1070
   177
1070
   150
1070
   176
1070
     9
1070
   178
1070
    43
1070
    78
1070
     8
1070
    48
1040
-0.005
1070
    41
1041
4.175
1070
   147
1041
2.25
1070
    42
1041
1.5875
1070
    44
1041
3.175
1070
   140
1041
4.5
1070
   343
1005
0
1070
   344
1005
0
1002
}
0
ENDSEC
0
SECTION
2
OBJECTS
0
DICTIONARY
5
2fd
330
0
100
AcDbDictionary
280
0
281
1
3
ACAD_GROUP
350
2fe
3
ACAD_MLINESTYLE
350
2ff
0
DICTIONARY
5
2fe
330
0
100
AcDbDictionary
280
0
281
1
0
DICTIONARY
5
2ff
330
0
100
AcDbDictionary
280
0
281
1
3
Standard
350
18
0
MLINESTYLE
5
18
330
2ff
100
AcDbMlineStyle
2
Standard
70
0
3

62
256
51
90
52
90
71
2
49
-0.5
62
256
6
ByLayer
49
0.5
62
256
6
ByLayer
0
RASTERVARIABLES
5
2eb
330

100
AcDbRasterVariables
90
0
70
1
71
1
72
1
0
ENDSEC
0
EOF
