0
SECTION
2
HEADER
9
$ACADVER
1
AC1015
9
$DWGCODEPAGE
3
ANSI_1252
9
$HANDSEED
5
31c
9
$ANGBASE
50
0
9
$ANGDIR
70
0
9
$ATTMODE
70
1
9
$AUNITS
70
0
9
$AUPREC
70
0
9
$CECOLOR
62
256
9
$CELTSCALE
40
1
9
$CELTYPE
6
ByLayer
9
$CELWEIGHT
370
-1
9
$CLAYER
8
0
9
$CMLJUST
70
0
9
$CMLSCALE
40
1
9
$CMLSTYLE
2
Standard
9
$DIMSTYLE
2
Standard
9
$TEXTSIZE
40
0.2
9
$TEXTSTYLE
7
Standard
9
$LUNITS
70
2
9
$LUPREC
70
4
9
$EXTNAMES
290
1
9
$INSUNITS
70
4
9
$LTSCALE
40
1
9
$LWDISPLAY
290
0
9
$PDMODE
70
0
9
$PDSIZE
40
0
9
$PLINEGEN
70
0
0
ENDSEC
0
SECTION
2
CLASSES
0
CLASS
1
RASTERVARIABLES
2
AcDbRasterVariables
3
ISM
90
0
280
0
281
0
0
ENDSEC
0
SECTION
2
TABLES
0
TABLE
2
VPORT
5
312
100
AcDbSymbolTable
0
VPORT
5
1
100
AcDbSymbolTableRecord
100
AcDbViewportTableRecord
2
*Active
70
0
10
0
20
0
11
1
21
1
12
-1
22
1
13
0
23
0
14
0.5
24
0.5
15
10
25
10
16
0
26
0
36
1
17
0
27
0
37
0
0
ENDTAB
0
TABLE
2
LTYPE
5
313
100
AcDbSymbolTable
0
LTYPE
5
14
100
AcDbSymbolTableRecord
100
AcDbLinetypeTableRecord
70
0
2
ByBlock
3

72
65
73
0
40
0
0
LTYPE
5
15
100
AcDbSymbolTableRecord
100
AcDbLinetypeTableRecord
70
0
2
ByLayer
3

72
65
73
0
40
0
0
LTYPE
5
16
100
AcDbSymbolTableRecord
100
AcDbLinetypeTableRecord
70
0
2
CONTINUOUS
3
Solid line
72
65
73
0
40
0
0
LTYPE
5
3B
100
AcDbSymbolTableRecord
100
AcDbLinetypeTableRecord
70
0
2
DASHED
3
__ __ __ __ __ __ __ __ __
72
65
73
2
40
25.72
49
12.86
74
0
49
-12.86
74
0
0
LTYPE
5
3C
100
AcDbSymbolTableRecord
100
AcDbLinetypeTableRecord
70
0
2
HIDDEN
3
_ _ _ _ _ _ _ _ _ _ _ _ _ _ _
72
65
73
2
40
0.5
49
0.25
74
0
49
-0.25
74
0
0
LTYPE
5
3D
100
AcDbSymbolTableRecord
100
AcDbLinetypeTableRecord
70
0
2
PHANTOM
3
____ _ _ ____ _ _ _____ _ _ ____
72
65
73
6
40
50.5
49
18
74
0
49
-6.5
74
0
49
6.5
74
0
49
-6.5
74
0
49
6.5
74
0
49
-6.5
74
0
0
LTYPE
5
3E
100
AcDbSymbolTableRecord
100
AcDbLinetypeTableRecord
70
0
2
CENTER
3
____ _ ____ _ ____ _ ____
72
65
73
4
40
47.5
49
22
74
0
49
-8.5
74
0
49
8.5
74
0
49
-8.5
74
0
0
LTYPE
5
3F
100
AcDbSymbolTableRecord
100
AcDbLinetypeTableRecord
70
0
2
DOT
3
.........................
72
65
73
2
40
10
49
0
74
0
49
-10
74
0
0
LTYPE
5
40
100
AcDbSymbolTableRecord
100
AcDbLinetypeTableRecord
70
0
2
DASHDOT
3
_._._._._._._._._._._._._._._._.
72
65
73
4
40
70
49
31
74
0
49
-13
74
0
49
13
74
0
49
-13
74
0
0
ENDTAB
0
TABLE
2
LAYER
5
314
100
AcDbSymbolTable
0
LAYER
5
10
100
AcDbSymbolTableRecord
100
AcDbLayerTableRecord
2
0
70
0
62
7
6
CONTINUOUS
290
1
370
-3
390
0
0
LAYER
5
42
100
AcDbSymbolTableRecord
100
AcDbLayerTableRecord
2
81
70
0
62
-3
6
CONTINUOUS
290
1
370
-3
390
0
0
LAYER
5
44
100
AcDbSymbolTableRecord
100
AcDbLayerTableRecord
2
80
70
0
62
-6
6
CONTINUOUS
290
1
370
-3
390
0
0
LAYER
5
48
100
AcDbSymbolTableRecord
100
AcDbLayerTableRecord
2
1
70
0
62
4
6
CONTINUOUS
290
1
370
-3
390
0
0
LAYER
5
62
100
AcDbSymbolTableRecord
100
AcDbLayerTableRecord
2
4
70
0
62
-2
6
CENTER
290
1
370
-3
390
0
0
LAYER
5
2AB
100
AcDbSymbolTableRecord
100
AcDbLayerTableRecord
2
2
70
0
62
7
6
CONTINUOUS
290
1
370
-3
390
0
0
LAYER
5
2fe
100
AcDbSymbolTableRecord
100
AcDbLayerTableRecord
2
SK1
70
0
62
4
6
CONTINUOUS
290
1
370
-3
390
0
0
LAYER
5
2ff
100
AcDbSymbolTableRecord
100
AcDbLayerTableRecord
2
SK4
70
0
62
2
6
CENTER
290
1
370
-3
390
0
0
LAYER
5
300
100
AcDbSymbolTableRecord
100
AcDbLayerTableRecord
2
SK6
70
0
62
5
6
CONTINUOUS
290
1
370
-3
390
0
0
LAYER
5
301
100
AcDbSymbolTableRecord
100
AcDbLayerTableRecord
2
SK2
70
0
62
7
6
CONTINUOUS
290
1
370
-3
390
0
0
ENDTAB
0
TABLE
2
STYLE
5
315
100
AcDbSymbolTable
0
STYLE
5
11
100
AcDbSymbolTableRecord
100
AcDbTextStyleTableRecord
2
Standard
3
txt
70
0
71
0
40
0
41
1
42
0
50
0
0
STYLE
5
26F
100
AcDbSymbolTableRecord
100
AcDbTextStyleTableRecord
2
DEFAULT
3
simplex.shx
70
0
71
0
40
0
41
1
42
0
50
0
0
STYLE
5
292
100
AcDbSymbolTableRecord
100
AcDbTextStyleTableRecord
2
DWGDirectTextStyle
3
SIMPLEX
70
0
71
0
40
0
41
1
42
0
50
0
0
ENDTAB
0
TABLE
2
DIMSTYLE
5
316
100
AcDbSymbolTable
100
AcDbDimStyleTable
0
DIMSTYLE
105
27
100
AcDbSymbolTableRecord
100
AcDbDimStyleTableRecord
2
Standard
70
0
3
<>
41
0.18
42
0.0625
44
0.18
140
0.18
147
0.09
73
0
74
0
77
1
271
2
275
0
278
52
280
0
340
11
0
ENDTAB
0
TABLE
2
VIEW
5
317
100
AcDbSymbolTable
0
ENDTAB
0
TABLE
2
UCS
5
318
100
AcDbSymbolTable
0
ENDTAB
0
TABLE
2
APPID
5
319
100
AcDbSymbolTable
0
APPID
5
12
100
AcDbSymbolTableRecord
100
AcDbRegAppTableRecord
2
ACAD
70
0
0
ENDTAB
0
TABLE
2
BLOCK_RECORD
5
31a
100
AcDbSymbolTable
0
BLOCK_RECORD
5
1F
100
AcDbSymbolTableRecord
100
AcDbBlockTableRecord
2
*Model_Space
340
0
70
0
0
BLOCK_RECORD
5
1B
100
AcDbSymbolTableRecord
100
AcDbBlockTableRecord
2
*Paper_Space
340
0
70
0
0
BLOCK_RECORD
5
23
100
AcDbSymbolTableRecord
100
AcDbBlockTableRecord
2
*Paper_Space0
340
0
70
0
0
BLOCK_RECORD
5
294
100
AcDbSymbolTableRecord
100
AcDbBlockTableRecord
2
DimnDraft3D1
340
0
70
0
0
BLOCK_RECORD
5
29F
100
AcDbSymbolTableRecord
100
AcDbBlockTableRecord
2
DimnDraft3D2
340
0
70
0
0
BLOCK_RECORD
5
2A9
100
AcDbSymbolTableRecord
100
AcDbBlockTableRecord
2
DimnDraft3D3
340
0
70
0
0
BLOCK_RECORD
5
2B4
100
AcDbSymbolTableRecord
100
AcDbBlockTableRecord
2
DimnDraft3D4
340
0
70
0
0
BLOCK_RECORD
5
2BE
100
AcDbSymbolTableRecord
100
AcDbBlockTableRecord
2
DimnDraft3D5
340
0
70
0
0
BLOCK_RECORD
5
2C9
100
AcDbSymbolTableRecord
100
AcDbBlockTableRecord
2
DimnDraft3D6
340
0
70
0
0
BLOCK_RECORD
5
2D4
100
AcDbSymbolTableRecord
100
AcDbBlockTableRecord
2
DimnDraft3D7
340
0
70
0
0
ENDTAB
0
ENDSEC
0
SECTION
2
BLOCKS
0
BLOCK
5
20
100
AcDbEntity
8
0
100
AcDbBlockBegin
2
*Model_Space
70
0
10
0
20
0
30
0
3
*Model_Space
0
ENDBLK
5
21
100
AcDbEntity
8
0
100
AcDbBlockEnd
0
BLOCK
5
1C
100
AcDbEntity
8
0
100
AcDbBlockBegin
2
*Paper_Space
70
0
10
0
20
0
30
0
3
*Paper_Space
0
ENDBLK
5
1D
100
AcDbEntity
8
0
100
AcDbBlockEnd
0
BLOCK
5
24
100
AcDbEntity
8
0
100
AcDbBlockBegin
2
*Paper_Space0
70
0
10
0
20
0
30
0
3
*Paper_Space0
0
ENDBLK
5
25
100
AcDbEntity
8
0
100
AcDbBlockEnd
0
BLOCK
5
29C
100
AcDbEntity
8
0
100
AcDbBlockBegin
2
DimnDraft3D1
70
0
10
0
20
0
30
0
3
DimnDraft3D1
0
MTEXT
5
295
100
AcDbEntity
8
SK2
62
256
6
ByLayer
370
-1
48
1
60
0
100
AcDbMText
10
81.344079
20
-67.0258
30
0
210
0
220
0
230
1
1
\W01.000;\fsimplex.shx,bigfont.shx;(338) 
40
4.5
41
0
44
1.084337
50
0
71
7
72
5
7
DEFAULT
0
LINE
5
297
100
AcDbEntity
8
SK2
62
256
6
ByLayer
370
-1
48
1
60
0
100
AcDbLine
10
-80
20
-26.5875
30
0
11
-80
21
-73.29455
31
0
39
0
210
0
220
0
230
1
0
LINE
5
298
100
AcDbEntity
8
SK2
62
256
6
ByLayer
370
-1
48
1
60
0
100
AcDbLine
10
258
20
-28.5875
30
0
11
258
21
-73.29455
31
0
39
0
210
0
220
0
230
1
0
LINE
5
299
100
AcDbEntity
8
SK2
62
256
6
ByLayer
370
-1
48
1
60
0
100
AcDbLine
10
-80
20
-70.11955
30
0
11
258
21
-70.11955
31
0
39
0
210
0
220
0
230
1
0
SOLID
5
29A
100
AcDbEntity
8
SK2
62
256
6
ByLayer
370
-1
48
1
60
0
100
AcDbTrace
10
-80
20
-70.11955
30
0
11
-75.825003
21
-69.193975
31
0
12
-75.824997
22
-71.045125
32
0
13
-80
23
-70.11955
33
0
39
0
210
0
220
0
230
1
0
SOLID
5
29B
100
AcDbEntity
8
SK2
62
256
6
ByLayer
370
-1
48
1
60
0
100
AcDbTrace
10
258
20
-70.11955
30
0
11
253.825003
21
-71.045125
31
0
12
253.824997
22
-69.193975
32
0
13
258
23
-70.11955
33
0
39
0
210
0
220
0
230
1
0
ENDBLK
5
29D
100
AcDbEntity
8
0
100
AcDbBlockEnd
0
BLOCK
5
2A6
100
AcDbEntity
8
0
100
AcDbBlockBegin
2
DimnDraft3D2
70
0
10
0
20
0
30
0
3
DimnDraft3D2
0
MTEXT
5
2A0
100
AcDbEntity
8
SK2
62
256
6
ByLayer
370
-1
48
1
60
0
100
AcDbMText
10
-41.503947
20
-57.0258
30
0
210
0
220
0
230
1
1
\W01.000;\fsimplex.shx,bigfont.shx;80 
40
4.5
41
0
44
1.084337
50
0
71
7
72
5
7
DEFAULT
0
LINE
5
2A1
100
AcDbEntity
8
SK2
62
256
6
ByLayer
370
-1
48
1
60
0
100
AcDbLine
10
-80
20
-26.5875
30
0
11
-80
21
-61.3258
31
0
39
0
210
0
220
0
230
1
0
LINE
5
2A2
100
AcDbEntity
8
SK2
62
256
6
ByLayer
370
-1
48
1
60
0
100
AcDbLine
10
0
20
-32.8375
30
0
11
0
21
-61.3258
31
0
39
0
210
0
220
0
230
1
0
LINE
5
2A3
100
AcDbEntity
8
SK2
62
256
6
ByLayer
370
-1
48
1
60
0
100
AcDbLine
10
-80
20
-58.1508
30
0
11
0
21
-58.1508
31
0
39
0
210
0
220
0
230
1
0
SOLID
5
2A4
100
AcDbEntity
8
SK2
62
256
6
ByLayer
370
-1
48
1
60
0
100
AcDbTrace
10
-80
20
-58.1508
30
0
11
-75.825003
21
-57.225225
31
0
12
-75.824997
22
-59.076375
32
0
13
-80
23
-58.1508
33
0
39
0
210
0
220
0
230
1
0
SOLID
5
2A5
100
AcDbEntity
8
SK2
62
256
6
ByLayer
370
-1
48
1
60
0
100
AcDbTrace
10
0
20
-58.1508
30
0
11
-4.174997
21
-59.076375
31
0
12
-4.175003
22
-57.225225
32
0
13
0
23
-58.1508
33
0
39
0
210
0
220
0
230
1
0
ENDBLK
5
2A7
100
AcDbEntity
8
0
100
AcDbBlockEnd
0
BLOCK
5
2B1
100
AcDbEntity
8
0
100
AcDbBlockBegin
2
DimnDraft3D3
70
0
10
0
20
0
30
0
3
DimnDraft3D3
0
MTEXT
5
2AA
100
AcDbEntity
8
2
62
256
6
ByLayer
370
-1
48
1
60
0
100
AcDbMText
10
125.844079
20
-57.0258
30
0
210
0
220
0
230
1
1
\W01.000;\fsimplex.shx,bigfont.shx;258 
40
4.5
41
0
44
1.084337
50
0
71
7
72
5
7
DEFAULT
0
LINE
5
2AC
100
AcDbEntity
8
2
62
256
6
ByLayer
370
-1
48
1
60
0
100
AcDbLine
10
0
20
-32.8375
30
0
11
0
21
-61.3258
31
0
39
0
210
0
220
0
230
1
0
LINE
5
2AD
100
AcDbEntity
8
2
62
256
6
ByLayer
370
-1
48
1
60
0
100
AcDbLine
10
258
20
-28.5875
30
0
11
258
21
-61.3258
31
0
39
0
210
0
220
0
230
1
0
LINE
5
2AE
100
AcDbEntity
8
2
62
256
6
ByLayer
370
-1
48
1
60
0
100
AcDbLine
10
0
20
-58.1508
30
0
11
258
21
-58.1508
31
0
39
0
210
0
220
0
230
1
0
SOLID
5
2AF
100
AcDbEntity
8
2
62
256
6
ByLayer
370
-1
48
1
60
0
100
AcDbTrace
10
0
20
-58.1508
30
0
11
4.174997
21
-57.225225
31
0
12
4.175003
22
-59.076375
32
0
13
0
23
-58.1508
33
0
39
0
210
0
220
0
230
1
0
SOLID
5
2B0
100
AcDbEntity
8
2
62
256
6
ByLayer
370
-1
48
1
60
0
100
AcDbTrace
10
258
20
-58.1508
30
0
11
253.825003
21
-59.076375
31
0
12
253.824997
22
-57.225225
32
0
13
258
23
-58.1508
33
0
39
0
210
0
220
0
230
1
0
ENDBLK
5
2B2
100
AcDbEntity
8
0
100
AcDbBlockEnd
0
BLOCK
5
2BB
100
AcDbEntity
8
0
100
AcDbBlockBegin
2
DimnDraft3D4
70
0
10
0
20
0
30
0
3
DimnDraft3D4
0
MTEXT
5
2B5
100
AcDbEntity
8
SK2
62
256
6
ByLayer
370
-1
48
1
60
0
100
AcDbMText
10
144.906579
20
-47.0258
30
0
210
0
220
0
230
1
1
\W01.000;\fsimplex.shx,bigfont.shx;221 
40
4.5
41
0
44
1.084337
50
0
71
7
72
5
7
DEFAULT
0
LINE
5
2B6
100
AcDbEntity
8
SK2
62
256
6
ByLayer
370
-1
48
1
60
0
100
AcDbLine
10
37
20
-11.5875
30
0
11
37
21
-51.3258
31
0
39
0
210
0
220
0
230
1
0
LINE
5
2B7
100
AcDbEntity
8
SK2
62
256
6
ByLayer
370
-1
48
1
60
0
100
AcDbLine
10
258
20
-28.5875
30
0
11
258
21
-51.3258
31
0
39
0
210
0
220
0
230
1
0
LINE
5
2B8
100
AcDbEntity
8
SK2
62
256
6
ByLayer
370
-1
48
1
60
0
100
AcDbLine
10
37
20
-48.1508
30
0
11
258
21
-48.1508
31
0
39
0
210
0
220
0
230
1
0
SOLID
5
2B9
100
AcDbEntity
8
SK2
62
256
6
ByLayer
370
-1
48
1
60
0
100
AcDbTrace
10
37
20
-48.1508
30
0
11
41.174997
21
-47.225225
31
0
12
41.175003
22
-49.076375
32
0
13
37
23
-48.1508
33
0
39
0
210
0
220
0
230
1
0
SOLID
5
2BA
100
AcDbEntity
8
SK2
62
256
6
ByLayer
370
-1
48
1
60
0
100
AcDbTrace
10
258
20
-48.1508
30
0
11
253.825003
21
-49.076375
31
0
12
253.824997
22
-47.225225
32
0
13
258
23
-48.1508
33
0
39
0
210
0
220
0
230
1
0
ENDBLK
5
2BC
100
AcDbEntity
8
0
100
AcDbBlockEnd
0
BLOCK
5
2C6
100
AcDbEntity
8
0
100
AcDbBlockBegin
2
DimnDraft3D5
70
0
10
0
20
0
30
0
3
DimnDraft3D5
0
MTEXT
5
2BF
100
AcDbEntity
8
SK2
62
256
6
ByLayer
370
-1
48
1
60
0
100
AcDbMText
10
-90.975
20
5.246053
30
0
210
0
220
0
230
1
1
\W01.000;\fsimplex.shx,bigfont.shx;50 
40
4.5
41
0
44
1.084337
50
90
71
7
72
5
7
DEFAULT
0
MTEXT
5
2C0
100
AcDbEntity
8
SK2
62
256
6
ByLayer
370
-1
48
1
60
0
100
AcDbMText
10
-90.975
20
-8.253947
30
0
210
0
220
0
230
1
1
\W01.000;\fsimplex.shx,bigfont.shx;%%c 
40
4.5
41
0
44
1.084337
50
90
71
7
72
5
7
DEFAULT
0
LINE
5
2C1
100
AcDbEntity
8
SK2
62
256
6
ByLayer
370
-1
48
1
60
0
100
AcDbLine
10
-81.5875
20
25
30
0
11
-91.9
21
25
31
0
39
0
210
0
220
0
230
1
0
LINE
5
2C2
100
AcDbEntity
8
SK2
62
256
6
ByLayer
370
-1
48
1
60
0
100
AcDbLine
10
-81.5875
20
-25
30
0
11
-91.9
21
-25
31
0
39
0
210
0
220
0
230
1
0
LINE
5
2C3
100
AcDbEntity
8
SK2
62
256
6
ByLayer
370
-1
48
1
60
0
100
AcDbLine
10
-88.725
20
25
30
0
11
-88.725
21
-25
31
0
39
0
210
0
220
0
230
1
0
SOLID
5
2C4
100
AcDbEntity
8
SK2
62
256
6
ByLayer
370
-1
48
1
60
0
100
AcDbTrace
10
-88.725
20
25
30
0
11
-87.799425
21
20.825003
31
0
12
-89.650575
22
20.824997
32
0
13
-88.725
23
25
33
0
39
0
210
0
220
0
230
1
0
SOLID
5
2C5
100
AcDbEntity
8
SK2
62
256
6
ByLayer
370
-1
48
1
60
0
100
AcDbTrace
10
-88.725
20
-25
30
0
11
-89.650575
21
-20.825003
31
0
12
-87.799425
22
-20.824997
32
0
13
-88.725
23
-25
33
0
39
0
210
0
220
0
230
1
0
ENDBLK
5
2C7
100
AcDbEntity
8
0
100
AcDbBlockEnd
0
BLOCK
5
2D1
100
AcDbEntity
8
0
100
AcDbBlockBegin
2
DimnDraft3D6
70
0
10
0
20
0
30
0
3
DimnDraft3D6
0
MTEXT
5
2CA
100
AcDbEntity
8
SK2
62
256
6
ByLayer
370
-1
48
1
60
0
100
AcDbMText
10
-100.975
20
2.711842
30
0
210
0
220
0
230
1
1
\W01.000;\fsimplex.shx,bigfont.shx;62.5 
40
4.5
41
0
44
1.084337
50
90
71
7
72
5
7
DEFAULT
0
MTEXT
5
2CB
100
AcDbEntity
8
SK2
62
256
6
ByLayer
370
-1
48
1
60
0
100
AcDbMText
10
-100.975
20
-10.788158
30
0
210
0
220
0
230
1
1
\W01.000;\fsimplex.shx,bigfont.shx;%%c 
40
4.5
41
0
44
1.084337
50
90
71
7
72
5
7
DEFAULT
0
LINE
5
2CC
100
AcDbEntity
8
SK2
62
256
6
ByLayer
370
-1
48
1
60
0
100
AcDbLine
10
-1.5875
20
-31.25
30
0
11
-101.9
21
-31.25
31
0
39
0
210
0
220
0
230
1
0
LINE
5
2CD
100
AcDbEntity
8
SK2
62
256
6
ByLayer
370
-1
48
1
60
0
100
AcDbLine
10
-1.5875
20
31.25
30
0
11
-101.9
21
31.25
31
0
39
0
210
0
220
0
230
1
0
LINE
5
2CE
100
AcDbEntity
8
SK2
62
256
6
ByLayer
370
-1
48
1
60
0
100
AcDbLine
10
-98.725
20
-31.25
30
0
11
-98.725
21
31.25
31
0
39
0
210
0
220
0
230
1
0
SOLID
5
2CF
100
AcDbEntity
8
SK2
62
256
6
ByLayer
370
-1
48
1
60
0
100
AcDbTrace
10
-98.725
20
-31.25
30
0
11
-99.650575
21
-27.075003
31
0
12
-97.799425
22
-27.074997
32
0
13
-98.725
23
-31.25
33
0
39
0
210
0
220
0
230
1
0
SOLID
5
2D0
100
AcDbEntity
8
SK2
62
256
6
ByLayer
370
-1
48
1
60
0
100
AcDbTrace
10
-98.725
20
31.25
30
0
11
-97.799425
21
27.075003
31
0
12
-99.650575
22
27.074997
32
0
13
-98.725
23
31.25
33
0
39
0
210
0
220
0
230
1
0
ENDBLK
5
2D2
100
AcDbEntity
8
0
100
AcDbBlockEnd
0
BLOCK
5
2DC
100
AcDbEntity
8
0
100
AcDbBlockBegin
2
DimnDraft3D7
70
0
10
0
20
0
30
0
3
DimnDraft3D7
0
MTEXT
5
2D5
100
AcDbEntity
8
2
62
256
6
ByLayer
370
-1
48
1
60
0
100
AcDbMText
10
282.725
20
5.009211
30
0
210
0
220
0
230
1
1
\W01.000;\fsimplex.shx,bigfont.shx;54 
40
4.5
41
0
44
1.084337
50
90
71
7
72
5
7
DEFAULT
0
MTEXT
5
2D6
100
AcDbEntity
8
2
62
256
6
ByLayer
370
-1
48
1
60
0
100
AcDbMText
10
282.725
20
-8.490789
30
0
210
0
220
0
230
1
1
\W01.000;\fsimplex.shx,bigfont.shx;%%c 
40
4.5
41
0
44
1.084337
50
90
71
7
72
5
7
DEFAULT
0
LINE
5
2D7
100
AcDbEntity
8
2
62
256
6
ByLayer
370
-1
48
1
60
0
100
AcDbLine
10
259.5875
20
27
30
0
11
288.15
21
27
31
0
39
0
210
0
220
0
230
1
0
LINE
5
2D8
100
AcDbEntity
8
2
62
256
6
ByLayer
370
-1
48
1
60
0
100
AcDbLine
10
259.5875
20
-27
30
0
11
288.15
21
-27
31
0
39
0
210
0
220
0
230
1
0
LINE
5
2D9
100
AcDbEntity
8
2
62
256
6
ByLayer
370
-1
48
1
60
0
100
AcDbLine
10
284.975
20
27
30
0
11
284.975
21
-27
31
0
39
0
210
0
220
0
230
1
0
SOLID
5
2DA
100
AcDbEntity
8
2
62
256
6
ByLayer
370
-1
48
1
60
0
100
AcDbTrace
10
284.975
20
27
30
0
11
285.900575
21
22.825003
31
0
12
284.049425
22
22.824997
32
0
13
284.975
23
27
33
0
39
0
210
0
220
0
230
1
0
SOLID
5
2DB
100
AcDbEntity
8
2
62
256
6
ByLayer
370
-1
48
1
60
0
100
AcDbTrace
10
284.975
20
-27
30
0
11
284.049425
21
-22.825003
31
0
12
285.900575
22
-22.824997
32
0
13
284.975
23
-27
33
0
39
0
210
0
220
0
230
1
0
ENDBLK
5
2DD
100
AcDbEntity
8
0
100
AcDbBlockEnd
0
ENDSEC
0
SECTION
2
ENTITIES
0
ARC
5
F8
100
AcDbEntity
8
SK1
62
256
6
ByLayer
370
-1
48
1
60
0
100
AcDbCircle
39
0
10
1.383773
20
25.15
30
0
40
0.4
210
0
220
0
230
-1
100
AcDbArc
50
270
51
295
0
ARC
5
F9
100
AcDbEntity
8
SK1
62
256
6
ByLayer
370
-1
48
1
60
0
100
AcDbCircle
39
0
10
1.383773
20
-25.15
30
0
40
0.4
210
0
220
0
230
-1
100
AcDbArc
50
65
51
90
0
ARC
5
FA
100
AcDbEntity
8
SK1
62
256
6
ByLayer
370
-1
48
1
60
0
100
AcDbCircle
39
0
10
0.15
20
25.15
30
0
40
0.4
210
0
220
0
230
-1
100
AcDbArc
50
247.975687
51
270
0
ARC
5
FB
100
AcDbEntity
8
SK1
62
256
6
ByLayer
370
-1
48
1
60
0
100
AcDbCircle
39
0
10
0.15
20
-25.15
30
0
40
0.4
210
0
220
0
230
-1
100
AcDbArc
50
90
51
112.024313
0
ARC
5
FC
100
AcDbEntity
8
SK1
62
256
6
ByLayer
370
-1
48
1
60
0
100
AcDbCircle
39
0
10
77.894506
20
25.396
30
0
40
0.8
210
0
220
0
230
-1
100
AcDbArc
50
250.982048
51
321
0
ARC
5
FD
100
AcDbEntity
8
SK1
62
256
6
ByLayer
370
-1
48
1
60
0
100
AcDbCircle
39
0
10
77.894506
20
-25.396
30
0
40
0.8
210
0
220
0
230
-1
100
AcDbArc
50
39
51
109.017952
0
ELLIPSE
5
FE
100
AcDbEntity
8
1
62
256
6
ByLayer
370
-1
48
1
60
0
100
AcDbEllipse
10
99.579499
20
0
30
0
11
-464.179004226633
21
-25.2402815812526
31
0
210
0
220
0
230
-1
40
0.014313
41
-1.90694341025517
42
-1.87447279968831
0
ELLIPSE
5
FF
100
AcDbEntity
8
1
62
256
6
ByLayer
370
-1
48
1
60
0
100
AcDbEllipse
10
234.622364
20
16.2
30
0
11
1.17145334231521E-16
21
0.0999999999999092
31
0
210
0
220
0
230
1
40
0.983472
41
2.99471947290054
42
-1.5707963267949
0
ELLIPSE
5
100
100
AcDbEntity
8
1
62
256
6
ByLayer
370
-1
48
1
60
0
100
AcDbEllipse
10
208.749448
20
19.65311
30
0
11
-1.84451496415832
21
-12.2620456917676
31
0
210
0
220
0
230
1
40
0.179112
41
1.43811225279861
42
1.50621112323792
0
ELLIPSE
5
101
100
AcDbEntity
8
1
62
256
6
ByLayer
370
-1
48
1
60
0
100
AcDbEllipse
10
248.210624
20
-5.704639
30
0
11
-2
21
2.02127811016473E-15
31
0
210
0
220
0
230
1
40
0.997564
41
-2.25595810801175
42
-0.8857327020264
0
ELLIPSE
5
102
100
AcDbEntity
8
1
62
256
6
ByLayer
370
-1
48
1
60
0
100
AcDbEllipse
10
256.252231
20
0
30
0
11
-1.61105011596262
21
26.0993011651945
31
0
210
0
220
0
230
-1
40
0.118552
41
-2.03272869487781
42
-1.48470979286439
0
ELLIPSE
5
103
100
AcDbEntity
8
1
62
256
6
ByLayer
370
-1
48
1
60
0
100
AcDbEllipse
10
240.841667
20
0
30
0
11
-141.76726351534
21
-1.60636442407245E-13
31
0
210
0
220
0
230
-1
40
0.184105
41
1.42526927575861
42
1.52760681901257
0
ELLIPSE
5
104
100
AcDbEntity
8
1
62
256
6
ByLayer
370
-1
48
1
60
0
100
AcDbEllipse
10
248.210624
20
-5.132636
30
0
11
2.1
21
0
31
0
210
0
220
0
230
1
40
0.997564
41
0.111231860453876
42
3.02878980800884
0
ELLIPSE
5
105
100
AcDbEntity
8
1
62
256
6
ByLayer
370
-1
48
1
60
0
100
AcDbEllipse
10
232.362807
20
16.101077
30
0
11
-1.84451496415832
21
-12.2620456917676
31
0
210
0
220
0
230
1
40
0.179112
41
0.334633182059316
42
0.982934063312982
0
ELLIPSE
5
106
100
AcDbEntity
8
1
62
256
6
ByLayer
370
-1
48
1
60
0
100
AcDbEllipse
10
248.680649
20
17.200457
30
0
11
2.34290668463255E-15
21
2
31
0
210
0
220
0
230
1
40
0.996195
41
-2.31505908012445
42
0
0
ELLIPSE
5
107
100
AcDbEntity
8
1
62
256
6
ByLayer
370
-1
48
1
60
0
100
AcDbEllipse
10
248.680649
20
17.200457
30
0
11
2.34290668463255E-15
21
2
31
0
210
0
220
0
230
1
40
0.996195
41
0
42
1.57079625281728
0
ELLIPSE
5
108
100
AcDbEntity
8
1
62
256
6
ByLayer
370
-1
48
1
60
0
100
AcDbEllipse
10
248.680649
20
17.200457
30
0
11
2.34290668463255E-15
21
2
31
0
210
0
220
0
230
1
40
0.996195
41
1.57079654872778
42
-2.77098265070852
0
ELLIPSE
5
109
100
AcDbEntity
8
1
62
256
6
ByLayer
370
-1
48
1
60
0
100
AcDbEllipse
10
239.511228
20
16.786191
30
0
11
-0.799516360141551
21
-0.0278134835287885
31
0
210
0
220
0
230
1
40
0.003042
41
0.087213571463673
42
0.835501239377881
0
ELLIPSE
5
10A
100
AcDbEntity
8
1
62
256
6
ByLayer
370
-1
48
1
60
0
100
AcDbEllipse
10
239.461325
20
18.921979
30
0
11
-0.773306931853481
21
-0.824449290114477
31
0
210
0
220
0
230
-1
40
0.04503
41
-0.751663143632161
42
-0.698503670647585
0
ELLIPSE
5
10B
100
AcDbEntity
8
1
62
256
6
ByLayer
370
-1
48
1
60
0
100
AcDbEllipse
10
241.062766
20
9.436069
30
0
11
-2.25092568282431E-15
21
-2.1
31
0
210
0
220
0
230
1
40
0.996195
41
-1.53588974175501
42
-0.989768096475471
0
ELLIPSE
5
10C
100
AcDbEntity
8
1
62
256
6
ByLayer
370
-1
48
1
60
0
100
AcDbEllipse
10
241.062766
20
9.436069
30
0
11
-2.25092568282431E-15
21
-2.1
31
0
210
0
220
0
230
1
40
0.996195
41
-0.883665763009188
42
-0.185238245500795
0
ELLIPSE
5
10D
100
AcDbEntity
8
1
62
256
6
ByLayer
370
-1
48
1
60
0
100
AcDbEllipse
10
256.00267
20
9.02424
30
0
11
-0.0116265995507379
21
0.800081337735487
31
0
210
0
220
0
230
-1
40
0.121069
41
2.37652364749084
42
-3.14102270316967
0
ELLIPSE
5
10E
100
AcDbEntity
8
1
62
256
6
ByLayer
370
-1
48
1
60
0
100
AcDbEllipse
10
239.872995
20
27.995956
30
0
11
-2.14373874554696E-14
21
-20
31
0
210
0
220
0
230
1
40
0.996195
41
-0.418879020478638
42
-0.0434047493287114
0
ELLIPSE
5
10F
100
AcDbEntity
8
1
62
256
6
ByLayer
370
-1
48
1
60
0
100
AcDbEllipse
10
240.360998
20
16.831561
30
0
11
2.46005201886418E-15
21
2.1
31
0
210
0
220
0
230
1
40
0.996195
41
0.936707351596551
42
1.60570291183478
0
ELLIPSE
5
110
100
AcDbEntity
8
1
62
256
6
ByLayer
370
-1
48
1
60
0
100
AcDbEllipse
10
248.680649
20
17.200457
30
0
11
2.63577002021162E-15
21
2.25
31
0
210
0
220
0
230
1
40
0.996195
41
0.0349501263397862
42
1.57079643761665
0
ELLIPSE
5
111
100
AcDbEntity
8
1
62
256
6
ByLayer
370
-1
48
1
60
0
100
AcDbEllipse
10
248.680649
20
17.200457
30
0
11
2.63577002021162E-15
21
2.25
31
0
210
0
220
0
230
1
40
0.996195
41
1.57079643761666
42
1.87572723107153
0
ELLIPSE
5
112
100
AcDbEntity
8
1
62
256
6
ByLayer
370
-1
48
1
60
0
100
AcDbEllipse
10
248.210624
20
-5.21591
30
0
11
-1.65
21
1.6675544408859E-15
31
0
210
0
220
0
230
1
40
0.997564
41
-3.11636194851898
42
-0.0253295671303054
0
ELLIPSE
5
113
100
AcDbEntity
8
1
62
256
6
ByLayer
370
-1
48
1
60
0
100
AcDbEllipse
10
240.618272
20
9.436069
30
0
11
2.46005201886418E-15
21
2.1
31
0
210
0
220
0
230
1
40
0.996195
41
1.60570291183478
42
1.85734834615478
0
ELLIPSE
5
114
100
AcDbEntity
8
1
62
256
6
ByLayer
370
-1
48
1
60
0
100
AcDbEllipse
10
239.94272
20
27.995956
30
0
11
2.24919041724725E-14
21
19.2
31
0
210
0
220
0
230
1
40
0.996195
41
2.72271363311116
42
3.07194059112382
0
ELLIPSE
5
115
100
AcDbEntity
8
1
62
256
6
ByLayer
370
-1
48
1
60
0
100
AcDbEllipse
10
247.504478
20
3.1E-05
30
0
11
-298.324189219943
21
-1.14764529550957E-06
31
0
210
0
220
0
230
-1
40
0.087489
41
1.52821455262662
42
1.54034048317739
0
ELLIPSE
5
116
100
AcDbEntity
8
1
62
256
6
ByLayer
370
-1
48
1
60
0
100
AcDbEllipse
10
255.602677
20
2.158519
30
0
11
-0.0122910326092485
21
0.800898478922743
31
0
210
0
220
0
230
-1
40
0.121731
41
-1.49491363822741
42
0.0758826885752664
0
ELLIPSE
5
117
100
AcDbEntity
8
1
62
256
6
ByLayer
370
-1
48
1
60
0
100
AcDbEllipse
10
104.308069
20
35.363677
30
0
11
-130.487381661769
21
19.4665616148774
31
0
210
0
220
0
230
-1
40
0.09398
41
-3.08409804629354
42
-2.80035612757905
0
ELLIPSE
5
118
100
AcDbEntity
8
1
62
256
6
ByLayer
370
-1
48
1
60
0
100
AcDbEllipse
10
208.748613
20
19.653235
30
0
11
-41.7505240218219
21
18.8122963804865
31
0
210
0
220
0
230
-1
40
0.00974
41
2.05744791486245
42
2.14821409466285
0
ELLIPSE
5
119
100
AcDbEntity
8
1
62
256
6
ByLayer
370
-1
48
1
60
0
100
AcDbEllipse
10
240.967664
20
9.436069
30
0
11
-1.83236116208136
21
-1.63166900511644
31
0
210
0
220
0
230
-1
40
0.721468
41
-1.30152588459597
42
-0.789346067693774
0
ELLIPSE
5
11A
100
AcDbEntity
8
1
62
256
6
ByLayer
370
-1
48
1
60
0
100
AcDbEllipse
10
239.768502
20
9.390699
30
0
11
-0.799516360141551
21
-0.0278134835287885
31
0
210
0
220
0
230
1
40
0.003042
41
0.0872135714666033
42
0.835501239378713
0
ELLIPSE
5
11B
100
AcDbEntity
8
1
62
256
6
ByLayer
370
-1
48
1
60
0
100
AcDbEllipse
10
205.354904
20
20.167845
30
0
11
-32.2031419220197
21
17.0845306457213
31
0
210
0
220
0
230
-1
40
0.092875
41
-2.41605998280233
42
-1.67233593731206
0
ELLIPSE
5
11C
100
AcDbEntity
8
1
62
256
6
ByLayer
370
-1
48
1
60
0
100
AcDbEllipse
10
254.867925
20
-14.732261
30
0
11
-0.25851467619358
21
-3.04948126482172
31
0
210
0
220
0
230
-1
40
0.126317
41
-2.46420430657495
42
2.56863071391967
0
ELLIPSE
5
11D
100
AcDbEntity
8
1
62
256
6
ByLayer
370
-1
48
1
60
0
100
AcDbEllipse
10
255.209309
20
-14.832366
30
0
11
-0.167085502731876
21
3.1728186921041
31
0
210
0
220
0
230
-1
40
0.113742
41
-0.558710896426486
42
0.691639390257612
0
ELLIPSE
5
11E
100
AcDbEntity
8
1
62
256
6
ByLayer
370
-1
48
1
60
0
100
AcDbEllipse
10
256.303033
20
-13.525853
30
0
11
-0.0766931515666855
21
-0.877709776632821
31
0
210
0
220
0
230
-1
40
0.115977
41
0.0117126501989012
42
1.58250897698772
0
ELLIPSE
5
11F
100
AcDbEntity
8
1
62
256
6
ByLayer
370
-1
48
1
60
0
100
AcDbEllipse
10
235.675608
20
0
30
0
11
-147.647424921556
21
1.87906208217654
31
0
210
0
220
0
230
-1
40
0.176314
41
-1.5841515521293
42
-1.50292241895959
0
ELLIPSE
5
120
100
AcDbEntity
8
1
62
256
6
ByLayer
370
-1
48
1
60
0
100
AcDbEllipse
10
249.090281
20
17.200457
30
0
11
2.34290668463255E-15
21
2
31
0
210
0
220
0
230
1
40
0.996195
41
0.102985300926076
42
1.57079604872776
0
ELLIPSE
5
121
100
AcDbEntity
8
1
62
256
6
ByLayer
370
-1
48
1
60
0
100
AcDbEllipse
10
249.090281
20
17.200457
30
0
11
2.34290668463255E-15
21
2
31
0
210
0
220
0
230
1
40
0.996195
41
1.57079654872776
42
3.03860729631731
0
ELLIPSE
5
122
100
AcDbEntity
8
1
62
256
6
ByLayer
370
-1
48
1
60
0
100
AcDbEllipse
10
248.480191
20
17.200457
30
0
11
2.63577002021162E-15
21
2.25
31
0
210
0
220
0
230
1
40
0.996195
41
-1.85157617454789
42
0
0
ELLIPSE
5
123
100
AcDbEntity
8
1
62
256
6
ByLayer
370
-1
48
1
60
0
100
AcDbEllipse
10
248.480191
20
17.200457
30
0
11
2.63577002021162E-15
21
2.25
31
0
210
0
220
0
230
1
40
0.996195
41
0
42
1.16248744141283
0
ELLIPSE
5
124
100
AcDbEntity
8
1
62
256
6
ByLayer
370
-1
48
1
60
0
100
AcDbEllipse
10
232.093369
20
10.455883
30
0
11
-0.32642564083682
21
-0.730374082922081
31
0
210
0
220
0
230
1
40
0.079621
41
0.035569836570855
42
1.60636616336575
0
ELLIPSE
5
125
100
AcDbEntity
8
1
62
256
6
ByLayer
370
-1
48
1
60
0
100
AcDbEllipse
10
232.362807
20
16.101077
30
0
11
-1.84451496415832
21
-12.2620456917676
31
0
210
0
220
0
230
1
40
0.179112
41
1.52621870282159
42
1.59773272093277
0
ELLIPSE
5
126
100
AcDbEntity
8
1
62
256
6
ByLayer
370
-1
48
1
60
0
100
AcDbEllipse
10
18
20
6.970945
30
0
11
-12.5
21
1.26329881885295E-14
31
0
210
0
220
0
230
1
40
0.792725
41
-1.7328583338188
42
-0.158594879406969
0
ELLIPSE
5
127
100
AcDbEntity
8
1
62
256
6
ByLayer
370
-1
48
1
60
0
100
AcDbEllipse
10
258.120247
20
0
30
0
11
-2.11715286031616
21
-26.098612744581
31
0
210
0
220
0
230
-1
40
0.127103
41
0.048391445369229
42
1.09123573453087
0
ELLIPSE
5
128
100
AcDbEntity
8
1
62
256
6
ByLayer
370
-1
48
1
60
0
100
AcDbEllipse
10
239.18884
20
0.00072
30
0
11
-0.845053692350553
21
26.0991750339312
31
0
210
0
220
0
230
-1
40
0.087399
41
0.0332861342598672
42
0.0399879949560196
0
ELLIPSE
5
129
100
AcDbEntity
8
1
62
256
6
ByLayer
370
-1
48
1
60
0
100
AcDbEllipse
10
240.805492
20
16.831561
30
0
11
-2.25092568282431E-15
21
-2.1
31
0
210
0
220
0
230
1
40
0.996195
41
-2.04006119942522
42
-1.535889741755
0
ELLIPSE
5
12A
100
AcDbEntity
8
1
62
256
6
ByLayer
370
-1
48
1
60
0
100
AcDbEllipse
10
253.232987
20
0
30
0
11
-59.3908201686369
21
25.2928000222827
31
0
210
0
220
0
230
-1
40
0.108448
41
-1.207396566327
42
-0.603267735946183
0
ELLIPSE
5
12B
100
AcDbEntity
8
1
62
256
6
ByLayer
370
-1
48
1
60
0
100
AcDbEllipse
10
248.210624
20
-5.132636
30
0
11
-1.65
21
1.6675544408859E-15
31
0
210
0
220
0
230
1
40
0.997564
41
-3.14159248669499
42
0
0
ELLIPSE
5
12C
100
AcDbEntity
8
1
62
256
6
ByLayer
370
-1
48
1
60
0
100
AcDbEllipse
10
248.210624
20
-5.132636
30
0
11
-1.65
21
1.6675544408859E-15
31
0
210
0
220
0
230
1
40
0.997564
41
0
42
0.755749343123919
0
ELLIPSE
5
12D
100
AcDbEntity
8
1
62
256
6
ByLayer
370
-1
48
1
60
0
100
AcDbEllipse
10
248.210624
20
-5.132636
30
0
11
-1.65
21
1.6675544408859E-15
31
0
210
0
220
0
230
1
40
0.997564
41
2.46300836072421
42
3.14159221294405
0
ELLIPSE
5
12E
100
AcDbEntity
8
1
62
256
6
ByLayer
370
-1
48
1
60
0
100
AcDbEllipse
10
249.681363
20
13.181681
30
0
11
-5.19131082315854E-16
21
-0.484323085911665
31
0
210
0
220
0
230
1
40
0.996195
41
-2.80630586876536
42
0.0349065850398707
0
ELLIPSE
5
12F
100
AcDbEntity
8
1
62
256
6
ByLayer
370
-1
48
1
60
0
100
AcDbEllipse
10
248.189928
20
17.478319
30
0
11
3.68413502519129E-15
21
3.14492681194351
31
0
210
0
220
0
230
1
40
0.996195
41
0
42
6.28318530717959
0
ELLIPSE
5
130
100
AcDbEntity
8
1
62
256
6
ByLayer
370
-1
48
1
60
0
100
AcDbEllipse
10
252.737952
20
18.985921
30
0
11
-0.399758180070775
21
-0.0139067417643943
31
0
210
0
220
0
230
1
40
0.003042
41
1.6580098982609
42
2.13691498313438
0
ELLIPSE
5
131
100
AcDbEntity
8
1
62
256
6
ByLayer
370
-1
48
1
60
0
100
AcDbEllipse
10
249.337782
20
22.168742
30
0
11
-0.0140130575244593
21
0.399754467415708
31
0
210
0
220
0
230
1
40
0.087103
41
-1.5738496276308
42
-1.09494454275608
0
ELLIPSE
5
132
100
AcDbEntity
8
1
62
256
6
ByLayer
370
-1
48
1
60
0
100
AcDbEllipse
10
243.294801
20
21.236935
30
0
11
0.348527918949297
21
0.372328201608302
31
0
210
0
220
0
230
1
40
0.063742
41
-2.15470096795635
42
-1.51119985916248
0
ELLIPSE
5
133
100
AcDbEntity
8
1
62
256
6
ByLayer
370
-1
48
1
60
0
100
AcDbEllipse
10
252.672049
20
13.28638
30
0
11
3.51436002694881E-16
21
0.299999999999999
31
0
210
0
220
0
230
1
40
0.996195
41
-3.10668606854998
42
-1.53588974175502
0
ELLIPSE
5
134
100
AcDbEntity
8
1
62
256
6
ByLayer
370
-1
48
1
60
0
100
AcDbEllipse
10
244.365801
20
21.024711
30
0
11
-0.705563291487065
21
0.659061826839665
31
0
210
0
220
0
230
-1
40
0.031444
41
0.960945087820195
42
1.6044461967241
0
ELLIPSE
5
135
100
AcDbEntity
8
1
62
256
6
ByLayer
370
-1
48
1
60
0
100
AcDbEllipse
10
252.567749
20
16.284552
30
0
11
3.51436002694884E-16
21
0.300000000000001
31
0
210
0
220
0
230
1
40
0.996195
41
-1.53588974175502
42
1.30532271205024
0
ELLIPSE
5
136
100
AcDbEntity
8
1
62
256
6
ByLayer
370
-1
48
1
60
0
100
AcDbEllipse
10
252.365916
20
21.973624
30
0
11
-5.19131082315855E-16
21
-0.484323085911666
31
0
210
0
220
0
230
1
40
0.996195
41
1.60570291183474
42
-3.10668606854999
0
ELLIPSE
5
137
100
AcDbEntity
8
1
62
256
6
ByLayer
370
-1
48
1
60
0
100
AcDbEllipse
10
252.831563
20
16.295022
30
0
11
-0.399758180070775
21
-0.0139067417643943
31
0
210
0
220
0
230
1
40
0.003042
41
1.65800989826083
42
2.13691498313438
0
ELLIPSE
5
138
100
AcDbEntity
8
1
62
256
6
ByLayer
370
-1
48
1
60
0
100
AcDbEllipse
10
244.307651
20
14.085264
30
0
11
0.348527918949297
21
0.372328201608302
31
0
210
0
220
0
230
1
40
0.063742
41
-2.1547009679563
42
-1.54779877208525
0
ELLIPSE
5
139
100
AcDbEntity
8
1
62
256
6
ByLayer
370
-1
48
1
60
0
100
AcDbEllipse
10
244.307651
20
14.085264
30
0
11
-0.719441079957326
21
-0.0251232539697394
31
0
210
0
220
0
230
-1
40
0.002159
41
-2.27604469502998
42
-1.63254358617245
0
ELLIPSE
5
13A
100
AcDbEntity
8
1
62
256
6
ByLayer
370
-1
48
1
60
0
100
AcDbEllipse
10
244.34321
20
14.085264
30
0
11
3.5846472274878E-16
21
0.306
31
0
210
0
220
0
230
1
40
0.996195
41
0.881327184779148
42
2.39110107523226
0
ELLIPSE
5
13B
100
AcDbEntity
8
1
62
256
6
ByLayer
370
-1
48
1
60
0
100
AcDbEllipse
10
243.765717
20
13.463614
30
0
11
3.58464722748779E-16
21
0.305999999999999
31
0
210
0
220
0
230
1
40
0.996195
41
-1.3939926871508
42
1.747599966439
0
ELLIPSE
5
13C
100
AcDbEntity
8
1
62
256
6
ByLayer
370
-1
48
1
60
0
100
AcDbEllipse
10
244.805204
20
14.582585
30
0
11
3.5846472274878E-16
21
0.306
31
0
210
0
220
0
230
1
40
0.996195
41
-0.106990469564242
42
0.820304748434559
0
ELLIPSE
5
13D
100
AcDbEntity
8
1
62
256
6
ByLayer
370
-1
48
1
60
0
100
AcDbEllipse
10
244.599283
20
13.613115
30
0
11
1.35420006371761E-15
21
1.156
31
0
210
0
220
0
230
1
40
0.996195
41
1.74759996643899
42
-2.42145532631398
0
ELLIPSE
5
13E
100
AcDbEntity
8
1
62
256
6
ByLayer
370
-1
48
1
60
0
100
AcDbEllipse
10
244.040851
20
14.252073
30
0
11
2.34993540468645E-15
21
2.006
31
0
210
0
220
0
230
1
40
0.996195
41
-2.421455326314
42
-2.22112048399088
0
ELLIPSE
5
13F
100
AcDbEntity
8
1
62
256
6
ByLayer
370
-1
48
1
60
0
100
AcDbEllipse
10
245.122155
20
12.974157
30
0
11
-0.337063013710963
21
0.382738193531927
31
0
210
0
220
0
230
1
40
0.065516
41
-2.27193125321738
42
-0.984929035630303
0
ELLIPSE
5
140
100
AcDbEntity
8
1
62
256
6
ByLayer
370
-1
48
1
60
0
100
AcDbEllipse
10
245.353152
20
13.222817
30
0
11
-0.406468958660142
21
0.308030819311541
31
0
210
0
220
0
230
1
40
0.052768
41
-2.28381636720095
42
-0.99681414961418
0
ELLIPSE
5
141
100
AcDbEntity
8
1
62
256
6
ByLayer
370
-1
48
1
60
0
100
AcDbEllipse
10
244.080191
20
22.08238
30
0
11
-0.956951144400104
21
1.59255145265676
31
0
210
0
220
0
230
-1
40
0.020508
41
1.58311883872062
42
2.22661994676115
0
ELLIPSE
5
142
100
AcDbEntity
8
1
62
256
6
ByLayer
370
-1
48
1
60
0
100
AcDbEllipse
10
243.730158
20
13.463614
30
0
11
0.502108561637824
21
0.089369974432105
31
0
210
0
220
0
230
1
40
0.015329
41
-2.12838464107927
42
-0.841382423491658
0
ELLIPSE
5
143
100
AcDbEntity
8
1
62
256
6
ByLayer
370
-1
48
1
60
0
100
AcDbEllipse
10
244.769645
20
14.582585
30
0
11
0.373651049327858
21
-0.347109339165904
31
0
210
0
220
0
230
1
40
0.05944
41
1.50689827555572
42
2.15039938434926
0
ELLIPSE
5
144
100
AcDbEntity
8
1
62
256
6
ByLayer
370
-1
48
1
60
0
100
AcDbEllipse
10
248.263284
20
17.478319
30
0
11
-3.30786649004912E-15
21
-3.0860724021715
31
0
210
0
220
0
230
1
40
0.996195
41
2.2155101975546
42
0
0
ELLIPSE
5
145
100
AcDbEntity
8
1
62
256
6
ByLayer
370
-1
48
1
60
0
100
AcDbEllipse
10
248.263284
20
17.478319
30
0
11
-3.30786649004912E-15
21
-3.0860724021715
31
0
210
0
220
0
230
1
40
0.996195
41
0
42
0.92608266050835
0
ELLIPSE
5
146
100
AcDbEntity
8
1
62
256
6
ByLayer
370
-1
48
1
60
0
100
AcDbEllipse
10
244.769645
20
14.582585
30
0
11
-0.0546667450361105
21
-0.507061679667431
31
0
210
0
220
0
230
1
40
0.086657
41
1.58013866027565
42
2.22363976906916
0
ELLIPSE
5
147
100
AcDbEntity
8
1
62
256
6
ByLayer
370
-1
48
1
60
0
100
AcDbEllipse
10
244.365801
20
21.024711
30
0
11
0.099131498336372
21
0.500272871578687
31
0
210
0
220
0
230
1
40
0.085506
41
-2.19735568521924
42
-1.55385457642578
0
ELLIPSE
5
148
100
AcDbEntity
8
1
62
256
6
ByLayer
370
-1
48
1
60
0
100
AcDbEllipse
10
252.244497
20
16.363262
30
0
11
0.386088292974543
21
-0.104574519018753
31
0
210
0
220
0
230
1
40
0.022867
41
1.4865722556227
42
1.96547734049762
0
ELLIPSE
5
149
100
AcDbEntity
8
1
62
256
6
ByLayer
370
-1
48
1
60
0
100
AcDbEllipse
10
248.286998
20
17.478319
30
0
11
-3.19627500372467E-15
21
-2.98196318032136
31
0
210
0
220
0
230
1
40
0.996195
41
0
42
6.28318530717959
0
ELLIPSE
5
14A
100
AcDbEntity
8
1
62
256
6
ByLayer
370
-1
48
1
60
0
100
AcDbEllipse
10
249.660853
20
12.881864
30
0
11
0.0140130575244593
21
-0.399754467415708
31
0
210
0
220
0
230
1
40
0.087103
41
1.08883794108433
42
1.56774302595899
0
ELLIPSE
5
14B
100
AcDbEntity
8
1
62
256
6
ByLayer
370
-1
48
1
60
0
100
AcDbEllipse
10
244.401361
20
21.024711
30
0
11
-3.27992028068685E-16
21
-0.306
31
0
210
0
220
0
230
1
40
0.996195
41
-0.194895099806065
42
1.83550459668068
0
ELLIPSE
5
14C
100
AcDbEntity
8
1
62
256
6
ByLayer
370
-1
48
1
60
0
100
AcDbEllipse
10
252.470216
20
18.975451
30
0
11
-5.19131082315857E-16
21
-0.484323085911668
31
0
210
0
220
0
230
1
40
0.996195
41
-1.23550954197048
42
1.60570291183474
0
ELLIPSE
5
14D
100
AcDbEntity
8
1
62
256
6
ByLayer
370
-1
48
1
60
0
100
AcDbEllipse
10
248.682358
20
17.478319
30
0
11
-2.51889302601768E-15
21
-2.35
31
0
210
0
220
0
230
1
40
0.996195
41
3.14159250310004
42
0
0
ELLIPSE
5
14E
100
AcDbEntity
8
1
62
256
6
ByLayer
370
-1
48
1
60
0
100
AcDbEllipse
10
244.657228
20
19.961598
30
0
11
0.348527918949297
21
0.372328201608302
31
0
210
0
220
0
230
1
40
0.063742
41
-2.15470096795635
42
-0.86769875036941
0
ELLIPSE
5
14F
100
AcDbEntity
8
1
62
256
6
ByLayer
370
-1
48
1
60
0
100
AcDbEllipse
10
244.080191
20
22.08238
30
0
11
0.492364140378782
21
0.132956960212932
31
0
210
0
220
0
230
1
40
0.022802
41
-2.13005594553361
42
-1.48655483674054
0
ELLIPSE
5
150
100
AcDbEntity
8
1
62
256
6
ByLayer
370
-1
48
1
60
0
100
AcDbEllipse
10
244.080191
20
22.08238
30
0
11
0.348527918949297
21
0.372328201608302
31
0
210
0
220
0
230
1
40
0.063742
41
-1.51119985916248
42
-0.867698750368744
0
ELLIPSE
5
151
100
AcDbEntity
8
1
62
256
6
ByLayer
370
-1
48
1
60
0
100
AcDbEllipse
10
249.379152
20
21.868925
30
0
11
-5.19131082315854E-16
21
-0.484323085911665
31
0
210
0
220
0
230
1
40
0.996195
41
-3.10668606854987
42
-0.265473614744707
0
ELLIPSE
5
152
100
AcDbEntity
8
1
62
256
6
ByLayer
370
-1
48
1
60
0
100
AcDbEllipse
10
252.668127
20
13.28638
30
0
11
-5.19131082315855E-16
21
-0.484323085911666
31
0
210
0
220
0
230
1
40
0.996195
41
0.0349065850398082
42
1.60570291183474
0
ELLIPSE
5
153
100
AcDbEntity
8
1
62
256
6
ByLayer
370
-1
48
1
60
0
100
AcDbEllipse
10
244.11575
20
22.08238
30
0
11
3.5846472274878E-16
21
0.306
31
0
210
0
220
0
230
1
40
0.996195
41
-0.750491578357678
42
1.83550459668068
0
ELLIPSE
5
154
100
AcDbEntity
8
1
62
256
6
ByLayer
370
-1
48
1
60
0
100
AcDbEllipse
10
244.294972
20
14.071616
30
0
11
-0.373400828126681
21
0.346876892031235
31
0
210
0
220
0
230
1
40
0.05944
41
-1.63469437803416
42
-0.992087287820554
0
ELLIPSE
5
155
100
AcDbEntity
8
1
62
256
6
ByLayer
370
-1
48
1
60
0
100
AcDbEllipse
10
252.157059
20
18.876739
30
0
11
0.377881813134091
21
0.131169109558966
31
0
210
0
220
0
230
1
40
0.028678
41
-1.96727167110237
42
-1.48836658622699
0
ELLIPSE
5
156
100
AcDbEntity
8
1
62
256
6
ByLayer
370
-1
48
1
60
0
100
AcDbEllipse
10
249.269802
20
21.579435
30
0
11
0.105319664736271
21
0.385885693204399
31
0
210
0
220
0
230
1
40
0.084103
41
-2.02675136305796
42
-1.54784627818304
0
ELLIPSE
5
157
100
AcDbEntity
8
1
62
256
6
ByLayer
370
-1
48
1
60
0
100
AcDbEllipse
10
244.714781
20
13.737445
30
0
11
-1.23908099492614E-15
21
-1.156
31
0
210
0
220
0
230
1
40
0.996195
41
0.92047216959888
42
3.0346021840255
0
ELLIPSE
5
158
100
AcDbEntity
8
1
62
256
6
ByLayer
370
-1
48
1
60
0
100
AcDbEllipse
10
245.478177
20
20.807043
30
0
11
-3.27992028068685E-16
21
-0.306
31
0
210
0
220
0
230
1
40
0.996195
41
-0.750491578357555
42
2.39110107523211
0
ELLIPSE
5
159
100
AcDbEntity
8
1
62
256
6
ByLayer
370
-1
48
1
60
0
100
AcDbEllipse
10
248.189928
20
17.478319
30
0
11
4.76275080978689E-15
21
4.06567691408833
31
0
210
0
220
0
230
1
40
0.996195
41
-2.80630586876537
42
-1.83626994153954
0
ELLIPSE
5
15A
100
AcDbEntity
8
1
62
256
6
ByLayer
370
-1
48
1
60
0
100
AcDbEllipse
10
244.365801
20
21.024711
30
0
11
0.492364140378782
21
0.132956960212932
31
0
210
0
220
0
230
1
40
0.022802
41
-1.48655483674071
42
-0.843053727948464
0
ELLIPSE
5
15B
100
AcDbEntity
8
1
62
256
6
ByLayer
370
-1
48
1
60
0
100
AcDbEllipse
10
252.324546
20
22.273441
30
0
11
-0.0140130575244593
21
0.399754467415708
31
0
210
0
220
0
230
1
40
0.087103
41
-1.5738496276308
42
-1.09494454275597
0
ELLIPSE
5
15C
100
AcDbEntity
8
1
62
256
6
ByLayer
370
-1
48
1
60
0
100
AcDbEllipse
10
252.633652
20
21.984094
30
0
11
0.399758180070775
21
0.0139067417643955
31
0
210
0
220
0
230
1
40
0.003042
41
-1.48358275532882
42
-1.00467767045536
0
ELLIPSE
5
15D
100
AcDbEntity
8
1
62
256
6
ByLayer
370
-1
48
1
60
0
100
AcDbEllipse
10
252.474138
20
18.975451
30
0
11
-3.21560811832046E-16
21
-0.300000000000001
31
0
210
0
220
0
230
1
40
0.996195
41
-1.23550954197052
42
1.60570291183477
0
ELLIPSE
5
15E
100
AcDbEntity
8
1
62
256
6
ByLayer
370
-1
48
1
60
0
100
AcDbEllipse
10
244.307644
20
14.085266
30
0
11
-0.0251729966351026
21
0.720861431683697
31
0
210
0
220
0
230
-1
40
0.061596
41
1.5729501815304
42
1.6095463765022
0
ELLIPSE
5
15F
100
AcDbEntity
8
1
62
256
6
ByLayer
370
-1
48
1
60
0
100
AcDbEllipse
10
244.714781
20
13.737445
30
0
11
-5.83096938788774E-16
21
-0.544
31
0
210
0
220
0
230
1
40
0.996195
41
0.920472169598865
42
2.7754978497279
0
ELLIPSE
5
160
100
AcDbEntity
8
1
62
256
6
ByLayer
370
-1
48
1
60
0
100
AcDbEllipse
10
252.369838
20
21.973624
30
0
11
-3.21560811832043E-16
21
-0.299999999999999
31
0
210
0
220
0
230
1
40
0.996195
41
1.60570291183477
42
-3.10668606854998
0
ELLIPSE
5
161
100
AcDbEntity
8
1
62
256
6
ByLayer
370
-1
48
1
60
0
100
AcDbEllipse
10
243.33036
20
21.236935
30
0
11
3.5846472274878E-16
21
0.306
31
0
210
0
220
0
230
1
40
0.996195
41
-0.194895099805997
42
2.39110107523224
0
ELLIPSE
5
162
100
AcDbEntity
8
1
62
256
6
ByLayer
370
-1
48
1
60
0
100
AcDbEllipse
10
244.599283
20
13.613115
30
0
11
6.37270618220054E-16
21
0.544
31
0
210
0
220
0
230
1
40
0.996195
41
1.74759996643892
42
-2.42145532631405
0
ELLIPSE
5
163
100
AcDbEntity
8
1
62
256
6
ByLayer
370
-1
48
1
60
0
100
AcDbEllipse
10
248.189928
20
17.478319
30
0
11
4.76275080978689E-15
21
4.06567691408833
31
0
210
0
220
0
230
1
40
0.996195
41
-1.23550954197047
42
-0.265473614744635
0
ELLIPSE
5
164
100
AcDbEntity
8
1
62
256
6
ByLayer
370
-1
48
1
60
0
100
AcDbEllipse
10
244.294972
20
14.071616
30
0
11
0.373651049327858
21
-0.347109339165904
31
0
210
0
220
0
230
1
40
0.05944
41
1.47029936263281
42
2.15039938434926
0
ELLIPSE
5
165
100
AcDbEntity
8
1
62
256
6
ByLayer
370
-1
48
1
60
0
100
AcDbEllipse
10
252.647616
20
12.986563
30
0
11
0.0140130575244593
21
-0.399754467415708
31
0
210
0
220
0
230
1
40
0.087103
41
1.08883794108465
42
1.56774302595899
0
ELLIPSE
5
166
100
AcDbEntity
8
1
62
256
6
ByLayer
370
-1
48
1
60
0
100
AcDbEllipse
10
249.552087
20
13.464976
30
0
11
0.13206404143556
21
-0.377569978890942
31
0
210
0
220
0
230
1
40
0.082303
41
1.54201700516305
42
2.02092209003777
0
ELLIPSE
5
167
100
AcDbEntity
8
1
62
256
6
ByLayer
370
-1
48
1
60
0
100
AcDbEllipse
10
248.19385
20
17.478319
30
0
11
4.97867670484417E-15
21
4.25
31
0
210
0
220
0
230
1
40
0.996195
41
-1.23550954197047
42
-0.265473614744643
0
ELLIPSE
5
168
100
AcDbEntity
8
1
62
256
6
ByLayer
370
-1
48
1
60
0
100
AcDbEllipse
10
248.19385
20
17.478319
30
0
11
-4.5554448342873E-15
21
-4.25
31
0
210
0
220
0
230
1
40
0.996195
41
0.33528678482442
42
1.30532271205025
0
ELLIPSE
5
169
100
AcDbEntity
8
1
62
256
6
ByLayer
370
-1
48
1
60
0
100
AcDbEllipse
10
243.294801
20
21.236935
30
0
11
-1.65004005275006
21
0.846499037445131
31
0
210
0
220
0
230
-1
40
0.010943
41
1.59212368471522
42
2.2356247942068
0
ELLIPSE
5
16A
100
AcDbEntity
8
1
62
256
6
ByLayer
370
-1
48
1
60
0
100
AcDbEllipse
10
249.685285
20
13.181681
30
0
11
3.5143600269488E-16
21
0.299999999999998
31
0
210
0
220
0
230
1
40
0.996195
41
0.335286784824529
42
-3.10668606854998
0
ELLIPSE
5
16B
100
AcDbEntity
8
1
62
256
6
ByLayer
370
-1
48
1
60
0
100
AcDbEllipse
10
252.563827
20
16.284552
30
0
11
-5.19131082315857E-16
21
-0.484323085911668
31
0
210
0
220
0
230
1
40
0.996195
41
1.60570291183474
42
-1.83626994153958
0
ELLIPSE
5
16C
100
AcDbEntity
8
1
62
256
6
ByLayer
370
-1
48
1
60
0
100
AcDbEllipse
10
244.692787
20
19.961598
30
0
11
-3.27992028068685E-16
21
-0.306
31
0
210
0
220
0
230
1
40
0.996195
41
-0.750491578357678
42
2.39110107523211
0
ELLIPSE
5
16D
100
AcDbEntity
8
1
62
256
6
ByLayer
370
-1
48
1
60
0
100
AcDbEllipse
10
243.294801
20
21.236935
30
0
11
0.099131498336372
21
0.500272871578687
31
0
210
0
220
0
230
1
40
0.085506
41
-1.55385457642578
42
-0.910353467632622
0
ELLIPSE
5
16E
100
AcDbEntity
8
1
62
256
6
ByLayer
370
-1
48
1
60
0
100
AcDbEllipse
10
245.442618
20
20.807043
30
0
11
0.348527918949297
21
0.372328201608302
31
0
210
0
220
0
230
1
40
0.063742
41
-2.1547009679553
42
-0.867698750369297
0
ELLIPSE
5
16F
100
AcDbEntity
8
1
62
256
6
ByLayer
370
-1
48
1
60
0
100
AcDbEllipse
10
244.714781
20
13.737445
30
0
11
-3.27992028068685E-16
21
-0.306
31
0
210
0
220
0
230
1
40
0.996195
41
-0.750491578357555
42
2.39110107523226
0
ELLIPSE
5
170
100
AcDbEntity
8
1
62
256
6
ByLayer
370
-1
48
1
60
0
100
AcDbEllipse
10
244.679222
20
13.737445
30
0
11
-0.348527918949297
21
-0.372328201608302
31
0
210
0
220
0
230
1
40
0.063742
41
0.986891685633968
42
2.27389390322101
0
ELLIPSE
5
171
100
AcDbEntity
8
1
62
256
6
ByLayer
370
-1
48
1
60
0
100
AcDbEllipse
10
249.383074
20
21.868925
30
0
11
-3.21560811832042E-16
21
-0.299999999999998
31
0
210
0
220
0
230
1
40
0.996195
41
-3.10668606854988
42
-0.265473614744719
0
ELLIPSE
5
172
100
AcDbEntity
8
1
62
256
6
ByLayer
370
-1
48
1
60
0
100
AcDbEllipse
10
244.040851
20
14.252073
30
0
11
1.63300595918889E-15
21
1.394
31
0
210
0
220
0
230
1
40
0.996195
41
-2.42145532631401
42
-2.2211204839909
0
ELLIPSE
5
173
100
AcDbEntity
8
1
62
256
6
ByLayer
370
-1
48
1
60
0
100
AcDbEllipse
10
248.447526
20
17.478319
30
0
11
-2.51889302601768E-15
21
-2.35
31
0
210
0
220
0
230
1
40
0.996195
41
3.09878844376696
42
0
0
ELLIPSE
5
174
100
AcDbEntity
8
1
62
256
6
ByLayer
370
-1
48
1
60
0
100
AcDbEllipse
10
248.447526
20
17.478319
30
0
11
-2.51889302601768E-15
21
-2.35
31
0
210
0
220
0
230
1
40
0.996195
41
0
42
0.0335758030814264
0
ELLIPSE
5
175
100
AcDbEntity
8
1
62
256
6
ByLayer
370
-1
48
1
60
0
100
AcDbEllipse
10
252.935863
20
13.29685
30
0
11
0.399758180070775
21
0.0139067417643955
31
0
210
0
220
0
230
1
40
0.003042
41
-1.48358275532903
42
-1.004677670455
0
ELLIPSE
5
176
100
AcDbEntity
8
1
62
256
6
ByLayer
370
-1
48
1
60
0
100
AcDbEllipse
10
248.45444
20
-6.320459
30
0
11
2.35
21
0
31
0
210
0
220
0
230
1
40
0.997564
41
1.09042716618076
42
2.48470527840784
0
ELLIPSE
5
177
100
AcDbEntity
8
1
62
256
6
ByLayer
370
-1
48
1
60
0
100
AcDbEllipse
10
255.501036
20
-9.221365
30
0
11
-0.930122584002571
21
9.40018209407124E-16
31
0
210
0
220
0
230
1
40
0.997564
41
3.1066860685501
42
-2.69332860952293
0
ELLIPSE
5
178
100
AcDbEntity
8
1
62
256
6
ByLayer
370
-1
48
1
60
0
100
AcDbEllipse
10
255.501036
20
-9.584099
30
0
11
-2.5
21
2.52659763770591E-15
31
0
210
0
220
0
230
1
40
0.997564
41
3.10668606854991
42
-2.69332860952305
0
ELLIPSE
5
179
100
AcDbEntity
8
1
62
256
6
ByLayer
370
-1
48
1
60
0
100
AcDbEllipse
10
255.464811
20
-11.754147
30
0
11
-0.877716125058898
21
8.87054195260078E-16
31
0
210
0
220
0
230
1
40
0.997564
41
2.61506283409377
42
3.10668606854994
0
ELLIPSE
5
17A
100
AcDbEntity
8
1
62
256
6
ByLayer
370
-1
48
1
60
0
100
AcDbEllipse
10
260.45764
20
-7.042268
30
0
11
-3.28854371812186
21
3.32353071587972E-15
31
0
210
0
220
0
230
1
40
0.997564
41
0.0523598775598286
42
0.448264044066722
0
ELLIPSE
5
17B
100
AcDbEntity
8
1
62
256
6
ByLayer
370
-1
48
1
60
0
100
AcDbEllipse
10
260.45764
20
-7.206196
30
0
11
-3
21
3.03191716524709E-15
31
0
210
0
220
0
230
1
40
0.997564
41
0.0523598775598302
42
0.448264044066741
0
ELLIPSE
5
17C
100
AcDbEntity
8
1
62
256
6
ByLayer
370
-1
48
1
60
0
100
AcDbEllipse
10
256.339263
20
-8.791328
30
0
11
0.360314897804336
21
0.173704272890022
31
0
210
0
220
0
230
1
40
0.062865
41
-2.51868976424649
42
-1.60109345549654
0
ELLIPSE
5
17D
100
AcDbEntity
8
1
62
256
6
ByLayer
370
-1
48
1
60
0
100
AcDbEllipse
10
255.501036
20
-9.221365
30
0
11
1.23012258400268
21
0
31
0
210
0
220
0
230
1
40
0.997564
41
-0.0349065850399184
42
0.448264044066745
0
ELLIPSE
5
17E
100
AcDbEntity
8
1
62
256
6
ByLayer
370
-1
48
1
60
0
100
AcDbEllipse
10
248.45444
20
-6.132507
30
0
11
2.35
21
0
31
0
210
0
220
0
230
1
40
0.997564
41
1.38269361528275
42
2.42383717155513
0
ELLIPSE
5
17F
100
AcDbEntity
8
1
62
256
6
ByLayer
370
-1
48
1
60
0
100
AcDbEllipse
10
256.341993
20
-11.756802
30
0
11
0.399755140417831
21
-0.0139938454157769
31
0
210
0
220
0
230
1
40
0.069714
41
-1.92669472069763
42
-1.56835592109669
0
ELLIPSE
5
180
100
AcDbEntity
8
1
62
256
6
ByLayer
370
-1
48
1
60
0
100
AcDbEllipse
10
260.45764
20
-6.843462
30
0
11
4.56987741599753
21
0
31
0
210
0
220
0
230
1
40
0.997564
41
-2.92568719492327
42
-2.69332860952308
0
ELLIPSE
5
181
100
AcDbEntity
8
1
62
256
6
ByLayer
370
-1
48
1
60
0
100
AcDbEllipse
10
255.501036
20
-9.420171
30
0
11
-2.21145628187815
21
2.23498408707329E-15
31
0
210
0
220
0
230
1
40
0.997564
41
3.1066860685499
42
-2.69332860952304
0
ELLIPSE
5
182
100
AcDbEntity
8
1
62
256
6
ByLayer
370
-1
48
1
60
0
100
AcDbEllipse
10
260.45764
20
-6.843462
30
0
11
-4.26987741599731
21
4.31530487702104E-15
31
0
210
0
220
0
230
1
40
0.997564
41
0.052359877559823
42
0.448264044066727
0
ELLIPSE
5
183
100
AcDbEntity
8
1
62
256
6
ByLayer
370
-1
48
1
60
0
100
AcDbEllipse
10
255.464811
20
-11.754147
30
0
11
1.17771612505888
21
0
31
0
210
0
220
0
230
1
40
0.997564
41
-0.844765942593602
42
-0.0349065850399106
0
ELLIPSE
5
184
100
AcDbEntity
8
1
62
256
6
ByLayer
370
-1
48
1
60
0
100
AcDbEllipse
10
256.430592
20
-9.225844
30
0
11
0.399755140417831
21
-0.0139938454157769
31
0
210
0
220
0
230
1
40
0.069714
41
-2.69073150380461
42
-1.56835592109669
0
ELLIPSE
5
185
100
AcDbEntity
8
1
62
256
6
ByLayer
370
-1
48
1
60
0
100
AcDbEllipse
10
254.447888
20
-0.85985
30
0
11
1.41771612505888
21
0
31
0
210
0
220
0
230
1
40
0.997564
41
0.0523598775598194
42
0.349065850398695
0
POINT
5
41
100
AcDbEntity
8
81
62
256
6
ByLayer
370
-1
48
1
60
0
100
AcDbPoint
10
258
20
0
30
0
39
0
210
0
220
0
230
1
50
360
0
POINT
5
43
100
AcDbEntity
8
80
62
256
6
ByLayer
370
-1
48
1
60
0
100
AcDbPoint
10
0
20
0
30
0
39
0
210
0
220
0
230
1
50
360
0
SPLINE
5
186
100
AcDbEntity
8
1
62
256
6
ByLayer
370
-1
48
1
60
0
100
AcDbSpline
70
4
71
3
72
17
73
13
40
0
40
0
40
0
40
0
40
0.0628364194121014
40
0.12571374401478
40
0.188570082900246
40
0.251453476148155
40
0.314322022111165
40
0.437714759810998
40
0.560923992766373
40
0.707346766894211
40
0.853609743879263
40
1
40
1
40
1
40
1
41
1
10
37
20
26.5949999999999
30
0
41
1
10
36.3177102609015
20
26.5952461486205
30
0
41
1
10
34.9623207580951
20
26.6697003847335
30
0
41
1
10
32.9496307100111
20
27.0251161030606
30
0
41
1
10
30.9824107209703
20
27.5591086759108
30
0
41
1
10
28.9992523435961
20
28.0303701157727
30
0
41
1
10
26.3767207213297
20
28.6394026769574
30
0
41
1
10
23.1042773683508
20
29.3310850929132
30
0
41
1
10
18.9243859599229
20
30.0882651206324
30
0
41
1
10
14.4729515394252
20
30.7168884442576
30
0
41
1
10
9.74429253142499
20
31.1485099691738
30
0
41
1
10
6.58392597887231
20
31.2459156514215
30
0
41
1
10
5.00000000000004
20
31.25
30
0
0
SPLINE
5
187
100
AcDbEntity
8
1
62
256
6
ByLayer
370
-1
48
1
60
0
100
AcDbSpline
70
4
71
3
72
18
73
14
40
0
40
0
40
0
40
0
40
0.139742995361948
40
0.279354907300926
40
0.419096286315104
40
0.559082541570154
40
0.622017233659765
40
0.684992967943376
40
0.747998395220206
40
0.811018875101444
40
0.874012794587821
40
0.937026496629188
40
1
40
1
40
1
40
1
41
1
10
4.99999999999996
20
-31.25
30
0
41
1
10
6.51186630527589
20
-31.2464572754358
30
0
41
1
10
9.52879746368201
20
-31.1574383175217
30
0
41
1
10
14.0436268100453
20
-30.7628037606334
30
0
41
1
10
18.5351386580972
20
-30.1528044336998
30
0
41
1
10
22.1817767233991
20
-29.5035997852657
30
0
41
1
10
24.9974759360679
20
-28.9304391024751
30
0
41
1
10
26.9924223950849
20
-28.4964530003754
30
0
41
1
10
28.9818964933935
20
-28.0344439599105
30
0
41
1
10
30.9694529054065
20
-27.5623785878305
30
0
41
1
10
32.9409553996545
20
-27.0272414699032
30
0
41
1
10
34.9578539150331
20
-26.6699568020286
30
0
41
1
10
36.3162036563791
20
-26.5952483077285
30
0
41
1
10
37
20
-26.5950000000001
30
0
0
SPLINE
5
188
100
AcDbEntity
8
1
62
256
6
ByLayer
370
-1
48
1
60
0
100
AcDbSpline
70
4
71
3
72
24
73
20
40
0
40
0
40
0
40
0
40
0.0512219324959605
40
0.114795075180368
40
0.178268200557141
40
0.241581453348874
40
0.304701879023922
40
0.367626814561695
40
0.430381895458699
40
0.493015351539967
40
0.555590417373244
40
0.618167359708171
40
0.68080202419049
40
0.743557000804862
40
0.806479913224991
40
0.869596202215431
40
0.932903765868147
40
0.996370983435466
40
1
40
1
40
1
40
1
41
1
10
248.546449271216
20
19.8192903825736
30
0
41
1
10
248.668913735341
20
19.8172162521046
30
0
41
1
10
248.938269028596
20
19.7900078856412
30
0
41
1
10
249.344763184368
20
19.6624571658707
30
0
41
1
10
249.745102238078
20
19.4479398885443
30
0
41
1
10
250.096907810238
20
19.1586958600487
30
0
41
1
10
250.386692714708
20
18.8070497543718
30
0
41
1
10
250.603786968887
20
18.4060413376739
30
0
41
1
10
250.74027699165
20
17.9708996489455
30
0
41
1
10
250.791347176143
20
17.5178720803447
30
0
41
1
10
250.755348305648
20
17.0637844887914
30
0
41
1
10
250.633818964248
20
16.6253832188009
30
0
41
1
10
250.431389803383
20
16.2188234372665
30
0
41
1
10
250.155545673704
20
15.8587409802707
30
0
41
1
10
249.816359055264
20
15.5591696336142
30
0
41
1
10
249.426058206457
20
15.3279963857516
30
0
41
1
10
248.999161848899
20
15.1859431576858
30
0
41
1
10
248.691597015659
20
15.1227245341222
30
0
41
1
10
248.53327262761
20
15.1314330404977
30
0
41
1
10
248.524703688994
20
15.1319793427253
30
0
0
SPLINE
5
189
100
AcDbEntity
8
1
62
256
6
ByLayer
370
-1
48
1
60
0
100
AcDbSpline
70
4
71
3
72
15
73
11
40
0
40
0
40
0
40
0
40
0.091474129271195
40
0.229437682764308
40
0.367126487142425
40
0.504576224909226
40
0.641855656450641
40
0.77905603155229
40
0.916262737680263
40
1
40
1
40
1
40
1
41
1
10
246.600875344117
20
-4.88391069820744
30
0
41
1
10
246.662640477271
20
-4.80510414722167
30
0
41
1
10
246.830364377915
20
-4.6172262091826
30
0
41
1
10
247.144946063261
20
-4.36231623778815
30
0
41
1
10
247.548336627124
20
-4.14834137590782
30
0
41
1
10
247.985280927674
20
-4.01562232921736
30
0
41
1
10
248.439430843673
20
-3.96894006960267
30
0
41
1
10
248.893872955345
20
-4.00986959470848
30
0
41
1
10
249.274797304899
20
-4.1202500023478
30
0
41
1
10
249.495516539803
20
-4.22334250891922
30
0
41
1
10
249.576555815731
20
-4.2671370722546
30
0
0
SPLINE
5
18A
100
AcDbEntity
8
1
62
256
6
ByLayer
370
-1
48
1
60
0
100
AcDbSpline
70
4
71
3
72
8
73
4
40
0
40
0
40
0
40
0
40
1
40
1
40
1
40
1
41
1
10
14.8593770781225
20
-4.80357091934331
30
0
41
1
10
18.1391369948468
20
-6.45283035285385
30
0
41
1
10
21.4052495940753
20
-8.11441817507367
30
0
41
1
10
24.643958292921
20
-9.79667260722161
30
0
0
SPLINE
5
18B
100
AcDbEntity
8
1
62
256
6
ByLayer
370
-1
48
1
60
0
100
AcDbSpline
70
4
71
3
72
8
73
4
40
0
40
0
40
0
40
0
40
1
40
1
40
1
40
1
41
1
10
232.342362415558
20
9.44180553129172
30
0
41
1
10
232.613065039677
20
9.29653407065058
30
0
41
1
10
232.887900760818
20
9.15776210495943
30
0
41
1
10
233.167458477962
20
9.02583490292145
30
0
0
SPLINE
5
18C
100
AcDbEntity
8
1
62
256
6
ByLayer
370
-1
48
1
60
0
100
AcDbSpline
70
4
71
3
72
8
73
4
40
0
40
0
40
0
40
0
40
1
40
1
40
1
40
1
41
1
10
35.3690752261373
20
-14.7091143053911
30
0
41
1
10
34.1166599473812
20
-14.2756656428623
30
0
41
1
10
32.8692105596836
20
-13.8237928495902
30
0
41
1
10
31.6275838648797
20
-13.3500148018961
30
0
0
SPLINE
5
18D
100
AcDbEntity
8
1
62
256
6
ByLayer
370
-1
48
1
60
0
100
AcDbSpline
70
4
71
3
72
8
73
4
40
0
40
0
40
0
40
0
40
1
40
1
40
1
40
1
41
1
10
35.3831016631706
20
-14.7126158477092
30
0
41
1
10
35.378425731647
20
-14.7114512098438
30
0
41
1
10
35.3737502447781
20
-14.7102840631554
30
0
41
1
10
35.3690752070785
20
-14.7091144092983
30
0
0
SPLINE
5
18E
100
AcDbEntity
8
1
62
256
6
ByLayer
370
-1
48
1
60
0
100
AcDbSpline
70
4
71
3
72
8
73
4
40
0
40
0
40
0
40
0
40
1
40
1
40
1
40
1
41
1
10
237.767025188897
20
4.96544864601932
30
0
41
1
10
237.063065608449
20
4.71867528732921
30
0
41
1
10
236.340331453263
20
4.50485063131197
30
0
41
1
10
235.605371012713
20
4.32770564971798
30
0
0
SPLINE
5
18F
100
AcDbEntity
8
1
62
256
6
ByLayer
370
-1
48
1
60
0
100
AcDbSpline
70
4
71
3
72
12
73
8
40
0
40
0
40
0
40
0
40
0.250000000000015
40
0.250000000000015
40
0.50000000000003
40
0.50000000000003
40
1
40
1
40
1
40
1
41
1
10
238.435651718058
20
26.0819840678781
30
0
41
1
10
238.44097408441
20
26.0797530048937
30
0
41
1
10
238.452897968658
20
26.0773796598219
30
0
41
1
10
238.489429711935
20
26.0724113182296
30
0
41
1
10
238.514455531312
20
26.0697889958147
30
0
41
1
10
238.605639320355
20
26.0620941619389
30
0
41
1
10
238.689672176522
20
26.0570197465855
30
0
41
1
10
238.790015844373
20
26.0530092751335
30
0
0
SPLINE
5
190
100
AcDbEntity
8
1
62
256
6
ByLayer
370
-1
48
1
60
0
100
AcDbSpline
70
4
71
3
72
18
73
14
40
0
40
0
40
0
40
0
40
0.250000000000006
40
0.250000000000006
40
0.375000000000004
40
0.375000000000004
40
0.437500000000003
40
0.437500000000003
40
0.500000000000003
40
0.500000000000003
40
0.750000000000001
40
0.750000000000001
40
1
40
1
40
1
40
1
41
1
10
235.605371012713
20
4.32770564971807
30
0
41
1
10
235.263148334552
20
4.24522089723487
30
0
41
1
10
234.875802622951
20
4.18947614422297
30
0
41
1
10
234.244577239887
20
4.14902745624599
30
0
41
1
10
234.025666890019
20
4.14279010716578
30
0
41
1
10
233.685842611281
20
4.14506518141857
30
0
41
1
10
233.57065344802
20
4.14776433930462
30
0
41
1
10
233.336613000671
20
4.15719891003701
30
0
41
1
10
233.217485251904
20
4.16395626664172
30
0
41
1
10
232.61659374273
20
4.20799003465447
30
0
41
1
10
232.122279328829
20
4.27547111185348
30
0
41
1
10
231.115788359723
20
4.47712252312152
30
0
41
1
10
230.603531148186
20
4.61129048450695
30
0
41
1
10
230.085008763184
20
4.78167973850501
30
0
0
SPLINE
5
191
100
AcDbEntity
8
1
62
256
6
ByLayer
370
-1
48
1
60
0
100
AcDbSpline
70
4
71
3
72
16
73
12
40
0
40
0
40
0
40
0
40
0.500000000000003
40
0.500000000000003
40
0.750000000000004
40
0.750000000000004
40
0.812500000000003
40
0.812500000000003
40
0.875000000000002
40
0.875000000000002
40
1
40
1
40
1
40
1
41
1
10
37
20
-16.7478386199826
30
0
41
1
10
36.1002804346267
20
-16.549567739693
30
0
41
1
10
35.2017393287692
20
-16.4205160669258
30
0
41
1
10
33.8580877922646
20
-16.3287877903749
30
0
41
1
10
33.4108984409947
20
-16.3152253744991
30
0
41
1
10
32.8530441859886
20
-16.3196674183835
30
0
41
1
10
32.7415300141691
20
-16.3216265866186
30
0
41
1
10
32.5186218894665
20
-16.3276938734339
30
0
41
1
10
32.4072184204414
20
-16.3315253892172
30
0
41
1
10
32.073013609021
20
-16.3413624230504
30
0
41
1
10
31.8502704403253
20
-16.3471798764362
30
0
41
1
10
31.6275838648797
20
-16.352243873985
30
0
0
SPLINE
5
192
100
AcDbEntity
8
1
62
256
6
ByLayer
370
-1
48
1
60
0
100
AcDbSpline
70
4
71
3
72
20
73
16
40
0
40
0
40
0
40
0
40
0.124999999999999
40
0.124999999999999
40
0.249999999999999
40
0.249999999999999
40
0.499999999999998
40
0.499999999999998
40
0.624999999999998
40
0.624999999999998
40
0.749999999999999
40
0.749999999999999
40
0.874999999999999
40
0.874999999999999
40
1
40
1
40
1
40
1
41
1
10
239.008475221884
20
8.01479285881965
30
0
41
1
10
239.013447568866
20
8.01479285881965
30
0
41
1
10
239.012388948955
20
8.02137817841589
30
0
41
1
10
238.999870968727
20
8.0460279365025
30
0
41
1
10
238.988355537846
20
8.06436302640603
30
0
41
1
10
238.944381347674
20
8.13228913284919
30
0
41
1
10
238.902212975928
20
8.19585380957957
30
0
41
1
10
238.836644737157
20
8.30813557527841
30
0
41
1
10
238.814191656705
20
8.34858688663005
30
0
41
1
10
238.769079434115
20
8.43605490101297
30
0
41
1
10
238.746887505458
20
8.48219652776498
30
0
41
1
10
238.704357782121
20
8.57850242946688
30
0
41
1
10
238.683933288484
20
8.6288196013555
30
0
41
1
10
238.645228357129
20
8.73440907984283
30
0
41
1
10
238.627489342452
20
8.78826553179076
30
0
41
1
10
238.611566167872
20
8.8425108020223
30
0
0
SPLINE
5
193
100
AcDbEntity
8
1
62
256
6
ByLayer
370
-1
48
1
60
0
100
AcDbSpline
70
4
71
3
72
34
73
30
40
0
40
0
40
0
40
0
40
0.0147795706920023
40
0.0147795706920023
40
0.0905657575618481
40
0.0905657575618481
40
0.166351944431694
40
0.166351944431694
40
0.24213813130154
40
0.24213813130154
40
0.317924318171386
40
0.317924318171386
40
0.393710505041232
40
0.393710505041232
40
0.469496691911078
40
0.469496691911078
40
0.545282878780924
40
0.545282878780924
40
0.62106906565077
40
0.62106906565077
40
0.696855252520616
40
0.696855252520616
40
0.772641439390462
40
0.772641439390462
40
0.848427626260308
40
0.848427626260308
40
0.924213813130154
40
0.924213813130154
40
1
40
1
40
1
40
1
41
1
10
14.26670586358
20
-4.55392517335571
30
0
41
1
10
14.262444130478
20
-4.51702240741767
30
0
41
1
10
14.2588651372069
20
-4.47801197083166
30
0
41
1
10
14.2411390320757
20
-4.22615148988228
30
0
41
1
10
14.24435012483
20
-3.96041558658351
30
0
41
1
10
14.2867689697573
20
-3.32662274597266
30
0
41
1
10
14.3259761343962
20
-2.9585745871853
30
0
41
1
10
14.439259784847
20
-2.13074638811597
30
0
41
1
10
14.513334701592
20
-1.67097781389958
30
0
41
1
10
14.6942230344593
20
-0.672937833998702
30
0
41
1
10
14.8010339451373
20
-0.134680251945582
30
0
41
1
10
15.0443212821842
20
1.00484950709287
30
0
41
1
10
15.1807943388339
20
1.60610590070317
30
0
41
1
10
15.4794792578253
20
2.85433158660021
30
0
41
1
10
15.6416869831481
20
3.50128358998862
30
0
41
1
10
15.9871738076361
20
4.8222832547394
30
0
41
1
10
16.1704481215396
20
5.4963126192271
30
0
41
1
10
16.5527942907471
20
6.85206999557499
30
0
41
1
10
16.7518608502587
20
7.53377922913916
30
0
41
1
10
17.1600630501494
20
8.88527777822375
30
0
41
1
10
17.3691930366099
20
9.55504837443624
30
0
41
1
10
17.7915038577484
20
10.8633941196655
30
0
41
1
10
18.0046788430924
20
11.5019511470743
30
0
41
1
10
18.4289448523855
20
12.7294919808498
30
0
41
1
10
18.6400299999198
20
13.3184587848196
30
0
41
1
10
19.0540414970718
20
14.4298680362493
30
0
41
1
10
19.2569621123079
20
14.9522950898252
30
0
41
1
10
19.6488045055571
20
15.9155881700698
30
0
41
1
10
19.8377208562478
20
16.3564408543789
30
0
41
1
10
20.0169192007981
20
16.7501682882884
30
0
0
SPLINE
5
194
100
AcDbEntity
8
1
62
256
6
ByLayer
370
-1
48
1
60
0
100
AcDbSpline
70
4
71
3
72
28
73
24
40
0
40
0
40
0
40
0
40
0.0240464886517686
40
0.0240464886517686
40
0.132485767690459
40
0.132485767690459
40
0.349364325767842
40
0.349364325767842
40
0.457803604806532
40
0.457803604806532
40
0.512023244325879
40
0.512023244325879
40
0.566242883845225
40
0.566242883845225
40
0.674682162883917
40
0.674682162883917
40
0.728901802403265
40
0.728901802403265
40
0.783121441922612
40
0.783121441922612
40
0.891560720961306
40
0.891560720961306
40
1
40
1
40
1
40
1
41
1
10
178.317809192356
20
21.6516007431553
30
0
41
1
10
178.653723506799
20
21.7036575928991
30
0
41
1
10
178.98965134307
20
21.7552891846443
30
0
41
1
10
180.840552163888
20
22.0373979006981
30
0
41
1
10
182.35575847592
20
22.2597305209883
30
0
41
1
10
186.901626075331
20
22.9018481998033
30
0
41
1
10
189.932152564821
20
23.2972097067815
30
0
41
1
10
194.482366837615
20
23.8328822061007
30
0
41
1
10
195.99989883406
20
24.0018385232021
30
0
41
1
10
198.277628789023
20
24.2406481412167
30
0
41
1
10
199.037010157459
20
24.317830154283
30
0
41
1
10
200.555334140449
20
24.4675993800706
30
0
41
1
10
201.314313081367
20
24.5402307249776
30
0
41
1
10
203.591322290435
20
24.7505826547318
30
0
41
1
10
205.1094642634
20
24.8807928904315
30
0
41
1
10
207.385525134966
20
25.0624933845529
30
0
41
1
10
208.14412876194
20
25.1206592032517
30
0
41
1
10
209.661544598708
20
25.2318317669224
30
0
41
1
10
210.420335720247
20
25.2848680265433
30
0
41
1
10
212.696519217294
20
25.436737029737
30
0
41
1
10
214.213591694786
20
25.5283986068053
30
0
41
1
10
217.248103831609
20
25.6914750180339
30
0
41
1
10
218.765550205546
20
25.7629028843089
30
0
41
1
10
220.283438626884
20
25.8241129137651
30
0
0
SPLINE
5
195
100
AcDbEntity
8
1
62
256
6
ByLayer
370
-1
48
1
60
0
100
AcDbSpline
70
4
71
3
72
8
73
4
40
0
40
0
40
0
40
0
40
1
40
1
40
1
40
1
41
1
10
20.016919200799
20
16.7501682882886
30
0
41
1
10
20.016919200799
20
17.9108161885482
30
0
41
1
10
20.016919200799
20
19.0714640888079
30
0
41
1
10
20.016919200799
20
20.2321119890676
30
0
0
SPLINE
5
196
100
AcDbEntity
8
1
62
256
6
ByLayer
370
-1
48
1
60
0
100
AcDbSpline
70
4
71
3
72
12
73
8
40
0
40
0
40
0
40
0
40
0.436074305216255
40
0.436074305216255
40
0.872148610432509
40
0.872148610432509
40
1
40
1
40
1
40
1
41
1
10
147.5
20
-25.1040133972181
30
0
41
1
10
152.235874451829
20
-24.7435014263796
30
0
41
1
10
156.965015109127
20
-24.2874504163216
30
0
41
1
10
166.41760018806
20
-23.1955495828468
30
0
41
1
10
171.140941370231
20
-22.5595613213143
30
0
41
1
10
177.250190346728
20
-21.629456132876
30
0
41
1
10
178.635339563245
20
-21.4114417375247
30
0
41
1
10
180.020672371865
20
-21.1865147356786
30
0
0
SPLINE
5
197
100
AcDbEntity
8
1
62
256
6
ByLayer
370
-1
48
1
60
0
100
AcDbSpline
70
4
71
3
72
32
73
28
40
0
40
0
40
0
40
0
40
0.0312499999999831
40
0.0312499999999831
40
0.0624999999999661
40
0.0624999999999661
40
0.0937499999999492
40
0.0937499999999492
40
0.109374999999949
40
0.109374999999949
40
0.12499999999995
40
0.12499999999995
40
0.15624999999995
40
0.15624999999995
40
0.187499999999951
40
0.187499999999951
40
0.249999999999951
40
0.249999999999951
40
0.312499999999952
40
0.312499999999952
40
0.374999999999953
40
0.374999999999953
40
0.499999999999954
40
0.499999999999954
40
0.749999999999977
40
0.749999999999977
40
1
40
1
40
1
40
1
41
1
10
226.659515184109
20
12.9155940924341
30
0
41
1
10
226.625979127864
20
12.911869268645
30
0
41
1
10
226.592747755009
20
12.9067697413295
30
0
41
1
10
226.5272606008
20
12.8921651583946
30
0
41
1
10
226.494977095743
20
12.8827855954952
30
0
41
1
10
226.432309671798
20
12.8554405462251
30
0
41
1
10
226.402481861874
20
12.8374347380896
30
0
41
1
10
226.368226565
20
12.8014211789223
30
0
41
1
10
226.358436722985
20
12.7875976427107
30
0
41
1
10
226.344429835127
20
12.7582582667797
30
0
41
1
10
226.340058521935
20
12.742592135415
30
0
41
1
10
226.334373344807
20
12.6949547161305
30
0
41
1
10
226.340171622569
20
12.6633231962263
30
0
41
1
10
226.360046473369
20
12.6042209469732
30
0
41
1
10
226.37435270161
20
12.5760142857549
30
0
41
1
10
226.422941998164
20
12.495841922755
30
0
41
1
10
226.462632083351
20
12.4478553820612
30
0
41
1
10
226.547802353721
20
12.3562579180427
30
0
41
1
10
226.593768730355
20
12.3127838808452
30
0
41
1
10
226.688215477662
20
12.2298352225244
30
0
41
1
10
226.736893294354
20
12.1902308960619
30
0
41
1
10
226.885841353873
20
12.075182605738
30
0
41
1
10
226.988975735376
20
12.0034390264775
30
0
41
1
10
227.305156116754
20
11.797007948613
30
0
41
1
10
227.525149802953
20
11.6709552691401
30
0
41
1
10
227.974485634902
20
11.4326455613173
30
0
41
1
10
228.203567575426
20
11.3209355290824
30
0
41
1
10
228.435996824675
20
11.2147612496704
30
0
0
SPLINE
5
198
100
AcDbEntity
8
1
62
256
6
ByLayer
370
-1
48
1
60
0
100
AcDbSpline
70
4
71
3
72
32
73
28
40
0
40
0
40
0
40
0
40
0.125000000000001
40
0.125000000000001
40
0.250000000000002
40
0.250000000000002
40
0.375000000000003
40
0.375000000000003
40
0.500000000000004
40
0.500000000000004
40
0.625000000000004
40
0.625000000000004
40
0.687500000000004
40
0.687500000000004
40
0.718750000000004
40
0.718750000000004
40
0.750000000000003
40
0.750000000000003
40
0.812500000000002
40
0.812500000000002
40
0.843750000000002
40
0.843750000000002
40
0.875000000000002
40
0.875000000000002
40
0.937500000000001
40
0.937500000000001
40
1
40
1
40
1
40
1
41
1
10
147.5
20
-14.757598611636
30
0
41
1
10
150.6296547681
20
-15.475170716693
30
0
41
1
10
153.756236581728
20
-16.1677828743853
30
0
41
1
10
160.00637230365
20
-17.4943380073054
30
0
41
1
10
163.129504821605
20
-18.1295174574034
30
0
41
1
10
169.374048469785
20
-19.3379305020288
30
0
41
1
10
172.495740633898
20
-19.9104444261439
30
0
41
1
10
178.740240042443
20
-20.9869795766284
30
0
41
1
10
181.862910896914
20
-21.4913599054703
30
0
41
1
10
188.110287703042
20
-22.4294189860946
30
0
41
1
10
191.235054721515
20
-22.8628775453793
30
0
41
1
10
195.926286703726
20
-23.4548646153697
30
0
41
1
10
197.491061863164
20
-23.6425344561661
30
0
41
1
10
199.837851600132
20
-23.909503870552
30
0
41
1
10
200.619862624749
20
-23.996238061398
30
0
41
1
10
202.184089313807
20
-24.1641768382728
30
0
41
1
10
202.966226047625
20
-24.2455037354593
30
0
41
1
10
205.312523324041
20
-24.4818471475601
30
0
41
1
10
206.876108955577
20
-24.6297808757265
30
0
41
1
10
209.221833945801
20
-24.8356454024136
30
0
41
1
10
210.003842773822
20
-24.9015617812418
30
0
41
1
10
211.567694155167
20
-25.028393358192
30
0
41
1
10
212.34952438321
20
-25.089312851802
30
0
41
1
10
214.695084847063
20
-25.2641845217489
30
0
41
1
10
216.258971792406
20
-25.3701744223753
30
0
41
1
10
219.387453676073
20
-25.5607678467738
30
0
41
1
10
220.952057960765
20
-25.6453801790001
30
0
41
1
10
222.516919200791
20
-25.7193789593724
30
0
0
SPLINE
5
199
100
AcDbEntity
8
1
62
256
6
ByLayer
370
-1
48
1
60
0
100
AcDbSpline
70
4
71
3
72
14
73
10
40
0
40
0
40
0
40
0
40
0.25
40
0.25
40
0.5
40
0.5
40
0.75
40
0.75
40
1
40
1
40
1
40
1
41
1
10
234.805142989507
20
16.1999999999997
30
0
41
1
10
234.805142989507
20
16.111551073902
30
0
41
1
10
234.800950199631
20
16.0227353072407
30
0
41
1
10
234.77672330676
20
15.8487325503407
30
0
41
1
10
234.757073753406
20
15.7637048825668
30
0
41
1
10
234.701893164619
20
15.5978089161828
30
0
41
1
10
234.665900551168
20
15.5161715038036
30
0
41
1
10
234.580420388466
20
15.363384998467
30
0
41
1
10
234.530927815978
20
15.2916647535763
30
0
41
1
10
234.474711240195
20
15.2245978016784
30
0
0
SPLINE
5
19A
100
AcDbEntity
8
1
62
256
6
ByLayer
370
-1
48
1
60
0
100
AcDbSpline
70
4
71
3
72
21
73
17
40
0
40
0
40
0
40
0
40
0.125000000000001
40
0.125000000000001
40
0.250000000000003
40
0.250000000000003
40
0.281250000000003
40
0.281250000000003
40
0.312500000000003
40
0.375000000000003
40
0.375000000000003
40
0.500000000000002
40
0.500000000000002
40
0.750000000000001
40
0.750000000000001
40
1
40
1
40
1
40
1
41
1
10
37
20
14.658225250716
30
0
41
1
10
36.2953785544312
20
14.8795450870305
30
0
41
1
10
35.5918172630153
20
15.1097035041984
30
0
41
1
10
34.1887228084872
20
15.5930080928567
30
0
41
1
10
33.4891867873366
20
15.8461460908254
30
0
41
1
10
32.6187105402678
20
16.1810704768213
30
0
41
1
10
32.444888597347
20
16.2492753071946
30
0
41
1
10
32.096780183048
20
16.3841472563016
30
0
41
1
10
31.5741958890353
20
16.5852347764705
30
0
41
1
10
31.0503251677746
20
16.7826038388812
30
0
41
1
10
30.000809089083
20
17.1722244262858
30
0
41
1
10
29.2987743835627
20
17.4251477788884
30
0
41
1
10
27.1851541109043
20
18.1620557937557
30
0
41
1
10
25.7654857394434
20
18.6244021393373
30
0
41
1
10
22.9061393690953
20
19.4815495995695
30
0
41
1
10
21.46696551206
20
19.8762394879834
30
0
41
1
10
20.0169192007973
20
20.23211198906
30
0
0
SPLINE
5
19B
100
AcDbEntity
8
1
62
256
6
ByLayer
370
-1
48
1
60
0
100
AcDbSpline
70
4
71
3
72
16
73
12
40
0
40
0
40
0
40
0
40
0.249999999999994
40
0.249999999999994
40
0.499999999999987
40
0.499999999999987
40
0.624999999999988
40
0.624999999999988
40
0.749999999999989
40
0.749999999999989
40
1
40
1
40
1
40
1
41
1
10
238.727891738226
20
1.20794836723076
30
0
41
1
10
237.937406917004
20
1.1614080213252
30
0
41
1
10
237.152162302043
20
1.16389275044196
30
0
41
1
10
235.591844854661
20
1.26402106242835
30
0
41
1
10
234.816772249794
20
1.3616669871472
30
0
41
1
10
233.661970112552
20
1.5810250707452
30
0
41
1
10
233.278341387655
20
1.66633037710693
30
0
41
1
10
232.513778618916
20
1.86205505834079
30
0
41
1
10
232.132730392384
20
1.97260216109669
30
0
41
1
10
231.006191677363
20
2.33900814131059
30
0
41
1
10
230.27306852465
20
2.63045315584128
30
0
41
1
10
229.558455149875
20
2.97022542748658
30
0
0
SPLINE
5
19C
100
AcDbEntity
8
1
62
256
6
ByLayer
370
-1
48
1
60
0
100
AcDbSpline
70
4
71
3
72
46
73
42
40
0
40
0
40
0
40
0
40
0.0443460747242958
40
0.0443460747242958
40
0.117857915130119
40
0.117857915130119
40
0.191369755535943
40
0.191369755535943
40
0.228125675738855
40
0.228125675738855
40
0.264881595941766
40
0.264881595941766
40
0.33839343634759
40
0.33839343634759
40
0.411905276753413
40
0.411905276753413
40
0.485417117159237
40
0.485417117159237
40
0.55892895756506
40
0.55892895756506
40
0.632440797970884
40
0.632440797970884
40
0.705952638376707
40
0.705952638376707
40
0.742708558579619
40
0.742708558579619
40
0.77946447878253
40
0.77946447878253
40
0.816220398985442
40
0.816220398985442
40
0.852976319188354
40
0.852976319188354
40
0.889732239391265
40
0.889732239391265
40
0.908110199492721
40
0.908110199492721
40
0.926488159594177
40
0.926488159594177
40
0.963244079797089
40
0.963244079797089
40
1
40
1
40
1
40
1
41
1
10
178.312151192877
20
-20.9072627531195
30
0
41
1
10
176.199527529237
20
-21.215810720795
30
0
41
1
10
174.08694647096
20
-21.5085065893871
30
0
41
1
10
168.471502170174
20
-22.2425314381275
30
0
41
1
10
164.967201149906
20
-22.6545342217072
30
0
41
1
10
157.961732274711
20
-23.3825285912649
30
0
41
1
10
154.459805459524
20
-23.6993657560463
30
0
41
1
10
149.20626960687
20
-24.1003975804564
30
0
41
1
10
147.455032686555
20
-24.221376629148
30
0
41
1
10
143.951943499109
20
-24.4381746979623
30
0
41
1
10
142.199815091702
20
-24.5340656624933
30
0
41
1
10
136.944552964909
20
-24.7834492086381
30
0
41
1
10
133.442440054445
20
-24.898517181292
30
0
41
1
10
126.438349822718
20
-25.0216284899046
30
0
41
1
10
122.936285174613
20
-25.0297902115888
30
0
41
1
10
115.928809444601
20
-24.9402688683769
30
0
41
1
10
112.425579344154
20
-24.8428826261068
30
0
41
1
10
105.420713178918
20
-24.5472127419923
30
0
41
1
10
101.918652449454
20
-24.3481378259714
30
0
41
1
10
94.912590935256
20
-23.850503952681
30
0
41
1
10
91.4083986943098
20
-23.551473027454
30
0
41
1
10
84.4036390553618
20
-22.8574366954858
30
0
41
1
10
80.9021021974758
20
-22.4616780719879
30
0
41
1
10
75.6486291212251
20
-21.7976639130673
30
0
41
1
10
73.8972573391598
20
-21.564744758999
30
0
41
1
10
70.3937573814678
20
-21.0766260511872
30
0
41
1
10
68.6417341922466
20
-20.8213845448135
30
0
41
1
10
65.1393238752149
20
-20.2896550013518
30
0
41
1
10
63.3885619516932
20
-20.0133898120752
30
0
41
1
10
59.8877364846073
20
-19.4399340190667
30
0
41
1
10
58.1377800594495
20
-19.1419910453037
30
0
41
1
10
54.6380169340592
20
-18.5272571638526
30
0
41
1
10
52.8879617232133
20
-18.2123957067593
30
0
41
1
10
50.2632672778985
20
-17.7227045742795
30
0
41
1
10
49.3883524447695
20
-17.5571640039901
30
0
41
1
10
47.6383553216322
20
-17.2223202710237
30
0
41
1
10
46.7633082497694
20
-17.0527477209605
30
0
41
1
10
44.1381594299091
20
-16.5359592672318
30
0
41
1
10
42.38784871703
20
-16.18230399063
30
0
41
1
10
38.8862248003345
20
-15.4595972375645
30
0
41
1
10
37.1349412309495
20
-15.0903419589813
30
0
41
1
10
35.3831016631683
20
-14.7126158477089
30
0
0
SPLINE
5
19D
100
AcDbEntity
8
1
62
256
6
ByLayer
370
-1
48
1
60
0
100
AcDbSpline
70
4
71
3
72
10
73
6
40
0
40
0
40
0
40
0
40
0.5
40
0.5
40
1
40
1
40
1
40
1
41
1
10
211.081433551875
20
17.362214830907
30
0
41
1
10
211.006973084812
20
17.4097556602272
30
0
41
1
10
210.935254277662
20
17.4605000932459
30
0
41
1
10
210.800531984128
20
17.5722136443703
30
0
41
1
10
210.737299647396
20
17.632911720703
30
0
41
1
10
210.682405660171
20
17.7034301086681
30
0
0
SPLINE
5
19E
100
AcDbEntity
8
1
62
256
6
ByLayer
370
-1
48
1
60
0
100
AcDbSpline
70
4
71
3
72
8
73
4
40
0
40
0
40
0
40
0
40
1
40
1
40
1
40
1
41
1
10
37
20
14.6582252507161
30
0
41
1
10
37.8096748964779
20
14.4039083878341
30
0
41
1
10
38.6152125144057
20
14.1379516911876
30
0
41
1
10
39.4169192007987
20
13.8604337862289
30
0
0
SPLINE
5
19F
100
AcDbEntity
8
1
62
256
6
ByLayer
370
-1
48
1
60
0
100
AcDbSpline
70
4
71
3
72
18
73
14
40
0
40
0
40
0
40
0
40
0.25
40
0.25
40
0.499999999999999
40
0.499999999999999
40
0.562499999999999
40
0.562499999999999
40
0.624999999999998
40
0.624999999999998
40
0.749999999999999
40
0.749999999999999
40
1
40
1
40
1
40
1
41
1
10
24.643958292921
20
-13.9743473135349
30
0
41
1
10
25.135439048175
20
-14.3436560074682
30
0
41
1
10
25.6509663597473
20
-14.6666937317941
30
0
41
1
10
26.7302247815262
20
-15.2275743307386
30
0
41
1
10
27.2939480686972
20
-15.4654052934444
30
0
41
1
10
28.0296379000346
20
-15.7118500316102
30
0
41
1
10
28.1783313476761
20
-15.7585886185606
30
0
41
1
10
28.4788677888402
20
-15.8469926084062
30
0
41
1
10
28.6309614135071
20
-15.888719049275
30
0
41
1
10
29.089846256713
20
-16.0057685910147
30
0
41
1
10
29.3991321708743
20
-16.0729952948838
30
0
41
1
10
30.3370027733363
20
-16.2439616654449
30
0
41
1
10
30.975574644786
20
-16.3171209798577
30
0
41
1
10
31.6275838653224
20
-16.3522438740085
30
0
0
SPLINE
5
1A0
100
AcDbEntity
8
1
62
256
6
ByLayer
370
-1
48
1
60
0
100
AcDbSpline
70
4
71
3
72
22
73
18
40
0
40
0
40
0
40
0
40
0.334140835352697
40
0.334140835352697
40
0.417676044190872
40
0.417676044190872
40
0.501211253029046
40
0.501211253029046
40
0.668281670705405
40
0.668281670705405
40
0.751816879543594
40
0.751816879543594
40
0.835352088381782
40
0.835352088381782
40
0.918887297219971
40
0.918887297219971
40
1
40
1
40
1
40
1
41
1
10
247.585805438237
20
17.1271678767845
30
0
41
1
10
247.612995493918
20
16.882517258996
30
0
41
1
10
247.680816431831
20
16.6412408127583
30
0
41
1
10
247.823010687242
20
16.3459542951945
30
0
41
1
10
247.854478799069
20
16.2871424926211
30
0
41
1
10
247.922633195857
20
16.1721711220422
30
0
41
1
10
247.95941739194
20
16.1157813869653
30
0
41
1
10
248.078204673887
20
15.9501258759552
30
0
41
1
10
248.168538889725
20
15.8443226350453
30
0
41
1
10
248.323504574241
20
15.6941999312196
30
0
41
1
10
248.378361825134
20
15.6457291297184
30
0
41
1
10
248.492735586492
20
15.5540165491496
30
0
41
1
10
248.552504996922
20
15.510516709467
30
0
41
1
10
248.677503330929
20
15.4285821319043
30
0
41
1
10
248.742729798887
20
15.3901449595704
30
0
41
1
10
248.877166658203
20
15.3199183970285
30
0
41
1
10
248.946401583416
20
15.2879471913517
30
0
41
1
10
249.016947864764
20
15.2596373824552
30
0
0
SPLINE
5
1A1
100
AcDbEntity
8
1
62
256
6
ByLayer
370
-1
48
1
60
0
100
AcDbSpline
70
4
71
3
72
24
73
20
40
0
40
0
40
0
40
0
40
0.108337033047213
40
0.108337033047213
40
0.18264228029327
40
0.18264228029327
40
0.256947527539327
40
0.256947527539327
40
0.405558022031454
40
0.405558022031454
40
0.479863269277525
40
0.479863269277525
40
0.554168516523595
40
0.554168516523595
40
0.70277901101573
40
0.70277901101573
40
0.851389505507865
40
0.851389505507865
40
1
40
1
40
1
40
1
41
1
10
248.801781372481
20
19.1752534798965
30
0
41
1
10
248.697890819999
20
19.1364400015705
30
0
41
1
10
248.599829568797
20
19.0896429403074
30
0
41
1
10
248.448586242712
20
19.001653584533
30
0
41
1
10
248.390487598336
20
18.9631877448943
30
0
41
1
10
248.280406060989
20
18.8813789309463
30
0
41
1
10
248.228166527473
20
18.8377756207137
30
0
41
1
10
248.082238589283
20
18.7021988680071
30
0
41
1
10
247.999070696501
20
18.6057315212422
30
0
41
1
10
247.891246262294
20
18.4531875407713
30
0
41
1
10
247.858168873898
20
18.4010166845398
30
0
41
1
10
247.797423940733
20
18.2940978292642
30
0
41
1
10
247.769722430747
20
18.2392188336175
30
0
41
1
10
247.695555738437
20
18.0733310848618
30
0
41
1
10
247.65744884694
20
17.9603131247165
30
0
41
1
10
247.601674669273
20
17.7295768238724
30
0
41
1
10
247.58403010342
20
17.6118562910129
30
0
41
1
10
247.569232650019
20
17.3715667812767
30
0
41
1
10
247.572210410396
20
17.2494931856786
30
0
41
1
10
247.585805438237
20
17.1271678767845
30
0
0
SPLINE
5
1A2
100
AcDbEntity
8
1
62
256
6
ByLayer
370
-1
48
1
60
0
100
AcDbSpline
70
4
71
3
72
10
73
6
40
0
40
0
40
0
40
0
40
0.5
40
0.5
40
1
40
1
40
1
40
1
41
1
10
222.516919200748
20
-25.7193789593712
30
0
41
1
10
223.004888865944
20
-25.7330241088671
30
0
41
1
10
223.483176223954
20
-25.7511328591773
30
0
41
1
10
224.42118571693
20
-25.7938661408183
30
0
41
1
10
224.880905485733
20
-25.8184952228944
30
0
41
1
10
225.331351188447
20
-25.8448888758768
30
0
0
SPLINE
5
1A3
100
AcDbEntity
8
1
62
256
6
ByLayer
370
-1
48
1
60
0
100
AcDbSpline
70
4
71
3
72
8
73
4
40
0
40
0
40
0
40
0
40
1
40
1
40
1
40
1
41
1
10
231.692175113629
20
9.725046940932
30
0
41
1
10
231.906695285288
20
9.62674432111805
30
0
41
1
10
232.12338877341
20
9.5323263915607
30
0
41
1
10
232.342362415558
20
9.44180553129172
30
0
0
SPLINE
5
1A4
100
AcDbEntity
8
1
62
256
6
ByLayer
370
-1
48
1
60
0
100
AcDbSpline
70
4
71
3
72
15
73
11
40
0
40
0
40
0
40
0
40
0.114795853155179
40
0.312067504334321
40
0.50933915551346
40
0.607974981103031
40
0.706610806692601
40
0.755928719487385
40
0.903882457871738
40
1
40
1
40
1
40
1
41
1
10
211.081433551875
20
17.362214830907
30
0
41
1
10
210.803981359801
20
17.3466154106905
30
0
41
1
10
210.049570075936
20
17.30364427608
30
0
41
1
10
208.816982237371
20
17.2309883442891
30
0
41
1
10
207.623368096489
20
17.1576009139563
30
0
41
1
10
206.669726731812
20
17.0971468717415
30
0
41
1
10
206.074280484288
20
17.0586353334874
30
0
41
1
10
205.359924112703
20
17.0117614049685
30
0
41
1
10
204.651059935984
20
16.9643936712794
30
0
41
1
10
204.060709502553
20
16.9240296950351
30
0
41
1
10
203.828151661387
20
16.9079846958626
30
0
0
SPLINE
5
1A5
100
AcDbEntity
8
1
62
256
6
ByLayer
370
-1
48
1
60
0
100
AcDbSpline
70
4
71
2
72
6
73
3
40
0
40
0
40
0
40
1
40
1
40
1
41
1
10
31.6275838648797
20
-13.350014802019
30
0
41
1
10
31.6275838648797
20
-14.8511293379815
30
0
41
1
10
31.6275838648797
20
-16.352243873944
30
0
0
SPLINE
5
1A6
100
AcDbEntity
8
1
62
256
6
ByLayer
370
-1
48
1
60
0
100
AcDbSpline
70
4
71
3
72
27
73
23
40
0
40
0
40
0
40
0
40
0.124999999999994
40
0.124999999999994
40
0.249999999999988
40
0.249999999999988
40
0.281249999999986
40
0.281249999999986
40
0.312499999999985
40
0.312499999999985
40
0.374999999999986
40
0.374999999999986
40
0.499999999999994
40
0.499999999999994
40
0.562499999999995
40
0.562499999999995
40
0.624999999999995
40
0.624999999999995
40
0.749999999999997
40
0.874999999999998
40
0.874999999999998
40
1
40
1
40
1
40
1
41
1
10
220.283438626883
20
25.8241129137812
30
0
41
1
10
220.14760842691
20
25.4095637840454
30
0
41
1
10
219.995178198192
20
25.0027918088417
30
0
41
1
10
219.645099199968
20
24.2104328566532
30
0
41
1
10
219.447435801569
20
23.8248527333414
30
0
41
1
10
219.162470913427
20
23.3606270953292
30
0
41
1
10
219.103576551391
20
23.2686727710256
30
0
41
1
10
218.98172082725
20
23.0866695220109
30
0
41
1
10
218.918586445929
20
22.9963937480404
30
0
41
1
10
218.724415623348
20
22.7309303647538
30
0
41
1
10
218.588461165574
20
22.5608137964025
30
0
41
1
10
218.160778765182
20
22.0713545235879
30
0
41
1
10
217.849071992787
20
21.7730706929124
30
0
41
1
10
217.343391658101
20
21.3658258777176
30
0
41
1
10
217.168350969746
20
21.2366142228062
30
0
41
1
10
216.807044016998
20
20.9912344696305
30
0
41
1
10
216.622918476534
20
20.8764722806496
30
0
41
1
10
216.061599289814
20
20.5526040765171
30
0
41
1
10
215.289448213077
20
20.1749517042109
30
0
41
1
10
214.482767588319
20
19.876139889785
30
0
41
1
10
213.663440561854
20
19.6062033263515
30
0
41
1
10
213.247467444564
20
19.4858256514848
30
0
41
1
10
212.82976672838
20
19.377057355056
30
0
0
SPLINE
5
1A7
100
AcDbEntity
8
1
62
256
6
ByLayer
370
-1
48
1
60
0
100
AcDbSpline
70
4
71
3
72
62
73
58
40
0
40
0
40
0
40
0
40
0.0624999999999994
40
0.0624999999999994
40
0.124999999999999
40
0.124999999999999
40
0.140624999999999
40
0.140624999999999
40
0.156249999999998
40
0.156249999999998
40
0.187499999999998
40
0.187499999999998
40
0.249999999999997
40
0.249999999999997
40
0.265624999999997
40
0.265624999999997
40
0.281249999999996
40
0.281249999999996
40
0.312499999999996
40
0.312499999999996
40
0.374999999999995
40
0.374999999999995
40
0.390624999999995
40
0.390624999999995
40
0.406249999999995
40
0.406249999999995
40
0.437499999999995
40
0.437499999999995
40
0.499999999999995
40
0.499999999999995
40
0.531249999999995
40
0.531249999999995
40
0.562499999999995
40
0.562499999999995
40
0.624999999999995
40
0.624999999999995
40
0.640624999999995
40
0.640624999999995
40
0.656249999999995
40
0.656249999999995
40
0.687499999999996
40
0.687499999999996
40
0.749999999999996
40
0.749999999999996
40
0.765624999999997
40
0.765624999999997
40
0.781249999999997
40
0.781249999999997
40
0.812499999999997
40
0.812499999999997
40
0.874999999999998
40
0.874999999999998
40
0.906249999999999
40
0.906249999999999
40
0.937499999999999
40
0.937499999999999
40
1
40
1
40
1
40
1
41
1
10
20.016919200799
20
20.2321119890676
30
0
41
1
10
19.3464866687831
20
20.3830470338019
30
0
41
1
10
18.6762685917238
20
20.4888743484342
30
0
41
1
10
17.3362538951173
20
20.614018263039
30
0
41
1
10
16.6664564685868
20
20.6333375130293
30
0
41
1
10
15.8292584445327
20
20.6004186783692
30
0
41
1
10
15.6616619170757
20
20.5909339506628
30
0
41
1
10
15.3294934212808
20
20.5663272459496
30
0
41
1
10
15.1645541874194
20
20.551197568408
30
0
41
1
10
14.6731129002566
20
20.4973857086231
30
0
41
1
10
14.3499818666892
20
20.4502966031441
30
0
41
1
10
13.3938121861095
20
20.2752450168786
30
0
41
1
10
12.7739087668433
20
20.1137746227885
30
0
41
1
10
12.0213745714394
20
19.8515589228352
30
0
41
1
10
11.8717182849653
20
19.7959651583538
30
0
41
1
10
11.575975929212
20
19.6790038564816
30
0
41
1
10
11.4303275531945
20
19.6178238516964
30
0
41
1
10
10.9999379801056
20
19.4262185622568
30
0
41
1
10
10.7217412706317
20
19.2877418366465
30
0
41
1
10
9.91285801763897
20
18.8398410244444
30
0
41
1
10
9.40770286527317
20
18.4981865552734
30
0
41
1
10
8.81991555979862
20
18.0130311163542
30
0
41
1
10
8.70455493504905
20
17.9130765614764
30
0
41
1
10
8.47831192637669
20
17.7071317526426
30
0
41
1
10
8.36788360467698
20
17.6015355982096
30
0
41
1
10
8.04639501174039
20
17.2786506764606
30
0
41
1
10
7.84433514666871
20
17.0545708070316
30
0
41
1
10
7.27399457277212
20
16.355881668629
30
0
41
1
10
6.9413310471673
20
15.8549850285803
30
0
41
1
10
6.51403957426766
20
15.0481742657347
30
0
41
1
10
6.38317594291846
20
14.7686343363466
30
0
41
1
10
6.15020163723352
20
14.2006675799584
30
0
41
1
10
6.04753681890885
20
13.911484205542
30
0
41
1
10
5.77939464251602
20
13.0285375456852
30
0
41
1
10
5.65354661466233
20
12.4194526456377
30
0
41
1
10
5.56071948633914
20
11.6320252537794
30
0
41
1
10
5.54537362006464
20
11.4728960149924
30
0
41
1
10
5.52131485370442
20
11.1536969837783
30
0
41
1
10
5.51260225635333
20
10.9938563266687
30
0
41
1
10
5.49610894999819
20
10.5136093263605
30
0
41
1
10
5.49795711635637
20
10.1924782146741
30
0
41
1
10
5.5402103637859
20
9.22616316945511
30
0
41
1
10
5.61712514824224
20
8.57806156338174
30
0
41
1
10
5.77153497939648
20
7.76293386012114
30
0
41
1
10
5.80541538542035
20
7.59937780513053
30
0
41
1
10
5.87852001814289
20
7.27392819529393
30
0
41
1
10
5.91776440412886
20
7.11187266502671
30
0
41
1
10
6.04333477869775
20
6.62765174576714
30
0
41
1
10
6.13748524473232
20
6.30742837660645
30
0
41
1
10
6.44983894931686
20
5.35417621097304
30
0
41
1
10
6.69777442386552
20
4.7285149984844
30
0
41
1
10
7.12699094507821
20
3.80435466580172
30
0
41
1
10
7.28014365574998
20
3.49788217038068
30
0
41
1
10
7.60182802713487
20
2.89689157515932
30
0
41
1
10
7.77060881007436
20
2.60170782755935
30
0
41
1
10
8.30006785493654
20
1.7316339434197
30
0
41
1
10
8.68370916653898
20
1.17211716790428
30
0
41
1
10
9.09805425028149
20
0.633196289688158
30
0
0
SPLINE
5
1A8
100
AcDbEntity
8
1
62
256
6
ByLayer
370
-1
48
1
60
0
100
AcDbSpline
70
4
71
3
72
8
73
4
40
0
40
0
40
0
40
0
40
1
40
1
40
1
40
1
41
1
10
9.71814238842971
20
-0.451131668657922
30
0
41
1
10
9.50016079796741
20
-0.0939384525912033
30
0
41
1
10
9.29375869478284
20
0.267714769745282
30
0
41
1
10
9.09805425028149
20
0.633196289688158
30
0
0
SPLINE
5
1A9
100
AcDbEntity
8
1
62
256
6
ByLayer
370
-1
48
1
60
0
100
AcDbSpline
70
4
71
3
72
16
73
12
40
0
40
0
40
0
40
0
40
0.25
40
0.25
40
0.5
40
0.5
40
0.625
40
0.625
40
0.75
40
0.75
40
1
40
1
40
1
40
1
41
1
10
12.7439582929209
20
-6.18932881508797
30
0
41
1
10
13.6990336462368
20
-6.96734130381054
30
0
41
1
10
14.6650671263393
20
-7.71396167456203
30
0
41
1
10
16.6203644926488
20
-9.14580969153505
30
0
41
1
10
17.606755619998
20
-9.82890264458544
30
0
41
1
10
19.0996712125988
20
-10.8048276147467
30
0
41
1
10
19.5990720518422
20
-11.1217011744921
30
0
41
1
10
20.6001018858404
20
-11.7379331857022
30
0
41
1
10
21.1019666901745
20
-12.0374461591442
30
0
41
1
10
22.6119772727141
20
-12.9106234363779
30
0
41
1
10
23.6245399840495
20
-13.4589488594074
30
0
41
1
10
24.643958292921
20
-13.9743473135349
30
0
0
SPLINE
5
1AA
100
AcDbEntity
8
1
62
256
6
ByLayer
370
-1
48
1
60
0
100
AcDbSpline
70
4
71
3
72
10
73
6
40
0
40
0
40
0
40
0
40
0.476816396969773
40
0.476816396969773
40
1
40
1
40
1
40
1
41
1
10
122.278584574639
20
26.2183344877003
30
0
41
1
10
126.282700102699
20
26.1995238713539
30
0
41
1
10
130.287253789446
20
26.1108209077813
30
0
41
1
10
138.691884083087
20
25.7794811594184
30
0
41
1
10
143.092590060617
20
25.5227371599424
30
0
41
1
10
147.5
20
25.1851915604692
30
0
0
SPLINE
5
1AB
100
AcDbEntity
8
1
62
256
6
ByLayer
370
-1
48
1
60
0
100
AcDbSpline
70
4
71
3
72
20
73
16
40
0
40
0
40
0
40
0
40
0.125
40
0.125
40
0.25
40
0.25
40
0.374999999999999
40
0.374999999999999
40
0.499999999999999
40
0.499999999999999
40
0.749999999999981
40
0.749999999999981
40
0.874999999999991
40
0.874999999999991
40
1
40
1
40
1
40
1
41
1
10
210.682405660171
20
17.7034301086684
30
0
41
1
10
210.658891988245
20
17.7336364449768
30
0
41
1
10
210.639447953659
20
17.7660227349468
30
0
41
1
10
210.608101214856
20
17.8348381115545
30
0
41
1
10
210.596139888965
20
17.8717822115249
30
0
41
1
10
210.580643597711
20
17.9466733249591
30
0
41
1
10
210.576941730908
20
17.9846789580817
30
0
41
1
10
210.577153924425
20
18.0617486170791
30
0
41
1
10
210.581160592193
20
18.1006225184496
30
0
41
1
10
210.603547693246
20
18.2140855747674
30
0
41
1
10
210.63272655724
20
18.2876937903785
30
0
41
1
10
210.692402521313
20
18.3872928212721
30
0
41
1
10
210.715230925671
20
18.4192110832667
30
0
41
1
10
210.765376845616
20
18.4787616717825
30
0
41
1
10
210.792652977965
20
18.5064335730928
30
0
41
1
10
210.822105847012
20
18.5320273054137
30
0
0
SPLINE
5
1AC
100
AcDbEntity
8
1
62
256
6
ByLayer
370
-1
48
1
60
0
100
AcDbSpline
70
4
71
3
72
18
73
14
40
0
40
0
40
0
40
0
40
0.25
40
0.25
40
0.5
40
0.5
40
0.75
40
0.75
40
0.8125
40
0.8125
40
0.875
40
0.875
40
1
40
1
40
1
40
1
41
1
10
12.743958292921
20
-6.18932881508803
30
0
41
1
10
12.3220193940188
20
-5.69894890480188
30
0
41
1
10
11.9358093214448
20
-5.18507768987297
30
0
41
1
10
11.2238279867677
20
-4.11632965021792
30
0
41
1
10
10.8981037654634
20
-3.56142553905801
30
0
41
1
10
10.2989382875408
20
-2.4148569921841
30
0
41
1
10
10.0255229353529
20
-1.82317786020917
30
0
41
1
10
9.71237148507942
20
-1.06260759255127
30
0
41
1
10
9.6511436763178
20
-0.909347339357851
30
0
41
1
10
9.53214306491324
20
-0.602571385661889
30
0
41
1
10
9.47427887496995
20
-0.448840521375104
30
0
41
1
10
9.30533711251269
20
0.0133131514606362
30
0
41
1
10
9.19890491553093
20
0.322695682114471
30
0
41
1
10
9.09805425028472
20
0.633196289678239
30
0
0
SPLINE
5
1AD
100
AcDbEntity
8
1
62
256
6
ByLayer
370
-1
48
1
60
0
100
AcDbSpline
70
4
71
4
72
19
73
14
40
0
40
0
40
0
40
0
40
0
40
0.461195811368358
40
0.461195811368358
40
0.461195811368358
40
0.691793717052538
40
0.691793717052538
40
0.691793717052538
40
0.922391622736717
40
0.922391622736717
40
0.922391622736717
40
1
40
1
40
1
40
1
40
1
41
1
10
39.4169192008014
20
7.53961701668391
30
0
41
1
10
39.4169192008014
20
6.26092588823141
30
0
41
0.974581796258695
10
39.2636212191903
20
3.90002237083345
30
0
41
0.974581796258695
10
38.8672253774246
20
0.50376946431424
30
0
41
0.987290898129347
10
38.1490186662332
20
-4.53685224605116
30
0
41
0.993645449064674
10
37.8940026032068
20
-6.17603603878263
30
0
41
1
10
37.6376962073341
20
-7.68946790322124
30
0
41
1
10
37.1623037926707
20
-10.3090241822453
30
0
41
0.993645449064674
10
36.905997396798
20
-11.6202441547006
30
0
41
0.987290898129347
10
36.6509813337715
20
-12.7914919487914
30
0
41
0.981628769447631
10
36.3333046427263
20
-14.0629173611281
30
0
41
0.980442930070234
10
36.255150186249
20
-14.3584233910769
30
0
41
0.979577759139257
10
36.1798883507882
20
-14.6245149059455
30
0
41
0.979059652206743
10
36.1080999970033
20
-14.8590314815361
30
0
0
SPLINE
5
1AE
100
AcDbEntity
8
1
62
256
6
ByLayer
370
-1
48
1
60
0
100
AcDbSpline
70
4
71
3
72
28
73
24
40
0
40
0
40
0
40
0
40
0.0624999999999616
40
0.0624999999999616
40
0.0937499999999546
40
0.0937499999999546
40
0.124999999999948
40
0.124999999999948
40
0.15624999999994
40
0.15624999999994
40
0.187499999999933
40
0.187499999999933
40
0.249999999999938
40
0.249999999999938
40
0.374999999999933
40
0.374999999999933
40
0.437499999999936
40
0.437499999999936
40
0.499999999999939
40
0.499999999999939
40
0.749999999999969
40
0.749999999999969
40
1
40
1
40
1
40
1
41
1
10
240.512797689549
20
7.34839731405205
30
0
41
1
10
240.443373331512
20
7.340991013673
30
0
41
1
10
240.373708763093
20
7.33680965432183
30
0
41
1
10
240.268817632769
20
7.33583230836908
30
0
41
1
10
240.234199569424
20
7.3364111549219
30
0
41
1
10
240.167489718035
20
7.33918395603629
30
0
41
1
10
240.135088977117
20
7.34137357461168
30
0
41
1
10
240.071991863601
20
7.34718505860565
30
0
41
1
10
240.041280911357
20
7.35082238473007
30
0
41
1
10
239.983011839575
20
7.35911207470994
30
0
41
1
10
239.955198867219
20
7.3637846292977
30
0
41
1
10
239.875019290152
20
7.37909909611733
30
0
41
1
10
239.825553916944
20
7.39112482825084
30
0
41
1
10
239.689395455236
20
7.43005398919777
30
0
41
1
10
239.614135534201
20
7.45960668244808
30
0
41
1
10
239.513554696916
20
7.50669433635272
30
0
41
1
10
239.482144505384
20
7.52292366327774
30
0
41
1
10
239.423469577005
20
7.55576836706345
30
0
41
1
10
239.396112974824
20
7.57242388316271
30
0
41
1
10
239.267194980766
20
7.65659602368098
30
0
41
1
10
239.188089921152
20
7.72664488040999
30
0
41
1
10
239.055024905078
20
7.86910857845245
30
0
41
1
10
239.001674252676
20
7.94167143000632
30
0
41
1
10
238.957328148987
20
8.01479285881973
30
0
0
SPLINE
5
1AF
100
AcDbEntity
8
1
62
256
6
ByLayer
370
-1
48
1
60
0
100
AcDbSpline
70
4
71
3
72
26
73
22
40
0
40
0
40
0
40
0
40
0.125
40
0.125
40
0.250000000000001
40
0.250000000000001
40
0.375000000000001
40
0.375000000000001
40
0.437500000000001
40
0.437500000000001
40
0.468750000000001
40
0.468750000000001
40
0.500000000000001
40
0.500000000000001
40
0.625000000000001
40
0.625000000000001
40
0.750000000000001
40
0.750000000000001
40
0.875
40
0.875
40
1
40
1
40
1
40
1
41
1
10
42
20
-17.825442227149
30
0
41
1
10
46.4004593814868
20
-18.7296917633784
30
0
41
1
10
50.7953622061099
20
-19.5726769734701
30
0
41
1
10
59.5806701930983
20
-21.1212896924991
30
0
41
1
10
63.9710858842096
20
-21.8269558502248
30
0
41
1
10
72.7531942006052
20
-23.0903667585576
30
0
41
1
10
77.1448038575818
20
-23.6482885215886
30
0
41
1
10
83.7371548002317
20
-24.367658643112
30
0
41
1
10
85.9354667709176
20
-24.5878059742153
30
0
41
1
10
89.2348798692099
20
-24.8876708947025
30
0
41
1
10
90.3350082419016
20
-24.982568616567
30
0
41
1
10
92.536018505803
20
-25.1621264130275
30
0
41
1
10
93.6371047669896
20
-25.2467996400159
30
0
41
1
10
99.1400737267799
20
-25.6439902193347
30
0
41
1
10
103.537347162362
20
-25.8780867284266
30
0
41
1
10
112.327458765953
20
-26.1774559286328
30
0
41
1
10
116.720267053962
20
-26.2427987693537
30
0
41
1
10
125.506479112943
20
-26.2047650669681
30
0
41
1
10
129.899775939743
20
-26.1012732020274
30
0
41
1
10
138.693201813889
20
-25.7269437988532
30
0
41
1
10
143.093360223181
20
-25.4561456408718
30
0
41
1
10
147.5
20
-25.1040133972181
30
0
0
SPLINE
5
1B0
100
AcDbEntity
8
1
62
256
6
ByLayer
370
-1
48
1
60
0
100
AcDbSpline
70
4
71
3
72
8
73
4
40
0
40
0
40
0
40
0
40
1
40
1
40
1
40
1
41
1
10
20.0169192007982
20
16.7501682882848
30
0
41
1
10
26.5087873253188
20
13.6734648451111
30
0
41
1
10
32.9729007722319
20
10.5975400710049
30
0
41
1
10
39.4169192007984
20
7.5396170166843
30
0
0
SPLINE
5
1B1
100
AcDbEntity
8
1
62
256
6
ByLayer
370
-1
48
1
60
0
100
AcDbSpline
70
4
71
3
72
34
73
30
40
0
40
0
40
0
40
0
40
0.0625000000000002
40
0.0625000000000002
40
0.0937500000000003
40
0.0937500000000003
40
0.125
40
0.125
40
0.156250000000001
40
0.156250000000001
40
0.187500000000001
40
0.187500000000001
40
0.250000000000001
40
0.250000000000001
40
0.375000000000001
40
0.375000000000001
40
0.437500000000001
40
0.437500000000001
40
0.468750000000001
40
0.468750000000001
40
0.500000000000002
40
0.500000000000002
40
0.625000000000001
40
0.625000000000001
40
0.750000000000001
40
0.750000000000001
40
0.875
40
0.875
40
1
40
1
40
1
40
1
41
1
10
42
20
13.2305088301741
30
0
41
1
10
44.2005025592546
20
12.6853890947593
30
0
41
1
10
46.3997454752112
20
12.1309188123835
30
0
41
1
10
49.69717537822
20
11.2867685090456
30
0
41
1
10
50.7959272228137
20
11.002804129893
30
0
41
1
10
52.9930346665614
20
10.4309977588835
30
0
41
1
10
54.0915547930092
20
10.1437102231882
30
0
41
1
10
56.2881032300362
20
9.56495466607251
30
0
41
1
10
57.3859681415216
20
9.2729287744483
30
0
41
1
10
59.5817445575303
20
8.68650984010719
30
0
41
1
10
60.6797298030071
20
8.39237401434701
30
0
41
1
10
63.9733966957494
20
7.5052357276505
30
0
41
1
10
66.1685628706684
20
6.90670576804908
30
0
41
1
10
72.7546184850394
20
5.0980583489206
30
0
41
1
10
77.1459569330844
20
3.87451718117538
30
0
41
1
10
83.7387031678974
20
2.02971024360193
30
0
41
1
10
85.9372424881832
20
1.41320153433878
30
0
41
1
10
89.2369617205894
20
0.487808903060198
30
0
41
1
10
90.3371841316773
20
0.179230783391091
30
0
41
1
10
92.5383959419113
20
-0.437656589920152
30
0
41
1
10
93.639588018138
20
-0.746032171339408
30
0
41
1
10
99.1429318648746
20
-2.2850728293777
30
0
41
1
10
103.539994258225
20
-3.50843554303486
30
0
41
1
10
112.32904165052
20
-5.91734648778595
30
0
41
1
10
116.720985720551
20
-7.10303561639557
30
0
41
1
10
125.506150123451
20
-9.41460203756407
30
0
41
1
10
129.899100006948
20
-10.5414043521549
30
0
41
1
10
138.692461544345
20
-12.7145639541312
30
0
41
1
10
143.09298995054
20
-13.7605755133385
30
0
41
1
10
147.5
20
-14.757598611636
30
0
0
SPLINE
5
1B2
100
AcDbEntity
8
1
62
256
6
ByLayer
370
-1
48
1
60
0
100
AcDbSpline
70
4
71
3
72
16
73
12
40
0
40
0
40
0
40
0
40
0.125000000000001
40
0.125000000000001
40
0.250000000000002
40
0.250000000000002
40
0.500000000000001
40
0.500000000000001
40
0.75
40
0.75
40
1
40
1
40
1
40
1
41
1
10
210.822105847012
20
18.5320273054139
30
0
41
1
10
210.893390082104
20
18.5939713431484
30
0
41
1
10
210.968737857109
20
18.6474118012549
30
0
41
1
10
211.123635332554
20
18.7454776814659
30
0
41
1
10
211.203282577218
20
18.7898997559946
30
0
41
1
10
211.446438705317
20
18.9143079453561
30
0
41
1
10
211.614080096765
20
18.9856071844159
30
0
41
1
10
211.955282830211
20
19.1157100933172
30
0
41
1
10
212.128916373191
20
19.1742019675036
30
0
41
1
10
212.477719081698
20
19.2818589208672
30
0
41
1
10
212.653313826424
20
19.3311094291798
30
0
41
1
10
212.82976672838
20
19.377057355056
30
0
0
SPLINE
5
1B3
100
AcDbEntity
8
1
62
256
6
ByLayer
370
-1
48
1
60
0
100
AcDbSpline
70
4
71
3
72
8
73
4
40
0
40
0
40
0
40
0
40
1
40
1
40
1
40
1
41
1
10
234.720711636901
20
26.0756611804293
30
0
41
1
10
234.748884092716
20
26.0758853298725
30
0
41
1
10
234.777027855334
20
26.0761120630059
30
0
41
1
10
234.805142989507
20
26.0763411963977
30
0
0
SPLINE
5
1B4
100
AcDbEntity
8
1
62
256
6
ByLayer
370
-1
48
1
60
0
100
AcDbSpline
70
4
71
3
72
8
73
4
40
0
40
0
40
0
40
0
40
1
40
1
40
1
40
1
41
1
10
36.9999999999999
20
-16.7478386199826
30
0
41
1
10
38.6667069638973
20
-17.1151302402105
30
0
41
1
10
40.3333100637651
20
-17.4745027275015
30
0
41
1
10
42
20
-17.825442227149
30
0
0
SPLINE
5
1B5
100
AcDbEntity
8
1
62
256
6
ByLayer
370
-1
48
1
60
0
100
AcDbSpline
70
4
71
1
72
4
73
2
40
0
40
0
40
1
40
1
41
1
10
39.4169192007984
20
7.5396170166843
30
0
41
1
10
39.4169192007987
20
13.8604337862289
30
0
0
SPLINE
5
1B6
100
AcDbEntity
8
1
62
256
6
ByLayer
370
-1
48
1
60
0
100
AcDbSpline
70
4
71
3
72
38
73
34
40
0
40
0
40
0
40
0
40
0.0497996957672801
40
0.117671146069617
40
0.185542596371954
40
0.219478321523123
40
0.253414046674292
40
0.321285496976629
40
0.389156947278967
40
0.440060535005719
40
0.457028397581303
40
0.490964122732472
40
0.507931985308057
40
0.524899847883641
40
0.541867710459226
40
0.558835573034809
40
0.575803435610393
40
0.592771298185977
40
0.60125522947377
40
0.626707023337146
40
0.64367488591273
40
0.660642748488315
40
0.677610611063898
40
0.694578473639483
40
0.711546336215067
40
0.72003026750286
40
0.728514198790652
40
0.745482061366236
40
0.76244992394182
40
0.796385649092989
40
0.864257099395326
40
0.932128549697663
40
1
40
1
40
1
40
1
41
0.999999999999999
10
81.5686854567083
20
2.63676986324308
30
0
41
0.999999999999999
10
80.8691117516845
20
2.72542542904591
30
0
41
0.999999999999999
10
79.2160649482923
20
2.93441860037501
30
0
41
0.999999999999999
10
76.609431593187
20
3.26198968331011
30
0
41
0.999999999999999
10
74.2255569145172
20
3.5591707569983
30
0
41
0.999999999999999
10
72.3183862080462
20
3.79525341196413
30
0
41
0.999999999999999
10
70.4111253025533
20
4.03009214422696
30
0
41
0.999999999999999
10
68.0269658511646
20
4.32153682173297
30
0
41
0.999999999999999
10
65.4046162752158
20
4.63848171590559
30
0
41
0.999999999999999
10
63.4977297221212
20
4.8659480335339
30
0
41
0.999999999999999
10
62.0677738109138
20
5.0349351592416
30
0
41
0.999999999999999
10
61.1140947733466
20
5.14685660805756
30
0
41
0.999999999999999
10
60.1596888546323
20
5.25847175372192
30
0
41
0.999999999999999
10
59.4434447625688
20
5.3421031856758
30
0
41
0.999999999999999
10
58.7271834953346
20
5.4256952976354
30
0
41
0.999999999999999
10
58.0113360849554
20
5.5090725639619
30
0
41
0.999999999999999
10
57.2961725411546
20
5.59210753735397
30
0
41
0.999999999999999
10
56.7009592146125
20
5.66081836009377
30
0
41
0.999999999999999
10
55.9870449215282
20
5.74272705364425
30
0
41
0.999999999999999
10
55.2725222444493
20
5.82417110567153
30
0
41
0.999999999999999
10
54.4380608010357
20
5.91874076916574
30
0
41
0.999999999999999
10
53.722136756607
20
5.99959174835914
30
0
41
0.999999999999999
10
53.0059235718891
20
6.08029985452098
30
0
41
0.999999999999999
10
52.2897826911258
20
6.16078354372164
30
0
41
0.999999999999999
10
51.693463371394
20
6.22759671472952
30
0
41
0.999999999999999
10
51.2169894217861
20
6.28075495694413
30
0
41
0.999999999999999
10
50.7408969820011
20
6.33367537821156
30
0
41
0.999999999999999
10
50.1457765276609
20
6.39947823980976
30
0
41
0.999999999999999
10
49.1929244415307
20
6.50418183448415
30
0
41
0.999999999999999
10
47.5237109615279
20
6.68608477897334
30
0
41
0.999999999999999
10
45.1378636251609
20
6.94287331851058
30
0
41
0.999999999999999
10
42.2760523932752
20
7.2452456871805
30
0
41
0.999999999999999
10
40.3695370776955
20
7.44246302662601
30
0
41
0.999999999999999
10
39.4169192008015
20
7.53961701668391
30
0
0
SPLINE
5
1B7
100
AcDbEntity
8
1
62
256
6
ByLayer
370
-1
48
1
60
0
100
AcDbSpline
70
4
71
3
72
8
73
4
40
0
40
0
40
0
40
0
40
1
40
1
40
1
40
1
41
1
10
204.604190734738
20
16.6535803709161
30
0
41
1
10
205.412709164755
20
16.253224278504
30
0
41
1
10
206.224821556208
20
15.8555388827755
30
0
41
1
10
207.040624010091
20
15.4605955970197
30
0
0
SPLINE
5
1B8
100
AcDbEntity
8
1
62
256
6
ByLayer
370
-1
48
1
60
0
100
AcDbSpline
70
4
71
3
72
94
73
90
40
-0.0312500000000052
40
-0.0312500000000052
40
0
40
0
40
0.0312500000000084
40
0.0312500000000084
40
0.046875000000013
40
0.046875000000013
40
0.0625000000000176
40
0.0625000000000176
40
0.0937500000000247
40
0.0937500000000247
40
0.125000000000032
40
0.125000000000032
40
0.156250000000039
40
0.156250000000039
40
0.171875000000043
40
0.171875000000043
40
0.187500000000046
40
0.187500000000046
40
0.218750000000048
40
0.218750000000048
40
0.250000000000049
40
0.250000000000049
40
0.265625000000047
40
0.265625000000047
40
0.281250000000045
40
0.281250000000045
40
0.31250000000004
40
0.31250000000004
40
0.328125000000038
40
0.328125000000038
40
0.343750000000035
40
0.343750000000035
40
0.37500000000003
40
0.37500000000003
40
0.406250000000026
40
0.406250000000026
40
0.421875000000022
40
0.421875000000022
40
0.43750000000002
40
0.43750000000002
40
0.468750000000018
40
0.468750000000018
40
0.484375000000017
40
0.484375000000017
40
0.500000000000016
40
0.500000000000016
40
0.531250000000015
40
0.531250000000015
40
0.546875000000014
40
0.546875000000014
40
0.562500000000013
40
0.578125000000012
40
0.578125000000012
40
0.593750000000011
40
0.593750000000011
40
0.625000000000006
40
0.625000000000006
40
0.640625000000002
40
0.640625000000002
40
0.656249999999997
40
0.656249999999997
40
0.687499999999989
40
0.687499999999989
40
0.71874999999998
40
0.71874999999998
40
0.749999999999972
40
0.749999999999972
40
0.76562499999997
40
0.76562499999997
40
0.781249999999969
40
0.796874999999968
40
0.796874999999968
40
0.812499999999967
40
0.812499999999967
40
0.84374999999997
40
0.84374999999997
40
0.859374999999972
40
0.859374999999972
40
0.874999999999973
40
0.874999999999973
40
0.906249999999981
40
0.906249999999981
40
0.937499999999989
40
0.937499999999989
40
0.953124999999992
40
0.953124999999992
40
0.968749999999995
40
0.968749999999995
40
1
40
1
40
1.03125000000001
40
1.03125000000001
41
1
10
246.120650227206
20
-4.73912546413698
30
0
41
1
10
246.106354240764
20
-4.46220808825899
30
0
41
1
10
246.112487869248
20
-4.32508301832041
30
0
41
1
10
246.141054525102
20
-4.12135003171119
30
0
41
1
10
246.153827133343
20
-4.05376738616116
30
0
41
1
10
246.186056055738
20
-3.919282698351
30
0
41
1
10
246.205640847638
20
-3.85208251172372
30
0
41
1
10
246.273461333509
20
-3.65557514618743
30
0
41
1
10
246.330799096597
20
-3.53029353695177
30
0
41
1
10
246.469693013345
20
-3.29123280334113
30
0
41
1
10
246.55231275529
20
-3.17653533476079
30
0
41
1
10
246.735979792808
20
-2.96859958756966
30
0
41
1
10
246.837354545347
20
-2.87428825900636
30
0
41
1
10
247.004042326823
20
-2.74768160057062
30
0
41
1
10
247.062362918603
20
-2.70781990126673
30
0
41
1
10
247.181542668776
20
-2.63486684929205
30
0
41
1
10
247.242603944555
20
-2.60158051855819
30
0
41
1
10
247.430118036033
20
-2.51112055341031
30
0
41
1
10
247.561230585009
20
-2.46315546105993
30
0
41
1
10
247.833963999677
20
-2.39382432072716
30
0
41
1
10
247.971608759228
20
-2.37338936691978
30
0
41
1
10
248.179926523813
20
-2.36335640696879
30
0
41
1
10
248.249676566929
20
-2.3634746534411
30
0
41
1
10
248.389815726646
20
-2.37083118295374
30
0
41
1
10
248.46003637148
20
-2.37810909207883
30
0
41
1
10
248.666906750213
20
-2.41012148977956
30
0
41
1
10
248.801369637695
20
-2.4449847080607
30
0
41
1
10
248.997880519676
20
-2.51756780137407
30
0
41
1
10
249.062860873277
20
-2.54535776250341
30
0
41
1
10
249.188624919589
20
-2.60682251051748
30
0
41
1
10
249.249543331851
20
-2.64049931962941
30
0
41
1
10
249.426560288938
20
-2.75012318300736
30
0
41
1
10
249.537125387878
20
-2.83472065908416
30
0
41
1
10
249.74191027153
20
-3.02684725079087
30
0
41
1
10
249.833021488219
20
-3.13140342236673
30
0
41
1
10
249.95357489724
20
-3.30030808423101
30
0
41
1
10
249.991053758775
20
-3.35863652094298
30
0
41
1
10
250.060500973364
20
-3.479411967011
30
0
41
1
10
250.092411014117
20
-3.54185487547971
30
0
41
1
10
250.177858758744
20
-3.73128754904334
30
0
41
1
10
250.222008103157
20
-3.86166797329793
30
0
41
1
10
250.269342010398
20
-4.06322450679937
30
0
41
1
10
250.281990121324
20
-4.13176850216325
30
0
41
1
10
250.300508113832
20
-4.26904123713464
30
0
41
1
10
250.306398400646
20
-4.33760770478963
30
0
41
1
10
250.314294135414
20
-4.5430998600913
30
0
41
1
10
250.306614177793
20
-4.67981888984562
30
0
41
1
10
250.275328627623
20
-4.8844825624991
30
0
41
1
10
250.26159007771
20
-4.95235142441766
30
0
41
1
10
250.228068659131
20
-5.08523646726309
30
0
41
1
10
250.188413608406
20
-5.21591077474707
30
0
41
1
10
250.136648497951
20
-5.3422370230283
30
0
41
1
10
250.078731912756
20
-5.46636566732218
30
0
41
1
10
250.046535369598
20
-5.52760039155032
30
0
41
1
10
249.941477885879
20
-5.70591399275676
30
0
41
1
10
249.861067467859
20
-5.81649943512537
30
0
41
1
10
249.725095672753
20
-5.97020783361077
30
0
41
1
10
249.677194063179
20
-6.01940118580447
30
0
41
1
10
249.576036942008
20
-6.11356418873703
30
0
41
1
10
249.522614224484
20
-6.15861129134882
30
0
41
1
10
249.357743928776
20
-6.28425965190678
30
0
41
1
10
249.240692022808
20
-6.3565432094417
30
0
41
1
10
248.992037101835
20
-6.47785617705151
30
0
41
1
10
248.859153885925
20
-6.52694999435815
30
0
41
1
10
248.59026196245
20
-6.5962656861436
30
0
41
1
10
248.453069237384
20
-6.6173183517227
30
0
41
1
10
248.243010684302
20
-6.62779120787326
30
0
41
1
10
248.172278573569
20
-6.62767932662408
30
0
41
1
10
248.032812687138
20
-6.62033983518762
30
0
41
1
10
247.894471807045
20
-6.60595549192627
30
0
41
1
10
247.758338903406
20
-6.5777354546085
30
0
41
1
10
247.623321131816
20
-6.54251865172998
30
0
41
1
10
247.556030546178
20
-6.52126095400243
30
0
41
1
10
247.359913724044
20
-6.44819830772934
30
0
41
1
10
247.235895416502
20
-6.3871213457428
30
0
41
1
10
247.059568762328
20
-6.27756710734309
30
0
41
1
10
247.002161367068
20
-6.23782966127445
30
0
41
1
10
246.89198742664
20
-6.15318558380929
30
0
41
1
10
246.839434305458
20
-6.10849160980789
30
0
41
1
10
246.689067569678
20
-5.96755443275541
30
0
41
1
10
246.59847762033
20
-5.8645209793504
30
0
41
1
10
246.43673143796
20
-5.64003322784401
30
0
41
1
10
246.367613614987
20
-5.52126795231069
30
0
41
1
10
246.281690955636
20
-5.33539722857194
30
0
41
1
10
246.255967354331
20
-5.27205432904498
30
0
41
1
10
246.210436234046
20
-5.14254637217195
30
0
41
1
10
246.190571244498
20
-5.07609455684545
30
0
41
1
10
246.140895751847
20
-4.87529542036239
30
0
41
1
10
246.120650227206
20
-4.73912546413698
30
0
41
1
10
246.106354240764
20
-4.46220808825899
30
0
0
SPLINE
5
1B9
100
AcDbEntity
8
1
62
256
6
ByLayer
370
-1
48
1
60
0
100
AcDbSpline
70
4
71
3
72
24
73
20
40
0
40
0
40
0
40
0
40
0.134514934574523
40
0.134514934574523
40
0.278762445478769
40
0.278762445478769
40
0.350886200930894
40
0.350886200930894
40
0.423009956383018
40
0.423009956383018
40
0.567257467287263
40
0.567257467287263
40
0.711504978191508
40
0.711504978191508
40
0.783628733643631
40
0.783628733643631
40
0.855752489095754
40
0.855752489095754
40
1
40
1
40
1
40
1
41
1
10
216.335230346089
20
10.8065530668304
30
0
41
1
10
216.210672232149
20
11.1124525666872
30
0
41
1
10
216.076130670746
20
11.4250088219287
30
0
41
1
10
215.770124272686
20
12.0826449097954
30
0
41
1
10
215.596580413392
20
12.4283703906572
30
0
41
1
10
215.306660788635
20
12.9507336841275
30
0
41
1
10
215.204743708335
20
13.1260168736196
30
0
41
1
10
214.991495928786
20
13.474324528459
30
0
41
1
10
214.880510472322
20
13.6468341090352
30
0
41
1
10
214.533792469223
20
14.1582298533569
30
0
41
1
10
214.284255139875
20
14.4909432938084
30
0
41
1
10
213.746017146696
20
15.1345768648469
30
0
41
1
10
213.457303829598
20
15.4454802704746
30
0
41
1
10
212.994366192907
20
15.8926682260866
30
0
41
1
10
212.835088551321
20
16.0385490346194
30
0
41
1
10
212.50671743217
20
16.3236750076845
30
0
41
1
10
212.337318036451
20
16.4631569687176
30
0
41
1
10
211.81691470685
20
16.8697239482006
30
0
41
1
10
211.455295034711
20
17.123515214238
30
0
41
1
10
211.081433551876
20
17.362214830907
30
0
0
SPLINE
5
1BA
100
AcDbEntity
8
1
62
256
6
ByLayer
370
-1
48
1
60
0
100
AcDbSpline
70
4
71
3
72
8
73
4
40
0
40
0
40
0
40
0
40
1
40
1
40
1
40
1
41
1
10
204.604190734737
20
16.6535803709161
30
0
41
1
10
204.001234534433
20
16.8185298550078
30
0
41
1
10
203.387593347586
20
16.9927366715863
30
0
41
1
10
202.769291359455
20
17.1741530237682
30
0
0
SPLINE
5
1BB
100
AcDbEntity
8
1
62
256
6
ByLayer
370
-1
48
1
60
0
100
AcDbSpline
70
4
71
3
72
16
73
12
40
0
40
0
40
0
40
0
40
0.25
40
0.25
40
0.5
40
0.5
40
0.75
40
0.75
40
0.875
40
0.875
40
1
40
1
40
1
40
1
41
1
10
24.643958292921
20
-9.79667260722158
30
0
41
1
10
25.1587220781773
20
-10.1074304679562
30
0
41
1
10
25.6915952855454
20
-10.4137741808826
30
0
41
1
10
26.7908706908002
20
-11.0212067515962
30
0
41
1
10
27.3572757996136
20
-11.3222767276727
30
0
41
1
10
28.522907228684
20
-11.9185815601457
30
0
41
1
10
29.1221291771564
20
-12.2138104235555
30
0
41
1
10
30.0465295534426
20
-12.6490693699322
30
0
41
1
10
30.3591746752829
20
-12.7929554362944
30
0
41
1
10
30.9890937572228
20
-13.0753798223521
30
0
41
1
10
31.3068620480309
20
-13.2141553001142
30
0
41
1
10
31.6275838653224
20
-13.3500148020835
30
0
0
SPLINE
5
1BC
100
AcDbEntity
8
1
62
256
6
ByLayer
370
-1
48
1
60
0
100
AcDbSpline
70
4
71
3
72
14
73
10
40
0
40
0
40
0
40
0
40
0.499999999999994
40
0.499999999999994
40
0.624999999999995
40
0.624999999999995
40
0.749999999999997
40
0.749999999999997
40
1
40
1
40
1
40
1
41
1
10
232.342362415558
20
9.44180553129172
30
0
41
1
10
233.391939488445
20
9.02165827185354
30
0
41
1
10
234.470615984613
20
8.69089867262963
30
0
41
1
10
235.855912578197
20
8.39098790707294
30
0
41
1
10
236.134831590848
20
8.33671996910269
30
0
41
1
10
236.696453980846
20
8.23981286707635
30
0
41
1
10
236.979788415112
20
8.19710966524832
30
0
41
1
10
237.82817522614
20
8.08770087485445
30
0
41
1
10
238.393080364825
20
8.03929388489291
30
0
41
1
10
238.957328148987
20
8.01479285881973
30
0
0
SPLINE
5
1BD
100
AcDbEntity
8
1
62
256
6
ByLayer
370
-1
48
1
60
0
100
AcDbSpline
70
4
71
3
72
30
73
26
40
0
40
0
40
0
40
0
40
0.0883624406760513
40
0.0883624406760513
40
0.176724881352102
40
0.176724881352102
40
0.265087322028154
40
0.265087322028154
40
0.353449762704205
40
0.353449762704205
40
0.441812203380256
40
0.441812203380256
40
0.530174644056308
40
0.530174644056308
40
0.618537084732359
40
0.618537084732359
40
0.70689952540841
40
0.70689952540841
40
0.795261966084461
40
0.795261966084461
40
0.883624406760513
40
0.883624406760513
40
0.971986847436564
40
0.971986847436564
40
1
40
1
40
1
40
1
41
1
10
39.4169192008006
20
7.53961701668268
30
0
41
1
10
39.2100502255775
20
7.227391040599
30
0
41
1
10
38.9902218646556
20
6.84373457077666
30
0
41
1
10
38.5330491002111
20
5.94822554518706
30
0
41
1
10
38.2957159375999
20
5.43639500809294
30
0
41
1
10
37.8126278846946
20
4.30414611794188
30
0
41
1
10
37.5668848725141
20
3.68375560449064
30
0
41
1
10
37.0763941682471
20
2.35815627471447
30
0
41
1
10
36.8316585362897
20
1.65298005207367
30
0
41
1
10
36.3525614981315
20
0.184829177787634
30
0
41
1
10
36.1182118719136
20
-0.57810937513247
30
0
41
1
10
35.668868195471
20
-2.13255011620964
30
0
41
1
10
35.453885193657
20
-2.9240140839562
30
0
41
1
10
35.0515143824237
20
-4.50517626085514
30
0
41
1
10
34.8641364664517
20
-5.29483559257346
30
0
41
1
10
34.5241579553792
20
-6.84212677002344
30
0
41
1
10
34.3715657196313
20
-7.59972057113728
30
0
41
1
10
34.1070079799458
20
-9.05384629985008
30
0
41
1
10
33.9950489809235
20
-9.75034247357257
30
0
41
1
10
33.8160502501514
20
-11.0555785398149
30
0
41
1
10
33.7490149196018
20
-11.6642863393401
30
0
41
1
10
33.6624346895563
20
-12.7706141978847
30
0
41
1
10
33.6428919188852
20
-13.2682070546417
30
0
41
1
10
33.6489213614
20
-13.837836123886
30
0
41
1
10
33.6527969764168
20
-13.9684102894154
30
0
41
1
10
33.6590793630859
20
-14.0922175919939
30
0
0
SPLINE
5
1BE
100
AcDbEntity
8
1
62
256
6
ByLayer
370
-1
48
1
60
0
100
AcDbSpline
70
4
71
3
72
12
73
8
40
0
40
0
40
0
40
0
40
0.250000000000012
40
0.250000000000012
40
0.500000000000025
40
0.500000000000025
40
1
40
1
40
1
40
1
41
1
10
238.690946932939
20
18.075692664432
30
0
41
1
10
238.69509536063
20
18.075692664432
30
0
41
1
10
238.703134557072
20
18.0812178499466
30
0
41
1
10
238.726115493954
20
18.1014890404708
30
0
41
1
10
238.74127975287
20
18.1164583267713
30
0
41
1
10
238.794172362361
20
18.1699512066894
30
0
41
1
10
238.83989536603
20
18.217360377555
30
0
41
1
10
238.892996953151
20
18.2682187016322
30
0
0
SPLINE
5
1BF
100
AcDbEntity
8
1
62
256
6
ByLayer
370
-1
48
1
60
0
100
AcDbSpline
70
4
71
3
72
14
73
10
40
0
40
0
40
0
40
0
40
0.500000000000001
40
0.500000000000001
40
0.75
40
0.75
40
0.875
40
0.875
40
1
40
1
40
1
40
1
41
1
10
147.5
20
25.1851915604692
30
0
41
1
10
156.724559551255
20
24.512714221284
30
0
41
1
10
165.92517250799
20
23.4785123310335
30
0
41
1
10
179.728904869167
20
21.4475017477743
30
0
41
1
10
184.330766080594
20
20.6909395025249
30
0
41
1
10
191.240119277532
20
19.44890683369
30
0
41
1
10
193.544328295256
20
19.0170552374306
30
0
41
1
10
198.155808261579
20
18.1198617040727
30
0
41
1
10
200.462962415112
20
17.6545347045927
30
0
41
1
10
202.769291359455
20
17.1741530237682
30
0
0
SPLINE
5
1C0
100
AcDbEntity
8
1
62
256
6
ByLayer
370
-1
48
1
60
0
100
AcDbSpline
70
4
71
3
72
8
73
4
40
0
40
0
40
0
40
0
40
1
40
1
40
1
40
1
41
1
10
24.643958292921
20
-9.79667260722161
30
0
41
1
10
24.643958292921
20
-11.1892308426594
30
0
41
1
10
24.643958292921
20
-12.5817890780971
30
0
41
1
10
24.643958292921
20
-13.9743473135349
30
0
0
SPLINE
5
1C1
100
AcDbEntity
8
1
62
256
6
ByLayer
370
-1
48
1
60
0
100
AcDbSpline
70
4
71
3
72
16
73
12
40
0
40
0
40
0
40
0
40
0.153125665072612
40
0.153125665072612
40
0.435417110048393
40
0.435417110048393
40
0.717708555024173
40
0.717708555024173
40
0.858854277512086
40
0.858854277512086
40
1
40
1
40
1
40
1
41
1
10
242.161614001845
20
7.95233250535887
30
0
41
1
10
242.140482300974
20
7.93284923832954
30
0
41
1
10
242.119532344763
20
7.9144027087608
30
0
41
1
10
242.060791767513
20
7.86479152640578
30
0
41
1
10
242.023653063823
20
7.83600062840529
30
0
41
1
10
241.954121922733
20
7.78597663278856
30
0
41
1
10
241.922275519608
20
7.7651734860718
30
0
41
1
10
241.885108257485
20
7.74317144225816
30
0
41
1
10
241.87451374761
20
7.73739076523583
30
0
41
1
10
241.858473165195
20
7.72966746291235
30
0
41
1
10
241.852902353699
20
7.72764654595056
30
0
41
1
10
241.850106089908
20
7.72764654595056
30
0
0
SPLINE
5
1C2
100
AcDbEntity
8
1
62
256
6
ByLayer
370
-1
48
1
60
0
100
AcDbSpline
70
4
71
3
72
8
73
4
40
0
40
0
40
0
40
0
40
1
40
1
40
1
40
1
41
1
10
14.8593754460662
20
-4.80357879376626
30
0
41
1
10
14.1414571110074
20
-4.5266636285431
30
0
41
1
10
13.4371241204446
20
-4.17526342448048
30
0
41
1
10
12.7439582929209
20
-3.74990868633984
30
0
0
SPLINE
5
1C3
100
AcDbEntity
8
1
62
256
6
ByLayer
370
-1
48
1
60
0
100
AcDbSpline
70
4
71
2
72
6
73
3
40
0
40
0
40
0
40
1
40
1
40
1
41
1
10
12.7439582929209
20
-3.74990868633984
30
0
41
1
10
12.7439582929209
20
-4.96961875071392
30
0
41
1
10
12.7439582929209
20
-6.18932881508797
30
0
0
SPLINE
5
1C4
100
AcDbEntity
8
1
62
256
6
ByLayer
370
-1
48
1
60
0
100
AcDbSpline
70
4
71
3
72
14
73
10
40
0
40
0
40
0
40
0
40
0.499999999999999
40
0.499999999999999
40
0.624999999999999
40
0.624999999999999
40
0.749999999999999
40
0.749999999999999
40
1
40
1
40
1
40
1
41
1
10
9.71814238842617
20
-0.451131668651925
30
0
41
1
10
10.1210548369419
20
-1.11135986945331
30
0
41
1
10
10.5720734788313
20
-1.71917291282134
30
0
41
1
10
11.2047512120648
20
-2.41249562622744
30
0
41
1
10
11.3349585309261
20
-2.54800979073337
30
0
41
1
10
11.6016617474027
20
-2.81125212722782
30
0
41
1
10
11.7377630836503
20
-2.93861383805967
30
0
41
1
10
12.1544429394549
20
-3.30802923188369
30
0
41
1
10
12.4433844889954
20
-3.53744477719258
30
0
41
1
10
12.7439584462655
20
-3.74990879473316
30
0
0
SPLINE
5
1C5
100
AcDbEntity
8
1
62
256
6
ByLayer
370
-1
48
1
60
0
100
AcDbSpline
70
4
71
3
72
8
73
4
40
0
40
0
40
0
40
0
40
1
40
1
40
1
40
1
41
1
10
39.4169192007992
20
13.8604337862285
30
0
41
1
10
40.2779468268604
20
13.6521715110373
30
0
41
1
10
41.1389584582033
20
13.4421497151296
30
0
41
1
10
42
20
13.2305088301742
30
0
0
SPLINE
5
1C6
100
AcDbEntity
8
1
62
256
6
ByLayer
370
-1
48
1
60
0
100
AcDbSpline
70
4
71
3
72
38
73
34
40
0
40
0
40
0
40
0
40
0.124999999999993
40
0.124999999999993
40
0.249999999999986
40
0.249999999999986
40
0.374999999999979
40
0.374999999999979
40
0.406249999999979
40
0.406249999999979
40
0.437499999999979
40
0.437499999999979
40
0.499999999999979
40
0.499999999999979
40
0.562499999999978
40
0.562499999999978
40
0.593749999999979
40
0.593749999999979
40
0.62499999999998
40
0.62499999999998
40
0.749999999999986
40
0.749999999999986
40
0.781249999999987
40
0.781249999999987
40
0.812499999999989
40
0.812499999999989
40
0.874999999999992
40
0.874999999999992
40
0.906249999999993
40
0.906249999999993
40
0.937499999999995
40
0.937499999999995
40
1
40
1
40
1
40
1
41
1
10
233.167458477963
20
9.02583490292133
30
0
41
1
10
233.678748652434
20
8.78454990876563
30
0
41
1
10
234.181836915383
20
8.56001411016652
30
0
41
1
10
235.16403495694
20
8.13649578403761
30
0
41
1
10
235.629837812221
20
7.94318893542373
30
0
41
1
10
236.501842602023
20
7.58050023056421
30
0
41
1
10
236.908307417997
20
7.41117412122418
30
0
41
1
10
237.368933048176
20
7.20539467692942
30
0
41
1
10
237.458656386719
20
7.16452490393087
30
0
41
1
10
237.632896576522
20
7.08308873646766
30
0
41
1
10
237.716951632787
20
7.04273207758592
30
0
41
1
10
237.958065941131
20
6.92304382247241
30
0
41
1
10
238.104748707583
20
6.84479130156694
30
0
41
1
10
238.367748360969
20
6.6891751572046
30
0
41
1
10
238.48407838105
20
6.61181321470659
30
0
41
1
10
238.633287134359
20
6.49484869189078
30
0
41
1
10
238.678911356464
20
6.45559669116429
30
0
41
1
10
238.76062209763
20
6.37703535513114
30
0
41
1
10
238.796524239851
20
6.33792810958761
30
0
41
1
10
238.951202010326
20
6.14275732031345
30
0
41
1
10
238.996203527535
20
5.98738747027406
30
0
41
1
10
238.946071228936
20
5.79012300279913
30
0
41
1
10
238.930568338435
20
5.75037405405081
30
0
41
1
10
238.889091330418
20
5.67175131120709
30
0
41
1
10
238.863160465603
20
5.63283288369814
30
0
41
1
10
238.77030240024
20
5.51731613442553
30
0
41
1
10
238.688345180333
20
5.44193410312059
30
0
41
1
10
238.536659421452
20
5.33197232510963
30
0
41
1
10
238.481296577163
20
5.29584262470573
30
0
41
1
10
238.361087020859
20
5.22480962013572
30
0
41
1
10
238.296005486271
20
5.18979992659496
30
0
41
1
10
238.088954011012
20
5.08803824278701
30
0
41
1
10
237.935097838622
20
5.02436659163553
30
0
41
1
10
237.767025188901
20
4.96544864602123
30
0
0
SPLINE
5
1C7
100
AcDbEntity
8
1
62
256
6
ByLayer
370
-1
48
1
60
0
100
AcDbSpline
70
4
71
3
72
8
73
4
40
0
40
0
40
0
40
0
40
1
40
1
40
1
40
1
41
1
10
228.394708305635
20
5.40157127061067
30
0
41
1
10
228.970938014841
20
5.1691234633949
30
0
41
1
10
229.53429502677
20
4.96264724430256
30
0
41
1
10
230.085008763184
20
4.78167973850501
30
0
0
SPLINE
5
1C8
100
AcDbEntity
8
1
62
256
6
ByLayer
370
-1
48
1
60
0
100
AcDbSpline
70
4
71
1
72
4
73
2
40
0
40
0
40
1
40
1
41
1
10
240.079541226246
20
9.93822412201112
30
0
41
1
10
240.298986629494
20
9.9459759673976
30
0
0
SPLINE
5
1C9
100
AcDbEntity
8
1
62
256
6
ByLayer
370
-1
48
1
60
0
100
AcDbSpline
70
4
71
1
72
4
73
2
40
0
40
0
40
1
40
1
41
1
10
255.740501700068
20
9.29763153417753
30
0
41
1
10
255.731085663552
20
9.51961534207456
30
0
0
SPLINE
5
1CA
100
AcDbEntity
8
1
62
256
6
ByLayer
370
-1
48
1
60
0
100
AcDbSpline
70
4
71
3
72
8
73
4
40
0
40
0
40
0
40
0
40
1
40
1
40
1
40
1
41
1
10
257.154465612628
20
26.5089810612593
30
0
41
1
10
257.113692042867
20
26.6428593039445
30
0
41
1
10
257.037853108799
20
26.7646952895805
30
0
41
1
10
256.935855551306
20
26.8601666592824
30
0
0
SPLINE
5
1CB
100
AcDbEntity
8
1
62
256
6
ByLayer
370
-1
48
1
60
0
100
AcDbSpline
70
4
71
3
72
8
73
4
40
0
40
0
40
0
40
0
40
1
40
1
40
1
40
1
41
1
10
239.250036928917
20
8.85859360005369
30
0
41
1
10
239.251091587872
20
8.82827675433643
30
0
41
1
10
239.252283153116
20
8.79796439632869
30
0
41
1
10
239.253613022447
20
8.76765845302427
30
0
0
SPLINE
5
1CC
100
AcDbEntity
8
1
62
256
6
ByLayer
370
-1
48
1
60
0
100
AcDbSpline
70
4
71
3
72
8
73
4
40
0
40
0
40
0
40
0
40
1
40
1
40
1
40
1
41
1
10
240.140748361613
20
7.89052603099583
30
0
41
1
10
240.087605366888
20
7.88967166598505
30
0
41
1
10
240.034458462134
20
7.88925455902546
30
0
41
1
10
239.981304364428
20
7.88924449692783
30
0
0
SPLINE
5
1CD
100
AcDbEntity
8
1
62
256
6
ByLayer
370
-1
48
1
60
0
100
AcDbSpline
70
4
71
1
72
4
73
2
40
0
40
0
40
1
40
1
41
1
10
255.705212444995
20
9.90851484548216
30
0
41
1
10
255.666998834744
20
10.3071871070941
30
0
0
SPLINE
5
1CE
100
AcDbEntity
8
1
62
256
6
ByLayer
370
-1
48
1
60
0
100
AcDbSpline
70
4
71
3
72
8
73
4
40
0
40
0
40
0
40
0
40
1
40
1
40
1
40
1
41
1
10
239.725135076699
20
9.92586687610145
30
0
41
1
10
239.84286237619
20
9.92991832008116
30
0
41
1
10
239.962733638199
20
9.93409792775458
30
0
41
1
10
240.079541226246
20
9.93822412201112
30
0
0
SPLINE
5
1CF
100
AcDbEntity
8
1
62
256
6
ByLayer
370
-1
48
1
60
0
100
AcDbSpline
70
4
71
3
72
12
73
8
40
0
40
0
40
0
40
0
40
0.342482483786388
40
0.342482483786388
40
0.671240032903798
40
0.671240032903798
40
1
40
1
40
1
40
1
41
1
10
241.325751171434
20
7.93096318502572
30
0
41
1
10
241.206386373821
20
7.92677895217361
30
0
41
1
10
241.087048973022
20
7.92266046822667
30
0
41
1
10
240.853153028015
20
7.91457835091697
30
0
41
1
10
240.738582917081
20
7.91058973740411
30
0
41
1
10
240.50938050461
20
7.90246104945038
30
0
41
1
10
240.394750595707
20
7.89832760555942
30
0
41
1
10
240.280168315959
20
7.89431115510172
30
0
0
SPLINE
5
1D0
100
AcDbEntity
8
1
62
256
6
ByLayer
370
-1
48
1
60
0
100
AcDbSpline
70
4
71
3
72
8
73
4
40
0
40
0
40
0
40
0
40
1
40
1
40
1
40
1
41
1
10
256.16069725267
20
27.0623272996875
30
0
41
1
10
256.190898752382
20
27.0633859511311
30
0
41
1
10
256.221104057486
20
27.0643094074054
30
0
41
1
10
256.251314730973
20
27.0650903698843
30
0
0
SPLINE
5
1D1
100
AcDbEntity
8
1
62
256
6
ByLayer
370
-1
48
1
60
0
100
AcDbSpline
70
4
71
1
72
4
73
2
40
0
40
0
40
1
40
1
41
1
10
257.631136956253
20
10.553811101171
30
0
41
1
10
257.731458254518
20
10.5573010508413
30
0
0
SPLINE
5
1D2
100
AcDbEntity
8
1
62
256
6
ByLayer
370
-1
48
1
60
0
100
AcDbSpline
70
4
71
3
72
25
73
21
40
0
40
0
40
0
40
0
40
0.125
40
0.1875
40
0.21875
40
0.234375
40
0.25
40
0.3125
40
0.34375
40
0.375
40
0.5
40
0.625
40
0.6875
40
0.71875
40
0.7265625
40
0.734375
40
0.75
40
0.8125
40
0.875
40
1
40
1
40
1
40
1
41
1
10
238.77245354055
20
25.4524041657429
30
0
41
1
10
238.77269013261
20
25.4694802254752
30
0
41
1
10
238.773116307492
20
25.4950708094209
30
0
41
1
10
238.773705335405
20
25.5249333080375
30
0
41
1
10
238.774040871151
20
25.5398316758937
30
0
41
1
10
238.774246897914
20
25.5483313614074
30
0
41
1
10
238.774571541222
20
25.5610640954941
30
0
41
1
10
238.774999547923
20
25.5758633552638
30
0
41
1
10
238.775540060611
20
25.5927835189727
30
0
41
1
10
238.776394070998
20
25.6182105483926
30
0
41
1
10
238.777806786073
20
25.6566880106668
30
0
41
1
10
238.779595169076
20
25.6991906633338
30
0
41
1
10
238.780960875202
20
25.7291551315237
30
0
41
1
10
238.781623589271
20
25.7427922108194
30
0
41
1
10
238.781932311814
20
25.7494049507802
30
0
41
1
10
238.782142069324
20
25.7524252620043
30
0
41
1
10
238.782818018447
20
25.7617555463056
30
0
41
1
10
238.784399309601
20
25.7764725778337
30
0
41
1
10
238.78855717674
20
25.8026265926139
30
0
41
1
10
238.793157102366
20
25.821855853434
30
0
41
1
10
238.796855476185
20
25.834401521904
30
0
0
SPLINE
5
1D3
100
AcDbEntity
8
1
62
256
6
ByLayer
370
-1
48
1
60
0
100
AcDbSpline
70
4
71
3
72
8
73
4
40
0
40
0
40
0
40
0
40
1
40
1
40
1
40
1
41
1
10
255.334560168809
20
24.9831598753309
30
0
41
1
10
255.32574814965
20
24.9828688184674
30
0
41
1
10
255.315355952304
20
24.9825143137062
30
0
41
1
10
255.305219785555
20
24.9821589988834
30
0
0
SPLINE
5
1D4
100
AcDbEntity
8
1
62
256
6
ByLayer
370
-1
48
1
60
0
100
AcDbSpline
70
4
71
1
72
4
73
2
40
0
40
0
40
1
40
1
41
1
10
241.32151198813
20
8.03090226772764
30
0
41
1
10
241.325751171434
20
7.93096318502572
30
0
0
SPLINE
5
1D5
100
AcDbEntity
8
1
62
256
6
ByLayer
370
-1
48
1
60
0
100
AcDbSpline
70
4
71
1
72
4
73
2
40
0
40
0
40
1
40
1
41
1
10
255.756060007397
20
24.9970818174814
30
0
41
1
10
255.334560168809
20
24.9831598753309
30
0
0
SPLINE
5
1D6
100
AcDbEntity
8
1
62
256
6
ByLayer
370
-1
48
1
60
0
100
AcDbSpline
70
4
71
3
72
9
73
5
40
0
40
0
40
0
40
0
40
0.5
40
1
40
1
40
1
40
1
41
1
10
257.64353644493
20
9.12223693288894
30
0
41
1
10
257.627053091694
20
9.06582894892134
30
0
41
1
10
257.579025536143
20
8.9561924234514
30
0
41
1
10
257.505012173121
20
8.86446369160825
30
0
41
1
10
257.463824708269
20
8.8250847322015
30
0
0
SPLINE
5
1D7
100
AcDbEntity
8
1
62
256
6
ByLayer
370
-1
48
1
60
0
100
AcDbSpline
70
4
71
3
72
15
73
11
40
0
40
0
40
0
40
0
40
0.250193815306062
40
0.500387630612123
40
0.750581445918185
40
0.875678353571216
40
0.938226807397731
40
0.969501034310989
40
0.985138147767618
40
1
40
1
40
1
40
1
41
1
10
256.839984259479
20
26.7577771405498
30
0
41
1
10
256.847973533758
20
26.766309600402
30
0
41
1
10
256.863952082316
20
26.7833745201064
30
0
41
1
10
256.887915207968
20
26.8089668831185
30
0
41
1
10
256.907907182409
20
26.8303180989276
30
0
41
1
10
256.921853183503
20
26.8452122795841
30
0
41
1
10
256.92889664184
20
26.8527346180821
30
0
41
1
10
256.932312684323
20
26.8563829150765
30
0
41
1
10
256.934426155592
20
26.8586400798852
30
0
41
1
10
256.934988589513
20
26.8592407533234
30
0
41
1
10
256.935859844879
20
26.8601712447766
30
0
0
SPLINE
5
1D8
100
AcDbEntity
8
1
62
256
6
ByLayer
370
-1
48
1
60
0
100
AcDbSpline
70
4
71
3
72
12
73
8
40
0
40
0
40
0
40
0
40
0.3424824837864
40
0.3424824837864
40
0.671240032903806
40
0.671240032903806
40
1
40
1
40
1
40
1
41
1
10
238.709407314111
20
24.3993374039516
30
0
41
1
10
238.705239003528
20
24.5191581556997
30
0
41
1
10
238.701165686985
20
24.6389810139795
30
0
41
1
10
238.693167547953
20
24.873823830185
30
0
41
1
10
238.689206652611
20
24.9888441685233
30
0
41
1
10
238.681066016423
20
25.2188790528319
30
0
41
1
10
238.676895861307
20
25.3338941888254
30
0
41
1
10
238.672894756226
20
25.4489142160725
30
0
0
SPLINE
5
1D9
100
AcDbEntity
8
1
62
256
6
ByLayer
370
-1
48
1
60
0
100
AcDbSpline
70
4
71
1
72
4
73
2
40
0
40
0
40
1
40
1
41
1
10
239.312320641411
20
9.91166036184501
30
0
41
1
10
239.725135076699
20
9.92586687610145
30
0
0
SPLINE
5
1DA
100
AcDbEntity
8
1
62
256
6
ByLayer
370
-1
48
1
60
0
100
AcDbSpline
70
4
71
3
72
8
73
4
40
0
40
0
40
0
40
0
40
1
40
1
40
1
40
1
41
1
10
257.566579453761
20
8.72960496179275
30
0
41
1
10
257.661689644612
20
8.83199420235414
30
0
41
1
10
257.72887638876
20
8.95883938913047
30
0
41
1
10
257.760252743935
20
9.09524280633428
30
0
0
SPLINE
5
1DB
100
AcDbEntity
8
1
62
256
6
ByLayer
370
-1
48
1
60
0
100
AcDbSpline
70
4
71
3
72
15
73
11
40
0
40
0
40
0
40
0
40
0.424997863749044
40
0.849995727498089
40
0.95624519343535
40
0.982807559919665
40
0.996088743161823
40
0.997748891067092
40
0.999409038972362
40
1
40
1
40
1
40
1
41
1
10
255.757535714501
20
8.53694496991392
30
0
41
1
10
255.905659315186
20
8.54213731848367
30
0
41
1
10
256.201903534784
20
8.55251918915587
30
0
41
1
10
256.535192118037
20
8.56421186766843
30
0
41
1
10
256.729592192481
20
8.5710153413107
30
0
41
1
10
256.780517860426
20
8.57280794069686
30
0
41
1
10
256.794975603
20
8.57330796645715
30
0
41
1
10
256.800767599892
20
8.57351638279974
30
0
41
1
10
256.80212975066
20
8.57355650883395
30
0
41
1
10
256.802912397644
20
8.57359493234125
30
0
41
1
10
256.803117903496
20
8.57360704946683
30
0
0
SPLINE
5
1DC
100
AcDbEntity
8
1
62
256
6
ByLayer
370
-1
48
1
60
0
100
AcDbSpline
70
4
71
3
72
9
73
5
40
0
40
0
40
0
40
0
40
0.5
40
1
40
1
40
1
40
1
41
1
10
239.89591108195
20
8.01898311325783
30
0
41
1
10
239.839634880426
20
8.03544624672097
30
0
41
1
10
239.730239545748
20
8.08348057811716
30
0
41
1
10
239.638683744863
20
8.15759986283445
30
0
41
1
10
239.599371608563
20
8.19886131424315
30
0
0
SPLINE
5
1DD
100
AcDbEntity
8
1
62
256
6
ByLayer
370
-1
48
1
60
0
100
AcDbSpline
70
4
71
3
72
9
73
5
40
0
40
0
40
0
40
0
40
0.5
40
1
40
1
40
1
40
1
41
1
10
239.599371608563
20
8.19886131424315
30
0
41
1
10
239.55556602644
20
8.23524703444292
30
0
41
1
10
239.475424999716
20
8.32156341896436
30
0
41
1
10
239.420076615579
20
8.42760884665057
30
0
41
1
10
239.399836005024
20
8.48274199810035
30
0
0
SPLINE
5
1DE
100
AcDbEntity
8
1
62
256
6
ByLayer
370
-1
48
1
60
0
100
AcDbSpline
70
4
71
1
72
4
73
2
40
0
40
0
40
1
40
1
41
1
10
255.757535714501
20
8.53694496991392
30
0
41
1
10
255.750924433116
20
8.94376631042871
30
0
0
SPLINE
5
1DF
100
AcDbEntity
8
1
62
256
6
ByLayer
370
-1
48
1
60
0
100
AcDbSpline
70
4
71
3
72
20
73
16
40
0
40
0
40
0
40
0
40
0.0006369940731708
40
0.0022970655115875
40
0.0039571369500042
40
0.0172377084573374
40
0.043798851472004
40
0.15004342353067
40
0.362532567648003
40
0.468777139706669
40
0.521899425736002
40
0.575021711765335
40
0.787510855882668
40
0.893755427941334
40
1
40
1
40
1
40
1
41
1
10
240.276691530769
20
7.99426100445706
30
0
41
1
10
240.276913814476
20
7.99426341649567
30
0
41
1
10
240.277716096821
20
7.99428048611759
30
0
41
1
10
240.279096586581
20
7.9943358194862
30
0
41
1
10
240.284876709753
20
7.99453455066154
30
0
41
1
10
240.299350525291
20
7.99504664425547
30
0
41
1
10
240.350258348103
20
7.99682474241627
30
0
41
1
10
240.470590637454
20
8.00104089568376
30
0
41
1
10
240.618598543227
20
8.00620266683373
30
0
41
1
10
240.748037720272
20
8.01070704304419
30
0
41
1
10
240.821977560843
20
8.01327509201192
30
0
41
1
10
240.932908317717
20
8.01714033440587
30
0
41
1
10
241.062385488957
20
8.02168794297452
30
0
41
1
10
241.210434524389
20
8.02693509776847
30
0
41
1
10
241.284481507158
20
8.02957893507298
30
0
41
1
10
241.32151198813
20
8.03090226772764
30
0
0
SPLINE
5
1E0
100
AcDbEntity
8
1
62
256
6
ByLayer
370
-1
48
1
60
0
100
AcDbSpline
70
4
71
3
72
8
73
4
40
0
40
0
40
0
40
0
40
1
40
1
40
1
40
1
41
1
10
240.280168315959
20
7.89431115510544
30
0
41
1
10
240.249966848713
20
7.89325250366178
30
0
41
1
10
240.219759111386
20
7.89232904738751
30
0
41
1
10
240.189550037079
20
7.89154808490861
30
0
0
SPLINE
5
1E1
100
AcDbEntity
8
1
62
256
6
ByLayer
370
-1
48
1
60
0
100
AcDbSpline
70
4
71
3
72
8
73
4
40
0
40
0
40
0
40
0
40
1
40
1
40
1
40
1
41
1
10
255.666998834744
20
10.3071871070941
30
0
41
1
10
255.666199927995
20
10.3155218851553
30
0
41
1
10
255.665567632781
20
10.3256735732883
30
0
41
1
10
255.665213670038
20
10.3358484585483
30
0
0
SPLINE
5
1E2
100
AcDbEntity
8
1
62
256
6
ByLayer
370
-1
48
1
60
0
100
AcDbSpline
70
4
71
3
72
25
73
21
40
0
40
0
40
0
40
0
40
0.125
40
0.1875
40
0.21875
40
0.234375
40
0.25
40
0.3125
40
0.34375
40
0.375
40
0.5
40
0.625
40
0.6875
40
0.71875
40
0.7265625
40
0.734375
40
0.75
40
0.8125
40
0.875
40
1
40
1
40
1
40
1
41
1
10
256.164173922029
20
26.9623882169852
30
0
41
1
10
256.181183688416
20
26.9621494023806
30
0
41
1
10
256.206674722622
20
26.9617194214498
30
0
41
1
10
256.236421084306
20
26.9611256328822
30
0
41
1
10
256.251261250374
20
26.9607873006807
30
0
41
1
10
256.259727622981
20
26.9605795141897
30
0
41
1
10
256.272410320851
20
26.9602520404249
30
0
41
1
10
256.287150984296
20
26.9598201094244
30
0
41
1
10
256.304004198718
20
26.9592749593185
30
0
41
1
10
256.32933097704
20
26.9584141798316
30
0
41
1
10
256.367659334597
20
26.9569933717968
30
0
41
1
10
256.409995349492
20
26.9551932363882
30
0
41
1
10
256.439843967257
20
26.9538204799327
30
0
41
1
10
256.453426230174
20
26.9531523000622
30
0
41
1
10
256.46001486153
20
26.952843457146
30
0
41
1
10
256.463013903277
20
26.9526230847722
30
0
41
1
10
256.472289489037
20
26.9519252863224
30
0
41
1
10
256.486914869545
20
26.9503021704511
30
0
41
1
10
256.512906701186
20
26.9460655223699
30
0
41
1
10
256.532014933104
20
26.941399987215
30
0
41
1
10
256.544480839164
20
26.9376553415351
30
0
0
SPLINE
5
1E3
100
AcDbEntity
8
1
62
256
6
ByLayer
370
-1
48
1
60
0
100
AcDbSpline
70
4
71
1
72
4
73
2
40
0
40
0
40
1
40
1
41
1
10
239.794869572569
20
24.4371429591745
30
0
41
1
10
239.57542416932
20
24.429391113788
30
0
0
SPLINE
5
1E4
100
AcDbEntity
8
1
62
256
6
ByLayer
370
-1
48
1
60
0
100
AcDbSpline
70
4
71
3
72
25
73
21
40
0
40
0
40
0
40
0
40
0.125
40
0.1875
40
0.25
40
0.265625
40
0.2734375
40
0.28125
40
0.3125
40
0.375
40
0.5
40
0.625
40
0.65625
40
0.6875
40
0.75
40
0.765625
40
0.78125
40
0.8125
40
0.875
40
1
40
1
40
1
40
1
41
1
10
257.180895288119
20
8.62491641578788
30
0
41
1
10
257.16869002983
20
8.62029274127266
30
0
41
1
10
257.149906917664
20
8.61428171070048
30
0
41
1
10
257.124214307478
20
8.60821937975052
30
0
41
1
10
257.109704298672
20
8.60557060121712
30
0
41
1
10
257.100483680719
20
8.60422347454781
30
0
41
1
10
257.097498113955
20
8.60379280450681
30
0
41
1
10
257.09095088313
20
8.60302447916712
30
0
41
1
10
257.077449806701
20
8.60140851896989
30
0
41
1
10
257.047777678671
20
8.59795324039877
30
0
41
1
10
257.005680176814
20
8.59319874756363
30
0
41
1
10
256.967555512503
20
8.58910294782063
30
0
41
1
10
256.942355359777
20
8.58647429064439
30
0
41
1
10
256.92558438827
20
8.58475265240963
30
0
41
1
10
256.910913141652
20
8.58329157236696
30
0
41
1
10
256.898287315155
20
8.58207857166354
30
0
41
1
10
256.889858206343
20
8.58127963402816
30
0
41
1
10
256.875081665926
20
8.57990507245404
30
0
41
1
10
256.845457292019
20
8.5772340764459
30
0
41
1
10
256.820065360747
20
8.57502384601275
30
0
41
1
10
256.803118569976
20
8.57359699983388
30
0
0
SPLINE
5
1E5
100
AcDbEntity
8
1
62
256
6
ByLayer
370
-1
48
1
60
0
100
AcDbSpline
70
4
71
3
72
9
73
5
40
0
40
0
40
0
40
0
40
0.5
40
1
40
1
40
1
40
1
41
1
10
256.544480839164
20
26.9376553415351
30
0
41
1
10
256.600591306757
20
26.9211922080719
30
0
41
1
10
256.70963462286
20
26.8731578766758
30
0
41
1
10
256.800838174624
20
26.7990385919585
30
0
41
1
10
256.839984259479
20
26.7577771405498
30
0
0
SPLINE
5
1E6
100
AcDbEntity
8
1
62
256
6
ByLayer
370
-1
48
1
60
0
100
AcDbSpline
70
4
71
3
72
8
73
4
40
0
40
0
40
0
40
0
40
1
40
1
40
1
40
1
41
1
10
238.67289475623
20
25.4489142160727
30
0
41
1
10
238.671840149507
20
25.4792310643115
30
0
41
1
10
238.670918991152
20
25.509552969531
30
0
41
1
10
238.67014180006
20
25.5398782402386
30
0
0
SPLINE
5
1E7
100
AcDbEntity
8
1
62
256
6
ByLayer
370
-1
48
1
60
0
100
AcDbSpline
70
4
71
3
72
9
73
5
40
0
40
0
40
0
40
0
40
0.5
40
1
40
1
40
1
40
1
41
1
10
257.463824708269
20
8.8250847322015
30
0
41
1
10
257.427530366543
20
8.78115907988649
30
0
41
1
10
257.341472648976
20
8.70078198700602
30
0
41
1
10
257.235814659856
20
8.64523833882151
30
0
41
1
10
257.180895288119
20
8.62491641578788
30
0
0
SPLINE
5
1E8
100
AcDbEntity
8
1
62
256
6
ByLayer
370
-1
48
1
60
0
100
AcDbSpline
70
4
71
3
72
97
73
93
40
0
40
0
40
0
40
0
40
0.03125
40
0.0625
40
0.125
40
0.140625
40
0.15625
40
0.1875
40
0.25
40
0.28125
40
0.2890625
40
0.29296875
40
0.29345703125
40
0.2939453125
40
0.294189453125
40
0.29443359375
40
0.294921875
40
0.296875
40
0.3046875
40
0.3125
40
0.3203125
40
0.328125
40
0.34375
40
0.359375
40
0.3671875
40
0.37109375
40
0.375
40
0.37548828125
40
0.3759765625
40
0.376953125
40
0.37744140625
40
0.3779296875
40
0.37890625
40
0.380859375
40
0.3828125
40
0.38671875
40
0.390625
40
0.3984375
40
0.400390625
40
0.4013671875
40
0.40234375
40
0.40625
40
0.4375
40
0.453125
40
0.46875
40
0.484375
40
0.4921875
40
0.49609375
40
0.498046875
40
0.4990234375
40
0.49951171875
40
0.5
40
0.50048828125
40
0.5009765625
40
0.501953125
40
0.50390625
40
0.5078125
40
0.515625
40
0.53125
40
0.546875
40
0.5625
40
0.59375
40
0.595703125
40
0.59765625
40
0.5986328125
40
0.599609375
40
0.6015625
40
0.609375
40
0.6171875
40
0.62109375
40
0.623046875
40
0.6240234375
40
0.625
40
0.62548828125
40
0.6328125
40
0.640625
40
0.65625
40
0.6640625
40
0.671875
40
0.6875
40
0.703125
40
0.705078125
40
0.70556640625
40
0.705810546875
40
0.7060546875
40
0.70654296875
40
0.70703125
40
0.7109375
40
0.71875
40
0.75
40
0.875
40
1
40
1
40
1
40
1
41
1
10
255.809336842481
20
10.4909920071065
30
0
41
1
10
255.809422172784
20
10.4885391330085
30
0
41
1
10
255.80947249903
20
10.4836291820421
30
0
41
1
10
255.809093309013
20
10.4738160974035
30
0
41
1
10
255.808133686549
20
10.465269608287
30
0
41
1
10
255.806865505146
20
10.4580168922078
30
0
41
1
10
255.805901968619
20
10.4532040366288
30
0
41
1
10
255.80390780135
20
10.4448475616385
30
0
41
1
10
255.800933888604
20
10.4354825669786
30
0
41
1
10
255.797967772009
20
10.4280798605071
30
0
41
1
10
255.796618187797
20
10.4249888925666
30
0
41
1
10
255.796226760714
20
10.4241143637961
30
0
41
1
10
255.796068990079
20
10.4237650976595
30
0
41
1
10
255.796029480789
20
10.4236778114745
30
0
41
1
10
255.795997833393
20
10.4236080007664
30
0
41
1
10
255.79596615936
20
10.4235382022283
30
0
41
1
10
255.79587894591
20
10.4233463064923
30
0
41
1
10
255.795544551413
20
10.4226142542087
30
0
41
1
10
255.794961733834
20
10.4213637288356
30
0
41
1
10
255.794164349825
20
10.4197060432745
30
0
41
1
10
255.793346793732
20
10.418058288602
30
0
41
1
10
255.792229985253
20
10.4158748559375
30
0
41
1
10
255.790784153538
20
10.4131716387566
30
0
41
1
10
255.78927270579
20
10.4105048483461
30
0
41
1
10
255.788180670316
20
10.408658091613
30
0
41
1
10
255.787546990369
20
10.4076086399953
30
0
41
1
10
255.787206937547
20
10.4070532085007
30
0
41
1
10
255.78700578162
20
10.4067271828327
30
0
41
1
10
255.786925219316
20
10.4065968347477
30
0
41
1
10
255.786844507196
20
10.4064665800435
30
0
41
1
10
255.786763645423
20
10.4063364189358
30
0
41
1
10
255.786682683936
20
10.4062063202975
30
0
41
1
10
255.786540739729
20
10.4059788118513
30
0
41
1
10
255.786337215665
20
10.4056542699223
30
0
41
1
10
255.786009987861
20
10.4051360103921
30
0
41
1
10
255.785597979725
20
10.4044900837669
30
0
41
1
10
255.784932451473
20
10.403460686558
30
0
41
1
10
255.784341862235
20
10.4025653743472
30
0
41
1
10
255.78387247282
20
10.401865520454
30
0
41
1
10
255.783701202889
20
10.4016114232024
30
0
41
1
10
255.783443715776
20
10.4012306732601
30
0
41
1
10
255.781846912864
20
10.3988888325715
30
0
41
1
10
255.779512443294
20
10.3956600352357
30
0
41
1
10
255.776496414666
20
10.3917956548943
30
0
41
1
10
255.774164318661
20
10.3889538970097
30
0
41
1
10
255.772163629144
20
10.3866343426946
30
0
41
1
10
255.770733664104
20
10.3850369300673
30
0
41
1
10
255.770011384441
20
10.3842448891438
30
0
41
1
10
255.769648429505
20
10.3838505470973
30
0
41
1
10
255.769466499409
20
10.3836537971863
30
0
41
1
10
255.769362410196
20
10.383541489199
30
0
41
1
10
255.769284278748
20
10.3834573185291
30
0
41
1
10
255.769206082802
20
10.3833732082336
30
0
41
1
10
255.769101735613
20
10.3832611417318
30
0
41
1
10
255.768918902646
20
10.3830652369776
30
0
41
1
10
255.768552336588
20
10.3826742752198
30
0
41
1
10
255.767815615332
20
10.3818957527418
30
0
41
1
10
255.766327907071
20
10.3803523922243
30
0
41
1
10
255.764162369223
20
10.3781871486648
30
0
41
1
10
255.761500999918
20
10.3756536159913
30
0
41
1
10
255.75787108985
20
10.3723638760378
30
0
41
1
10
255.75494240604
20
10.3698995414159
30
0
41
1
10
255.752789063896
20
10.3681815053947
30
0
41
1
10
255.752489261076
20
10.3679438113582
30
0
41
1
10
255.752248983928
20
10.3677542108091
30
0
41
1
10
255.752008417392
20
10.3675649805248
30
0
41
1
10
255.751345667927
20
10.3670461265562
30
0
41
1
10
255.750254694075
20
10.3662054560037
30
0
41
1
10
255.749031163265
20
10.3652863984765
30
0
41
1
10
255.748168830253
20
10.3646510244486
30
0
41
1
10
255.747736209738
20
10.364335339031
30
0
41
1
10
255.747488584206
20
10.364155520682
30
0
41
1
10
255.747333646165
20
10.3640433733953
30
0
41
1
10
255.746775405508
20
10.363640289759
30
0
41
1
10
255.745778585987
20
10.3629298302199
30
0
41
1
10
255.743799630849
20
10.3615546754393
30
0
41
1
10
255.741763840645
20
10.3601950344371
30
0
41
1
10
255.739703584299
20
10.3588732925688
30
0
41
1
10
255.737627336171
20
10.3575770026237
30
0
41
1
10
255.735002639507
20
10.3560047109871
30
0
41
1
10
255.732739698299
20
10.3547235331242
30
0
41
1
10
255.731499028454
20
10.3540435796555
30
0
41
1
10
255.731314412311
20
10.3539428603534
30
0
41
1
10
255.731247258226
20
10.3539062738819
30
0
41
1
10
255.731180090187
20
10.3538697132356
30
0
41
1
10
255.731096103997
20
10.3538240608604
30
0
41
1
10
255.730760020004
20
10.3536417097818
30
0
41
1
10
255.729918245854
20
10.3531887406068
30
0
41
1
10
255.726940683005
20
10.3516216862542
30
0
41
1
10
255.715391220756
20
10.3459895178038
30
0
41
1
10
255.694468671728
20
10.3388090205918
30
0
41
1
10
255.674987830724
20
10.3361910835522
30
0
41
1
10
255.665213670038
20
10.3358484585483
30
0
0
SPLINE
5
1E9
100
AcDbEntity
8
1
62
256
6
ByLayer
370
-1
48
1
60
0
100
AcDbSpline
70
4
71
3
72
9
73
5
40
0
40
0
40
0
40
0
40
0.625000000001824
40
1
40
1
40
1
40
1
41
1
10
239.348833199292
20
8.86208354972396
30
0
41
1
10
239.328250642964
20
8.86135647687598
30
0
41
1
10
239.295318552839
20
8.86019316031923
30
0
41
1
10
239.262386462714
20
8.8590298437625
30
0
41
1
10
239.250036928917
20
8.85859360005369
30
0
0
SPLINE
5
1EA
100
AcDbEntity
8
1
62
256
6
ByLayer
370
-1
48
1
60
0
100
AcDbSpline
70
4
71
3
72
8
73
4
40
0
40
0
40
0
40
0
40
1
40
1
40
1
40
1
41
1
10
256.300118432323
20
27.0661124237971
30
0
41
1
10
256.353261031375
20
27.0669667888078
30
0
41
1
10
256.406416810944
20
27.0673838957675
30
0
41
1
10
256.459561885415
20
27.0673939578651
30
0
0
SPLINE
5
1EB
100
AcDbEntity
8
1
62
256
6
ByLayer
370
-1
48
1
60
0
100
AcDbSpline
70
4
71
1
72
4
73
2
40
0
40
0
40
1
40
1
41
1
10
257.127019899328
20
25.0449780929479
30
0
41
1
10
256.729287809633
20
25.0307715786915
30
0
0
SPLINE
5
1EC
100
AcDbEntity
8
1
62
256
6
ByLayer
370
-1
48
1
60
0
100
AcDbSpline
70
4
71
3
72
15
73
11
40
0
40
0
40
0
40
0
40
0.0146440969702298
40
0.0302846668595912
40
0.0615658066383141
40
0.12412808619576
40
0.249252645310651
40
0.499501763540434
40
0.749750881770217
40
1
40
1
40
1
40
1
41
1
10
257.768035695017
20
9.50772651312599
30
0
41
1
10
257.766908409563
20
9.50768699708001
30
0
41
1
10
257.766475625034
20
9.50767182618139
30
0
41
1
10
257.764293193872
20
9.50759532288771
30
0
41
1
10
257.76074323183
20
9.5074708819462
30
0
41
1
10
257.753430546938
20
9.50721454191148
30
0
41
1
10
257.738947017693
20
9.50670683394318
30
0
41
1
10
257.718186692221
20
9.5059790981484
30
0
41
1
10
257.693301724159
20
9.50510677646756
30
0
41
1
10
257.676708593439
20
9.50452511818918
30
0
41
1
10
257.668412028079
20
9.50423428905
30
0
0
SPLINE
5
1ED
100
AcDbEntity
8
1
62
256
6
ByLayer
370
-1
48
1
60
0
100
AcDbSpline
70
4
71
1
72
4
73
2
40
0
40
0
40
1
40
1
41
1
10
241.314900706746
20
8.43772360824244
30
0
41
1
10
241.32151198813
20
8.03090226772764
30
0
0
SPLINE
5
1EE
100
AcDbEntity
8
1
62
256
6
ByLayer
370
-1
48
1
60
0
100
AcDbSpline
70
4
71
3
72
8
73
4
40
0
40
0
40
0
40
0
40
1
40
1
40
1
40
1
41
1
10
240.703498453215
20
26.0128721443642
30
0
41
1
10
240.70968508794
20
25.8968539683996
30
0
41
1
10
240.714487199126
20
25.7771656644405
30
0
41
1
10
240.717696165883
20
25.6590069206154
30
0
0
SPLINE
5
1EF
100
AcDbEntity
8
1
62
256
6
ByLayer
370
-1
48
1
60
0
100
AcDbSpline
70
4
71
3
72
15
73
11
40
0
40
0
40
0
40
0
40
0.0146440969701069
40
0.0302846668594703
40
0.0615658066381971
40
0.124128086195651
40
0.249252645310558
40
0.499501763540372
40
0.749750881770186
40
1
40
1
40
1
40
1
41
1
10
238.672829873612
20
25.4489119416669
30
0
41
1
10
238.673957159066
20
25.4489514577129
30
0
41
1
10
238.674389943595
20
25.4489666286115
30
0
41
1
10
238.676572374757
20
25.4490431319052
30
0
41
1
10
238.680122336799
20
25.4491675728467
30
0
41
1
10
238.687435021691
20
25.4494239128814
30
0
41
1
10
238.701918550936
20
25.4499316208497
30
0
41
1
10
238.722678876408
20
25.4506593566445
30
0
41
1
10
238.74756384447
20
25.4515316783253
30
0
41
1
10
238.76415697519
20
25.4521133366037
30
0
41
1
10
238.77245354055
20
25.4524041657429
30
0
0
SPLINE
5
1F0
100
AcDbEntity
8
1
62
256
6
ByLayer
370
-1
48
1
60
0
100
AcDbSpline
70
4
71
3
72
25
73
21
40
0
40
0
40
0
40
0
40
0.125
40
0.1875
40
0.21875
40
0.234375
40
0.25
40
0.3125
40
0.34375
40
0.375
40
0.5
40
0.625
40
0.6875
40
0.71875
40
0.7265625
40
0.734375
40
0.75
40
0.8125
40
0.875
40
1
40
1
40
1
40
1
41
1
10
257.668412028079
20
9.50423428905
30
0
41
1
10
257.668172808454
20
9.48715822931774
30
0
41
1
10
257.667742293889
20
9.46156764537199
30
0
41
1
10
257.667148263756
20
9.43170514675541
30
0
41
1
10
257.666809710011
20
9.41680677889926
30
0
41
1
10
257.666601745172
20
9.40830709338553
30
0
41
1
10
257.666273933224
20
9.39557435929888
30
0
41
1
10
257.665841365179
20
9.38077509952913
30
0
41
1
10
257.665295726578
20
9.3638549358202
30
0
41
1
10
257.664434729043
20
9.33842790640031
30
0
41
1
10
257.663016641255
20
9.2999504441261
30
0
41
1
10
257.661218453558
20
9.25744779145913
30
0
41
1
10
257.659849094279
20
9.22748332326924
30
0
41
1
10
257.659180533859
20
9.21384624397348
30
0
41
1
10
257.658873921051
20
9.20723350401266
30
0
41
1
10
257.658644610979
20
9.20421319278864
30
0
41
1
10
257.657930273871
20
9.19488290848724
30
0
41
1
10
257.656277686174
20
9.18016587695919
30
0
41
1
10
257.651994500601
20
9.15401186217903
30
0
41
1
10
257.647298863456
20
9.13478260135895
30
0
41
1
10
257.64353644493
20
9.12223693288894
30
0
0
SPLINE
5
1F1
100
AcDbEntity
8
1
62
256
6
ByLayer
370
-1
48
1
60
0
100
AcDbSpline
70
4
71
3
72
15
73
11
40
0
40
0
40
0
40
0
40
0.250244249035881
40
0.500488498071762
40
0.750732747107643
40
0.875854871625584
40
0.938415933884554
40
0.96969646501404
40
0.985336730578782
40
1
40
1
40
1
40
1
41
1
10
257.180895288119
20
8.62491641578788
30
0
41
1
10
257.183881532732
20
8.61535336822826
30
0
41
1
10
257.189854021956
20
8.59622727310898
30
0
41
1
10
257.198811022543
20
8.56754368093311
30
0
41
1
10
257.206283567077
20
8.54361386002205
30
0
41
1
10
257.211496495768
20
8.52692015556516
30
0
41
1
10
257.214128958875
20
8.51849004579179
30
0
41
1
10
257.215406192286
20
8.51439987722247
30
0
41
1
10
257.216192919945
20
8.51188048748773
30
0
41
1
10
257.216380317128
20
8.51128037316332
30
0
41
1
10
257.216733908199
20
8.51014804521517
30
0
0
SPLINE
5
1F2
100
AcDbEntity
8
1
62
256
6
ByLayer
370
-1
48
1
60
0
100
AcDbSpline
70
4
71
3
72
8
73
4
40
0
40
0
40
0
40
0
40
1
40
1
40
1
40
1
41
1
10
257.10584616268
20
8.4895301863902
30
0
41
1
10
257.14358821006
20
8.49218015030681
30
0
41
1
10
257.180549983851
20
8.49905826848658
30
0
41
1
10
257.216730223468
20
8.51015984507231
30
0
0
SPLINE
5
1F3
100
AcDbEntity
8
1
62
256
6
ByLayer
370
-1
48
1
60
0
100
AcDbSpline
70
4
71
3
72
15
73
11
40
0
40
0
40
0
40
0
40
0.0146440969701569
40
0.0302846668595195
40
0.0615658066382446
40
0.124128086195695
40
0.249252645310596
40
0.499501763540397
40
0.749750881770199
40
1
40
1
40
1
40
1
41
1
10
240.28017058171
20
7.89424602464663
30
0
41
1
10
240.280131216034
20
7.89537761614793
30
0
41
1
10
240.280116102865
20
7.89581205384317
30
0
41
1
10
240.28003989069
20
7.8980028215382
30
0
41
1
10
240.279915923284
20
7.90156634385792
30
0
41
1
10
240.2796605587
20
7.90890696201856
30
0
41
1
10
240.279154782714
20
7.92344581599241
30
0
41
1
10
240.278429816174
20
7.94428544253498
30
0
41
1
10
240.27756081394
20
7.9692654671322
30
0
41
1
10
240.276981369047
20
7.98592198091583
30
0
41
1
10
240.276691646601
20
7.99425023780768
30
0
0
SPLINE
5
1F4
100
AcDbEntity
8
1
62
256
6
ByLayer
370
-1
48
1
60
0
100
AcDbSpline
70
4
71
3
72
8
73
4
40
0
40
0
40
0
40
0
40
1
40
1
40
1
40
1
41
1
10
257.767970812399
20
9.50772423872027
30
0
41
1
10
257.769025451587
20
9.47740739048137
30
0
41
1
10
257.769944177721
20
9.44708548526194
30
0
41
1
10
257.770722967991
20
9.41676021455427
30
0
0
SPLINE
5
1F5
100
AcDbEntity
8
1
62
256
6
ByLayer
370
-1
48
1
60
0
100
AcDbSpline
70
4
71
1
72
4
73
2
40
0
40
0
40
1
40
1
41
1
10
240.717696165883
20
25.6590069206154
30
0
41
1
10
240.723724823916
20
25.4370231127184
30
0
0
SPLINE
5
1F6
100
AcDbEntity
8
1
62
256
6
ByLayer
370
-1
48
1
60
0
100
AcDbSpline
70
4
71
3
72
8
73
4
40
0
40
0
40
0
40
0
40
1
40
1
40
1
40
1
41
1
10
239.286399956001
20
8.44765739353358
30
0
41
1
10
239.327171465767
20
8.31377915084843
30
0
41
1
10
239.403006580822
20
8.19194316521245
30
0
41
1
10
239.505010017338
20
8.0964717955105
30
0
0
SPLINE
5
1F7
100
AcDbEntity
8
1
62
256
6
ByLayer
370
-1
48
1
60
0
100
AcDbSpline
70
4
71
3
72
9
73
5
40
0
40
0
40
0
40
0
40
0.625000000000494
40
1
40
1
40
1
40
1
41
1
10
239.636221970763
20
26.383041454959
30
0
41
1
10
239.635656521719
20
26.4038620971886
30
0
41
1
10
239.634751803248
20
26.4371751247559
30
0
41
1
10
239.633847084777
20
26.4704881523232
30
0
41
1
10
239.63350781535
20
26.4829805376609
30
0
0
SPLINE
5
1F8
100
AcDbEntity
8
1
62
256
6
ByLayer
370
-1
48
1
60
0
100
AcDbSpline
70
4
71
3
72
25
73
21
40
0
40
0
40
0
40
0
40
0.125
40
0.1875
40
0.25
40
0.265625
40
0.2734375
40
0.28125
40
0.3125
40
0.375
40
0.5
40
0.625
40
0.65625
40
0.6875
40
0.75
40
0.765625
40
0.78125
40
0.8125
40
0.875
40
1
40
1
40
1
40
1
41
1
10
257.039261887015
20
26.4738964566926
30
0
41
1
10
257.04386601145
20
26.4616465393721
30
0
41
1
10
257.049853816222
20
26.4427920321275
30
0
41
1
10
257.055897591832
20
26.4169967494437
30
0
41
1
10
257.058540632584
20
26.402426956557
30
0
41
1
10
257.059886050197
20
26.39316768712
30
0
41
1
10
257.060316302808
20
26.390169489911
30
0
41
1
10
257.061084129688
20
26.3835948152141
30
0
41
1
10
257.06269899143
20
26.3700370968123
30
0
41
1
10
257.066152180962
20
26.3402405244895
30
0
41
1
10
257.070904307453
20
26.2979664310073
30
0
41
1
10
257.07499873766
20
26.2596818661498
30
0
41
1
10
257.077626848138
20
26.2343759606776
30
0
41
1
10
257.079348237558
20
26.2175346001714
30
0
41
1
10
257.080809275478
20
26.2028017729704
30
0
41
1
10
257.082022399583
20
26.1901229605279
30
0
41
1
10
257.082821458809
20
26.1816584800218
30
0
41
1
10
257.084196328054
20
26.1668199361727
30
0
41
1
10
257.086868251193
20
26.1370712685284
30
0
41
1
10
257.089079580267
20
26.1115727986449
30
0
41
1
10
257.090507341447
20
26.094554905069
30
0
0
SPLINE
5
1F9
100
AcDbEntity
8
1
62
256
6
ByLayer
370
-1
48
1
60
0
100
AcDbSpline
70
4
71
3
72
9
73
5
40
0
40
0
40
0
40
0
40
0.5
40
1
40
1
40
1
40
1
41
1
10
256.839984259479
20
26.7577771405498
30
0
41
1
10
256.883695681248
20
26.72139142035
30
0
41
1
10
256.963697122075
20
26.6350750358286
30
0
41
1
10
257.019013313607
20
26.5290296081423
30
0
41
1
10
257.039261887015
20
26.4738964566926
30
0
0
SPLINE
5
1FA
100
AcDbEntity
8
1
62
256
6
ByLayer
370
-1
48
1
60
0
100
AcDbSpline
70
4
71
1
72
4
73
2
40
0
40
0
40
1
40
1
41
1
10
257.233404866558
20
10.5396045869146
30
0
41
1
10
257.631136956254
20
10.553811101171
30
0
0
SPLINE
5
1FB
100
AcDbEntity
8
1
62
256
6
ByLayer
370
-1
48
1
60
0
100
AcDbSpline
70
4
71
3
72
15
73
11
40
0
40
0
40
0
40
0
40
0.424997863749043
40
0.849995727498087
40
0.956245193435348
40
0.982807559919663
40
0.99608874316182
40
0.99774889106709
40
0.99940903897236
40
1
40
1
40
1
40
1
41
1
10
257.127019899327
20
25.0449780929479
30
0
41
1
10
257.121847309212
20
25.1936675017243
30
0
41
1
10
257.111504965422
20
25.4910433053051
30
0
41
1
10
257.099856708525
20
25.8256050696338
30
0
41
1
10
257.093079208371
20
26.020747636242
30
0
41
1
10
257.091293373682
20
26.0718678888668
30
0
41
1
10
257.090795302295
20
26.0863808058479
30
0
41
1
10
257.090587638044
20
26.0921949683792
30
0
41
1
10
257.090547722769
20
26.0935622640509
30
0
41
1
10
257.090509361766
20
26.0943479846485
30
0
41
1
10
257.090497253343
20
26.0945543130495
30
0
0
SPLINE
5
1FC
100
AcDbEntity
8
1
62
256
6
ByLayer
370
-1
48
1
60
0
100
AcDbSpline
70
4
71
3
72
25
73
21
40
0
40
0
40
0
40
0
40
0.125
40
0.1875
40
0.25
40
0.265625
40
0.2734375
40
0.28125
40
0.3125
40
0.375
40
0.5
40
0.625
40
0.65625
40
0.6875
40
0.75
40
0.765625
40
0.78125
40
0.8125
40
0.875
40
1
40
1
40
1
40
1
41
1
10
239.25820260392
20
26.331722039005
30
0
41
1
10
239.270403951004
20
26.3363457135202
30
0
41
1
10
239.289186359142
20
26.3423567440924
30
0
41
1
10
239.314887996647
20
26.3484190750424
30
0
41
1
10
239.329406688694
20
26.3510678535758
30
0
41
1
10
239.338634140983
20
26.3524149802451
30
0
41
1
10
239.341622150546
20
26.3528456502861
30
0
41
1
10
239.348174231871
20
26.3536139756258
30
0
41
1
10
239.361685409822
20
26.355229935823
30
0
41
1
10
239.39137965653
20
26.3586852143941
30
0
41
1
10
239.433508610261
20
26.3634397072293
30
0
41
1
10
239.471661707009
20
26.3675355069723
30
0
41
1
10
239.496880772007
20
26.3701641641485
30
0
41
1
10
239.513664348589
20
26.3718858023833
30
0
41
1
10
239.528346630663
20
26.3733468824259
30
0
41
1
10
239.540981935632
20
26.3745598831294
30
0
41
1
10
239.549417368024
20
26.3753588207647
30
0
41
1
10
239.564204985027
20
26.3767333823389
30
0
41
1
10
239.593851541086
20
26.379404378347
30
0
41
1
10
239.619262490828
20
26.3816146087802
30
0
41
1
10
239.636221970763
20
26.383041454959
30
0
0
SPLINE
5
1FD
100
AcDbEntity
8
1
62
256
6
ByLayer
370
-1
48
1
60
0
100
AcDbSpline
70
4
71
3
72
8
73
4
40
0
40
0
40
0
40
0
40
1
40
1
40
1
40
1
41
1
10
239.57542416932
20
24.429391113788
30
0
41
1
10
239.458616581273
20
24.4252649195314
30
0
41
1
10
239.338745319264
20
24.421085311858
30
0
41
1
10
239.221018019773
20
24.4170338678783
30
0
0
SPLINE
5
1FE
100
AcDbEntity
8
1
62
256
6
ByLayer
370
-1
48
1
60
0
100
AcDbSpline
70
4
71
3
72
8
73
4
40
0
40
0
40
0
40
0
40
1
40
1
40
1
40
1
41
1
10
241.046872573687
20
9.97347857946207
30
0
41
1
10
241.054666677957
20
9.9737696363255
30
0
41
1
10
241.064500596401
20
9.97412414108675
30
0
41
1
10
241.074636763151
20
9.97447945590952
30
0
0
SPLINE
5
1FF
100
AcDbEntity
8
1
62
256
6
ByLayer
370
-1
48
1
60
0
100
AcDbSpline
70
4
71
1
72
4
73
2
40
0
40
0
40
1
40
1
41
1
10
255.139522179585
20
26.5189148465505
30
0
41
1
10
255.117828552608
20
26.9257361870653
30
0
0
SPLINE
5
200
100
AcDbEntity
8
1
62
256
6
ByLayer
370
-1
48
1
60
0
100
AcDbSpline
70
4
71
3
72
8
73
4
40
0
40
0
40
0
40
0
40
1
40
1
40
1
40
1
41
1
10
257.184866005751
20
26.2379211731897
30
0
41
1
10
257.182007786502
20
26.2911966214798
30
0
41
1
10
257.178724847564
20
26.3444508415808
30
0
41
1
10
257.175016764046
20
26.3976734465765
30
0
0
SPLINE
5
201
100
AcDbEntity
8
1
62
256
6
ByLayer
370
-1
48
1
60
0
100
AcDbSpline
70
4
71
3
72
8
73
4
40
0
40
0
40
0
40
0
40
1
40
1
40
1
40
1
41
1
10
238.874286114868
20
26.2270334930002
30
0
41
1
10
238.779181804848
20
26.1246442524387
30
0
41
1
10
238.711996957515
20
25.9977990656624
30
0
41
1
10
238.680612824697
20
25.8613956484586
30
0
0
SPLINE
5
202
100
AcDbEntity
8
1
62
256
6
ByLayer
370
-1
48
1
60
0
100
AcDbSpline
70
4
71
3
72
10
73
6
40
0
40
0
40
0
40
0
40
0.5
40
0.5
40
1
40
1
40
1
40
1
41
1
10
244.90877676723
20
14.2453954757198
30
0
41
1
10
244.899747414489
20
14.2971145364686
30
0
41
1
10
244.887198762676
20
14.3514605926628
30
0
41
1
10
244.85518082949
20
14.4652275153824
30
0
41
1
10
244.835479477204
20
14.5248158409463
30
0
41
1
10
244.814094141291
20
14.5825847243473
30
0
0
SPLINE
5
203
100
AcDbEntity
8
1
62
256
6
ByLayer
370
-1
48
1
60
0
100
AcDbSpline
70
4
71
3
72
8
73
4
40
0
40
0
40
0
40
0
40
1
40
1
40
1
40
1
41
1
10
257.771742145623
20
9.36777110780454
30
0
41
1
10
257.77259306168
20
9.31442531406557
30
0
41
1
10
257.773013018829
20
9.26107094241192
30
0
41
1
10
257.77301853102
20
9.20771833353939
30
0
0
SPLINE
5
204
100
AcDbEntity
8
1
62
256
6
ByLayer
370
-1
48
1
60
0
100
AcDbSpline
70
4
71
3
72
15
73
11
40
0
40
0
40
0
40
0
40
0.0146440969701453
40
0.030284666859508
40
0.0615658066382336
40
0.124128086195685
40
0.249252645310587
40
0.499501763540391
40
0.749750881770196
40
1
40
1
40
1
40
1
41
1
10
256.16069498692
20
27.0623924301463
30
0
41
1
10
256.160734352595
20
27.061260838645
30
0
41
1
10
256.160749465764
20
27.0608264009497
30
0
41
1
10
256.160825677939
20
27.0586356332547
30
0
41
1
10
256.160949645346
20
27.055072110935
30
0
41
1
10
256.161205009929
20
27.0477314927743
30
0
41
1
10
256.161710785915
20
27.0331926388005
30
0
41
1
10
256.162435752456
20
27.0123530122579
30
0
41
1
10
256.163304754689
20
26.9873729876607
30
0
41
1
10
256.163884199582
20
26.9707164738771
30
0
41
1
10
256.164173922029
20
26.9623882169852
30
0
0
SPLINE
5
205
100
AcDbEntity
8
1
62
256
6
ByLayer
370
-1
48
1
60
0
100
AcDbSpline
70
4
71
3
72
8
73
4
40
0
40
0
40
0
40
0
40
1
40
1
40
1
40
1
41
1
10
255.731085663552
20
9.51961534207456
30
0
41
1
10
255.725189170698
20
9.65862562892764
30
0
41
1
10
255.716168880408
20
9.79420931778662
30
0
41
1
10
255.705212444995
20
9.90851484548216
30
0
0
SPLINE
5
206
100
AcDbEntity
8
1
62
256
6
ByLayer
370
-1
48
1
60
0
100
AcDbSpline
70
4
71
3
72
15
73
11
40
0
40
0
40
0
40
0
40
0.250244249035905
40
0.500488498071811
40
0.750732747107717
40
0.875854871625669
40
0.938415933884646
40
0.969696465014134
40
0.985336730578878
40
1
40
1
40
1
40
1
41
1
10
257.039261887015
20
26.4738964566926
30
0
41
1
10
257.048862197482
20
26.4768201737398
30
0
41
1
10
257.068062818418
20
26.4826676078342
30
0
41
1
10
257.09685817769
20
26.4914370620169
30
0
41
1
10
257.120881242383
20
26.4987531424712
30
0
41
1
10
257.13763999472
20
26.5038569201109
30
0
41
1
10
257.146102952851
20
26.5064342633167
30
0
41
1
10
257.150209058973
20
26.5076847533406
30
0
41
1
10
257.15273826564
20
26.5084550080811
30
0
41
1
10
257.153340718341
20
26.5086384814425
30
0
41
1
10
257.154477458463
20
26.5089846688377
30
0
0
SPLINE
5
207
100
AcDbEntity
8
1
62
256
6
ByLayer
370
-1
48
1
60
0
100
AcDbSpline
70
4
71
3
72
25
73
21
40
0
40
0
40
0
40
0
40
0.125
40
0.1875
40
0.25
40
0.265625
40
0.2734375
40
0.28125
40
0.3125
40
0.375
40
0.5
40
0.625
40
0.65625
40
0.6875
40
0.75
40
0.765625
40
0.78125
40
0.8125
40
0.875
40
1
40
1
40
1
40
1
41
1
10
239.399836005024
20
8.48274199810035
30
0
41
1
10
239.395227969384
20
8.49499191542077
30
0
41
1
10
239.389239460584
20
8.51384642266541
30
0
41
1
10
239.383204712293
20
8.53964170534923
30
0
41
1
10
239.380570354782
20
8.55421149823596
30
0
41
1
10
239.379231771504
20
8.56347076767295
30
0
41
1
10
239.378803961693
20
8.56646896488192
30
0
41
1
10
239.378040985313
20
8.57304363957883
30
0
41
1
10
239.376436225093
20
8.58660135798061
30
0
41
1
10
239.373005154239
20
8.61639793030344
30
0
41
1
10
239.368284479622
20
8.65867202378561
30
0
41
1
10
239.364218481852
20
8.69695658864308
30
0
41
1
10
239.361609283645
20
8.72226249411526
30
0
41
1
10
239.359900499302
20
8.7391038546215
30
0
41
1
10
239.358450496838
20
8.75383668182246
30
0
41
1
10
239.357246851204
20
8.76651549426504
30
0
41
1
10
239.356454115558
20
8.7749799747711
30
0
41
1
10
239.355090322898
20
8.78981851862019
30
0
41
1
10
239.352440581912
20
8.81956718626452
30
0
41
1
10
239.350248271309
20
8.84506565614797
30
0
41
1
10
239.348833199292
20
8.86208354972396
30
0
0
SPLINE
5
208
100
AcDbEntity
8
1
62
256
6
ByLayer
370
-1
48
1
60
0
100
AcDbSpline
70
4
71
3
72
8
73
4
40
0
40
0
40
0
40
0
40
1
40
1
40
1
40
1
41
1
10
256.807357753279
20
8.47365791713199
30
0
41
1
10
256.837559234245
20
8.474716604713
30
0
41
1
10
256.867756078963
20
8.47591288779145
30
0
41
1
10
256.897946824911
20
8.47724771061877
30
0
0
SPLINE
5
209
100
AcDbEntity
8
1
62
256
6
ByLayer
370
-1
48
1
60
0
100
AcDbSpline
70
4
71
3
72
8
73
4
40
0
40
0
40
0
40
0
40
1
40
1
40
1
40
1
41
1
10
256.729287809633
20
25.0307715786915
30
0
41
1
10
256.615861725567
20
25.0267201347117
30
0
41
1
10
256.497267279921
20
25.0225405270383
30
0
41
1
10
256.378656639704
20
25.0184143327818
30
0
0
SPLINE
5
20A
100
AcDbEntity
8
1
62
256
6
ByLayer
370
-1
48
1
60
0
100
AcDbSpline
70
4
71
3
72
8
73
4
40
0
40
0
40
0
40
0
40
1
40
1
40
1
40
1
41
1
10
239.335019395581
20
26.4671082684027
30
0
41
1
10
239.297277996198
20
26.464458304486
30
0
41
1
10
239.260317644271
20
26.4575801863063
30
0
41
1
10
239.224135345161
20
26.4464786097206
30
0
0
SPLINE
5
20B
100
AcDbEntity
8
1
62
256
6
ByLayer
370
-1
48
1
60
0
100
AcDbSpline
70
4
71
3
72
8
73
4
40
0
40
0
40
0
40
0
40
1
40
1
40
1
40
1
41
1
10
255.150666605038
20
25.1268326984309
30
0
41
1
10
255.150312642295
20
25.1370075836909
30
0
41
1
10
255.150238625982
20
25.1471592718239
30
0
41
1
10
255.150457634123
20
25.1554940498851
30
0
0
SPLINE
5
20C
100
AcDbEntity
8
1
62
256
6
ByLayer
370
-1
48
1
60
0
100
AcDbSpline
70
4
71
3
72
97
73
93
40
0
40
0
40
0
40
0
40
0.03125
40
0.0625
40
0.125
40
0.140625
40
0.15625
40
0.1875
40
0.25
40
0.28125
40
0.2890625
40
0.29296875
40
0.29345703125
40
0.2939453125
40
0.294189453125
40
0.29443359375
40
0.294921875
40
0.296875
40
0.3046875
40
0.3125
40
0.3203125
40
0.328125
40
0.34375
40
0.359375
40
0.3671875
40
0.37109375
40
0.375
40
0.37548828125
40
0.3759765625
40
0.376953125
40
0.37744140625
40
0.3779296875
40
0.37890625
40
0.380859375
40
0.3828125
40
0.38671875
40
0.390625
40
0.3984375
40
0.400390625
40
0.4013671875
40
0.40234375
40
0.40625
40
0.4375
40
0.453125
40
0.46875
40
0.484375
40
0.4921875
40
0.49609375
40
0.498046875
40
0.4990234375
40
0.49951171875
40
0.5
40
0.50048828125
40
0.5009765625
40
0.501953125
40
0.50390625
40
0.5078125
40
0.515625
40
0.53125
40
0.546875
40
0.5625
40
0.59375
40
0.595703125
40
0.59765625
40
0.5986328125
40
0.599609375
40
0.6015625
40
0.609375
40
0.6171875
40
0.62109375
40
0.623046875
40
0.6240234375
40
0.625
40
0.62548828125
40
0.6328125
40
0.640625
40
0.65625
40
0.6640625
40
0.671875
40
0.6875
40
0.703125
40
0.705078125
40
0.70556640625
40
0.705810546875
40
0.7060546875
40
0.70654296875
40
0.70703125
40
0.7109375
40
0.71875
40
0.75
40
0.875
40
1
40
1
40
1
40
1
41
1
10
241.229189943668
20
9.82980575636202
30
0
41
1
10
241.226746403496
20
9.82972010011105
30
0
41
1
10
241.221855136376
20
9.8296695816266
30
0
41
1
10
241.212079393487
20
9.8300502200878
30
0
41
1
10
241.203565426342
20
9.83101350815335
30
0
41
1
10
241.196340309037
20
9.83228653380391
30
0
41
1
10
241.191545767826
20
9.83325375088353
30
0
41
1
10
241.183221091746
20
9.83525553554807
30
0
41
1
10
241.173891733718
20
9.83824080815731
30
0
41
1
10
241.16651719678
20
9.84121825483552
30
0
41
1
10
241.163437990906
20
9.84257299424047
30
0
41
1
10
241.162566789981
20
9.84296591651093
30
0
41
1
10
241.162218852908
20
9.84312428980479
30
0
41
1
10
241.162131898873
20
9.84316395001369
30
0
41
1
10
241.162062353816
20
9.84319571829715
30
0
41
1
10
241.161992820882
20
9.84322751331985
30
0
41
1
10
241.161801655367
20
9.84331505991113
30
0
41
1
10
241.161072388764
20
9.84365073174106
30
0
41
1
10
241.159826622017
20
9.84423577558874
30
0
41
1
10
241.15817524445
20
9.84503620547486
30
0
41
1
10
241.156533759982
20
9.84585688449948
30
0
41
1
10
241.154358635938
20
9.8469779590049
30
0
41
1
10
241.151665705314
20
9.84842931356269
30
0
41
1
10
241.149009062846
20
9.84994653479484
30
0
41
1
10
241.14716933358
20
9.85104274166716
30
0
41
1
10
241.146123875443
20
9.85167884216929
30
0
41
1
10
241.145570557533
20
9.85202019393751
30
0
41
1
10
241.145245772491
20
9.85222211824757
30
0
41
1
10
241.145115920419
20
9.85230298828583
30
0
41
1
10
241.144986161374
20
9.85238400871316
30
0
41
1
10
241.144856495568
20
9.85246517936497
30
0
41
1
10
241.144726891995
20
9.85254645011156
30
0
41
1
10
241.144500249287
20
9.85268893652292
30
0
41
1
10
241.144176942338
20
9.85289323801572
30
0
41
1
10
241.143660654942
20
9.8532217157765
30
0
41
1
10
241.143017186262
20
9.85363529771729
30
0
41
1
10
241.14199170622
20
9.85430336817885
30
0
41
1
10
241.141099800943
20
9.85489621337169
30
0
41
1
10
241.140402610205
20
9.85536739577742
30
0
41
1
10
241.14014947987
20
9.85553931993215
30
0
41
1
10
241.139770178796
20
9.85579779060399
30
0
41
1
10
241.137437249519
20
9.85740069304438
30
0
41
1
10
241.134220738732
20
9.85974407990835
30
0
41
1
10
241.130371063524
20
9.86277162927541
30
0
41
1
10
241.127540119386
20
9.86511263350906
30
0
41
1
10
241.125229391676
20
9.86712096533469
30
0
41
1
10
241.123638057685
20
9.86855639260895
30
0
41
1
10
241.122849030717
20
9.86928143126269
30
0
41
1
10
241.122456189261
20
9.86964577262714
30
0
41
1
10
241.122260188043
20
9.86982839766671
30
0
41
1
10
241.122148307421
20
9.86993288448397
30
0
41
1
10
241.122064457046
20
9.87001131438166
30
0
41
1
10
241.121980666816
20
9.87008980902297
30
0
41
1
10
241.121869026761
20
9.87019455480169
30
0
41
1
10
241.121673867483
20
9.87037808616097
30
0
41
1
10
241.121284393453
20
9.87074605244121
30
0
41
1
10
241.120508833488
20
9.87148558785287
30
0
41
1
10
241.118971345923
20
9.8729789789179
30
0
41
1
10
241.116814341769
20
9.87515278876822
30
0
41
1
10
241.114290449953
20
9.87782432407195
30
0
41
1
10
241.111013228453
20
9.88146809980719
30
0
41
1
10
241.108558271368
20
9.88440797071286
30
0
41
1
10
241.106846772992
20
9.88656953827393
30
0
41
1
10
241.106609983454
20
9.88687048629239
30
0
41
1
10
241.106421104392
20
9.88711168126025
30
0
41
1
10
241.106232594186
20
9.88735316672086
30
0
41
1
10
241.105715714613
20
9.88801844778175
30
0
41
1
10
241.104878243066
20
9.88911358897644
30
0
41
1
10
241.10396268283
20
9.89034179347507
30
0
41
1
10
241.103329726592
20
9.89120742045907
30
0
41
1
10
241.103015242453
20
9.89164169351437
30
0
41
1
10
241.102836108367
20
9.89189026493614
30
0
41
1
10
241.102724387835
20
9.89204579481486
30
0
41
1
10
241.102322838053
20
9.89260616786072
30
0
41
1
10
241.101615082027
20
9.89360679506999
30
0
41
1
10
241.100245160126
20
9.89559330949535
30
0
41
1
10
241.098890692968
20
9.89763687608726
30
0
41
1
10
241.097573980727
20
9.8997050022775
30
0
41
1
10
241.096282623556
20
9.9017891813356
30
0
41
1
10
241.094716314964
20
9.9044239039147
30
0
41
1
10
241.09344001237
20
9.90669548919064
30
0
41
1
10
241.092762646329
20
9.90794089819286
30
0
41
1
10
241.092662310294
20
9.90812621953916
30
0
41
1
10
241.092625863045
20
9.90819363014279
30
0
41
1
10
241.092589441523
20
9.90826105475213
30
0
41
1
10
241.092543962869
20
9.90834536175609
30
0
41
1
10
241.092362305692
20
9.90868272953557
30
0
41
1
10
241.091911060201
20
9.90952771912615
30
0
41
1
10
241.090349968964
20
9.91251665578156
30
0
41
1
10
241.084739232614
20
9.92411023509987
30
0
41
1
10
241.077586059362
20
9.94511270486541
30
0
41
1
10
241.074978084363
20
9.96466795951744
30
0
41
1
10
241.074636763151
20
9.97447945590952
30
0
0
SPLINE
5
20D
100
AcDbEntity
8
1
62
256
6
ByLayer
370
-1
48
1
60
0
100
AcDbSpline
70
4
71
3
72
8
73
4
40
0
40
0
40
0
40
0
40
1
40
1
40
1
40
1
41
1
10
256.88277369663
20
10.5272473410049
30
0
41
1
10
257.001384336847
20
10.5313735352615
30
0
41
1
10
257.119978782493
20
10.5355531429349
30
0
41
1
10
257.233404866558
20
10.5396045869146
30
0
0
SPLINE
5
20E
100
AcDbEntity
8
1
62
256
6
ByLayer
370
-1
48
1
60
0
100
AcDbSpline
70
4
71
3
72
97
73
93
40
0
40
0
40
0
40
0
40
0.03125
40
0.0625
40
0.125
40
0.140625
40
0.15625
40
0.1875
40
0.25
40
0.28125
40
0.2890625
40
0.29296875
40
0.29345703125
40
0.2939453125
40
0.294189453125
40
0.29443359375
40
0.294921875
40
0.296875
40
0.3046875
40
0.3125
40
0.3203125
40
0.328125
40
0.34375
40
0.359375
40
0.3671875
40
0.37109375
40
0.375
40
0.37548828125
40
0.3759765625
40
0.376953125
40
0.37744140625
40
0.3779296875
40
0.37890625
40
0.380859375
40
0.3828125
40
0.38671875
40
0.390625
40
0.3984375
40
0.400390625
40
0.4013671875
40
0.40234375
40
0.40625
40
0.4375
40
0.453125
40
0.46875
40
0.484375
40
0.4921875
40
0.49609375
40
0.498046875
40
0.4990234375
40
0.49951171875
40
0.5
40
0.50048828125
40
0.5009765625
40
0.501953125
40
0.50390625
40
0.5078125
40
0.515625
40
0.53125
40
0.546875
40
0.5625
40
0.59375
40
0.595703125
40
0.59765625
40
0.5986328125
40
0.599609375
40
0.6015625
40
0.609375
40
0.6171875
40
0.62109375
40
0.623046875
40
0.6240234375
40
0.625
40
0.62548828125
40
0.6328125
40
0.640625
40
0.65625
40
0.6640625
40
0.671875
40
0.6875
40
0.703125
40
0.705078125
40
0.70556640625
40
0.705810546875
40
0.7060546875
40
0.70654296875
40
0.70703125
40
0.7109375
40
0.71875
40
0.75
40
0.875
40
1
40
1
40
1
40
1
41
1
10
255.150666605038
20
25.1268326984309
30
0
41
1
10
255.153110145209
20
25.1269183546819
30
0
41
1
10
255.15800141233
20
25.1269688731663
30
0
41
1
10
255.167777155219
20
25.1265882347051
30
0
41
1
10
255.176291122364
20
25.1256249466396
30
0
41
1
10
255.183516239669
20
25.124351920989
30
0
41
1
10
255.188310780879
20
25.1233847039094
30
0
41
1
10
255.196635456959
20
25.1213829192448
30
0
41
1
10
255.205964814987
20
25.1183976466356
30
0
41
1
10
255.213339351926
20
25.1154201999574
30
0
41
1
10
255.2164185578
20
25.1140654605524
30
0
41
1
10
255.217289758725
20
25.113672538282
30
0
41
1
10
255.217637695798
20
25.1135141649881
30
0
41
1
10
255.217724649833
20
25.1134745047792
30
0
41
1
10
255.21779419489
20
25.1134427364958
30
0
41
1
10
255.217863727824
20
25.1134109414731
30
0
41
1
10
255.218054893338
20
25.1133233948818
30
0
41
1
10
255.218784159942
20
25.1129877230518
30
0
41
1
10
255.220029926689
20
25.1124026792042
30
0
41
1
10
255.221681304256
20
25.1116022493181
30
0
41
1
10
255.223322788724
20
25.1107815702934
30
0
41
1
10
255.225497912768
20
25.109660495788
30
0
41
1
10
255.228190843392
20
25.1082091412302
30
0
41
1
10
255.230847485859
20
25.1066919199981
30
0
41
1
10
255.232687215126
20
25.1055957131258
30
0
41
1
10
255.233732673263
20
25.1049596126236
30
0
41
1
10
255.234285991173
20
25.1046182608554
30
0
41
1
10
255.234610776215
20
25.1044163365453
30
0
41
1
10
255.234740628286
20
25.1043354665071
30
0
41
1
10
255.234870387332
20
25.1042544460798
30
0
41
1
10
255.235000053137
20
25.1041732754279
30
0
41
1
10
255.235129656711
20
25.1040920046813
30
0
41
1
10
255.235356299419
20
25.10394951827
30
0
41
1
10
255.235679606368
20
25.1037452167772
30
0
41
1
10
255.236195893764
20
25.1034167390164
30
0
41
1
10
255.236839362444
20
25.1030031570756
30
0
41
1
10
255.237864842485
20
25.1023350866141
30
0
41
1
10
255.238756747763
20
25.1017422414212
30
0
41
1
10
255.239453938501
20
25.1012710590155
30
0
41
1
10
255.239707068836
20
25.1010991348608
30
0
41
1
10
255.240086369909
20
25.1008406641889
30
0
41
1
10
255.242419299187
20
25.0992377617485
30
0
41
1
10
255.245635809974
20
25.0968943748846
30
0
41
1
10
255.249485485182
20
25.0938668255175
30
0
41
1
10
255.25231642932
20
25.0915258212838
30
0
41
1
10
255.25462715703
20
25.0895174894582
30
0
41
1
10
255.25621849102
20
25.088082062184
30
0
41
1
10
255.257007517989
20
25.0873570235302
30
0
41
1
10
255.257400359445
20
25.0869926821657
30
0
41
1
10
255.257596360663
20
25.0868100571262
30
0
41
1
10
255.257708241284
20
25.0867055703089
30
0
41
1
10
255.25779209166
20
25.0866271404112
30
0
41
1
10
255.25787588189
20
25.0865486457699
30
0
41
1
10
255.257987521945
20
25.0864438999912
30
0
41
1
10
255.258182681223
20
25.0862603686319
30
0
41
1
10
255.258572155253
20
25.0858924023517
30
0
41
1
10
255.259347715218
20
25.08515286694
30
0
41
1
10
255.260885202782
20
25.083659475875
30
0
41
1
10
255.263042206936
20
25.0814856660247
30
0
41
1
10
255.265566098753
20
25.078814130721
30
0
41
1
10
255.268843320253
20
25.0751703549857
30
0
41
1
10
255.271298277338
20
25.07223048408
30
0
41
1
10
255.273009775713
20
25.070068916519
30
0
41
1
10
255.273246565252
20
25.0697679685005
30
0
41
1
10
255.273435444314
20
25.0695267735327
30
0
41
1
10
255.27362395452
20
25.069285288072
30
0
41
1
10
255.274140834092
20
25.0686200070112
30
0
41
1
10
255.27497830564
20
25.0675248658165
30
0
41
1
10
255.275893865876
20
25.0662966613178
30
0
41
1
10
255.276526822113
20
25.0654310343338
30
0
41
1
10
255.276841306253
20
25.0649967612785
30
0
41
1
10
255.277020440339
20
25.0647481898568
30
0
41
1
10
255.277132160871
20
25.0645926599781
30
0
41
1
10
255.277533710652
20
25.0640322869322
30
0
41
1
10
255.278241466678
20
25.0630316597229
30
0
41
1
10
255.27961138858
20
25.0610451452976
30
0
41
1
10
255.280965855738
20
25.0590015787057
30
0
41
1
10
255.282282567979
20
25.0569334525154
30
0
41
1
10
255.28357392515
20
25.0548492734573
30
0
41
1
10
255.285140233742
20
25.0522145508782
30
0
41
1
10
255.286416536336
20
25.0499429656023
30
0
41
1
10
255.287093902377
20
25.0486975566001
30
0
41
1
10
255.287194238411
20
25.0485122352537
30
0
41
1
10
255.28723068566
20
25.0484448246501
30
0
41
1
10
255.287267107182
20
25.0483774000408
30
0
41
1
10
255.287312585836
20
25.0482930930368
30
0
41
1
10
255.287494243014
20
25.0479557252573
30
0
41
1
10
255.287945488505
20
25.0471107356668
30
0
41
1
10
255.289506579742
20
25.0441217990114
30
0
41
1
10
255.295117316091
20
25.032528219693
30
0
41
1
10
255.302270489344
20
25.0115257499275
30
0
41
1
10
255.304878464342
20
24.9919704952755
30
0
41
1
10
255.305219785555
20
24.9821589988834
30
0
0
SPLINE
5
20F
100
AcDbEntity
8
1
62
256
6
ByLayer
370
-1
48
1
60
0
100
AcDbSpline
70
4
71
3
72
15
73
11
40
0
40
0
40
0
40
0
40
0.250193815306086
40
0.500387630612172
40
0.750581445918257
40
0.8756783535713
40
0.938226807397822
40
0.969501034311082
40
0.985138147767713
40
1
40
1
40
1
40
1
41
1
10
257.463824708269
20
8.8250847322015
30
0
41
1
10
257.472387603727
20
8.81712808466744
30
0
41
1
10
257.489513394642
20
8.80121478959933
30
0
41
1
10
257.515197046576
20
8.77734952500069
30
0
41
1
10
257.536624422976
20
8.75743919415129
30
0
41
1
10
257.551571731735
20
8.7435501459934
30
0
41
1
10
257.559120902698
20
8.73653545186099
30
0
41
1
10
257.562782213305
20
8.73313335987501
30
0
41
1
10
257.565047429505
20
8.73102851963904
30
0
41
1
10
257.565650245568
20
8.73046838259611
30
0
41
1
10
257.56658405612
20
8.7296006852784
30
0
0
SPLINE
5
210
100
AcDbEntity
8
1
62
256
6
ByLayer
370
-1
48
1
60
0
100
AcDbSpline
70
4
71
3
72
9
73
5
40
0
40
0
40
0
40
0
40
0.62499999999694
40
1
40
1
40
1
40
1
41
1
10
257.090507341447
20
26.094554905069
30
0
41
1
10
257.111407611919
20
26.0952819779169
30
0
41
1
10
257.144848044674
20
26.0964452944737
30
0
41
1
10
257.178288477429
20
26.0976086110304
30
0
41
1
10
257.190828639712
20
26.0980448547392
30
0
0
SPLINE
5
211
100
AcDbEntity
8
1
62
256
6
ByLayer
370
-1
48
1
60
0
100
AcDbSpline
70
4
71
3
72
8
73
4
40
0
40
0
40
0
40
0
40
1
40
1
40
1
40
1
41
1
10
239.49416380244
20
26.4769950933585
30
0
41
1
10
239.441090891737
20
26.4741261484868
30
0
41
1
10
239.388039017339
20
26.4708309730938
30
0
41
1
10
239.335019395581
20
26.4671082684027
30
0
0
SPLINE
5
212
100
AcDbEntity
8
1
62
256
6
ByLayer
370
-1
48
1
60
0
100
AcDbSpline
70
4
71
3
72
15
73
11
40
0
40
0
40
0
40
0
40
0.250193815306109
40
0.500387630612217
40
0.750581445918326
40
0.87567835357138
40
0.938226807397907
40
0.969501034311171
40
0.985138147767803
40
1
40
1
40
1
40
1
41
1
10
239.599371608563
20
8.19886131424315
30
0
41
1
10
239.591508142666
20
8.19032885439091
30
0
41
1
10
239.575781210872
20
8.17326393468647
30
0
41
1
10
239.5521954364
20
8.14767157167444
30
0
41
1
10
239.532518278783
20
8.12632035586529
30
0
41
1
10
239.518791887604
20
8.11142617520878
30
0
41
1
10
239.511859343734
20
8.10390383671077
30
0
41
1
10
239.50849709422
20
8.10025553971639
30
0
41
1
10
239.506416904121
20
8.09799837490775
30
0
41
1
10
239.505863326938
20
8.09739770146956
30
0
41
1
10
239.505005791369
20
8.0964672100163
30
0
0
SPLINE
5
213
100
AcDbEntity
8
1
62
256
6
ByLayer
370
-1
48
1
60
0
100
AcDbSpline
70
4
71
3
72
8
73
4
40
0
40
0
40
0
40
0
40
1
40
1
40
1
40
1
41
1
10
240.189550037078
20
7.89154808491858
30
0
41
1
10
240.173284758052
20
7.8911275962767
30
0
41
1
10
240.157017438984
20
7.89078758436213
30
0
41
1
10
240.140748361613
20
7.89052603097144
30
0
0
SPLINE
5
214
100
AcDbEntity
8
1
62
256
6
ByLayer
370
-1
48
1
60
0
100
AcDbSpline
70
4
71
1
72
4
73
2
40
0
40
0
40
1
40
1
41
1
10
241.230975108374
20
9.80114440490783
30
0
41
1
10
241.269188718625
20
9.40247214329588
30
0
0
SPLINE
5
215
100
AcDbEntity
8
1
62
256
6
ByLayer
370
-1
48
1
60
0
100
AcDbSpline
70
4
71
3
72
8
73
4
40
0
40
0
40
0
40
0
40
1
40
1
40
1
40
1
41
1
10
241.269188718625
20
9.40247214329588
30
0
41
1
10
241.280145154037
20
9.28816661560035
30
0
41
1
10
241.289165444328
20
9.15258292674136
30
0
41
1
10
241.295061937182
20
9.01357263988828
30
0
0
SPLINE
5
216
100
AcDbEntity
8
1
62
256
6
ByLayer
370
-1
48
1
60
0
100
AcDbSpline
70
4
71
3
72
15
73
11
40
0
40
0
40
0
40
0
40
0.424997863749051
40
0.849995727498102
40
0.956245193435365
40
0.98280755991968
40
0.996088743161838
40
0.997748891067108
40
0.999409038972378
40
1
40
1
40
1
40
1
41
1
10
240.681804826238
20
26.419693484879
30
0
41
1
10
240.533681225553
20
26.4145011363093
30
0
41
1
10
240.237437047415
20
26.404119265637
30
0
41
1
10
239.90414831905
20
26.3924265871245
30
0
41
1
10
239.70974841304
20
26.3856231134822
30
0
41
1
10
239.658822631726
20
26.3838305140961
30
0
41
1
10
239.644364992399
20
26.3833304883358
30
0
41
1
10
239.638572913516
20
26.3831220719932
30
0
41
1
10
239.637210878885
20
26.383081945959
30
0
41
1
10
239.636428064483
20
26.3830435224517
30
0
41
1
10
239.636222483817
20
26.3830314053261
30
0
0
SPLINE
5
217
100
AcDbEntity
8
1
62
256
6
ByLayer
370
-1
48
1
60
0
100
AcDbSpline
70
4
71
3
72
8
73
4
40
0
40
0
40
0
40
0
40
1
40
1
40
1
40
1
41
1
10
256.946701834027
20
8.47964336143448
30
0
41
1
10
256.999774361573
20
8.48251230630612
30
0
41
1
10
257.052825630607
20
8.48580748169908
30
0
41
1
10
257.10584616268
20
8.48953018639023
30
0
0
SPLINE
5
218
100
AcDbEntity
8
1
62
256
6
ByLayer
370
-1
48
1
60
0
100
AcDbSpline
70
4
71
3
72
8
73
4
40
0
40
0
40
0
40
0
40
1
40
1
40
1
40
1
41
1
10
238.67014180007
20
25.5398782402389
30
0
41
1
10
238.669723342033
20
25.5562060821509
30
0
41
1
10
238.669385266956
20
25.5725361851817
30
0
41
1
10
238.66912464829
20
25.588867346988
30
0
0
SPLINE
5
219
100
AcDbEntity
8
1
62
256
6
ByLayer
370
-1
48
1
60
0
100
AcDbSpline
70
4
71
3
72
8
73
4
40
0
40
0
40
0
40
0
40
1
40
1
40
1
40
1
41
1
10
238.669124648314
20
25.5888673469884
30
0
41
1
10
238.668273336583
20
25.6422131407273
30
0
41
1
10
238.667862254249
20
25.695567512381
30
0
41
1
10
238.667847718823
20
25.7489201212535
30
0
0
SPLINE
5
21A
100
AcDbEntity
8
1
62
256
6
ByLayer
370
-1
48
1
60
0
100
AcDbSpline
70
4
71
3
72
8
73
4
40
0
40
0
40
0
40
0
40
1
40
1
40
1
40
1
41
1
10
256.897946824911
20
8.47724771061877
30
0
41
1
10
256.914202236509
20
8.47796641079617
30
0
41
1
10
256.930454330674
20
8.47876506915065
30
0
41
1
10
256.946701834027
20
8.47964336143443
30
0
0
SPLINE
5
21B
100
AcDbEntity
8
1
62
256
6
ByLayer
370
-1
48
1
60
0
100
AcDbSpline
70
4
71
3
72
20
73
16
40
0
40
0
40
0
40
0
40
0.0006369940731765
40
0.0022970655115932
40
0.0039571369500098
40
0.017237708457343
40
0.0437988514720094
40
0.150043423530675
40
0.362532567648006
40
0.468777139706672
40
0.521899425736005
40
0.575021711765338
40
0.787510855882669
40
0.893755427941334
40
1
40
1
40
1
40
1
41
1
10
238.77246426635
20
25.4524042821393
30
0
41
1
10
238.772466686302
20
25.4521811665013
30
0
41
1
10
238.772483752174
20
25.4513758810062
30
0
41
1
10
238.772538975386
20
25.4499902187867
30
0
41
1
10
238.772737340725
20
25.4441884083704
30
0
41
1
10
238.773248123224
20
25.4296599452194
30
0
41
1
10
238.775018508875
20
25.3785567128707
30
0
41
1
10
238.779191346155
20
25.2577373972963
30
0
41
1
10
238.784224987733
20
25.1090552234892
30
0
41
1
10
238.788554201231
20
24.9789629839963
30
0
41
1
10
238.791000562936
20
24.9046283626878
30
0
41
1
10
238.79470129627
20
24.7931234954849
30
0
41
1
10
238.799107644267
20
24.6630273134464
30
0
41
1
10
238.804264179117
20
24.5143418319311
30
0
41
1
10
238.806884819534
20
24.4399988152506
30
0
41
1
10
238.808203584485
20
24.4028273536219
30
0
0
SPLINE
5
21C
100
AcDbEntity
8
1
62
256
6
ByLayer
370
-1
48
1
60
0
100
AcDbSpline
70
4
71
1
72
4
73
2
40
0
40
0
40
1
40
1
41
1
10
256.378656639704
20
25.0184143327818
30
0
41
1
10
256.155823857974
20
25.0106624873953
30
0
0
SPLINE
5
21D
100
AcDbEntity
8
1
62
256
6
ByLayer
370
-1
48
1
60
0
100
AcDbSpline
70
4
71
1
72
4
73
2
40
0
40
0
40
1
40
1
41
1
10
240.674062025688
20
9.95955663731155
30
0
41
1
10
241.046872573687
20
9.97347857946204
30
0
0
SPLINE
5
21E
100
AcDbEntity
8
1
62
256
6
ByLayer
370
-1
48
1
60
0
100
AcDbSpline
70
4
71
3
72
8
73
4
40
0
40
0
40
0
40
0
40
1
40
1
40
1
40
1
41
1
10
239.224135345161
20
26.4464786097207
30
0
41
1
10
239.090765519611
20
26.4055503254796
30
0
41
1
10
238.969391247177
20
26.3294236158047
30
0
41
1
10
238.874286114372
20
26.227033493472
30
0
0
SPLINE
5
21F
100
AcDbEntity
8
1
62
256
6
ByLayer
370
-1
48
1
60
0
100
AcDbSpline
70
4
71
3
72
8
73
4
40
0
40
0
40
0
40
0
40
1
40
1
40
1
40
1
41
1
10
240.714433907752
20
24.6494513476988
30
0
41
1
10
240.714214899612
20
24.6411165696377
30
0
41
1
10
240.714288915925
20
24.6309648815046
30
0
41
1
10
240.714642878668
20
24.6207899962446
30
0
0
SPLINE
5
220
100
AcDbEntity
8
1
62
256
6
ByLayer
370
-1
48
1
60
0
100
AcDbSpline
70
4
71
1
72
4
73
2
40
0
40
0
40
1
40
1
41
1
10
255.838677225735
20
10.491992883554
30
0
41
1
10
256.260177064323
20
10.5059148257045
30
0
0
SPLINE
5
221
100
AcDbEntity
8
1
62
256
6
ByLayer
370
-1
48
1
60
0
100
AcDbSpline
70
4
71
3
72
15
73
11
40
0
40
0
40
0
40
0
40
0.250244249035875
40
0.50048849807175
40
0.750732747107625
40
0.875854871625563
40
0.938415933884531
40
0.969696465014016
40
0.985336730578758
40
1
40
1
40
1
40
1
41
1
10
239.25820260392
20
26.331722039005
30
0
41
1
10
239.25536366569
20
26.3412850865647
30
0
41
1
10
239.24968578923
20
26.3604111816839
30
0
41
1
10
239.241170622293
20
26.3890947738598
30
0
41
1
10
239.234066685708
20
26.4130245947709
30
0
41
1
10
239.229110901949
20
26.4297182992277
30
0
41
1
10
239.226608293783
20
26.4381484090011
30
0
41
1
10
239.22539406413
20
26.4422385775704
30
0
41
1
10
239.224646144412
20
26.4447579673052
30
0
41
1
10
239.224467991215
20
26.4453580816296
30
0
41
1
10
239.224131842191
20
26.4464904095777
30
0
0
SPLINE
5
222
100
AcDbEntity
8
1
62
256
6
ByLayer
370
-1
48
1
60
0
100
AcDbSpline
70
4
71
3
72
15
73
11
40
0
40
0
40
0
40
0
40
0.250239458440334
40
0.500478916880668
40
0.750718375321002
40
0.875838104541169
40
0.938397969151253
40
0.969677901456295
40
0.985317867608816
40
1
40
1
40
1
40
1
41
1
10
238.796855476185
20
25.834401521904
30
0
41
1
10
238.787168588573
20
25.8366510324474
30
0
41
1
10
238.767794813348
20
25.8411500535343
30
0
41
1
10
238.738739772893
20
25.8478972795228
30
0
41
1
10
238.714500064338
20
25.8535262784487
30
0
41
1
10
238.697590178876
20
25.8574531295859
30
0
41
1
10
238.689050900427
20
25.8594361397822
30
0
41
1
10
238.684907764779
20
25.8603982679389
30
0
41
1
10
238.682354956
20
25.8609910868602
30
0
41
1
10
238.681747095807
20
25.8611322455034
30
0
41
1
10
238.680596375352
20
25.8613994683619
30
0
0
SPLINE
5
223
100
AcDbEntity
8
1
62
256
6
ByLayer
370
-1
48
1
60
0
100
AcDbSpline
70
4
71
3
72
9
73
5
40
0
40
0
40
0
40
0
40
0.625000000000459
40
1
40
1
40
1
40
1
41
1
10
256.803118569976
20
8.57359699983388
30
0
41
1
10
256.804001733164
20
8.5527763576043
30
0
41
1
10
256.805414794265
20
8.51946333003704
30
0
41
1
10
256.806827855366
20
8.48615030246975
30
0
41
1
10
256.807357753279
20
8.47365791713204
30
0
0
SPLINE
5
224
100
AcDbEntity
8
1
62
256
6
ByLayer
370
-1
48
1
60
0
100
AcDbSpline
70
4
71
3
72
8
73
4
40
0
40
0
40
0
40
0
40
1
40
1
40
1
40
1
41
1
10
239.981304364424
20
7.88924449750908
30
0
41
1
10
239.943466382274
20
7.8892373347596
30
0
41
1
10
239.906121397297
20
7.89351639846609
30
0
41
1
10
239.869256499981
20
7.90205870545478
30
0
0
SPLINE
5
225
100
AcDbEntity
8
1
62
256
6
ByLayer
370
-1
48
1
60
0
100
AcDbSpline
70
4
71
3
72
8
73
4
40
0
40
0
40
0
40
0
40
1
40
1
40
1
40
1
41
1
10
256.45956188541
20
27.0673939572838
30
0
41
1
10
256.497393444329
20
27.0674011200332
30
0
41
1
10
256.534745072319
20
27.0631220563268
30
0
41
1
10
256.571609068648
20
27.0545797493381
30
0
0
SPLINE
5
226
100
AcDbEntity
8
1
62
256
6
ByLayer
370
-1
48
1
60
0
100
AcDbSpline
70
4
71
3
72
8
73
4
40
0
40
0
40
0
40
0
40
1
40
1
40
1
40
1
41
1
10
257.216730223468
20
8.5101598450722
30
0
41
1
10
257.350097989024
20
8.55108812931326
30
0
41
1
10
257.471468442444
20
8.62721483898821
30
0
41
1
10
257.566579454273
20
8.72960496132094
30
0
0
SPLINE
5
227
100
AcDbEntity
8
1
62
256
6
ByLayer
370
-1
48
1
60
0
100
AcDbSpline
70
4
71
3
72
8
73
4
40
0
40
0
40
0
40
0
40
1
40
1
40
1
40
1
41
1
10
255.160933314459
20
25.554166311497
30
0
41
1
10
255.163936854671
20
25.6684718391926
30
0
41
1
10
255.163523805295
20
25.8040555280515
30
0
41
1
10
255.159748550287
20
25.9430658149046
30
0
0
SPLINE
5
228
100
AcDbEntity
8
1
62
256
6
ByLayer
370
-1
48
1
60
0
100
AcDbSpline
70
4
71
3
72
8
73
4
40
0
40
0
40
0
40
0
40
1
40
1
40
1
40
1
41
1
10
255.750924433116
20
8.94376631042871
30
0
41
1
10
255.749039013817
20
9.05978448639334
30
0
41
1
10
255.745513718994
20
9.17947279035243
30
0
41
1
10
255.740501700068
20
9.29763153417753
30
0
0
SPLINE
5
229
100
AcDbEntity
8
1
62
256
6
ByLayer
370
-1
48
1
60
0
100
AcDbSpline
70
4
71
3
72
8
73
4
40
0
40
0
40
0
40
0
40
1
40
1
40
1
40
1
41
1
10
238.667847719398
20
25.7489201212533
30
0
41
1
10
238.667837372289
20
25.7868994144648
30
0
41
1
10
238.672103474373
20
25.8243903854116
30
0
41
1
10
238.680612824811
20
25.8613956484319
30
0
0
SPLINE
5
22A
100
AcDbEntity
8
1
62
256
6
ByLayer
370
-1
48
1
60
0
100
AcDbSpline
70
4
71
3
72
20
73
16
40
0
40
0
40
0
40
0
40
0.0006369940731775
40
0.0022970655115941
40
0.0039571369500107
40
0.0172377084573439
40
0.0437988514720103
40
0.150043423530676
40
0.362532567648007
40
0.468777139706673
40
0.521899425736005
40
0.575021711765338
40
0.787510855882669
40
0.893755427941335
40
1
40
1
40
1
40
1
41
1
10
257.668401302522
20
9.50423417265364
30
0
41
1
10
257.668398916753
20
9.50445728829166
30
0
41
1
10
257.668381973291
20
9.50526257378672
30
0
41
1
10
257.668326950886
20
9.50664823600616
30
0
41
1
10
257.668129366339
20
9.51245004642246
30
0
41
1
10
257.667619858991
20
9.52697850957352
30
0
41
1
10
257.665847580722
20
9.57808174192226
30
0
41
1
10
257.661620198939
20
9.69890105749667
30
0
41
1
10
257.656369582412
20
9.84758323130373
30
0
41
1
10
257.651724324512
20
9.97767547079658
30
0
41
1
10
257.649054132685
20
10.0520100921051
30
0
41
1
10
257.64505379806
20
10.163514959308
30
0
41
1
10
257.640399538966
20
10.2936111413465
30
0
41
1
10
257.635101698244
20
10.4422966228618
30
0
41
1
10
257.632454785251
20
10.5166396395423
30
0
41
1
10
257.631136956254
20
10.553811101171
30
0
0
SPLINE
5
22B
100
AcDbEntity
8
1
62
256
6
ByLayer
370
-1
48
1
60
0
100
AcDbSpline
70
4
71
1
72
4
73
2
40
0
40
0
40
1
40
1
41
1
10
256.6599409149
20
10.5194954956184
30
0
41
1
10
256.88277369663
20
10.5272473410049
30
0
0
SPLINE
5
22C
100
AcDbEntity
8
1
62
256
6
ByLayer
370
-1
48
1
60
0
100
AcDbSpline
70
4
71
3
72
15
73
11
40
0
40
0
40
0
40
0
40
0.250239458440349
40
0.500478916880697
40
0.750718375321045
40
0.87583810454122
40
0.938397969151307
40
0.96967790145635
40
0.985317867608872
40
1
40
1
40
1
40
1
41
1
10
257.64353644493
20
9.12223693288894
30
0
41
1
10
257.653262803168
20
9.1199874223455
30
0
41
1
10
257.672715519645
20
9.11548840125863
30
0
41
1
10
257.701888949069
20
9.10874117527015
30
0
41
1
10
257.726227425826
20
9.10311217634418
30
0
41
1
10
257.743206213066
20
9.09918532520697
30
0
41
1
10
257.751780286041
20
9.09720231501078
30
0
41
1
10
257.755940303495
20
9.09624018685406
30
0
41
1
10
257.758503514064
20
9.09564736793266
30
0
41
1
10
257.75911385107
20
9.09550620928954
30
0
41
1
10
257.760269260303
20
9.09523898643104
30
0
0
SPLINE
5
22D
100
AcDbEntity
8
1
62
256
6
ByLayer
370
-1
48
1
60
0
100
AcDbSpline
70
4
71
3
72
8
73
4
40
0
40
0
40
0
40
0
40
1
40
1
40
1
40
1
41
1
10
256.260177064323
20
10.5059148257045
30
0
41
1
10
256.381027612787
20
10.5099064626888
30
0
41
1
10
256.520398985234
20
10.5146411494343
30
0
41
1
10
256.6599409149
20
10.5194954956185
30
0
0
SPLINE
5
22E
100
AcDbEntity
8
1
62
256
6
ByLayer
370
-1
48
1
60
0
100
AcDbSpline
70
4
71
3
72
8
73
4
40
0
40
0
40
0
40
0
40
1
40
1
40
1
40
1
41
1
10
239.255999630716
20
8.71871728160323
30
0
41
1
10
239.258857466808
20
8.66544183331314
30
0
41
1
10
239.262139800381
20
8.61218761321209
30
0
41
1
10
239.265848794215
20
8.5589650082164
30
0
0
SPLINE
5
22F
100
AcDbEntity
8
1
62
256
6
ByLayer
370
-1
48
1
60
0
100
AcDbSpline
70
4
71
3
72
15
73
11
40
0
40
0
40
0
40
0
40
0.250244249035876
40
0.500488498071752
40
0.750732747107629
40
0.875854871625567
40
0.938415933884536
40
0.96969646501402
40
0.985336730578763
40
1
40
1
40
1
40
1
41
1
10
239.399836005024
20
8.48274199810035
30
0
41
1
10
239.390383000939
20
8.47981828105313
30
0
41
1
10
239.371476992769
20
8.47397084695868
30
0
41
1
10
239.343123467145
20
8.46520139277604
30
0
41
1
10
239.319469010402
20
8.45788531232171
30
0
41
1
10
239.302967402997
20
8.45278153468203
30
0
41
1
10
239.294634299807
20
8.45020419147625
30
0
41
1
10
239.290591197443
20
8.44895370145227
30
0
41
1
10
239.288100798717
20
8.44818344671179
30
0
41
1
10
239.287507590002
20
8.44799997335045
30
0
41
1
10
239.286388291927
20
8.44765378595523
30
0
0
SPLINE
5
230
100
AcDbEntity
8
1
62
256
6
ByLayer
370
-1
48
1
60
0
100
AcDbSpline
70
4
71
3
72
8
73
4
40
0
40
0
40
0
40
0
40
1
40
1
40
1
40
1
41
1
10
256.935855550829
20
26.8601666587765
30
0
41
1
10
256.833858872655
20
26.9556372034582
30
0
41
1
10
256.707497318518
20
27.0230796380234
30
0
41
1
10
256.571609068676
20
27.0545797494539
30
0
0
SPLINE
5
231
100
AcDbEntity
8
1
62
256
6
ByLayer
370
-1
48
1
60
0
100
AcDbSpline
70
4
71
1
72
4
73
2
40
0
40
0
40
1
40
1
41
1
10
239.221018019773
20
24.4170338678783
30
0
41
1
10
238.808203584485
20
24.4028273536219
30
0
0
SPLINE
5
232
100
AcDbEntity
8
1
62
256
6
ByLayer
370
-1
48
1
60
0
100
AcDbSpline
70
4
71
3
72
9
73
5
40
0
40
0
40
0
40
0
40
0.5
40
1
40
1
40
1
40
1
41
1
10
238.796855476185
20
25.834401521904
30
0
41
1
10
238.813173095489
20
25.8908095058716
30
0
41
1
10
238.860848632465
20
26.0004460313415
30
0
41
1
10
238.934509746366
20
26.0921747631847
30
0
41
1
10
238.975531159772
20
26.1315537225914
30
0
0
SPLINE
5
233
100
AcDbEntity
8
1
62
256
6
ByLayer
370
-1
48
1
60
0
100
AcDbSpline
70
4
71
3
72
8
73
4
40
0
40
0
40
0
40
0
40
1
40
1
40
1
40
1
41
1
10
257.770722967981
20
9.41676021455405
30
0
41
1
10
257.771142287055
20
9.400432372642
30
0
41
1
10
257.771481648111
20
9.38410226961122
30
0
41
1
10
257.771742145647
20
9.36777110780491
30
0
0
SPLINE
5
234
100
AcDbEntity
8
1
62
256
6
ByLayer
370
-1
48
1
60
0
100
AcDbSpline
70
4
71
3
72
15
73
11
40
0
40
0
40
0
40
0
40
0.424997863749042
40
0.849995727498085
40
0.956245193435345
40
0.982807559919661
40
0.996088743161818
40
0.997748891067088
40
0.999409038972358
40
1
40
1
40
1
40
1
41
1
10
239.312320641411
20
9.91166036184501
30
0
41
1
10
239.317493231527
20
9.76297095306859
30
0
41
1
10
239.327835616777
20
9.46559514948777
30
0
41
1
10
239.339483728562
20
9.13103338515907
30
0
41
1
10
239.34626139715
20
8.93589081855089
30
0
41
1
10
239.34804711847
20
8.88477056592612
30
0
41
1
10
239.348545293104
20
8.87025764894497
30
0
41
1
10
239.348752875365
20
8.86444348641368
30
0
41
1
10
239.348792906775
20
8.86307619074194
30
0
41
1
10
239.34883110036
20
8.86229047014442
30
0
41
1
10
239.34884313397
20
8.86208414174342
30
0
0
SPLINE
5
235
100
AcDbEntity
8
1
62
256
6
ByLayer
370
-1
48
1
60
0
100
AcDbSpline
70
4
71
3
72
8
73
4
40
0
40
0
40
0
40
0
40
1
40
1
40
1
40
1
41
1
10
239.265848794215
20
8.55896500821638
30
0
41
1
10
239.268488998217
20
8.52107911758276
30
0
41
1
10
239.275341654013
20
8.48397686946822
30
0
41
1
10
239.286399956001
20
8.4476573935336
30
0
0
SPLINE
5
236
100
AcDbEntity
8
1
62
256
6
ByLayer
370
-1
48
1
60
0
100
AcDbSpline
70
4
71
3
72
8
73
4
40
0
40
0
40
0
40
0
40
1
40
1
40
1
40
1
41
1
10
255.809336842481
20
10.4909920071065
30
0
41
1
10
255.81947300923
20
10.4913473219293
30
0
41
1
10
255.829865206576
20
10.4917018266906
30
0
41
1
10
255.838677225735
20
10.491992883554
30
0
0
SPLINE
5
237
100
AcDbEntity
8
1
62
256
6
ByLayer
370
-1
48
1
60
0
100
AcDbSpline
70
4
71
3
72
8
73
4
40
0
40
0
40
0
40
0
40
1
40
1
40
1
40
1
41
1
10
257.190828639712
20
26.0980448547392
30
0
41
1
10
257.189773980757
20
26.1283617004565
30
0
41
1
10
257.18858208428
20
26.1586740584642
30
0
41
1
10
257.187252466764
20
26.1889800017686
30
0
0
SPLINE
5
238
100
AcDbEntity
8
1
62
256
6
ByLayer
370
-1
48
1
60
0
100
AcDbSpline
70
4
71
3
72
15
73
11
40
0
40
0
40
0
40
0
40
0.250239458440318
40
0.500478916880635
40
0.750718375320953
40
0.875838104541112
40
0.938397969151191
40
0.969677901456231
40
0.985317867608751
40
1
40
1
40
1
40
1
41
1
10
256.544480839164
20
26.9376553415351
30
0
41
1
10
256.546741524954
20
26.9473990421829
30
0
41
1
10
256.551262896533
20
26.9668864434786
30
0
41
1
10
256.558043641774
20
26.9961118900661
30
0
41
1
10
256.563700604761
20
27.0204937631102
30
0
41
1
10
256.567646963933
20
27.037502824073
30
0
41
1
10
256.56963982544
20
27.0460921848963
30
0
41
1
10
256.570606733311
20
27.0502596197951
30
0
41
1
10
256.571202497273
20
27.0528274006509
30
0
41
1
10
256.571344357171
20
27.053438825908
30
0
41
1
10
256.571612907555
20
27.0545962952727
30
0
0
SPLINE
5
239
100
AcDbEntity
8
1
62
256
6
ByLayer
370
-1
48
1
60
0
100
AcDbSpline
70
4
71
3
72
8
73
4
40
0
40
0
40
0
40
0
40
1
40
1
40
1
40
1
41
1
10
239.253613022447
20
8.76765845302427
30
0
41
1
10
239.254329055545
20
8.75134101644502
30
0
41
1
10
239.255124739249
20
8.73502690665347
30
0
41
1
10
239.255999630716
20
8.71871728160323
30
0
0
SPLINE
5
23A
100
AcDbEntity
8
1
62
256
6
ByLayer
370
-1
48
1
60
0
100
AcDbSpline
70
4
71
3
72
8
73
4
40
0
40
0
40
0
40
0
40
1
40
1
40
1
40
1
41
1
10
241.229189943668
20
9.82980575636202
30
0
41
1
10
241.22954390641
20
9.81963087110202
30
0
41
1
10
241.230176201625
20
9.80947918296897
30
0
41
1
10
241.230975108374
20
9.80114440490783
30
0
0
SPLINE
5
23B
100
AcDbEntity
8
1
62
256
6
ByLayer
370
-1
48
1
60
0
100
AcDbSpline
70
4
71
1
72
4
73
2
40
0
40
0
40
1
40
1
41
1
10
240.724909588089
20
25.0481236093108
30
0
41
1
10
240.714433907752
20
24.6494513476988
30
0
0
SPLINE
5
23C
100
AcDbEntity
8
1
62
256
6
ByLayer
370
-1
48
1
60
0
100
AcDbSpline
70
4
71
1
72
4
73
2
40
0
40
0
40
1
40
1
41
1
10
255.159748550287
20
25.9430658149046
30
0
41
1
10
255.153719892253
20
26.1650496228017
30
0
0
SPLINE
5
23D
100
AcDbEntity
8
1
62
256
6
ByLayer
370
-1
48
1
60
0
100
AcDbSpline
70
4
71
3
72
8
73
4
40
0
40
0
40
0
40
0
40
1
40
1
40
1
40
1
41
1
10
257.187252466764
20
26.1889800017686
30
0
41
1
10
257.186536569249
20
26.2052974383479
30
0
41
1
10
257.185741014517
20
26.2216115481394
30
0
41
1
10
257.184866005751
20
26.2379211731897
30
0
0
SPLINE
5
23E
100
AcDbEntity
8
1
62
256
6
ByLayer
370
-1
48
1
60
0
100
AcDbSpline
70
4
71
1
72
4
73
2
40
0
40
0
40
1
40
1
41
1
10
238.808203584485
20
24.4028273536219
30
0
41
1
10
238.709407314111
20
24.3993374039516
30
0
0
SPLINE
5
23F
100
AcDbEntity
8
1
62
256
6
ByLayer
370
-1
48
1
60
0
100
AcDbSpline
70
4
71
3
72
8
73
4
40
0
40
0
40
0
40
0
40
1
40
1
40
1
40
1
41
1
10
255.153719892253
20
26.1650496228017
30
0
41
1
10
255.150510925496
20
26.2832083666267
30
0
41
1
10
255.14570881431
20
26.4028966705858
30
0
41
1
10
255.139522179585
20
26.5189148465505
30
0
0
SPLINE
5
240
100
AcDbEntity
8
1
62
256
6
ByLayer
370
-1
48
1
60
0
100
AcDbSpline
70
4
71
1
72
4
73
2
40
0
40
0
40
1
40
1
41
1
10
240.681804826238
20
26.419693484879
30
0
41
1
10
240.703498453215
20
26.0128721443642
30
0
0
SPLINE
5
241
100
AcDbEntity
8
1
62
256
6
ByLayer
370
-1
48
1
60
0
100
AcDbSpline
70
4
71
3
72
15
73
11
40
0
40
0
40
0
40
0
40
0.250239458440327
40
0.500478916880655
40
0.750718375320982
40
0.875838104541146
40
0.938397969151227
40
0.969677901456268
40
0.985317867608789
40
1
40
1
40
1
40
1
41
1
10
239.89591108195
20
8.01898311325783
30
0
41
1
10
239.893689866787
20
8.00923941260999
30
0
41
1
10
239.88924743646
20
7.98975201131427
30
0
41
1
10
239.882585080188
20
7.96052656472685
30
0
41
1
10
239.877026885404
20
7.9361446916827
30
0
41
1
10
239.873149428009
20
7.91913563071992
30
0
41
1
10
239.871191361028
20
7.9105462698966
30
0
41
1
10
239.870241334963
20
7.90637883499784
30
0
41
1
10
239.869655972791
20
7.90381105414204
30
0
41
1
10
239.869516589706
20
7.90319962888489
30
0
41
1
10
239.8692527281
20
7.90204215952025
30
0
0
SPLINE
5
242
100
AcDbEntity
8
1
62
256
6
ByLayer
370
-1
48
1
60
0
100
AcDbSpline
70
4
71
3
72
9
73
5
40
0
40
0
40
0
40
0
40
0.5
40
1
40
1
40
1
40
1
41
1
10
238.975531159772
20
26.1315537225914
30
0
41
1
10
239.011731341144
20
26.1754793749064
30
0
41
1
10
239.097649472815
20
26.2558564677869
30
0
41
1
10
239.20327526933
20
26.3114001159714
30
0
41
1
10
239.25820260392
20
26.331722039005
30
0
0
SPLINE
5
243
100
AcDbEntity
8
1
62
256
6
ByLayer
370
-1
48
1
60
0
100
AcDbSpline
70
4
71
1
72
4
73
2
40
0
40
0
40
1
40
1
41
1
10
255.150457634123
20
25.1554940498851
30
0
41
1
10
255.160933314459
20
25.554166311497
30
0
0
SPLINE
5
244
100
AcDbEntity
8
1
62
256
6
ByLayer
370
-1
48
1
60
0
100
AcDbSpline
70
4
71
3
72
15
73
11
40
0
40
0
40
0
40
0
40
0.250193815306133
40
0.500387630612266
40
0.750581445918399
40
0.875678353571466
40
0.938226807397999
40
0.969501034311266
40
0.985138147767899
40
1
40
1
40
1
40
1
41
1
10
238.975531159772
20
26.1315537225914
30
0
41
1
10
238.967094072697
20
26.1395103701255
30
0
41
1
10
238.950219898546
20
26.1554236651936
30
0
41
1
10
238.924913597791
20
26.1792889297922
30
0
41
1
10
238.903801038217
20
26.1991992606416
30
0
41
1
10
238.889073339372
20
26.2130883087995
30
0
41
1
10
238.881635082876
20
26.2201030029319
30
0
41
1
10
238.878027565238
20
26.2235050949179
30
0
41
1
10
238.875795630208
20
26.2256099351539
30
0
41
1
10
238.875201670882
20
26.2261700721968
30
0
41
1
10
238.874281580129
20
26.2270377695145
30
0
0
SPLINE
5
245
100
AcDbEntity
8
1
62
256
6
ByLayer
370
-1
48
1
60
0
100
AcDbSpline
70
4
71
3
72
8
73
4
40
0
40
0
40
0
40
0
40
1
40
1
40
1
40
1
41
1
10
257.175016764046
20
26.3976734465765
30
0
41
1
10
257.172377208041
20
26.4355593372102
30
0
41
1
10
257.165525974109
20
26.4726615853247
30
0
41
1
10
257.154465612628
20
26.5089810612593
30
0
0
SPLINE
5
246
100
AcDbEntity
8
1
62
256
6
ByLayer
370
-1
48
1
60
0
100
AcDbSpline
70
4
71
3
72
8
73
4
40
0
40
0
40
0
40
0
40
1
40
1
40
1
40
1
41
1
10
240.169944968762
20
24.4507236290884
30
0
41
1
10
240.06305439592
20
24.4467319921041
30
0
41
1
10
239.932290264389
20
24.4419973053586
30
0
41
1
10
239.794869572569
20
24.4371429591745
30
0
0
SPLINE
5
247
100
AcDbEntity
8
1
62
256
6
ByLayer
370
-1
48
1
60
0
100
AcDbSpline
70
4
71
1
72
4
73
2
40
0
40
0
40
1
40
1
41
1
10
240.542755516762
20
24.464645571239
30
0
41
1
10
240.169944968762
20
24.4507236290884
30
0
0
SPLINE
5
248
100
AcDbEntity
8
1
62
256
6
ByLayer
370
-1
48
1
60
0
100
AcDbSpline
70
4
71
1
72
4
73
2
40
0
40
0
40
1
40
1
41
1
10
241.295061937182
20
9.01357263988828
30
0
41
1
10
241.304477973697
20
8.79158883199125
30
0
0
SPLINE
5
249
100
AcDbEntity
8
1
62
256
6
ByLayer
370
-1
48
1
60
0
100
AcDbSpline
70
4
71
3
72
8
73
4
40
0
40
0
40
0
40
0
40
1
40
1
40
1
40
1
41
1
10
239.5050100178
20
8.09647179601646
30
0
41
1
10
239.607012576805
20
8.00100125133469
30
0
41
1
10
239.733376027758
20
7.93355881676951
30
0
41
1
10
239.869256499956
20
7.90205870533902
30
0
0
SPLINE
5
24A
100
AcDbEntity
8
1
62
256
6
ByLayer
370
-1
48
1
60
0
100
AcDbSpline
70
4
71
3
72
12
73
8
40
0
40
0
40
0
40
0
40
0.342482483786398
40
0.342482483786398
40
0.671240032903805
40
0.671240032903805
40
1
40
1
40
1
40
1
41
1
10
257.731458254518
20
10.5573010508413
30
0
41
1
10
257.735626565101
20
10.4374802990932
30
0
41
1
10
257.739758872303
20
10.3176574408134
30
0
41
1
10
257.747863458098
20
10.0828146246079
30
0
41
1
10
257.751849434024
20
9.96779428626959
30
0
41
1
10
257.759904309519
20
9.73775940196103
30
0
41
1
10
257.763969584182
20
9.62274426596755
30
0
41
1
10
257.767970812403
20
9.50772423872039
30
0
0
SPLINE
5
24B
100
AcDbEntity
8
1
62
256
6
ByLayer
370
-1
48
1
60
0
100
AcDbSpline
70
4
71
3
72
8
73
4
40
0
40
0
40
0
40
0
40
1
40
1
40
1
40
1
41
1
10
240.723724823916
20
25.4370231127184
30
0
41
1
10
240.727500078925
20
25.2980128258653
30
0
41
1
10
240.7279131283
20
25.1624291370063
30
0
41
1
10
240.724909588089
20
25.0481236093108
30
0
0
SPLINE
5
24C
100
AcDbEntity
8
1
62
256
6
ByLayer
370
-1
48
1
60
0
100
AcDbSpline
70
4
71
3
72
12
73
8
40
0
40
0
40
0
40
0
40
0.342482483786416
40
0.342482483786416
40
0.671240032903824
40
0.671240032903824
40
1
40
1
40
1
40
1
41
1
10
255.115114397195
20
27.0256752697672
30
0
41
1
10
255.234479194808
20
27.0298595026193
30
0
41
1
10
255.353875586266
20
27.0339779865662
30
0
41
1
10
255.587877978037
20
27.0420601038759
30
0
41
1
10
255.702473169554
20
27.0460487173888
30
0
41
1
10
255.931589821332
20
27.0541774053425
30
0
41
1
10
256.046114849782
20
27.0583108492335
30
0
41
1
10
256.16069725267
20
27.0623272996912
30
0
0
SPLINE
5
24D
100
AcDbEntity
8
1
62
256
6
ByLayer
370
-1
48
1
60
0
100
AcDbSpline
70
4
71
3
72
97
73
93
40
0
40
0
40
0
40
0
40
0.03125
40
0.0625
40
0.125
40
0.140625
40
0.15625
40
0.1875
40
0.25
40
0.28125
40
0.2890625
40
0.29296875
40
0.29345703125
40
0.2939453125
40
0.294189453125
40
0.29443359375
40
0.294921875
40
0.296875
40
0.3046875
40
0.3125
40
0.3203125
40
0.328125
40
0.34375
40
0.359375
40
0.3671875
40
0.37109375
40
0.375
40
0.37548828125
40
0.3759765625
40
0.376953125
40
0.37744140625
40
0.3779296875
40
0.37890625
40
0.380859375
40
0.3828125
40
0.38671875
40
0.390625
40
0.3984375
40
0.400390625
40
0.4013671875
40
0.40234375
40
0.40625
40
0.4375
40
0.453125
40
0.46875
40
0.484375
40
0.4921875
40
0.49609375
40
0.498046875
40
0.4990234375
40
0.49951171875
40
0.5
40
0.50048828125
40
0.5009765625
40
0.501953125
40
0.50390625
40
0.5078125
40
0.515625
40
0.53125
40
0.546875
40
0.5625
40
0.59375
40
0.595703125
40
0.59765625
40
0.5986328125
40
0.599609375
40
0.6015625
40
0.609375
40
0.6171875
40
0.62109375
40
0.623046875
40
0.6240234375
40
0.625
40
0.62548828125
40
0.6328125
40
0.640625
40
0.65625
40
0.6640625
40
0.671875
40
0.6875
40
0.703125
40
0.705078125
40
0.70556640625
40
0.705810546875
40
0.7060546875
40
0.70654296875
40
0.70703125
40
0.7109375
40
0.71875
40
0.75
40
0.875
40
1
40
1
40
1
40
1
41
1
10
240.570519706225
20
24.4656464476864
30
0
41
1
10
240.570434375922
20
24.4680993217844
30
0
41
1
10
240.570384049676
20
24.4730092727508
30
0
41
1
10
240.570763239693
20
24.4828223573894
30
0
41
1
10
240.571722862156
20
24.4913688465059
30
0
41
1
10
240.57299104356
20
24.4986215625851
30
0
41
1
10
240.573954580086
20
24.5034344181641
30
0
41
1
10
240.575948747356
20
24.5117908931544
30
0
41
1
10
240.578922660102
20
24.5211558878143
30
0
41
1
10
240.581888776696
20
24.5285585942858
30
0
41
1
10
240.583238360909
20
24.5316495622263
30
0
41
1
10
240.583629787991
20
24.5325240909968
30
0
41
1
10
240.583787558627
20
24.5328733571334
30
0
41
1
10
240.583827067917
20
24.5329606433184
30
0
41
1
10
240.583858715312
20
24.5330304540265
30
0
41
1
10
240.583890389345
20
24.5331002525646
30
0
41
1
10
240.583977602796
20
24.5332921483007
30
0
41
1
10
240.584311997293
20
24.5340242005842
30
0
41
1
10
240.584894814872
20
24.5352747259573
30
0
41
1
10
240.585692198881
20
24.5369324115184
30
0
41
1
10
240.586509754974
20
24.5385801661909
30
0
41
1
10
240.587626563452
20
24.5407635988554
30
0
41
1
10
240.589072395168
20
24.5434668160363
30
0
41
1
10
240.590583842915
20
24.5461336064468
30
0
41
1
10
240.59167587839
20
24.5479803631799
30
0
41
1
10
240.592309558337
20
24.5490298147976
30
0
41
1
10
240.592649611159
20
24.5495852462922
30
0
41
1
10
240.592850767086
20
24.5499112719602
30
0
41
1
10
240.592931329389
20
24.5500416200452
30
0
41
1
10
240.593012041509
20
24.5501718747494
30
0
41
1
10
240.593092903282
20
24.5503020358571
30
0
41
1
10
240.593173864769
20
24.5504321344954
30
0
41
1
10
240.593315808977
20
24.5506596429416
30
0
41
1
10
240.593519333041
20
24.5509841848706
30
0
41
1
10
240.593846560844
20
24.5515024444008
30
0
41
1
10
240.594258568981
20
24.552148371026
30
0
41
1
10
240.594924097233
20
24.5531777682349
30
0
41
1
10
240.595514686471
20
24.5540730804458
30
0
41
1
10
240.595984075885
20
24.5547729343389
30
0
41
1
10
240.596155345817
20
24.5550270315906
30
0
41
1
10
240.59641283293
20
24.5554077815329
30
0
41
1
10
240.598009635842
20
24.5577496222215
30
0
41
1
10
240.600344105412
20
24.5609784195572
30
0
41
1
10
240.603360134039
20
24.5648427998986
30
0
41
1
10
240.605692230045
20
24.5676845577832
30
0
41
1
10
240.607692919562
20
24.5700041120984
30
0
41
1
10
240.609122884602
20
24.5716015247256
30
0
41
1
10
240.609845164265
20
24.5723935656491
30
0
41
1
10
240.6102081192
20
24.5727879076956
30
0
41
1
10
240.610390049296
20
24.5729846576066
30
0
41
1
10
240.61049413851
20
24.5730969655939
30
0
41
1
10
240.610572269958
20
24.5731811362638
30
0
41
1
10
240.610650465904
20
24.5732652465594
30
0
41
1
10
240.610754813093
20
24.5733773130611
30
0
41
1
10
240.61093764606
20
24.5735732178153
30
0
41
1
10
240.611304212117
20
24.5739641795731
30
0
41
1
10
240.612040933374
20
24.5747427020511
30
0
41
1
10
240.613528641635
20
24.5762860625686
30
0
41
1
10
240.615694179482
20
24.5784513061281
30
0
41
1
10
240.618355548788
20
24.5809848388016
30
0
41
1
10
240.621985458856
20
24.5842745787552
30
0
41
1
10
240.624914142665
20
24.586738913377
30
0
41
1
10
240.627067484809
20
24.5884569493983
30
0
41
1
10
240.62736728763
20
24.5886946434348
30
0
41
1
10
240.627607564778
20
24.5888842439838
30
0
41
1
10
240.627848131313
20
24.5890734742681
30
0
41
1
10
240.628510880779
20
24.5895923282367
30
0
41
1
10
240.629601854631
20
24.5904329987893
30
0
41
1
10
240.630825385441
20
24.5913520563164
30
0
41
1
10
240.631687718453
20
24.5919874303443
30
0
41
1
10
240.632120338968
20
24.592303115762
30
0
41
1
10
240.6323679645
20
24.5924829341109
30
0
41
1
10
240.632522902541
20
24.5925950813976
30
0
41
1
10
240.633081143198
20
24.5929981650339
30
0
41
1
10
240.634077962719
20
24.5937086245731
30
0
41
1
10
240.636056917857
20
24.5950837793536
30
0
41
1
10
240.638092708061
20
24.5964434203558
30
0
41
1
10
240.640152964407
20
24.5977651622241
30
0
41
1
10
240.642229212534
20
24.5990614521692
30
0
41
1
10
240.644853909199
20
24.6006337438058
30
0
41
1
10
240.647116850407
20
24.6019149216687
30
0
41
1
10
240.648357520252
20
24.6025948751374
30
0
41
1
10
240.648542136394
20
24.6026955944395
30
0
41
1
10
240.64860929048
20
24.602732180911
30
0
41
1
10
240.648676458519
20
24.6027687415574
30
0
41
1
10
240.648760444709
20
24.6028143939325
30
0
41
1
10
240.649096528702
20
24.6029967450111
30
0
41
1
10
240.649938302852
20
24.6034497141861
30
0
41
1
10
240.652915865701
20
24.6050167685387
30
0
41
1
10
240.66446532795
20
24.6106489369891
30
0
41
1
10
240.685387876977
20
24.6178294342011
30
0
41
1
10
240.704868717981
20
24.6204473712407
30
0
41
1
10
240.714642878668
20
24.6207899962446
30
0
0
SPLINE
5
24E
100
AcDbEntity
8
1
62
256
6
ByLayer
370
-1
48
1
60
0
100
AcDbSpline
70
4
71
3
72
20
73
16
40
0
40
0
40
0
40
0
40
0.0006369940732195
40
0.0022970655116361
40
0.0039571369500527
40
0.0172377084573853
40
0.0437988514720506
40
0.150043423530712
40
0.362532567648034
40
0.468777139706695
40
0.521899425736025
40
0.575021711765356
40
0.787510855882678
40
0.893755427941339
40
1
40
1
40
1
40
1
41
1
10
256.164174038104
20
26.9623774503358
30
0
41
1
10
256.163951788579
20
26.9623750382972
30
0
41
1
10
256.163149628643
20
26.9623579686753
30
0
41
1
10
256.161769339691
20
26.9623026353067
30
0
41
1
10
256.155989997311
20
26.9621039041314
30
0
41
1
10
256.141517456924
20
26.9615918105374
30
0
41
1
10
256.090607741493
20
26.9598137123766
30
0
41
1
10
255.97022090764
20
26.9555975591092
30
0
41
1
10
255.821996026918
20
26.9504357879592
30
0
41
1
10
255.692240805471
20
26.9459314117487
30
0
41
1
10
255.618077134778
20
26.943363362781
30
0
41
1
10
255.506846776614
20
26.939498120387
30
0
41
1
10
255.377121694276
20
26.9349505118184
30
0
41
1
10
255.228931352972
20
26.9297033570244
30
0
41
1
10
255.154858097626
20
26.9270595197199
30
0
41
1
10
255.117828552608
20
26.9257361870653
30
0
0
SPLINE
5
24F
100
AcDbEntity
8
1
62
256
6
ByLayer
370
-1
48
1
60
0
100
AcDbSpline
70
4
71
3
72
8
73
4
40
0
40
0
40
0
40
0
40
1
40
1
40
1
40
1
41
1
10
240.570519706225
20
24.4656464476864
30
0
41
1
10
240.560383539475
20
24.4652911328636
30
0
41
1
10
240.550549621031
20
24.4649366281024
30
0
41
1
10
240.542755516762
20
24.4646455712389
30
0
0
SPLINE
5
250
100
AcDbEntity
8
1
62
256
6
ByLayer
370
-1
48
1
60
0
100
AcDbSpline
70
4
71
1
72
4
73
2
40
0
40
0
40
1
40
1
41
1
10
255.117828552608
20
26.9257361870653
30
0
41
1
10
255.115114397195
20
27.0256752697672
30
0
0
SPLINE
5
251
100
AcDbEntity
8
1
62
256
6
ByLayer
370
-1
48
1
60
0
100
AcDbSpline
70
4
71
3
72
8
73
4
40
0
40
0
40
0
40
0
40
1
40
1
40
1
40
1
41
1
10
239.5429186643
20
26.4793907441741
30
0
41
1
10
239.526663388285
20
26.4786720439967
30
0
41
1
10
239.510411423093
20
26.4778733856423
30
0
41
1
10
239.49416380244
20
26.4769950933585
30
0
0
SPLINE
5
252
100
AcDbEntity
8
1
62
256
6
ByLayer
370
-1
48
1
60
0
100
AcDbSpline
70
4
71
3
72
8
73
4
40
0
40
0
40
0
40
0
40
1
40
1
40
1
40
1
41
1
10
240.298986629494
20
9.9459759673976
30
0
41
1
10
240.436407321315
20
9.95083031358178
30
0
41
1
10
240.567171452846
20
9.95556500032725
30
0
41
1
10
240.674062025688
20
9.95955663731155
30
0
0
SPLINE
5
253
100
AcDbEntity
8
1
62
256
6
ByLayer
370
-1
48
1
60
0
100
AcDbSpline
70
4
71
3
72
25
73
21
40
0
40
0
40
0
40
0
40
0.125
40
0.1875
40
0.21875
40
0.234375
40
0.25
40
0.3125
40
0.34375
40
0.375
40
0.5
40
0.625
40
0.6875
40
0.71875
40
0.7265625
40
0.734375
40
0.75
40
0.8125
40
0.875
40
1
40
1
40
1
40
1
41
1
10
240.276691646601
20
7.99425023780768
30
0
41
1
10
240.259679252649
20
7.99448905241235
30
0
41
1
10
240.234183878759
20
7.99491903334308
30
0
41
1
10
240.204432514856
20
7.99551282191072
30
0
41
1
10
240.189589330787
20
7.99585115411224
30
0
41
1
10
240.181121020105
20
7.99605894060318
30
0
41
1
10
240.168435153596
20
7.99638641436806
30
0
41
1
10
240.153689928806
20
7.99681834536855
30
0
41
1
10
240.136831588472
20
7.99736349547439
30
0
41
1
10
240.111497823001
20
7.99822427496127
30
0
41
1
10
240.073164092731
20
7.99964508299612
30
0
41
1
10
240.030818273143
20
8.00144521840471
30
0
41
1
10
240.000966002224
20
8.00281797486016
30
0
41
1
10
239.987377892957
20
8.00348615473075
30
0
41
1
10
239.980791371335
20
8.00379499764693
30
0
41
1
10
239.977772777026
20
8.00401537002071
30
0
41
1
10
239.968458803281
20
8.00471316847046
30
0
41
1
10
239.953762126229
20
8.00633628434178
30
0
41
1
10
239.927644976155
20
8.01057293242306
30
0
41
1
10
239.908441032718
20
8.01523846757789
30
0
41
1
10
239.89591108195
20
8.01898311325783
30
0
0
SPLINE
5
254
100
AcDbEntity
8
1
62
256
6
ByLayer
370
-1
48
1
60
0
100
AcDbSpline
70
4
71
3
72
8
73
4
40
0
40
0
40
0
40
0
40
1
40
1
40
1
40
1
41
1
10
256.251314730973
20
27.0650903698743
30
0
41
1
10
256.267580871035
20
27.0655108585162
30
0
41
1
10
256.283849476084
20
27.0658508704308
30
0
41
1
10
256.300118432323
20
27.0661124238215
30
0
0
SPLINE
5
255
100
AcDbEntity
8
1
62
256
6
ByLayer
370
-1
48
1
60
0
100
AcDbSpline
70
4
71
3
72
8
73
4
40
0
40
0
40
0
40
0
40
1
40
1
40
1
40
1
41
1
10
239.63350781535
20
26.4829805376609
30
0
41
1
10
239.603306334384
20
26.4819218500799
30
0
41
1
10
239.573109158434
20
26.4807255670015
30
0
41
1
10
239.5429186643
20
26.4793907441741
30
0
0
SPLINE
5
256
100
AcDbEntity
8
1
62
256
6
ByLayer
370
-1
48
1
60
0
100
AcDbSpline
70
4
71
3
72
8
73
4
40
0
40
0
40
0
40
0
40
1
40
1
40
1
40
1
41
1
10
257.773018530436
20
9.20771833353959
30
0
41
1
10
257.773022454314
20
9.16973904032804
30
0
41
1
10
257.768762995243
20
9.13224806938135
30
0
41
1
10
257.760252743818
20
9.095242806361
30
0
0
SPLINE
5
257
100
AcDbEntity
8
1
62
256
6
ByLayer
370
-1
48
1
60
0
100
AcDbSpline
70
4
71
3
72
8
73
4
40
0
40
0
40
0
40
0
40
1
40
1
40
1
40
1
41
1
10
256.155823857974
20
25.0106624873953
30
0
41
1
10
256.016281928308
20
25.0058081412111
30
0
41
1
10
255.876910555862
20
25.0010734544657
30
0
41
1
10
255.756060007397
20
24.9970818174814
30
0
0
SPLINE
5
258
100
AcDbEntity
8
1
62
256
6
ByLayer
370
-1
48
1
60
0
100
AcDbSpline
70
4
71
3
72
8
73
4
40
0
40
0
40
0
40
0
40
1
40
1
40
1
40
1
41
1
10
241.304477973697
20
8.79158883199125
30
0
41
1
10
241.309489992624
20
8.67343008816616
30
0
41
1
10
241.313015287446
20
8.55374178420709
30
0
41
1
10
241.314900706746
20
8.43772360824244
30
0
0
SPLINE
5
259
100
AcDbEntity
8
1
62
256
6
ByLayer
370
-1
48
1
60
0
100
AcDbSpline
70
4
71
3
72
20
73
16
40
0
40
0
40
0
40
0
40
0.0624999999999999
40
0.0624999999999999
40
0.125
40
0.125
40
0.250000000000001
40
0.250000000000001
40
0.375000000000002
40
0.375000000000002
40
0.500000000000003
40
0.500000000000003
40
0.750000000000001
40
0.750000000000001
40
1
40
1
40
1
40
1
41
1
10
257.622545918307
20
-12.0281192759302
30
0
41
1
10
257.621497504084
20
-12.0580687974943
30
0
41
1
10
257.620798850618
20
-12.0883985407987
30
0
41
1
10
257.620097264694
20
-12.1476873723927
30
0
41
1
10
257.620082012801
20
-12.1769569773695
30
0
41
1
10
257.620923085393
20
-12.2637751748675
30
0
41
1
10
257.622628142772
20
-12.3181255358748
30
0
41
1
10
257.627415682723
20
-12.4210954518376
30
0
41
1
10
257.630531997664
20
-12.470103512883
30
0
41
1
10
257.637481333398
20
-12.5620367549013
30
0
41
1
10
257.641339571598
20
-12.6054228836278
30
0
41
1
10
257.653670102857
20
-12.7304964681911
30
0
41
1
10
257.662881440111
20
-12.8072119601517
30
0
41
1
10
257.682347537521
20
-12.9536232543068
30
0
41
1
10
257.692538627513
20
-13.0225909767561
30
0
41
1
10
257.702992824918
20
-13.0889722776959
30
0
0
SPLINE
5
25A
100
AcDbEntity
8
1
62
256
6
ByLayer
370
-1
48
1
60
0
100
AcDbSpline
70
4
71
3
72
8
73
4
40
0
40
0
40
0
40
0
40
1
40
1
40
1
40
1
41
1
10
257.08521890452
20
-0.612085013519959
30
0
41
1
10
257.102257322153
20
-0.658783647926612
30
0
41
1
10
257.112080141148
20
-0.706946736419894
30
0
41
1
10
257.114687361504
20
-0.756574279000972
30
0
0
SPLINE
5
25B
100
AcDbEntity
8
1
62
256
6
ByLayer
370
-1
48
1
60
0
100
AcDbSpline
70
4
71
3
72
8
73
4
40
0
40
0
40
0
40
0
40
1
40
1
40
1
40
1
41
1
10
256.069285061396
20
-9.25584156208112
30
0
41
1
10
256.069642715151
20
-9.24569186318797
30
0
41
1
10
256.070000358175
20
-9.23554216233413
30
0
41
1
10
256.070357990418
20
-9.2253924595112
30
0
0
SPLINE
5
25C
100
AcDbEntity
8
1
62
256
6
ByLayer
370
-1
48
1
60
0
100
AcDbSpline
70
4
71
3
72
10
73
6
40
0
40
0
40
0
40
0
40
0.5
40
0.5
40
1
40
1
40
1
40
1
41
1
10
256.84364969775
20
-0.933405666141908
30
0
41
1
10
256.84101346512
20
-0.883225884900952
30
0
41
1
10
256.839331476383
20
-0.834988088812395
30
0
41
1
10
256.837561184293
20
-0.741755811448201
30
0
41
1
10
256.837487274263
20
-0.696439340851043
30
0
41
1
10
256.838037247963
20
-0.654093428577767
30
0
0
SPLINE
5
25D
100
AcDbEntity
8
1
62
256
6
ByLayer
370
-1
48
1
60
0
100
AcDbSpline
70
4
71
3
72
20
73
16
40
0
40
0
40
0
40
0
40
0.249999999999999
40
0.249999999999999
40
0.499999999999999
40
0.499999999999999
40
0.62499999999999
40
0.62499999999999
40
0.749999999999982
40
0.749999999999982
40
0.874999999999974
40
0.874999999999974
40
0.937499999999987
40
0.937499999999987
40
1
40
1
40
1
40
1
41
1
10
255.87632607865
20
2.29417199287553
30
0
41
1
10
255.884744561109
20
2.24168624422086
30
0
41
1
10
255.89424125462
20
2.18664819877324
30
0
41
1
10
255.916871411851
20
2.06796329524204
30
0
41
1
10
255.929867985586
20
2.00486786762477
30
0
41
1
10
255.954135551445
20
1.89976355086381
30
0
41
1
10
255.963035822721
20
1.86294438096792
30
0
41
1
10
255.98332725855
20
1.7838260274419
30
0
41
1
10
255.994628368954
20
1.74187488072604
30
0
41
1
10
256.020586737521
20
1.65147427891904
30
0
41
1
10
256.035394731207
20
1.60258256706337
30
0
41
1
10
256.060349681524
20
1.52548134044213
30
0
41
1
10
256.069160093459
20
1.49903273150676
30
0
41
1
10
256.087966822452
20
1.44433241872005
30
0
41
1
10
256.097980370238
20
1.41606065739779
30
0
41
1
10
256.108161077569
20
1.38815753048269
30
0
0
SPLINE
5
25E
100
AcDbEntity
8
1
62
256
6
ByLayer
370
-1
48
1
60
0
100
AcDbSpline
70
4
71
3
72
12
73
8
40
0
40
0
40
0
40
0
40
0.146468567470635
40
0.146468567470635
40
0.573234283735317
40
0.573234283735317
40
1
40
1
40
1
40
1
41
1
10
255.649500651672
20
2.7814102496846
30
0
41
1
10
255.672985459945
20
2.76779804047624
30
0
41
1
10
255.695768478176
20
2.75300223404557
30
0
41
1
10
255.781660423491
20
2.69074407247854
30
0
41
1
10
255.838855124643
20
2.63466689648223
30
0
41
1
10
255.933978270492
20
2.50871378069428
30
0
41
1
10
255.97208467312
20
2.43877625978246
30
0
41
1
10
255.999211065162
20
2.36442865943928
30
0
0
SPLINE
5
25F
100
AcDbEntity
8
1
62
256
6
ByLayer
370
-1
48
1
60
0
100
AcDbSpline
70
4
71
3
72
10
73
6
40
0
40
0
40
0
40
0
40
0.5
40
0.5
40
1
40
1
40
1
40
1
41
1
10
256.70225710473
20
-0.24013177260494
30
0
41
1
10
256.719182438664
20
-0.286520468936942
30
0
41
1
10
256.737137521074
20
-0.33365594225873
30
0
41
1
10
256.772784754373
20
-0.423770677217704
30
0
41
1
10
256.790879401051
20
-0.467814148395661
30
0
41
1
10
256.808568790979
20
-0.509604163096128
30
0
0
SPLINE
5
260
100
AcDbEntity
8
1
62
256
6
ByLayer
370
-1
48
1
60
0
100
AcDbSpline
70
4
71
3
72
22
73
18
40
0
40
0
40
0
40
0
40
0.0409202526101062
40
0.0409202526101062
40
0.147484668986761
40
0.147484668986761
40
0.254049085363416
40
0.254049085363416
40
0.360613501740071
40
0.360613501740071
40
0.467177918116726
40
0.467177918116726
40
0.573742334493381
40
0.573742334493381
40
0.786871167246691
40
0.786871167246691
40
1
40
1
40
1
40
1
41
1
10
255.529604648185
20
2.75390231604334
30
0
41
1
10
255.539202358267
20
2.74951669459313
30
0
41
1
10
255.54894207152
20
2.74478988902274
30
0
41
1
10
255.584301803493
20
2.72645332617861
30
0
41
1
10
255.610755359219
20
2.71043629432032
30
0
41
1
10
255.660410962413
20
2.6747346189772
30
0
41
1
10
255.683685644706
20
2.65500719198224
30
0
41
1
10
255.72414991029
20
2.61543267449335
30
0
41
1
10
255.741016386296
20
2.59612993866213
30
0
41
1
10
255.770444295865
20
2.55838127118048
30
0
41
1
10
255.782823318446
20
2.54011871797658
30
0
41
1
10
255.804161341255
20
2.50514606914788
30
0
41
1
10
255.813216021054
20
2.48828097334612
30
0
41
1
10
255.837044887595
20
2.43897756028213
30
0
41
1
10
255.848408674046
20
2.40808519115254
30
0
41
1
10
255.865882581765
20
2.34930271435488
30
0
41
1
10
255.871978415364
20
2.32127787134812
30
0
41
1
10
255.87632607865
20
2.29417199287624
30
0
0
SPLINE
5
261
100
AcDbEntity
8
1
62
256
6
ByLayer
370
-1
48
1
60
0
100
AcDbSpline
70
4
71
3
72
28
73
24
40
0
40
0
40
0
40
0
40
0.125000000000018
40
0.125000000000018
40
0.250000000000035
40
0.250000000000035
40
0.375000000000053
40
0.375000000000053
40
0.437500000000048
40
0.437500000000048
40
0.500000000000042
40
0.500000000000042
40
0.562500000000037
40
0.562500000000037
40
0.625000000000031
40
0.625000000000031
40
0.687500000000026
40
0.687500000000026
40
0.75000000000002
40
0.75000000000002
40
0.87500000000001
40
0.87500000000001
40
1
40
1
40
1
40
1
41
1
10
257.702992824918
20
-13.0889722776959
30
0
41
1
10
257.708358116655
20
-13.1230404162239
30
0
41
1
10
257.712338892379
20
-13.1583633739844
30
0
41
1
10
257.716144686466
20
-13.2327276931259
30
0
41
1
10
257.716051219822
20
-13.2716975784568
30
0
41
1
10
257.708501655842
20
-13.3561601411724
30
0
41
1
10
257.701265774403
20
-13.4011316026268
30
0
41
1
10
257.678850833962
20
-13.4747011066675
30
0
41
1
10
257.669143898085
20
-13.5008267335968
30
0
41
1
10
257.644185554885
20
-13.5534007714193
30
0
41
1
10
257.62860970898
20
-13.5802690155436
30
0
41
1
10
257.592864592395
20
-13.6298472922504
30
0
41
1
10
257.572653941013
20
-13.652631286331
30
0
41
1
10
257.53142251957
20
-13.6914405167134
30
0
41
1
10
257.51099460536
20
-13.7071904898258
30
0
41
1
10
257.470651386981
20
-13.7340504376411
30
0
41
1
10
257.450927695133
20
-13.7449862128222
30
0
41
1
10
257.412893265165
20
-13.7633031261016
30
0
41
1
10
257.394414102505
20
-13.7707666966087
30
0
41
1
10
257.340096187205
20
-13.7896553307038
30
0
41
1
10
257.305662108206
20
-13.7975336053584
30
0
41
1
10
257.239668500422
20
-13.8079145736419
30
0
41
1
10
257.20795177362
20
-13.8103809346537
30
0
41
1
10
257.177096277963
20
-13.8110435525021
30
0
0
SPLINE
5
262
100
AcDbEntity
8
1
62
256
6
ByLayer
370
-1
48
1
60
0
100
AcDbSpline
70
4
71
3
72
10
73
6
40
0
40
0
40
0
40
0
40
0.5
40
0.5
40
1
40
1
40
1
40
1
41
1
10
256.808568790979
20
-0.509604163096157
30
0
41
1
10
256.817858622076
20
-0.531550775142478
30
0
41
1
10
256.82593738564
20
-0.556391270316425
30
0
41
1
10
256.836212532277
20
-0.60669256681021
30
0
41
1
10
256.838325764063
20
-0.631878770943615
30
0
41
1
10
256.838037247963
20
-0.654093428577426
30
0
0
SPLINE
5
263
100
AcDbEntity
8
1
62
256
6
ByLayer
370
-1
48
1
60
0
100
AcDbSpline
70
4
71
3
72
14
73
10
40
0
40
0
40
0
40
0
40
0.25
40
0.25
40
0.5
40
0.5
40
0.75
40
0.75
40
1
40
1
40
1
40
1
41
1
10
257.872129498651
20
-13.3100259212909
30
0
41
1
10
257.869361540541
20
-13.3890967878171
30
0
41
1
10
257.85479424022
20
-13.4673550221102
30
0
41
1
10
257.803272984669
20
-13.6166226903381
30
0
41
1
10
257.76627239659
20
-13.687497086249
30
0
41
1
10
257.673345193717
20
-13.8150764968553
30
0
41
1
10
257.617131082972
20
-13.8721318745894
30
0
41
1
10
257.490870402512
20
-13.9670233052364
30
0
41
1
10
257.420762101302
20
-14.0050368825832
30
0
41
1
10
257.346232951696
20
-14.0320971960972
30
0
0
SPLINE
5
264
100
AcDbEntity
8
1
62
256
6
ByLayer
370
-1
48
1
60
0
100
AcDbSpline
70
4
71
3
72
20
73
16
40
0
40
0
40
0
40
0
40
0.25
40
0.25
40
0.5
40
0.5
40
0.625
40
0.625
40
0.75
40
0.75
40
0.875
40
0.875
40
0.9375
40
0.9375
40
1
40
1
40
1
40
1
41
1
10
257.177096277963
20
-13.811043552503
30
0
41
1
10
257.117350057551
20
-13.8123265949945
30
0
41
1
10
257.055142995358
20
-13.8147826715695
30
0
41
1
10
256.922428533064
20
-13.8236514298717
30
0
41
1
10
256.85251664791
20
-13.8299701889084
30
0
41
1
10
256.737797376911
20
-13.844843136337
30
0
41
1
10
256.697875223387
20
-13.8507159917307
30
0
41
1
10
256.61286415539
20
-13.8652723668596
30
0
41
1
10
256.568148672264
20
-13.8738905365862
30
0
41
1
10
256.472858300059
20
-13.8951280240313
30
0
41
1
10
256.421833012128
20
-13.9078906651507
30
0
41
1
10
256.342432596587
20
-13.9306790529645
30
0
41
1
10
256.31536138749
20
-13.9389113471217
30
0
41
1
10
256.259762410167
20
-13.956909035646
30
0
41
1
10
256.231221123583
20
-13.966698190811
30
0
41
1
10
256.203249860076
20
-13.9768540984511
30
0
0
SPLINE
5
265
100
AcDbEntity
8
SK1
62
256
6
ByLayer
370
-1
48
1
60
0
100
AcDbSpline
70
4
71
3
72
8
73
4
40
0
40
0
40
0
40
0
40
1
40
1
40
1
40
1
41
1
10
-79
20
-10.6704826507519
30
0
41
1
10
-79.3659007463117
20
-9.81334662849696
30
0
41
1
10
-79.7018274913942
20
-8.94238761528712
30
0
41
1
10
-80
20
-8.05401763097143
30
0
0
SPLINE
5
266
100
AcDbEntity
8
SK1
62
256
6
ByLayer
370
-1
48
1
60
0
100
AcDbSpline
70
4
71
3
72
28
73
24
40
0
40
0
40
0
40
0
40
0.0625
40
0.0625
40
0.125
40
0.125
40
0.1875
40
0.1875
40
0.25
40
0.25
40
0.3125
40
0.3125
40
0.375
40
0.375
40
0.4375
40
0.4375
40
0.5
40
0.5
40
0.625
40
0.625
40
0.75
40
0.75
40
1
40
1
40
1
40
1
41
1
10
-77.6338144512151
20
-9.8067508950777
30
0
41
1
10
-77.6543579611202
20
-9.78895998994784
30
0
41
1
10
-77.6759742207358
20
-9.77252139976983
30
0
41
1
10
-77.722047757932
20
-9.74322562431684
30
0
41
1
10
-77.7466515021883
20
-9.73034655008655
30
0
41
1
10
-77.7978350200696
20
-9.71031034137371
30
0
41
1
10
-77.8240756138441
20
-9.70323109189889
30
0
41
1
10
-77.8780393772639
20
-9.6957878232482
30
0
41
1
10
-77.9058291361522
20
-9.69556645816945
30
0
41
1
10
-77.9596871329427
20
-9.70210490207472
30
0
41
1
10
-77.9864847496244
20
-9.70890522195111
30
0
41
1
10
-78.037569321387
20
-9.72811272586878
30
0
41
1
10
-78.0617557835843
20
-9.74036263557792
30
0
41
1
10
-78.1080225163778
20
-9.76897310396529
30
0
41
1
10
-78.1301520272264
20
-9.78542501141285
30
0
41
1
10
-78.1715088706165
20
-9.8205825368494
30
0
41
1
10
-78.1909321556219
20
-9.83940079115041
30
0
41
1
10
-78.2463112147692
20
-9.89871031654829
30
0
41
1
10
-78.2795961287113
20
-9.94232448617103
30
0
41
1
10
-78.3396100313876
20
-10.0324563718159
30
0
41
1
10
-78.366506987321
20
-10.0791581867371
30
0
41
1
10
-78.4406180649772
20
-10.2227246318282
30
0
41
1
10
-78.4815513469768
20
-10.3236034091323
30
0
41
1
10
-78.516222729729
20
-10.4258292340309
30
0
0
SPLINE
5
267
100
AcDbEntity
8
SK1
62
256
6
ByLayer
370
-1
48
1
60
0
100
AcDbSpline
70
4
71
3
72
8
73
4
40
0
40
0
40
0
40
0
40
1
40
1
40
1
40
1
41
1
10
-77.6338144512152
20
9.8067508950781
30
0
41
1
10
-77.293445384311
20
10.1015142440094
30
0
41
1
10
-76.9485917454248
20
10.3890222754875
30
0
41
1
10
-76.6
20
10.6704826507522
30
0
0
SPLINE
5
268
100
AcDbEntity
8
SK1
62
256
6
ByLayer
370
-1
48
1
60
0
100
AcDbSpline
70
4
71
3
72
8
73
4
40
0
40
0
40
0
40
0
40
1
40
1
40
1
40
1
41
1
10
-80
20
8.0540176309716
30
0
41
1
10
-79.7018274913942
20
8.94238761528729
30
0
41
1
10
-79.3659007463117
20
9.81334662849713
30
0
41
1
10
-79
20
10.6704826507521
30
0
0
SPLINE
5
269
100
AcDbEntity
8
SK1
62
256
6
ByLayer
370
-1
48
1
60
0
100
AcDbSpline
70
4
71
3
72
8
73
4
40
0
40
0
40
0
40
0
40
1
40
1
40
1
40
1
41
1
10
-78.5162227297291
20
-10.4258292340309
30
0
41
1
10
-78.5439189315756
20
-10.5074892906994
30
0
41
1
10
-78.5718462461953
20
-10.5890396904415
30
0
41
1
10
-78.6
20
-10.6704826507519
30
0
0
SPLINE
5
26A
100
AcDbEntity
8
SK1
62
256
6
ByLayer
370
-1
48
1
60
0
100
AcDbSpline
70
4
71
3
72
20
73
16
40
0
40
0
40
0
40
0
40
0.25
40
0.25
40
0.375
40
0.375
40
0.5
40
0.5
40
0.625
40
0.625
40
0.75
40
0.75
40
0.875
40
0.875
40
1
40
1
40
1
40
1
41
1
10
-78.516222729729
20
10.4258292340311
30
0
41
1
10
-78.481648532285
20
10.3238899523136
30
0
41
1
10
-78.4407178893849
20
10.222863184314
30
0
41
1
10
-78.366182383801
20
10.0785569359928
30
0
41
1
10
-78.3389517594226
20
10.0313738170425
30
0
41
1
10
-78.2789242561791
20
9.9414114685452
30
0
41
1
10
-78.2462023973559
20
9.89858010737444
30
0
41
1
10
-78.1723924001263
20
9.81955890101548
30
0
41
1
10
-78.1310509912521
20
9.78321524627549
30
0
41
1
10
-78.0387498131119
20
9.72613440999527
30
0
41
1
10
-77.987439503438
20
9.70551112784312
30
0
41
1
10
-77.8785037156704
20
9.69221220969743
30
0
41
1
10
-77.8229596875428
20
9.70044596670573
30
0
41
1
10
-77.7211757832574
20
9.74034844732952
30
0
41
1
10
-77.6748225543307
20
9.77123742754159
30
0
41
1
10
-77.6338144512148
20
9.80675089507758
30
0
0
SPLINE
5
26B
100
AcDbEntity
8
SK1
62
256
6
ByLayer
370
-1
48
1
60
0
100
AcDbSpline
70
4
71
3
72
8
73
4
40
0
40
0
40
0
40
0
40
1
40
1
40
1
40
1
41
1
10
-78.6
20
10.6704826507521
30
0
41
1
10
-78.5718462461953
20
10.5890396904417
30
0
41
1
10
-78.5439189315755
20
10.5074892906996
30
0
41
1
10
-78.516222729729
20
10.4258292340311
30
0
0
SPLINE
5
26C
100
AcDbEntity
8
SK1
62
256
6
ByLayer
370
-1
48
1
60
0
100
AcDbSpline
70
4
71
3
72
8
73
4
40
0
40
0
40
0
40
0
40
1
40
1
40
1
40
1
41
1
10
-76.6000000000001
20
-10.670482650752
30
0
41
1
10
-76.9485917454248
20
-10.3890222754873
30
0
41
1
10
-77.293445384311
20
-10.1015142440092
30
0
41
1
10
-77.6338144512152
20
-9.80675089507795
30
0
0
SPLINE
5
26D
100
AcDbEntity
8
SK1
62
256
6
ByLayer
370
-1
48
1
60
0
100
AcDbSpline
70
4
71
3
72
74
73
70
40
0
40
0
40
0
40
0
40
0.0078125
40
0.0078125
40
0.015625
40
0.015625
40
0.0234375000000001
40
0.0234375000000001
40
0.0312500000000001
40
0.0312500000000001
40
0.0468750000000002
40
0.0468750000000002
40
0.0625000000000004
40
0.0625000000000004
40
0.0781250000000005
40
0.0781250000000005
40
0.0937500000000007
40
0.0937500000000007
40
0.125000000000001
40
0.125000000000001
40
0.156250000000001
40
0.156250000000001
40
0.187500000000001
40
0.187500000000001
40
0.250000000000001
40
0.250000000000001
40
0.3125
40
0.3125
40
0.375
40
0.375
40
0.4375
40
0.4375
40
0.5
40
0.5
40
0.5625
40
0.5625
40
0.625
40
0.625
40
0.6875
40
0.6875
40
0.71875
40
0.71875
40
0.75
40
0.75
40
0.8125
40
0.8125
40
0.84375
40
0.84375
40
0.875
40
0.875
40
0.90625
40
0.90625
40
0.921874999999999
40
0.921874999999999
40
0.937499999999999
40
0.937499999999999
40
0.953124999999999
40
0.953124999999999
40
0.960937499999999
40
0.960937499999999
40
0.96875
40
0.96875
40
0.9765625
40
0.9765625
40
0.984375
40
0.984375
40
0.9921875
40
0.9921875
40
1
40
1
40
1
40
1
41
1
10
-6.50000000000001
20
-10.670482650752
30
0
41
1
10
-6.43582469560522
20
-10.670482650752
30
0
41
1
10
-6.37081264331927
20
-10.6660189653216
30
0
41
1
10
-6.24392038992225
20
-10.6486969876231
30
0
41
1
10
-6.18157921432719
20
-10.6358875710277
30
0
41
1
10
-6.05894945950165
20
-10.6025434279042
30
0
41
1
10
-5.99828531584176
20
-10.5818434566541
30
0
41
1
10
-5.88083692317713
20
-10.5339153969847
30
0
41
1
10
-5.82427185750655
20
-10.5068475724891
30
0
41
1
10
-5.66013950429974
20
-10.4175987193405
30
0
41
1
10
-5.55767796670693
20
-10.3470965653228
30
0
41
1
10
-5.36621601012163
20
-10.1903902962456
30
0
41
1
10
-5.2788035718618
20
-10.1056422220725
30
0
41
1
10
-5.11622750836629
20
-9.92648705790921
30
0
41
1
10
-5.04111152798338
20
-9.8320448969433
30
0
41
1
10
-4.90065886276919
20
-9.63522912882672
30
0
41
1
10
-4.83542500373021
20
-9.53286259528852
30
0
41
1
10
-4.65471203118304
20
-9.22109644529974
30
0
41
1
10
-4.55256385540467
20
-9.0051958714954
30
0
41
1
10
-4.37262453777109
20
-8.56162021481845
30
0
41
1
10
-4.29501129112501
20
-8.33388009499919
30
0
41
1
10
-4.15784189524744
20
-7.86879502034912
30
0
41
1
10
-4.09907903740439
20
-7.63402615605699
30
0
41
1
10
-3.9443525266111
20
-6.92518666874861
30
0
41
1
10
-3.86941590197452
20
-6.4460789539506
30
0
41
1
10
-3.75181901250799
20
-5.47739344626228
30
0
41
1
10
-3.70948261237383
20
-4.98778106711202
30
0
41
1
10
-3.64452511166275
20
-3.99941572019102
30
0
41
1
10
-3.62198013028762
20
-3.50007827001653
30
0
41
1
10
-3.58892377607326
20
-2.4954364308274
30
0
41
1
10
-3.57852544151932
20
-1.9938019826163
30
0
41
1
10
-3.56516453260046
20
-0.991813220234803
30
0
41
1
10
-3.56222270481227
20
-0.49145923809175
30
0
41
1
10
-3.56229115849558
20
0.508003221132356
30
0
41
1
10
-3.56530396713819
20
1.0071116342211
30
0
41
1
10
-3.57872854634992
20
2.00406630022576
30
0
41
1
10
-3.58912588826433
20
2.50191273366485
30
0
41
1
10
-3.62186596237338
20
3.49627385340571
30
0
41
1
10
-3.64416085648715
20
3.99278917523472
30
0
41
1
10
-3.69293036786834
20
4.73646313788097
30
0
41
1
10
-3.71182176597957
20
4.98464599195373
30
0
41
1
10
-3.75616257191398
20
5.47799266038496
30
0
41
1
10
-3.78158287580702
20
5.72301013604627
30
0
41
1
10
-3.87032370623447
20
6.45266121988658
30
0
41
1
10
-3.94563979261514
20
6.93197513305708
30
0
41
1
10
-4.09993208028902
20
7.63748203830275
30
0
41
1
10
-4.15833437396446
20
7.87039260799332
30
0
41
1
10
-4.29410155537131
20
8.33086753859507
30
0
41
1
10
-4.37155898125482
20
8.5589040944626
30
0
41
1
10
-4.55298151088468
20
9.00631450635206
30
0
41
1
10
-4.65571371792436
20
9.22299836195256
30
0
41
1
10
-4.83609280283839
20
9.53392693237404
30
0
41
1
10
-4.90064241103279
20
9.63520102478984
30
0
41
1
10
-5.04103051650715
20
9.83193642265834
30
0
41
1
10
-5.11703382242625
20
9.92748901775266
30
0
41
1
10
-5.28035565179317
20
10.1072375093538
30
0
41
1
10
-5.36794028451175
20
10.1919346295056
30
0
41
1
10
-5.5111141918655
20
10.3089173634913
30
0
41
1
10
-5.56098716244992
20
10.346308238641
30
0
41
1
10
-5.66357783518522
20
10.4159186649603
30
0
41
1
10
-5.71645596113862
20
10.4482905987006
30
0
41
1
10
-5.8257765875092
20
10.5075946315751
30
0
41
1
10
-5.88221687926884
20
10.5345300782901
30
0
41
1
10
-5.99920669180636
20
10.5821668732083
30
0
41
1
10
-6.05997126142914
20
10.6028655288242
30
0
41
1
10
-6.18253580232603
20
10.6361026919536
30
0
41
1
10
-6.24472496658315
20
10.6488298146219
30
0
41
1
10
-6.37103256116302
20
10.6660258041167
30
0
41
1
10
-6.43568437547604
20
10.6704826507524
30
0
41
1
10
-6.50000000000006
20
10.6704826507524
30
0
0
LINE
5
45
100
AcDbEntity
8
80
62
256
6
ByLayer
370
-1
48
1
60
0
100
AcDbLine
10
0
20
0
30
0
11
-7
21
0
31
0
39
0
210
0
220
0
230
1
0
LINE
5
46
100
AcDbEntity
8
81
62
256
6
ByLayer
370
-1
48
1
60
0
100
AcDbLine
10
258
20
0
30
0
11
265
21
0
31
0
39
0
210
0
220
0
230
1
0
LINE
5
47
100
AcDbEntity
8
1
62
256
6
ByLayer
370
-1
48
1
60
0
100
AcDbLine
10
0.2
20
31.25
30
0
11
0
21
31.05
31
0
39
0
210
0
220
0
230
1
0
LINE
5
49
100
AcDbEntity
8
1
62
256
6
ByLayer
370
-1
48
1
60
0
100
AcDbLine
10
0
20
-31.05
30
0
11
0.2
21
-31.25
31
0
39
0
210
0
220
0
230
1
0
LINE
5
4A
100
AcDbEntity
8
1
62
256
6
ByLayer
370
-1
48
1
60
0
100
AcDbLine
10
5
20
31.25
30
0
11
0.2
21
31.25
31
0
39
0
210
0
220
0
230
1
0
LINE
5
4B
100
AcDbEntity
8
1
62
256
6
ByLayer
370
-1
48
1
60
0
100
AcDbLine
10
0.2
20
-31.25
30
0
11
5
21
-31.25
31
0
39
0
210
0
220
0
230
1
0
LINE
5
4C
100
AcDbEntity
8
1
62
256
6
ByLayer
370
-1
48
1
60
0
100
AcDbLine
10
122.279106
20
26.218335
30
0
11
42
21
26.595
31
0
39
0
210
0
220
0
230
1
0
LINE
5
4D
100
AcDbEntity
8
1
62
256
6
ByLayer
370
-1
48
1
60
0
100
AcDbLine
10
42
20
26.595
30
0
11
37
21
26.595
31
0
39
0
210
0
220
0
230
1
0
LINE
5
4E
100
AcDbEntity
8
1
62
256
6
ByLayer
370
-1
48
1
60
0
100
AcDbLine
10
37
20
-26.595
30
0
11
42
21
-26.595
31
0
39
0
210
0
220
0
230
1
0
LINE
5
4F
100
AcDbEntity
8
1
62
256
6
ByLayer
370
-1
48
1
60
0
100
AcDbLine
10
42
20
-26.595
30
0
11
121.238435
21
-26.223218
31
0
39
0
210
0
220
0
230
1
0
LINE
5
50
100
AcDbEntity
8
SK1
62
256
6
ByLayer
370
-1
48
1
60
0
100
AcDbLine
10
-2
20
-24.996
30
0
11
-1.552821
21
-24.787477
31
0
39
0
210
0
220
0
230
1
0
LINE
5
52
100
AcDbEntity
8
SK1
62
256
6
ByLayer
370
-1
48
1
60
0
100
AcDbLine
10
-1.552821
20
24.787477
30
0
11
-2
21
24.996
31
0
39
0
210
0
220
0
230
1
0
LINE
5
53
100
AcDbEntity
8
SK1
62
256
6
ByLayer
370
-1
48
1
60
0
100
AcDbLine
10
-2
20
24.996
30
0
11
-76.6
21
24.996
31
0
39
0
210
0
220
0
230
1
0
LINE
5
54
100
AcDbEntity
8
SK1
62
256
6
ByLayer
370
-1
48
1
60
0
100
AcDbLine
10
-76.6
20
-24.996
30
0
11
-2
21
-24.996
31
0
39
0
210
0
220
0
230
1
0
LINE
5
55
100
AcDbEntity
8
SK1
62
256
6
ByLayer
370
-1
48
1
60
0
100
AcDbLine
10
-0.15
20
24.75
30
0
11
-1.383773
21
24.75
31
0
39
0
210
0
220
0
230
1
0
LINE
5
56
100
AcDbEntity
8
SK1
62
256
6
ByLayer
370
-1
48
1
60
0
100
AcDbLine
10
-1.383773
20
-24.75
30
0
11
-0.15
21
-24.75
31
0
39
0
210
0
220
0
230
1
0
LINE
5
57
100
AcDbEntity
8
SK1
62
256
6
ByLayer
370
-1
48
1
60
0
100
AcDbLine
10
-79
20
24.996
30
0
11
-80
21
23.996
31
0
39
0
210
0
220
0
230
1
0
LINE
5
58
100
AcDbEntity
8
SK1
62
256
6
ByLayer
370
-1
48
1
60
0
100
AcDbLine
10
-80
20
-23.996
30
0
11
-79
21
-24.996
31
0
39
0
210
0
220
0
230
1
0
LINE
5
59
100
AcDbEntity
8
SK1
62
256
6
ByLayer
370
-1
48
1
60
0
100
AcDbLine
10
-76.6
20
24.996
30
0
11
-77.633814
21
24.639667
31
0
39
0
210
0
220
0
230
1
0
LINE
5
5A
100
AcDbEntity
8
SK1
62
256
6
ByLayer
370
-1
48
1
60
0
100
AcDbLine
10
-77.633814
20
-24.639667
30
0
11
-76.6
21
-24.996
31
0
39
0
210
0
220
0
230
1
0
LINE
5
5B
100
AcDbEntity
8
SK1
62
256
6
ByLayer
370
-1
48
1
60
0
100
AcDbLine
10
-78.6
20
24.996
30
0
11
-79
21
24.996
31
0
39
0
210
0
220
0
230
1
0
LINE
5
5C
100
AcDbEntity
8
SK1
62
256
6
ByLayer
370
-1
48
1
60
0
100
AcDbLine
10
-79
20
-24.996
30
0
11
-78.6
21
-24.996
31
0
39
0
210
0
220
0
230
1
0
LINE
5
5D
100
AcDbEntity
8
SK1
62
256
6
ByLayer
370
-1
48
1
60
0
100
AcDbLine
10
-78.6
20
-24.996
30
0
11
-78.516223
21
-24.892544
31
0
39
0
210
0
220
0
230
1
0
LINE
5
5E
100
AcDbEntity
8
SK1
62
256
6
ByLayer
370
-1
48
1
60
0
100
AcDbLine
10
-78.516223
20
24.892544
30
0
11
-78.6
21
24.996
31
0
39
0
210
0
220
0
230
1
0
LINE
5
5F
100
AcDbEntity
8
SK4
62
256
6
ByLayer
370
-1
48
0.05
60
0
100
AcDbLine
10
258
20
0
30
0
11
-80
21
0
31
0
39
0
210
0
220
0
230
1
0
LINE
5
61
100
AcDbEntity
8
4
62
256
6
ByLayer
370
-1
48
0.05
60
0
100
AcDbLine
10
258
20
0
30
0
11
0
21
0
31
0
39
0
210
0
220
0
230
1
0
LINE
5
63
100
AcDbEntity
8
1
62
256
6
ByLayer
370
-1
48
1
60
0
100
AcDbLine
10
238.714758
20
16.758272
30
0
11
238.972031
21
9.36278
31
0
39
0
210
0
220
0
230
1
0
LINE
5
64
100
AcDbEntity
8
1
62
256
6
ByLayer
370
-1
48
1
60
0
100
AcDbLine
10
255.687571
20
8.220949
30
0
11
256.014241
21
8.224158
31
0
39
0
210
0
220
0
230
1
0
LINE
5
65
100
AcDbEntity
8
1
62
256
6
ByLayer
370
-1
48
1
60
0
100
AcDbLine
10
37
20
26.595
30
0
11
37
21
14.658225
31
0
39
0
210
0
220
0
230
1
0
LINE
5
66
100
AcDbEntity
8
1
62
256
6
ByLayer
370
-1
48
1
60
0
100
AcDbLine
10
42
20
-26.595
30
0
11
42
21
-17.825442
31
0
39
0
210
0
220
0
230
1
0
LINE
5
67
100
AcDbEntity
8
1
62
256
6
ByLayer
370
-1
48
1
60
0
100
AcDbLine
10
234.805143
20
26.076341
30
0
11
234.805143
21
16.2
31
0
39
0
210
0
220
0
230
1
0
LINE
5
68
100
AcDbEntity
8
1
62
256
6
ByLayer
370
-1
48
1
60
0
100
AcDbLine
10
256.258969
20
-12.866383
30
0
11
255.310791
21
-12.376535
31
0
39
0
210
0
220
0
230
1
0
LINE
5
69
100
AcDbEntity
8
1
62
256
6
ByLayer
370
-1
48
1
60
0
100
AcDbLine
10
238.527537
20
9.36278
30
0
11
238.972031
21
9.36278
31
0
39
0
210
0
220
0
230
1
0
LINE
5
6A
100
AcDbEntity
8
1
62
256
6
ByLayer
370
-1
48
1
60
0
100
AcDbLine
10
234.720712
20
16.2
30
0
11
234.805143
21
16.2
31
0
39
0
210
0
220
0
230
1
0
LINE
5
6B
100
AcDbEntity
8
1
62
256
6
ByLayer
370
-1
48
1
60
0
100
AcDbLine
10
253.031036
20
2.053738
30
0
11
253.229769
21
2.576922
31
0
39
0
210
0
220
0
230
1
0
LINE
5
6C
100
AcDbEntity
8
1
62
256
6
ByLayer
370
-1
48
1
60
0
100
AcDbLine
10
238.675651
20
18.075693
30
0
11
238.690947
21
18.075693
31
0
39
0
210
0
220
0
230
1
0
LINE
5
6D
100
AcDbEntity
8
1
62
256
6
ByLayer
370
-1
48
1
60
0
100
AcDbLine
10
234.720712
20
26.075661
30
0
11
234.720712
21
16.2
31
0
39
0
210
0
220
0
230
1
0
LINE
5
6E
100
AcDbEntity
8
1
62
256
6
ByLayer
370
-1
48
1
60
0
100
AcDbLine
10
0
20
31.05
30
0
11
0
21
-31.05
31
0
39
0
210
0
220
0
230
1
0
LINE
5
6F
100
AcDbEntity
8
1
62
256
6
ByLayer
370
-1
48
1
60
0
100
AcDbLine
10
232.163093
20
10.455883
30
0
11
226.659515
21
12.915594
31
0
39
0
210
0
220
0
230
1
0
LINE
5
70
100
AcDbEntity
8
1
62
256
6
ByLayer
370
-1
48
1
60
0
100
AcDbLine
10
238.270264
20
16.758272
30
0
11
238.527537
21
9.36278
31
0
39
0
210
0
220
0
230
1
0
LINE
5
71
100
AcDbEntity
8
1
62
256
6
ByLayer
370
-1
48
1
60
0
100
AcDbLine
10
256.225153
20
-14.403398
30
0
11
256.868319
21
-14.525633
31
0
39
0
210
0
220
0
230
1
0
LINE
5
72
100
AcDbEntity
8
1
62
256
6
ByLayer
370
-1
48
1
60
0
100
AcDbLine
10
256.258969
20
-12.866383
30
0
11
256.202144
21
-13.506679
31
0
39
0
210
0
220
0
230
1
0
LINE
5
73
100
AcDbEntity
8
1
62
256
6
ByLayer
370
-1
48
1
60
0
100
AcDbLine
10
238.435652
20
26.081984
30
0
11
238.690947
21
18.075693
31
0
39
0
210
0
220
0
230
1
0
LINE
5
74
100
AcDbEntity
8
1
62
256
6
ByLayer
370
-1
48
1
60
0
100
AcDbLine
10
255.729268
20
2.778256
30
0
11
255.760815
21
2.858865
31
0
39
0
210
0
220
0
230
1
0
LINE
5
75
100
AcDbEntity
8
1
62
256
6
ByLayer
370
-1
48
1
60
0
100
AcDbLine
10
255.84511
20
-26.055044
30
0
11
256.868319
21
-14.525633
31
0
39
0
210
0
220
0
230
1
0
LINE
5
76
100
AcDbEntity
8
1
62
256
6
ByLayer
370
-1
48
1
60
0
100
AcDbLine
10
238.957328
20
8.014793
30
0
11
239.008475
21
8.014793
31
0
39
0
210
0
220
0
230
1
0
LINE
5
77
100
AcDbEntity
8
1
62
256
6
ByLayer
370
-1
48
1
60
0
100
AcDbLine
10
255.53243
20
2.785113
30
0
11
255.729268
21
2.778256
31
0
39
0
210
0
220
0
230
1
0
LINE
5
78
100
AcDbEntity
8
1
62
256
6
ByLayer
370
-1
48
1
60
0
100
AcDbLine
10
255.509518
20
1.399157
30
0
11
253.229769
21
2.576922
31
0
39
0
210
0
220
0
230
1
0
LINE
5
79
100
AcDbEntity
8
1
62
256
6
ByLayer
370
-1
48
1
60
0
100
AcDbLine
10
237.316139
20
-26.055044
30
0
11
255.84511
21
-26.055044
31
0
39
0
210
0
220
0
230
1
0
LINE
5
7A
100
AcDbEntity
8
1
62
256
6
ByLayer
370
-1
48
1
60
0
100
AcDbLine
10
234.607972
20
16.101077
30
0
11
212.829767
21
19.377057
31
0
39
0
210
0
220
0
230
1
0
LINE
5
7B
100
AcDbEntity
8
1
62
256
6
ByLayer
370
-1
48
1
60
0
100
AcDbLine
10
255.584188
20
2.957701
30
0
11
255.597813
21
2.957227
31
0
39
0
210
0
220
0
230
1
0
LINE
5
7C
100
AcDbEntity
8
1
62
256
6
ByLayer
370
-1
48
1
60
0
100
AcDbLine
10
255.760815
20
2.858865
30
0
11
256.474606
21
8.46199
31
0
39
0
210
0
220
0
230
1
0
LINE
5
7D
100
AcDbEntity
8
1
62
256
6
ByLayer
370
-1
48
1
60
0
100
AcDbLine
10
238.892997
20
18.268219
30
0
11
238.922697
21
18.268219
31
0
39
0
210
0
220
0
230
1
0
LINE
5
7E
100
AcDbEntity
8
1
62
256
6
ByLayer
370
-1
48
1
60
0
100
AcDbLine
10
255.509518
20
1.399157
30
0
11
256.258969
21
-12.866383
31
0
39
0
210
0
220
0
230
1
0
LINE
5
7F
100
AcDbEntity
8
1
62
256
6
ByLayer
370
-1
48
1
60
0
100
AcDbLine
10
254.876329
20
-12.152083
30
0
11
254.200394
21
-11.802881
31
0
39
0
210
0
220
0
230
1
0
LINE
5
80
100
AcDbEntity
8
1
62
256
6
ByLayer
370
-1
48
1
60
0
100
AcDbLine
10
147.5
20
25.185192
30
0
11
147.5
21
-14.757599
31
0
39
0
210
0
220
0
230
1
0
LINE
5
81
100
AcDbEntity
8
1
62
256
6
ByLayer
370
-1
48
1
60
0
100
AcDbLine
10
5
20
31.25
30
0
11
5
21
-31.25
31
0
39
0
210
0
220
0
230
1
0
LINE
5
82
100
AcDbEntity
8
1
62
256
6
ByLayer
370
-1
48
1
60
0
100
AcDbLine
10
37
20
-26.595
30
0
11
37
21
-16.747839
31
0
39
0
210
0
220
0
230
1
0
LINE
5
83
100
AcDbEntity
8
1
62
256
6
ByLayer
370
-1
48
1
60
0
100
AcDbLine
10
228.435997
20
11.214761
30
0
11
231.769218
21
9.725047
31
0
39
0
210
0
220
0
230
1
0
LINE
5
84
100
AcDbEntity
8
1
62
256
6
ByLayer
370
-1
48
1
60
0
100
AcDbLine
10
255.597813
20
2.957227
30
0
11
255.760815
21
2.858865
31
0
39
0
210
0
220
0
230
1
0
LINE
5
85
100
AcDbEntity
8
1
62
256
6
ByLayer
370
-1
48
1
60
0
100
AcDbLine
10
238.675651
20
18.075693
30
0
11
238.420167
21
26.087896
31
0
39
0
210
0
220
0
230
1
0
LINE
5
86
100
AcDbEntity
8
1
62
256
6
ByLayer
370
-1
48
1
60
0
100
AcDbLine
10
0.2
20
31.25
30
0
11
0.2
21
-31.25
31
0
39
0
210
0
220
0
230
1
0
LINE
5
87
100
AcDbEntity
8
1
62
256
6
ByLayer
370
-1
48
1
60
0
100
AcDbLine
10
42
20
26.595
30
0
11
42
21
13.230509
31
0
39
0
210
0
220
0
230
1
0
LINE
5
88
100
AcDbEntity
8
1
62
256
6
ByLayer
370
-1
48
1
60
0
100
AcDbLine
10
253.229769
20
2.576922
30
0
11
255.687571
21
8.220949
31
0
39
0
210
0
220
0
230
1
0
LINE
5
89
100
AcDbEntity
8
1
62
256
6
ByLayer
370
-1
48
1
60
0
100
AcDbLine
10
255.504532
20
2.217744
30
0
11
255.509518
21
1.399157
31
0
39
0
210
0
220
0
230
1
0
LINE
5
8A
100
AcDbEntity
8
1
62
256
6
ByLayer
370
-1
48
1
60
0
100
AcDbLine
10
231.769218
20
9.725047
30
0
11
231.692175
21
9.725047
31
0
39
0
210
0
220
0
230
1
0
LINE
5
8B
100
AcDbEntity
8
1
62
256
6
ByLayer
370
-1
48
1
60
0
100
AcDbLine
10
238.270264
20
16.758272
30
0
11
238.714758
21
16.758272
31
0
39
0
210
0
220
0
230
1
0
LINE
5
8C
100
AcDbEntity
8
1
62
256
6
ByLayer
370
-1
48
1
60
0
100
AcDbLine
10
241.614981
20
7.727647
30
0
11
255.687571
21
8.220949
31
0
39
0
210
0
220
0
230
1
0
LINE
5
8D
100
AcDbEntity
8
1
62
256
6
ByLayer
370
-1
48
1
60
0
100
AcDbLine
10
230.085009
20
4.78168
30
0
11
229.558455
21
2.970225
31
0
39
0
210
0
220
0
230
1
0
LINE
5
8E
100
AcDbEntity
8
1
62
256
6
ByLayer
370
-1
48
1
60
0
100
AcDbLine
10
238.727892
20
1.207948
30
0
11
240.512798
21
7.348397
31
0
39
0
210
0
220
0
230
1
0
LINE
5
8F
100
AcDbEntity
8
1
62
256
6
ByLayer
370
-1
48
1
60
0
100
AcDbLine
10
244.107589
20
14.280308
30
0
11
244.108004
21
14.279919
31
0
39
0
210
0
220
0
230
1
0
LINE
5
90
100
AcDbEntity
8
1
62
256
6
ByLayer
370
-1
48
1
60
0
100
AcDbLine
10
238.808204
20
24.402827
30
0
11
239.312321
21
9.91166
31
0
39
0
210
0
220
0
230
1
0
LINE
5
91
100
AcDbEntity
8
1
62
256
6
ByLayer
370
-1
48
1
60
0
100
AcDbLine
10
244.689636
20
21.126776
30
0
11
245.27028
21
20.583248
31
0
39
0
210
0
220
0
230
1
0
LINE
5
92
100
AcDbEntity
8
1
62
256
6
ByLayer
370
-1
48
1
60
0
100
AcDbLine
10
244.323647
20
22.306174
30
0
11
245.686075
21
21.030837
31
0
39
0
210
0
220
0
230
1
0
LINE
5
93
100
AcDbEntity
8
1
62
256
6
ByLayer
370
-1
48
1
60
0
100
AcDbLine
10
241.304478
20
8.791589
30
0
11
255.740502
21
9.297632
31
0
39
0
210
0
220
0
230
1
0
LINE
5
94
100
AcDbEntity
8
1
62
256
6
ByLayer
370
-1
48
1
60
0
100
AcDbLine
10
239.250037
20
8.858594
30
0
11
238.709407
21
24.399337
31
0
39
0
210
0
220
0
230
1
0
LINE
5
95
100
AcDbEntity
8
1
62
256
6
ByLayer
370
-1
48
1
60
0
100
AcDbLine
10
252.682479
20
12.986563
30
0
11
249.695715
21
12.881864
31
0
39
0
210
0
220
0
230
1
0
LINE
5
96
100
AcDbEntity
8
1
62
256
6
ByLayer
370
-1
48
1
60
0
100
AcDbLine
10
243.122463
20
21.01314
30
0
11
244.48489
21
19.737804
31
0
39
0
210
0
220
0
230
1
0
LINE
5
97
100
AcDbEntity
8
1
62
256
6
ByLayer
370
-1
48
1
60
0
100
AcDbLine
10
253.150313
20
13.303283
30
0
11
253.046013
21
16.301455
31
0
39
0
210
0
220
0
230
1
0
LINE
5
98
100
AcDbEntity
8
1
62
256
6
ByLayer
370
-1
48
1
60
0
100
AcDbLine
10
244.689636
20
21.126776
30
0
11
244.695579
21
21.104769
31
0
39
0
210
0
220
0
230
1
0
LINE
5
99
100
AcDbEntity
8
1
62
256
6
ByLayer
370
-1
48
1
60
0
100
AcDbLine
10
243.821532
20
22.002321
30
0
11
243.978681
21
21.420372
31
0
39
0
210
0
220
0
230
1
0
LINE
5
9A
100
AcDbEntity
8
1
62
256
6
ByLayer
370
-1
48
1
60
0
100
AcDbLine
10
240.542756
20
24.464646
30
0
11
241.046873
21
9.973479
31
0
39
0
210
0
220
0
230
1
0
LINE
5
9B
100
AcDbEntity
8
1
62
256
6
ByLayer
370
-1
48
1
60
0
100
AcDbLine
10
241.321512
20
8.030902
30
0
11
255.757536
21
8.536945
31
0
39
0
210
0
220
0
230
1
0
LINE
5
9C
100
AcDbEntity
8
1
62
256
6
ByLayer
370
-1
48
1
60
0
100
AcDbLine
10
252.772814
20
18.985921
30
0
11
252.668514
21
21.984094
31
0
39
0
210
0
220
0
230
1
0
LINE
5
9D
100
AcDbEntity
8
1
62
256
6
ByLayer
370
-1
48
1
60
0
100
AcDbLine
10
244.77405
20
14.100367
30
0
11
244.922679
21
13.961239
31
0
39
0
210
0
220
0
230
1
0
LINE
5
9E
100
AcDbEntity
8
1
62
256
6
ByLayer
370
-1
48
1
60
0
100
AcDbLine
10
257.631137
20
10.553811
30
0
11
257.12702
21
25.044978
31
0
39
0
210
0
220
0
230
1
0
LINE
5
9F
100
AcDbEntity
8
1
62
256
6
ByLayer
370
-1
48
1
60
0
100
AcDbLine
10
255.150667
20
25.126833
30
0
11
240.714643
21
24.62079
31
0
39
0
210
0
220
0
230
1
0
LINE
5
A0
100
AcDbEntity
8
1
62
256
6
ByLayer
370
-1
48
1
60
0
100
AcDbLine
10
239.575424
20
24.429391
30
0
11
240.079541
21
9.938224
31
0
39
0
210
0
220
0
230
1
0
LINE
5
A1
100
AcDbEntity
8
1
62
256
6
ByLayer
370
-1
48
1
60
0
100
AcDbLine
10
255.160933
20
25.554166
30
0
11
240.72491
21
25.048124
31
0
39
0
210
0
220
0
230
1
0
LINE
5
A2
100
AcDbEntity
8
1
62
256
6
ByLayer
370
-1
48
1
60
0
100
AcDbLine
10
240.57052
20
24.465646
30
0
11
241.074637
21
9.974479
31
0
39
0
210
0
220
0
230
1
0
LINE
5
A3
100
AcDbEntity
8
1
62
256
6
ByLayer
370
-1
48
1
60
0
100
AcDbLine
10
255.15372
20
26.16505
30
0
11
240.717696
21
25.659007
31
0
39
0
210
0
220
0
230
1
0
LINE
5
A4
100
AcDbEntity
8
1
62
256
6
ByLayer
370
-1
48
1
60
0
100
AcDbLine
10
244.32004
20
20.72892
30
0
11
244.342325
21
20.724504
31
0
39
0
210
0
220
0
230
1
0
LINE
5
A5
100
AcDbEntity
8
1
62
256
6
ByLayer
370
-1
48
1
60
0
100
AcDbLine
10
256.260177
20
10.505915
30
0
11
255.75606
21
24.997082
31
0
39
0
210
0
220
0
230
1
0
LINE
5
A6
100
AcDbEntity
8
1
62
256
6
ByLayer
370
-1
48
1
60
0
100
AcDbLine
10
255.838677
20
10.491993
30
0
11
255.33456
21
24.98316
31
0
39
0
210
0
220
0
230
1
0
LINE
5
A7
100
AcDbEntity
8
1
62
256
6
ByLayer
370
-1
48
1
60
0
100
AcDbLine
10
252.359408
20
22.273441
30
0
11
249.372644
21
22.168742
31
0
39
0
210
0
220
0
230
1
0
LINE
5
A8
100
AcDbEntity
8
1
62
256
6
ByLayer
370
-1
48
1
60
0
100
AcDbLine
10
241.325751
20
7.930963
30
0
11
256.807358
21
8.473658
31
0
39
0
210
0
220
0
230
1
0
LINE
5
A9
100
AcDbEntity
8
1
62
256
6
ByLayer
370
-1
48
1
60
0
100
AcDbLine
10
241.230975
20
9.801144
30
0
11
255.666999
21
10.307187
31
0
39
0
210
0
220
0
230
1
0
LINE
5
AA
100
AcDbEntity
8
1
62
256
6
ByLayer
370
-1
48
1
60
0
100
AcDbLine
10
256.659941
20
10.519495
30
0
11
256.155824
21
25.010662
31
0
39
0
210
0
220
0
230
1
0
LINE
5
AB
100
AcDbEntity
8
1
62
256
6
ByLayer
370
-1
48
1
60
0
100
AcDbLine
10
241.314901
20
8.437724
30
0
11
255.750924
21
8.943766
31
0
39
0
210
0
220
0
230
1
0
LINE
5
AC
100
AcDbEntity
8
1
62
256
6
ByLayer
370
-1
48
1
60
0
100
AcDbLine
10
256.882774
20
10.527247
30
0
11
256.378657
21
25.018414
31
0
39
0
210
0
220
0
230
1
0
LINE
5
AD
100
AcDbEntity
8
1
62
256
6
ByLayer
370
-1
48
1
60
0
100
AcDbLine
10
257.233405
20
10.539605
30
0
11
256.729288
21
25.030772
31
0
39
0
210
0
220
0
230
1
0
LINE
5
AE
100
AcDbEntity
8
1
62
256
6
ByLayer
370
-1
48
1
60
0
100
AcDbLine
10
244.77405
20
14.100367
30
0
11
244.908777
21
14.245395
31
0
39
0
210
0
220
0
230
1
0
LINE
5
AF
100
AcDbEntity
8
1
62
256
6
ByLayer
370
-1
48
1
60
0
100
AcDbLine
10
255.809337
20
10.490992
30
0
11
255.30522
21
24.982159
31
0
39
0
210
0
220
0
230
1
0
LINE
5
B0
100
AcDbEntity
8
1
62
256
6
ByLayer
370
-1
48
1
60
0
100
AcDbLine
10
239.79487
20
24.437143
30
0
11
240.298987
21
9.945976
31
0
39
0
210
0
220
0
230
1
0
LINE
5
B1
100
AcDbEntity
8
1
62
256
6
ByLayer
370
-1
48
1
60
0
100
AcDbLine
10
255.117829
20
26.925736
30
0
11
240.681805
21
26.419693
31
0
39
0
210
0
220
0
230
1
0
LINE
5
B2
100
AcDbEntity
8
1
62
256
6
ByLayer
370
-1
48
1
60
0
100
AcDbLine
10
239.221018
20
24.417034
30
0
11
239.725135
21
9.925867
31
0
39
0
210
0
220
0
230
1
0
LINE
5
B3
100
AcDbEntity
8
1
62
256
6
ByLayer
370
-1
48
1
60
0
100
AcDbLine
10
244.135313
20
13.86147
30
0
11
244.506884
21
13.513651
31
0
39
0
210
0
220
0
230
1
0
LINE
5
B4
100
AcDbEntity
8
1
62
256
6
ByLayer
370
-1
48
1
60
0
100
AcDbLine
10
239.633508
20
26.482981
30
0
11
255.115114
21
27.025675
31
0
39
0
210
0
220
0
230
1
0
LINE
5
B5
100
AcDbEntity
8
1
62
256
6
ByLayer
370
-1
48
1
60
0
100
AcDbLine
10
255.139522
20
26.518915
30
0
11
240.703498
21
26.012872
31
0
39
0
210
0
220
0
230
1
0
LINE
5
B6
100
AcDbEntity
8
1
62
256
6
ByLayer
370
-1
48
1
60
0
100
AcDbLine
10
241.295062
20
9.013573
30
0
11
255.731086
21
9.519615
31
0
39
0
210
0
220
0
230
1
0
LINE
5
B7
100
AcDbEntity
8
1
62
256
6
ByLayer
370
-1
48
1
60
0
100
AcDbLine
10
244.107589
20
14.280308
30
0
11
244.582262
21
14.791276
31
0
39
0
210
0
220
0
230
1
0
LINE
5
B8
100
AcDbEntity
8
1
62
256
6
ByLayer
370
-1
48
1
60
0
100
AcDbLine
10
243.389396
20
21.537141
30
0
11
243.978681
21
21.420372
31
0
39
0
210
0
220
0
230
1
0
LINE
5
B9
100
AcDbEntity
8
1
62
256
6
ByLayer
370
-1
48
1
60
0
100
AcDbLine
10
240.169945
20
24.450724
30
0
11
240.674062
21
9.959557
31
0
39
0
210
0
220
0
230
1
0
LINE
5
BA
100
AcDbEntity
8
1
62
256
6
ByLayer
370
-1
48
1
60
0
100
AcDbLine
10
252.349078
20
22.457652
30
0
11
249.362314
21
22.352953
31
0
39
0
210
0
220
0
230
1
0
LINE
5
BB
100
AcDbEntity
8
1
62
256
6
ByLayer
370
-1
48
1
60
0
100
AcDbLine
10
255.150458
20
25.155494
30
0
11
240.714434
21
24.649451
31
0
39
0
210
0
220
0
230
1
0
LINE
5
BC
100
AcDbEntity
8
1
62
256
6
ByLayer
370
-1
48
1
60
0
100
AcDbLine
10
244.32004
20
20.72892
30
0
11
244.900685
21
20.185392
31
0
39
0
210
0
220
0
230
1
0
LINE
5
BD
100
AcDbEntity
8
1
62
256
6
ByLayer
370
-1
48
1
60
0
100
AcDbLine
10
255.159749
20
25.943066
30
0
11
240.723725
21
25.437023
31
0
39
0
210
0
220
0
230
1
0
LINE
5
BE
100
AcDbEntity
8
1
62
256
6
ByLayer
370
-1
48
1
60
0
100
AcDbLine
10
241.22919
20
9.829806
30
0
11
255.665214
21
10.335848
31
0
39
0
210
0
220
0
230
1
0
LINE
5
BF
100
AcDbEntity
8
1
62
256
6
ByLayer
370
-1
48
1
60
0
100
AcDbLine
10
249.698202
20
12.697653
30
0
11
252.684965
21
12.802352
31
0
39
0
210
0
220
0
230
1
0
LINE
5
C0
100
AcDbEntity
8
1
62
256
6
ByLayer
370
-1
48
1
60
0
100
AcDbLine
10
252.866425
20
16.295022
30
0
11
252.970725
21
13.29685
31
0
39
0
210
0
220
0
230
1
0
LINE
5
C1
100
AcDbEntity
8
1
62
256
6
ByLayer
370
-1
48
1
60
0
100
AcDbLine
10
244.352988
20
14.058889
30
0
11
244.339392
21
14.071616
31
0
39
0
210
0
220
0
230
1
0
LINE
5
C2
100
AcDbEntity
8
1
62
256
6
ByLayer
370
-1
48
1
60
0
100
AcDbLine
10
252.952402
20
18.992354
30
0
11
252.848102
21
21.990526
31
0
39
0
210
0
220
0
230
1
0
LINE
5
C3
100
AcDbEntity
8
1
62
256
6
ByLayer
370
-1
48
1
60
0
100
AcDbLine
10
257.190829
20
26.098045
30
0
11
257.731458
21
10.557301
31
0
39
0
210
0
220
0
230
1
0
LINE
5
C4
100
AcDbEntity
8
1
62
256
6
ByLayer
370
-1
48
1
60
0
100
AcDbLine
10
241.269189
20
9.402472
30
0
11
255.705212
21
9.908515
31
0
39
0
210
0
220
0
230
1
0
LINE
5
C5
100
AcDbEntity
8
1
62
256
6
ByLayer
370
-1
48
1
60
0
100
AcDbLine
10
255.876326
20
2.294172
30
0
11
255.999211
21
2.364429
31
0
39
0
210
0
220
0
230
1
0
LINE
5
C6
100
AcDbEntity
8
1
62
256
6
ByLayer
370
-1
48
1
60
0
100
AcDbLine
10
256.730409
20
-9.264191
30
0
11
257.711145
21
-9.497162
31
0
39
0
210
0
220
0
230
1
0
LINE
5
C7
100
AcDbEntity
8
1
62
256
6
ByLayer
370
-1
48
1
60
0
100
AcDbLine
10
257.461752
20
-7.362821
30
0
11
257.114687
21
-0.756574
31
0
39
0
210
0
220
0
230
1
0
LINE
5
C8
100
AcDbEntity
8
1
62
256
6
ByLayer
370
-1
48
1
60
0
100
AcDbLine
10
257.177096
20
-13.811044
30
0
11
257.346233
21
-14.032097
31
0
39
0
210
0
220
0
230
1
0
LINE
5
C9
100
AcDbEntity
8
1
62
256
6
ByLayer
370
-1
48
1
60
0
100
AcDbLine
10
256.193614
20
-7.066386
30
0
11
257.173603
21
-7.213958
31
0
39
0
210
0
220
0
230
1
0
LINE
5
CA
100
AcDbEntity
8
1
62
256
6
ByLayer
370
-1
48
1
60
0
100
AcDbLine
10
256.84365
20
-0.933406
30
0
11
257.173603
21
-7.213958
31
0
39
0
210
0
220
0
230
1
0
LINE
5
CB
100
AcDbEntity
8
1
62
256
6
ByLayer
370
-1
48
1
60
0
100
AcDbLine
10
256.808569
20
-0.509604
30
0
11
257.085219
21
-0.612085
31
0
39
0
210
0
220
0
230
1
0
LINE
5
CC
100
AcDbEntity
8
1
62
256
6
ByLayer
370
-1
48
1
60
0
100
AcDbLine
10
255.780105
20
-0.376144
30
0
11
256.702257
21
-0.240132
31
0
39
0
210
0
220
0
230
1
0
LINE
5
CD
100
AcDbEntity
8
1
62
256
6
ByLayer
370
-1
48
1
60
0
100
AcDbLine
10
257.702993
20
-13.088972
30
0
11
257.872129
21
-13.310026
31
0
39
0
210
0
220
0
230
1
0
LINE
5
CE
100
AcDbEntity
8
1
62
256
6
ByLayer
370
-1
48
1
60
0
100
AcDbLine
10
257.999513
20
-9.671135
30
0
11
257.711145
21
-9.497162
31
0
39
0
210
0
220
0
230
1
0
LINE
5
CF
100
AcDbEntity
8
1
62
256
6
ByLayer
370
-1
48
1
60
0
100
AcDbLine
10
257.711145
20
-9.497162
30
0
11
257.622546
21
-12.028119
31
0
39
0
210
0
220
0
230
1
0
LINE
5
D0
100
AcDbEntity
8
1
62
256
6
ByLayer
370
-1
48
1
60
0
100
AcDbLine
10
256.178208
20
-13.893388
30
0
11
256.20325
21
-13.976854
31
0
39
0
210
0
220
0
230
1
0
LINE
5
D1
100
AcDbEntity
8
1
62
256
6
ByLayer
370
-1
48
1
60
0
100
AcDbLine
10
256.609623
20
-8.689527
30
0
11
257.494002
21
-8.464057
31
0
39
0
210
0
220
0
230
1
0
LINE
5
D2
100
AcDbEntity
8
1
62
256
6
ByLayer
370
-1
48
1
60
0
100
AcDbLine
10
256.0702
20
-9.22592
30
0
11
256.067567
21
-9.225451
31
0
39
0
210
0
220
0
230
1
0
LINE
5
D3
100
AcDbEntity
8
1
62
256
6
ByLayer
370
-1
48
1
60
0
100
AcDbLine
10
257.346233
20
-14.032097
30
0
11
256.289741
21
-14.415692
31
0
39
0
210
0
220
0
230
1
0
LINE
5
D4
100
AcDbEntity
8
1
62
256
6
ByLayer
370
-1
48
1
60
0
100
AcDbLine
10
255.572951
20
0.19162
30
0
11
255.780105
21
-0.376144
31
0
39
0
210
0
220
0
230
1
0
LINE
5
D5
100
AcDbEntity
8
1
62
256
6
ByLayer
370
-1
48
1
60
0
100
AcDbLine
10
256.341993
20
-11.784704
30
0
11
256.430592
21
-9.253747
31
0
39
0
210
0
220
0
230
1
0
LINE
5
D6
100
AcDbEntity
8
1
62
256
6
ByLayer
370
-1
48
1
60
0
100
AcDbLine
10
257.999513
20
-9.671135
30
0
11
257.872129
21
-13.310026
31
0
39
0
210
0
220
0
230
1
0
LINE
5
D7
100
AcDbEntity
8
1
62
256
6
ByLayer
370
-1
48
1
60
0
100
AcDbLine
10
257.461752
20
-7.362821
30
0
11
257.173603
21
-7.213958
31
0
39
0
210
0
220
0
230
1
0
LINE
5
D8
100
AcDbEntity
8
1
62
256
6
ByLayer
370
-1
48
1
60
0
100
AcDbLine
10
256.730409
20
-9.264191
30
0
11
256.64181
21
-11.795149
31
0
39
0
210
0
220
0
230
1
0
LINE
5
D9
100
AcDbEntity
8
1
62
256
6
ByLayer
370
-1
48
1
60
0
100
AcDbLine
10
257.754038
20
-8.503234
30
0
11
257.494002
21
-8.464057
31
0
39
0
210
0
220
0
230
1
0
LINE
5
DA
100
AcDbEntity
8
1
62
256
6
ByLayer
370
-1
48
1
60
0
100
AcDbLine
10
255.999211
20
2.364429
30
0
11
257.085219
21
-0.612085
31
0
39
0
210
0
220
0
230
1
0
LINE
5
DB
100
AcDbEntity
8
1
62
256
6
ByLayer
370
-1
48
1
60
0
100
AcDbLine
10
256.838037
20
-0.654093
30
0
11
257.114687
21
-0.756574
31
0
39
0
210
0
220
0
230
1
0
LINE
5
DC
100
AcDbEntity
8
1
62
256
6
ByLayer
370
-1
48
1
60
0
100
AcDbLine
10
255.863661
20
-0.785834
30
0
11
256.84365
21
-0.933406
31
0
39
0
210
0
220
0
230
1
0
LINE
5
DD
100
AcDbEntity
8
1
62
256
6
ByLayer
370
-1
48
1
60
0
100
AcDbLine
10
256.20325
20
-13.976854
30
0
11
256.176011
21
-13.986744
31
0
39
0
210
0
220
0
230
1
0
LINE
5
DE
100
AcDbEntity
8
1
62
256
6
ByLayer
370
-1
48
1
60
0
100
AcDbLine
10
255.514699
20
1.300625
30
0
11
256.108161
21
1.388158
31
0
39
0
210
0
220
0
230
1
0
LINE
5
DF
100
AcDbEntity
8
1
62
256
6
ByLayer
370
-1
48
1
60
0
100
AcDbLine
10
256.193614
20
-7.066386
30
0
11
255.863661
21
-0.785834
31
0
39
0
210
0
220
0
230
1
0
LINE
5
E0
100
AcDbEntity
8
1
62
256
6
ByLayer
370
-1
48
1
60
0
100
AcDbLine
10
256.64181
20
-11.795149
30
0
11
257.622546
21
-12.028119
31
0
39
0
210
0
220
0
230
1
0
LINE
5
E1
100
AcDbEntity
8
1
62
256
6
ByLayer
370
-1
48
1
60
0
100
AcDbLine
10
256.108161
20
1.388158
30
0
11
256.702257
21
-0.240132
31
0
39
0
210
0
220
0
230
1
0
LINE
5
E2
100
AcDbEntity
8
SK1
62
256
6
ByLayer
370
-1
48
1
60
0
100
AcDbLine
10
-76.6
20
10.670483
30
0
11
-6.5
21
10.670483
31
0
39
0
210
0
220
0
230
1
0
LINE
5
E3
100
AcDbEntity
8
SK1
62
256
6
ByLayer
370
-1
48
1
60
0
100
AcDbLine
10
-1.383773
20
24.75
30
0
11
-1.383773
21
-24.75
31
0
39
0
210
0
220
0
230
1
0
LINE
5
E4
100
AcDbEntity
8
SK1
62
256
6
ByLayer
370
-1
48
1
60
0
100
AcDbLine
10
-78.6
20
-10.670483
30
0
11
-79
21
-10.670483
31
0
39
0
210
0
220
0
230
1
0
LINE
5
E5
100
AcDbEntity
8
SK1
62
256
6
ByLayer
370
-1
48
1
60
0
100
AcDbLine
10
-1.552821
20
24.787477
30
0
11
-1.552821
21
-24.787477
31
0
39
0
210
0
220
0
230
1
0
LINE
5
E6
100
AcDbEntity
8
SK1
62
256
6
ByLayer
370
-1
48
1
60
0
100
AcDbLine
10
-76.6
20
10.670483
30
0
11
-76.6
21
24.996
31
0
39
0
210
0
220
0
230
1
0
LINE
5
E7
100
AcDbEntity
8
SK1
62
256
6
ByLayer
370
-1
48
1
60
0
100
AcDbLine
10
-76.6
20
-24.996
30
0
11
-76.6
21
-10.670483
31
0
39
0
210
0
220
0
230
1
0
LINE
5
E8
100
AcDbEntity
8
SK1
62
256
6
ByLayer
370
-1
48
1
60
0
100
AcDbLine
10
-80
20
8.054018
30
0
11
-80
21
-8.054018
31
0
39
0
210
0
220
0
230
1
0
LINE
5
E9
100
AcDbEntity
8
SK1
62
256
6
ByLayer
370
-1
48
1
60
0
100
AcDbLine
10
-78.6
20
-24.996
30
0
11
-78.6
21
-10.670483
31
0
39
0
210
0
220
0
230
1
0
LINE
5
EA
100
AcDbEntity
8
SK1
62
256
6
ByLayer
370
-1
48
1
60
0
100
AcDbLine
10
-78.6
20
10.670483
30
0
11
-78.6
21
24.996
31
0
39
0
210
0
220
0
230
1
0
LINE
5
EB
100
AcDbEntity
8
SK1
62
256
6
ByLayer
370
-1
48
1
60
0
100
AcDbLine
10
-0.15
20
24.75
30
0
11
-0.15
21
-24.75
31
0
39
0
210
0
220
0
230
1
0
LINE
5
EC
100
AcDbEntity
8
SK1
62
256
6
ByLayer
370
-1
48
1
60
0
100
AcDbLine
10
-79
20
10.670483
30
0
11
-78.6
21
10.670483
31
0
39
0
210
0
220
0
230
1
0
LINE
5
ED
100
AcDbEntity
8
SK1
62
256
6
ByLayer
370
-1
48
1
60
0
100
AcDbLine
10
-79
20
-10.670483
30
0
11
-79
21
-24.996
31
0
39
0
210
0
220
0
230
1
0
LINE
5
EE
100
AcDbEntity
8
SK1
62
256
6
ByLayer
370
-1
48
1
60
0
100
AcDbLine
10
-79
20
24.996
30
0
11
-79
21
10.670483
31
0
39
0
210
0
220
0
230
1
0
LINE
5
EF
100
AcDbEntity
8
SK1
62
256
6
ByLayer
370
-1
48
1
60
0
100
AcDbLine
10
-6.5
20
10.670483
30
0
11
-6.5
21
-10.670483
31
0
39
0
210
0
220
0
230
1
0
LINE
5
F0
100
AcDbEntity
8
SK1
62
256
6
ByLayer
370
-1
48
1
60
0
100
AcDbLine
10
-2
20
-24.996
30
0
11
-2
21
24.996
31
0
39
0
210
0
220
0
230
1
0
LINE
5
F1
100
AcDbEntity
8
SK1
62
256
6
ByLayer
370
-1
48
1
60
0
100
AcDbLine
10
-6.5
20
-10.670483
30
0
11
-76.6
21
-10.670483
31
0
39
0
210
0
220
0
230
1
0
LINE
5
F2
100
AcDbEntity
8
SK1
62
256
6
ByLayer
370
-1
48
1
60
0
100
AcDbLine
10
-80
20
-8.054018
30
0
11
-80
21
-23.996
31
0
39
0
210
0
220
0
230
1
0
LINE
5
F3
100
AcDbEntity
8
SK1
62
256
6
ByLayer
370
-1
48
1
60
0
100
AcDbLine
10
-80
20
23.996
30
0
11
-80
21
8.054018
31
0
39
0
210
0
220
0
230
1
0
LINE
5
F4
100
AcDbEntity
8
SK1
62
256
6
ByLayer
370
-1
48
1
60
0
100
AcDbLine
10
-78.516223
20
-10.425829
30
0
11
-78.516223
21
-24.892544
31
0
39
0
210
0
220
0
230
1
0
LINE
5
F5
100
AcDbEntity
8
SK1
62
256
6
ByLayer
370
-1
48
1
60
0
100
AcDbLine
10
-78.516223
20
24.892544
30
0
11
-78.516223
21
10.425829
31
0
39
0
210
0
220
0
230
1
0
LINE
5
F6
100
AcDbEntity
8
SK1
62
256
6
ByLayer
370
-1
48
1
60
0
100
AcDbLine
10
-77.633814
20
-9.806751
30
0
11
-77.633814
21
-24.639667
31
0
39
0
210
0
220
0
230
1
0
LINE
5
F7
100
AcDbEntity
8
SK1
62
256
6
ByLayer
370
-1
48
1
60
0
100
AcDbLine
10
-77.633814
20
24.639667
30
0
11
-77.633814
21
9.806751
31
0
39
0
210
0
220
0
230
1
0
MTEXT
5
26E
100
AcDbEntity
8
SK6
62
256
6
ByLayer
370
-1
48
1
60
0
100
AcDbMText
10
0.79375
20
-80.79375
30
0
210
0
220
0
230
1
1
\W00.751;\fsimplex.shx,bigfont.shx;880-D5400L50-04 
40
3.175
41
0
44
1.084337
50
0
71
7
72
5
7
DEFAULT
0
DIMENSION
5
29E
100
AcDbEntity
8
SK2
62
256
6
ByLayer
370
-3
48
1
60
0
100
AcDbDimension
2
DimnDraft3D1
10
258
20
-70.11955
30
0
11
89
21
-70.11955
31
0
70
32
71
5
72
1
41
1
210
0
220
0
230
1
3
Standard
100
AcDbAlignedDimension
13
-80
23
-26.5875
33
0
14
258
24
-28.5875
34
0
50
0
100
AcDbRotatedDimension
1001
ACAD
1000
DSTYLE
1002
{
1070
   279
1070
     0
1070
   172
1070
     1
1070
   173
1070
     1
1070
   340
1005
26F
1070
   271
1070
     1
1070
   272
1070
     2
1070
    77
1070
     1
1070
    73
1070
     0
1070
   171
1070
     3
1070
   274
1070
     4
1070
   177
1070
   150
1070
   176
1070
     9
1070
   178
1070
    43
1070
    78
1070
     8
1070
    48
1040
-0.005
1070
    41
1041
4.175
1070
   147
1041
2.25
1070
    42
1041
1.5875
1070
    44
1041
3.175
1070
   140
1041
4.5
1070
   343
1005
0
1070
   344
1005
0
1002
}
0
DIMENSION
5
2A8
100
AcDbEntity
8
SK2
62
256
6
ByLayer
370
-3
48
1
60
0
100
AcDbDimension
2
DimnDraft3D2
10
0
20
-58.1508
30
0
11
-40
21
-58.1508
31
0
70
32
71
5
72
1
41
1
210
0
220
0
230
1
3
Standard
100
AcDbAlignedDimension
13
-80
23
-26.5875
33
0
14
0
24
-32.8375
34
0
50
0
100
AcDbRotatedDimension
1001
ACAD
1000
DSTYLE
1002
{
1070
   279
1070
     0
1070
   172
1070
     1
1070
   173
1070
     1
1070
   340
1005
26F
1070
   271
1070
     1
1070
   272
1070
     2
1070
    77
1070
     1
1070
    73
1070
     0
1070
   171
1070
     3
1070
   274
1070
     4
1070
   177
1070
   150
1070
   176
1070
     9
1070
   178
1070
    43
1070
    78
1070
     8
1070
    48
1040
-0.005
1070
    41
1041
4.175
1070
   147
1041
2.25
1070
    42
1041
1.5875
1070
    44
1041
3.175
1070
   140
1041
4.5
1070
   343
1005
0
1070
   344
1005
0
1002
}
0
DIMENSION
5
2B3
100
AcDbEntity
8
2
62
256
6
ByLayer
370
-3
48
1
60
0
100
AcDbDimension
2
DimnDraft3D3
10
258
20
-58.1508
30
0
11
129
21
-58.1508
31
0
70
32
71
5
72
1
41
1
210
0
220
0
230
1
3
Standard
100
AcDbAlignedDimension
13
0
23
-32.8375
33
0
14
258
24
-28.5875
34
0
50
0
100
AcDbRotatedDimension
1001
ACAD
1000
DSTYLE
1002
{
1070
   279
1070
     0
1070
   172
1070
     1
1070
   173
1070
     1
1070
   340
1005
26F
1070
   271
1070
     1
1070
   272
1070
     2
1070
    77
1070
     1
1070
    73
1070
     0
1070
   171
1070
     3
1070
   274
1070
     4
1070
   177
1070
   150
1070
   176
1070
     9
1070
   178
1070
    43
1070
    78
1070
     8
1070
    48
1040
-0.005
1070
    41
1041
4.175
1070
   147
1041
2.25
1070
    42
1041
1.5875
1070
    44
1041
3.175
1070
   140
1041
4.5
1070
   343
1005
0
1070
   344
1005
0
1002
}
0
DIMENSION
5
2BD
100
AcDbEntity
8
SK2
62
256
6
ByLayer
370
-3
48
1
60
0
100
AcDbDimension
2
DimnDraft3D4
10
258
20
-48.1508
30
0
11
147.5
21
-48.1508
31
0
70
32
71
5
72
1
41
1
210
0
220
0
230
1
3
Standard
100
AcDbAlignedDimension
13
37
23
-11.5875
33
0
14
258
24
-28.5875
34
0
50
0
100
AcDbRotatedDimension
1001
ACAD
1000
DSTYLE
1002
{
1070
   279
1070
     0
1070
   172
1070
     1
1070
   173
1070
     1
1070
   340
1005
26F
1070
   271
1070
     1
1070
   272
1070
     2
1070
    77
1070
     1
1070
    73
1070
     0
1070
   171
1070
     3
1070
   274
1070
     4
1070
   177
1070
   150
1070
   176
1070
     9
1070
   178
1070
    43
1070
    78
1070
     8
1070
    48
1040
-0.005
1070
    41
1041
4.175
1070
   147
1041
2.25
1070
    42
1041
1.5875
1070
    44
1041
3.175
1070
   140
1041
4.5
1070
   343
1005
0
1070
   344
1005
0
1002
}
0
DIMENSION
5
2C8
100
AcDbEntity
8
SK2
62
256
6
ByLayer
370
-3
48
1
60
0
100
AcDbDimension
2
DimnDraft3D5
10
-91.9
20
-25
30
0
11
-92.1
21
4.121053
31
0
70
33
71
5
72
1
41
1
210
0
220
0
230
1
3
Standard
100
AcDbAlignedDimension
13
-81.5875
23
25
33
0
14
-81.5875
24
-25
34
0
1001
ACAD
1000
DSTYLE
1002
{
1070
   279
1070
     0
1070
    74
1070
     0
1070
   173
1070
     1
1070
   340
1005
26F
1070
   271
1070
     2
1070
   272
1070
     2
1070
    77
1070
     1
1070
    73
1070
     0
1070
   171
1070
     3
1070
   274
1070
     4
1070
   177
1070
   150
1070
   176
1070
     9
1070
   178
1070
    43
1070
    78
1070
     8
1070
    48
1040
-0.005
1070
    41
1041
4.175
1070
   147
1041
2.25
1070
    42
1041
1.5875
1070
    44
1041
3.175
1070
   140
1041
4.5
1070
   343
1005
0
1070
   344
1005
0
1002
}
0
DIMENSION
5
2D3
100
AcDbEntity
8
SK2
62
256
6
ByLayer
370
-3
48
1
60
0
100
AcDbDimension
2
DimnDraft3D6
10
-101.9
20
31.25
30
0
11
-102.1
21
1.586842
31
0
70
33
71
5
72
1
41
1
210
0
220
0
230
1
3
Standard
100
AcDbAlignedDimension
13
-1.5875
23
-31.25
33
0
14
-1.5875
24
31.25
34
0
1001
ACAD
1000
DSTYLE
1002
{
1070
   279
1070
     0
1070
    74
1070
     0
1070
   173
1070
     1
1070
   340
1005
26F
1070
   271
1070
     1
1070
   272
1070
     2
1070
    77
1070
     1
1070
    73
1070
     0
1070
   171
1070
     3
1070
   274
1070
     4
1070
   177
1070
   150
1070
   176
1070
     9
1070
   178
1070
    43
1070
    78
1070
     8
1070
    48
1040
-0.005
1070
    41
1041
4.175
1070
   147
1041
2.25
1070
    42
1041
1.5875
1070
    44
1041
3.175
1070
   140
1041
4.5
1070
   343
1005
0
1070
   344
1005
0
1002
}
0
DIMENSION
5
2DE
100
AcDbEntity
8
2
62
256
6
ByLayer
370
-3
48
1
60
0
100
AcDbDimension
2
DimnDraft3D7
10
288.15
20
-27
30
0
11
281.6
21
3.884211
31
0
70
33
71
5
72
1
41
1
210
0
220
0
230
1
3
Standard
100
AcDbAlignedDimension
13
259.5875
23
27
33
0
14
259.5875
24
-27
34
0
1001
ACAD
1000
DSTYLE
1002
{
1070
   279
1070
     0
1070
    74
1070
     0
1070
   173
1070
     1
1070
   340
1005
26F
1070
   271
1070
     2
1070
   272
1070
     2
1070
    77
1070
     1
1070
    73
1070
     0
1070
   171
1070
     3
1070
   274
1070
     4
1070
   177
1070
   150
1070
   176
1070
     9
1070
   178
1070
    43
1070
    78
1070
     8
1070
    48
1040
-0.005
1070
    41
1041
4.175
1070
   147
1041
2.25
1070
    42
1041
1.5875
1070
    44
1041
3.175
1070
   140
1041
4.5
1070
   343
1005
0
1070
   344
1005
0
1002
}
0
ENDSEC
0
SECTION
2
OBJECTS
0
DICTIONARY
5
30f
330
0
100
AcDbDictionary
280
0
281
1
3
ACAD_GROUP
350
310
3
ACAD_MLINESTYLE
350
311
0
DICTIONARY
5
310
330
0
100
AcDbDictionary
280
0
281
1
0
DICTIONARY
5
311
330
0
100
AcDbDictionary
280
0
281
1
3
Standard
350
18
0
MLINESTYLE
5
18
330
311
100
AcDbMlineStyle
2
Standard
70
0
3

62
256
51
90
52
90
71
2
49
-0.5
62
256
6
ByLayer
49
0.5
62
256
6
ByLayer
0
RASTERVARIABLES
5
2fd
330

100
AcDbRasterVariables
90
0
70
1
71
1
72
1
0
ENDSEC
0
EOF
