0
SECTION
2
HEADER
9
$ACADVER
1
AC1015
9
$DWGCODEPAGE
3
ANSI_1252
9
$HANDSEED
5
31c
9
$ANGBASE
50
0
9
$ANGDIR
70
0
9
$ATTMODE
70
1
9
$AUNITS
70
0
9
$AUPREC
70
0
9
$CECOLOR
62
256
9
$CELTSCALE
40
1
9
$CELTYPE
6
ByLayer
9
$CELWEIGHT
370
-1
9
$CLAYER
8
0
9
$CMLJUST
70
0
9
$CMLSCALE
40
1
9
$CMLSTYLE
2
Standard
9
$DIMSTYLE
2
Standard
9
$TEXTSIZE
40
0.2
9
$TEXTSTYLE
7
Standard
9
$LUNITS
70
2
9
$LUPREC
70
4
9
$EXTNAMES
290
1
9
$INSUNITS
70
4
9
$LTSCALE
40
1
9
$LWDISPLAY
290
0
9
$PDMODE
70
0
9
$PDSIZE
40
0
9
$PLINEGEN
70
0
0
ENDSEC
0
SECTION
2
CLASSES
0
CLASS
1
RASTERVARIABLES
2
AcDbRasterVariables
3
ISM
90
0
280
0
281
0
0
ENDSEC
0
SECTION
2
TABLES
0
TABLE
2
VPORT
5
312
100
AcDbSymbolTable
0
VPORT
5
1
100
AcDbSymbolTableRecord
100
AcDbViewportTableRecord
2
*Active
70
0
10
0
20
0
11
1
21
1
12
-1
22
1
13
0
23
0
14
0.5
24
0.5
15
10
25
10
16
0
26
0
36
1
17
0
27
0
37
0
0
ENDTAB
0
TABLE
2
LTYPE
5
313
100
AcDbSymbolTable
0
LTYPE
5
14
100
AcDbSymbolTableRecord
100
AcDbLinetypeTableRecord
70
0
2
ByBlock
3

72
65
73
0
40
0
0
LTYPE
5
15
100
AcDbSymbolTableRecord
100
AcDbLinetypeTableRecord
70
0
2
ByLayer
3

72
65
73
0
40
0
0
LTYPE
5
16
100
AcDbSymbolTableRecord
100
AcDbLinetypeTableRecord
70
0
2
CONTINUOUS
3
Solid line
72
65
73
0
40
0
0
LTYPE
5
3B
100
AcDbSymbolTableRecord
100
AcDbLinetypeTableRecord
70
0
2
DASHED
3
__ __ __ __ __ __ __ __ __
72
65
73
2
40
25.72
49
12.86
74
0
49
-12.86
74
0
0
LTYPE
5
3C
100
AcDbSymbolTableRecord
100
AcDbLinetypeTableRecord
70
0
2
HIDDEN
3
_ _ _ _ _ _ _ _ _ _ _ _ _ _ _
72
65
73
2
40
0.5
49
0.25
74
0
49
-0.25
74
0
0
LTYPE
5
3D
100
AcDbSymbolTableRecord
100
AcDbLinetypeTableRecord
70
0
2
PHANTOM
3
____ _ _ ____ _ _ _____ _ _ ____
72
65
73
6
40
50.5
49
18
74
0
49
-6.5
74
0
49
6.5
74
0
49
-6.5
74
0
49
6.5
74
0
49
-6.5
74
0
0
LTYPE
5
3E
100
AcDbSymbolTableRecord
100
AcDbLinetypeTableRecord
70
0
2
CENTER
3
____ _ ____ _ ____ _ ____
72
65
73
4
40
47.5
49
22
74
0
49
-8.5
74
0
49
8.5
74
0
49
-8.5
74
0
0
LTYPE
5
3F
100
AcDbSymbolTableRecord
100
AcDbLinetypeTableRecord
70
0
2
DOT
3
.........................
72
65
73
2
40
10
49
0
74
0
49
-10
74
0
0
LTYPE
5
40
100
AcDbSymbolTableRecord
100
AcDbLinetypeTableRecord
70
0
2
DASHDOT
3
_._._._._._._._._._._._._._._._.
72
65
73
4
40
70
49
31
74
0
49
-13
74
0
49
13
74
0
49
-13
74
0
0
ENDTAB
0
TABLE
2
LAYER
5
314
100
AcDbSymbolTable
0
LAYER
5
10
100
AcDbSymbolTableRecord
100
AcDbLayerTableRecord
2
0
70
0
62
7
6
CONTINUOUS
290
1
370
-3
390
0
0
LAYER
5
42
100
AcDbSymbolTableRecord
100
AcDbLayerTableRecord
2
81
70
0
62
-3
6
CONTINUOUS
290
1
370
-3
390
0
0
LAYER
5
44
100
AcDbSymbolTableRecord
100
AcDbLayerTableRecord
2
80
70
0
62
-6
6
CONTINUOUS
290
1
370
-3
390
0
0
LAYER
5
57
100
AcDbSymbolTableRecord
100
AcDbLayerTableRecord
2
1
70
0
62
4
6
CONTINUOUS
290
1
370
-3
390
0
0
LAYER
5
60
100
AcDbSymbolTableRecord
100
AcDbLayerTableRecord
2
4
70
0
62
-2
6
CENTER
290
1
370
-3
390
0
0
LAYER
5
2AB
100
AcDbSymbolTableRecord
100
AcDbLayerTableRecord
2
2
70
0
62
7
6
CONTINUOUS
290
1
370
-3
390
0
0
LAYER
5
2fe
100
AcDbSymbolTableRecord
100
AcDbLayerTableRecord
2
SK1
70
0
62
4
6
CONTINUOUS
290
1
370
-3
390
0
0
LAYER
5
2ff
100
AcDbSymbolTableRecord
100
AcDbLayerTableRecord
2
SK4
70
0
62
2
6
CENTER
290
1
370
-3
390
0
0
LAYER
5
300
100
AcDbSymbolTableRecord
100
AcDbLayerTableRecord
2
SK6
70
0
62
5
6
CONTINUOUS
290
1
370
-3
390
0
0
LAYER
5
301
100
AcDbSymbolTableRecord
100
AcDbLayerTableRecord
2
SK2
70
0
62
7
6
CONTINUOUS
290
1
370
-3
390
0
0
ENDTAB
0
TABLE
2
STYLE
5
315
100
AcDbSymbolTable
0
STYLE
5
11
100
AcDbSymbolTableRecord
100
AcDbTextStyleTableRecord
2
Standard
3
txt
70
0
71
0
40
0
41
1
42
0
50
0
0
STYLE
5
26F
100
AcDbSymbolTableRecord
100
AcDbTextStyleTableRecord
2
DEFAULT
3
simplex.shx
70
0
71
0
40
0
41
1
42
0
50
0
0
STYLE
5
292
100
AcDbSymbolTableRecord
100
AcDbTextStyleTableRecord
2
DWGDirectTextStyle
3
SIMPLEX
70
0
71
0
40
0
41
1
42
0
50
0
0
ENDTAB
0
TABLE
2
DIMSTYLE
5
316
100
AcDbSymbolTable
100
AcDbDimStyleTable
0
DIMSTYLE
105
27
100
AcDbSymbolTableRecord
100
AcDbDimStyleTableRecord
2
Standard
70
0
3
<>
41
0.18
42
0.0625
44
0.18
140
0.18
147
0.09
73
0
74
0
77
1
271
2
275
0
278
52
280
0
340
11
0
ENDTAB
0
TABLE
2
VIEW
5
317
100
AcDbSymbolTable
0
ENDTAB
0
TABLE
2
UCS
5
318
100
AcDbSymbolTable
0
ENDTAB
0
TABLE
2
APPID
5
319
100
AcDbSymbolTable
0
APPID
5
12
100
AcDbSymbolTableRecord
100
AcDbRegAppTableRecord
2
ACAD
70
0
0
ENDTAB
0
TABLE
2
BLOCK_RECORD
5
31a
100
AcDbSymbolTable
0
BLOCK_RECORD
5
1F
100
AcDbSymbolTableRecord
100
AcDbBlockTableRecord
2
*Model_Space
340
0
70
0
0
BLOCK_RECORD
5
1B
100
AcDbSymbolTableRecord
100
AcDbBlockTableRecord
2
*Paper_Space
340
0
70
0
0
BLOCK_RECORD
5
23
100
AcDbSymbolTableRecord
100
AcDbBlockTableRecord
2
*Paper_Space0
340
0
70
0
0
BLOCK_RECORD
5
294
100
AcDbSymbolTableRecord
100
AcDbBlockTableRecord
2
DimnDraft3D1
340
0
70
0
0
BLOCK_RECORD
5
29F
100
AcDbSymbolTableRecord
100
AcDbBlockTableRecord
2
DimnDraft3D2
340
0
70
0
0
BLOCK_RECORD
5
2A9
100
AcDbSymbolTableRecord
100
AcDbBlockTableRecord
2
DimnDraft3D3
340
0
70
0
0
BLOCK_RECORD
5
2B4
100
AcDbSymbolTableRecord
100
AcDbBlockTableRecord
2
DimnDraft3D4
340
0
70
0
0
BLOCK_RECORD
5
2BE
100
AcDbSymbolTableRecord
100
AcDbBlockTableRecord
2
DimnDraft3D5
340
0
70
0
0
BLOCK_RECORD
5
2C9
100
AcDbSymbolTableRecord
100
AcDbBlockTableRecord
2
DimnDraft3D6
340
0
70
0
0
BLOCK_RECORD
5
2D4
100
AcDbSymbolTableRecord
100
AcDbBlockTableRecord
2
DimnDraft3D7
340
0
70
0
0
ENDTAB
0
ENDSEC
0
SECTION
2
BLOCKS
0
BLOCK
5
20
100
AcDbEntity
8
0
100
AcDbBlockBegin
2
*Model_Space
70
0
10
0
20
0
30
0
3
*Model_Space
0
ENDBLK
5
21
100
AcDbEntity
8
0
100
AcDbBlockEnd
0
BLOCK
5
1C
100
AcDbEntity
8
0
100
AcDbBlockBegin
2
*Paper_Space
70
0
10
0
20
0
30
0
3
*Paper_Space
0
ENDBLK
5
1D
100
AcDbEntity
8
0
100
AcDbBlockEnd
0
BLOCK
5
24
100
AcDbEntity
8
0
100
AcDbBlockBegin
2
*Paper_Space0
70
0
10
0
20
0
30
0
3
*Paper_Space0
0
ENDBLK
5
25
100
AcDbEntity
8
0
100
AcDbBlockEnd
0
BLOCK
5
29C
100
AcDbEntity
8
0
100
AcDbBlockBegin
2
DimnDraft3D1
70
0
10
0
20
0
30
0
3
DimnDraft3D1
0
MTEXT
5
295
100
AcDbEntity
8
SK2
62
256
6
ByLayer
370
-1
48
1
60
0
100
AcDbMText
10
55.844079
20
-67.0258
30
0
210
0
220
0
230
1
1
\W01.000;\fsimplex.shx,bigfont.shx;(267) 
40
4.5
41
0
44
1.084337
50
0
71
7
72
5
7
DEFAULT
0
LINE
5
297
100
AcDbEntity
8
SK2
62
256
6
ByLayer
370
-1
48
1
60
0
100
AcDbLine
10
-70
20
-21.5875
30
0
11
-70
21
-73.29455
31
0
39
0
210
0
220
0
230
1
0
LINE
5
298
100
AcDbEntity
8
SK2
62
256
6
ByLayer
370
-1
48
1
60
0
100
AcDbLine
10
197
20
-27.5875
30
0
11
197
21
-73.29455
31
0
39
0
210
0
220
0
230
1
0
LINE
5
299
100
AcDbEntity
8
SK2
62
256
6
ByLayer
370
-1
48
1
60
0
100
AcDbLine
10
-70
20
-70.11955
30
0
11
197
21
-70.11955
31
0
39
0
210
0
220
0
230
1
0
SOLID
5
29A
100
AcDbEntity
8
SK2
62
256
6
ByLayer
370
-1
48
1
60
0
100
AcDbTrace
10
-70
20
-70.11955
30
0
11
-65.825003
21
-69.193975
31
0
12
-65.824997
22
-71.045125
32
0
13
-70
23
-70.11955
33
0
39
0
210
0
220
0
230
1
0
SOLID
5
29B
100
AcDbEntity
8
SK2
62
256
6
ByLayer
370
-1
48
1
60
0
100
AcDbTrace
10
197
20
-70.11955
30
0
11
192.825003
21
-71.045125
31
0
12
192.824997
22
-69.193975
32
0
13
197
23
-70.11955
33
0
39
0
210
0
220
0
230
1
0
ENDBLK
5
29D
100
AcDbEntity
8
0
100
AcDbBlockEnd
0
BLOCK
5
2A6
100
AcDbEntity
8
0
100
AcDbBlockBegin
2
DimnDraft3D2
70
0
10
0
20
0
30
0
3
DimnDraft3D2
0
MTEXT
5
2A0
100
AcDbEntity
8
SK2
62
256
6
ByLayer
370
-1
48
1
60
0
100
AcDbMText
10
-36.503947
20
-57.0258
30
0
210
0
220
0
230
1
1
\W01.000;\fsimplex.shx,bigfont.shx;70 
40
4.5
41
0
44
1.084337
50
0
71
7
72
5
7
DEFAULT
0
LINE
5
2A1
100
AcDbEntity
8
SK2
62
256
6
ByLayer
370
-1
48
1
60
0
100
AcDbLine
10
-70
20
-21.5875
30
0
11
-70
21
-61.3258
31
0
39
0
210
0
220
0
230
1
0
LINE
5
2A2
100
AcDbEntity
8
SK2
62
256
6
ByLayer
370
-1
48
1
60
0
100
AcDbLine
10
0
20
-32.8375
30
0
11
0
21
-61.3258
31
0
39
0
210
0
220
0
230
1
0
LINE
5
2A3
100
AcDbEntity
8
SK2
62
256
6
ByLayer
370
-1
48
1
60
0
100
AcDbLine
10
-70
20
-58.1508
30
0
11
0
21
-58.1508
31
0
39
0
210
0
220
0
230
1
0
SOLID
5
2A4
100
AcDbEntity
8
SK2
62
256
6
ByLayer
370
-1
48
1
60
0
100
AcDbTrace
10
-70
20
-58.1508
30
0
11
-65.825003
21
-57.225225
31
0
12
-65.824997
22
-59.076375
32
0
13
-70
23
-58.1508
33
0
39
0
210
0
220
0
230
1
0
SOLID
5
2A5
100
AcDbEntity
8
SK2
62
256
6
ByLayer
370
-1
48
1
60
0
100
AcDbTrace
10
0
20
-58.1508
30
0
11
-4.174997
21
-59.076375
31
0
12
-4.175003
22
-57.225225
32
0
13
0
23
-58.1508
33
0
39
0
210
0
220
0
230
1
0
ENDBLK
5
2A7
100
AcDbEntity
8
0
100
AcDbBlockEnd
0
BLOCK
5
2B1
100
AcDbEntity
8
0
100
AcDbBlockBegin
2
DimnDraft3D3
70
0
10
0
20
0
30
0
3
DimnDraft3D3
0
MTEXT
5
2AA
100
AcDbEntity
8
2
62
256
6
ByLayer
370
-1
48
1
60
0
100
AcDbMText
10
95.906579
20
-57.0258
30
0
210
0
220
0
230
1
1
\W01.000;\fsimplex.shx,bigfont.shx;197 
40
4.5
41
0
44
1.084337
50
0
71
7
72
5
7
DEFAULT
0
LINE
5
2AC
100
AcDbEntity
8
2
62
256
6
ByLayer
370
-1
48
1
60
0
100
AcDbLine
10
0
20
-32.8375
30
0
11
0
21
-61.3258
31
0
39
0
210
0
220
0
230
1
0
LINE
5
2AD
100
AcDbEntity
8
2
62
256
6
ByLayer
370
-1
48
1
60
0
100
AcDbLine
10
197
20
-27.5875
30
0
11
197
21
-61.3258
31
0
39
0
210
0
220
0
230
1
0
LINE
5
2AE
100
AcDbEntity
8
2
62
256
6
ByLayer
370
-1
48
1
60
0
100
AcDbLine
10
0
20
-58.1508
30
0
11
197
21
-58.1508
31
0
39
0
210
0
220
0
230
1
0
SOLID
5
2AF
100
AcDbEntity
8
2
62
256
6
ByLayer
370
-1
48
1
60
0
100
AcDbTrace
10
0
20
-58.1508
30
0
11
4.174997
21
-57.225225
31
0
12
4.175003
22
-59.076375
32
0
13
0
23
-58.1508
33
0
39
0
210
0
220
0
230
1
0
SOLID
5
2B0
100
AcDbEntity
8
2
62
256
6
ByLayer
370
-1
48
1
60
0
100
AcDbTrace
10
197
20
-58.1508
30
0
11
192.825003
21
-59.076375
31
0
12
192.824997
22
-57.225225
32
0
13
197
23
-58.1508
33
0
39
0
210
0
220
0
230
1
0
ENDBLK
5
2B2
100
AcDbEntity
8
0
100
AcDbBlockEnd
0
BLOCK
5
2BB
100
AcDbEntity
8
0
100
AcDbBlockBegin
2
DimnDraft3D4
70
0
10
0
20
0
30
0
3
DimnDraft3D4
0
MTEXT
5
2B5
100
AcDbEntity
8
SK2
62
256
6
ByLayer
370
-1
48
1
60
0
100
AcDbMText
10
114.469079
20
-47.0258
30
0
210
0
220
0
230
1
1
\W01.000;\fsimplex.shx,bigfont.shx;161 
40
4.5
41
0
44
1.084337
50
0
71
7
72
5
7
DEFAULT
0
LINE
5
2B6
100
AcDbEntity
8
SK2
62
256
6
ByLayer
370
-1
48
1
60
0
100
AcDbLine
10
36
20
-11.5875
30
0
11
36
21
-51.3258
31
0
39
0
210
0
220
0
230
1
0
LINE
5
2B7
100
AcDbEntity
8
SK2
62
256
6
ByLayer
370
-1
48
1
60
0
100
AcDbLine
10
197
20
-27.5875
30
0
11
197
21
-51.3258
31
0
39
0
210
0
220
0
230
1
0
LINE
5
2B8
100
AcDbEntity
8
SK2
62
256
6
ByLayer
370
-1
48
1
60
0
100
AcDbLine
10
36
20
-48.1508
30
0
11
197
21
-48.1508
31
0
39
0
210
0
220
0
230
1
0
SOLID
5
2B9
100
AcDbEntity
8
SK2
62
256
6
ByLayer
370
-1
48
1
60
0
100
AcDbTrace
10
36
20
-48.1508
30
0
11
40.174997
21
-47.225225
31
0
12
40.175003
22
-49.076375
32
0
13
36
23
-48.1508
33
0
39
0
210
0
220
0
230
1
0
SOLID
5
2BA
100
AcDbEntity
8
SK2
62
256
6
ByLayer
370
-1
48
1
60
0
100
AcDbTrace
10
197
20
-48.1508
30
0
11
192.825003
21
-49.076375
31
0
12
192.824997
22
-47.225225
32
0
13
197
23
-48.1508
33
0
39
0
210
0
220
0
230
1
0
ENDBLK
5
2BC
100
AcDbEntity
8
0
100
AcDbBlockEnd
0
BLOCK
5
2C6
100
AcDbEntity
8
0
100
AcDbBlockBegin
2
DimnDraft3D5
70
0
10
0
20
0
30
0
3
DimnDraft3D5
0
MTEXT
5
2BF
100
AcDbEntity
8
SK2
62
256
6
ByLayer
370
-1
48
1
60
0
100
AcDbMText
10
-80.975
20
5.009211
30
0
210
0
220
0
230
1
1
\W01.000;\fsimplex.shx,bigfont.shx;40 
40
4.5
41
0
44
1.084337
50
90
71
7
72
5
7
DEFAULT
0
MTEXT
5
2C0
100
AcDbEntity
8
SK2
62
256
6
ByLayer
370
-1
48
1
60
0
100
AcDbMText
10
-80.975
20
-8.490789
30
0
210
0
220
0
230
1
1
\W01.000;\fsimplex.shx,bigfont.shx;%%c 
40
4.5
41
0
44
1.084337
50
90
71
7
72
5
7
DEFAULT
0
LINE
5
2C1
100
AcDbEntity
8
SK2
62
256
6
ByLayer
370
-1
48
1
60
0
100
AcDbLine
10
-71.5875
20
20
30
0
11
-81.9
21
20
31
0
39
0
210
0
220
0
230
1
0
LINE
5
2C2
100
AcDbEntity
8
SK2
62
256
6
ByLayer
370
-1
48
1
60
0
100
AcDbLine
10
-71.5875
20
-20
30
0
11
-81.9
21
-20
31
0
39
0
210
0
220
0
230
1
0
LINE
5
2C3
100
AcDbEntity
8
SK2
62
256
6
ByLayer
370
-1
48
1
60
0
100
AcDbLine
10
-78.725
20
20
30
0
11
-78.725
21
-20
31
0
39
0
210
0
220
0
230
1
0
SOLID
5
2C4
100
AcDbEntity
8
SK2
62
256
6
ByLayer
370
-1
48
1
60
0
100
AcDbTrace
10
-78.725
20
20
30
0
11
-77.799425
21
15.825003
31
0
12
-79.650575
22
15.824997
32
0
13
-78.725
23
20
33
0
39
0
210
0
220
0
230
1
0
SOLID
5
2C5
100
AcDbEntity
8
SK2
62
256
6
ByLayer
370
-1
48
1
60
0
100
AcDbTrace
10
-78.725
20
-20
30
0
11
-79.650575
21
-15.825003
31
0
12
-77.799425
22
-15.824997
32
0
13
-78.725
23
-20
33
0
39
0
210
0
220
0
230
1
0
ENDBLK
5
2C7
100
AcDbEntity
8
0
100
AcDbBlockEnd
0
BLOCK
5
2D1
100
AcDbEntity
8
0
100
AcDbBlockBegin
2
DimnDraft3D6
70
0
10
0
20
0
30
0
3
DimnDraft3D6
0
MTEXT
5
2CA
100
AcDbEntity
8
SK2
62
256
6
ByLayer
370
-1
48
1
60
0
100
AcDbMText
10
-90.975
20
2.711842
30
0
210
0
220
0
230
1
1
\W01.000;\fsimplex.shx,bigfont.shx;62.5 
40
4.5
41
0
44
1.084337
50
90
71
7
72
5
7
DEFAULT
0
MTEXT
5
2CB
100
AcDbEntity
8
SK2
62
256
6
ByLayer
370
-1
48
1
60
0
100
AcDbMText
10
-90.975
20
-10.788158
30
0
210
0
220
0
230
1
1
\W01.000;\fsimplex.shx,bigfont.shx;%%c 
40
4.5
41
0
44
1.084337
50
90
71
7
72
5
7
DEFAULT
0
LINE
5
2CC
100
AcDbEntity
8
SK2
62
256
6
ByLayer
370
-1
48
1
60
0
100
AcDbLine
10
-1.5875
20
-31.25
30
0
11
-91.9
21
-31.25
31
0
39
0
210
0
220
0
230
1
0
LINE
5
2CD
100
AcDbEntity
8
SK2
62
256
6
ByLayer
370
-1
48
1
60
0
100
AcDbLine
10
-1.5875
20
31.25
30
0
11
-91.9
21
31.25
31
0
39
0
210
0
220
0
230
1
0
LINE
5
2CE
100
AcDbEntity
8
SK2
62
256
6
ByLayer
370
-1
48
1
60
0
100
AcDbLine
10
-88.725
20
-31.25
30
0
11
-88.725
21
31.25
31
0
39
0
210
0
220
0
230
1
0
SOLID
5
2CF
100
AcDbEntity
8
SK2
62
256
6
ByLayer
370
-1
48
1
60
0
100
AcDbTrace
10
-88.725
20
-31.25
30
0
11
-89.650575
21
-27.075003
31
0
12
-87.799425
22
-27.074997
32
0
13
-88.725
23
-31.25
33
0
39
0
210
0
220
0
230
1
0
SOLID
5
2D0
100
AcDbEntity
8
SK2
62
256
6
ByLayer
370
-1
48
1
60
0
100
AcDbTrace
10
-88.725
20
31.25
30
0
11
-87.799425
21
27.075003
31
0
12
-89.650575
22
27.074997
32
0
13
-88.725
23
31.25
33
0
39
0
210
0
220
0
230
1
0
ENDBLK
5
2D2
100
AcDbEntity
8
0
100
AcDbBlockEnd
0
BLOCK
5
2DC
100
AcDbEntity
8
0
100
AcDbBlockBegin
2
DimnDraft3D7
70
0
10
0
20
0
30
0
3
DimnDraft3D7
0
MTEXT
5
2D5
100
AcDbEntity
8
2
62
256
6
ByLayer
370
-1
48
1
60
0
100
AcDbMText
10
221.725
20
5.246053
30
0
210
0
220
0
230
1
1
\W01.000;\fsimplex.shx,bigfont.shx;52 
40
4.5
41
0
44
1.084337
50
90
71
7
72
5
7
DEFAULT
0
MTEXT
5
2D6
100
AcDbEntity
8
2
62
256
6
ByLayer
370
-1
48
1
60
0
100
AcDbMText
10
221.725
20
-8.253947
30
0
210
0
220
0
230
1
1
\W01.000;\fsimplex.shx,bigfont.shx;%%c 
40
4.5
41
0
44
1.084337
50
90
71
7
72
5
7
DEFAULT
0
LINE
5
2D7
100
AcDbEntity
8
2
62
256
6
ByLayer
370
-1
48
1
60
0
100
AcDbLine
10
198.5875
20
26
30
0
11
227.15
21
26
31
0
39
0
210
0
220
0
230
1
0
LINE
5
2D8
100
AcDbEntity
8
2
62
256
6
ByLayer
370
-1
48
1
60
0
100
AcDbLine
10
198.5875
20
-26
30
0
11
227.15
21
-26
31
0
39
0
210
0
220
0
230
1
0
LINE
5
2D9
100
AcDbEntity
8
2
62
256
6
ByLayer
370
-1
48
1
60
0
100
AcDbLine
10
223.975
20
26
30
0
11
223.975
21
-26
31
0
39
0
210
0
220
0
230
1
0
SOLID
5
2DA
100
AcDbEntity
8
2
62
256
6
ByLayer
370
-1
48
1
60
0
100
AcDbTrace
10
223.975
20
26
30
0
11
224.900575
21
21.825003
31
0
12
223.049425
22
21.824997
32
0
13
223.975
23
26
33
0
39
0
210
0
220
0
230
1
0
SOLID
5
2DB
100
AcDbEntity
8
2
62
256
6
ByLayer
370
-1
48
1
60
0
100
AcDbTrace
10
223.975
20
-26
30
0
11
223.049425
21
-21.825003
31
0
12
224.900575
22
-21.824997
32
0
13
223.975
23
-26
33
0
39
0
210
0
220
0
230
1
0
ENDBLK
5
2DD
100
AcDbEntity
8
0
100
AcDbBlockEnd
0
ENDSEC
0
SECTION
2
ENTITIES
0
ARC
5
F3
100
AcDbEntity
8
SK1
62
256
6
ByLayer
370
-1
48
1
60
0
100
AcDbCircle
39
0
10
1.383773
20
20.15
30
0
40
0.4
210
0
220
0
230
-1
100
AcDbArc
50
270
51
295
0
ARC
5
F4
100
AcDbEntity
8
SK1
62
256
6
ByLayer
370
-1
48
1
60
0
100
AcDbCircle
39
0
10
1.383773
20
-20.15
30
0
40
0.4
210
0
220
0
230
-1
100
AcDbArc
50
65
51
90
0
ARC
5
F5
100
AcDbEntity
8
SK1
62
256
6
ByLayer
370
-1
48
1
60
0
100
AcDbCircle
39
0
10
0.15
20
20.15
30
0
40
0.4
210
0
220
0
230
-1
100
AcDbArc
50
247.975687
51
270
0
ARC
5
F6
100
AcDbEntity
8
SK1
62
256
6
ByLayer
370
-1
48
1
60
0
100
AcDbCircle
39
0
10
0.15
20
-20.15
30
0
40
0.4
210
0
220
0
230
-1
100
AcDbArc
50
90
51
112.024313
0
ARC
5
F7
100
AcDbEntity
8
SK1
62
256
6
ByLayer
370
-1
48
1
60
0
100
AcDbCircle
39
0
10
67.894506
20
20.396
30
0
40
0.8
210
0
220
0
230
-1
100
AcDbArc
50
250.982048
51
321
0
ARC
5
F8
100
AcDbEntity
8
SK1
62
256
6
ByLayer
370
-1
48
1
60
0
100
AcDbCircle
39
0
10
67.894506
20
-20.396
30
0
40
0.8
210
0
220
0
230
-1
100
AcDbArc
50
39
51
109.017952
0
ELLIPSE
5
F9
100
AcDbEntity
8
1
62
256
6
ByLayer
370
-1
48
1
60
0
100
AcDbEllipse
10
182.853029
20
16.420945
30
0
11
-2.25092568282431E-15
21
-2.1
31
0
210
0
220
0
230
1
40
0.996195
41
-2.12048111657724
42
-1.53588974175501
0
ELLIPSE
5
FA
100
AcDbEntity
8
1
62
256
6
ByLayer
370
-1
48
1
60
0
100
AcDbEllipse
10
186.408719
20
-1.6E-05
30
0
11
-289.180416093706
21
-3.27670239964203E-13
31
0
210
0
220
0
230
-1
40
0.087489
41
1.53806437846395
42
1.55058343768801
0
ELLIPSE
5
FB
100
AcDbEntity
8
1
62
256
6
ByLayer
370
-1
48
1
60
0
100
AcDbEllipse
10
181.558765
20
16.375575
30
0
11
-0.799516360141551
21
-0.0278134835287853
31
0
210
0
220
0
230
1
40
0.003042
41
0.0872135714651397
42
0.974050329556246
0
ELLIPSE
5
FC
100
AcDbEntity
8
1
62
256
6
ByLayer
370
-1
48
1
60
0
100
AcDbEllipse
10
181.331901
20
0.001751
30
0
11
-0.819119442126837
21
25.2981480182579
31
0
210
0
220
0
230
-1
40
0.087401
41
0.0230435043991572
42
0.0299556073095694
0
ELLIPSE
5
FD
100
AcDbEntity
8
1
62
256
6
ByLayer
370
-1
48
1
60
0
100
AcDbEllipse
10
174.952048
20
15.4
30
0
11
1.17145334231588E-16
21
0.0999999999999664
31
0
210
0
220
0
230
1
40
0.978267
41
2.99029888357277
42
-1.5707963267949
0
ELLIPSE
5
FE
100
AcDbEntity
8
1
62
256
6
ByLayer
370
-1
48
1
60
0
100
AcDbEllipse
10
181.593011
20
18.508145
30
0
11
-0.77330687561757
21
-0.824449226322435
31
0
210
0
220
0
230
-1
40
0.04503
41
-0.75708461081792
42
-0.704869723096735
0
ELLIPSE
5
FF
100
AcDbEntity
8
1
62
256
6
ByLayer
370
-1
48
1
60
0
100
AcDbEllipse
10
200.703687
20
0
30
0
11
-60.4141397094691
21
24.5029493370624
31
0
210
0
220
0
230
-1
40
0.104287
41
-1.10617761769639
42
-0.521657747373895
0
ELLIPSE
5
100
100
AcDbEntity
8
1
62
256
6
ByLayer
370
-1
48
1
60
0
100
AcDbEllipse
10
195.115195
20
11.102209
30
0
11
-0.00136481934183647
21
0.801160572977856
31
0
210
0
220
0
230
-1
40
0.1217
41
2.24978863291681
42
-3.13956122910204
0
ELLIPSE
5
101
100
AcDbEntity
8
1
62
256
6
ByLayer
370
-1
48
1
60
0
100
AcDbEllipse
10
181.721814
20
0
30
0
11
-119.363775756035
21
-1.35251057361849E-13
31
0
210
0
220
0
230
-1
40
0.211957
41
1.35546852867758
42
1.51487132862876
0
ELLIPSE
5
102
100
AcDbEntity
8
1
62
256
6
ByLayer
370
-1
48
1
60
0
100
AcDbEllipse
10
181.304347
20
30.13481
30
0
11
2.24919041724725E-14
21
19.2
31
0
210
0
220
0
230
1
40
0.996195
41
2.78311668285033
42
3.1099422500536
0
ELLIPSE
5
103
100
AcDbEntity
8
1
62
256
6
ByLayer
370
-1
48
1
60
0
100
AcDbEllipse
10
181.723907
20
11.628469
30
0
11
-0.799516360141551
21
-0.0278134835287853
31
0
210
0
220
0
230
1
40
0.003042
41
0.087213571465873
42
0.974050329556246
0
ELLIPSE
5
104
100
AcDbEntity
8
1
62
256
6
ByLayer
370
-1
48
1
60
0
100
AcDbEllipse
10
176.562257
20
0
30
0
11
-117.887194167558
21
1.61878809950457
31
0
210
0
220
0
230
-1
40
0.214172
41
-1.57685309000934
42
-1.42719283114743
0
ELLIPSE
5
105
100
AcDbEntity
8
1
62
256
6
ByLayer
370
-1
48
1
60
0
100
AcDbEllipse
10
196.955504
20
0
30
0
11
-2.08050618677764
21
-25.2986335941151
31
0
210
0
220
0
230
-1
40
0.126383
41
0.0376495409956306
42
1.08170457728724
0
ELLIPSE
5
106
100
AcDbEntity
8
1
62
256
6
ByLayer
370
-1
48
1
60
0
100
AcDbEllipse
10
188.922303
20
17.809219
30
0
11
2.63577002021162E-15
21
2.25
31
0
210
0
220
0
230
1
40
0.996195
41
-2.22542577446687
42
0
0
ELLIPSE
5
107
100
AcDbEntity
8
1
62
256
6
ByLayer
370
-1
48
1
60
0
100
AcDbEllipse
10
188.922303
20
17.809219
30
0
11
2.63577002021162E-15
21
2.25
31
0
210
0
220
0
230
1
40
0.996195
41
0
42
1.16248744141283
0
ELLIPSE
5
108
100
AcDbEntity
8
1
62
256
6
ByLayer
370
-1
48
1
60
0
100
AcDbEllipse
10
194.73811
20
-0.275923
30
0
11
-0.00161447430128684
21
0.800533911793812
31
0
210
0
220
0
230
-1
40
0.122601
41
-1.50522603010848
42
0.065570296692699
0
ELLIPSE
5
109
100
AcDbEntity
8
1
62
256
6
ByLayer
370
-1
48
1
60
0
100
AcDbEllipse
10
3.186698
20
0
30
0
11
-449.951336552967
21
-24.4666349857966
31
0
210
0
220
0
230
-1
40
0.014313
41
-2.00339794851734
42
-1.97431903133772
0
ELLIPSE
5
10A
100
AcDbEntity
8
1
62
256
6
ByLayer
370
-1
48
1
60
0
100
AcDbEllipse
10
188.820748
20
-6.098544
30
0
11
-1.65
21
1.6675544408859E-15
31
0
210
0
220
0
230
1
40
0.998135
41
3.14159250247964
42
0
0
ELLIPSE
5
10B
100
AcDbEntity
8
1
62
256
6
ByLayer
370
-1
48
1
60
0
100
AcDbEllipse
10
188.820748
20
-6.098544
30
0
11
-1.65
21
1.6675544408859E-15
31
0
210
0
220
0
230
1
40
0.998135
41
0
42
0.904778465618597
0
ELLIPSE
5
10C
100
AcDbEntity
8
1
62
256
6
ByLayer
370
-1
48
1
60
0
100
AcDbEllipse
10
188.820748
20
-6.098544
30
0
11
-1.65
21
1.6675544408859E-15
31
0
210
0
220
0
230
1
40
0.998135
41
2.20215833523415
42
3.14159250247965
0
ELLIPSE
5
10D
100
AcDbEntity
8
1
62
256
6
ByLayer
370
-1
48
1
60
0
100
AcDbEllipse
10
172.677182
20
15.301142
30
0
11
-1.67845884202076
21
-10.7699942393505
31
0
210
0
220
0
230
1
40
0.204982
41
0.604048242545434
42
1.60273105781499
0
ELLIPSE
5
10E
100
AcDbEntity
8
1
62
256
6
ByLayer
370
-1
48
1
60
0
100
AcDbEllipse
10
189.122761
20
17.809219
30
0
11
2.34290668463255E-15
21
2
31
0
210
0
220
0
230
1
40
0.996195
41
0
42
6.28318530717959
0
ELLIPSE
5
10F
100
AcDbEntity
8
1
62
256
6
ByLayer
370
-1
48
1
60
0
100
AcDbEllipse
10
154.416478
20
18.092584
30
0
11
-28.6016288355203
21
15.2830062447762
31
0
210
0
220
0
230
-1
40
0.093778
41
-2.09958275081368
42
-1.43532016035218
0
ELLIPSE
5
110
100
AcDbEntity
8
1
62
256
6
ByLayer
370
-1
48
1
60
0
100
AcDbEllipse
10
185.865724
20
10.787703
30
0
11
-8.59145995369658
21
0.45195144393171
31
0
210
0
220
0
230
-1
40
0.000413
41
-3.1349225818212
42
-3.13374248753976
0
ELLIPSE
5
111
100
AcDbEntity
8
1
62
256
6
ByLayer
370
-1
48
1
60
0
100
AcDbEllipse
10
188.820748
20
-6.599142
30
0
11
-2
21
2.02127811016473E-15
31
0
210
0
220
0
230
1
40
0.998135
41
-2.12106600584354
42
-1.02062521243922
0
ELLIPSE
5
112
100
AcDbEntity
8
1
62
256
6
ByLayer
370
-1
48
1
60
0
100
AcDbEllipse
10
189.532393
20
17.809219
30
0
11
2.34290668463255E-15
21
2
31
0
210
0
220
0
230
1
40
0.996195
41
0.102985300926076
42
1.57079604872776
0
ELLIPSE
5
113
100
AcDbEntity
8
1
62
256
6
ByLayer
370
-1
48
1
60
0
100
AcDbEllipse
10
189.532393
20
17.809219
30
0
11
2.34290668463255E-15
21
2
31
0
210
0
220
0
230
1
40
0.996195
41
1.57079654872776
42
3.03860729631731
0
ELLIPSE
5
114
100
AcDbEntity
8
1
62
256
6
ByLayer
370
-1
48
1
60
0
100
AcDbEllipse
10
188.820748
20
-6.171422
30
0
11
-1.65
21
1.6675544408859E-15
31
0
210
0
220
0
230
1
40
0.998135
41
-3.11950312485273
42
-0.0221874378536098
0
ELLIPSE
5
115
100
AcDbEntity
8
1
62
256
6
ByLayer
370
-1
48
1
60
0
100
AcDbEllipse
10
182.495691
20
16.420945
30
0
11
2.46005201886418E-15
21
2.1
31
0
210
0
220
0
230
1
40
0.996195
41
0.9391157406859
42
1.60570291183478
0
ELLIPSE
5
116
100
AcDbEntity
8
1
62
256
6
ByLayer
370
-1
48
1
60
0
100
AcDbEllipse
10
195.310232
20
-13.131663
30
0
11
-0.0775054657246027
21
-0.878086631934416
31
0
210
0
220
0
230
-1
40
0.115224
41
0.00370845515700884
42
1.57450478194652
0
ELLIPSE
5
117
100
AcDbEntity
8
1
62
256
6
ByLayer
370
-1
48
1
60
0
100
AcDbEllipse
10
181.234623
20
30.13481
30
0
11
-2.14373874554696E-14
21
-20
31
0
210
0
220
0
230
1
40
0.996195
41
-0.260059291595363
42
-0.00336141707416191
0
ELLIPSE
5
118
100
AcDbEntity
8
1
62
256
6
ByLayer
370
-1
48
1
60
0
100
AcDbEllipse
10
182.660833
20
11.673838
30
0
11
2.46005201886418E-15
21
2.1
31
0
210
0
220
0
230
1
40
0.996195
41
1.60570291183478
42
1.92552816401088
0
ELLIPSE
5
119
100
AcDbEntity
8
1
62
256
6
ByLayer
370
-1
48
1
60
0
100
AcDbEllipse
10
193.961708
20
-17.391645
30
0
11
-0.258197039718789
21
-3.11684038080185
31
0
210
0
220
0
230
-1
40
0.120842
41
0
42
6.28318530717959
0
ELLIPSE
5
11A
100
AcDbEntity
8
1
62
256
6
ByLayer
370
-1
48
1
60
0
100
AcDbEllipse
10
188.820748
20
-6.098544
30
0
11
2.1
21
0
31
0
210
0
220
0
230
1
40
0.998135
41
0.0855103623133431
42
3.04881740018571
0
ELLIPSE
5
11B
100
AcDbEntity
8
1
62
256
6
ByLayer
370
-1
48
1
60
0
100
AcDbEllipse
10
183.018171
20
11.673838
30
0
11
-2.25092568282431E-15
21
-2.1
31
0
210
0
220
0
230
1
40
0.996195
41
-1.53588974175502
42
-0.158767832418393
0
ELLIPSE
5
11C
100
AcDbEntity
8
1
62
256
6
ByLayer
370
-1
48
1
60
0
100
AcDbEllipse
10
195.203281
20
0
30
0
11
-0.037810072921293
21
25.2999996126466
31
0
210
0
220
0
230
-1
40
0.122716
41
-1.55705956483045
42
-1.39538972496703
0
ELLIPSE
5
11D
100
AcDbEntity
8
1
62
256
6
ByLayer
370
-1
48
1
60
0
100
AcDbEllipse
10
183.03462
20
11.673838
30
0
11
-1.83236116208168
21
-1.63166900511507
31
0
210
0
220
0
230
-1
40
0.721468
41
-1.30152588459665
42
-0.459180144136456
0
ELLIPSE
5
11E
100
AcDbEntity
8
1
62
256
6
ByLayer
370
-1
48
1
60
0
100
AcDbEllipse
10
189.122761
20
17.809219
30
0
11
2.63577002021162E-15
21
2.25
31
0
210
0
220
0
230
1
40
0.996195
41
0.0349501263397862
42
1.57079643761665
0
ELLIPSE
5
11F
100
AcDbEntity
8
1
62
256
6
ByLayer
370
-1
48
1
60
0
100
AcDbEllipse
10
189.122761
20
17.809219
30
0
11
2.63577002021162E-15
21
2.25
31
0
210
0
220
0
230
1
40
0.996195
41
1.87572723107153
42
-1.57079614170616
0
ELLIPSE
5
120
100
AcDbEntity
8
1
62
256
6
ByLayer
370
-1
48
1
60
0
100
AcDbEllipse
10
189.122761
20
17.809219
30
0
11
2.63577002021162E-15
21
2.25
31
0
210
0
220
0
230
1
40
0.996195
41
1.57079643761666
42
1.87572723107153
0
ELLIPSE
5
121
100
AcDbEntity
8
1
62
256
6
ByLayer
370
-1
48
1
60
0
100
AcDbEllipse
10
195.142529
20
0
30
0
11
-1.5351607415844
21
25.2993394155642
31
0
210
0
220
0
230
-1
40
0.119092
41
-2.04226857661064
42
-1.55001659591071
0
ELLIPSE
5
122
100
AcDbEntity
8
1
62
256
6
ByLayer
370
-1
48
1
60
0
100
AcDbEllipse
10
18.2
20
9.081901
30
0
11
-12.5
21
1.26329881885295E-14
31
0
210
0
220
0
230
1
40
0.733888
41
-1.8112247654338
42
-0.185004478208067
0
ELLIPSE
5
123
100
AcDbEntity
8
1
62
256
6
ByLayer
370
-1
48
1
60
0
100
AcDbEllipse
10
147.174424
20
19.275641
30
0
11
-1.67845884202076
21
-10.7699942393505
31
0
210
0
220
0
230
1
40
0.204982
41
1.43700439863728
42
1.46076282313991
0
ELLIPSE
5
124
100
AcDbEntity
8
1
62
256
6
ByLayer
370
-1
48
1
60
0
100
AcDbEllipse
10
188.801267
20
18.087082
30
0
11
-3.30786649004912E-15
21
-3.0860724021715
31
0
210
0
220
0
230
1
40
0.996195
41
2.2155101975546
42
0
0
ELLIPSE
5
125
100
AcDbEntity
8
1
62
256
6
ByLayer
370
-1
48
1
60
0
100
AcDbEllipse
10
188.801267
20
18.087082
30
0
11
-3.30786649004912E-15
21
-3.0860724021715
31
0
210
0
220
0
230
1
40
0.996195
41
0
42
0.926082660508351
0
ELLIPSE
5
126
100
AcDbEntity
8
1
62
256
6
ByLayer
370
-1
48
1
60
0
100
AcDbEllipse
10
189.12447
20
18.087082
30
0
11
-2.51889302601768E-15
21
-2.35
31
0
210
0
220
0
230
1
40
0.996195
41
-3.1119438437377
42
-0.0296489603413535
0
ELLIPSE
5
127
100
AcDbEntity
8
1
62
256
6
ByLayer
370
-1
48
1
60
0
100
AcDbEllipse
10
184.653733
20
22.691142
30
0
11
3.5846472274878E-16
21
0.306
31
0
210
0
220
0
230
1
40
0.996195
41
-0.750491578357547
42
1.83550459668067
0
ELLIPSE
5
128
100
AcDbEntity
8
1
62
256
6
ByLayer
370
-1
48
1
60
0
100
AcDbEllipse
10
188.727912
20
18.087082
30
0
11
3.68413502519129E-15
21
3.14492681194351
31
0
210
0
220
0
230
1
40
0.996195
41
0
42
6.28318530717959
0
ELLIPSE
5
129
100
AcDbEntity
8
1
62
256
6
ByLayer
370
-1
48
1
60
0
100
AcDbEllipse
10
193.349358
20
13.442034
30
0
11
0.0140130575244561
21
-0.399754467415708
31
0
210
0
220
0
230
1
40
0.087103
41
1.08883794108433
42
1.56774302595899
0
ELLIPSE
5
12A
100
AcDbEntity
8
1
62
256
6
ByLayer
370
-1
48
1
60
0
100
AcDbEllipse
10
185.343188
20
15.191347
30
0
11
3.5846472274878E-16
21
0.306
31
0
210
0
220
0
230
1
40
0.996195
41
-0.10699046956434
42
0.820304748434683
0
ELLIPSE
5
12B
100
AcDbEntity
8
1
62
256
6
ByLayer
370
-1
48
1
60
0
100
AcDbEllipse
10
193.369869
20
13.741852
30
0
11
-5.19131082315858E-16
21
-0.484323085911669
31
0
210
0
220
0
230
1
40
0.996195
41
0.034906585039867
42
1.60570291183474
0
ELLIPSE
5
12C
100
AcDbEntity
8
1
62
256
6
ByLayer
370
-1
48
1
60
0
100
AcDbEllipse
10
185.252764
20
14.346207
30
0
11
-3.27992028068685E-16
21
-0.306
31
0
210
0
220
0
230
1
40
0.996195
41
-0.75049157835767
42
2.39110107523225
0
ELLIPSE
5
12D
100
AcDbEntity
8
1
62
256
6
ByLayer
370
-1
48
1
60
0
100
AcDbEllipse
10
190.387027
20
13.637153
30
0
11
3.51436002694884E-16
21
0.300000000000001
31
0
210
0
220
0
230
1
40
0.996195
41
0.357350020496943
42
-3.10668606854988
0
ELLIPSE
5
12E
100
AcDbEntity
8
1
62
256
6
ByLayer
370
-1
48
1
60
0
100
AcDbEllipse
10
183.868343
20
21.845697
30
0
11
3.5846472274878E-16
21
0.306
31
0
210
0
220
0
230
1
40
0.996195
41
-0.194895099806065
42
2.39110107523211
0
ELLIPSE
5
12F
100
AcDbEntity
8
1
62
256
6
ByLayer
370
-1
48
1
60
0
100
AcDbEllipse
10
185.252764
20
14.346207
30
0
11
-5.83096938788774E-16
21
-0.544
31
0
210
0
220
0
230
1
40
0.996195
41
0.920472169598871
42
2.77549784972788
0
ELLIPSE
5
130
100
AcDbEntity
8
1
62
256
6
ByLayer
370
-1
48
1
60
0
100
AcDbEllipse
10
183.832784
20
21.845697
30
0
11
0.348527918949299
21
0.3723282016083
31
0
210
0
220
0
230
1
40
0.063742
41
-2.1547009679556
42
-1.51119985916242
0
ELLIPSE
5
131
100
AcDbEntity
8
1
62
256
6
ByLayer
370
-1
48
1
60
0
100
AcDbEllipse
10
188.727912
20
18.087082
30
0
11
4.99704147825015E-15
21
4.26567691408833
31
0
210
0
220
0
230
1
40
0.996195
41
-2.78424263309281
42
-1.85833317721211
0
ELLIPSE
5
132
100
AcDbEntity
8
1
62
256
6
ByLayer
370
-1
48
1
60
0
100
AcDbEllipse
10
185.980601
20
21.415805
30
0
11
0.348527918949299
21
0.3723282016083
31
0
210
0
220
0
230
1
40
0.063742
41
-2.15470096795555
42
-0.86769875036941
0
ELLIPSE
5
133
100
AcDbEntity
8
1
62
256
6
ByLayer
370
-1
48
1
60
0
100
AcDbEllipse
10
193.056607
20
22.74677
30
0
11
-5.19131082315858E-16
21
-0.484323085911669
31
0
210
0
220
0
230
1
40
0.996195
41
1.60570291183474
42
-3.10668606854993
0
ELLIPSE
5
134
100
AcDbEntity
8
1
62
256
6
ByLayer
370
-1
48
1
60
0
100
AcDbEllipse
10
190.073765
20
22.642072
30
0
11
-3.21560811832046E-16
21
-0.300000000000001
31
0
210
0
220
0
230
1
40
0.996195
41
-3.10668606854988
42
-0.287536850417191
0
ELLIPSE
5
135
100
AcDbEntity
8
1
62
256
6
ByLayer
370
-1
48
1
60
0
100
AcDbEllipse
10
184.939344
20
21.633473
30
0
11
-3.27992028068685E-16
21
-0.306
31
0
210
0
220
0
230
1
40
0.996195
41
-0.194895099805945
42
1.83550459668067
0
ELLIPSE
5
136
100
AcDbEntity
8
1
62
256
6
ByLayer
370
-1
48
1
60
0
100
AcDbEllipse
10
184.618174
20
22.691142
30
0
11
0.492364140378783
21
0.132956960212929
31
0
210
0
220
0
230
1
40
0.022802
41
-2.1300559455338
42
-1.48655483674065
0
ELLIPSE
5
137
100
AcDbEntity
8
1
62
256
6
ByLayer
370
-1
48
1
60
0
100
AcDbEllipse
10
190.069843
20
22.642072
30
0
11
-5.19131082315856E-16
21
-0.484323085911667
31
0
210
0
220
0
230
1
40
0.996195
41
-3.10668606854987
42
-0.287536850417242
0
ELLIPSE
5
138
100
AcDbEntity
8
1
62
256
6
ByLayer
370
-1
48
1
60
0
100
AcDbEllipse
10
184.578834
20
14.860835
30
0
11
2.34993540468645E-15
21
2.006
31
0
210
0
220
0
230
1
40
0.996195
41
-2.42145532631401
42
-2.2211204839909
0
ELLIPSE
5
139
100
AcDbEntity
8
1
62
256
6
ByLayer
370
-1
48
1
60
0
100
AcDbEllipse
10
184.845634
20
14.694027
30
0
11
0.348527918949299
21
0.3723282016083
31
0
210
0
220
0
230
1
40
0.063742
41
-2.15470096795527
42
-1.54779877208519
0
ELLIPSE
5
13A
100
AcDbEntity
8
1
62
256
6
ByLayer
370
-1
48
1
60
0
100
AcDbEllipse
10
185.252764
20
14.346207
30
0
11
-1.23908099492614E-15
21
-1.156
31
0
210
0
220
0
230
1
40
0.996195
41
0.920472169598879
42
3.03460218402552
0
ELLIPSE
5
13B
100
AcDbEntity
8
1
62
256
6
ByLayer
370
-1
48
1
60
0
100
AcDbEllipse
10
188.824982
20
18.087082
30
0
11
-3.19627500372467E-15
21
-2.98196318032136
31
0
210
0
220
0
230
1
40
0.996195
41
0
42
6.28318530717959
0
ELLIPSE
5
13C
100
AcDbEntity
8
1
62
256
6
ByLayer
370
-1
48
1
60
0
100
AcDbEllipse
10
185.217205
20
14.346207
30
0
11
-0.348527918949299
21
-0.3723282016083
31
0
210
0
220
0
230
1
40
0.063742
41
0.986891685634167
42
2.27389390322046
0
ELLIPSE
5
13D
100
AcDbEntity
8
1
62
256
6
ByLayer
370
-1
48
1
60
0
100
AcDbEllipse
10
189.954149
20
22.354388
30
0
11
0.113834701403356
21
0.383460116252537
31
0
210
0
220
0
230
1
40
0.083578
41
-2.02489549788562
42
-1.54599041301063
0
ELLIPSE
5
13E
100
AcDbEntity
8
1
62
256
6
ByLayer
370
-1
48
1
60
0
100
AcDbEllipse
10
188.731834
20
18.087082
30
0
11
-4.76981870884199E-15
21
-4.45
31
0
210
0
220
0
230
1
40
0.996195
41
0.357350020496975
42
1.28325947637769
0
ELLIPSE
5
13F
100
AcDbEntity
8
1
62
256
6
ByLayer
370
-1
48
1
60
0
100
AcDbEllipse
10
184.845627
20
14.694029
30
0
11
-0.0251729958995156
21
0.720861411008861
31
0
210
0
220
0
230
-1
40
0.061596
41
1.57295018128641
42
1.60954637730816
0
ELLIPSE
5
140
100
AcDbEntity
8
1
62
256
6
ByLayer
370
-1
48
1
60
0
100
AcDbEllipse
10
183.832784
20
21.845697
30
0
11
0.099131498336372
21
0.500272871578687
31
0
210
0
220
0
230
1
40
0.085506
41
-1.55385457642578
42
-0.910353467632622
0
ELLIPSE
5
141
100
AcDbEntity
8
1
62
256
6
ByLayer
370
-1
48
1
60
0
100
AcDbEllipse
10
193.373791
20
13.741852
30
0
11
3.51436002694886E-16
21
0.300000000000003
31
0
210
0
220
0
230
1
40
0.996195
41
-3.10668606854988
42
-1.53588974175502
0
ELLIPSE
5
142
100
AcDbEntity
8
1
62
256
6
ByLayer
370
-1
48
1
60
0
100
AcDbEllipse
10
193.164829
20
19.748598
30
0
11
-3.21560811832046E-16
21
-0.300000000000001
31
0
210
0
220
0
230
1
40
0.996195
41
-1.21344630629795
42
1.60570291183477
0
ELLIPSE
5
143
100
AcDbEntity
8
1
62
256
6
ByLayer
370
-1
48
1
60
0
100
AcDbEllipse
10
184.268141
20
14.072376
30
0
11
0.502108561637825
21
0.0893699744321017
31
0
210
0
220
0
230
1
40
0.015329
41
-2.12838464107851
42
-0.841382423491658
0
ELLIPSE
5
144
100
AcDbEntity
8
1
62
256
6
ByLayer
370
-1
48
1
60
0
100
AcDbEllipse
10
184.303701
20
14.072376
30
0
11
3.58464722748779E-16
21
0.305999999999999
31
0
210
0
220
0
230
1
40
0.996195
41
-1.3939926871508
42
1.747599966439
0
ELLIPSE
5
145
100
AcDbEntity
8
1
62
256
6
ByLayer
370
-1
48
1
60
0
100
AcDbEllipse
10
184.832955
20
14.680379
30
0
11
-0.37340082812668
21
0.346876892031236
31
0
210
0
220
0
230
1
40
0.05944
41
-1.63469437803416
42
-0.992087287820099
0
ELLIPSE
5
146
100
AcDbEntity
8
1
62
256
6
ByLayer
370
-1
48
1
60
0
100
AcDbEllipse
10
193.160907
20
19.748598
30
0
11
-5.19131082315857E-16
21
-0.484323085911668
31
0
210
0
220
0
230
1
40
0.996195
41
-1.21344630629796
42
1.60570291183474
0
ELLIPSE
5
147
100
AcDbEntity
8
1
62
256
6
ByLayer
370
-1
48
1
60
0
100
AcDbEllipse
10
185.137266
20
14.221877
30
0
11
6.37270618220054E-16
21
0.544
31
0
210
0
220
0
230
1
40
0.996195
41
1.74759996643897
42
-2.42145532631413
0
ELLIPSE
5
148
100
AcDbEntity
8
1
62
256
6
ByLayer
370
-1
48
1
60
0
100
AcDbEllipse
10
184.881193
20
14.694027
30
0
11
3.5846472274878E-16
21
0.306
31
0
210
0
220
0
230
1
40
0.996195
41
0.881327184779035
42
2.39110107523223
0
ELLIPSE
5
149
100
AcDbEntity
8
1
62
256
6
ByLayer
370
-1
48
1
60
0
100
AcDbEllipse
10
190.028473
20
22.941889
30
0
11
-0.0140130575244562
21
0.399754467415708
31
0
210
0
220
0
230
1
40
0.087103
41
-1.5738496276308
42
-1.09494454275638
0
ELLIPSE
5
14A
100
AcDbEntity
8
1
62
256
6
ByLayer
370
-1
48
1
60
0
100
AcDbEllipse
10
184.903784
20
21.633473
30
0
11
-0.705563291717643
21
0.659061827061341
31
0
210
0
220
0
230
-1
40
0.031444
41
0.960945087865689
42
1.60444619656043
0
ELLIPSE
5
14B
100
AcDbEntity
8
1
62
256
6
ByLayer
370
-1
48
1
60
0
100
AcDbEllipse
10
185.195211
20
20.57036
30
0
11
0.348527918949299
21
0.3723282016083
31
0
210
0
220
0
230
1
40
0.063742
41
-2.1547009679561
42
-0.867698750368787
0
ELLIPSE
5
14C
100
AcDbEntity
8
1
62
256
6
ByLayer
370
-1
48
1
60
0
100
AcDbEllipse
10
183.832784
20
21.845697
30
0
11
-1.65004005617399
21
0.846499039172933
31
0
210
0
220
0
230
-1
40
0.010943
41
1.59212368597114
42
2.2356247942371
0
ELLIPSE
5
14D
100
AcDbEntity
8
1
62
256
6
ByLayer
370
-1
48
1
60
0
100
AcDbEllipse
10
185.660138
20
13.582919
30
0
11
-0.337063013710962
21
0.382738193531928
31
0
210
0
220
0
230
1
40
0.065516
41
-2.27193125321687
42
-0.984929035631719
0
ELLIPSE
5
14E
100
AcDbEntity
8
1
62
256
6
ByLayer
370
-1
48
1
60
0
100
AcDbEllipse
10
186.016161
20
21.415805
30
0
11
-3.27992028068685E-16
21
-0.306
31
0
210
0
220
0
230
1
40
0.996195
41
-0.750491578357547
42
2.39110107523224
0
ELLIPSE
5
14F
100
AcDbEntity
8
1
62
256
6
ByLayer
370
-1
48
1
60
0
100
AcDbEllipse
10
190.383105
20
13.637153
30
0
11
-5.19131082315856E-16
21
-0.484323085911667
31
0
210
0
220
0
230
1
40
0.996195
41
-2.78424263309281
42
0.0349065850398707
0
ELLIPSE
5
150
100
AcDbEntity
8
1
62
256
6
ByLayer
370
-1
48
1
60
0
100
AcDbEllipse
10
193.015236
20
23.046588
30
0
11
-0.0140130575244562
21
0.399754467415708
31
0
210
0
220
0
230
1
40
0.087103
41
-1.5738496276308
42
-1.09494454275644
0
ELLIPSE
5
151
100
AcDbEntity
8
1
62
256
6
ByLayer
370
-1
48
1
60
0
100
AcDbEllipse
10
185.891135
20
13.83158
30
0
11
-0.406468958660141
21
0.308030819311543
31
0
210
0
220
0
230
1
40
0.052768
41
-2.28381636720065
42
-0.99681414961358
0
ELLIPSE
5
152
100
AcDbEntity
8
1
62
256
6
ByLayer
370
-1
48
1
60
0
100
AcDbEllipse
10
184.903784
20
21.633473
30
0
11
0.492364140378783
21
0.132956960212929
31
0
210
0
220
0
230
1
40
0.022802
41
-1.48655483674054
42
-0.843053727946694
0
ELLIPSE
5
153
100
AcDbEntity
8
1
62
256
6
ByLayer
370
-1
48
1
60
0
100
AcDbEllipse
10
193.269491
20
16.740024
30
0
11
3.51436002694884E-16
21
0.300000000000001
31
0
210
0
220
0
230
1
40
0.996195
41
-1.53588974175502
42
1.28325947637766
0
ELLIPSE
5
154
100
AcDbEntity
8
1
62
256
6
ByLayer
370
-1
48
1
60
0
100
AcDbEllipse
10
188.985509
20
18.087082
30
0
11
-2.51889302601768E-15
21
-2.35
31
0
210
0
220
0
230
1
40
0.996195
41
3.09878844376697
42
0
0
ELLIPSE
5
155
100
AcDbEntity
8
1
62
256
6
ByLayer
370
-1
48
1
60
0
100
AcDbEllipse
10
188.985509
20
18.087082
30
0
11
-2.51889302601768E-15
21
-2.35
31
0
210
0
220
0
230
1
40
0.996195
41
0
42
0.0335758030814264
0
ELLIPSE
5
156
100
AcDbEntity
8
1
62
256
6
ByLayer
370
-1
48
1
60
0
100
AcDbEllipse
10
193.533305
20
16.750494
30
0
11
-0.399758180070776
21
-0.0139067417643927
31
0
210
0
220
0
230
1
40
0.003042
41
1.6580098982609
42
2.1369149831345
0
ELLIPSE
5
157
100
AcDbEntity
8
1
62
256
6
ByLayer
370
-1
48
1
60
0
100
AcDbEllipse
10
184.903784
20
21.633473
30
0
11
0.099131498336372
21
0.500272871578687
31
0
210
0
220
0
230
1
40
0.085506
41
-2.19735568521924
42
-1.55385457642578
0
ELLIPSE
5
158
100
AcDbEntity
8
1
62
256
6
ByLayer
370
-1
48
1
60
0
100
AcDbEllipse
10
193.265569
20
16.740024
30
0
11
-5.19131082315857E-16
21
-0.484323085911668
31
0
210
0
220
0
230
1
40
0.996195
41
1.60570291183474
42
-1.85833317721212
0
ELLIPSE
5
159
100
AcDbEntity
8
1
62
256
6
ByLayer
370
-1
48
1
60
0
100
AcDbEllipse
10
190.247626
20
13.918201
30
0
11
0.14038589456198
21
-0.374555470668942
31
0
210
0
220
0
230
1
40
0.08165
41
1.54020296240859
42
2.01910804728327
0
ELLIPSE
5
15A
100
AcDbEntity
8
1
62
256
6
ByLayer
370
-1
48
1
60
0
100
AcDbEllipse
10
185.307628
20
15.191347
30
0
11
0.373651049327857
21
-0.347109339165905
31
0
210
0
220
0
230
1
40
0.05944
41
1.50689827555572
42
2.15039938434918
0
ELLIPSE
5
15B
100
AcDbEntity
8
1
62
256
6
ByLayer
370
-1
48
1
60
0
100
AcDbEllipse
10
184.832955
20
14.680379
30
0
11
0.373651049327857
21
-0.347109339165905
31
0
210
0
220
0
230
1
40
0.05944
41
1.47029936263281
42
2.15039938434869
0
ELLIPSE
5
15C
100
AcDbEntity
8
1
62
256
6
ByLayer
370
-1
48
1
60
0
100
AcDbEllipse
10
188.731834
20
18.087082
30
0
11
5.21296737330743E-15
21
4.45
31
0
210
0
220
0
230
1
40
0.996195
41
-1.21344630629792
42
-0.287536850417209
0
ELLIPSE
5
15D
100
AcDbEntity
8
1
62
256
6
ByLayer
370
-1
48
1
60
0
100
AcDbEllipse
10
192.94804
20
16.825101
30
0
11
0.383695343937984
21
-0.113039298654548
31
0
210
0
220
0
230
1
40
0.024717
41
1.4870954970176
42
1.96600058189173
0
ELLIPSE
5
15E
100
AcDbEntity
8
1
62
256
6
ByLayer
370
-1
48
1
60
0
100
AcDbEllipse
10
193.428643
20
19.759068
30
0
11
-0.399758180070776
21
-0.0139067417643927
31
0
210
0
220
0
230
1
40
0.003042
41
1.65800989826104
42
2.1369149831384
0
ELLIPSE
5
15F
100
AcDbEntity
8
1
62
256
6
ByLayer
370
-1
48
1
60
0
100
AcDbEllipse
10
185.230771
20
20.57036
30
0
11
-3.27992028068685E-16
21
-0.306
31
0
210
0
220
0
230
1
40
0.996195
41
-0.750491578357687
42
2.39110107523224
0
ELLIPSE
5
160
100
AcDbEntity
8
1
62
256
6
ByLayer
370
-1
48
1
60
0
100
AcDbEllipse
10
193.637605
20
13.752321
30
0
11
0.399758180070776
21
0.0139067417643925
31
0
210
0
220
0
230
1
40
0.003042
41
-1.48358275532889
42
-1.00467767045325
0
ELLIPSE
5
161
100
AcDbEntity
8
1
62
256
6
ByLayer
370
-1
48
1
60
0
100
AcDbEllipse
10
190.362595
20
13.337336
30
0
11
0.0140130575244561
21
-0.399754467415708
31
0
210
0
220
0
230
1
40
0.087103
41
1.08883794108427
42
1.56774302595899
0
ELLIPSE
5
162
100
AcDbEntity
8
1
62
256
6
ByLayer
370
-1
48
1
60
0
100
AcDbEllipse
10
184.578834
20
14.860835
30
0
11
1.63300595918889E-15
21
1.394
31
0
210
0
220
0
230
1
40
0.996195
41
-2.42145532631403
42
-2.22112048399092
0
ELLIPSE
5
163
100
AcDbEntity
8
1
62
256
6
ByLayer
370
-1
48
1
60
0
100
AcDbEllipse
10
185.307628
20
15.191347
30
0
11
-0.0546667450361384
21
-0.507061679667428
31
0
210
0
220
0
230
1
40
0.086657
41
1.58013866027565
42
2.22363976906874
0
ELLIPSE
5
164
100
AcDbEntity
8
1
62
256
6
ByLayer
370
-1
48
1
60
0
100
AcDbEllipse
10
184.618174
20
22.691142
30
0
11
-0.95695114338188
21
1.5925514510037
31
0
210
0
220
0
230
-1
40
0.020508
41
1.58311883816179
42
2.22661994684389
0
ELLIPSE
5
165
100
AcDbEntity
8
1
62
256
6
ByLayer
370
-1
48
1
60
0
100
AcDbEllipse
10
188.727912
20
18.087082
30
0
11
4.99704147825015E-15
21
4.26567691408833
31
0
210
0
220
0
230
1
40
0.996195
41
-1.21344630629793
42
-0.287536850417223
0
ELLIPSE
5
166
100
AcDbEntity
8
1
62
256
6
ByLayer
370
-1
48
1
60
0
100
AcDbEllipse
10
193.060529
20
22.74677
30
0
11
-3.21560811832048E-16
21
-0.300000000000003
31
0
210
0
220
0
230
1
40
0.996195
41
1.60570291183477
42
-3.10668606854998
0
ELLIPSE
5
167
100
AcDbEntity
8
1
62
256
6
ByLayer
370
-1
48
1
60
0
100
AcDbEllipse
10
185.137266
20
14.221877
30
0
11
1.35420006371761E-15
21
1.156
31
0
210
0
220
0
230
1
40
0.996195
41
1.74759996643894
42
-2.42145532631402
0
ELLIPSE
5
168
100
AcDbEntity
8
1
62
256
6
ByLayer
370
-1
48
1
60
0
100
AcDbEllipse
10
184.845634
20
14.694027
30
0
11
-0.719441080348653
21
-0.0251232539828213
31
0
210
0
220
0
230
-1
40
0.002159
41
-2.27604469508857
42
-1.63254358653639
0
ELLIPSE
5
169
100
AcDbEntity
8
1
62
256
6
ByLayer
370
-1
48
1
60
0
100
AcDbEllipse
10
184.618174
20
22.691142
30
0
11
0.348527918949299
21
0.3723282016083
31
0
210
0
220
0
230
1
40
0.063742
41
-1.51119985916242
42
-0.86769875036941
0
ELLIPSE
5
16A
100
AcDbEntity
8
1
62
256
6
ByLayer
370
-1
48
1
60
0
100
AcDbEllipse
10
193.324343
20
22.75724
30
0
11
0.399758180070776
21
0.0139067417643925
31
0
210
0
220
0
230
1
40
0.003042
41
-1.48358275532896
42
-1.00467767045139
0
ELLIPSE
5
16B
100
AcDbEntity
8
1
62
256
6
ByLayer
370
-1
48
1
60
0
100
AcDbEllipse
10
192.849988
20
19.64366
30
0
11
0.374905085817622
21
0.139449548683677
31
0
210
0
220
0
230
1
40
0.030486
41
-1.96792246060789
42
-1.48901737573349
0
ELLIPSE
5
16C
100
AcDbEntity
8
1
62
256
6
ByLayer
370
-1
48
1
60
0
100
AcDbEllipse
10
189.064564
20
-7.005823
30
0
11
2.35
21
0
31
0
210
0
220
0
230
1
40
0.998135
41
1.43914375962752
42
2.37141152198153
0
ELLIPSE
5
16D
100
AcDbEntity
8
1
62
256
6
ByLayer
370
-1
48
1
60
0
100
AcDbEllipse
10
195.652021
20
-11.584324
30
0
11
0.399755420109682
21
-0.0139858533144044
31
0
210
0
220
0
230
1
40
0.061011
41
-2.69514959798617
42
-1.56866178537651
0
ELLIPSE
5
16E
100
AcDbEntity
8
1
62
256
6
ByLayer
370
-1
48
1
60
0
100
AcDbEllipse
10
195.249345
20
-7.605442
30
0
11
0.399449767440438
21
0.0209733948558649
31
0
210
0
220
0
230
1
40
0.060965
41
-2.26002761206156
42
-1.5739973200739
0
ELLIPSE
5
16F
100
AcDbEntity
8
1
62
256
6
ByLayer
370
-1
48
1
60
0
100
AcDbEllipse
10
195.088928
20
-9.656752
30
0
11
0.29981059662464
21
-0.0106586186524087
31
0
210
0
220
0
230
1
40
0.062172
41
0.451113598197551
42
0.749081453625343
0
ELLIPSE
5
170
100
AcDbEntity
8
1
62
256
6
ByLayer
370
-1
48
1
60
0
100
AcDbEllipse
10
195.614458
20
-9.121735
30
0
11
0.365223319349419
21
0.163131624780091
31
0
210
0
220
0
230
1
40
0.055758
41
-2.71681212084253
42
-1.59569626835045
0
ELLIPSE
5
171
100
AcDbEntity
8
1
62
256
6
ByLayer
370
-1
48
1
60
0
100
AcDbEllipse
10
199.524413
20
-7.406232
30
0
11
4.28093556580439
21
0
31
0
210
0
220
0
230
1
40
0.998135
41
-3.08923277602997
42
-2.7222122767235
0
ELLIPSE
5
172
100
AcDbEntity
8
1
62
256
6
ByLayer
370
-1
48
1
60
0
100
AcDbEllipse
10
194.768686
20
-11.577954
30
0
11
-0.883873414348952
21
8.93276992290047E-16
31
0
210
0
220
0
230
1
40
0.998135
41
2.13630974316582
42
3.10668606854993
0
ELLIPSE
5
173
100
AcDbEntity
8
1
62
256
6
ByLayer
370
-1
48
1
60
0
100
AcDbEllipse
10
194.198888
20
-2.573121
30
0
11
1.08387341434895
21
0
31
0
210
0
220
0
230
1
40
0.998135
41
0.0523598775598172
42
0.34906585039904
0
ELLIPSE
5
174
100
AcDbEntity
8
1
62
256
6
ByLayer
370
-1
48
1
60
0
100
AcDbEllipse
10
199.524413
20
-7.662636
30
0
11
-3.00000000000001
21
3.0319171652471E-15
31
0
210
0
220
0
230
1
40
0.998135
41
0.0523598775598173
42
0.419380376866299
0
ELLIPSE
5
175
100
AcDbEntity
8
1
62
256
6
ByLayer
370
-1
48
1
60
0
100
AcDbEllipse
10
194.501036
20
-9.641625
30
0
11
1.51906443419564
21
0
31
0
210
0
220
0
230
1
40
0.998135
41
-0.0349065850399019
42
0.419380376866298
0
ELLIPSE
5
176
100
AcDbEntity
8
1
62
256
6
ByLayer
370
-1
48
1
60
0
100
AcDbEllipse
10
194.935488
20
-2.281101
30
0
11
0.375794833735044
21
0.137033729198511
31
0
210
0
220
0
230
1
40
0.057367
41
-2.20153972804393
42
-1.59171212435573
0
ELLIPSE
5
177
100
AcDbEntity
8
1
62
256
6
ByLayer
370
-1
48
1
60
0
100
AcDbEllipse
10
194.198888
20
-2.573121
30
0
11
-0.783873414348954
21
7.92213086781812E-16
31
0
210
0
220
0
230
1
40
0.998135
41
-3.08923277602995
42
-2.79252680319097
0
ELLIPSE
5
178
100
AcDbEntity
8
1
62
256
6
ByLayer
370
-1
48
1
60
0
100
AcDbEllipse
10
193.636065
20
-1.321497
30
0
11
1.18387341434896
21
0
31
0
210
0
220
0
230
1
40
0.998135
41
0.349065850399013
42
0.562954039607145
0
ELLIPSE
5
179
100
AcDbEntity
8
1
62
256
6
ByLayer
370
-1
48
1
60
0
100
AcDbEllipse
10
195.719357
20
-9.659671
30
0
11
0.399755420109682
21
-0.0139858533144044
31
0
210
0
220
0
230
1
40
0.061011
41
-2.69051241236504
42
-1.56866178537651
0
ELLIPSE
5
17A
100
AcDbEntity
8
1
62
256
6
ByLayer
370
-1
48
1
60
0
100
AcDbEllipse
10
195.038678
20
-9.396532
30
0
11
0.274043758267672
21
0.122065632159629
31
0
210
0
220
0
230
1
40
0.058035
41
0.424839320318083
42
0.724171078307693
0
ELLIPSE
5
17B
100
AcDbEntity
8
1
62
256
6
ByLayer
370
-1
48
1
60
0
100
AcDbEllipse
10
194.501036
20
-9.769827
30
0
11
-2.24215242210385
21
2.26600680522567E-15
31
0
210
0
220
0
230
1
40
0.998135
41
3.10668606854989
42
-2.72221227672349
0
ELLIPSE
5
17C
100
AcDbEntity
8
1
62
256
6
ByLayer
370
-1
48
1
60
0
100
AcDbEllipse
10
189.064564
20
-7.109264
30
0
11
2.35
21
0
31
0
210
0
220
0
230
1
40
0.998135
41
1.21020019771931
42
2.43365406000298
0
ELLIPSE
5
17D
100
AcDbEntity
8
1
62
256
6
ByLayer
370
-1
48
1
60
0
100
AcDbEllipse
10
194.501036
20
-9.641625
30
0
11
-1.21906443419553
21
1.23203412785989E-15
31
0
210
0
220
0
230
1
40
0.998135
41
3.10668606854992
42
-2.72221227672347
0
ELLIPSE
5
17E
100
AcDbEntity
8
1
62
256
6
ByLayer
370
-1
48
1
60
0
100
AcDbEllipse
10
194.768686
20
-11.577954
30
0
11
1.18387341434896
21
0
31
0
210
0
220
0
230
1
40
0.998135
41
-1.15180100044598
42
-0.0349065850398898
0
ELLIPSE
5
17F
100
AcDbEntity
8
1
62
256
6
ByLayer
370
-1
48
1
60
0
100
AcDbEllipse
10
194.501036
20
-9.898029
30
0
11
-2.49999999999999
21
2.5265976377059E-15
31
0
210
0
220
0
230
1
40
0.998135
41
3.1066860685499
42
-2.7222122767235
0
ELLIPSE
5
180
100
AcDbEntity
8
1
62
256
6
ByLayer
370
-1
48
1
60
0
100
AcDbEllipse
10
199.524413
20
-7.406232
30
0
11
-3.98093556580436
21
4.02328895856829E-15
31
0
210
0
220
0
230
1
40
0.998135
41
0.0523598775598144
42
0.419380376866294
0
ELLIPSE
5
181
100
AcDbEntity
8
1
62
256
6
ByLayer
370
-1
48
1
60
0
100
AcDbEllipse
10
199.524413
20
-7.534434
30
0
11
-3.25784757789614
21
3.29250799772732E-15
31
0
210
0
220
0
230
1
40
0.998135
41
0.0523598775598178
42
0.419380376866286
0
ELLIPSE
5
182
100
AcDbEntity
8
1
62
256
6
ByLayer
370
-1
48
1
60
0
100
AcDbEllipse
10
195.020086
20
-11.581477
30
0
11
0.299807269110745
21
-0.010751808608676
31
0
210
0
220
0
230
1
40
0.062833
41
0.44649492500309
42
0.735886306861261
0
ELLIPSE
5
183
100
AcDbEntity
8
1
62
256
6
ByLayer
370
-1
48
1
60
0
100
AcDbEllipse
10
194.981687
20
-2.507754
30
0
11
0.399449767440438
21
0.0209733948558649
31
0
210
0
220
0
230
1
40
0.060965
41
-2.26004055362342
42
-1.5739973200739
0
POINT
5
41
100
AcDbEntity
8
81
62
256
6
ByLayer
370
-1
48
1
60
0
100
AcDbPoint
10
197
20
0
30
0
39
0
210
0
220
0
230
1
50
360
0
POINT
5
43
100
AcDbEntity
8
80
62
256
6
ByLayer
370
-1
48
1
60
0
100
AcDbPoint
10
0
20
0
30
0
39
0
210
0
220
0
230
1
50
360
0
SPLINE
5
184
100
AcDbEntity
8
1
62
256
6
ByLayer
370
-1
48
1
60
0
100
AcDbSpline
70
4
71
3
72
24
73
20
40
0
40
0
40
0
40
0
40
0.0512219324959603
40
0.114795075180372
40
0.178268200557152
40
0.241581453348868
40
0.304701879023929
40
0.367626814561737
40
0.430381895458715
40
0.493015351539977
40
0.555590417373249
40
0.618167359708153
40
0.680802024190448
40
0.743557000804841
40
0.806479913224955
40
0.869596202215358
40
0.932903765868111
40
0.996370983435426
40
1
40
1
40
1
40
1
41
1
10
189.084432545585
20
20.4280527921586
30
0
41
1
10
189.20689700971
20
20.4259786616896
30
0
41
1
10
189.476252302965
20
20.3987702952262
30
0
41
1
10
189.882746458737
20
20.2712195754557
30
0
41
1
10
190.283085512448
20
20.0567022981293
30
0
41
1
10
190.634891084607
20
19.7674582696337
30
0
41
1
10
190.924675989077
20
19.4158121639567
30
0
41
1
10
191.141770243256
20
19.0148037472588
30
0
41
1
10
191.278260266019
20
18.5796620585303
30
0
41
1
10
191.329330450512
20
18.1266344899297
30
0
41
1
10
191.293331580017
20
17.6725468983764
30
0
41
1
10
191.171802238617
20
17.2341456283861
30
0
41
1
10
190.969373077752
20
16.8275858468517
30
0
41
1
10
190.693528948073
20
16.4675033898559
30
0
41
1
10
190.354342329633
20
16.1679320431994
30
0
41
1
10
189.964041480825
20
15.9367587953368
30
0
41
1
10
189.53714512327
20
15.7947055672707
30
0
41
1
10
189.229580290022
20
15.7314869437075
30
0
41
1
10
189.071255901979
20
15.7401954500827
30
0
41
1
10
189.062686963363
20
15.7407417523104
30
0
0
SPLINE
5
185
100
AcDbEntity
8
1
62
256
6
ByLayer
370
-1
48
1
60
0
100
AcDbSpline
70
4
71
3
72
14
73
10
40
0
40
0
40
0
40
0
40
0.0494021372136411
40
0.218888154746692
40
0.388114921543561
40
0.557115196250625
40
0.725953621745822
40
0.894716831960777
40
1
40
1
40
1
40
1
41
1
10
187.319490404318
20
-5.54203977512935
30
0
41
1
10
187.3490982773
20
-5.50934851281534
30
0
41
1
10
187.484404517649
20
-5.3681643701274
30
0
41
1
10
187.755162859348
20
-5.14849058606333
30
0
41
1
10
188.158685723285
20
-4.93420128421596
30
0
41
1
10
188.595845077081
20
-4.80130982909569
30
0
41
1
10
189.050278537701
20
-4.75464732445764
30
0
41
1
10
189.448022192881
20
-4.79066400097179
30
0
41
1
10
189.686849838869
20
-4.8508277606162
30
0
41
1
10
189.776860488002
20
-4.87933236190298
30
0
0
SPLINE
5
186
100
AcDbEntity
8
1
62
256
6
ByLayer
370
-1
48
1
60
0
100
AcDbSpline
70
4
71
3
72
16
73
12
40
0
40
0
40
0
40
0
40
0.0785466006791231
40
0.157307944248488
40
0.235844676678058
40
0.314460496983156
40
0.43783433555024
40
0.560978138288252
40
0.707307190416825
40
0.853528973112565
40
1
40
1
40
1
40
1
41
1
10
36
20
25.3
30
0
41
1
10
35.1633792850587
20
25.3005518054054
30
0
41
1
10
33.5073548465861
20
25.4176432070559
30
0
41
1
10
31.0507899018232
20
25.9240413339194
30
0
41
1
10
28.7166603362282
20
26.8137165407718
30
0
41
1
10
25.9105816312193
20
27.7755370190708
30
0
41
1
10
22.6184663272049
20
28.7734434762203
30
0
41
1
10
18.5852863685645
20
29.7777753657729
30
0
41
1
10
14.2616114620907
20
30.5883411848145
30
0
41
1
10
9.64408244361121
20
31.1264748546041
30
0
41
1
10
6.5522883990175
20
31.2470983370365
30
0
41
1
10
5.00000000000003
20
31.25
30
0
0
SPLINE
5
187
100
AcDbEntity
8
1
62
256
6
ByLayer
370
-1
48
1
60
0
100
AcDbSpline
70
4
71
3
72
17
73
13
40
0
40
0
40
0
40
0
40
0.13982210248786
40
0.279399216605317
40
0.41905207317604
40
0.558956333250013
40
0.632366435356217
40
0.705852377742646
40
0.77939936434201
40
0.852846119337799
40
0.926538434638219
40
1
40
1
40
1
40
1
41
1
10
4.99999999999997
20
-31.25
30
0
41
1
10
6.48159768936495
20
-31.2474905988354
30
0
41
1
10
9.4333067043533
20
-31.1373922133832
30
0
41
1
10
13.843018776645
20
-30.6460373293022
30
0
41
1
10
18.2083782058482
20
-29.8623553259933
30
0
41
1
10
21.8373154988897
20
-28.9768890511211
30
0
41
1
10
24.7500911290991
20
-28.1303508450423
30
0
41
1
10
26.9711792536894
20
-27.4197348277807
30
0
41
1
10
29.1668921390613
20
-26.6370740164138
30
0
41
1
10
31.3650665276708
20
-25.8432004623492
30
0
41
1
10
33.668416360391
20
-25.4037565985875
30
0
41
1
10
35.2182185055232
20
-25.3004223224654
30
0
41
1
10
36
20
-25.3
30
0
0
SPLINE
5
188
100
AcDbEntity
8
1
62
256
6
ByLayer
370
-1
48
1
60
0
100
AcDbSpline
70
4
71
3
72
12
73
8
40
0
40
0
40
0
40
0
40
0.25
40
0.25
40
0.5
40
0.5
40
1
40
1
40
1
40
1
41
1
10
177.597995617374
20
10.4589006134748
30
0
41
1
10
177.889255894111
20
10.4059243388189
30
0
41
1
10
178.183309011188
20
10.35911806705
30
0
41
1
10
178.771484810251
20
10.2788509201997
30
0
41
1
10
179.065396548629
20
10.2453768019155
30
0
41
1
10
179.946617048807
20
10.1645963470347
30
0
41
1
10
180.5334121243
20
10.1368942536875
30
0
41
1
10
181.119545110236
20
10.1349234750137
30
0
0
SPLINE
5
189
100
AcDbEntity
8
1
62
256
6
ByLayer
370
-1
48
1
60
0
100
AcDbSpline
70
4
71
3
72
16
73
12
40
0
40
0
40
0
40
0
40
0.153125665079258
40
0.153125665079258
40
0.435417110052854
40
0.435417110052854
40
0.71770855502645
40
0.71770855502645
40
0.858854277513225
40
0.858854277513225
40
1
40
1
40
1
40
1
41
1
10
184.204175012589
20
10.1901021748085
30
0
41
1
10
184.183043311717
20
10.170618907778
30
0
41
1
10
184.162093355504
20
10.1521723782083
30
0
41
1
10
184.103352778254
20
10.1025611958524
30
0
41
1
10
184.066214074564
20
10.0737702978519
30
0
41
1
10
183.996682933474
20
10.0237463022352
30
0
41
1
10
183.964836530348
20
10.0029431555184
30
0
41
1
10
183.927669268225
20
9.98094111170474
30
0
41
1
10
183.91707475835
20
9.97516043468241
30
0
41
1
10
183.901034175935
20
9.96743713235892
30
0
41
1
10
183.895463364439
20
9.96541621539714
30
0
41
1
10
183.892667100648
20
9.96541621539714
30
0
0
SPLINE
5
18A
100
AcDbEntity
8
1
62
256
6
ByLayer
370
-1
48
1
60
0
100
AcDbSpline
70
4
71
3
72
16
73
12
40
0
40
0
40
0
40
0
40
0.125
40
0.125
40
0.25
40
0.25
40
0.500000000000001
40
0.500000000000001
40
0.75
40
0.75
40
1
40
1
40
1
40
1
41
1
10
181.913811237117
20
9.62526033134722
30
0
41
1
10
181.852224498266
20
9.64049307453882
30
0
41
1
10
181.798284660947
20
9.65748222612305
30
0
41
1
10
181.699698924744
20
9.69355510425646
30
0
41
1
10
181.655162943056
20
9.71266463311187
30
0
41
1
10
181.531567830557
20
9.77220115501601
30
0
41
1
10
181.462247129883
20
9.81486473751517
30
0
41
1
10
181.340044307853
20
9.90322642667689
30
0
41
1
10
181.28781312498
20
9.94858889610956
30
0
41
1
10
181.195323409058
20
10.0407660185742
30
0
41
1
10
181.155148992178
20
10.0875938574987
30
0
41
1
10
181.119545110237
20
10.1349234750137
30
0
0
SPLINE
5
18B
100
AcDbEntity
8
1
62
256
6
ByLayer
370
-1
48
1
60
0
100
AcDbSpline
70
4
71
3
72
18
73
14
40
0
40
0
40
0
40
0
40
0.25
40
0.25
40
0.375
40
0.375
40
0.5
40
0.5
40
0.625000000000001
40
0.625000000000001
40
0.750000000000001
40
0.750000000000001
40
1
40
1
40
1
40
1
41
1
10
156.217634644509
20
24.7157320929185
30
0
41
1
10
155.898576279337
20
24.1223461388518
30
0
41
1
10
155.547772408646
20
23.5550018698313
30
0
41
1
10
154.965707684928
20
22.7498080266113
30
0
41
1
10
154.762188438658
20
22.4892012723322
30
0
41
1
10
154.335257568505
20
21.9843060117954
30
0
41
1
10
154.111896975387
20
21.7399756436396
30
0
41
1
10
153.646640788988
20
21.2665196624159
30
0
41
1
10
153.404680134429
20
21.03744742085
30
0
41
1
10
152.90253665325
20
20.5942510715689
30
0
41
1
10
152.644606066184
20
20.3820617961375
30
0
41
1
10
151.854387917064
20
19.7743752198861
30
0
41
1
10
151.304826679269
20
19.4059637139974
30
0
41
1
10
150.733138589258
20
19.0732608322523
30
0
0
SPLINE
5
18C
100
AcDbEntity
8
1
62
256
6
ByLayer
370
-1
48
1
60
0
100
AcDbSpline
70
4
71
3
72
64
73
60
40
0
40
0
40
0
40
0
40
0.0624999999999992
40
0.0624999999999992
40
0.124999999999999
40
0.124999999999999
40
0.140624999999999
40
0.140624999999999
40
0.156249999999999
40
0.156249999999999
40
0.187499999999999
40
0.187499999999999
40
0.249999999999999
40
0.249999999999999
40
0.265624999999999
40
0.265624999999999
40
0.281249999999999
40
0.281249999999999
40
0.3125
40
0.3125
40
0.375000000000001
40
0.375000000000001
40
0.390625000000001
40
0.390625000000001
40
0.406250000000001
40
0.406250000000001
40
0.437500000000001
40
0.437500000000001
40
0.500000000000002
40
0.500000000000002
40
0.531250000000002
40
0.531250000000002
40
0.562500000000002
40
0.562500000000002
40
0.625000000000003
40
0.625000000000003
40
0.640625000000003
40
0.640625000000003
40
0.656250000000003
40
0.656250000000003
40
0.687500000000003
40
0.687500000000003
40
0.750000000000002
40
0.750000000000002
40
0.765625000000002
40
0.765625000000002
40
0.781250000000002
40
0.781250000000002
40
0.812500000000002
40
0.812500000000002
40
0.875000000000002
40
0.875000000000002
40
0.890625000000001
40
0.890625000000001
40
0.906250000000001
40
0.906250000000001
40
0.937500000000001
40
0.937500000000001
40
1
40
1
40
1
40
1
41
1
10
21.1764845414744
20
21.5034079444356
30
0
41
1
10
20.5330631845617
20
21.7221008908506
30
0
41
1
10
19.8850363784354
20
21.8991625189499
30
0
41
1
10
18.580324176256
20
22.1736467254502
30
0
41
1
10
17.9236376330108
20
22.2710721603801
30
0
41
1
10
17.0970492660284
20
22.3407908575519
30
0
41
1
10
16.9310690037038
20
22.3521281981671
30
0
41
1
10
16.6007522350317
20
22.3693224172571
30
0
41
1
10
16.4364143149856
20
22.3751954097441
30
0
41
1
10
15.9458202556526
20
22.3847168626158
30
0
41
1
10
15.6219802895874
20
22.3802824747381
30
0
41
1
10
14.6599274754004
20
22.3346856749199
30
0
41
1
10
14.0311242030305
20
22.2614796725868
30
0
41
1
10
13.2610074473131
20
22.1130261304989
30
0
41
1
10
13.1077830387542
20
22.0804682365865
30
0
41
1
10
12.8029559068713
20
22.009447234375
30
0
41
1
10
12.651335229332
20
21.9709589337676
30
0
41
1
10
12.20329668802
20
21.8476374224715
30
0
41
1
10
11.9122004113417
20
21.7546358002544
30
0
41
1
10
11.0612039443917
20
21.4432717055084
30
0
41
1
10
10.5234497465855
20
21.1927834509966
30
0
41
1
10
9.88880539793666
20
20.8226359902826
30
0
41
1
10
9.76376563741294
20
20.7457360584873
30
0
41
1
10
9.51752747969684
20
20.5860313862231
30
0
41
1
10
9.39609560375803
20
20.5030567397444
30
0
41
1
10
9.03932810320453
20
20.2461656381391
30
0
41
1
10
8.81299493422995
20
20.0654424663837
30
0
41
1
10
8.1674841081082
20
19.4951111402667
30
0
41
1
10
7.7815887686632
20
19.077517959041
30
0
41
1
10
7.26920231485758
20
18.3927404786331
30
0
41
1
10
7.10929174183966
20
18.1542966220084
30
0
41
1
10
6.81336429825726
20
17.6586157583552
30
0
41
1
10
6.6790772524308
20
17.4043761369163
30
0
41
1
10
6.31547835836318
20
16.6228212181226
30
0
41
1
10
6.12520677138613
20
16.0767686813513
30
0
41
1
10
5.95043023022109
20
15.3625382226972
30
0
41
1
10
5.91864600893641
20
15.2181009607697
30
0
41
1
10
5.86143804570099
20
14.9260022171728
30
0
41
1
10
5.83597366008203
20
14.7780137804621
30
0
41
1
10
5.76966907268152
20
14.3326644916502
30
0
41
1
10
5.73872547777489
20
14.0333739197451
30
0
41
1
10
5.68358075166785
20
13.1284472351539
30
0
41
1
10
5.6968633244804
20
12.5157829971196
30
0
41
1
10
5.7726363797718
20
11.7381743761718
30
0
41
1
10
5.79076589927703
20
11.5820615792934
30
0
41
1
10
5.83295358628467
20
11.2686439600262
30
0
41
1
10
5.85703353568832
20
11.1112913621199
30
0
41
1
10
5.93746048895358
20
10.6411014208902
30
0
41
1
10
6.00212826036233
20
10.3289025468297
30
0
41
1
10
6.22748563449312
20
9.39580268554269
30
0
41
1
10
6.41936187758287
20
8.77837024739782
30
0
41
1
10
6.70821449082473
20
8.01190529021773
30
0
41
1
10
6.76844893537586
20
7.85888086118652
30
0
41
1
10
6.89382222324431
20
7.55336640194938
30
0
41
1
10
6.95906987754947
20
7.4006352993427
30
0
41
1
10
7.16130135976402
20
6.94516493186697
30
0
41
1
10
7.30452163497256
20
6.64559529456551
30
0
41
1
10
7.75821458439896
20
5.75857095151082
30
0
41
1
10
8.09258234781547
20
5.18272856124511
30
0
41
1
10
8.45758324472166
20
4.6218893768162
30
0
0
SPLINE
5
18D
100
AcDbEntity
8
1
62
256
6
ByLayer
370
-1
48
1
60
0
100
AcDbSpline
70
4
71
3
72
18
73
14
40
0
40
0
40
0
40
0
40
0.25
40
0.25
40
0.374999999999999
40
0.374999999999999
40
0.406249999999999
40
0.406249999999999
40
0.437499999999999
40
0.437499999999999
40
0.499999999999998
40
0.499999999999998
40
1
40
1
40
1
40
1
41
1
10
36
20
14.8213113469574
30
0
41
1
10
34.7748229658473
20
15.3356831722925
30
0
41
1
10
33.5452616861637
20
15.8651177259902
30
0
41
1
10
31.7084873300986
20
16.7140771797226
30
0
41
1
10
31.0975394550069
20
17.0063087866582
30
0
41
1
10
30.3373661583438
20
17.3874093724242
30
0
41
1
10
30.1855082223818
20
17.4644226386883
30
0
41
1
10
29.8821974000554
20
17.6201527187911
30
0
41
1
10
29.7308753919557
20
17.6992981098991
30
0
41
1
10
29.2764763267728
20
17.9357987753377
30
0
41
1
10
28.9727408382376
20
18.0914971708642
30
0
41
1
10
26.2315232091972
20
19.4744449741513
30
0
41
1
10
23.740410836523
20
20.5742626987089
30
0
41
1
10
21.176484541472
20
21.5034079444294
30
0
0
SPLINE
5
18E
100
AcDbEntity
8
1
62
256
6
ByLayer
370
-1
48
1
60
0
100
AcDbSpline
70
4
71
3
72
8
73
4
40
0
40
0
40
0
40
0
40
1
40
1
40
1
40
1
41
1
10
180.15070345668
20
7.47111151814383
30
0
41
1
10
179.39048272925
20
7.06089887022159
30
0
41
1
10
178.597467213732
20
6.68489941350327
30
0
41
1
10
177.780942933519
20
6.35052315144168
30
0
0
SPLINE
5
18F
100
AcDbEntity
8
1
62
256
6
ByLayer
370
-1
48
1
60
0
100
AcDbSpline
70
4
71
3
72
8
73
4
40
0
40
0
40
0
40
0
40
1
40
1
40
1
40
1
41
1
10
149.060330603011
20
17.5196854444326
30
0
41
1
10
149.095530546295
20
17.5997974216424
30
0
41
1
10
149.137005578879
20
17.6768447754207
30
0
41
1
10
149.184413874092
20
17.7509977052397
30
0
0
SPLINE
5
190
100
AcDbEntity
8
1
62
256
6
ByLayer
370
-1
48
1
60
0
100
AcDbSpline
70
4
71
3
72
94
73
90
40
-0.031250000000002
40
-0.031250000000002
40
0
40
0
40
0.0312500000000024
40
0.0312500000000024
40
0.0468750000000032
40
0.0468750000000032
40
0.062500000000004
40
0.062500000000004
40
0.0937500000000037
40
0.0937500000000037
40
0.125000000000003
40
0.125000000000003
40
0.156250000000003
40
0.156250000000003
40
0.171875000000003
40
0.171875000000003
40
0.187500000000003
40
0.187500000000003
40
0.218749999999997
40
0.218749999999997
40
0.249999999999992
40
0.249999999999992
40
0.265624999999989
40
0.265624999999989
40
0.281249999999986
40
0.281249999999986
40
0.31249999999998
40
0.31249999999998
40
0.328124999999981
40
0.328124999999981
40
0.343749999999981
40
0.343749999999981
40
0.374999999999981
40
0.374999999999981
40
0.406249999999981
40
0.406249999999981
40
0.421874999999979
40
0.421874999999979
40
0.437499999999978
40
0.437499999999978
40
0.468749999999974
40
0.468749999999974
40
0.484374999999973
40
0.484374999999973
40
0.499999999999973
40
0.499999999999973
40
0.53124999999997
40
0.53124999999997
40
0.546874999999969
40
0.546874999999969
40
0.562499999999968
40
0.578124999999967
40
0.578124999999967
40
0.593749999999966
40
0.593749999999966
40
0.624999999999968
40
0.624999999999968
40
0.640624999999966
40
0.640624999999966
40
0.656249999999965
40
0.656249999999965
40
0.687499999999967
40
0.687499999999967
40
0.718749999999969
40
0.718749999999969
40
0.749999999999971
40
0.749999999999971
40
0.765624999999972
40
0.765624999999972
40
0.781249999999973
40
0.796874999999974
40
0.796874999999974
40
0.812499999999975
40
0.812499999999975
40
0.843749999999983
40
0.843749999999983
40
0.859374999999987
40
0.859374999999987
40
0.874999999999991
40
0.874999999999991
40
0.906249999999994
40
0.906249999999994
40
0.937499999999997
40
0.937499999999997
40
0.953124999999998
40
0.953124999999998
40
0.968749999999998
40
0.968749999999998
40
1
40
1
40
1.03125
40
1.03125
41
1
10
186.730735671359
20
-5.78436862339086
30
0
41
1
10
186.716516758009
20
-5.50868805429053
30
0
41
1
10
186.722543908863
20
-5.37208811226731
30
0
41
1
10
186.750797092384
20
-5.16901644958833
30
0
41
1
10
186.7634390463
20
-5.10163309565354
30
0
41
1
10
186.795359543349
20
-4.96750606064475
30
0
41
1
10
186.814771641545
20
-4.90043361044553
30
0
41
1
10
186.882111809878
20
-4.70405181878951
30
0
41
1
10
186.939102605127
20
-4.57875303237122
30
0
41
1
10
187.07729267687
20
-4.33950441057527
30
0
41
1
10
187.159625428032
20
-4.22449686424758
30
0
41
1
10
187.343153874001
20
-4.01559265680558
30
0
41
1
10
187.444506556879
20
-3.92081917284014
30
0
41
1
10
187.61121726203
20
-3.79356344558326
30
0
41
1
10
187.66961361852
20
-3.75344358300219
30
0
41
1
10
187.78925710852
20
-3.67986537914507
30
0
41
1
10
187.850554824308
20
-3.64630742857889
30
0
41
1
10
188.038783583479
20
-3.55514097545978
30
0
41
1
10
188.170005195434
20
-3.50694169474696
30
0
41
1
10
188.444482635878
20
-3.43700159608707
30
0
41
1
10
188.582975558792
20
-3.41648116737079
30
0
41
1
10
188.792386948441
20
-3.40658078431574
30
0
41
1
10
188.862479366936
20
-3.40678554757775
30
0
41
1
10
189.00325668265
20
-3.41438977714549
30
0
41
1
10
189.0739297208
20
-3.42184415815041
30
0
41
1
10
189.281956560171
20
-3.45451113686974
30
0
41
1
10
189.417014327715
20
-3.48996440345039
30
0
41
1
10
189.614174150304
20
-3.56357041742339
30
0
41
1
10
189.679339300263
20
-3.59172951757219
30
0
41
1
10
189.805441065746
20
-3.65398741277386
30
0
41
1
10
189.86647691819
20
-3.68807143401739
30
0
41
1
10
190.043707296054
20
-3.79892561506426
30
0
41
1
10
190.154283967663
20
-3.88440821991102
30
0
41
1
10
190.358543424843
20
-4.07799272945272
30
0
41
1
10
190.449256302981
20
-4.18320118660836
30
0
41
1
10
190.569070310713
20
-4.35291019169901
30
0
41
1
10
190.606278810229
20
-4.41147763069017
30
0
41
1
10
190.675146779558
20
-4.53266021067344
30
0
41
1
10
190.706701449111
20
-4.59518016384726
30
0
41
1
10
190.79113012856
20
-4.78477699107157
30
0
41
1
10
190.834616676843
20
-4.91513871174448
30
0
41
1
10
190.881029173301
20
-5.11644658442145
30
0
41
1
10
190.893379470207
20
-5.1848746817362
30
0
41
1
10
190.911334380164
20
-5.32167600974009
30
0
41
1
10
190.916976111857
20
-5.38999127304504
30
0
41
1
10
190.924223486297
20
-5.59468340757718
30
0
41
1
10
190.916239205882
20
-5.7308072064165
30
0
41
1
10
190.8847164112
20
-5.93448569346677
30
0
41
1
10
190.87094320402
20
-6.00198301481993
30
0
41
1
10
190.837418166648
20
-6.13418465937949
30
0
41
1
10
190.797827729774
20
-6.26420011502589
30
0
41
1
10
190.746253667518
20
-6.38991748366783
30
0
41
1
10
190.688588552361
20
-6.51346437134234
30
0
41
1
10
190.656573171194
20
-6.57438247365138
30
0
41
1
10
190.551919298473
20
-6.75216115031805
30
0
41
1
10
190.471832496939
20
-6.86248200556201
30
0
41
1
10
190.336381752923
20
-7.01592252315402
30
0
41
1
10
190.28865985008
20
-7.06504828989245
30
0
41
1
10
190.187866140815
20
-7.15911989026682
30
0
41
1
10
190.134515724832
20
-7.20424447865676
30
0
41
1
10
189.969615437042
20
-7.33027091615023
30
0
41
1
10
189.852515505727
20
-7.40278599974275
30
0
41
1
10
189.603682675866
20
-7.52452363747514
30
0
41
1
10
189.470341494794
20
-7.5739566905165
30
0
41
1
10
189.20003980915
20
-7.64372753050748
30
0
41
1
10
189.06220384189
20
-7.66483275593274
30
0
41
1
10
188.85128974388
20
-7.67519357118638
30
0
41
1
10
188.780062617662
20
-7.6750145171053
30
0
41
1
10
188.639682588111
20
-7.66743070222344
30
0
41
1
10
188.500546469505
20
-7.65271201622045
30
0
41
1
10
188.363841747625
20
-7.62403515635725
30
0
41
1
10
188.228360072914
20
-7.58832519820135
30
0
41
1
10
188.160865670148
20
-7.56679531373828
30
0
41
1
10
187.964167566592
20
-7.49283999682999
30
0
41
1
10
187.840026087214
20
-7.43114992629592
30
0
41
1
10
187.663806702823
20
-7.32077937078259
30
0
41
1
10
187.606474537328
20
-7.28077572346481
30
0
41
1
10
187.496639443584
20
-7.1957461620336
30
0
41
1
10
187.444283313546
20
-7.15088636450773
30
0
41
1
10
187.294565694137
20
-7.0095405446815
30
0
41
1
10
187.204485605046
20
-6.90635208887417
30
0
41
1
10
187.043813084722
20
-6.68184259710816
30
0
41
1
10
186.975429583341
20
-6.56354441495793
30
0
41
1
10
186.89026981917
20
-6.37821262798872
30
0
41
1
10
186.864777410715
20
-6.31506799449377
30
0
41
1
10
186.819659270275
20
-6.18599248577178
30
0
41
1
10
186.799986073984
20
-6.11980211959519
30
0
41
1
10
186.750807123473
20
-5.91994317273344
30
0
41
1
10
186.730735671359
20
-5.78436862339086
30
0
41
1
10
186.716516758009
20
-5.50868805429053
30
0
0
SPLINE
5
191
100
AcDbEntity
8
1
62
256
6
ByLayer
370
-1
48
1
60
0
100
AcDbSpline
70
4
71
3
72
62
73
58
40
0
40
0
40
0
40
0
40
0.0312500000000001
40
0.0312500000000001
40
0.0625000000000001
40
0.0625000000000001
40
0.0781250000000002
40
0.0781250000000002
40
0.0937500000000002
40
0.0937500000000002
40
0.109375
40
0.109375
40
0.125
40
0.125
40
0.140625
40
0.140625
40
0.15625
40
0.15625
40
0.1875
40
0.1875
40
0.21875
40
0.21875
40
0.250000000000001
40
0.250000000000001
40
0.375000000000001
40
0.375000000000001
40
0.406250000000001
40
0.406250000000001
40
0.437500000000001
40
0.437500000000001
40
0.5
40
0.5
40
0.5625
40
0.5625
40
0.59375
40
0.59375
40
0.625
40
0.625
40
0.6875
40
0.6875
40
0.75
40
0.75
40
0.78125
40
0.78125
40
0.8125
40
0.8125
40
0.875
40
0.875
40
0.90625
40
0.90625
40
0.921875
40
0.921875
40
0.937499999999999
40
0.937499999999999
40
0.96875
40
0.96875
40
1
40
1
40
1
40
1
41
1
10
39.3764845414747
20
13.2829503134324
30
0
41
1
10
40.6282746377542
20
12.8519596391838
30
0
41
1
10
41.8792282813878
20
12.4136412596228
30
0
41
1
10
44.3802337856279
20
11.5241363335259
30
0
41
1
10
45.6302053158878
20
11.072782029878
30
0
41
1
10
47.504104959761
20
10.3852580967864
30
0
41
1
10
48.1286015329299
20
10.1544208207808
30
0
41
1
10
49.377768384171
20
9.69044842069442
30
0
41
1
10
50.0025415947457
20
9.457556268936
30
0
41
1
10
51.2513207976554
20
8.98730664153928
30
0
41
1
10
51.8752965618411
20
8.74986577050137
30
0
41
1
10
53.1242766115984
20
8.27468659143989
30
0
41
1
10
53.7492087007821
20
8.03679280735852
30
0
41
1
10
54.9986915450933
20
7.55742361326051
30
0
41
1
10
55.6231216511218
20
7.31565095906609
30
0
41
1
10
56.8725986899532
20
6.83086929389549
30
0
41
1
10
57.4974340629451
20
6.58735805867897
30
0
41
1
10
59.3723455923575
20
5.85373283545979
30
0
41
1
10
60.6228496643932
20
5.36058057827421
30
0
41
1
10
63.1256950998824
20
4.36784457144029
30
0
41
1
10
64.3777565283399
20
3.86826509845414
30
0
41
1
10
66.8791596274811
20
2.86633502117829
30
0
41
1
10
68.1291586396458
20
2.36378681362265
30
0
41
1
10
74.3770287964561
20
-0.153413887002614
30
0
41
1
10
79.3683058251513
20
-2.1819867484339
30
0
41
1
10
85.6234799526181
20
-4.67435874772056
30
0
41
1
10
86.8758804190555
20
-5.17093306088054
30
0
41
1
10
89.378111875243
20
-6.15667762970224
30
0
41
1
10
90.6283594861532
20
-6.6458856065214
30
0
41
1
10
94.3776652864555
20
-8.09974378878545
30
0
41
1
10
96.8753853431376
20
-9.05040679684998
30
0
41
1
10
101.871171132086
20
-10.9053735091397
30
0
41
1
10
104.369290892847
20
-11.8095247264705
30
0
41
1
10
108.120953530705
20
-13.1213589746824
30
0
41
1
10
109.372823719806
20
-13.5513239753534
30
0
41
1
10
111.876177955308
20
-14.3943574302228
30
0
41
1
10
113.126784895621
20
-14.8072503035132
30
0
41
1
10
116.876493076407
20
-16.0179064513071
30
0
41
1
10
119.373535324514
20
-16.7875182575406
30
0
41
1
10
124.367426166254
20
-18.2421412164152
30
0
41
1
10
126.864059559886
20
-18.9275525492003
30
0
41
1
10
130.612254977238
20
-19.8864278548016
30
0
41
1
10
131.862103106706
20
-20.1946615251179
30
0
41
1
10
134.363337138518
20
-20.7872437557015
30
0
41
1
10
135.615453312776
20
-21.0716697478571
30
0
41
1
10
139.370017125649
20
-21.8859762315776
30
0
41
1
10
141.868912714283
20
-22.3768741017452
30
0
41
1
10
145.614588511765
20
-23.0313698261128
30
0
41
1
10
146.862446630966
20
-23.2361523570843
30
0
41
1
10
148.734300171755
20
-23.5220965168997
30
0
41
1
10
149.358472703542
20
-23.613687112832
30
0
41
1
10
150.606755892573
20
-23.7899187832247
30
0
41
1
10
151.230670878748
20
-23.8747187463927
30
0
41
1
10
153.102500904956
20
-24.1184424985354
30
0
41
1
10
154.351344797309
20
-24.2660992344055
30
0
41
1
10
156.848669489008
20
-24.5333871268698
30
0
41
1
10
158.097876498646
20
-24.6524551825199
30
0
41
1
10
159.34823775855
20
-24.7566071320795
30
0
0
SPLINE
5
192
100
AcDbEntity
8
1
62
256
6
ByLayer
370
-1
48
1
60
0
100
AcDbSpline
70
4
71
3
72
16
73
12
40
0
40
0
40
0
40
0
40
0.499999999999999
40
0.499999999999999
40
0.749999999999998
40
0.749999999999998
40
0.812499999999998
40
0.812499999999998
40
0.874999999999999
40
0.874999999999999
40
1
40
1
40
1
40
1
41
1
10
36
20
-16.710773726493
30
0
41
1
10
34.6942539490583
20
-16.3118952551046
30
0
41
1
10
33.388134778186
20
-16.0575993529107
30
0
41
1
10
31.4433811082938
20
-15.8885018519595
30
0
41
1
10
30.7975395211593
20
-15.8675959777366
30
0
41
1
10
29.9949001674192
20
-15.8862995899328
30
0
41
1
10
29.8346313676302
20
-15.8927665802408
30
0
41
1
10
29.5144920847761
20
-15.9081198521042
30
0
41
1
10
29.3545157155074
20
-15.9150298020322
30
0
41
1
10
28.8748032043833
20
-15.9326075364704
30
0
41
1
10
28.5553029935423
20
-15.9404905160623
30
0
41
1
10
28.2360664204269
20
-15.9445964253393
30
0
0
SPLINE
5
193
100
AcDbEntity
8
1
62
256
6
ByLayer
370
-1
48
1
60
0
100
AcDbSpline
70
4
71
3
72
24
73
20
40
0
40
0
40
0
40
0
40
0.0625
40
0.0625
40
0.125
40
0.125
40
0.25
40
0.25
40
0.375
40
0.375
40
0.5
40
0.5
40
0.625
40
0.625
40
0.75
40
0.75
40
0.875
40
0.875
40
1
40
1
40
1
40
1
41
1
10
181.167650138845
20
10.1349234750136
30
0
41
1
10
181.170162389209
20
10.1349234750136
30
0
41
1
10
181.170984168829
20
10.1364822196649
30
0
41
1
10
181.169351973236
20
10.1426799149
30
0
41
1
10
181.166852844307
20
10.1473812789337
30
0
41
1
10
181.155031443159
20
10.1656047164804
30
0
41
1
10
181.141501823412
20
10.1831768104193
30
0
41
1
10
181.106675746933
20
10.227737992003
30
0
41
1
10
181.085969994259
20
10.2540069509899
30
0
41
1
10
181.040710855642
20
10.313701598851
30
0
41
1
10
181.015906784499
20
10.347470176656
30
0
41
1
10
180.965185528065
20
10.4206700184292
30
0
41
1
10
180.939268119272
20
10.4600559512195
30
0
41
1
10
180.887299921795
20
10.5447450178241
30
0
41
1
10
180.861153574947
20
10.5902784962508
30
0
41
1
10
180.811141761854
20
10.6846200156407
30
0
41
1
10
180.787044769087
20
10.7337688448091
30
0
41
1
10
180.741032859274
20
10.8364563469557
30
0
41
1
10
180.718960170088
20
10.8905300005785
30
0
41
1
10
180.699072878914
20
10.9444264623226
30
0
0
SPLINE
5
194
100
AcDbEntity
8
1
62
256
6
ByLayer
370
-1
48
1
60
0
100
AcDbSpline
70
4
71
3
72
22
73
18
40
0
40
0
40
0
40
0
40
0.249999999999999
40
0.249999999999999
40
0.374999999999999
40
0.374999999999999
40
0.437499999999999
40
0.437499999999999
40
0.499999999999999
40
0.499999999999999
40
0.75
40
0.75
40
0.8125
40
0.8125
40
0.875
40
0.875
40
1
40
1
40
1
40
1
41
1
10
20.640176636145
20
-11.4929519921167
30
0
41
1
10
21.0805474026142
20
-12.1437536895811
30
0
41
1
10
21.5696050980334
20
-12.7296656568697
30
0
41
1
10
22.3847228062642
20
-13.5104108077859
30
0
41
1
10
22.6700501268767
20
-13.7542537897346
30
0
41
1
10
23.1199508317225
20
-14.0947667253381
30
0
41
1
10
23.2738891375565
20
-14.2042666941889
30
0
41
1
10
23.587936715651
20
-14.4137295592741
30
0
41
1
10
23.7473377850386
20
-14.5132497857973
30
0
41
1
10
24.5561935307653
20
-14.9855353478683
30
0
41
1
10
25.2410510743727
20
-15.2828309685152
30
0
41
1
10
26.1452194403485
20
-15.5606113757544
30
0
41
1
10
26.328467385232
20
-15.6114463327047
30
0
41
1
10
26.6998532928594
20
-15.7037300122906
30
0
41
1
10
26.8883240089166
20
-15.7452387322768
30
0
41
1
10
27.4584918848402
20
-15.8552062542358
30
0
41
1
10
27.8444003309135
20
-15.9091208566894
30
0
41
1
10
28.2360664204594
20
-15.9445964253421
30
0
0
SPLINE
5
195
100
AcDbEntity
8
1
62
256
6
ByLayer
370
-1
48
1
60
0
100
AcDbSpline
70
4
71
3
72
24
73
20
40
0
40
0
40
0
40
0
40
0.0089197561545482
40
0.0089197561545482
40
0.174099796795456
40
0.174099796795456
40
0.339279837436364
40
0.339279837436364
40
0.504459878077272
40
0.504459878077272
40
0.669639918718179
40
0.669639918718179
40
0.752229939038634
40
0.752229939038634
40
0.834819959359089
40
0.834819959359089
40
0.917409979679545
40
0.917409979679545
40
1
40
1
40
1
40
1
41
1
10
134.089886589701
20
21.3194628384732
30
0
41
1
10
134.155765009663
20
21.3337781597519
30
0
41
1
10
134.221646060495
20
21.3480584332574
30
0
41
1
10
135.507594353609
20
21.6261014607749
30
0
41
1
10
136.729050598555
20
21.8781538306255
30
0
41
1
10
139.168850041342
20
22.3570852937647
30
0
41
1
10
140.387655304752
20
22.5839710240473
30
0
41
1
10
142.824311007646
20
23.011239476431
30
0
41
1
10
144.042211384297
20
23.2115837815618
30
0
41
1
10
146.477716465878
20
23.5853444286557
30
0
41
1
10
147.695058911369
20
23.7590028205521
30
0
41
1
10
149.521107051373
20
23.9991003341827
30
0
41
1
10
150.129941322185
20
24.0756258487502
30
0
41
1
10
151.347299979834
20
24.2221359320923
30
0
41
1
10
151.955528637249
20
24.2923143071267
30
0
41
1
10
153.172747399927
20
24.4253031616275
30
0
41
1
10
153.781706767555
20
24.4881587879355
30
0
41
1
10
154.99986862418
20
24.6069446939487
30
0
41
1
10
155.608647183952
20
24.6631146296315
30
0
41
1
10
156.217634644509
20
24.7157320929012
30
0
0
SPLINE
5
196
100
AcDbEntity
8
1
62
256
6
ByLayer
370
-1
48
1
60
0
100
AcDbSpline
70
4
71
3
72
18
73
14
40
0
40
0
40
0
40
0
40
0.25
40
0.25
40
0.5
40
0.5
40
0.625
40
0.625
40
0.6875
40
0.6875
40
0.75
40
0.75
40
1
40
1
40
1
40
1
41
1
10
180.186893438111
20
3.68430272946804
30
0
41
1
10
179.425274748981
20
3.63821937623555
30
0
41
1
10
178.66857049966
20
3.63888020346462
30
0
41
1
10
177.164726837037
20
3.73117747894008
30
0
41
1
10
176.417587477866
20
3.82281513400827
30
0
41
1
10
175.304243395529
20
4.02995769960793
30
0
41
1
10
174.934360199639
20
4.11065385157767
30
0
41
1
10
174.381445642152
20
4.24968560482407
30
0
41
1
10
174.197206105265
20
4.29910517508876
30
0
41
1
10
173.830916531753
20
4.4036113617039
30
0
41
1
10
173.648856616814
20
4.45868928308329
30
0
41
1
10
172.743986875719
20
4.74816244496287
30
0
41
1
10
172.037397572639
20
5.02465396306189
30
0
41
1
10
171.348737293146
20
5.3467886471376
30
0
0
SPLINE
5
197
100
AcDbEntity
8
1
62
256
6
ByLayer
370
-1
48
1
60
0
100
AcDbSpline
70
4
71
3
72
18
73
14
40
0
40
0
40
0
40
0
40
0.144690557527959
40
0.144690557527959
40
0.42979370501864
40
0.42979370501864
40
0.572345278763981
40
0.572345278763981
40
0.643621065636651
40
0.643621065636651
40
0.71489685250932
40
0.71489685250932
40
1
40
1
40
1
40
1
41
1
10
98.2986134709804
20
25.2998481094026
30
0
41
1
10
100.64069192623
20
25.3002201216377
30
0
41
1
10
102.980357035115
20
25.2475934144869
30
0
41
1
10
109.929894293615
20
24.9352826591207
30
0
41
1
10
114.539700717511
20
24.5249935902056
30
0
41
1
10
121.474736764349
20
23.6172094768673
30
0
41
1
10
123.789689099128
20
23.2657704334019
30
0
41
1
10
127.27023729901
20
22.6677955808512
30
0
41
1
10
128.431773799346
20
22.4566772674306
30
0
41
1
10
130.758083006432
20
22.0113616407556
30
0
41
1
10
131.92320684583
20
21.7770768990022
30
0
41
1
10
137.743251939347
20
20.5526376736121
30
0
41
1
10
142.393167735853
20
19.4017556303812
30
0
41
1
10
147.051595956804
20
18.1042966861995
30
0
0
SPLINE
5
198
100
AcDbEntity
8
1
62
256
6
ByLayer
370
-1
48
1
60
0
100
AcDbSpline
70
4
71
3
72
30
73
26
40
0
40
0
40
0
40
0
40
0.0838363329229425
40
0.0838363329229425
40
0.167672665845885
40
0.167672665845885
40
0.251508998768827
40
0.251508998768827
40
0.33534533169177
40
0.33534533169177
40
0.419181664614712
40
0.419181664614712
40
0.503017997537655
40
0.503017997537655
40
0.586854330460597
40
0.586854330460597
40
0.67069066338354
40
0.67069066338354
40
0.754526996306482
40
0.754526996306482
40
0.838363329229425
40
0.838363329229425
40
0.922199662152367
40
0.922199662152367
40
1
40
1
40
1
40
1
41
1
10
39.3764845414763
20
7.43258038102403
30
0
41
1
10
39.1363695916051
20
7.15233622907033
30
0
41
1
10
38.8781179464478
20
6.80566592798536
30
0
41
1
10
38.3347059821026
20
5.99204397981518
30
0
41
1
10
38.0495576818
20
5.52511032797022
30
0
41
1
10
37.4627164875042
20
4.48792960849883
30
0
41
1
10
37.1610365729399
20
3.91770548066191
30
0
41
1
10
36.5520976206491
20
2.69466714591829
30
0
41
1
10
36.2448520510974
20
2.04187998949712
30
0
41
1
10
35.6359500585338
20
0.677441054755462
30
0
41
1
10
35.3343071028794
20
-0.0341805456592112
30
0
41
1
10
34.7475754442921
20
-1.4904232028201
30
0
41
1
10
34.4624997183656
20
-2.23501205119658
30
0
41
1
10
33.9192658841258
20
-3.73012452002899
30
0
41
1
10
33.6611197907579
20
-4.48061507241422
30
0
41
1
10
33.1811301405502
20
-5.96025053812485
30
0
41
1
10
32.9592971998561
20
-6.68936272569132
30
0
41
1
10
32.5599991894183
20
-8.09973695713165
30
0
41
1
10
32.3825429511271
20
-8.78096780712829
30
0
41
1
10
32.0784509233416
20
-10.0708141947668
30
0
41
1
10
31.9518218595865
20
-10.6794012042996
30
0
41
1
10
31.7539894531987
20
-11.8018342835293
30
0
41
1
10
31.6827904861137
20
-12.315655527872
30
0
41
1
10
31.6014464679335
20
-13.1969645436755
30
0
41
1
10
31.5872763714285
20
-13.5723070718198
30
0
41
1
10
31.5982803637831
20
-13.8929914815415
30
0
0
SPLINE
5
199
100
AcDbEntity
8
1
62
256
6
ByLayer
370
-1
48
1
60
0
100
AcDbSpline
70
4
71
3
72
28
73
24
40
0
40
0
40
0
40
0
40
0.151197492990028
40
0.151197492990028
40
0.302394985980055
40
0.302394985980055
40
0.453592478970083
40
0.453592478970083
40
0.49139185221759
40
0.49139185221759
40
0.510291538841344
40
0.510291538841344
40
0.529191225465097
40
0.529191225465097
40
0.604789971960112
40
0.604789971960112
40
0.75598746495014
40
0.75598746495014
40
0.907184957940169
40
0.907184957940169
40
0.982783704435183
40
0.982783704435183
40
1
40
1
40
1
40
1
41
1
10
36
20
-16.710773726493
30
0
41
1
10
40.7988805045616
20
-18.1767326843277
30
0
41
1
10
45.5687813689137
20
-19.4840338492722
30
0
41
1
10
55.0887756194022
20
-21.7269459867924
30
0
41
1
10
59.838669558539
20
-22.6633076100063
30
0
41
1
10
69.3507736907115
20
-24.1297320380851
30
0
41
1
10
74.1133955870873
20
-24.6591733111811
30
0
41
1
10
80.0966674125907
20
-25.0481533292152
30
0
41
1
10
81.2948126135275
20
-25.1123398648965
30
0
41
1
10
83.0946407760992
20
-25.1879458082427
30
0
41
1
10
83.6952907425072
20
-25.2097087667017
30
0
41
1
10
84.8954547894624
20
-25.2462468526443
30
0
41
1
10
85.4951131277888
20
-25.2610314284372
30
0
41
1
10
88.4914309469038
20
-25.3175829645963
30
0
41
1
10
90.8820935189347
20
-25.3072265637724
30
0
41
1
10
98.0410572921477
20
-25.1113409958042
30
0
41
1
10
102.79672239072
20
-24.760422832236
30
0
41
1
10
112.311356556311
20
-23.6410634244371
30
0
41
1
10
117.070486869983
20
-22.8732943480076
30
0
41
1
10
124.235146417089
20
-21.4316916161085
30
0
41
1
10
126.627692165486
20
-20.9028313273668
30
0
41
1
10
129.573169675142
20
-20.1974030810377
30
0
41
1
10
130.120025532701
20
-20.0641417018018
30
0
41
1
10
130.667059683878
20
-19.9285958919546
30
0
0
SPLINE
5
19A
100
AcDbEntity
8
1
62
256
6
ByLayer
370
-1
48
1
60
0
100
AcDbSpline
70
4
71
3
72
8
73
4
40
0
40
0
40
0
40
0
40
1
40
1
40
1
40
1
41
1
10
33.4359635698257
20
-14.8234278287459
30
0
41
1
10
33.3265744749571
20
-14.7855739244875
30
0
41
1
10
33.2175451345163
20
-14.7462563202498
30
0
41
1
10
33.1088686143616
20
-14.7054813029034
30
0
0
SPLINE
5
19B
100
AcDbEntity
8
1
62
256
6
ByLayer
370
-1
48
1
60
0
100
AcDbSpline
70
4
71
3
72
8
73
4
40
0
40
0
40
0
40
0
40
1
40
1
40
1
40
1
41
1
10
176.929574124029
20
-25.2575002966767
30
0
41
1
10
177.258466444031
20
-25.2615898236492
30
0
41
1
10
177.583978558547
20
-25.2661560342512
30
0
41
1
10
177.90610976787
20
-25.2708081670695
30
0
0
SPLINE
5
19C
100
AcDbEntity
8
1
62
256
6
ByLayer
370
-1
48
1
60
0
100
AcDbSpline
70
4
71
3
72
8
73
4
40
0
40
0
40
0
40
0
40
1
40
1
40
1
40
1
41
1
10
175.049874431779
20
25.2604461021329
30
0
41
1
10
175.704902002403
20
25.2682187077076
30
0
41
1
10
176.336201684247
20
25.2782287333055
30
0
41
1
10
176.944970386064
20
25.2864482387085
30
0
0
SPLINE
5
19D
100
AcDbEntity
8
1
62
256
6
ByLayer
370
-1
48
1
60
0
100
AcDbSpline
70
4
71
3
72
8
73
4
40
0
40
0
40
0
40
0
40
1
40
1
40
1
40
1
41
1
10
21.1764845414744
20
17.9916271519399
30
0
41
1
10
21.1764845414744
20
19.1622207494385
30
0
41
1
10
21.1764845414744
20
20.332814346937
30
0
41
1
10
21.1764845414744
20
21.5034079444356
30
0
0
SPLINE
5
19E
100
AcDbEntity
8
1
62
256
6
ByLayer
370
-1
48
1
60
0
100
AcDbSpline
70
4
71
3
72
34
73
30
40
0
40
0
40
0
40
0
40
0.124999999999995
40
0.124999999999995
40
0.18749999999999
40
0.18749999999999
40
0.21874999999999
40
0.21874999999999
40
0.24999999999999
40
0.24999999999999
40
0.374999999999992
40
0.374999999999992
40
0.499999999999995
40
0.499999999999995
40
0.531249999999996
40
0.531249999999996
40
0.562499999999996
40
0.562499999999996
40
0.624999999999998
40
0.624999999999998
40
0.749999999999999
40
0.749999999999999
40
0.781249999999999
40
0.781249999999999
40
0.812499999999999
40
0.812499999999999
40
0.875
40
0.875
40
1
40
1
40
1
40
1
41
1
10
177.597995617374
20
10.4589006134748
30
0
41
1
10
177.957477118841
20
10.3139623258072
30
0
41
1
10
178.296648230028
20
10.177552416886
30
0
41
1
10
178.771879241443
20
9.98042011407864
30
0
41
1
10
178.924680953456
20
9.91595693163765
30
0
41
1
10
179.144860573877
20
9.82044719971546
30
0
41
1
10
179.216748165976
20
9.7888078277424
30
0
41
1
10
179.357386222492
20
9.72580419204851
30
0
41
1
10
179.42624293203
20
9.69438804392166
30
0
41
1
10
179.759479707446
20
9.53903460176363
30
0
41
1
10
179.992957781063
20
9.4193266742457
30
0
41
1
10
180.390788265306
20
9.1813178788681
30
0
41
1
10
180.555188662281
20
9.06303359020055
30
0
41
1
10
180.712816982821
20
8.9118498423226
30
0
41
1
10
180.741935180948
20
8.88144845964433
30
0
41
1
10
180.795176592793
20
8.82021734023695
30
0
41
1
10
180.819212081109
20
8.78947057084724
30
0
41
1
10
180.882970318244
20
8.69748322163224
30
0
41
1
10
180.91462019651
20
8.63619342591824
30
0
41
1
10
180.977306989875
20
8.4517400247619
30
0
41
1
10
180.976252747693
20
8.32789914007853
30
0
41
1
10
180.9198595845
20
8.17114482169561
30
0
41
1
10
180.90581357013
20
8.13970371960343
30
0
41
1
10
180.872091833835
20
8.0766499492189
30
0
41
1
10
180.85234917972
20
8.04495246932706
30
0
41
1
10
180.785138513791
20
7.95048317468903
30
0
41
1
10
180.729720828395
20
7.88823529067207
30
0
41
1
10
180.532983819856
20
7.70411247471264
30
0
41
1
10
180.361331660129
20
7.58476581609571
30
0
41
1
10
180.150703456682
20
7.47111151814562
30
0
0
SPLINE
5
19F
100
AcDbEntity
8
1
62
256
6
ByLayer
370
-1
48
1
60
0
100
AcDbSpline
70
4
71
3
72
96
73
92
40
0
40
0
40
0
40
0
40
0.0239176240733045
40
0.0418558421282831
40
0.0478352481466092
40
0.0597940601832616
40
0.0717528722199139
40
0.0896910902748923
40
0.0956704962932185
40
0.107629308329871
40
0.119588120366523
40
0.137526338421501
40
0.143505744439828
40
0.15546455647648
40
0.167423368513132
40
0.185361586568111
40
0.191340992586437
40
0.203299804623089
40
0.215258616659742
40
0.23319683471472
40
0.239176240733046
40
0.251135052769699
40
0.263093864806351
40
0.28103208286133
40
0.287011488879655
40
0.298970300916308
40
0.31092911295296
40
0.328867331007939
40
0.334846737026265
40
0.346805549062917
40
0.358764361099569
40
0.376702579154548
40
0.382681985172874
40
0.394640797209526
40
0.406599609246179
40
0.424537827301157
40
0.430517233319483
40
0.442476045356135
40
0.454434857392788
40
0.475362778456929
40
0.478352481466092
40
0.484331887484419
40
0.490311293502745
40
0.499280402530234
40
0.502270105539397
40
0.508249511557723
40
0.514228917576049
40
0.520208323594376
40
0.526187729612702
40
0.538146541649354
40
0.550105353686006
40
0.568043571740985
40
0.574022977759311
40
0.585981789795963
40
0.597940601832616
40
0.615878819887594
40
0.62185822590592
40
0.633817037942573
40
0.645775849979225
40
0.663714068034203
40
0.66969347405253
40
0.681652286089182
40
0.693611098125834
40
0.717528722199139
40
0.729487534235791
40
0.741446346272443
40
0.753405158309096
40
0.762374267336586
40
0.765363970345748
40
0.771343376364074
40
0.777322782382401
40
0.78629189140989
40
0.789281594419053
40
0.795261000437379
40
0.801240406455705
40
0.813199218492357
40
0.82515803052901
40
0.837116842565662
40
0.855055060620641
40
0.861034466638966
40
0.872993278675619
40
0.884952090712271
40
0.90289030876725
40
0.908869714785576
40
0.920828526822228
40
0.932787338858881
40
0.949230705409277
40
0.956704962932185
40
0.964179220455093
40
0.98062258700549
40
1
40
1
40
1
40
1
41
1
10
21.1764845414732
20
17.9916271519363
30
0
41
1
10
21.117539077071
20
17.8761307775361
30
0
41
1
10
21.011821594614
20
17.6670143900162
30
0
41
1
10
20.8860927444785
20
17.4143269368392
30
0
41
1
10
20.7897620455084
20
17.2190369171533
30
0
41
1
10
20.7082297038737
20
17.052706182104
30
0
41
1
10
20.591815036923
20
16.813274821653
30
0
41
1
10
20.4896815792946
20
16.6011510494035
30
0
41
1
10
20.3857669923187
20
16.383678490919
30
0
41
1
10
20.2980788049468
20
16.1991435189634
30
0
41
1
10
20.1733729168579
20
15.9348070414029
30
0
41
1
10
20.0645052111579
20
15.7020182043586
30
0
41
1
10
19.9541810210547
20
15.4644981763874
30
0
41
1
10
19.8613599497131
20
15.2636579462089
30
0
41
1
10
19.7298743264431
20
14.977292790859
30
0
41
1
10
19.6156491631695
20
14.7265317624158
30
0
41
1
10
19.5003526147437
20
14.4718317288151
30
0
41
1
10
19.4036332035072
20
14.2571833933498
30
0
41
1
10
19.2671600104509
20
13.9524768613695
30
0
41
1
10
19.1491765734218
20
13.6870988867535
30
0
41
1
10
19.0305509012775
20
13.4187175550092
30
0
41
1
10
18.9313287142962
20
13.1932638054826
30
0
41
1
10
18.7918644673649
20
12.8745689368387
30
0
41
1
10
18.6718732079039
20
12.598450858966
30
0
41
1
10
18.5516922337481
20
12.3203644821317
30
0
41
1
10
18.4514584057688
20
12.087477426903
30
0
41
1
10
18.3111082056247
20
11.7596091555184
30
0
41
1
10
18.1909251214956
20
11.4769623227849
30
0
41
1
10
18.0710055791778
20
11.1934299393259
30
0
41
1
10
17.9712727308519
20
10.9566844751445
30
0
41
1
10
17.8321453038793
20
10.6246796588172
30
0
41
1
10
17.7135613607277
20
10.3398385583112
30
0
41
1
10
17.5956726852043
20
10.0551878702481
30
0
41
1
10
17.4979001557731
20
9.8181818978405
30
0
41
1
10
17.3620056374766
20
9.48704956559089
30
0
41
1
10
17.2467036038707
20
9.20426461744185
30
0
41
1
10
17.1324905049662
20
8.92269601940978
30
0
41
1
10
17.0380238711176
20
8.68889535194594
30
0
41
1
10
16.8978393005505
20
8.34013426833886
30
0
41
1
10
16.7874613936916
20
8.06354559217664
30
0
41
1
10
16.696661443727
20
7.83482544272707
30
0
41
1
10
16.6514859474187
20
7.72080545362448
30
0
41
1
10
16.5886810602139
20
7.56187175871929
30
0
41
1
10
16.5353439301759
20
7.42645047006712
30
0
41
1
10
16.4824313083219
20
7.2917517084415
30
0
41
1
10
16.4386086085262
20
7.17997024749312
30
0
41
1
10
16.3862888968527
20
7.04615676940713
30
0
41
1
10
16.3340703985431
20
6.91224383010862
30
0
41
1
10
16.2645885025467
20
6.73357513882729
30
0
41
1
10
16.1780184807031
20
6.51004503194449
30
0
41
1
10
16.0574680138033
20
6.1970249464006
30
0
41
1
10
15.9549619823305
20
5.92894349597967
30
0
41
1
10
15.8532692492934
20
5.66140520895948
30
0
41
1
10
15.7690658970996
20
5.43887235926906
30
0
41
1
10
15.652313407833
20
5.12840535107179
30
0
41
1
10
15.5535848126074
20
4.86377142989846
30
0
41
1
10
15.4560904607814
20
4.6007115615275
30
0
41
1
10
15.3756495425922
20
4.38255993900677
30
0
41
1
10
15.2646528512347
20
4.07944162782772
30
0
41
1
10
15.1713767817315
20
3.82241169294261
30
0
41
1
10
15.0797449945539
20
3.56800390128714
30
0
41
1
10
15.0044447485672
20
3.35771823419711
30
0
41
1
10
14.8863492141427
20
3.0252683931503
30
0
41
1
10
14.7720176118656
20
2.69933358793566
30
0
41
1
10
14.6618232285669
20
2.38092221132555
30
0
41
1
10
14.5813255493569
20
2.14610402899953
30
0
41
1
10
14.5095779831997
20
1.93472143233143
30
0
41
1
10
14.4587437468099
20
1.78358308079891
30
0
41
1
10
14.4212097519911
20
1.67138409181501
30
0
41
1
10
14.3903043299423
20
1.57861559958147
30
0
41
1
10
14.347741792852
20
1.45013180300845
30
0
41
1
10
14.3120246337938
20
1.34152455948393
30
0
41
1
10
14.2769310082022
20
1.23417093260909
30
0
41
1
10
14.2480784288329
20
1.14550063659368
30
0
41
1
10
14.2027610411229
20
1.00534796740374
30
0
41
1
10
14.147721144294
20
0.833442158691923
30
0
41
1
10
14.0843056538949
20
0.632604494952659
30
0
41
1
10
14.0134394178832
20
0.404825045608845
30
0
41
1
10
13.9560889536008
20
0.216769223531969
30
0
41
1
10
13.9015130331907
20
0.0346836097238281
30
0
41
1
10
13.857779882121
20
-0.113276512547685
30
0
41
1
10
13.7998357197371
20
-0.313253591837906
30
0
41
1
10
13.7537091205831
20
-0.476860241364619
30
0
41
1
10
13.7104421383475
20
-0.634077172162762
30
0
41
1
10
13.6761793629589
20
-0.761066894817304
30
0
41
1
10
13.6331486001228
20
-0.92520640787825
30
0
41
1
10
13.598298439504
20
-1.06335057154916
30
0
41
1
10
13.5703056383572
20
-1.17845419148273
30
0
41
1
10
13.5438749566235
20
-1.2899339678861
30
0
41
1
10
13.5108521731802
20
-1.43569030511696
30
0
41
1
10
13.487733319802
20
-1.54638463038606
30
0
41
1
10
13.4764408040727
20
-1.60337064408918
30
0
0
SPLINE
5
1A0
100
AcDbEntity
8
1
62
256
6
ByLayer
370
-1
48
1
60
0
100
AcDbSpline
70
4
71
3
72
12
73
8
40
0
40
0
40
0
40
0
40
0.10489857517223
40
0.10489857517223
40
0.403265716781483
40
0.403265716781483
40
1
40
1
40
1
40
1
41
1
10
194.49661569309
20
10.5506357106196
30
0
41
1
10
194.495670153527
20
10.5364237228232
30
0
41
1
10
194.494643644661
20
10.5228226684947
30
0
41
1
10
194.490450489464
20
10.472854168377
30
0
41
1
10
194.486758955687
20
10.4405947207155
30
0
41
1
10
194.47496524652
20
10.363343711404
30
0
41
1
10
194.465900017836
20
10.3358201091474
30
0
41
1
10
194.456991158386
20
10.3357374601733
30
0
0
SPLINE
5
1A1
100
AcDbEntity
8
1
62
256
6
ByLayer
370
-1
48
1
60
0
100
AcDbSpline
70
4
71
3
72
12
73
8
40
0
40
0
40
0
40
0
40
0.250000000000015
40
0.250000000000015
40
0.50000000000003
40
0.50000000000003
40
1
40
1
40
1
40
1
41
1
10
180.579372877512
20
25.290693300682
30
0
41
1
10
180.584675649754
20
25.2890650636644
30
0
41
1
10
180.596580094692
20
25.2872706123474
30
0
41
1
10
180.633077017912
20
25.2834156733864
30
0
41
1
10
180.658087048289
20
25.281332386624
30
0
41
1
10
180.749227383471
20
25.2751170884602
30
0
41
1
10
180.83323947235
20
25.2708811041395
30
0
41
1
10
180.933552815613
20
25.2674948187652
30
0
0
SPLINE
5
1A2
100
AcDbEntity
8
1
62
256
6
ByLayer
370
-1
48
1
60
0
100
AcDbSpline
70
4
71
3
72
8
73
4
40
0
40
0
40
0
40
0
40
1
40
1
40
1
40
1
41
1
10
33.1088684993724
20
-14.7054817214445
30
0
41
1
10
31.4848292257155
20
-13.8058973445069
30
0
41
1
10
29.8574951109153
20
-12.9026298529705
30
0
41
1
10
28.2360664204269
20
-11.9758526549405
30
0
0
SPLINE
5
1A3
100
AcDbEntity
8
1
62
256
6
ByLayer
370
-1
48
1
60
0
100
AcDbSpline
70
4
71
3
72
44
73
40
40
0
40
0
40
0
40
0
40
0.0571857048009394
40
0.124529583029443
40
0.191873461257948
40
0.259217339486453
40
0.326561217714957
40
0.360233156829209
40
0.393905095943461
40
0.410741065500587
40
0.427577035057713
40
0.444413004614839
40
0.452830989393402
40
0.461248974171965
40
0.469666958950527
40
0.478084943729092
40
0.486502928507654
40
0.494920913286218
40
0.511756882843344
40
0.528592852400469
40
0.545428821957596
40
0.562264791514722
40
0.579100761071848
40
0.587518745850412
40
0.595936730628974
40
0.604354715407537
40
0.6127727001861
40
0.629608669743226
40
0.663280608857478
40
0.696952547971731
40
0.713788517528856
40
0.730624487085983
40
0.739042471864546
40
0.764296426200235
40
0.781132395757361
40
0.797968365314487
40
0.831640304428739
40
0.865312243542991
40
1
40
1
40
1
40
1
41
1
10
67.9370174387016
20
2.44074726090835
30
0
41
1
10
67.3928221224365
20
2.54414574865459
30
0
41
1
10
66.2077137197974
20
2.76875561879109
30
0
41
1
10
64.3815231866319
20
3.11281071057283
30
0
41
1
10
62.4584642486502
20
3.47224796544566
30
0
41
1
10
60.5352402406076
20
3.82840612058189
30
0
41
1
10
58.9324751854938
20
4.1222871319554
30
0
41
1
10
57.6501726064296
20
4.355401127383
30
0
41
1
10
56.8486866722193
20
4.50020124612101
30
0
41
1
10
56.2073956018411
20
4.61554595376737
30
0
41
1
10
55.7262211492322
20
4.70183902694401
30
0
41
1
10
55.3255746765522
20
4.77349650149779
30
0
41
1
10
55.0057659788564
20
4.83042188336796
30
0
41
1
10
54.7663206450888
20
4.87284758937506
30
0
41
1
10
54.5268518959367
20
4.91508566696777
30
0
41
1
10
54.2868804753659
20
4.9572934924723
30
0
41
1
10
54.046410944438
20
4.99951519482389
30
0
41
1
10
53.7249774160208
20
5.05592241563383
30
0
41
1
10
53.3226834705464
20
5.12654875347263
30
0
41
1
10
52.8398630547199
20
5.21133278386174
30
0
41
1
10
52.3573179469565
20
5.29607442529502
30
0
41
1
10
51.8751643192531
20
5.38063775575711
30
0
41
1
10
51.4745815625979
20
5.45068642229381
30
0
41
1
10
51.1552918154436
20
5.50617961201635
30
0
41
1
10
50.9165139243261
20
5.54744632040396
30
0
41
1
10
50.6776667867755
20
5.588512007275
30
0
41
1
10
50.3579400396067
20
5.64333634879469
30
0
41
1
10
49.7966300593737
20
5.73929181410568
30
0
41
1
10
48.993572124017
20
5.87598665833761
30
0
41
1
10
48.1908759672682
20
6.01189485390324
30
0
41
1
10
47.549726668115
20
6.11974424628826
30
0
41
1
10
47.1495176451221
20
6.18668444691741
30
0
41
1
10
46.6695003103976
20
6.26657824843315
30
0
41
1
10
46.189160299578
20
6.34609976665161
30
0
41
1
10
45.6283360215256
20
6.43839505298584
30
0
41
1
10
44.9869221535058
20
6.54341681837207
30
0
41
1
10
44.1849375950102
20
6.67386458142957
30
0
41
1
10
42.2603357563259
20
6.98354250467136
30
0
41
1
10
40.6576029640623
20
7.23566320313145
30
0
41
1
10
39.3764845414773
20
7.43258038102516
30
0
0
SPLINE
5
1A4
100
AcDbEntity
8
1
62
256
6
ByLayer
370
-1
48
1
60
0
100
AcDbSpline
70
4
71
3
72
8
73
4
40
0
40
0
40
0
40
0
40
1
40
1
40
1
40
1
41
1
10
36.0000000000001
20
14.8213113469574
30
0
41
1
10
37.1400870816253
20
14.3426632358115
30
0
41
1
10
38.2645523422361
20
13.8293593805945
30
0
41
1
10
39.3764845414744
20
13.2829503134328
30
0
0
SPLINE
5
1A5
100
AcDbEntity
8
1
62
256
6
ByLayer
370
-1
48
1
60
0
100
AcDbSpline
70
4
71
3
72
8
73
4
40
0
40
0
40
0
40
0
40
1
40
1
40
1
40
1
41
1
10
9.42460701320999
20
2.54896172287997
30
0
41
1
10
9.58635489159619
20
2.23979089558315
30
0
41
1
10
9.75797048989293
20
1.93907153068997
30
0
41
1
10
9.94017663615116
20
1.64688745055679
30
0
0
SPLINE
5
1A6
100
AcDbEntity
8
1
62
256
6
ByLayer
370
-1
48
1
60
0
100
AcDbSpline
70
4
71
2
72
6
73
3
40
0
40
0
40
0
40
1
40
1
40
1
41
1
10
9.94017663614486
20
1.64688745056697
30
0
41
1
10
9.94017663614486
20
0.779096222404746
30
0
41
1
10
9.94017663614486
20
-0.0886950057574438
30
0
0
SPLINE
5
1A7
100
AcDbEntity
8
1
62
256
6
ByLayer
370
-1
48
1
60
0
100
AcDbSpline
70
4
71
3
72
8
73
4
40
0
40
0
40
0
40
0
40
1
40
1
40
1
40
1
41
1
10
20.640176636145
20
-6.49032599312289
30
0
41
1
10
20.640176636145
20
-8.15786799278749
30
0
41
1
10
20.640176636145
20
-9.82540999245208
30
0
41
1
10
20.640176636145
20
-11.4929519921167
30
0
0
SPLINE
5
1A8
100
AcDbEntity
8
1
62
256
6
ByLayer
370
-1
48
1
60
0
100
AcDbSpline
70
4
71
3
72
46
73
42
40
0
40
0
40
0
40
0
40
0.013968798985494
40
0.013968798985494
40
0.0504884730971422
40
0.0504884730971422
40
0.123527821320439
40
0.123527821320439
40
0.196567169543736
40
0.196567169543736
40
0.233086843655384
40
0.233086843655384
40
0.269606517767033
40
0.269606517767033
40
0.342645865990329
40
0.342645865990329
40
0.415685214213626
40
0.415685214213626
40
0.488724562436923
40
0.488724562436923
40
0.525244236548571
40
0.525244236548571
40
0.56176391066022
40
0.56176391066022
40
0.707842607106813
40
0.707842607106813
40
0.78088195533011
40
0.78088195533011
40
0.817401629441758
40
0.817401629441758
40
0.835661466497582
40
0.835661466497582
40
0.853921303553406
40
0.853921303553406
40
0.872181140609231
40
0.872181140609231
40
0.890440977665055
40
0.890440977665055
40
0.926960651776703
40
0.926960651776703
40
1
40
1
40
1
40
1
41
1
10
129.781068681934
20
-19.686559405885
30
0
41
1
10
129.33183086259
20
-19.7877920410493
30
0
41
1
10
128.882500739783
20
-19.8875553725402
30
0
41
1
10
127.258073390179
20
-20.2427373830054
30
0
41
1
10
126.083041617115
20
-20.4892242606195
30
0
41
1
10
122.560902960022
20
-21.195249822136
30
0
41
1
10
120.214998725818
20
-21.6221561814804
30
0
41
1
10
115.523940242983
20
-22.3838358330615
30
0
41
1
10
113.178766381719
20
-22.7190230393148
30
0
41
1
10
109.658929368684
20
-23.1512559394132
30
0
41
1
10
108.485391092229
20
-23.283145888183
30
0
41
1
10
106.137079119966
20
-23.5232429233079
30
0
41
1
10
104.961827257729
20
-23.6314038548559
30
0
41
1
10
101.438544929728
20
-23.9186526002022
30
0
41
1
10
99.0926093205981
20
-24.0605138216542
30
0
41
1
10
94.4029037390468
20
-24.241114643922
30
0
41
1
10
92.0592993426066
20
-24.2789095116128
30
0
41
1
10
87.3694961439031
20
-24.2514912761788
30
0
41
1
10
85.0232096257193
20
-24.1869223694251
30
0
41
1
10
81.4992939378887
20
-24.0147248624047
30
0
41
1
10
80.3249475572791
20
-23.9446427331636
30
0
41
1
10
77.9780869459906
20
-23.7794690715963
30
0
41
1
10
76.8052813149566
20
-23.6844660460749
30
0
41
1
10
70.9431502347818
20
-23.1485976133612
30
0
41
1
10
66.2599025746289
20
-22.5239325760404
30
0
41
1
10
59.2222626070452
20
-21.304378458857
30
0
41
1
10
56.8724901465305
20
-20.8510445956472
30
0
41
1
10
53.3543113171564
20
-20.1073891759873
30
0
41
1
10
52.182226381932
20
-19.8488815460707
30
0
41
1
10
50.4247409421288
20
-19.4456025122909
30
0
41
1
10
49.8389866085557
20
-19.3087499014178
30
0
41
1
10
48.6677099336533
20
-19.0295805326727
30
0
41
1
10
48.0823784734031
20
-18.8862865668655
30
0
41
1
10
46.9114241316804
20
-18.5966104502074
30
0
41
1
10
46.3258260807904
20
-18.4501377257705
30
0
41
1
10
45.1546250410103
20
-18.1525657561898
30
0
41
1
10
44.569215630629
20
-18.0004043455727
30
0
41
1
10
42.8128933317084
20
-17.5369067283667
30
0
41
1
10
41.6417042904766
20
-17.2197032494266
30
0
41
1
10
38.1276515861724
20
-16.2377401134263
30
0
41
1
10
35.7835990090447
20
-15.5465762965988
30
0
41
1
10
33.4359635698235
20
-14.8234278287455
30
0
0
SPLINE
5
1A9
100
AcDbEntity
8
1
62
256
6
ByLayer
370
-1
48
1
60
0
100
AcDbSpline
70
4
71
3
72
8
73
4
40
0
40
0
40
0
40
0
40
1
40
1
40
1
40
1
41
1
10
149.133407633713
20
17.4991204331497
30
0
41
1
10
148.449652888514
20
17.6840031686744
30
0
41
1
10
147.755056750285
20
17.8868184834058
30
0
41
1
10
147.051595956804
20
18.1042966861995
30
0
0
SPLINE
5
1AA
100
AcDbEntity
8
1
62
256
6
ByLayer
370
-1
48
1
60
0
100
AcDbSpline
70
4
71
3
72
8
73
4
40
0
40
0
40
0
40
0
40
1
40
1
40
1
40
1
41
1
10
21.1764845414732
20
17.9916271519363
30
0
41
1
10
27.3064013111582
20
14.4615677905491
30
0
41
1
10
33.3532074296562
20
10.9215776700004
30
0
41
1
10
39.3764845414743
20
7.43258038102579
30
0
0
SPLINE
5
1AB
100
AcDbEntity
8
1
62
256
6
ByLayer
370
-1
48
1
60
0
100
AcDbSpline
70
4
71
3
72
18
73
14
40
0
40
0
40
0
40
0
40
0.25
40
0.25
40
0.5
40
0.5
40
0.562499999999999
40
0.562499999999999
40
0.624999999999999
40
0.624999999999999
40
0.749999999999999
40
0.749999999999999
40
1
40
1
40
1
40
1
41
1
10
20.640176636145
20
-6.49032599312289
30
0
41
1
10
21.1361363369218
20
-6.94428166346063
30
0
41
1
10
21.6731224695574
20
-7.39108451368054
30
0
41
1
10
22.821366979241
20
-8.29052831189188
30
0
41
1
10
23.43260274064
20
-8.74318565919438
30
0
41
1
10
24.2407646113651
20
-9.31950589477393
30
0
41
1
10
24.4045799032211
20
-9.43524327273042
30
0
41
1
10
24.7345697950677
20
-9.66637009458023
30
0
41
1
10
24.9009913744121
20
-9.78193647416441
30
0
41
1
10
25.4044220036697
20
-10.1286911389136
30
0
41
1
10
25.7455860405556
20
-10.3599513609337
30
0
41
1
10
26.7852047670852
20
-11.0537376794495
30
0
41
1
10
27.4996221941674
20
-11.5164846685979
30
0
41
1
10
28.2360664204594
20
-11.9758526549607
30
0
0
SPLINE
5
1AC
100
AcDbEntity
8
1
62
256
6
ByLayer
370
-1
48
1
60
0
100
AcDbSpline
70
4
71
2
72
6
73
3
40
0
40
0
40
0
40
1
40
1
40
1
41
1
10
28.2360664204269
20
-11.9758526549539
30
0
41
1
10
28.2360664204269
20
-13.9602245401446
30
0
41
1
10
28.2360664204269
20
-15.9445964253352
30
0
0
SPLINE
5
1AD
100
AcDbEntity
8
1
62
256
6
ByLayer
370
-1
48
1
60
0
100
AcDbSpline
70
4
71
3
72
8
73
4
40
0
40
0
40
0
40
0
40
1
40
1
40
1
40
1
41
1
10
176.111435268239
20
10.8073158094767
30
0
41
1
10
176.623880523078
20
10.6655786953193
30
0
41
1
10
177.119928672599
20
10.5508885309274
30
0
41
1
10
177.597995617374
20
10.4589006134748
30
0
0
SPLINE
5
1AE
100
AcDbEntity
8
1
62
256
6
ByLayer
370
-1
48
1
60
0
100
AcDbSpline
70
4
71
3
72
14
73
10
40
0
40
0
40
0
40
0
40
0.500000000000008
40
0.500000000000008
40
0.625000000000011
40
0.625000000000011
40
0.750000000000013
40
0.750000000000013
40
1
40
1
40
1
40
1
41
1
10
167.60813763882
20
8.06666189025813
30
0
41
1
10
168.284739243599
20
7.75142892542789
30
0
41
1
10
168.964495079431
20
7.46149294641145
30
0
41
1
10
169.818020835573
20
7.12979734678638
30
0
41
1
10
169.988920219892
20
7.06501597949574
30
0
41
1
10
170.331115561388
20
6.93863376587311
30
0
41
1
10
170.502797870703
20
6.87690388353661
30
0
41
1
10
171.013333362441
20
6.69839612184529
30
0
41
1
10
171.348928618256
20
6.58778800227358
30
0
41
1
10
171.679760935244
20
6.48557905398823
30
0
0
SPLINE
5
1AF
100
AcDbEntity
8
1
62
256
6
ByLayer
370
-1
48
1
60
0
100
AcDbSpline
70
4
71
3
72
24
73
20
40
0
40
0
40
0
40
0
40
0.330441974063669
40
0.330441974063669
40
0.413052467579591
40
0.413052467579591
40
0.495662961095513
40
0.495662961095513
40
0.660883948127355
40
0.660883948127355
40
0.743494441643276
40
0.743494441643276
40
0.826104935159198
40
0.826104935159198
40
0.90871542867512
40
0.90871542867512
40
0.991325922191042
40
0.991325922191042
40
1
40
1
40
1
40
1
41
1
10
187.982975288714
20
17.7359302863695
30
0
41
1
10
188.012001608552
20
17.496156143697
30
0
41
1
10
188.080082271194
20
17.2579821003145
30
0
41
1
10
188.222314803877
20
16.9645543941934
30
0
41
1
10
188.253643129328
20
16.9062562920529
30
0
41
1
10
188.321600524126
20
16.7918816709381
30
0
41
1
10
188.358316928014
20
16.7356160124871
30
0
41
1
10
188.477111694326
20
16.5698502316907
30
0
41
1
10
188.567717618974
20
16.4633287643936
30
0
41
1
10
188.724117841846
20
16.3113194030805
30
0
41
1
10
188.779385949204
20
16.2623032710503
30
0
41
1
10
188.895143442334
20
16.1691415922312
30
0
41
1
10
188.955824410829
20
16.1248025130562
30
0
41
1
10
189.083218554187
20
16.0410564170928
30
0
41
1
10
189.149928003191
20
16.0016461152847
30
0
41
1
10
189.290070518211
20
15.9284309612998
30
0
41
1
10
189.363209422873
20
15.8948496007916
30
0
41
1
10
189.44588550644
20
15.862133888133
30
0
41
1
10
189.453764644112
20
15.8590664692124
30
0
41
1
10
189.461667017501
20
15.8560407212039
30
0
0
SPLINE
5
1B0
100
AcDbEntity
8
1
62
256
6
ByLayer
370
-1
48
1
60
0
100
AcDbSpline
70
4
71
3
72
22
73
18
40
0
40
0
40
0
40
0
40
0.127399786861949
40
0.127399786861949
40
0.2728331557183
40
0.2728331557183
40
0.345549840146468
40
0.345549840146468
40
0.418266524574637
40
0.418266524574637
40
0.563699893430977
40
0.563699893430977
40
0.709133262287319
40
0.709133262287319
40
0.854566631143659
40
0.854566631143659
40
1
40
1
40
1
40
1
41
1
10
189.190971185964
20
19.7903499915371
30
0
41
1
10
189.063472070608
20
19.7439720320498
30
0
41
1
10
188.948336136479
20
19.6868001783306
30
0
41
1
10
188.722006337475
20
19.5458027201422
30
0
41
1
10
188.618052046946
20
19.461983094966
30
0
41
1
10
188.480945330051
20
19.3267591810761
30
0
41
1
10
188.438392949541
20
19.2800294945027
30
0
41
1
10
188.359000300721
20
19.1834447210574
30
0
41
1
10
188.322257344441
20
19.1336586217716
30
0
41
1
10
188.221534875057
20
18.982319795007
30
0
41
1
10
188.166259737426
20
18.8779824243384
30
0
41
1
10
188.07591583604
20
18.662861125194
30
0
41
1
10
188.040891323588
20
18.5520699043076
30
0
41
1
10
187.990268348235
20
18.3239413824572
30
0
41
1
10
187.975053356352
20
18.2081646012804
30
0
41
1
10
187.964169810427
20
17.9741444264171
30
0
41
1
10
187.968462128794
20
17.8558173577058
30
0
41
1
10
187.982975288714
20
17.7359302863695
30
0
0
SPLINE
5
1B1
100
AcDbEntity
8
1
62
256
6
ByLayer
370
-1
48
1
60
0
100
AcDbSpline
70
4
71
3
72
8
73
4
40
0
40
0
40
0
40
0
40
1
40
1
40
1
40
1
41
1
10
14.0208136677827
20
-1.95723612638636
30
0
41
1
10
16.243755146092
20
-3.45198564446221
30
0
41
1
10
18.4543820411199
20
-4.96319905932597
30
0
41
1
10
20.640176636145
20
-6.49032599312289
30
0
0
SPLINE
5
1B2
100
AcDbEntity
8
1
62
256
6
ByLayer
370
-1
48
1
60
0
100
AcDbSpline
70
4
71
1
72
4
73
2
40
0
40
0
40
1
40
1
41
1
10
39.3764845414743
20
7.43258038102579
30
0
41
1
10
39.3764845414744
20
13.2829503134326
30
0
0
SPLINE
5
1B3
100
AcDbEntity
8
1
62
256
6
ByLayer
370
-1
48
1
60
0
100
AcDbSpline
70
4
71
3
72
22
73
18
40
0
40
0
40
0
40
0
40
0.249999999999996
40
0.249999999999996
40
0.374999999999991
40
0.374999999999991
40
0.437499999999992
40
0.437499999999992
40
0.499999999999993
40
0.499999999999993
40
0.749999999999997
40
0.749999999999997
40
0.812499999999998
40
0.812499999999998
40
0.874999999999999
40
0.874999999999999
40
1
40
1
40
1
40
1
41
1
10
177.780942933519
20
6.35052315144233
30
0
41
1
10
177.460689840204
20
6.21937575650063
30
0
41
1
10
177.073744873848
20
6.11438986455954
30
0
41
1
10
176.411337705818
20
6.00533112016635
30
0
41
1
10
176.17670252608
20
5.97712635674213
30
0
41
1
10
175.805048852023
20
5.94888753818853
30
0
41
1
10
175.677926082987
20
5.94184834180035
30
0
41
1
10
175.420300322677
20
5.93286059142343
30
0
41
1
10
175.289437580031
20
5.93088053829641
30
0
41
1
10
174.625568985631
20
5.93388951454938
30
0
41
1
10
174.064257654942
20
5.97731753864218
30
0
41
1
10
173.331875891176
20
6.09112067946285
30
0
41
1
10
173.183585174272
20
6.11693173255
30
0
41
1
10
172.88598633838
20
6.17442109585556
30
0
41
1
10
172.736533322463
20
6.20611195230248
30
0
41
1
10
172.286425479938
20
6.31019299156137
30
0
41
1
10
171.984030350381
20
6.39157657805237
30
0
41
1
10
171.679760935244
20
6.48557905398823
30
0
0
SPLINE
5
1B4
100
AcDbEntity
8
1
62
256
6
ByLayer
370
-1
48
1
60
0
100
AcDbSpline
70
4
71
3
72
25
73
21
40
0
40
0
40
0
40
0
40
0.124999999999998
40
0.124999999999998
40
0.249999999999996
40
0.249999999999996
40
0.374999999999995
40
0.499999999999993
40
0.499999999999993
40
0.562499999999992
40
0.562499999999992
40
0.624999999999992
40
0.624999999999992
40
0.750000000000005
40
0.750000000000005
40
0.812500000000004
40
0.812500000000004
40
0.875000000000002
40
0.875000000000002
40
1
40
1
40
1
40
1
41
1
10
176.944970386067
20
15.3999999999993
30
0
41
1
10
176.944970386067
20
15.2195163816865
30
0
41
1
10
176.930855075475
20
15.0412497547258
30
0
41
1
10
176.875377695669
20
14.6889959552197
30
0
41
1
10
176.833958433891
20
14.5148320027497
30
0
41
1
10
176.722996133927
20
14.1716761209492
30
0
41
1
10
176.586595786345
20
13.8418120545844
30
0
41
1
10
176.401262372589
20
13.5375163531381
30
0
41
1
10
176.243251693403
20
13.3192279509163
30
0
41
1
10
176.187473630581
20
13.2482969903944
30
0
41
1
10
176.071531473385
20
13.1122704840893
30
0
41
1
10
176.011142088555
20
13.0468528389132
30
0
41
1
10
175.822835995755
20
12.858261170342
30
0
41
1
10
175.687825628169
20
12.7427008888463
30
0
41
1
10
175.470769431168
20
12.5849671814499
30
0
41
1
10
175.395662320065
20
12.5348287680788
30
0
41
1
10
175.242912935243
20
12.4414483331442
30
0
41
1
10
175.165100520068
20
12.398046163596
30
0
41
1
10
174.927444849259
20
12.2774871230251
30
0
41
1
10
174.763408894959
20
12.2099188837367
30
0
41
1
10
174.593708853224
20
12.1553043176886
30
0
0
SPLINE
5
1B5
100
AcDbEntity
8
1
62
256
6
ByLayer
370
-1
48
1
60
0
100
AcDbSpline
70
4
71
3
72
28
73
24
40
0
40
0
40
0
40
0
40
0.03124999999999
40
0.03124999999999
40
0.06249999999998
40
0.06249999999998
40
0.09374999999997
40
0.09374999999997
40
0.12499999999996
40
0.12499999999996
40
0.15624999999995
40
0.15624999999995
40
0.18749999999994
40
0.18749999999994
40
0.249999999999935
40
0.249999999999935
40
0.374999999999946
40
0.374999999999946
40
0.499999999999956
40
0.499999999999956
40
0.749999999999978
40
0.749999999999978
40
1
40
1
40
1
40
1
41
1
10
174.593708853222
20
12.1553043176936
30
0
41
1
10
174.567243943674
20
12.146787115602
30
0
41
1
10
174.5412369642
20
12.1370106972594
30
0
41
1
10
174.490843588505
20
12.1130295827578
30
0
41
1
10
174.466210699429
20
12.0986937238226
30
0
41
1
10
174.42295039348
20
12.0629999172881
30
0
41
1
10
174.404562063073
20
12.0415889001446
30
0
41
1
10
174.381268929602
20
11.991229575429
30
0
41
1
10
174.377393270034
20
11.9639190766967
30
0
41
1
10
174.381196062454
20
11.9110800197856
30
0
41
1
10
174.388514089043
20
11.8852608272235
30
0
41
1
10
174.408159014641
20
11.8368416583107
30
0
41
1
10
174.42056633951
20
11.8138896695718
30
0
41
1
10
174.462342376459
20
11.7473022734425
30
0
41
1
10
174.495217708724
20
11.7072322557417
30
0
41
1
10
174.599930702291
20
11.5934106449508
30
0
41
1
10
174.678793286275
20
11.5255770082297
30
0
41
1
10
174.841680179164
20
11.3997837618072
30
0
41
1
10
174.925898176425
20
11.3422144030539
30
0
41
1
10
175.18377892287
20
11.1807885163099
30
0
41
1
10
175.362625270918
20
11.0881407649447
30
0
41
1
10
175.730672933536
20
10.9276668502824
30
0
41
1
10
175.920704176923
20
10.8600700777776
30
0
41
1
10
176.111435268239
20
10.8073158094767
30
0
0
SPLINE
5
1B6
100
AcDbEntity
8
1
62
256
6
ByLayer
370
-1
48
1
60
0
100
AcDbSpline
70
4
71
3
72
16
73
12
40
0
40
0
40
0
40
0
40
0.25
40
0.25
40
0.499999999999999
40
0.499999999999999
40
0.624999999999999
40
0.624999999999999
40
0.749999999999999
40
0.749999999999999
40
1
40
1
40
1
40
1
41
1
10
14.0208135694482
20
-1.95723616385243
30
0
41
1
10
13.6527890394545
20
-1.73657553273941
30
0
41
1
10
13.292064367376
20
-1.49476673879744
30
0
41
1
10
12.5835048993615
20
-0.970767280924349
30
0
41
1
10
12.2356742272324
20
-0.688573833339859
30
0
41
1
10
11.7228565145907
20
-0.234987727069011
30
0
41
1
10
11.5534104848251
20
-0.0787284492696187
30
0
41
1
10
11.2174429142057
20
0.244106234715332
30
0
41
1
10
11.0508570417258
20
0.410793008365715
30
0
41
1
10
10.5607777451855
20
0.921013911948165
30
0
41
1
10
10.2450863799821
20
1.27636661190911
30
0
41
1
10
9.94017663614483
20
1.64688745056691
30
0
0
SPLINE
5
1B7
100
AcDbEntity
8
1
62
256
6
ByLayer
370
-1
48
1
60
0
100
AcDbSpline
70
4
71
3
72
8
73
4
40
0
40
0
40
0
40
0
40
1
40
1
40
1
40
1
41
1
10
9.4246070132136
20
2.54896172287312
30
0
41
1
10
9.06859073424141
20
3.22946429637884
30
0
41
1
10
8.74757216070344
20
3.92141721521324
30
0
41
1
10
8.45758324472169
20
4.6218893768162
30
0
0
SPLINE
5
1B8
100
AcDbEntity
8
1
62
256
6
ByLayer
370
-1
48
1
60
0
100
AcDbSpline
70
4
71
3
72
14
73
10
40
0
40
0
40
0
40
0
40
0.25
40
0.25
40
0.5
40
0.5
40
0.75
40
0.75
40
1
40
1
40
1
40
1
41
1
10
149.184413874093
20
17.75099770524
30
0
41
1
10
149.278669368977
20
17.8984259362249
30
0
41
1
10
149.388088089724
20
18.0305999083527
30
0
41
1
10
149.624575538869
20
18.2771416765423
30
0
41
1
10
149.751895498733
20
18.3912581605181
30
0
41
1
10
150.01891390405
20
18.6069754101456
30
0
41
1
10
150.15787705505
20
18.7078244796027
30
0
41
1
10
150.441216244724
20
18.8980152706926
30
0
41
1
10
150.586030203996
20
18.9876487921196
30
0
41
1
10
150.733138589258
20
19.0732608322523
30
0
0
SPLINE
5
1B9
100
AcDbEntity
8
1
62
256
6
ByLayer
370
-1
48
1
60
0
100
AcDbSpline
70
4
71
4
72
13
73
8
40
0
40
0
40
0
40
0
40
0
40
0.667647213475254
40
0.667647213475254
40
0.667647213475254
40
1
40
1
40
1
40
1
40
1
41
1
10
39.3764845414773
20
7.43258038102516
30
0
41
1
10
39.3764845414773
20
5.48594697169312
30
0
41
0.942809041582063
10
38.8503114406339
20
0.973247144417737
30
0
41
1
10
37.4523462016896
20
-5.11913480307291
30
0
41
1
10
35.8761452074412
20
-10.8908632413671
30
0
41
0.985827973954505
10
35.28557762822
20
-12.8227371576793
30
0
41
0.978648298431811
10
34.7385171180391
20
-14.2579215829152
30
0
41
0.978554223256743
10
34.3030037889923
20
-15.0529287879503
30
0
0
SPLINE
5
1BA
100
AcDbEntity
8
1
62
256
6
ByLayer
370
-1
48
1
60
0
100
AcDbSpline
70
4
71
3
72
20
73
16
40
0
40
0
40
0
40
0
40
0.25
40
0.25
40
0.3125
40
0.3125
40
0.375
40
0.375
40
0.5
40
0.5
40
0.625
40
0.625
40
0.749999999999999
40
0.749999999999999
40
1
40
1
40
1
40
1
41
1
10
9.94017663614488
20
-0.0886950057575007
30
0
41
1
10
10.7532085724451
20
-1.18029888565991
30
0
41
1
10
11.5875893406111
20
-2.24232384988332
30
0
41
1
10
12.6589837359007
20
-3.53238312940533
30
0
41
1
10
12.8746916339483
20
-3.78851233168748
30
0
41
1
10
13.3090405450465
20
-4.29695783467355
30
0
41
1
10
13.5278475555668
20
-4.54946037452891
30
0
41
1
10
14.1871108093743
20
-5.29925173753267
30
0
41
1
10
14.6306035000514
20
-5.78908900391161
30
0
41
1
10
15.5261352306611
20
-6.74859857826175
30
0
41
1
10
15.9781741610164
20
-7.21827039700023
30
0
41
1
10
16.8915047496488
20
-8.13709663188524
30
0
41
1
10
17.3529564408335
20
-8.58635207267423
30
0
41
1
10
18.7446480649866
20
-9.89543479337163
30
0
41
1
10
19.6846874283374
20
-10.719281615187
30
0
41
1
10
20.640176636145
20
-11.4929519921167
30
0
0
SPLINE
5
1BB
100
AcDbEntity
8
1
62
256
6
ByLayer
370
-1
48
1
60
0
100
AcDbSpline
70
4
71
3
72
12
73
8
40
0
40
0
40
0
40
0
40
0.25
40
0.25
40
0.5
40
0.5
40
1
40
1
40
1
40
1
41
1
10
180.822659620347
20
17.6609985622133
30
0
41
1
10
180.826854607
20
17.6609985622133
30
0
41
1
10
180.835025692772
20
17.6666755328351
30
0
41
1
10
180.858411976588
20
17.6874748782475
30
0
41
1
10
180.873845355247
20
17.7028170906141
30
0
41
1
10
180.927628903286
20
17.7575120901267
30
0
41
1
10
180.974099920437
20
17.8058698125113
30
0
41
1
10
181.028040497171
20
17.8576026794777
30
0
0
SPLINE
5
1BC
100
AcDbEntity
8
1
62
256
6
ByLayer
370
-1
48
1
60
0
100
AcDbSpline
70
4
71
3
72
10
73
6
40
0
40
0
40
0
40
0
40
0.5
40
0.5
40
1
40
1
40
1
40
1
41
1
10
9.94017663614491
20
-0.0886950057576428
30
0
41
1
10
9.61640778643164
20
0.682260485060908
30
0
41
1
10
9.33800470190099
20
1.46215794892876
30
0
41
1
10
8.8499048855434
20
3.03399634406586
30
0
41
1
10
8.64033343585564
20
3.82596904282605
30
0
41
1
10
8.45758324472169
20
4.62188937681617
30
0
0
SPLINE
5
1BD
100
AcDbEntity
8
1
62
256
6
ByLayer
370
-1
48
1
60
0
100
AcDbSpline
70
4
71
3
72
9
73
5
40
0
40
0
40
0
40
0
40
0.625000000000006
40
1
40
1
40
1
40
1
41
1
10
195.709577874643
20
10.7014332546675
30
0
41
1
10
195.710461037831
20
10.6806126124379
30
0
41
1
10
195.711874098932
20
10.6472995848706
30
0
41
1
10
195.713287160033
20
10.6139865573034
30
0
41
1
10
195.713817057946
20
10.6014941719656
30
0
0
SPLINE
5
1BE
100
AcDbEntity
8
1
62
256
6
ByLayer
370
-1
48
1
60
0
100
AcDbSpline
70
4
71
3
72
8
73
4
40
0
40
0
40
0
40
0
40
1
40
1
40
1
40
1
41
1
10
196.674430117066
20
11.6355604935538
30
0
41
1
10
196.675484756254
20
11.6052436453149
30
0
41
1
10
196.676403482388
20
11.5749217400954
30
0
41
1
10
196.677182272658
20
11.5445964693878
30
0
0
SPLINE
5
1BF
100
AcDbEntity
8
1
62
256
6
ByLayer
370
-1
48
1
60
0
100
AcDbSpline
70
4
71
3
72
8
73
4
40
0
40
0
40
0
40
0
40
1
40
1
40
1
40
1
41
1
10
182.322729326699
20
10.132080824552
30
0
41
1
10
182.292527859453
20
10.1310221731083
30
0
41
1
10
182.262320122127
20
10.1300987168341
30
0
41
1
10
182.232111047819
20
10.1293177543551
30
0
0
SPLINE
5
1C0
100
AcDbEntity
8
1
62
256
6
ByLayer
370
-1
48
1
60
0
100
AcDbSpline
70
4
71
3
72
8
73
4
40
0
40
0
40
0
40
0
40
1
40
1
40
1
40
1
41
1
10
195.951829940276
20
25.8399218085
30
0
41
1
10
195.849833262103
20
25.9353923531818
30
0
41
1
10
195.723471707966
20
26.002834787747
30
0
41
1
10
195.587583458124
20
26.0343348991775
30
0
0
SPLINE
5
1C1
100
AcDbEntity
8
1
62
256
6
ByLayer
370
-1
48
1
60
0
100
AcDbSpline
70
4
71
3
72
9
73
5
40
0
40
0
40
0
40
0
40
0.5
40
1
40
1
40
1
40
1
41
1
10
181.641932619303
20
10.4366309836897
30
0
41
1
10
181.59812703718
20
10.4730167038894
30
0
41
1
10
181.517986010456
20
10.5593330884109
30
0
41
1
10
181.46263762632
20
10.6653785160971
30
0
41
1
10
181.442397015765
20
10.7205116675469
30
0
0
SPLINE
5
1C2
100
AcDbEntity
8
1
62
256
6
ByLayer
370
-1
48
1
60
0
100
AcDbSpline
70
4
71
3
72
8
73
4
40
0
40
0
40
0
40
0
40
1
40
1
40
1
40
1
41
1
10
181.308409804955
20
10.7967346776653
30
0
41
1
10
181.311050008958
20
10.7588487870308
30
0
41
1
10
181.317902664753
20
10.7217465389155
30
0
41
1
10
181.328960966742
20
10.6854270629801
30
0
0
SPLINE
5
1C3
100
AcDbEntity
8
1
62
256
6
ByLayer
370
-1
48
1
60
0
100
AcDbSpline
70
4
71
3
72
15
73
11
40
0
40
0
40
0
40
0
40
0.250244249035875
40
0.50048849807175
40
0.750732747107625
40
0.875854871625563
40
0.938415933884532
40
0.969696465014016
40
0.985336730578758
40
1
40
1
40
1
40
1
41
1
10
196.087354592786
20
10.7527526706214
30
0
41
1
10
196.090340837399
20
10.7431896230618
30
0
41
1
10
196.096313326623
20
10.7240635279425
30
0
41
1
10
196.10527032721
20
10.6953799357666
30
0
41
1
10
196.112742871744
20
10.6714501148556
30
0
41
1
10
196.117955800435
20
10.6547564103987
30
0
41
1
10
196.120588263542
20
10.6463263006253
30
0
41
1
10
196.121865496953
20
10.642236132056
30
0
41
1
10
196.122652224612
20
10.6397167423213
30
0
41
1
10
196.122839621795
20
10.6391166279968
30
0
41
1
10
196.123193212867
20
10.6379843000487
30
0
0
SPLINE
5
1C4
100
AcDbEntity
8
1
62
256
6
ByLayer
370
-1
48
1
60
0
100
AcDbSpline
70
4
71
3
72
15
73
11
40
0
40
0
40
0
40
0
40
0.0355064919379753
40
0.118947470229824
40
0.285829426813521
40
0.619593339980916
40
0.786475296564614
40
0.869916274856462
40
0.953357253148311
40
1
40
1
40
1
40
1
41
1
10
194.646284862578
20
11.4670852499258
30
0
41
1
10
194.646462160269
20
11.4628891744567
30
0
41
1
10
194.647053203082
20
11.4488294568745
30
0
41
1
10
194.648419353454
20
11.4149933893539
30
0
41
1
10
194.650994495795
20
11.3457197892302
30
0
41
1
10
194.653423125274
20
11.2665357790026
30
0
41
1
10
194.655084956804
20
11.1977448177734
30
0
41
1
10
194.655901299945
20
11.1586473683476
30
0
41
1
10
194.656365165429
20
11.1337433399364
30
0
41
1
10
194.656617842101
20
11.1186349336355
30
0
41
1
10
194.656706820676
20
11.1132211579257
30
0
0
SPLINE
5
1C5
100
AcDbEntity
8
1
62
256
6
ByLayer
370
-1
48
1
60
0
100
AcDbSpline
70
4
71
3
72
25
73
21
40
0
40
0
40
0
40
0
40
0.125
40
0.1875
40
0.21875
40
0.234375
40
0.25
40
0.3125
40
0.34375
40
0.375
40
0.5
40
0.625
40
0.6875
40
0.71875
40
0.7265625
40
0.734375
40
0.75
40
0.8125
40
0.875
40
1
40
1
40
1
40
1
41
1
10
182.319252657341
20
10.232019907254
30
0
41
1
10
182.302240263389
20
10.2322587218587
30
0
41
1
10
182.2767448895
20
10.2326887027894
30
0
41
1
10
182.246993525596
20
10.2332824913571
30
0
41
1
10
182.232150341528
20
10.2336208235587
30
0
41
1
10
182.223682030845
20
10.2338286100496
30
0
41
1
10
182.210996164337
20
10.2341560838145
30
0
41
1
10
182.196250939546
20
10.234588014815
30
0
41
1
10
182.179392599212
20
10.2351331649208
30
0
41
1
10
182.154058833741
20
10.2359939444076
30
0
41
1
10
182.115725103472
20
10.2374147524425
30
0
41
1
10
182.073379283883
20
10.2392148878511
30
0
41
1
10
182.043527012964
20
10.2405876443066
30
0
41
1
10
182.029938903697
20
10.2412558241772
30
0
41
1
10
182.023352382076
20
10.2415646670934
30
0
41
1
10
182.020333787767
20
10.2417850394671
30
0
41
1
10
182.011019814022
20
10.2424828379169
30
0
41
1
10
181.99632313697
20
10.2441059537882
30
0
41
1
10
181.970205986895
20
10.2483426018695
30
0
41
1
10
181.951002043459
20
10.2530081370244
30
0
41
1
10
181.938472092691
20
10.2567527827043
30
0
0
SPLINE
5
1C6
100
AcDbEntity
8
1
62
256
6
ByLayer
370
-1
48
1
60
0
100
AcDbSpline
70
4
71
3
72
25
73
21
40
0
40
0
40
0
40
0
40
0.125
40
0.1875
40
0.25
40
0.265625
40
0.2734375
40
0.28125
40
0.3125
40
0.375
40
0.5
40
0.625
40
0.65625
40
0.6875
40
0.75
40
0.765625
40
0.78125
40
0.8125
40
0.875
40
1
40
1
40
1
40
1
41
1
10
196.055236276462
20
25.4536516064161
30
0
41
1
10
196.059840400898
20
25.4414016890958
30
0
41
1
10
196.06582820567
20
25.4225471818511
30
0
41
1
10
196.071871981279
20
25.3967518991673
30
0
41
1
10
196.074515022031
20
25.3821821062806
30
0
41
1
10
196.075860439645
20
25.3729228368436
30
0
41
1
10
196.076290692256
20
25.3699246396346
30
0
41
1
10
196.077058519136
20
25.3633499649377
30
0
41
1
10
196.078673380878
20
25.3497922465359
30
0
41
1
10
196.08212657041
20
25.3199956742131
30
0
41
1
10
196.086878696901
20
25.2777215807309
30
0
41
1
10
196.090973127108
20
25.2394370158736
30
0
41
1
10
196.093601237586
20
25.2141311104013
30
0
41
1
10
196.095322627005
20
25.197289749895
30
0
41
1
10
196.096783664925
20
25.1825569226939
30
0
41
1
10
196.09799678903
20
25.1698781102514
30
0
41
1
10
196.098795848257
20
25.1614136297453
30
0
41
1
10
196.100170717502
20
25.1465750858963
30
0
41
1
10
196.10284264064
20
25.1168264182522
30
0
41
1
10
196.105053969715
20
25.0913279483686
30
0
41
1
10
196.106481730895
20
25.0743100547925
30
0
0
SPLINE
5
1C7
100
AcDbEntity
8
1
62
256
6
ByLayer
370
-1
48
1
60
0
100
AcDbSpline
70
4
71
3
72
8
73
4
40
0
40
0
40
0
40
0
40
1
40
1
40
1
40
1
41
1
10
195.176671642118
20
26.0420824494111
30
0
41
1
10
195.206873141829
20
26.0431411008547
30
0
41
1
10
195.237078446934
20
26.0440645571289
30
0
41
1
10
195.267289120421
20
26.0448455196079
30
0
0
SPLINE
5
1C8
100
AcDbEntity
8
1
62
256
6
ByLayer
370
-1
48
1
60
0
100
AcDbSpline
70
4
71
3
72
8
73
4
40
0
40
0
40
0
40
0
40
1
40
1
40
1
40
1
41
1
10
181.298560641457
20
10.9564869510498
30
0
41
1
10
181.301418477548
20
10.9032115027597
30
0
41
1
10
181.304700811122
20
10.8499572826586
30
0
41
1
10
181.308409804955
20
10.7967346776629
30
0
0
SPLINE
5
1C9
100
AcDbEntity
8
1
62
256
6
ByLayer
370
-1
48
1
60
0
100
AcDbSpline
70
4
71
3
72
8
73
4
40
0
40
0
40
0
40
0
40
1
40
1
40
1
40
1
41
1
10
194.724511721423
20
12.6188282619401
30
0
41
1
10
194.734647888172
20
12.6191835767628
30
0
41
1
10
194.745040085518
20
12.6195380815241
30
0
41
1
10
194.753852104677
20
12.6198291383875
30
0
0
SPLINE
5
1CA
100
AcDbEntity
8
1
62
256
6
ByLayer
370
-1
48
1
60
0
100
AcDbSpline
70
4
71
3
72
12
73
8
40
0
40
0
40
0
40
0
40
0.0285608994399138
40
0.0933235061439196
40
0.222848719551931
40
0.481899146367954
40
1
40
1
40
1
40
1
41
1
10
194.656706820676
20
11.1132211579257
30
0
41
1
10
194.656777019248
20
11.1089500250061
30
0
41
1
10
194.657003098143
20
11.0950010730268
30
0
41
1
10
194.657545095456
20
11.0616886536114
30
0
41
1
10
194.658645923494
20
10.9939246120339
30
0
41
1
10
194.66084870409
20
10.8583946145647
30
0
41
1
10
194.662736448058
20
10.7422266632561
30
0
41
1
10
194.663995019168
20
10.6647812247476
30
0
0
SPLINE
5
1CB
100
AcDbEntity
8
1
62
256
6
ByLayer
370
-1
48
1
60
0
100
AcDbSpline
70
4
71
3
72
8
73
4
40
0
40
0
40
0
40
0
40
1
40
1
40
1
40
1
41
1
10
196.190991153494
20
25.3774285962978
30
0
41
1
10
196.188351597489
20
25.4153144869322
30
0
41
1
10
196.181500363557
20
25.4524167350475
30
0
41
1
10
196.170440002075
20
25.4887362109829
30
0
0
SPLINE
5
1CC
100
AcDbEntity
8
1
62
256
6
ByLayer
370
-1
48
1
60
0
100
AcDbSpline
70
4
71
3
72
16
73
12
40
0
40
0
40
0
40
0
40
0.0319528420423362
40
0.215044192449684
40
0.398135542857032
40
0.581226893264379
40
0.764318243671727
40
0.855863918875401
40
0.947409594079075
40
0.993182431680912
40
1
40
1
40
1
40
1
41
1
10
182.880766845249
20
24.3839831542398
30
0
41
1
10
182.880674018888
20
24.3874237791629
30
0
41
1
10
182.880040931169
20
24.4105878586231
30
0
41
1
10
182.878879891275
20
24.4534627198246
30
0
41
1
10
182.877273392725
20
24.5126184003664
30
0
41
1
10
182.875665878575
20
24.5717751291201
30
0
41
1
10
182.874327240046
20
24.6210714203412
30
0
41
1
10
182.873255252879
20
24.6605093689179
30
0
41
1
10
182.872586344192
20
24.6851571895305
30
0
41
1
10
182.872166308362
20
24.7006790769417
30
0
41
1
10
182.872011750648
20
24.7063436681538
30
0
41
1
10
182.871991686171
20
24.7070780240371
30
0
0
SPLINE
5
1CD
100
AcDbEntity
8
1
62
256
6
ByLayer
370
-1
48
1
60
0
100
AcDbSpline
70
4
71
3
72
12
73
8
40
0
40
0
40
0
40
0
40
0.518100853439246
40
0.777151280158869
40
0.90667649351868
40
0.971439100198586
40
1
40
1
40
1
40
1
41
1
10
196.537596260921
20
12.6816473560045
30
0
41
1
10
196.461881117619
20
12.6789429016982
30
0
41
1
10
196.348308788274
20
12.6748862293223
30
0
41
1
10
196.215806358623
20
12.6701534128326
30
0
41
1
10
196.149556998957
20
12.6677870474026
30
0
41
1
10
196.116987780622
20
12.6666237411336
30
0
41
1
10
196.103351267123
20
12.6661366376185
30
0
41
1
10
196.099174832812
20
12.6659874879
30
0
0
SPLINE
5
1CE
100
AcDbEntity
8
1
62
256
6
ByLayer
370
-1
48
1
60
0
100
AcDbSpline
70
4
71
3
72
15
73
11
40
0
40
0
40
0
40
0
40
0.424997863749039
40
0.849995727498079
40
0.956245193435339
40
0.982807559919654
40
0.996088743161811
40
0.997748891067081
40
0.999409038972351
40
1
40
1
40
1
40
1
41
1
10
181.354881652152
20
12.1494300312915
30
0
41
1
10
181.360054242268
20
12.0007406225151
30
0
41
1
10
181.370396627518
20
11.703364818934
30
0
41
1
10
181.382044739302
20
11.3688030546054
30
0
41
1
10
181.388822407891
20
11.1736604879974
30
0
41
1
10
181.39060812921
20
11.1225402353726
30
0
41
1
10
181.391106303845
20
11.1080273183915
30
0
41
1
10
181.391313886105
20
11.1022131558602
30
0
41
1
10
181.391353917516
20
11.1008458601885
30
0
41
1
10
181.391392111101
20
11.1000601395909
30
0
41
1
10
181.391404144711
20
11.0998538111899
30
0
0
SPLINE
5
1CF
100
AcDbEntity
8
1
62
256
6
ByLayer
370
-1
48
1
60
0
100
AcDbSpline
70
4
71
3
72
25
73
21
40
0
40
0
40
0
40
0
40
0.125
40
0.1875
40
0.21875
40
0.234375
40
0.25
40
0.3125
40
0.34375
40
0.375
40
0.5
40
0.625
40
0.6875
40
0.71875
40
0.7265625
40
0.734375
40
0.75
40
0.8125
40
0.875
40
1
40
1
40
1
40
1
41
1
10
195.180148311476
20
25.942143366709
30
0
41
1
10
195.197158077863
20
25.9419045521043
30
0
41
1
10
195.22264911207
20
25.9414745711736
30
0
41
1
10
195.252395473753
20
25.9408807826059
30
0
41
1
10
195.267235639822
20
25.9405424504043
30
0
41
1
10
195.275702012428
20
25.9403346639134
30
0
41
1
10
195.288384710298
20
25.9400071901485
30
0
41
1
10
195.303125373744
20
25.939575259148
30
0
41
1
10
195.319978588166
20
25.9390301090422
30
0
41
1
10
195.345305366487
20
25.9381693295554
30
0
41
1
10
195.383633724045
20
25.9367485215205
30
0
41
1
10
195.42596973894
20
25.9349483861119
30
0
41
1
10
195.455818356704
20
25.9335756296564
30
0
41
1
10
195.469400619621
20
25.9329074497858
30
0
41
1
10
195.475989250977
20
25.9325986068696
30
0
41
1
10
195.478988292724
20
25.9323782344958
30
0
41
1
10
195.488263878485
20
25.9316804360461
30
0
41
1
10
195.502889258993
20
25.9300573201748
30
0
41
1
10
195.528881090634
20
25.9258206720935
30
0
41
1
10
195.547989322552
20
25.9211551369386
30
0
41
1
10
195.560455228611
20
25.9174104912587
30
0
0
SPLINE
5
1D0
100
AcDbEntity
8
1
62
256
6
ByLayer
370
-1
48
1
60
0
100
AcDbSpline
70
4
71
3
72
15
73
11
40
0
40
0
40
0
40
0
40
0.250139710793185
40
0.50035157958698
40
0.750563448380775
40
0.875669382777673
40
0.938222349976122
40
0.969498833575346
40
0.985137075374958
40
1
40
1
40
1
40
1
41
1
10
195.855965560949
20
25.7375396722402
30
0
41
1
10
195.86395253122
20
25.7460696714368
30
0
41
1
10
195.87992877532
20
25.7631321300034
30
0
41
1
10
195.903889597415
20
25.7887220328421
30
0
41
1
10
195.923881571857
20
25.8100732486512
30
0
41
1
10
195.937827572951
20
25.8249674293077
30
0
41
1
10
195.944871031288
20
25.8324897678057
30
0
41
1
10
195.948287073771
20
25.8361380648001
30
0
41
1
10
195.950400545039
20
25.8383952296084
30
0
41
1
10
195.95096297896
20
25.8389959030466
30
0
41
1
10
195.951834234325
20
25.8399263944986
30
0
0
SPLINE
5
1D1
100
AcDbEntity
8
1
62
256
6
ByLayer
370
-1
48
1
60
0
100
AcDbSpline
70
4
71
3
72
12
73
8
40
0
40
0
40
0
40
0
40
0.448044053330179
40
0.448044053330179
40
0.724021472165492
40
0.724021472165492
40
1
40
1
40
1
40
1
41
1
10
194.131088786643
20
26.0054304194908
30
0
41
1
10
194.287244962546
20
26.0109043432467
30
0
41
1
10
194.443459095872
20
26.0162570376908
30
0
41
1
10
194.695842901147
20
26.0250151386986
30
0
41
1
10
194.792019752047
20
26.0284061993466
30
0
41
1
10
194.984341507795
20
26.0352521356214
30
0
41
1
10
195.080485256655
20
26.0387108335077
30
0
41
1
10
195.176671642118
20
26.0420824494119
30
0
0
SPLINE
5
1D2
100
AcDbEntity
8
1
62
256
6
ByLayer
370
-1
48
1
60
0
100
AcDbSpline
70
4
71
3
72
15
73
11
40
0
40
0
40
0
40
0
40
0.0466427416045716
40
0.130083711367134
40
0.213524681129697
40
0.380406620654823
40
0.714170499705074
40
0.8810524392302
40
0.964493408992762
40
1
40
1
40
1
40
1
41
1
10
194.157715291551
20
25.4570513873692
30
0
41
1
10
194.15800300009
20
25.4516376673083
30
0
41
1
10
194.158801562095
20
25.436529431074
30
0
41
1
10
194.160070340377
20
25.4116251950017
30
0
41
1
10
194.161974232591
20
25.3725277420621
30
0
41
1
10
194.16509858511
20
25.3037367830744
30
0
41
1
10
194.168179102589
20
25.2245528888675
30
0
41
1
10
194.17042407839
20
25.1552789979627
30
0
41
1
10
194.171411553129
20
25.1214433671197
30
0
41
1
10
194.171799308647
20
25.1073831558276
30
0
41
1
10
194.171914012127
20
25.1031870222861
30
0
0
SPLINE
5
1D3
100
AcDbEntity
8
1
62
256
6
ByLayer
370
-1
48
1
60
0
100
AcDbSpline
70
4
71
3
72
14
73
10
40
0
40
0
40
0
40
0
40
0.0107070020617219
40
0.0461693850894697
40
0.117094151144966
40
0.400793215366948
40
0.684492279588931
40
0.968191343810914
40
1
40
1
40
1
40
1
41
1
10
195.424215524188
20
12.6423475606078
30
0
41
1
10
195.422721455102
20
12.6422955945887
30
0
41
1
10
195.416278967304
20
12.6420715488676
30
0
41
1
10
195.399940413035
20
12.6415039029773
30
0
41
1
10
195.345547150951
20
12.6396187730552
30
0
41
1
10
195.25704726184
20
12.6365768252905
30
0
41
1
10
195.142737510731
20
12.6327019589007
30
0
41
1
10
195.066586320826
20
12.6301597537137
30
0
41
1
10
195.028302773983
20
12.6288941646081
30
0
41
1
10
195.024452353882
20
12.6287669425087
30
0
0
SPLINE
5
1D4
100
AcDbEntity
8
1
62
256
6
ByLayer
370
-1
48
1
60
0
100
AcDbSpline
70
4
71
3
72
17
73
13
40
0
40
0
40
0
40
0
40
0.014463156076363
40
0.0301057427840014
40
0.061390916199278
40
0.123961263029831
40
0.249101956690938
40
0.499383344013152
40
0.749664731335365
40
0.999946118657578
40
0.999946118657578
40
1
40
1
40
1
40
1
41
1
10
182.322730133132
20
10.1320576431285
30
0
41
1
10
182.322692043506
20
10.1331525537747
30
0
41
1
10
182.322676887311
20
10.1335882282754
30
0
41
1
10
182.32260090143
20
10.1357724909845
30
0
41
1
10
182.322476934024
20
10.1393360133042
30
0
41
1
10
182.322221569441
20
10.1466766314649
30
0
41
1
10
182.321715793454
20
10.1612154854387
30
0
41
1
10
182.320990826914
20
10.1820551119813
30
0
41
1
10
182.320121824681
20
10.2070351365785
30
0
41
1
10
182.319542379787
20
10.2236916503622
30
0
41
1
10
182.319252737634
20
10.232017599176
30
0
41
1
10
182.319252389931
20
10.2320275941298
30
0
41
1
10
182.319252042227
20
10.2320375890838
30
0
0
SPLINE
5
1D5
100
AcDbEntity
8
1
62
256
6
ByLayer
370
-1
48
1
60
0
100
AcDbSpline
70
4
71
3
72
11
73
7
40
0
40
0
40
0
40
0
40
0.486341095999814
40
0.729511643999721
40
0.972682191999628
40
1
40
1
40
1
40
1
41
1
10
194.58038854898
20
12.4636847133818
30
0
41
1
10
194.580560695751
20
12.4587362444219
30
0
41
1
10
194.580915769384
20
12.4513140227099
30
0
41
1
10
194.581551809546
20
12.442067993213
30
0
41
1
10
194.581937361727
20
12.4375225039335
30
0
41
1
10
194.5821517595
20
12.4352496356047
30
0
41
1
10
194.582173487645
20
12.435020892734
30
0
0
SPLINE
5
1D6
100
AcDbEntity
8
1
62
256
6
ByLayer
370
-1
48
1
60
0
100
AcDbSpline
70
4
71
3
72
15
73
11
40
0
40
0
40
0
40
0
40
0.0466427416045522
40
0.130083711367113
40
0.213524681129674
40
0.380406620654797
40
0.714170499705041
40
0.881052439230164
40
0.964493408992725
40
1
40
1
40
1
40
1
41
1
10
181.415325251947
20
23.508175786063
30
0
41
1
10
181.420817747834
20
23.5083648373334
30
0
41
1
10
181.436141471082
20
23.5088924285683
30
0
41
1
10
181.461353351588
20
23.5097621036556
30
0
41
1
10
181.500845801417
20
23.5111274167974
30
0
41
1
10
181.570106250557
20
23.5135296500193
30
0
41
1
10
181.64931470338
20
23.5162948125364
30
0
41
1
10
181.718160069838
20
23.5187139101125
30
0
41
1
10
181.75167735058
20
23.5198954763778
30
0
41
1
10
181.765582689021
20
23.5203864697753
30
0
41
1
10
181.769731583875
20
23.5205330019875
30
0
0
SPLINE
5
1D7
100
AcDbEntity
8
1
62
256
6
ByLayer
370
-1
48
1
60
0
100
AcDbSpline
70
4
71
3
72
9
73
5
40
0
40
0
40
0
40
0
40
0.5
40
1
40
1
40
1
40
1
41
1
10
195.560455228611
20
25.9174104912587
30
0
41
1
10
195.616565696205
20
25.9009473577955
30
0
41
1
10
195.725609012307
20
25.8529130263993
30
0
41
1
10
195.816812564072
20
25.7787937416821
30
0
41
1
10
195.855958648926
20
25.7375322902734
30
0
0
SPLINE
5
1D8
100
AcDbEntity
8
1
62
256
6
ByLayer
370
-1
48
1
60
0
100
AcDbSpline
70
4
71
3
72
14
73
10
40
0
40
0
40
0
40
0
40
0.136649739226123
40
0.273299478452246
40
0.546598956904493
40
0.614923826517555
40
0.683248696130616
40
0.819898435356739
40
1
40
1
40
1
40
1
41
1
10
183.280466528683
20
12.0675754258085
30
0
41
1
10
183.278022988512
20
12.0674897695575
30
0
41
1
10
183.273131721391
20
12.0674392510731
30
0
41
1
10
183.263355978502
20
12.0678198895342
30
0
41
1
10
183.254842011357
20
12.0687831775998
30
0
41
1
10
183.247616894052
20
12.0700562032504
30
0
41
1
10
183.242822352842
20
12.07102342033
30
0
41
1
10
183.236119847948
20
12.0726351312699
30
0
41
1
10
183.230689218563
20
12.0742731886756
30
0
41
1
10
183.227634663167
20
12.0753038012298
30
0
0
SPLINE
5
1D9
100
AcDbEntity
8
1
62
256
6
ByLayer
370
-1
48
1
60
0
100
AcDbSpline
70
4
71
3
72
8
73
4
40
0
40
0
40
0
40
0
40
1
40
1
40
1
40
1
41
1
10
195.475536274855
20
26.0471491070074
30
0
41
1
10
195.513367833775
20
26.0471562697571
30
0
41
1
10
195.550719461766
20
26.0428772060506
30
0
41
1
10
195.587583458096
20
26.0343348990618
30
0
0
SPLINE
5
1DA
100
AcDbEntity
8
1
62
256
6
ByLayer
370
-1
48
1
60
0
100
AcDbSpline
70
4
71
3
72
15
73
11
40
0
40
0
40
0
40
0
40
0.42499786374904
40
0.84999572749808
40
0.95624519343534
40
0.982807559919655
40
0.996088743161813
40
0.997748891067082
40
0.999409038972352
40
1
40
1
40
1
40
1
41
1
10
196.142994288775
20
24.0247332426715
30
0
41
1
10
196.137821698659
20
24.1734226514479
30
0
41
1
10
196.12747935487
20
24.470798455029
30
0
41
1
10
196.115831097973
20
24.8053602193576
30
0
41
1
10
196.109053597819
20
25.0005027859656
30
0
41
1
10
196.10726776313
20
25.0516230385904
30
0
41
1
10
196.106769691742
20
25.0661359555715
30
0
41
1
10
196.106562027491
20
25.0719501181028
30
0
41
1
10
196.106522112217
20
25.0733174137745
30
0
41
1
10
196.106483751213
20
25.0741031343721
30
0
41
1
10
196.106471642791
20
25.0743094627731
30
0
0
SPLINE
5
1DB
100
AcDbEntity
8
1
62
256
6
ByLayer
370
-1
48
1
60
0
100
AcDbSpline
70
4
71
3
72
9
73
5
40
0
40
0
40
0
40
0
40
0.375000000003612
40
1
40
1
40
1
40
1
41
1
10
180.861483409631
20
23.4890259682882
30
0
41
1
10
180.873832943428
20
23.489462211997
30
0
41
1
10
180.906765033553
20
23.4906255285538
30
0
41
1
10
180.939697123678
20
23.4917888451105
30
0
41
1
10
180.960279680006
20
23.4925159179585
30
0
0
SPLINE
5
1DC
100
AcDbEntity
8
1
62
256
6
ByLayer
370
-1
48
1
60
0
100
AcDbSpline
70
4
71
3
72
15
73
11
40
0
40
0
40
0
40
0
40
0.250227978747754
40
0.500467923372344
40
0.750707867996934
40
0.875827840309229
40
0.938387826465377
40
0.969667819543451
40
0.985307816082487
40
1
40
1
40
1
40
1
41
1
10
195.560455552913
20
25.9174118890202
30
0
41
1
10
195.562716130603
20
25.9271551237475
30
0
41
1
10
195.567237394061
20
25.9466420590326
30
0
41
1
10
195.574018031222
20
25.9758670397897
30
0
41
1
10
195.579674994209
20
26.0002489128338
30
0
41
1
10
195.583621353381
20
26.0172579737966
30
0
41
1
10
195.585614214888
20
26.0258473346199
30
0
41
1
10
195.586581122759
20
26.0300147695187
30
0
41
1
10
195.587176983654
20
26.0325829681662
30
0
41
1
10
195.587318840386
20
26.033194379774
30
0
41
1
10
195.587587847272
20
26.0343538166932
30
0
0
SPLINE
5
1DD
100
AcDbEntity
8
1
62
256
6
ByLayer
370
-1
48
1
60
0
100
AcDbSpline
70
4
71
3
72
15
73
11
40
0
40
0
40
0
40
0
40
0.250139710793576
40
0.50035157958719
40
0.750563448380804
40
0.875669382777611
40
0.938222349976014
40
0.969498833575216
40
0.985137075374817
40
1
40
1
40
1
40
1
41
1
10
181.127599955839
20
25.2212491707234
30
0
41
1
10
181.119165301915
20
25.2292035236589
30
0
41
1
10
181.102293561392
20
25.245114523679
30
0
41
1
10
181.076989693312
20
25.2689774941288
30
0
41
1
10
181.055877133738
20
25.2888878249782
30
0
41
1
10
181.041149434893
20
25.3027768731361
30
0
41
1
10
181.033711178397
20
25.3097915672685
30
0
41
1
10
181.030103660759
20
25.3131936592545
30
0
41
1
10
181.027871725729
20
25.3152984994902
30
0
41
1
10
181.027277766403
20
25.3158586365331
30
0
41
1
10
181.026357675651
20
25.3167263338495
30
0
0
SPLINE
5
1DE
100
AcDbEntity
8
1
62
256
6
ByLayer
370
-1
48
1
60
0
100
AcDbSpline
70
4
71
3
72
17
73
13
40
0
40
0
40
0
40
0
40
0.0524083454183635
40
0.147434401200699
40
0.33748651276537
40
0.717590735894712
40
0.907642847459383
40
0.955155875350551
40
0.978912389296135
40
0.990790646268927
40
0.996729774755323
40
1
40
1
40
1
40
1
41
1
10
183.306784461908
20
11.7829688517462
30
0
41
1
10
183.306356690966
20
11.7874489659869
30
0
41
1
10
183.305149059119
20
11.8000071305843
30
0
41
1
10
183.302391121592
20
11.828819845019
30
0
41
1
10
183.296950322612
20
11.8855566682706
30
0
41
1
10
183.290734320736
20
11.9504206962222
30
0
41
1
10
183.285682891604
20
12.003112837505
30
0
41
1
10
183.283546282035
20
12.0254113364348
30
0
41
1
10
183.282865935121
20
12.0325008234795
30
0
41
1
10
183.282526588195
20
12.0360543497954
30
0
41
1
10
183.282353267254
20
12.0378441315928
30
0
41
1
10
183.282278004244
20
12.0386303863905
30
0
41
1
10
183.282251398527
20
12.0389108630063
30
0
0
SPLINE
5
1DF
100
AcDbEntity
8
1
62
256
6
ByLayer
370
-1
48
1
60
0
100
AcDbSpline
70
4
71
3
72
14
73
10
40
0
40
0
40
0
40
0
40
0.0107070020616553
40
0.0461693850894054
40
0.117094151144906
40
0.400793215366906
40
0.684492279588907
40
0.968191343810908
40
1
40
1
40
1
40
1
41
1
10
183.332658426713
20
11.3940708321219
30
0
41
1
10
183.332595038723
20
11.3955589442065
30
0
41
1
10
183.332320773613
20
11.4019747742235
30
0
41
1
10
183.331610128867
20
11.4182300257131
30
0
41
1
10
183.329116546437
20
11.4722130836333
30
0
41
1
10
183.324364791956
20
11.5593230702976
30
0
41
1
10
183.31673433227
20
11.6702847256729
30
0
41
1
10
183.310572819614
20
11.7430839573051
30
0
41
1
10
183.307132319067
20
11.7793256874832
30
0
41
1
10
183.306784461908
20
11.7829688517462
30
0
0
SPLINE
5
1E0
100
AcDbEntity
8
1
62
256
6
ByLayer
370
-1
48
1
60
0
100
AcDbSpline
70
4
71
3
72
15
73
11
40
0
40
0
40
0
40
0
40
0.0355064919378375
40
0.118947470229694
40
0.285829426813407
40
0.619593339980833
40
0.786475296564546
40
0.869916274856402
40
0.953357253148259
40
1
40
1
40
1
40
1
41
1
10
195.353943576546
20
23.996716168746
30
0
41
1
10
195.358155009779
20
23.9968626989302
30
0
41
1
10
195.37226316086
20
23.997353675087
30
0
41
1
10
195.40615953706
20
23.9985352566014
30
0
41
1
10
195.475334790499
20
24.0009543440232
30
0
41
1
10
195.553891466865
20
24.0037195105918
30
0
41
1
10
195.621689397171
20
24.006121743892
30
0
41
1
10
195.660094294548
20
24.0074870569111
30
0
41
1
10
195.684501062609
20
24.0083567247467
30
0
41
1
10
195.699279064027
20
24.0088843219205
30
0
41
1
10
195.704572883452
20
24.0090733751341
30
0
0
SPLINE
5
1E1
100
AcDbEntity
8
1
62
256
6
ByLayer
370
-1
48
1
60
0
100
AcDbSpline
70
4
71
3
72
12
73
8
40
0
40
0
40
0
40
0
40
0.448044053330177
40
0.448044053330177
40
0.724021472165484
40
0.724021472165484
40
1
40
1
40
1
40
1
41
1
10
196.637917559186
20
12.6851373056748
30
0
41
1
10
196.643370653009
20
12.5283846385481
30
0
41
1
10
196.64875735841
20
12.3716283799072
30
0
41
1
10
196.657521397412
20
12.1183199246974
30
0
41
1
10
196.660890879761
20
12.0217669864282
30
0
41
1
10
196.667664769025
20
11.8286644209626
30
0
41
1
10
196.671071279495
20
11.7321142435009
30
0
41
1
10
196.674430117067
20
11.6355604935538
30
0
0
SPLINE
5
1E2
100
AcDbEntity
8
1
62
256
6
ByLayer
370
-1
48
1
60
0
100
AcDbSpline
70
4
71
3
72
8
73
4
40
0
40
0
40
0
40
0
40
1
40
1
40
1
40
1
41
1
10
195.713817057946
20
10.6014941719656
30
0
41
1
10
195.744018538913
20
10.6025528595466
30
0
41
1
10
195.77421538363
20
10.6037491426251
30
0
41
1
10
195.804406129578
20
10.6050839654524
30
0
0
SPLINE
5
1E3
100
AcDbEntity
8
1
62
256
6
ByLayer
370
-1
48
1
60
0
100
AcDbSpline
70
4
71
3
72
8
73
4
40
0
40
0
40
0
40
0
40
1
40
1
40
1
40
1
41
1
10
196.123189528135
20
10.6379960999057
30
0
41
1
10
196.256557293691
20
10.6789243841468
30
0
41
1
10
196.377927747111
20
10.7550510938218
30
0
41
1
10
196.47303875894
20
10.8574412161545
30
0
0
SPLINE
5
1E4
100
AcDbEntity
8
1
62
256
6
ByLayer
370
-1
48
1
60
0
100
AcDbSpline
70
4
71
3
72
12
73
8
40
0
40
0
40
0
40
0
40
0.518100853439288
40
0.777151280158932
40
0.906676493518754
40
0.971439100198665
40
1
40
1
40
1
40
1
41
1
10
180.960279680006
20
23.4925159179585
30
0
41
1
10
181.038866007172
20
23.4952203722648
30
0
41
1
10
181.156745365267
20
23.4992770446407
30
0
41
1
10
181.294271732957
20
23.5040098611304
30
0
41
1
10
181.363034329184
20
23.5063762265605
30
0
41
1
10
181.396837046762
20
23.5075395328294
30
0
41
1
10
181.410992013594
20
23.5080266363446
30
0
41
1
10
181.415325251947
20
23.508175786063
30
0
0
SPLINE
5
1E5
100
AcDbEntity
8
1
62
256
6
ByLayer
370
-1
48
1
60
0
100
AcDbSpline
70
4
71
3
72
8
73
4
40
0
40
0
40
0
40
0
40
1
40
1
40
1
40
1
41
1
10
181.646239897961
20
25.566683657695
30
0
41
1
10
181.593166987258
20
25.5638147128233
30
0
41
1
10
181.54011511286
20
25.5605195374303
30
0
41
1
10
181.487095491102
20
25.5567968327392
30
0
0
SPLINE
5
1E6
100
AcDbEntity
8
1
62
256
6
ByLayer
370
-1
48
1
60
0
100
AcDbSpline
70
4
71
3
72
14
73
10
40
0
40
0
40
0
40
0
40
0.0318086637758794
40
0.315507725074446
40
0.599206786373013
40
0.882905847671579
40
0.953830612996221
40
0.989292995658542
40
1
40
1
40
1
40
1
41
1
10
194.629850381753
20
23.9718528291764
30
0
41
1
10
194.633700802385
20
23.9719800512934
30
0
41
1
10
194.671984344493
20
23.9732456402424
30
0
41
1
10
194.74813553142
20
23.9757878453252
30
0
41
1
10
194.862445291324
20
23.9796627120136
30
0
41
1
10
194.950945178537
20
23.9827046597129
30
0
41
1
10
195.005338442013
20
23.9845897896834
30
0
41
1
10
195.021676994446
20
23.9851574355098
30
0
41
1
10
195.028119482589
20
23.985381481243
30
0
41
1
10
195.029613552041
20
23.9854334472738
30
0
0
SPLINE
5
1E7
100
AcDbEntity
8
1
62
256
6
ByLayer
370
-1
48
1
60
0
100
AcDbSpline
70
4
71
3
72
15
73
11
40
0
40
0
40
0
40
0
40
0.0466427416045722
40
0.130083711367135
40
0.213524681129698
40
0.380406620654824
40
0.714170499705075
40
0.881052439230201
40
0.964493408992764
40
1
40
1
40
1
40
1
41
1
10
183.356784793208
20
10.7171118865938
30
0
41
1
10
183.356695838001
20
10.7225256066547
30
0
41
1
10
183.356443232824
20
10.737633842889
30
0
41
1
10
183.355979279684
20
10.7625380789613
30
0
41
1
10
183.355162936472
20
10.8016355319009
30
0
41
1
10
183.353501104992
20
10.8704264908885
30
0
41
1
10
183.351072341993
20
10.9496103850954
30
0
41
1
10
183.348497533436
20
11.0188842760003
30
0
41
1
10
183.347130868077
20
11.0527199068432
30
0
41
1
10
183.346540373556
20
11.0667801181354
30
0
41
1
10
183.34636312781
20
11.0709762516768
30
0
0
SPLINE
5
1E8
100
AcDbEntity
8
1
62
256
6
ByLayer
370
-1
48
1
60
0
100
AcDbSpline
70
4
71
3
72
8
73
4
40
0
40
0
40
0
40
0
40
1
40
1
40
1
40
1
41
1
10
180.824970851751
20
24.5386027804092
30
0
41
1
10
180.823916245028
20
24.5689196286481
30
0
41
1
10
180.822995086673
20
24.5992415338676
30
0
41
1
10
180.822217895582
20
24.6295668045753
30
0
0
SPLINE
5
1E9
100
AcDbEntity
8
1
62
256
6
ByLayer
370
-1
48
1
60
0
100
AcDbSpline
70
4
71
3
72
12
73
8
40
0
40
0
40
0
40
0
40
0.0285608994399013
40
0.0933235061439079
40
0.222848719551921
40
0.481899146367947
40
1
40
1
40
1
40
1
41
1
10
182.857793277295
20
25.0609421160373
30
0
41
1
10
182.857566308501
20
25.0652132489569
30
0
41
1
10
182.85682187831
20
25.0791622009362
30
0
41
1
10
182.855046138363
20
25.1124746203516
30
0
41
1
10
182.851432230974
20
25.1802386619291
30
0
41
1
10
182.844205407523
20
25.3157686593983
30
0
41
1
10
182.838010676732
20
25.4319366107069
30
0
41
1
10
182.833880921759
20
25.5093820492155
30
0
0
SPLINE
5
1EA
100
AcDbEntity
8
1
62
256
6
ByLayer
370
-1
48
1
60
0
100
AcDbSpline
70
4
71
3
72
15
73
11
40
0
40
0
40
0
40
0
40
0.250139710793429
40
0.500351579587131
40
0.750563448380832
40
0.875669382777683
40
0.938222349976108
40
0.969498833575321
40
0.985137075374927
40
1
40
1
40
1
40
1
41
1
10
181.641925816125
20
10.4366236017228
30
0
41
1
10
181.634064617954
20
10.4280936025263
30
0
41
1
10
181.618339954331
20
10.4110311439596
30
0
41
1
10
181.594756447141
20
10.385441241121
30
0
41
1
10
181.575079289524
20
10.3640900253118
30
0
41
1
10
181.561352898344
20
10.3491958446553
30
0
41
1
10
181.554420354475
20
10.3416735061573
30
0
41
1
10
181.55105810496
20
10.3380252091629
30
0
41
1
10
181.548977914862
20
10.3357680443546
30
0
41
1
10
181.548424337678
20
10.3351673709164
30
0
41
1
10
181.547566802111
20
10.3342368794645
30
0
0
SPLINE
5
1EB
100
AcDbEntity
8
1
62
256
6
ByLayer
370
-1
48
1
60
0
100
AcDbSpline
70
4
71
3
72
8
73
4
40
0
40
0
40
0
40
0
40
1
40
1
40
1
40
1
41
1
10
196.012305467345
20
10.6173664412236
30
0
41
1
10
196.050047514726
20
10.6200164051402
30
0
41
1
10
196.087009288517
20
10.6268945233199
30
0
41
1
10
196.123189528135
20
10.6379960999059
30
0
0
SPLINE
5
1EC
100
AcDbEntity
8
1
62
256
6
ByLayer
370
-1
48
1
60
0
100
AcDbSpline
70
4
71
3
72
15
73
11
40
0
40
0
40
0
40
0
40
0.250227978748974
40
0.50046792337307
40
0.750707867997165
40
0.875827840309213
40
0.938387826465237
40
0.969667819543249
40
0.985307816082255
40
1
40
1
40
1
40
1
41
1
10
180.948930182094
20
24.9240904089392
30
0
41
1
10
180.939243757686
20
24.9263398119164
30
0
41
1
10
180.919870445755
20
24.9308387254163
30
0
41
1
10
180.890815868414
20
24.9375858438593
30
0
41
1
10
180.866576159859
20
24.9432148427853
30
0
41
1
10
180.849666274397
20
24.9471416939225
30
0
41
1
10
180.841126995948
20
24.9491247041188
30
0
41
1
10
180.836983860301
20
24.9500868322754
30
0
41
1
10
180.834430636165
20
24.9506797476517
30
0
41
1
10
180.833822789542
20
24.9508209031436
30
0
41
1
10
180.832670113004
20
24.9510885802479
30
0
0
SPLINE
5
1ED
100
AcDbEntity
8
1
62
256
6
ByLayer
370
-1
48
1
60
0
100
AcDbSpline
70
4
71
3
72
8
73
4
40
0
40
0
40
0
40
0
40
1
40
1
40
1
40
1
41
1
10
180.819923814918
20
24.8386086855874
30
0
41
1
10
180.81991346781
20
24.8765879787998
30
0
41
1
10
180.824179569894
20
24.9140789497473
30
0
41
1
10
180.832688920332
20
24.9510842127685
30
0
0
SPLINE
5
1EE
100
AcDbEntity
8
1
62
256
6
ByLayer
370
-1
48
1
60
0
100
AcDbSpline
70
4
71
3
72
8
73
4
40
0
40
0
40
0
40
0
40
1
40
1
40
1
40
1
41
1
10
196.203226856212
20
25.1687351514922
30
0
41
1
10
196.202510958697
20
25.1850525880714
30
0
41
1
10
196.201715403965
20
25.201366697863
30
0
41
1
10
196.200840395199
20
25.2176763229132
30
0
0
SPLINE
5
1EF
100
AcDbEntity
8
1
62
256
6
ByLayer
370
-1
48
1
60
0
100
AcDbSpline
70
4
71
3
72
9
73
5
40
0
40
0
40
0
40
0
40
0.5
40
1
40
1
40
1
40
1
41
1
10
181.938472092691
20
10.2567527827043
30
0
41
1
10
181.882195891167
20
10.2732159161675
30
0
41
1
10
181.772800556489
20
10.3212502475637
30
0
41
1
10
181.681244755603
20
10.395369532281
30
0
41
1
10
181.641932619303
20
10.4366309836897
30
0
0
SPLINE
5
1F0
100
AcDbEntity
8
1
62
256
6
ByLayer
370
-1
48
1
60
0
100
AcDbSpline
70
4
71
3
72
8
73
4
40
0
40
0
40
0
40
0
40
1
40
1
40
1
40
1
41
1
10
182.023865375167
20
10.1270141669556
30
0
41
1
10
181.986027393016
20
10.1270070042059
30
0
41
1
10
181.948682408038
20
10.1312860679124
30
0
41
1
10
181.911817510722
20
10.1398283749013
30
0
0
SPLINE
5
1F1
100
AcDbEntity
8
1
62
256
6
ByLayer
370
-1
48
1
60
0
100
AcDbSpline
70
4
71
3
72
17
73
13
40
0
40
0
40
0
40
0
40
0.0144631560763119
40
0.030105742783985
40
0.0613909161993313
40
0.123961263030024
40
0.249101956691409
40
0.49938334401418
40
0.74966473133695
40
0.999946118659721
40
0.999946118659721
40
1
40
1
40
1
40
1
41
1
10
180.82494775854
20
24.5386019708961
30
0
41
1
10
180.82603850272
20
24.5386402060184
30
0
41
1
10
180.826472519348
20
24.5386554201072
30
0
41
1
10
180.828648470278
20
24.5387316962418
30
0
41
1
10
180.83219843232
20
24.5388561371833
30
0
41
1
10
180.839511117212
20
24.539112477218
30
0
41
1
10
180.853994646457
20
24.5396201851863
30
0
41
1
10
180.874754971929
20
24.5403479209811
30
0
41
1
10
180.899639939991
20
24.5412202426619
30
0
41
1
10
180.916233070711
20
24.5418019009403
30
0
41
1
10
180.924527317805
20
24.5420926488146
30
0
41
1
10
180.924537312666
20
24.5420929991761
30
0
41
1
10
180.924547307527
20
24.5420933495376
30
0
0
SPLINE
5
1F2
100
AcDbEntity
8
1
62
256
6
ByLayer
370
-1
48
1
60
0
100
AcDbSpline
70
4
71
3
72
8
73
4
40
0
40
0
40
0
40
0
40
1
40
1
40
1
40
1
41
1
10
196.677182272648
20
11.5445964693875
30
0
41
1
10
196.677601591722
20
11.5282686274755
30
0
41
1
10
196.677940952778
20
11.5119385244447
30
0
41
1
10
196.678201450314
20
11.4956073626385
30
0
0
SPLINE
5
1F3
100
AcDbEntity
8
1
62
256
6
ByLayer
370
-1
48
1
60
0
100
AcDbSpline
70
4
71
3
72
9
73
5
40
0
40
0
40
0
40
0
40
0.5
40
1
40
1
40
1
40
1
41
1
10
195.855958648926
20
25.7375322902734
30
0
41
1
10
195.899670070696
20
25.7011465700736
30
0
41
1
10
195.979671511523
20
25.6148301855521
30
0
41
1
10
196.034987703055
20
25.5087847578659
30
0
41
1
10
196.055236276462
20
25.4536516064161
30
0
0
SPLINE
5
1F4
100
AcDbEntity
8
1
62
256
6
ByLayer
370
-1
48
1
60
0
100
AcDbSpline
70
4
71
3
72
14
73
10
40
0
40
0
40
0
40
0
40
0.0107070020617447
40
0.0461693850894929
40
0.117094151144989
40
0.400793215366975
40
0.684492279588962
40
0.968191343810948
40
1
40
1
40
1
40
1
41
1
10
182.089131768044
20
23.5318157133552
30
0
41
1
10
182.090602597696
20
23.5318676793743
30
0
41
1
10
182.096942941592
20
23.5320917250954
30
0
41
1
10
182.112991178022
20
23.5326593709857
30
0
41
1
10
182.166153188113
20
23.5345445009078
30
0
41
1
10
182.251210312733
20
23.5375864486725
30
0
41
1
10
182.357979387177
20
23.5414613150623
30
0
41
1
10
182.426872614426
20
23.5440035202493
30
0
41
1
10
182.460796706489
20
23.5452691093548
30
0
41
1
10
182.464204888234
20
23.5453963314543
30
0
0
SPLINE
5
1F5
100
AcDbEntity
8
1
62
256
6
ByLayer
370
-1
48
1
60
0
100
AcDbSpline
70
4
71
3
72
9
73
5
40
0
40
0
40
0
40
0
40
0.5
40
1
40
1
40
1
40
1
41
1
10
196.549995749597
20
11.2500731877224
30
0
41
1
10
196.533512396362
20
11.1936652037549
30
0
41
1
10
196.485484840811
20
11.0840286782849
30
0
41
1
10
196.411471477788
20
10.9922999464418
30
0
41
1
10
196.370284012937
20
10.952920987035
30
0
0
SPLINE
5
1F6
100
AcDbEntity
8
1
62
256
6
ByLayer
370
-1
48
1
60
0
100
AcDbSpline
70
4
71
3
72
20
73
16
40
0
40
0
40
0
40
0
40
0.0006369940731546
40
0.0022970655115713
40
0.003957136949988
40
0.0172377084573215
40
0.0437988514719885
40
0.150043423530656
40
0.362532567647992
40
0.46877713970666
40
0.521899425735994
40
0.575021711765328
40
0.787510855882664
40
0.893755427941332
40
1
40
1
40
1
40
1
41
1
10
182.319252541509
20
10.2320306739034
30
0
41
1
10
182.319474825216
20
10.232033085942
30
0
41
1
10
182.320277107562
20
10.2320501555639
30
0
41
1
10
182.321657597322
20
10.2321054889326
30
0
41
1
10
182.327437720494
20
10.2323042201079
30
0
41
1
10
182.341911536032
20
10.2328163137018
30
0
41
1
10
182.392819358844
20
10.2345944118626
30
0
41
1
10
182.513151648195
20
10.2388105651301
30
0
41
1
10
182.661159553968
20
10.2439723362802
30
0
41
1
10
182.790598731012
20
10.2484767124907
30
0
41
1
10
182.864538571583
20
10.2510447614584
30
0
41
1
10
182.975469328457
20
10.2549100038524
30
0
41
1
10
183.104946499697
20
10.259457612421
30
0
41
1
10
183.25299553513
20
10.2647047672151
30
0
41
1
10
183.327042517899
20
10.2673486045195
30
0
41
1
10
183.364072998871
20
10.2686719371742
30
0
0
SPLINE
5
1F7
100
AcDbEntity
8
1
62
256
6
ByLayer
370
-1
48
1
60
0
100
AcDbSpline
70
4
71
3
72
8
73
4
40
0
40
0
40
0
40
0
40
1
40
1
40
1
40
1
41
1
10
181.694994759821
20
25.5690793085106
30
0
41
1
10
181.678739483806
20
25.5683606083332
30
0
41
1
10
181.662487518614
20
25.5675619499787
30
0
41
1
10
181.646239897961
20
25.566683657695
30
0
0
SPLINE
5
1F8
100
AcDbEntity
8
1
62
256
6
ByLayer
370
-1
48
1
60
0
100
AcDbSpline
70
4
71
3
72
15
73
11
40
0
40
0
40
0
40
0
40
0.250244249035876
40
0.500488498071753
40
0.750732747107629
40
0.875854871625567
40
0.938415933884536
40
0.969696465014021
40
0.985336730578763
40
1
40
1
40
1
40
1
41
1
10
181.410278699441
20
25.4214106033416
30
0
41
1
10
181.407439761211
20
25.4309736509012
30
0
41
1
10
181.401761884751
20
25.4500997460205
30
0
41
1
10
181.393246717814
20
25.4787833381964
30
0
41
1
10
181.386142781229
20
25.5027131591074
30
0
41
1
10
181.38118699747
20
25.5194068635643
30
0
41
1
10
181.378684389304
20
25.5278369733377
30
0
41
1
10
181.377470159651
20
25.531927141907
30
0
41
1
10
181.376722239933
20
25.5344465316417
30
0
41
1
10
181.376544086736
20
25.5350466459662
30
0
41
1
10
181.376207937712
20
25.5361789739143
30
0
0
SPLINE
5
1F9
100
AcDbEntity
8
1
62
256
6
ByLayer
370
-1
48
1
60
0
100
AcDbSpline
70
4
71
3
72
8
73
4
40
0
40
0
40
0
40
0
40
1
40
1
40
1
40
1
41
1
10
196.206803029159
20
25.0778000044628
30
0
41
1
10
196.205748370204
20
25.1081168501801
30
0
41
1
10
196.204556473728
20
25.1384292081878
30
0
41
1
10
196.203226856212
20
25.1687351514922
30
0
0
SPLINE
5
1FA
100
AcDbEntity
8
1
62
256
6
ByLayer
370
-1
48
1
60
0
100
AcDbSpline
70
4
71
3
72
8
73
4
40
0
40
0
40
0
40
0
40
1
40
1
40
1
40
1
41
1
10
195.316092821771
20
26.0458675735207
30
0
41
1
10
195.369235420823
20
26.0467219385314
30
0
41
1
10
195.422391200392
20
26.0471390454911
30
0
41
1
10
195.475536274863
20
26.0471491075887
30
0
0
SPLINE
5
1FB
100
AcDbEntity
8
1
62
256
6
ByLayer
370
-1
48
1
60
0
100
AcDbSpline
70
4
71
3
72
8
73
4
40
0
40
0
40
0
40
0
40
1
40
1
40
1
40
1
41
1
10
182.232111047819
20
10.1293177543652
30
0
41
1
10
182.215845768793
20
10.1288972657233
30
0
41
1
10
182.199578449724
20
10.1285572538087
30
0
41
1
10
182.183309372354
20
10.1282957004181
30
0
0
SPLINE
5
1FC
100
AcDbEntity
8
1
62
256
6
ByLayer
370
-1
48
1
60
0
100
AcDbSpline
70
4
71
3
72
25
73
21
40
0
40
0
40
0
40
0
40
0.125
40
0.1875
40
0.25
40
0.265625
40
0.2734375
40
0.28125
40
0.3125
40
0.375
40
0.5
40
0.625
40
0.65625
40
0.6875
40
0.75
40
0.765625
40
0.78125
40
0.8125
40
0.875
40
1
40
1
40
1
40
1
41
1
10
181.410278699441
20
25.4214106033416
30
0
41
1
10
181.422480046525
20
25.4260342778568
30
0
41
1
10
181.441262454663
20
25.432045308429
30
0
41
1
10
181.466964092168
20
25.438107639379
30
0
41
1
10
181.481482784215
20
25.4407564179123
30
0
41
1
10
181.490710236504
20
25.4421035445817
30
0
41
1
10
181.493698246067
20
25.4425342146226
30
0
41
1
10
181.500250327392
20
25.4433025399624
30
0
41
1
10
181.513761505343
20
25.4449185001596
30
0
41
1
10
181.543455752051
20
25.4483737787307
30
0
41
1
10
181.585584705782
20
25.4531282715658
30
0
41
1
10
181.62373780253
20
25.4572240713088
30
0
41
1
10
181.648956867527
20
25.459852728485
30
0
41
1
10
181.66574044411
20
25.4615743667197
30
0
41
1
10
181.680422726184
20
25.4630354467624
30
0
41
1
10
181.693058031153
20
25.4642484474658
30
0
41
1
10
181.701493463545
20
25.4650473851012
30
0
41
1
10
181.716281080548
20
25.4664219466753
30
0
41
1
10
181.745927636607
20
25.4690929426835
30
0
41
1
10
181.771338586349
20
25.4713031731166
30
0
41
1
10
181.788298066284
20
25.4727300192955
30
0
0
SPLINE
5
1FD
100
AcDbEntity
8
1
62
256
6
ByLayer
370
-1
48
1
60
0
100
AcDbSpline
70
4
71
3
72
14
73
10
40
0
40
0
40
0
40
0
40
0.136649739226132
40
0.273299478452265
40
0.54659895690453
40
0.614923826517596
40
0.683248696130662
40
0.819898435356794
40
1
40
1
40
1
40
1
41
1
10
194.724511721423
20
12.6188282619401
30
0
41
1
10
194.724597051726
20
12.616375387842
30
0
41
1
10
194.724647377972
20
12.6114654368756
30
0
41
1
10
194.724268187955
20
12.6016523522371
30
0
41
1
10
194.723308565491
20
12.5931058631206
30
0
41
1
10
194.722040384088
20
12.5858531470415
30
0
41
1
10
194.721076847561
20
12.5810402914625
30
0
41
1
10
194.719471269668
20
12.5743121840894
30
0
41
1
10
194.717839445565
20
12.5688608105817
30
0
41
1
10
194.716812754803
20
12.5657945872804
30
0
0
SPLINE
5
1FE
100
AcDbEntity
8
1
62
256
6
ByLayer
370
-1
48
1
60
0
100
AcDbSpline
70
4
71
3
72
8
73
4
40
0
40
0
40
0
40
0
40
1
40
1
40
1
40
1
41
1
10
180.821200743835
20
24.6785559113249
30
0
41
1
10
180.820349432104
20
24.7319017050639
30
0
41
1
10
180.81993834977
20
24.7852560767176
30
0
41
1
10
180.819923814344
20
24.8386086855901
30
0
0
SPLINE
5
1FF
100
AcDbEntity
8
1
62
256
6
ByLayer
370
-1
48
1
60
0
100
AcDbSpline
70
4
71
3
72
14
73
10
40
0
40
0
40
0
40
0
40
0.136649739226124
40
0.273299478452248
40
0.546598956904497
40
0.614923826517559
40
0.683248696130621
40
0.819898435356745
40
1
40
1
40
1
40
1
41
1
10
194.17535656876
20
24.1065878481545
30
0
41
1
10
194.177800108932
20
24.1066735044055
30
0
41
1
10
194.182691376052
20
24.1067240228899
30
0
41
1
10
194.192467118941
20
24.1063433844288
30
0
41
1
10
194.200981086086
20
24.1053800963632
30
0
41
1
10
194.208206203391
20
24.1041070707126
30
0
41
1
10
194.213000744602
20
24.103139853633
30
0
41
1
10
194.219703249495
20
24.101528142693
30
0
41
1
10
194.225133878881
20
24.0998900852874
30
0
41
1
10
194.228188434277
20
24.0988594727332
30
0
0
SPLINE
5
200
100
AcDbEntity
8
1
62
256
6
ByLayer
370
-1
48
1
60
0
100
AcDbSpline
70
4
71
3
72
8
73
4
40
0
40
0
40
0
40
0
40
1
40
1
40
1
40
1
41
1
10
195.267289120421
20
26.0448455195978
30
0
41
1
10
195.283555260483
20
26.0452660082397
30
0
41
1
10
195.299823865531
20
26.0456060201543
30
0
41
1
10
195.316092821771
20
26.0458675735449
30
0
0
SPLINE
5
201
100
AcDbEntity
8
1
62
256
6
ByLayer
370
-1
48
1
60
0
100
AcDbSpline
70
4
71
3
72
12
73
8
40
0
40
0
40
0
40
0
40
0.0285608994399496
40
0.093323506143953
40
0.22284871955196
40
0.481899146367973
40
1
40
1
40
1
40
1
41
1
10
195.704572883452
20
24.0090733751341
30
0
41
1
10
195.708749378311
20
24.0092225263823
30
0
41
1
10
195.722386074668
20
24.009709634519
30
0
41
1
10
195.754954858954
20
24.0108729298386
30
0
41
1
10
195.821204498219
20
24.0132393023144
30
0
41
1
10
195.953706741703
20
24.0179721141152
30
0
41
1
10
196.067279145473
20
24.0220287883652
30
0
41
1
10
196.142994288775
20
24.0247332426715
30
0
0
SPLINE
5
202
100
AcDbEntity
8
1
62
256
6
ByLayer
370
-1
48
1
60
0
100
AcDbSpline
70
4
71
3
72
14
73
10
40
0
40
0
40
0
40
0
40
0.0318086637759081
40
0.315507725074468
40
0.599206786373027
40
0.882905847671587
40
0.953830612996227
40
0.989292995658547
40
1
40
1
40
1
40
1
41
1
10
194.606706482204
20
12.179078139301
30
0
41
1
10
194.60705433941
20
12.175434974535
30
0
41
1
10
194.610494839531
20
12.1391932488392
30
0
41
1
10
194.616656352077
20
12.0663940201887
30
0
41
1
10
194.624286812339
20
11.9554323562648
30
0
41
1
10
194.629038566721
20
11.8683223714727
30
0
41
1
10
194.631532149213
20
11.8143393121681
30
0
41
1
10
194.632242793879
20
11.7980840625062
30
0
41
1
10
194.632517059004
20
11.7916682321451
30
0
41
1
10
194.632580447035
20
11.7901801197232
30
0
0
SPLINE
5
203
100
AcDbEntity
8
1
62
256
6
ByLayer
370
-1
48
1
60
0
100
AcDbSpline
70
4
71
3
72
9
73
5
40
0
40
0
40
0
40
0
40
0.375000000000484
40
1
40
1
40
1
40
1
41
1
10
183.368312182174
20
10.1687328544722
30
0
41
1
10
183.367782284261
20
10.18122523981
30
0
41
1
10
183.36636922316
20
10.2145382673773
30
0
41
1
10
183.364956162059
20
10.2478512949447
30
0
41
1
10
183.364072998871
20
10.2686719371742
30
0
0
SPLINE
5
204
100
AcDbEntity
8
1
62
256
6
ByLayer
370
-1
48
1
60
0
100
AcDbSpline
70
4
71
3
72
91
73
87
40
0
40
0
40
0
40
0
40
0.0276322771566135
40
0.0681475989417547
40
0.0782764293880399
40
0.0833408446111826
40
0.0839738965140754
40
0.0846069484169682
40
0.0849234743684146
40
0.0852400003198611
40
0.0858730522227539
40
0.0884052598343252
40
0.0985340902806105
40
0.108662920726896
40
0.118791751173181
40
0.128920581619466
40
0.149178242512037
40
0.169435903404607
40
0.179564733850893
40
0.184629149074035
40
0.189693564297178
40
0.190326616200071
40
0.190959668102964
40
0.192225771908749
40
0.192858823811642
40
0.193491875714535
40
0.194757979520321
40
0.197290187131892
40
0.199822394743463
40
0.204886809966606
40
0.209951225189749
40
0.220080055636034
40
0.222612263247605
40
0.223878367053391
40
0.225144470859176
40
0.230208886082319
40
0.27072420786746
40
0.290981868760031
40
0.311239529652601
40
0.331497190545172
40
0.341626020991457
40
0.3466904362146
40
0.349222643826171
40
0.350488747631957
40
0.35112179953485
40
0.351754851437742
40
0.352387903340635
40
0.353020955243528
40
0.354287059049314
40
0.356819266660885
40
0.361883681884028
40
0.372012512330313
40
0.392270173222883
40
0.412527834115454
40
0.432785495008025
40
0.473300816793166
40
0.475833024404737
40
0.478365232016308
40
0.479631335822094
40
0.48089743962788
40
0.483429647239451
40
0.493558477685736
40
0.503687308132022
40
0.508751723355164
40
0.511283930966736
40
0.512550034772521
40
0.513816138578307
40
0.5144491904812
40
0.523944969024592
40
0.534073799470877
40
0.554331460363448
40
0.564460290809733
40
0.574589121256018
40
0.594846782148589
40
0.61510444304116
40
0.617636650652731
40
0.618269702555624
40
0.61858622850707
40
0.618902754458517
40
0.619535806361409
40
0.620168858264302
40
0.625233273487445
40
0.63536210393373
40
0.675877425718871
40
0.837938712859436
40
1
40
1
40
1
40
1
41
1
10
194.228188434277
20
24.0988594727332
30
0
41
1
10
194.229769087899
20
24.098326157322
30
0
41
1
10
194.233645390719
20
24.0969453459301
30
0
41
1
10
194.238029315648
20
24.0951753496811
30
0
41
1
10
194.241108521523
20
24.0938206102762
30
0
41
1
10
194.241979722447
20
24.0934276880058
30
0
41
1
10
194.242327659521
20
24.0932693147119
30
0
41
1
10
194.242414613556
20
24.093229654503
30
0
41
1
10
194.242484158613
20
24.0931978862196
30
0
41
1
10
194.242553691546
20
24.0931660911969
30
0
41
1
10
194.242744857061
20
24.0930785446056
30
0
41
1
10
194.243474123665
20
24.0927428727757
30
0
41
1
10
194.244719890411
20
24.092157828928
30
0
41
1
10
194.246371267979
20
24.091357399042
30
0
41
1
10
194.248012752447
20
24.0905367200174
30
0
41
1
10
194.250187876491
20
24.089415645512
30
0
41
1
10
194.252880807115
20
24.0879642909543
30
0
41
1
10
194.255537449583
20
24.0864470697222
30
0
41
1
10
194.257377178849
20
24.0853508628499
30
0
41
1
10
194.258422636986
20
24.0847147623478
30
0
41
1
10
194.258975954896
20
24.0843734105796
30
0
41
1
10
194.259300739938
20
24.0841714862695
30
0
41
1
10
194.259430592009
20
24.0840906162312
30
0
41
1
10
194.259560351055
20
24.0840095958039
30
0
41
1
10
194.259690016861
20
24.0839284251521
30
0
41
1
10
194.259819620434
20
24.0838471544055
30
0
41
1
10
194.260046263142
20
24.0837046679942
30
0
41
1
10
194.260369570091
20
24.0835003665014
30
0
41
1
10
194.260885857487
20
24.0831718887406
30
0
41
1
10
194.261529326167
20
24.0827583067998
30
0
41
1
10
194.262554806208
20
24.0820902363382
30
0
41
1
10
194.263446711486
20
24.0814973911454
30
0
41
1
10
194.264143902224
20
24.0810262087397
30
0
41
1
10
194.264397032558
20
24.080854284585
30
0
41
1
10
194.264776333632
20
24.0805958139131
30
0
41
1
10
194.26710926291
20
24.0789929114727
30
0
41
1
10
194.270325773697
20
24.0766495246087
30
0
41
1
10
194.274175448904
20
24.0736219752416
30
0
41
1
10
194.277006393042
20
24.0712809710079
30
0
41
1
10
194.279317120753
20
24.0692726391821
30
0
41
1
10
194.280908454743
20
24.0678372119078
30
0
41
1
10
194.281697481711
20
24.0671121732541
30
0
41
1
10
194.282090323167
20
24.0667478318896
30
0
41
1
10
194.282286324385
20
24.06656520685
30
0
41
1
10
194.282398205007
20
24.0664607200328
30
0
41
1
10
194.282482055382
20
24.0663822901351
30
0
41
1
10
194.282565845612
20
24.0663037954937
30
0
41
1
10
194.282677485667
20
24.066199049715
30
0
41
1
10
194.282872644945
20
24.0660155183557
30
0
41
1
10
194.283262118975
20
24.0656475520755
30
0
41
1
10
194.28403767894
20
24.0649080166638
30
0
41
1
10
194.285575166504
20
24.0634146255987
30
0
41
1
10
194.287732170659
20
24.0612408157483
30
0
41
1
10
194.290256062475
20
24.0585692804444
30
0
41
1
10
194.293533283975
20
24.0549255047091
30
0
41
1
10
194.295988241059
20
24.0519856338033
30
0
41
1
10
194.297699739435
20
24.0498240662421
30
0
41
1
10
194.297936528974
20
24.0495231182237
30
0
41
1
10
194.298125408036
20
24.0492819232558
30
0
41
1
10
194.298313918242
20
24.0490404377952
30
0
41
1
10
194.298830797814
20
24.0483751567343
30
0
41
1
10
194.299668269361
20
24.0472800155396
30
0
41
1
10
194.300583829597
20
24.0460518110409
30
0
41
1
10
194.301216785835
20
24.0451861840569
30
0
41
1
10
194.301531269975
20
24.0447519110016
30
0
41
1
10
194.30171040406
20
24.0445033395799
30
0
41
1
10
194.301822124593
20
24.0443478097012
30
0
41
1
10
194.302223674374
20
24.0437874366553
30
0
41
1
10
194.3029314304
20
24.042786809446
30
0
41
1
10
194.304301352302
20
24.0408002950207
30
0
41
1
10
194.30565581946
20
24.0387567284288
30
0
41
1
10
194.306972531701
20
24.0366886022386
30
0
41
1
10
194.308263888871
20
24.0346044231806
30
0
41
1
10
194.309830197464
20
24.0319697006015
30
0
41
1
10
194.311106500058
20
24.0296981153256
30
0
41
1
10
194.311783866099
20
24.0284527063235
30
0
41
1
10
194.311884202134
20
24.0282673849772
30
0
41
1
10
194.311920649382
20
24.0281999743735
30
0
41
1
10
194.311957070904
20
24.0281325497642
30
0
41
1
10
194.312002549559
20
24.0280482427602
30
0
41
1
10
194.312184206736
20
24.0277108749808
30
0
41
1
10
194.312635452227
20
24.0268658853902
30
0
41
1
10
194.314196543465
20
24.0238769487349
30
0
41
1
10
194.319807279814
20
24.0122833694168
30
0
41
1
10
194.326960453066
20
23.991280899651
30
0
41
1
10
194.329568428065
20
23.9717256449991
30
0
41
1
10
194.329909749277
20
23.961914148607
30
0
0
SPLINE
5
205
100
AcDbEntity
8
1
62
256
6
ByLayer
370
-1
48
1
60
0
100
AcDbSpline
70
4
71
3
72
91
73
87
40
0
40
0
40
0
40
0
40
0.0276322771566114
40
0.0681475989417526
40
0.0782764293880379
40
0.0833408446111805
40
0.0839738965140734
40
0.0846069484169662
40
0.0849234743684126
40
0.085240000319859
40
0.0858730522227519
40
0.0884052598343232
40
0.0985340902806085
40
0.108662920726894
40
0.118791751173179
40
0.128920581619464
40
0.149178242512035
40
0.169435903404606
40
0.179564733850891
40
0.184629149074033
40
0.189693564297176
40
0.190326616200069
40
0.190959668102962
40
0.192225771908748
40
0.19285882381164
40
0.193491875714533
40
0.194757979520319
40
0.19729018713189
40
0.199822394743461
40
0.204886809966604
40
0.209951225189747
40
0.220080055636032
40
0.222612263247603
40
0.223878367053389
40
0.225144470859175
40
0.230208886082317
40
0.270724207867458
40
0.290981868760029
40
0.3112395296526
40
0.33149719054517
40
0.341626020991456
40
0.346690436214598
40
0.34922264382617
40
0.350488747631955
40
0.351121799534848
40
0.351754851437741
40
0.352387903340634
40
0.353020955243527
40
0.354287059049312
40
0.356819266660884
40
0.361883681884026
40
0.372012512330312
40
0.392270173222882
40
0.412527834115453
40
0.432785495008023
40
0.473300816793164
40
0.475833024404736
40
0.478365232016307
40
0.479631335822093
40
0.480897439627879
40
0.48342964723945
40
0.493558477685735
40
0.50368730813202
40
0.508751723355163
40
0.511283930966734
40
0.51255003477252
40
0.513816138578306
40
0.514449190481199
40
0.523944969024591
40
0.534073799470876
40
0.554331460363447
40
0.564460290809732
40
0.574589121256017
40
0.594846782148588
40
0.615104443041159
40
0.61763665065273
40
0.618269702555623
40
0.618586228507069
40
0.618902754458516
40
0.619535806361408
40
0.620168858264301
40
0.625233273487444
40
0.635362103933729
40
0.67587742571887
40
0.837938712859435
40
1
40
1
40
1
40
1
41
1
10
183.227634663167
20
12.0753038012298
30
0
41
1
10
183.226054009545
20
12.075837116641
30
0
41
1
10
183.222177706725
20
12.0772179280329
30
0
41
1
10
183.217793781795
20
12.0789879242819
30
0
41
1
10
183.214714575921
20
12.0803426636868
30
0
41
1
10
183.213843374996
20
12.0807355859572
30
0
41
1
10
183.213495437923
20
12.0808939592511
30
0
41
1
10
183.213408483888
20
12.08093361946
30
0
41
1
10
183.213338938831
20
12.0809653877434
30
0
41
1
10
183.213269405897
20
12.0809971827661
30
0
41
1
10
183.213078240382
20
12.0810847293574
30
0
41
1
10
183.212348973778
20
12.0814204011873
30
0
41
1
10
183.211103207032
20
12.0820054450349
30
0
41
1
10
183.209451829465
20
12.082805874921
30
0
41
1
10
183.207810344996
20
12.0836265539456
30
0
41
1
10
183.205635220952
20
12.084747628451
30
0
41
1
10
183.202942290329
20
12.0861989830087
30
0
41
1
10
183.200285647861
20
12.0877162042408
30
0
41
1
10
183.198445918595
20
12.0888124111131
30
0
41
1
10
183.197400460457
20
12.0894485116152
30
0
41
1
10
183.196847142547
20
12.0897898633834
30
0
41
1
10
183.196522357505
20
12.0899917876935
30
0
41
1
10
183.196392505434
20
12.0900726577317
30
0
41
1
10
183.196262746388
20
12.0901536781591
30
0
41
1
10
183.196133080583
20
12.0902348488109
30
0
41
1
10
183.196003477009
20
12.0903161195575
30
0
41
1
10
183.195776834301
20
12.0904586059688
30
0
41
1
10
183.195453527352
20
12.0906629074616
30
0
41
1
10
183.194937239956
20
12.0909913852224
30
0
41
1
10
183.194293771277
20
12.0914049671632
30
0
41
1
10
183.193268291235
20
12.0920730376247
30
0
41
1
10
183.192376385957
20
12.0926658828176
30
0
41
1
10
183.19167919522
20
12.0931370652233
30
0
41
1
10
183.191426064885
20
12.093308989378
30
0
41
1
10
183.191046763811
20
12.0935674600499
30
0
41
1
10
183.188713834533
20
12.0951703624903
30
0
41
1
10
183.185497323746
20
12.0975137493543
30
0
41
1
10
183.181647648539
20
12.1005412987214
30
0
41
1
10
183.178816704401
20
12.1028823029551
30
0
41
1
10
183.176505976691
20
12.1048906347808
30
0
41
1
10
183.174914642701
20
12.1063260620552
30
0
41
1
10
183.174125615732
20
12.1070511007089
30
0
41
1
10
183.173732774276
20
12.1074154420734
30
0
41
1
10
183.173536773058
20
12.107598067113
30
0
41
1
10
183.173424892437
20
12.1077025539302
30
0
41
1
10
183.173341042062
20
12.1077809838279
30
0
41
1
10
183.173257251831
20
12.1078594784692
30
0
41
1
10
183.173145611776
20
12.107964224248
30
0
41
1
10
183.172950452499
20
12.1081477556073
30
0
41
1
10
183.172560978468
20
12.1085157218875
30
0
41
1
10
183.171785418504
20
12.1092552572992
30
0
41
1
10
183.170247930939
20
12.1107486483643
30
0
41
1
10
183.168090926785
20
12.1129224582147
30
0
41
1
10
183.165567034968
20
12.1155939935186
30
0
41
1
10
183.162289813468
20
12.1192377692539
30
0
41
1
10
183.159834856384
20
12.1221776401597
30
0
41
1
10
183.158123358008
20
12.1243392077208
30
0
41
1
10
183.157886568469
20
12.1246401557393
30
0
41
1
10
183.157697689408
20
12.1248813507072
30
0
41
1
10
183.157509179202
20
12.1251228361678
30
0
41
1
10
183.156992299629
20
12.1257881172287
30
0
41
1
10
183.156154828082
20
12.1268832584234
30
0
41
1
10
183.155239267846
20
12.128111462922
30
0
41
1
10
183.154606311608
20
12.128977089906
30
0
41
1
10
183.154291827469
20
12.1294113629613
30
0
41
1
10
183.154112693383
20
12.1296599343831
30
0
41
1
10
183.15400097285
20
12.1298154642618
30
0
41
1
10
183.153599423069
20
12.1303758373077
30
0
41
1
10
183.152891667043
20
12.131376464517
30
0
41
1
10
183.151521745142
20
12.1333629789423
30
0
41
1
10
183.150167277984
20
12.1354065455342
30
0
41
1
10
183.148850565742
20
12.1374746717244
30
0
41
1
10
183.147559208572
20
12.1395588507824
30
0
41
1
10
183.145992899979
20
12.1421935733615
30
0
41
1
10
183.144716597385
20
12.1444651586374
30
0
41
1
10
183.144039231345
20
12.1457105676395
30
0
41
1
10
183.14393889531
20
12.1458958889858
30
0
41
1
10
183.143902448061
20
12.1459632995895
30
0
41
1
10
183.143866026539
20
12.1460307241988
30
0
41
1
10
183.143820547885
20
12.1461150312028
30
0
41
1
10
183.143638890707
20
12.1464523989822
30
0
41
1
10
183.143187645217
20
12.1472973885728
30
0
41
1
10
183.141626553979
20
12.1502863252281
30
0
41
1
10
183.136015817629
20
12.1618799045462
30
0
41
1
10
183.128862644377
20
12.182882374312
30
0
41
1
10
183.126254669379
20
12.2024376289639
30
0
41
1
10
183.125913348166
20
12.2122491253559
30
0
0
SPLINE
5
206
100
AcDbEntity
8
1
62
256
6
ByLayer
370
-1
48
1
60
0
100
AcDbSpline
70
4
71
3
72
17
73
13
40
0
40
0
40
0
40
0
40
0.003270318640303
40
0.0092094466333777
40
0.0210877026195272
40
0.0448442145918261
40
0.0923572385364239
40
0.282409334314815
40
0.662513525871598
40
0.852565621649989
40
0.947591669539185
40
1
40
1
40
1
40
1
41
1
10
194.35925228039
20
23.9629151112806
30
0
41
1
10
194.359548386192
20
23.9629248995045
30
0
41
1
10
194.360379289863
20
23.9629523450943
30
0
41
1
10
194.362275225995
20
23.9630149229238
30
0
41
1
10
194.366029601703
20
23.9631389597753
30
0
41
1
10
194.373526688793
20
23.9633865649971
30
0
41
1
10
194.397100426021
20
23.9641652132057
30
0
41
1
10
194.452811262426
20
23.9660052967761
30
0
41
1
10
194.521387556725
20
23.9682703812374
30
0
41
1
10
194.581375580018
20
23.9702516770732
30
0
41
1
10
194.611834264879
20
23.9712578394762
30
0
41
1
10
194.625115399941
20
23.9716963801886
30
0
41
1
10
194.629850381753
20
23.9718528291764
30
0
0
SPLINE
5
207
100
AcDbEntity
8
1
62
256
6
ByLayer
370
-1
48
1
60
0
100
AcDbSpline
70
4
71
3
72
10
73
6
40
0
40
0
40
0
40
0
40
0.5
40
0.5
40
1
40
1
40
1
40
1
41
1
10
185.446760041599
20
14.8541578853048
30
0
41
1
10
185.437730688858
20
14.9058769460537
30
0
41
1
10
185.425182037045
20
14.9602230022479
30
0
41
1
10
185.393164103859
20
15.0739899249675
30
0
41
1
10
185.373462751573
20
15.1335782505313
30
0
41
1
10
185.35207741566
20
15.1913471339324
30
0
0
SPLINE
5
208
100
AcDbEntity
8
1
62
256
6
ByLayer
370
-1
48
1
60
0
100
AcDbSpline
70
4
71
3
72
17
73
13
40
0
40
0
40
0
40
0
40
0.0144631560761789
40
0.0301057427838542
40
0.061390916199205
40
0.123961263029906
40
0.249101956691309
40
0.499383344014115
40
0.749664731336922
40
0.999946118659728
40
0.999946118659728
40
1
40
1
40
1
40
1
41
1
10
196.674453210278
20
11.6355613030669
30
0
41
1
10
196.673362466097
20
11.6355230679446
30
0
41
1
10
196.672928449469
20
11.6355078538558
30
0
41
1
10
196.670752498539
20
11.6354315777212
30
0
41
1
10
196.667202536498
20
11.6353071367797
30
0
41
1
10
196.659889851605
20
11.635050796745
30
0
41
1
10
196.64540632236
20
11.6345430887767
30
0
41
1
10
196.624645996888
20
11.6338153529819
30
0
41
1
10
196.599761028826
20
11.6329430313011
30
0
41
1
10
196.583167898106
20
11.6323613730227
30
0
41
1
10
196.574873651012
20
11.6320706251484
30
0
41
1
10
196.574863656151
20
11.6320702747869
30
0
41
1
10
196.57485366129
20
11.6320699244254
30
0
0
SPLINE
5
209
100
AcDbEntity
8
1
62
256
6
ByLayer
370
-1
48
1
60
0
100
AcDbSpline
70
4
71
3
72
17
73
13
40
0
40
0
40
0
40
0
40
0.0144631560763548
40
0.030105742783987
40
0.0613909161992515
40
0.12396126302978
40
0.249101956690838
40
0.499383344012954
40
0.749664731335069
40
0.999946118657185
40
0.999946118657185
40
1
40
1
40
1
40
1
41
1
10
195.176670835685
20
26.0421056308345
30
0
41
1
10
195.176708925312
20
26.0410107201882
30
0
41
1
10
195.176724081506
20
26.0405750456876
30
0
41
1
10
195.176800067387
20
26.0383907829785
30
0
41
1
10
195.176924034793
20
26.0348272606587
30
0
41
1
10
195.177179399377
20
26.0274866424981
30
0
41
1
10
195.177685175363
20
26.0129477885243
30
0
41
1
10
195.178410141903
20
25.9921081619817
30
0
41
1
10
195.179279144137
20
25.9671281373845
30
0
41
1
10
195.17985858903
20
25.9504716236008
30
0
41
1
10
195.180148231183
20
25.942145674787
30
0
41
1
10
195.180148578886
20
25.9421356798331
30
0
41
1
10
195.18014892659
20
25.9421256848792
30
0
0
SPLINE
5
20A
100
AcDbEntity
8
1
62
256
6
ByLayer
370
-1
48
1
60
0
100
AcDbSpline
70
4
71
3
72
16
73
12
40
0
40
0
40
0
40
0
40
0.031952842042311
40
0.215044192449665
40
0.39813554285702
40
0.581226893264374
40
0.764318243671728
40
0.855863918875405
40
0.947409594079083
40
0.993182431680921
40
1
40
1
40
1
40
1
41
1
10
194.632580447035
20
11.7901801197232
30
0
41
1
10
194.632727004805
20
11.7867394948001
30
0
41
1
10
194.63370557577
20
11.7635754153399
30
0
41
1
10
194.635527587394
20
11.7207005541384
30
0
41
1
10
194.638036890917
20
11.6615448735966
30
0
41
1
10
194.640545251771
20
11.6023881448429
30
0
41
1
10
194.642636440703
20
11.5530918536218
30
0
41
1
10
194.644308379209
20
11.5136539050451
30
0
41
1
10
194.645354361641
20
11.4890060844325
30
0
41
1
10
194.646014273092
20
11.4734841970213
30
0
41
1
10
194.646253833679
20
11.4678196058092
30
0
41
1
10
194.646284862578
20
11.4670852499258
30
0
0
SPLINE
5
20B
100
AcDbEntity
8
1
62
256
6
ByLayer
370
-1
48
1
60
0
100
AcDbSpline
70
4
71
3
72
16
73
12
40
0
40
0
40
0
40
0
40
0.0068174563922682
40
0.0525902990103054
40
0.14413598424638
40
0.235681669482454
40
0.418773039954603
40
0.601864410426752
40
0.784955780898901
40
0.96804715137105
40
1
40
1
40
1
40
1
41
1
10
195.748545556062
20
12.6536302719755
30
0
41
1
10
195.747808526047
20
12.6536046278461
30
0
41
1
10
195.742123008167
20
12.6534068150273
30
0
41
1
10
195.726540169041
20
12.6528647973412
30
0
41
1
10
195.701797642276
20
12.6520040687817
30
0
41
1
10
195.662209792851
20
12.6506268653231
30
0
41
1
10
195.612724814995
20
12.6489054022036
30
0
41
1
10
195.553342761281
20
12.6468395970483
30
0
41
1
10
195.493960794811
20
12.6447738420835
30
0
41
1
10
195.450918596047
20
12.6432766173742
30
0
41
1
10
195.42766992246
20
12.6424677098888
30
0
41
1
10
195.424215524188
20
12.6423475606078
30
0
0
SPLINE
5
20C
100
AcDbEntity
8
1
62
256
6
ByLayer
370
-1
48
1
60
0
100
AcDbSpline
70
4
71
3
72
9
73
5
40
0
40
0
40
0
40
0
40
0.5
40
1
40
1
40
1
40
1
41
1
10
180.948931571705
20
24.9240900862406
30
0
41
1
10
180.96524919101
20
24.9804980702081
30
0
41
1
10
181.012924727986
20
25.0901345956781
30
0
41
1
10
181.086585841887
20
25.1818633275213
30
0
41
1
10
181.127607255293
20
25.221242286928
30
0
0
SPLINE
5
20D
100
AcDbEntity
8
1
62
256
6
ByLayer
370
-1
48
1
60
0
100
AcDbSpline
70
4
71
3
72
25
73
21
40
0
40
0
40
0
40
0
40
0.125
40
0.1875
40
0.21875
40
0.234375
40
0.25
40
0.3125
40
0.34375
40
0.375
40
0.5
40
0.625
40
0.6875
40
0.71875
40
0.7265625
40
0.734375
40
0.75
40
0.8125
40
0.875
40
1
40
1
40
1
40
1
41
1
10
180.924529636071
20
24.5420927300795
30
0
41
1
10
180.924766228131
20
24.5591687898117
30
0
41
1
10
180.925192403013
20
24.5847593737574
30
0
41
1
10
180.925781430926
20
24.6146218723742
30
0
41
1
10
180.926116966672
20
24.6295202402304
30
0
41
1
10
180.926322993434
20
24.6380199257441
30
0
41
1
10
180.926647636743
20
24.6507526598308
30
0
41
1
10
180.927075643444
20
24.6655519196004
30
0
41
1
10
180.927616156132
20
24.6824720833093
30
0
41
1
10
180.928470166519
20
24.707899112729
30
0
41
1
10
180.929882881594
20
24.7463765750034
30
0
41
1
10
180.931671264597
20
24.7888792276704
30
0
41
1
10
180.933036970723
20
24.8188436958602
30
0
41
1
10
180.933699684792
20
24.832480775156
30
0
41
1
10
180.934008407335
20
24.8390935151168
30
0
41
1
10
180.934218164845
20
24.8421138263408
30
0
41
1
10
180.934894113968
20
24.8514441106422
30
0
41
1
10
180.936475405122
20
24.8661611421703
30
0
41
1
10
180.940633272261
20
24.8923151569505
30
0
41
1
10
180.945233197887
20
24.9115444177706
30
0
41
1
10
180.948931571705
20
24.9240900862406
30
0
0
SPLINE
5
20E
100
AcDbEntity
8
1
62
256
6
ByLayer
370
-1
48
1
60
0
100
AcDbSpline
70
4
71
3
72
9
73
5
40
0
40
0
40
0
40
0
40
0.625000000003226
40
1
40
1
40
1
40
1
41
1
10
196.106481730895
20
25.0743100547925
30
0
41
1
10
196.127382001366
20
25.0750371276405
30
0
41
1
10
196.160822434121
20
25.0762004441973
30
0
41
1
10
196.194262866876
20
25.077363760754
30
0
41
1
10
196.206803029159
20
25.0778000044628
30
0
0
SPLINE
5
20F
100
AcDbEntity
8
1
62
256
6
ByLayer
370
-1
48
1
60
0
100
AcDbSpline
70
4
71
3
72
9
73
5
40
0
40
0
40
0
40
0
40
0.375000000000866
40
1
40
1
40
1
40
1
41
1
10
194.131088786643
20
26.0054304194908
30
0
41
1
10
194.13142805607
20
25.992938034153
30
0
41
1
10
194.132332774541
20
25.9596250065857
30
0
41
1
10
194.133237493012
20
25.9263119790184
30
0
41
1
10
194.133802942056
20
25.9054913367888
30
0
0
SPLINE
5
210
100
AcDbEntity
8
1
62
256
6
ByLayer
370
-1
48
1
60
0
100
AcDbSpline
70
4
71
3
72
8
73
4
40
0
40
0
40
0
40
0
40
1
40
1
40
1
40
1
41
1
10
183.280466528683
20
12.0675754258085
30
0
41
1
10
183.280820491426
20
12.0574005405485
30
0
41
1
10
183.28145278664
20
12.0472488524154
30
0
41
1
10
183.282251693389
20
12.0389140743543
30
0
0
SPLINE
5
211
100
AcDbEntity
8
1
62
256
6
ByLayer
370
-1
48
1
60
0
100
AcDbSpline
70
4
71
3
72
8
73
4
40
0
40
0
40
0
40
0
40
1
40
1
40
1
40
1
41
1
10
180.822217895592
20
24.6295668045755
30
0
41
1
10
180.821799437554
20
24.6458946464875
30
0
41
1
10
180.821461362477
20
24.6622247495183
30
0
41
1
10
180.821200743811
20
24.6785559113246
30
0
0
SPLINE
5
212
100
AcDbEntity
8
1
62
256
6
ByLayer
370
-1
48
1
60
0
100
AcDbSpline
70
4
71
3
72
11
73
7
40
0
40
0
40
0
40
0
40
0.486341095999753
40
0.72951164399963
40
0.972682191999506
40
1
40
1
40
1
40
1
41
1
10
194.329909749277
20
23.961914148607
30
0
41
1
10
194.334839387819
20
23.9620869529509
30
0
41
1
10
194.342330235971
20
23.9623461426445
30
0
41
1
10
194.351855471881
20
23.9626690211092
30
0
41
1
10
194.356611088422
20
23.9628277530926
30
0
41
1
10
194.35901063729
20
23.9629071234036
30
0
41
1
10
194.35925228039
20
23.9629151112806
30
0
0
SPLINE
5
213
100
AcDbEntity
8
1
62
256
6
ByLayer
370
-1
48
1
60
0
100
AcDbSpline
70
4
71
3
72
15
73
11
40
0
40
0
40
0
40
0
40
0.0355064919379661
40
0.118947470229814
40
0.28582942681351
40
0.619593339980902
40
0.786475296564598
40
0.869916274856446
40
0.953357253148294
40
1
40
1
40
1
40
1
41
1
10
182.871991686171
20
24.7070780240371
30
0
41
1
10
182.871877038676
20
24.7112740995063
30
0
41
1
10
182.871489865801
20
24.7253338170885
30
0
41
1
10
182.870501845693
20
24.7591698846091
30
0
41
1
10
182.868257223906
20
24.8284434847328
30
0
41
1
10
182.865176564835
20
24.9076274949604
30
0
41
1
10
182.862052212211
20
24.9764184561896
30
0
41
1
10
182.86014832017
20
25.0155159056154
30
0
41
1
10
182.85887946868
20
25.0404199340266
30
0
41
1
10
182.858080966337
20
25.0555283403274
30
0
41
1
10
182.857793277295
20
25.0609421160373
30
0
0
SPLINE
5
214
100
AcDbEntity
8
1
62
256
6
ByLayer
370
-1
48
1
60
0
100
AcDbSpline
70
4
71
3
72
8
73
4
40
0
40
0
40
0
40
0
40
1
40
1
40
1
40
1
41
1
10
196.200840395199
20
25.2176763229132
30
0
41
1
10
196.19798217595
20
25.2709517712034
30
0
41
1
10
196.194699237012
20
25.3242059913044
30
0
41
1
10
196.190991153494
20
25.3774285963001
30
0
0
SPLINE
5
215
100
AcDbEntity
8
1
62
256
6
ByLayer
370
-1
48
1
60
0
100
AcDbSpline
70
4
71
3
72
9
73
5
40
0
40
0
40
0
40
0
40
0.375000000002256
40
1
40
1
40
1
40
1
41
1
10
196.637917559186
20
12.6851373056748
30
0
41
1
10
196.625377396903
20
12.684701061966
30
0
41
1
10
196.591936964147
20
12.6835377454092
30
0
41
1
10
196.558496531392
20
12.6823744288525
30
0
41
1
10
196.537596260921
20
12.6816473560045
30
0
0
SPLINE
5
216
100
AcDbEntity
8
1
62
256
6
ByLayer
370
-1
48
1
60
0
100
AcDbSpline
70
4
71
3
72
12
73
8
40
0
40
0
40
0
40
0
40
0.448044053330183
40
0.448044053330183
40
0.724021472165503
40
0.724021472165503
40
1
40
1
40
1
40
1
41
1
10
183.368312182174
20
10.1687328544722
30
0
41
1
10
183.212156006271
20
10.1632589307163
30
0
41
1
10
183.056050632095
20
10.1579062362722
30
0
41
1
10
182.803745357246
20
10.1491481352644
30
0
41
1
10
182.707551157768
20
10.1457570746164
30
0
41
1
10
182.515137409706
20
10.1389111383416
30
0
41
1
10
182.418915608792
20
10.1354524404553
30
0
41
1
10
182.322729326699
20
10.1320808245511
30
0
0
SPLINE
5
217
100
AcDbEntity
8
1
62
256
6
ByLayer
370
-1
48
1
60
0
100
AcDbSpline
70
4
71
3
72
12
73
8
40
0
40
0
40
0
40
0
40
0.448044053330177
40
0.448044053330177
40
0.724021472165483
40
0.724021472165483
40
1
40
1
40
1
40
1
41
1
10
180.861483409632
20
23.4890259682882
30
0
41
1
10
180.856030315808
20
23.6457786354149
30
0
41
1
10
180.850752369557
20
23.8025348940558
30
0
41
1
10
180.842066860981
20
24.0558433492656
30
0
41
1
10
180.838680030053
20
24.1523962875349
30
0
41
1
10
180.831814148476
20
24.3454988530004
30
0
41
1
10
180.828329585953
20
24.4420490304621
30
0
41
1
10
180.82497085175
20
24.5386027804092
30
0
0
SPLINE
5
218
100
AcDbEntity
8
1
62
256
6
ByLayer
370
-1
48
1
60
0
100
AcDbSpline
70
4
71
3
72
9
73
5
40
0
40
0
40
0
40
0
40
0.5
40
1
40
1
40
1
40
1
41
1
10
196.370284012937
20
10.952920987035
30
0
41
1
10
196.333989671211
20
10.90899533472
30
0
41
1
10
196.247931953643
20
10.8286182418395
30
0
41
1
10
196.142273964523
20
10.773074593655
30
0
41
1
10
196.087354592786
20
10.7527526706214
30
0
0
SPLINE
5
219
100
AcDbEntity
8
1
62
256
6
ByLayer
370
-1
48
1
60
0
100
AcDbSpline
70
4
71
3
72
11
73
7
40
0
40
0
40
0
40
0
40
0.486341095999843
40
0.729511643999764
40
0.972682191999685
40
1
40
1
40
1
40
1
41
1
10
183.125913348166
20
12.2122491253559
30
0
41
1
10
183.120983709625
20
12.2120763210121
30
0
41
1
10
183.113686601942
20
12.2118171313185
30
0
41
1
10
183.104790146726
20
12.2114942528538
30
0
41
1
10
183.100489378626
20
12.2113355208704
30
0
41
1
10
183.098360488737
20
12.2112561505594
30
0
41
1
10
183.098146386966
20
12.2112481626824
30
0
0
SPLINE
5
21A
100
AcDbEntity
8
1
62
256
6
ByLayer
370
-1
48
1
60
0
100
AcDbSpline
70
4
71
3
72
8
73
4
40
0
40
0
40
0
40
0
40
1
40
1
40
1
40
1
41
1
10
196.679477835103
20
11.3355545883756
30
0
41
1
10
196.679481758981
20
11.2975752951632
30
0
41
1
10
196.675222299911
20
11.2600843242157
30
0
41
1
10
196.666712048485
20
11.2230790611945
30
0
0
SPLINE
5
21B
100
AcDbEntity
8
1
62
256
6
ByLayer
370
-1
48
1
60
0
100
AcDbSpline
70
4
71
3
72
17
73
13
40
0
40
0
40
0
40
0
40
0.003270318640321
40
0.0092094466333957
40
0.0210877026195451
40
0.0448442145918439
40
0.0923572385364415
40
0.282409334314832
40
0.662513525871613
40
0.852565621650003
40
0.947591669539198
40
1
40
1
40
1
40
1
41
1
10
183.098146386966
20
12.2112481626824
30
0
41
1
10
183.097884029893
20
12.2112383744585
30
0
41
1
10
183.097149037309
20
12.2112109288687
30
0
41
1
10
183.095474622452
20
12.2111483510392
30
0
41
1
10
183.092152129258
20
12.2110243141877
30
0
41
1
10
183.085522207534
20
12.2107767089659
30
0
41
1
10
183.064670508074
20
12.2099980607573
30
0
41
1
10
183.01539617241
20
12.2081579771869
30
0
41
1
10
182.954739052675
20
12.2058928927256
30
0
41
1
10
182.901685099192
20
12.2039115968898
30
0
41
1
10
182.874737623425
20
12.2029054344868
30
0
41
1
10
182.862998007859
20
12.2024668937744
30
0
41
1
10
182.858806860359
20
12.2023104447866
30
0
0
SPLINE
5
21C
100
AcDbEntity
8
1
62
256
6
ByLayer
370
-1
48
1
60
0
100
AcDbSpline
70
4
71
3
72
15
73
11
40
0
40
0
40
0
40
0
40
0.250244249035874
40
0.500488498071748
40
0.750732747107622
40
0.875854871625559
40
0.938415933884528
40
0.969696465014012
40
0.985336730578754
40
1
40
1
40
1
40
1
41
1
10
181.442397015765
20
10.7205116675469
30
0
41
1
10
181.43294401168
20
10.7175879504997
30
0
41
1
10
181.414038003509
20
10.7117405164052
30
0
41
1
10
181.385684477886
20
10.7029710622226
30
0
41
1
10
181.362030021143
20
10.6956549817682
30
0
41
1
10
181.345528413737
20
10.6905512041285
30
0
41
1
10
181.337195310547
20
10.6879738609228
30
0
41
1
10
181.333152208183
20
10.6867233708988
30
0
41
1
10
181.330661809458
20
10.6859531161583
30
0
41
1
10
181.330068600742
20
10.685769642797
30
0
41
1
10
181.328949302668
20
10.6854234554018
30
0
0
SPLINE
5
21D
100
AcDbEntity
8
1
62
256
6
ByLayer
370
-1
48
1
60
0
100
AcDbSpline
70
4
71
3
72
15
73
11
40
0
40
0
40
0
40
0
40
0.250244249035921
40
0.500488498071843
40
0.750732747107764
40
0.875854871625725
40
0.938415933884705
40
0.969696465014195
40
0.985336730578941
40
1
40
1
40
1
40
1
41
1
10
196.055236276462
20
25.4536516064161
30
0
41
1
10
196.06483658693
20
25.4565753234634
30
0
41
1
10
196.084037207865
20
25.4624227575578
30
0
41
1
10
196.112832567138
20
25.4711922117405
30
0
41
1
10
196.136855631831
20
25.4785082921948
30
0
41
1
10
196.153614384168
20
25.4836120698345
30
0
41
1
10
196.162077342299
20
25.4861894130403
30
0
41
1
10
196.166183448421
20
25.4874399030642
30
0
41
1
10
196.168712655088
20
25.4882101578047
30
0
41
1
10
196.169315107789
20
25.4883936311661
30
0
41
1
10
196.170451847911
20
25.4887398185613
30
0
0
SPLINE
5
21E
100
AcDbEntity
8
1
62
256
6
ByLayer
370
-1
48
1
60
0
100
AcDbSpline
70
4
71
3
72
17
73
13
40
0
40
0
40
0
40
0
40
0.0524083454183526
40
0.147434401200689
40
0.337486512765362
40
0.717590735894707
40
0.907642847459379
40
0.955155875350547
40
0.978912389296132
40
0.990790646268924
40
0.99672977475532
40
1
40
1
40
1
40
1
41
1
10
194.181872780209
20
24.3911944222168
30
0
41
1
10
194.181756716668
20
24.3867143079761
30
0
41
1
10
194.181422828803
20
24.3741561433787
30
0
41
1
10
194.180669558093
20
24.3453434289439
30
0
41
1
10
194.179176267326
20
24.2886066056924
30
0
41
1
10
194.177473230194
20
24.2237425777408
30
0
41
1
10
194.176087897409
20
24.171050436458
30
0
41
1
10
194.175502723092
20
24.1487519375282
30
0
41
1
10
194.175315632704
20
24.1416624504835
30
0
41
1
10
194.175223525111
20
24.1381089241676
30
0
41
1
10
194.175174729618
20
24.1363191423702
30
0
41
1
10
194.175154170891
20
24.1355328875725
30
0
41
1
10
194.175147079552
20
24.1352524109567
30
0
0
SPLINE
5
21F
100
AcDbEntity
8
1
62
256
6
ByLayer
370
-1
48
1
60
0
100
AcDbSpline
70
4
71
3
72
25
73
21
40
0
40
0
40
0
40
0
40
0.125
40
0.1875
40
0.21875
40
0.234375
40
0.25
40
0.3125
40
0.34375
40
0.375
40
0.5
40
0.625
40
0.6875
40
0.71875
40
0.7265625
40
0.734375
40
0.75
40
0.8125
40
0.875
40
1
40
1
40
1
40
1
41
1
10
196.574871332747
20
11.6320705438835
30
0
41
1
10
196.574632113121
20
11.6149944841513
30
0
41
1
10
196.574201598556
20
11.5894039002056
30
0
41
1
10
196.573607568423
20
11.5595414015889
30
0
41
1
10
196.573269014678
20
11.5446430337326
30
0
41
1
10
196.573061049839
20
11.5361433482189
30
0
41
1
10
196.572733237892
20
11.5234106141322
30
0
41
1
10
196.572300669847
20
11.5086113543626
30
0
41
1
10
196.571755031245
20
11.4916911906537
30
0
41
1
10
196.57089403371
20
11.466264161234
30
0
41
1
10
196.569475945922
20
11.4277866989596
30
0
41
1
10
196.567677758226
20
11.3852840462927
30
0
41
1
10
196.566308398946
20
11.3553195781028
30
0
41
1
10
196.565639838526
20
11.341682498807
30
0
41
1
10
196.565333225718
20
11.3350697588462
30
0
41
1
10
196.565103915646
20
11.3320494476222
30
0
41
1
10
196.564389578538
20
11.3227191633208
30
0
41
1
10
196.562736990841
20
11.3080021317927
30
0
41
1
10
196.558453805268
20
11.2818481170125
30
0
41
1
10
196.553758168123
20
11.2626188561925
30
0
41
1
10
196.549995749597
20
11.2500731877224
30
0
0
SPLINE
5
220
100
AcDbEntity
8
1
62
256
6
ByLayer
370
-1
48
1
60
0
100
AcDbSpline
70
4
71
3
72
8
73
4
40
0
40
0
40
0
40
0
40
1
40
1
40
1
40
1
41
1
10
196.67820145029
20
11.4956073626381
30
0
41
1
10
196.679052366347
20
11.4422615688991
30
0
41
1
10
196.679472323496
20
11.3889071972454
30
0
41
1
10
196.679477835687
20
11.3355545883729
30
0
0
SPLINE
5
221
100
AcDbEntity
8
1
62
256
6
ByLayer
370
-1
48
1
60
0
100
AcDbSpline
70
4
71
3
72
14
73
10
40
0
40
0
40
0
40
0
40
0.0318086637758995
40
0.315507725074468
40
0.599206786373036
40
0.882905847671604
40
0.953830612996246
40
0.989292995658567
40
1
40
1
40
1
40
1
41
1
10
182.881950759909
20
23.995085134662
30
0
41
1
10
182.882045141118
20
23.998728299428
30
0
41
1
10
182.882964095237
20
24.0349700251238
30
0
41
1
10
182.884060545333
20
24.1077692537743
30
0
41
1
10
182.883970762293
20
24.2187309176982
30
0
41
1
10
182.882661772336
20
24.3058409024903
30
0
41
1
10
182.881399441864
20
24.3598239617949
30
0
41
1
10
182.880979115005
20
24.3760792114568
30
0
41
1
10
182.880806993787
20
24.3824950418179
30
0
41
1
10
182.880766845249
20
24.3839831542398
30
0
0
SPLINE
5
222
100
AcDbEntity
8
1
62
256
6
ByLayer
370
-1
48
1
60
0
100
AcDbSpline
70
4
71
3
72
16
73
12
40
0
40
0
40
0
40
0
40
0.0068174563922527
40
0.0525902990102866
40
0.144135984246354
40
0.235681669482422
40
0.418773039954558
40
0.601864410426694
40
0.78495578089883
40
0.968047151370965
40
1
40
1
40
1
40
1
41
1
10
194.171914012127
20
25.1031870222861
30
0
41
1
10
194.171934086013
20
25.1024526705005
30
0
41
1
10
194.172088690616
20
25.0967880525176
30
0
41
1
10
194.172508098933
20
25.0812666967751
30
0
41
1
10
194.173177273196
20
25.0566186557359
30
0
41
1
10
194.174249260322
20
25.0171807086738
30
0
41
1
10
194.175587861675
20
24.967884454769
30
0
41
1
10
194.177195561824
20
24.9087275351089
30
0
41
1
10
194.178801867423
20
24.8495720527145
30
0
41
1
10
194.17996295001
20
24.8066971467182
30
0
41
1
10
194.180596039089
20
24.7835330670846
30
0
41
1
10
194.180688865519
20
24.7800924418411
30
0
0
SPLINE
5
223
100
AcDbEntity
8
1
62
256
6
ByLayer
370
-1
48
1
60
0
100
AcDbSpline
70
4
71
3
72
15
73
11
40
0
40
0
40
0
40
0
40
0.250227978747997
40
0.500467923372505
40
0.750707867997014
40
0.875827840309269
40
0.938387826465396
40
0.969667819543459
40
0.985307816082491
40
1
40
1
40
1
40
1
41
1
10
181.938471774051
20
10.2567513849429
30
0
41
1
10
181.936250665101
20
10.2470081502155
30
0
41
1
10
181.931808341007
20
10.2275212149304
30
0
41
1
10
181.925146090928
20
10.1982962341734
30
0
41
1
10
181.919587896144
20
10.1739143611292
30
0
41
1
10
181.915710438749
20
10.1569053001664
30
0
41
1
10
181.913752371769
20
10.1483159393431
30
0
41
1
10
181.912802345703
20
10.1441485044444
30
0
41
1
10
181.91221688829
20
10.1415803057968
30
0
41
1
10
181.912077508317
20
10.140968894189
30
0
41
1
10
181.911813198178
20
10.1398094572699
30
0
0
SPLINE
5
224
100
AcDbEntity
8
1
62
256
6
ByLayer
370
-1
48
1
60
0
100
AcDbSpline
70
4
71
3
72
12
73
8
40
0
40
0
40
0
40
0
40
0.0285608994399492
40
0.0933235061439526
40
0.222848719551959
40
0.481899146367973
40
1
40
1
40
1
40
1
41
1
10
181.809927214518
20
12.1650898988289
30
0
41
1
10
181.805593949438
20
12.1649407475807
30
0
41
1
10
181.791438901784
20
12.164453639444
30
0
41
1
10
181.757636374865
20
12.1632903441244
30
0
41
1
10
181.688873656249
20
12.1609239716486
30
0
41
1
10
181.55134736991
20
12.1561911598478
30
0
41
1
10
181.433467979317
20
12.1521344855978
30
0
41
1
10
181.354881652152
20
12.1494300312915
30
0
0
SPLINE
5
225
100
AcDbEntity
8
1
62
256
6
ByLayer
370
-1
48
1
60
0
100
AcDbSpline
70
4
71
3
72
15
73
11
40
0
40
0
40
0
40
0
40
0.250227978749274
40
0.500467923373367
40
0.75070786799746
40
0.875827840309507
40
0.93838782646553
40
0.969667819543542
40
0.985307816082548
40
1
40
1
40
1
40
1
41
1
10
196.54999714487
20
11.2500728650238
30
0
41
1
10
196.559723038018
20
11.2478234620466
30
0
41
1
10
196.579175289313
20
11.2433245485468
30
0
41
1
10
196.608348253736
20
11.2365774301037
30
0
41
1
10
196.632686730494
20
11.2309484311777
30
0
41
1
10
196.649665517733
20
11.2270215800405
30
0
41
1
10
196.658239590708
20
11.2250385698443
30
0
41
1
10
196.662399608162
20
11.2240764416876
30
0
41
1
10
196.664963235779
20
11.2234835263114
30
0
41
1
10
196.665573559161
20
11.2233423708194
30
0
41
1
10
196.666730932446
20
11.2230746937152
30
0
0
SPLINE
5
226
100
AcDbEntity
8
1
62
256
6
ByLayer
370
-1
48
1
60
0
100
AcDbSpline
70
4
71
3
72
16
73
12
40
0
40
0
40
0
40
0
40
0.006817456392254
40
0.0525902990102879
40
0.144135984246356
40
0.235681669482424
40
0.418773039954559
40
0.601864410426694
40
0.78495578089883
40
0.968047151370966
40
1
40
1
40
1
40
1
41
1
10
183.34636312781
20
11.0709762516768
30
0
41
1
10
183.346332108605
20
11.0717106034625
30
0
41
1
10
183.346092593045
20
11.0773752214454
30
0
41
1
10
183.345432091072
20
11.0928965771879
30
0
41
1
10
183.34438635888
20
11.1175446182271
30
0
41
1
10
183.342714420439
20
11.1569825652892
30
0
41
1
10
183.340623196926
20
11.206278819194
30
0
41
1
10
183.338115008789
20
11.2654357388541
30
0
41
1
10
183.335605526101
20
11.3245912212485
30
0
41
1
10
183.333783554054
20
11.3674661272448
30
0
41
1
10
183.332804984437
20
11.3906302068784
30
0
41
1
10
183.332658426713
20
11.3940708321219
30
0
0
SPLINE
5
227
100
AcDbEntity
8
1
62
256
6
ByLayer
370
-1
48
1
60
0
100
AcDbSpline
70
4
71
3
72
11
73
7
40
0
40
0
40
0
40
0
40
0.48634109599984
40
0.72951164399976
40
0.97268219199968
40
1
40
1
40
1
40
1
41
1
10
182.875434548463
20
23.7104785605812
30
0
41
1
10
182.875262401692
20
23.7154270295411
30
0
41
1
10
182.875101068528
20
23.7228492512531
30
0
41
1
10
182.875093809061
20
23.73209528075
30
0
41
1
10
182.875163105321
20
23.7366407700294
30
0
41
1
10
182.875219366527
20
23.7389136383583
30
0
41
1
10
182.875225179711
20
23.739142381229
30
0
0
SPLINE
5
228
100
AcDbEntity
8
1
62
256
6
ByLayer
370
-1
48
1
60
0
100
AcDbSpline
70
4
71
3
72
15
73
11
40
0
40
0
40
0
40
0
40
0.0355064919379587
40
0.118947470229821
40
0.285829426813547
40
0.619593339980997
40
0.786475296564722
40
0.869916274856585
40
0.953357253148448
40
1
40
1
40
1
40
1
41
1
10
182.164332972203
20
12.177447105217
30
0
41
1
10
182.160184189166
20
12.1773005750328
30
0
41
1
10
182.146279908023
20
12.176809598876
30
0
41
1
10
182.112761662087
20
12.1756280173616
30
0
41
1
10
182.043916929203
20
12.1732089299398
30
0
41
1
10
181.964708223244
20
12.1704437633712
30
0
41
1
10
181.895447771844
20
12.168041530071
30
0
41
1
10
181.855955325567
20
12.1666762170519
30
0
41
1
10
181.8307435715
20
12.1658065492164
30
0
41
1
10
181.815419744411
20
12.1652789520425
30
0
41
1
10
181.809927214518
20
12.1650898988289
30
0
0
SPLINE
5
229
100
AcDbEntity
8
1
62
256
6
ByLayer
370
-1
48
1
60
0
100
AcDbSpline
70
4
71
3
72
9
73
5
40
0
40
0
40
0
40
0
40
0.62499999999974
40
1
40
1
40
1
40
1
41
1
10
181.788298066284
20
25.4727300192955
30
0
41
1
10
181.78773261724
20
25.4935506615251
30
0
41
1
10
181.786827898769
20
25.5268636890924
30
0
41
1
10
181.785923180298
20
25.5601767166597
30
0
41
1
10
181.785583910871
20
25.5726691019975
30
0
0
SPLINE
5
22A
100
AcDbEntity
8
1
62
256
6
ByLayer
370
-1
48
1
60
0
100
AcDbSpline
70
4
71
3
72
16
73
12
40
0
40
0
40
0
40
0
40
0.0319528420423062
40
0.215044192449657
40
0.398135542857007
40
0.581226893264358
40
0.764318243671708
40
0.855863918875384
40
0.947409594079059
40
0.993182431680897
40
1
40
1
40
1
40
1
41
1
10
182.483733740243
20
12.1887298266891
30
0
41
1
10
182.480333073642
20
12.1886096774193
30
0
41
1
10
182.45742988212
20
12.18780076994
30
0
41
1
10
182.415048658575
20
12.186303546795
30
0
41
1
10
182.356569485743
20
12.1842377849107
30
0
41
1
10
182.298088289554
20
12.182171986422
30
0
41
1
10
182.249355860806
20
12.1804505219994
30
0
41
1
10
182.2103679612
20
12.179073318488
30
0
41
1
10
182.186002469858
20
12.1782125976259
30
0
41
1
10
182.170659585726
20
12.1776705613735
30
0
41
1
10
182.165059051429
20
12.1774727494895
30
0
41
1
10
182.164332972203
20
12.177447105217
30
0
0
SPLINE
5
22B
100
AcDbEntity
8
1
62
256
6
ByLayer
370
-1
48
1
60
0
100
AcDbSpline
70
4
71
3
72
17
73
13
40
0
40
0
40
0
40
0
40
0.0032703186403153
40
0.0092094466333901
40
0.0210877026195396
40
0.0448442145918387
40
0.0923572385364369
40
0.28240933431483
40
0.662513525871615
40
0.852565621650008
40
0.947591669539204
40
1
40
1
40
1
40
1
41
1
10
194.582173487645
20
12.435020892734
30
0
41
1
10
194.582200112986
20
12.4347405946778
30
0
41
1
10
194.582275409681
20
12.4339546558155
30
0
41
1
10
194.58244851002
20
12.4321626612406
30
0
41
1
10
194.582788016131
20
12.4286107105453
30
0
41
1
10
194.583468261823
20
12.4215202246983
30
0
41
1
10
194.585604965924
20
12.3992226573792
30
0
41
1
10
194.590656297792
20
12.3465295581937
30
0
41
1
10
194.596872350204
20
12.2816660258535
30
0
41
1
10
194.602313141517
20
12.2249291364719
30
0
41
1
10
194.605071079715
20
12.1961164150542
30
0
41
1
10
194.606278711395
20
12.1835582521392
30
0
41
1
10
194.606706482204
20
12.1790781393011
30
0
0
SPLINE
5
22C
100
AcDbEntity
8
1
62
256
6
ByLayer
370
-1
48
1
60
0
100
AcDbSpline
70
4
71
3
72
9
73
5
40
0
40
0
40
0
40
0
40
0.5
40
1
40
1
40
1
40
1
41
1
10
181.127607255293
20
25.221242286928
30
0
41
1
10
181.163807436665
20
25.265167939243
30
0
41
1
10
181.249725568336
20
25.3455450321235
30
0
41
1
10
181.355351364851
20
25.401088680308
30
0
41
1
10
181.410278699441
20
25.4214106033416
30
0
0
SPLINE
5
22D
100
AcDbEntity
8
1
62
256
6
ByLayer
370
-1
48
1
60
0
100
AcDbSpline
70
4
71
3
72
8
73
4
40
0
40
0
40
0
40
0
40
1
40
1
40
1
40
1
41
1
10
181.487095491104
20
25.5567968327395
30
0
41
1
10
181.44935409172
20
25.5541468688229
30
0
41
1
10
181.412393739792
20
25.5472687506431
30
0
41
1
10
181.376211440682
20
25.5361671740572
30
0
0
SPLINE
5
22E
100
AcDbEntity
8
1
62
256
6
ByLayer
370
-1
48
1
60
0
100
AcDbSpline
70
4
71
3
72
20
73
16
40
0
40
0
40
0
40
0
40
0.0006369940731697
40
0.0022970655115864
40
0.003957136950003
40
0.0172377084573363
40
0.0437988514720029
40
0.150043423530669
40
0.362532567648002
40
0.468777139706668
40
0.521899425736001
40
0.575021711765335
40
0.787510855882667
40
0.893755427941334
40
1
40
1
40
1
40
1
41
1
10
180.924540361871
20
24.5420928464758
30
0
41
1
10
180.924542781823
20
24.5418697308378
30
0
41
1
10
180.924559847694
20
24.5410644453428
30
0
41
1
10
180.924615070907
20
24.5396787831234
30
0
41
1
10
180.924813436246
20
24.533876972707
30
0
41
1
10
180.925324218745
20
24.519348509556
30
0
41
1
10
180.927094604396
20
24.4682452772072
30
0
41
1
10
180.931267441676
20
24.3474259616328
30
0
41
1
10
180.936301083254
20
24.1987437878258
30
0
41
1
10
180.940630296752
20
24.068651548333
30
0
41
1
10
180.943076658457
20
23.9943169270244
30
0
41
1
10
180.946777391791
20
23.8828120598216
30
0
41
1
10
180.951183739788
20
23.752715877783
30
0
41
1
10
180.956340274638
20
23.6040303962677
30
0
41
1
10
180.958960915055
20
23.5296873795872
30
0
41
1
10
180.960279680006
20
23.4925159179585
30
0
0
SPLINE
5
22F
100
AcDbEntity
8
1
62
256
6
ByLayer
370
-1
48
1
60
0
100
AcDbSpline
70
4
71
3
72
15
73
11
40
0
40
0
40
0
40
0
40
0.0466427416044552
40
0.130083711367029
40
0.213524681129604
40
0.380406620654752
40
0.714170499705049
40
0.881052439230197
40
0.964493408992771
40
1
40
1
40
1
40
1
41
1
10
196.099174832812
20
12.6659874879
30
0
41
1
10
196.093881090256
20
12.6657984366296
30
0
41
1
10
196.079103323836
20
12.6652708453946
30
0
41
1
10
196.054696268472
20
12.6644011703074
30
0
41
1
10
196.016291367646
20
12.6630358571656
30
0
41
1
10
195.948493439545
20
12.6606336239436
30
0
41
1
10
195.869936741202
20
12.6578684614266
30
0
41
1
10
195.800761541989
20
12.6554493638505
30
0
41
1
10
195.766865070626
20
12.6542677975853
30
0
41
1
10
195.752756993181
20
12.6537768041877
30
0
41
1
10
195.748545556062
20
12.6536302719755
30
0
0
SPLINE
5
230
100
AcDbEntity
8
1
62
256
6
ByLayer
370
-1
48
1
60
0
100
AcDbSpline
70
4
71
3
72
91
73
87
40
0
40
0
40
0
40
0
40
0.0276322771565391
40
0.0681475989416833
40
0.0782764293879694
40
0.0833408446111124
40
0.0839738965140053
40
0.0846069484168982
40
0.0849234743683446
40
0.085240000319791
40
0.0858730522226839
40
0.0884052598342554
40
0.0985340902805415
40
0.108662920726827
40
0.118791751173114
40
0.1289205816194
40
0.149178242511972
40
0.169435903404544
40
0.17956473385083
40
0.184629149073973
40
0.189693564297116
40
0.190326616200009
40
0.190959668102902
40
0.192225771908687
40
0.19285882381158
40
0.193491875714473
40
0.194757979520259
40
0.19729018713183
40
0.199822394743402
40
0.204886809966545
40
0.209951225189688
40
0.220080055635974
40
0.222612263247546
40
0.223878367053331
40
0.225144470859117
40
0.23020888608226
40
0.270724207867404
40
0.290981868759977
40
0.311239529652549
40
0.331497190545121
40
0.341626020991407
40
0.34669043621455
40
0.349222643826121
40
0.350488747631907
40
0.3511217995348
40
0.351754851437693
40
0.352387903340586
40
0.353020955243478
40
0.354287059049264
40
0.356819266660836
40
0.361883681883979
40
0.372012512330265
40
0.392270173222837
40
0.412527834115409
40
0.432785495007981
40
0.473300816793125
40
0.475833024404697
40
0.478365232016268
40
0.479631335822054
40
0.48089743962784
40
0.483429647239411
40
0.493558477685697
40
0.503687308131983
40
0.508751723355127
40
0.511283930966698
40
0.512550034772484
40
0.51381613857827
40
0.514449190481162
40
0.523944969024556
40
0.534073799470842
40
0.554331460363414
40
0.5644602908097
40
0.574589121255986
40
0.594846782148558
40
0.61510444304113
40
0.617636650652702
40
0.618269702555594
40
0.618586228507041
40
0.618902754458487
40
0.61953580636138
40
0.620168858264273
40
0.625233273487416
40
0.635362103933702
40
0.675877425718846
40
0.837938712859423
40
1
40
1
40
1
40
1
41
1
10
182.73901034264
20
23.6083686866826
30
0
41
1
10
182.739541628625
20
23.6099553781449
30
0
41
1
10
182.740917185613
20
23.6138464878117
30
0
41
1
10
182.742680446492
20
23.6182471586226
30
0
41
1
10
182.744030030704
20
23.6213381265632
30
0
41
1
10
182.744421457787
20
23.6222126553336
30
0
41
1
10
182.744579228423
20
23.6225619214703
30
0
41
1
10
182.744618737713
20
23.6226492076553
30
0
41
1
10
182.744650385108
20
23.6227190183634
30
0
41
1
10
182.744682059141
20
23.6227888169015
30
0
41
1
10
182.744769272591
20
23.6229807126375
30
0
41
1
10
182.745103667088
20
23.6237127649211
30
0
41
1
10
182.745686484667
20
23.6249632902942
30
0
41
1
10
182.746483868676
20
23.6266209758554
30
0
41
1
10
182.747301424769
20
23.628268730528
30
0
41
1
10
182.748418233248
20
23.6304521631925
30
0
41
1
10
182.749864064963
20
23.6331553803735
30
0
41
1
10
182.75137551271
20
23.635822170784
30
0
41
1
10
182.752467548185
20
23.6376689275171
30
0
41
1
10
182.753101228132
20
23.6387183791349
30
0
41
1
10
182.753441280954
20
23.6392738106295
30
0
41
1
10
182.753642436881
20
23.6395998362974
30
0
41
1
10
182.753722999185
20
23.6397301843825
30
0
41
1
10
182.753803711305
20
23.6398604390866
30
0
41
1
10
182.753884573078
20
23.6399906001943
30
0
41
1
10
182.753965534564
20
23.6401206988327
30
0
41
1
10
182.754107478772
20
23.6403482072788
30
0
41
1
10
182.754311002836
20
23.6406727492078
30
0
41
1
10
182.75463823064
20
23.6411910087381
30
0
41
1
10
182.755050238776
20
23.6418369353632
30
0
41
1
10
182.755715767028
20
23.6428663325722
30
0
41
1
10
182.756306356266
20
23.6437616447829
30
0
41
1
10
182.75677574568
20
23.6444614986761
30
0
41
1
10
182.756947015612
20
23.6447155959277
30
0
41
1
10
182.757204502725
20
23.64509634587
30
0
41
1
10
182.758801305637
20
23.6474381865586
30
0
41
1
10
182.761135775207
20
23.6506669838942
30
0
41
1
10
182.764151803835
20
23.6545313642353
30
0
41
1
10
182.76648389984
20
23.6573731221199
30
0
41
1
10
182.768484589357
20
23.6596926764349
30
0
41
1
10
182.769914554397
20
23.661290089062
30
0
41
1
10
182.77063683406
20
23.6620821299855
30
0
41
1
10
182.770999788996
20
23.662476472032
30
0
41
1
10
182.771181719092
20
23.662673221943
30
0
41
1
10
182.771285808305
20
23.6627855299303
30
0
41
1
10
182.771363939754
20
23.6628697006002
30
0
41
1
10
182.771442135699
20
23.6629538108957
30
0
41
1
10
182.771546482889
20
23.6630658773975
30
0
41
1
10
182.771729315856
20
23.6632617821517
30
0
41
1
10
182.772095881913
20
23.6636527439095
30
0
41
1
10
182.772832603169
20
23.6644312663874
30
0
41
1
10
182.77432031143
20
23.6659746269048
30
0
41
1
10
182.776485849278
20
23.6681398704643
30
0
41
1
10
182.779147218583
20
23.6706734031378
30
0
41
1
10
182.782777128652
20
23.6739631430912
30
0
41
1
10
182.785705812462
20
23.676427477713
30
0
41
1
10
182.787859154606
20
23.6781455137342
30
0
41
1
10
182.788158957426
20
23.6783832077708
30
0
41
1
10
182.788399234574
20
23.6785728083198
30
0
41
1
10
182.78863980111
20
23.6787620386041
30
0
41
1
10
182.789302550575
20
23.6792808925727
30
0
41
1
10
182.790393524427
20
23.6801215631252
30
0
41
1
10
182.791617055237
20
23.6810406206524
30
0
41
1
10
182.792479388249
20
23.6816759946802
30
0
41
1
10
182.792912008764
20
23.681991680098
30
0
41
1
10
182.793159634297
20
23.6821714984469
30
0
41
1
10
182.793314572337
20
23.6822836457336
30
0
41
1
10
182.793872812994
20
23.6826867293699
30
0
41
1
10
182.794869632515
20
23.6833971889091
30
0
41
1
10
182.796848587653
20
23.6847723436896
30
0
41
1
10
182.798884377857
20
23.6861319846919
30
0
41
1
10
182.800944634203
20
23.6874537265602
30
0
41
1
10
182.80302088233
20
23.6887500165054
30
0
41
1
10
182.805645578995
20
23.6903223081421
30
0
41
1
10
182.807908520203
20
23.691603486005
30
0
41
1
10
182.809149190047
20
23.6922834394737
30
0
41
1
10
182.80933380619
20
23.6923841587758
30
0
41
1
10
182.809400960276
20
23.6924207452474
30
0
41
1
10
182.809468128314
20
23.6924573058937
30
0
41
1
10
182.809552114505
20
23.6925029582689
30
0
41
1
10
182.809888198498
20
23.6926853093475
30
0
41
1
10
182.810729972648
20
23.6931382785225
30
0
41
1
10
182.813707535497
20
23.6947053328751
30
0
41
1
10
182.825256997746
20
23.7003375013258
30
0
41
1
10
182.846179546773
20
23.7075179985377
30
0
41
1
10
182.865660387777
20
23.7101359355773
30
0
41
1
10
182.875434548463
20
23.7104785605812
30
0
0
SPLINE
5
231
100
AcDbEntity
8
1
62
256
6
ByLayer
370
-1
48
1
60
0
100
AcDbSpline
70
4
71
3
72
16
73
12
40
0
40
0
40
0
40
0
40
0.0319528420423004
40
0.215044192449627
40
0.398135542856955
40
0.581226893264281
40
0.764318243671609
40
0.855863918875272
40
0.947409594078936
40
0.993182431680767
40
1
40
1
40
1
40
1
41
1
10
195.029613552041
20
23.9854334472738
30
0
41
1
10
195.033067950052
20
23.9855535965437
30
0
41
1
10
195.056316624819
20
23.986362504023
30
0
41
1
10
195.099358820094
20
23.987859727168
30
0
41
1
10
195.158740797899
20
23.9899254890523
30
0
41
1
10
195.218122840791
20
23.991991287541
30
0
41
1
10
195.267607819943
20
23.9937127519636
30
0
41
1
10
195.307195670888
20
23.995089955475
30
0
41
1
10
195.331938235975
20
23.9959506763371
30
0
41
1
10
195.347520995729
20
23.9964927125895
30
0
41
1
10
195.353206532897
20
23.9966905244735
30
0
41
1
10
195.353943576546
20
23.996716168746
30
0
0
SPLINE
5
232
100
AcDbEntity
8
1
62
256
6
ByLayer
370
-1
48
1
60
0
100
AcDbSpline
70
4
71
3
72
9
73
5
40
0
40
0
40
0
40
0
40
0.625000000001472
40
1
40
1
40
1
40
1
41
1
10
181.391394210032
20
11.0998532191705
30
0
41
1
10
181.370811653704
20
11.0991261463225
30
0
41
1
10
181.337879563579
20
11.0979628297658
30
0
41
1
10
181.304947473455
20
11.096799513209
30
0
41
1
10
181.292597939658
20
11.0963632695002
30
0
0
SPLINE
5
233
100
AcDbEntity
8
1
62
256
6
ByLayer
370
-1
48
1
60
0
100
AcDbSpline
70
4
71
3
72
8
73
4
40
0
40
0
40
0
40
0
40
1
40
1
40
1
40
1
41
1
10
181.296174033188
20
11.0054281224708
30
0
41
1
10
181.296890066285
20
10.9891106858916
30
0
41
1
10
181.29768574999
20
10.9727965761
30
0
41
1
10
181.298560641457
20
10.9564869510498
30
0
0
SPLINE
5
234
100
AcDbEntity
8
1
62
256
6
ByLayer
370
-1
48
1
60
0
100
AcDbSpline
70
4
71
3
72
8
73
4
40
0
40
0
40
0
40
0
40
1
40
1
40
1
40
1
41
1
10
196.473038758428
20
10.8574412166263
30
0
41
1
10
196.568148949279
20
10.9598304571877
30
0
41
1
10
196.635335693427
20
11.086675643964
30
0
41
1
10
196.666712048602
20
11.2230790611678
30
0
0
SPLINE
5
235
100
AcDbEntity
8
1
62
256
6
ByLayer
370
-1
48
1
60
0
100
AcDbSpline
70
4
71
3
72
20
73
16
40
0
40
0
40
0
40
0
40
0.000636994073175
40
0.0022970655115917
40
0.0039571369500083
40
0.0172377084573415
40
0.043798851472008
40
0.150043423530674
40
0.362532567648005
40
0.468777139706671
40
0.521899425736004
40
0.575021711765337
40
0.787510855882668
40
0.893755427941334
40
1
40
1
40
1
40
1
41
1
10
195.180148427551
20
25.9421326000596
30
0
41
1
10
195.179926178027
20
25.942130188021
30
0
41
1
10
195.179124018091
20
25.9421131183991
30
0
41
1
10
195.177743729139
20
25.9420577850304
30
0
41
1
10
195.171964386758
20
25.9418590538551
30
0
41
1
10
195.157491846372
20
25.9413469602612
30
0
41
1
10
195.106582130941
20
25.9395688621004
30
0
41
1
10
194.986195297088
20
25.9353527088328
30
0
41
1
10
194.837970416366
20
25.9301909376828
30
0
41
1
10
194.708215194919
20
25.9256865614723
30
0
41
1
10
194.634051524226
20
25.9231185125046
30
0
41
1
10
194.522821166062
20
25.9192532701106
30
0
41
1
10
194.393096083724
20
25.9147056615419
30
0
41
1
10
194.244905742419
20
25.9094585067479
30
0
41
1
10
194.170832487074
20
25.9068146694434
30
0
41
1
10
194.133802942056
20
25.9054913367888
30
0
0
SPLINE
5
236
100
AcDbEntity
8
1
62
256
6
ByLayer
370
-1
48
1
60
0
100
AcDbSpline
70
4
71
3
72
14
73
10
40
0
40
0
40
0
40
0
40
0.0107070020616547
40
0.0461693850894045
40
0.117094151144904
40
0.400793215366903
40
0.684492279588901
40
0.9681913438109
40
1
40
1
40
1
40
1
41
1
10
194.180688865519
20
24.7800924418411
30
0
41
1
10
194.180729014075
20
24.7786043297565
30
0
41
1
10
194.180901135283
20
24.7721884997395
30
0
41
1
10
194.18132146219
20
24.7559332482499
30
0
41
1
10
194.182583792627
20
24.7019501903297
30
0
41
1
10
194.183892782616
20
24.6148402036654
30
0
41
1
10
194.183982565637
20
24.5038785482901
30
0
41
1
10
194.182886115638
20
24.4310793166579
30
0
41
1
10
194.181967161405
20
24.3948375864797
30
0
41
1
10
194.181872780209
20
24.3911944222168
30
0
0
SPLINE
5
237
100
AcDbEntity
8
1
62
256
6
ByLayer
370
-1
48
1
60
0
100
AcDbSpline
70
4
71
3
72
20
73
16
40
0
40
0
40
0
40
0
40
0.0006369940731729
40
0.0022970655115896
40
0.0039571369500062
40
0.0172377084573395
40
0.043798851472006
40
0.150043423530672
40
0.362532567648004
40
0.46877713970667
40
0.521899425736003
40
0.575021711765336
40
0.787510855882668
40
0.893755427941334
40
1
40
1
40
1
40
1
41
1
10
196.574860607189
20
11.6320704274872
30
0
41
1
10
196.57485822142
20
11.6322935431252
30
0
41
1
10
196.574841277958
20
11.6330988286203
30
0
41
1
10
196.574786255554
20
11.6344844908397
30
0
41
1
10
196.574588671006
20
11.640286301256
30
0
41
1
10
196.574079163659
20
11.654814764407
30
0
41
1
10
196.572306885389
20
11.7059179967558
30
0
41
1
10
196.568079503606
20
11.8267373123302
30
0
41
1
10
196.562828887079
20
11.9754194861373
30
0
41
1
10
196.558183629179
20
12.1055117256301
30
0
41
1
10
196.555513437352
20
12.1798463469386
30
0
41
1
10
196.551513102727
20
12.2913512141415
30
0
41
1
10
196.546858843633
20
12.42144739618
30
0
41
1
10
196.541561002911
20
12.5701328776953
30
0
41
1
10
196.538914089918
20
12.6444758943758
30
0
41
1
10
196.537596260921
20
12.6816473560045
30
0
0
SPLINE
5
238
100
AcDbEntity
8
1
62
256
6
ByLayer
370
-1
48
1
60
0
100
AcDbSpline
70
4
71
3
72
25
73
21
40
0
40
0
40
0
40
0
40
0.125
40
0.1875
40
0.25
40
0.265625
40
0.2734375
40
0.28125
40
0.3125
40
0.375
40
0.5
40
0.625
40
0.65625
40
0.6875
40
0.75
40
0.765625
40
0.78125
40
0.8125
40
0.875
40
1
40
1
40
1
40
1
41
1
10
181.442397015765
20
10.7205116675469
30
0
41
1
10
181.437788980125
20
10.7327615848673
30
0
41
1
10
181.431800471325
20
10.7516160921119
30
0
41
1
10
181.425765723033
20
10.7774113747957
30
0
41
1
10
181.423131365523
20
10.7919811676825
30
0
41
1
10
181.421792782245
20
10.8012404371194
30
0
41
1
10
181.421364972433
20
10.8042386343284
30
0
41
1
10
181.420601996053
20
10.8108133090254
30
0
41
1
10
181.418997235834
20
10.8243710274271
30
0
41
1
10
181.41556616498
20
10.8541675997499
30
0
41
1
10
181.410845490362
20
10.8964416932321
30
0
41
1
10
181.406779492592
20
10.9347262580894
30
0
41
1
10
181.404170294386
20
10.9600321635617
30
0
41
1
10
181.402461510042
20
10.9768735240681
30
0
41
1
10
181.401011507578
20
10.9916063512691
30
0
41
1
10
181.399807861944
20
11.0042851637116
30
0
41
1
10
181.399015126298
20
11.0127496442177
30
0
41
1
10
181.397651333639
20
11.0275881880667
30
0
41
1
10
181.395001592653
20
11.0573368557109
30
0
41
1
10
181.392809282049
20
11.0828353255944
30
0
41
1
10
181.391394210032
20
11.0998532191705
30
0
0
SPLINE
5
239
100
AcDbEntity
8
1
62
256
6
ByLayer
370
-1
48
1
60
0
100
AcDbSpline
70
4
71
3
72
17
73
13
40
0
40
0
40
0
40
0
40
0.0032703186403205
40
0.0092094466333953
40
0.0210877026195448
40
0.0448442145918438
40
0.0923572385364419
40
0.282409334314834
40
0.662513525871619
40
0.852565621650011
40
0.947591669539207
40
1
40
1
40
1
40
1
41
1
10
182.875225179711
20
23.739142381229
30
0
41
1
10
182.875232303099
20
23.7394226792852
30
0
41
1
10
182.875252917492
20
23.7402086181475
30
0
41
1
10
182.875301338427
20
23.7420006127224
30
0
41
1
10
182.87539371483
20
23.7455525634177
30
0
41
1
10
182.875580634504
20
23.7526430492647
30
0
41
1
10
182.876165968171
20
23.7749406165838
30
0
41
1
10
182.877551137045
20
23.8276337157693
30
0
41
1
10
182.879254259195
20
23.8924972481095
30
0
41
1
10
182.880747537694
20
23.9492341374911
30
0
41
1
10
182.881500808589
20
23.9780468589088
30
0
41
1
10
182.881834696404
20
23.9906050218238
30
0
41
1
10
182.881950759909
20
23.9950851346619
30
0
0
SPLINE
5
23A
100
AcDbEntity
8
1
62
256
6
ByLayer
370
-1
48
1
60
0
100
AcDbSpline
70
4
71
3
72
91
73
87
40
0
40
0
40
0
40
0
40
0.0276322771566308
40
0.0681475989417712
40
0.0782764293880563
40
0.0833408446111988
40
0.0839738965140916
40
0.0846069484169844
40
0.0849234743684309
40
0.0852400003198773
40
0.0858730522227701
40
0.0884052598343414
40
0.0985340902806265
40
0.108662920726912
40
0.118791751173197
40
0.128920581619482
40
0.149178242512052
40
0.169435903404622
40
0.179564733850907
40
0.18462914907405
40
0.189693564297192
40
0.190326616200085
40
0.190959668102978
40
0.192225771908764
40
0.192858823811656
40
0.193491875714549
40
0.194757979520335
40
0.197290187131906
40
0.199822394743477
40
0.20488680996662
40
0.209951225189763
40
0.220080055636048
40
0.222612263247619
40
0.223878367053404
40
0.22514447085919
40
0.230208886082333
40
0.270724207867473
40
0.290981868760043
40
0.311239529652613
40
0.331497190545184
40
0.341626020991469
40
0.346690436214611
40
0.349222643826183
40
0.350488747631968
40
0.351121799534861
40
0.351754851437754
40
0.352387903340647
40
0.353020955243539
40
0.354287059049325
40
0.356819266660896
40
0.361883681884039
40
0.372012512330324
40
0.392270173222894
40
0.412527834115464
40
0.432785495008035
40
0.473300816793175
40
0.475833024404746
40
0.478365232016317
40
0.479631335822103
40
0.480897439627889
40
0.48342964723946
40
0.493558477685745
40
0.50368730813203
40
0.508751723355173
40
0.511283930966744
40
0.51255003477253
40
0.513816138578315
40
0.514449190481208
40
0.5239449690246
40
0.534073799470886
40
0.554331460363456
40
0.564460290809741
40
0.574589121256026
40
0.594846782148596
40
0.615104443041166
40
0.617636650652738
40
0.61826970255563
40
0.618586228507077
40
0.618902754458523
40
0.619535806361416
40
0.620168858264309
40
0.625233273487451
40
0.635362103933736
40
0.675877425718877
40
0.837938712859438
40
1
40
1
40
1
40
1
41
1
10
194.716812754803
20
12.5657945872804
30
0
41
1
10
194.716281468818
20
12.5642078958181
30
0
41
1
10
194.71490591183
20
12.5603167861513
30
0
41
1
10
194.713142650951
20
12.5559161153404
30
0
41
1
10
194.711793066739
20
12.5528251473998
30
0
41
1
10
194.711401639656
20
12.5519506186294
30
0
41
1
10
194.711243869021
20
12.5516013524927
30
0
41
1
10
194.711204359731
20
12.5515140663077
30
0
41
1
10
194.711172712335
20
12.5514442555996
30
0
41
1
10
194.711141038302
20
12.5513744570616
30
0
41
1
10
194.711053824852
20
12.5511825613255
30
0
41
1
10
194.710719430355
20
12.5504505090419
30
0
41
1
10
194.710136612776
20
12.5491999836688
30
0
41
1
10
194.709339228767
20
12.5475422981076
30
0
41
1
10
194.708521672674
20
12.545894543435
30
0
41
1
10
194.707404864196
20
12.5437111107705
30
0
41
1
10
194.70595903248
20
12.5410078935895
30
0
41
1
10
194.704447584733
20
12.538341103179
30
0
41
1
10
194.703355549259
20
12.5364943464459
30
0
41
1
10
194.702721869311
20
12.5354448948281
30
0
41
1
10
194.702381816489
20
12.5348894633335
30
0
41
1
10
194.702180660562
20
12.5345634376656
30
0
41
1
10
194.702100098259
20
12.5344330895805
30
0
41
1
10
194.702019386139
20
12.5343028348764
30
0
41
1
10
194.701938524366
20
12.5341726737686
30
0
41
1
10
194.701857562879
20
12.5340425751303
30
0
41
1
10
194.701715618671
20
12.5338150666842
30
0
41
1
10
194.701512094607
20
12.5334905247552
30
0
41
1
10
194.701184866804
20
12.5329722652249
30
0
41
1
10
194.700772858667
20
12.5323263385998
30
0
41
1
10
194.700107330415
20
12.5312969413909
30
0
41
1
10
194.699516741177
20
12.5304016291801
30
0
41
1
10
194.699047351763
20
12.5297017752869
30
0
41
1
10
194.698876081831
20
12.5294476780353
30
0
41
1
10
194.698618594719
20
12.529066928093
30
0
41
1
10
194.697021791806
20
12.5267250874044
30
0
41
1
10
194.694687322236
20
12.5234962900688
30
0
41
1
10
194.691671293609
20
12.5196319097277
30
0
41
1
10
194.689339197603
20
12.5167901518431
30
0
41
1
10
194.687338508086
20
12.5144705975281
30
0
41
1
10
194.685908543046
20
12.5128731849009
30
0
41
1
10
194.685186263383
20
12.5120811439774
30
0
41
1
10
194.684823308448
20
12.5116868019309
30
0
41
1
10
194.684641378351
20
12.51149005202
30
0
41
1
10
194.684537289138
20
12.5113777440327
30
0
41
1
10
194.68445915769
20
12.5112935733628
30
0
41
1
10
194.684380961744
20
12.5112094630672
30
0
41
1
10
194.684276614555
20
12.5110973965655
30
0
41
1
10
194.684093781588
20
12.5109014918113
30
0
41
1
10
194.68372721553
20
12.5105105300535
30
0
41
1
10
194.682990494274
20
12.5097320075756
30
0
41
1
10
194.681502786013
20
12.5081886470581
30
0
41
1
10
194.679337248165
20
12.5060234034987
30
0
41
1
10
194.67667587886
20
12.5034898708253
30
0
41
1
10
194.673045968791
20
12.5002001308718
30
0
41
1
10
194.670117284982
20
12.49773579625
30
0
41
1
10
194.667963942838
20
12.4960177602288
30
0
41
1
10
194.667664140017
20
12.4957800661922
30
0
41
1
10
194.667423862869
20
12.4955904656432
30
0
41
1
10
194.667183296334
20
12.4954012353589
30
0
41
1
10
194.666520546868
20
12.4948823813903
30
0
41
1
10
194.665429573016
20
12.4940417108378
30
0
41
1
10
194.664206042207
20
12.4931226533106
30
0
41
1
10
194.663343709195
20
12.4924872792828
30
0
41
1
10
194.662911088679
20
12.492171593865
30
0
41
1
10
194.662663463147
20
12.4919917755161
30
0
41
1
10
194.662508525106
20
12.4918796282294
30
0
41
1
10
194.661950284449
20
12.4914765445931
30
0
41
1
10
194.660953464928
20
12.4907660850539
30
0
41
1
10
194.65897450979
20
12.4893909302733
30
0
41
1
10
194.656938719586
20
12.4880312892711
30
0
41
1
10
194.65487846324
20
12.4867095474028
30
0
41
1
10
194.652802215113
20
12.4854132574576
30
0
41
1
10
194.650177518449
20
12.4838409658209
30
0
41
1
10
194.647914577241
20
12.482559787958
30
0
41
1
10
194.646673907396
20
12.4818798344893
30
0
41
1
10
194.646489291253
20
12.4817791151872
30
0
41
1
10
194.646422137167
20
12.4817425287156
30
0
41
1
10
194.646354969129
20
12.4817059680693
30
0
41
1
10
194.646270982939
20
12.4816603156941
30
0
41
1
10
194.645934898945
20
12.4814779646155
30
0
41
1
10
194.645093124795
20
12.4810249954405
30
0
41
1
10
194.642115561946
20
12.4794579410878
30
0
41
1
10
194.630566099698
20
12.4738257726372
30
0
41
1
10
194.60964355067
20
12.4666452754253
30
0
41
1
10
194.590162709666
20
12.4640273383857
30
0
41
1
10
194.58038854898
20
12.4636847133818
30
0
0
SPLINE
5
23B
100
AcDbEntity
8
1
62
256
6
ByLayer
370
-1
48
1
60
0
100
AcDbSpline
70
4
71
3
72
8
73
4
40
0
40
0
40
0
40
0
40
1
40
1
40
1
40
1
41
1
10
181.376211440682
20
25.5361671740573
30
0
41
1
10
181.242841615132
20
25.4952388898162
30
0
41
1
10
181.121467342698
20
25.4191121801413
30
0
41
1
10
181.026362209893
20
25.3167220578085
30
0
0
SPLINE
5
23C
100
AcDbEntity
8
1
62
256
6
ByLayer
370
-1
48
1
60
0
100
AcDbSpline
70
4
71
3
72
8
73
4
40
0
40
0
40
0
40
0
40
1
40
1
40
1
40
1
41
1
10
181.328960966742
20
10.6854270629801
30
0
41
1
10
181.369732476507
20
10.551548820295
30
0
41
1
10
181.445567591562
20
10.429712834659
30
0
41
1
10
181.547571028079
20
10.334241464957
30
0
0
SPLINE
5
23D
100
AcDbEntity
8
1
62
256
6
ByLayer
370
-1
48
1
60
0
100
AcDbSpline
70
4
71
3
72
16
73
12
40
0
40
0
40
0
40
0
40
0.0068174563922115
40
0.0525902990102527
40
0.144135984246335
40
0.235681669482418
40
0.418773039954582
40
0.601864410426747
40
0.784955780898912
40
0.968047151371077
40
1
40
1
40
1
40
1
41
1
10
181.769731583875
20
23.5205330019875
30
0
41
1
10
181.770457668571
20
23.5205586461169
30
0
41
1
10
181.776058275494
20
23.5207564589358
30
0
41
1
10
181.791400020963
20
23.5212984766218
30
0
41
1
10
181.815765989801
20
23.5221592051814
30
0
41
1
10
181.85475388791
20
23.52353640864
30
0
41
1
10
181.903486243606
20
23.5252578717594
30
0
41
1
10
181.961967809333
20
23.5273236769147
30
0
41
1
10
182.020446598713
20
23.5293894318795
30
0
41
1
10
182.062827908018
20
23.5308866565888
30
0
41
1
10
182.085731101065
20
23.5316955640741
30
0
41
1
10
182.089131768044
20
23.5318157133552
30
0
0
SPLINE
5
23E
100
AcDbEntity
8
1
62
256
6
ByLayer
370
-1
48
1
60
0
100
AcDbSpline
70
4
71
3
72
8
73
4
40
0
40
0
40
0
40
0
40
1
40
1
40
1
40
1
41
1
10
181.026362210389
20
25.3167220573367
30
0
41
1
10
180.931257900369
20
25.2143328167753
30
0
41
1
10
180.864073053036
20
25.087487629999
30
0
41
1
10
180.832688920218
20
24.9510842127952
30
0
0
SPLINE
5
23F
100
AcDbEntity
8
1
62
256
6
ByLayer
370
-1
48
1
60
0
100
AcDbSpline
70
4
71
3
72
25
73
21
40
0
40
0
40
0
40
0
40
0.125
40
0.1875
40
0.25
40
0.265625
40
0.2734375
40
0.28125
40
0.3125
40
0.375
40
0.5
40
0.625
40
0.65625
40
0.6875
40
0.75
40
0.765625
40
0.78125
40
0.8125
40
0.875
40
1
40
1
40
1
40
1
41
1
10
196.087354592786
20
10.7527526706214
30
0
41
1
10
196.075149334497
20
10.7481289961062
30
0
41
1
10
196.056366222331
20
10.742117965534
30
0
41
1
10
196.030673612145
20
10.7360556345841
30
0
41
1
10
196.016163603339
20
10.7334068560507
30
0
41
1
10
196.006942985386
20
10.7320597293813
30
0
41
1
10
196.003957418622
20
10.7316290593404
30
0
41
1
10
195.997410187797
20
10.7308607340007
30
0
41
1
10
195.983909111368
20
10.7292447738035
30
0
41
1
10
195.954236983338
20
10.7257894952323
30
0
41
1
10
195.912139481481
20
10.7210350023972
30
0
41
1
10
195.87401481717
20
10.7169392026543
30
0
41
1
10
195.848814664444
20
10.714310545478
30
0
41
1
10
195.832043692937
20
10.7125889072433
30
0
41
1
10
195.817372446319
20
10.7111278272006
30
0
41
1
10
195.804746619821
20
10.7099148264972
30
0
41
1
10
195.79631751101
20
10.7091158888618
30
0
41
1
10
195.781540970593
20
10.7077413272877
30
0
41
1
10
195.751916596686
20
10.7050703312796
30
0
41
1
10
195.726524665414
20
10.7028601008464
30
0
41
1
10
195.709577874643
20
10.7014332546675
30
0
0
SPLINE
5
240
100
AcDbEntity
8
1
62
256
6
ByLayer
370
-1
48
1
60
0
100
AcDbSpline
70
4
71
3
72
15
73
11
40
0
40
0
40
0
40
0
40
0.250139710793276
40
0.500351579587053
40
0.750563448380831
40
0.87566938277772
40
0.938222349976165
40
0.969498833575387
40
0.985137075374998
40
1
40
1
40
1
40
1
41
1
10
196.370291421235
20
10.9529141032396
30
0
41
1
10
196.37885184726
20
10.9449597503041
30
0
41
1
10
196.395975168258
20
10.929048750284
30
0
41
1
10
196.421656351244
20
10.9051857798342
30
0
41
1
10
196.443083727643
20
10.8852754489848
30
0
41
1
10
196.458031036402
20
10.8713864008269
30
0
41
1
10
196.465580207365
20
10.8643717066945
30
0
41
1
10
196.469241517972
20
10.8609696147085
30
0
41
1
10
196.471506734172
20
10.8588647744729
30
0
41
1
10
196.472109550235
20
10.85830463743
30
0
41
1
10
196.473043360785
20
10.8574369401135
30
0
0
SPLINE
5
241
100
AcDbEntity
8
1
62
256
6
ByLayer
370
-1
48
1
60
0
100
AcDbSpline
70
4
71
3
72
15
73
11
40
0
40
0
40
0
40
0
40
0.424997863749043
40
0.849995727498087
40
0.956245193435348
40
0.982807559919663
40
0.99608874316182
40
0.99774889106709
40
0.99940903897236
40
1
40
1
40
1
40
1
41
1
10
182.833880921759
20
25.5093820492155
30
0
41
1
10
182.685757321074
20
25.5041897006457
30
0
41
1
10
182.389513142936
20
25.4938078299735
30
0
41
1
10
182.056224414571
20
25.4821151514608
30
0
41
1
10
181.861824508561
20
25.4753116778187
30
0
41
1
10
181.810898727247
20
25.4735190784325
30
0
41
1
10
181.79644108792
20
25.4730190526722
30
0
41
1
10
181.790649009037
20
25.4728106363296
30
0
41
1
10
181.789286974407
20
25.4727705102955
30
0
41
1
10
181.788504160004
20
25.4727320867881
30
0
41
1
10
181.788298579338
20
25.4727199696626
30
0
0
SPLINE
5
242
100
AcDbEntity
8
1
62
256
6
ByLayer
370
-1
48
1
60
0
100
AcDbSpline
70
4
71
3
72
17
73
13
40
0
40
0
40
0
40
0
40
0.0524083454184136
40
0.147434401200748
40
0.337486512765416
40
0.717590735894752
40
0.907642847459419
40
0.955155875350586
40
0.97891238929617
40
0.990790646268962
40
0.996729774755358
40
1
40
1
40
1
40
1
41
1
10
182.464204888234
20
23.5453963314543
30
0
41
1
10
182.468396037047
20
23.545552780491
30
0
41
1
10
182.48013565418
20
23.5459913212621
30
0
41
1
10
182.50708312342
20
23.5469974834213
30
0
41
1
10
182.560137001055
20
23.5489787769478
30
0
41
1
10
182.620794682294
20
23.5512438787162
30
0
41
1
10
182.670067933113
20
23.553083928836
30
0
41
1
10
182.690920687579
20
23.5538626095771
30
0
41
1
10
182.697549478334
20
23.55411017992
30
0
41
1
10
182.700873755149
20
23.5542342717934
30
0
41
1
10
182.70254566807
20
23.554296772351
30
0
41
1
10
182.703281020062
20
23.5543242289735
30
0
41
1
10
182.703543580852
20
23.5543340234327
30
0
0
SPLINE
5
243
100
AcDbEntity
8
1
62
256
6
ByLayer
370
-1
48
1
60
0
100
AcDbSpline
70
4
71
3
72
14
73
10
40
0
40
0
40
0
40
0
40
0.136649739226089
40
0.273299478452178
40
0.546598956904356
40
0.6149238265174
40
0.683248696130445
40
0.819898435356534
40
1
40
1
40
1
40
1
41
1
10
182.731311376021
20
23.555335012023
30
0
41
1
10
182.731226045718
20
23.557787886121
30
0
41
1
10
182.731175719471
20
23.5626978370874
30
0
41
1
10
182.731554909488
20
23.5725109217259
30
0
41
1
10
182.732514531952
20
23.5810574108424
30
0
41
1
10
182.733782713356
20
23.5883101269215
30
0
41
1
10
182.734746249882
20
23.5931229825005
30
0
41
1
10
182.736351827775
20
23.5998510898736
30
0
41
1
10
182.737983651878
20
23.6053024633813
30
0
41
1
10
182.73901034264
20
23.6083686866826
30
0
0
SPLINE
5
244
100
AcDbEntity
8
1
62
256
6
ByLayer
370
-1
48
1
60
0
100
AcDbSpline
70
4
71
3
72
8
73
4
40
0
40
0
40
0
40
0
40
1
40
1
40
1
40
1
41
1
10
181.292597939658
20
11.0963632695002
30
0
41
1
10
181.293652598613
20
11.066046423783
30
0
41
1
10
181.294844163857
20
11.0357340657752
30
0
41
1
10
181.296174033187
20
11.0054281224708
30
0
0
SPLINE
5
245
100
AcDbEntity
8
1
62
256
6
ByLayer
370
-1
48
1
60
0
100
AcDbSpline
70
4
71
3
72
8
73
4
40
0
40
0
40
0
40
0
40
1
40
1
40
1
40
1
41
1
10
182.183309372353
20
10.1282957004423
30
0
41
1
10
182.130166377628
20
10.1274413354316
30
0
41
1
10
182.077019472874
20
10.1270242284719
30
0
41
1
10
182.023865375169
20
10.1270141663743
30
0
0
SPLINE
5
246
100
AcDbEntity
8
1
62
256
6
ByLayer
370
-1
48
1
60
0
100
AcDbSpline
70
4
71
3
72
15
73
11
40
0
40
0
40
0
40
0
40
0.424997863749052
40
0.849995727498103
40
0.956245193435366
40
0.982807559919682
40
0.99608874316184
40
0.99774889106711
40
0.99940903897238
40
1
40
1
40
1
40
1
41
1
10
194.663995019168
20
10.6647812247476
30
0
41
1
10
194.812118619853
20
10.6699735733173
30
0
41
1
10
195.108362839452
20
10.6803554439895
30
0
41
1
10
195.441651422704
20
10.6920481225021
30
0
41
1
10
195.636051497148
20
10.6988515961443
30
0
41
1
10
195.686977165093
20
10.7006441955305
30
0
41
1
10
195.701434907667
20
10.7011442212908
30
0
41
1
10
195.70722690456
20
10.7013526376334
30
0
41
1
10
195.708589055327
20
10.7013927636676
30
0
41
1
10
195.709371702311
20
10.7014311871749
30
0
41
1
10
195.709577208163
20
10.7014433043005
30
0
0
SPLINE
5
247
100
AcDbEntity
8
1
62
256
6
ByLayer
370
-1
48
1
60
0
100
AcDbSpline
70
4
71
3
72
8
73
4
40
0
40
0
40
0
40
0
40
1
40
1
40
1
40
1
41
1
10
181.785583910871
20
25.5726691019974
30
0
41
1
10
181.755382429905
20
25.5716104144164
30
0
41
1
10
181.725185253955
20
25.5704141313379
30
0
41
1
10
181.694994759821
20
25.5690793085106
30
0
0
SPLINE
5
248
100
AcDbEntity
8
1
62
256
6
ByLayer
370
-1
48
1
60
0
100
AcDbSpline
70
4
71
3
72
17
73
13
40
0
40
0
40
0
40
0
40
0.0524083454183697
40
0.147434401200706
40
0.337486512765379
40
0.717590735894725
40
0.907642847459397
40
0.955155875350566
40
0.97891238929615
40
0.990790646268942
40
0.996729774755338
40
1
40
1
40
1
40
1
41
1
10
195.024452353882
20
12.6287669425087
30
0
41
1
10
195.019717370587
20
12.628610493472
30
0
41
1
10
195.006436233742
20
12.6281719527008
30
0
41
1
10
194.975977556266
20
12.6271657905416
30
0
41
1
10
194.915989588882
20
12.6251844970152
30
0
41
1
10
194.847412868636
20
12.6229193952468
30
0
41
1
10
194.791702855901
20
12.621079345127
30
0
41
1
10
194.768128317548
20
12.6203006643859
30
0
41
1
10
194.760632089491
20
12.620053094043
30
0
41
1
10
194.756876358156
20
12.6199290021696
30
0
41
1
10
194.754982328802
20
12.619866501612
30
0
41
1
10
194.754151155072
20
12.6198390449895
30
0
41
1
10
194.753854897227
20
12.6198292505302
30
0
0
SPLINE
5
249
100
AcDbEntity
8
1
62
256
6
ByLayer
370
-1
48
1
60
0
100
AcDbSpline
70
4
71
3
72
8
73
4
40
0
40
0
40
0
40
0
40
1
40
1
40
1
40
1
41
1
10
194.17535656876
20
24.1065878481545
30
0
41
1
10
194.175002606018
20
24.1167627334145
30
0
41
1
10
194.174928589705
20
24.1269144215476
30
0
41
1
10
194.175147597845
20
24.1352491996087
30
0
0
SPLINE
5
24A
100
AcDbEntity
8
1
62
256
6
ByLayer
370
-1
48
1
60
0
100
AcDbSpline
70
4
71
3
72
8
73
4
40
0
40
0
40
0
40
0
40
1
40
1
40
1
40
1
41
1
10
196.170440002076
20
25.488736210983
30
0
41
1
10
196.129666432315
20
25.6226144536681
30
0
41
1
10
196.053827498247
20
25.7444504393041
30
0
41
1
10
195.951829940754
20
25.839921809006
30
0
0
SPLINE
5
24B
100
AcDbEntity
8
1
62
256
6
ByLayer
370
-1
48
1
60
0
100
AcDbSpline
70
4
71
3
72
12
73
8
40
0
40
0
40
0
40
0
40
0.518100853439295
40
0.777151280158943
40
0.906676493518767
40
0.971439100198679
40
1
40
1
40
1
40
1
41
1
10
183.364072998871
20
10.2686719371742
30
0
41
1
10
183.362814427761
20
10.3461173756827
30
0
41
1
10
183.360926706624
20
10.4622852733251
30
0
41
1
10
183.358723868949
20
10.5978154050651
30
0
41
1
10
183.357623126534
20
10.6655792448798
30
0
41
1
10
183.357080996619
20
10.6988919778431
30
0
41
1
10
183.356854973346
20
10.7128407974782
30
0
41
1
10
183.356784793208
20
10.7171118865938
30
0
0
SPLINE
5
24C
100
AcDbEntity
8
1
62
256
6
ByLayer
370
-1
48
1
60
0
100
AcDbSpline
70
4
71
3
72
8
73
4
40
0
40
0
40
0
40
0
40
1
40
1
40
1
40
1
41
1
10
195.804406129578
20
10.6050839654524
30
0
41
1
10
195.820661541176
20
10.6058026656298
30
0
41
1
10
195.836913635341
20
10.6066013239843
30
0
41
1
10
195.853161138694
20
10.607479616268
30
0
0
SPLINE
5
24D
100
AcDbEntity
8
1
62
256
6
ByLayer
370
-1
48
1
60
0
100
AcDbSpline
70
4
71
3
72
12
73
8
40
0
40
0
40
0
40
0
40
0.518100853439295
40
0.777151280158943
40
0.906676493518767
40
0.971439100198679
40
1
40
1
40
1
40
1
41
1
10
194.133802942056
20
25.9054913367888
30
0
41
1
10
194.137932697029
20
25.8280458982803
30
0
41
1
10
194.144127446917
20
25.7118780006379
30
0
41
1
10
194.151354222631
20
25.5763478688979
30
0
41
1
10
194.154968201606
20
25.5085840290832
30
0
41
1
10
194.156743830765
20
25.4752712961199
30
0
41
1
10
194.157488307371
20
25.4613224764848
30
0
41
1
10
194.157715291551
20
25.4570513873692
30
0
0
SPLINE
5
24E
100
AcDbEntity
8
1
62
256
6
ByLayer
370
-1
48
1
60
0
100
AcDbSpline
70
4
71
3
72
8
73
4
40
0
40
0
40
0
40
0
40
1
40
1
40
1
40
1
41
1
10
182.731311376021
20
23.555335012023
30
0
41
1
10
182.721175209271
20
23.5549796972002
30
0
41
1
10
182.711341290827
20
23.554625192439
30
0
41
1
10
182.703547186557
20
23.5543341355755
30
0
0
SPLINE
5
24F
100
AcDbEntity
8
1
62
256
6
ByLayer
370
-1
48
1
60
0
100
AcDbSpline
70
4
71
3
72
8
73
4
40
0
40
0
40
0
40
0
40
1
40
1
40
1
40
1
41
1
10
181.547571028541
20
10.334241465463
30
0
41
1
10
181.649573587545
20
10.2387709207812
30
0
41
1
10
181.775937038498
20
10.171328486216
30
0
41
1
10
181.911817510696
20
10.1398283747855
30
0
0
SPLINE
5
250
100
AcDbEntity
8
1
62
256
6
ByLayer
370
-1
48
1
60
0
100
AcDbSpline
70
4
71
3
72
8
73
4
40
0
40
0
40
0
40
0
40
1
40
1
40
1
40
1
41
1
10
195.853161138694
20
10.607479616268
30
0
41
1
10
195.90623366624
20
10.6103485611397
30
0
41
1
10
195.959284935274
20
10.6136437365326
30
0
41
1
10
196.012305467347
20
10.6173664412238
30
0
0
SPLINE
5
251
100
AcDbEntity
8
1
62
256
6
ByLayer
370
-1
48
1
60
0
100
AcDbSpline
70
4
71
3
72
14
73
10
40
0
40
0
40
0
40
0
40
0.0318086637758851
40
0.315507725074451
40
0.599206786373016
40
0.882905847671581
40
0.953830612996223
40
0.989292995658543
40
1
40
1
40
1
40
1
41
1
10
182.858806860359
20
12.2023104447866
30
0
41
1
10
182.855398678143
20
12.2021832226696
30
0
41
1
10
182.821474590275
20
12.2009176337206
30
0
41
1
10
182.752581365989
20
12.1983754286377
30
0
41
1
10
182.645812283308
20
12.1945005619494
30
0
41
1
10
182.56075516052
20
12.1914586142501
30
0
41
1
10
182.507593149064
20
12.1895734842796
30
0
41
1
10
182.491544914438
20
12.1890058384532
30
0
41
1
10
182.485204570202
20
12.18878179272
30
0
41
1
10
182.483733740243
20
12.1887298266891
30
0
0
SPLINE
5
252
100
AcDbEntity
8
1
62
256
6
ByLayer
370
-1
48
1
60
0
100
AcDbSpline
70
4
71
3
72
8
73
4
40
0
40
0
40
0
40
0
40
1
40
1
40
1
40
1
41
1
10
196.219159193423
20
-2.34398483301453
30
0
41
1
10
196.236197611057
20
-2.39071018566528
30
0
41
1
10
196.246020430052
20
-2.43890083027816
30
0
41
1
10
196.248627650407
20
-2.48855676685432
30
0
0
SPLINE
5
253
100
AcDbEntity
8
1
62
256
6
ByLayer
370
-1
48
1
60
0
100
AcDbSpline
70
4
71
3
72
14
73
10
40
0
40
0
40
0
40
0
40
0.25
40
0.25
40
0.5
40
0.5
40
0.75
40
0.75
40
1
40
1
40
1
40
1
41
1
10
196.900049096012
20
-12.82806657202
30
0
41
1
10
196.897281137902
20
-12.9071826782997
30
0
41
1
10
196.882713837581
20
-12.9854856874054
30
0
41
1
10
196.83119258203
20
-13.1348387579162
30
0
41
1
10
196.794191993951
20
-13.2057537040366
30
0
41
1
10
196.701264791078
20
-13.3334061081656
30
0
41
1
10
196.645050680333
20
-13.3904941296702
30
0
41
1
10
196.518789999873
20
-13.4854398516778
30
0
41
1
10
196.448681698663
20
-13.5234751781839
30
0
41
1
10
196.374152549057
20
-13.5505509740364
30
0
0
SPLINE
5
254
100
AcDbEntity
8
1
62
256
6
ByLayer
370
-1
48
1
60
0
100
AcDbSpline
70
4
71
3
72
8
73
4
40
0
40
0
40
0
40
0
40
1
40
1
40
1
40
1
41
1
10
195.215718926972
20
-11.7187249008347
30
0
41
1
10
195.232012053792
20
-11.6730676277755
30
0
41
1
10
195.241383652155
20
-11.6248452515668
30
0
41
1
10
195.243054424833
20
-11.5760012505927
30
0
0
SPLINE
5
255
100
AcDbEntity
8
1
62
256
6
ByLayer
370
-1
48
1
60
0
100
AcDbSpline
70
4
71
3
72
10
73
6
40
0
40
0
40
0
40
0
40
0.5
40
0.5
40
1
40
1
40
1
40
1
41
1
10
195.309116394523
20
-9.65136336832384
30
0
41
1
10
195.311237310285
20
-9.58982946403384
30
0
41
1
10
195.306348190819
20
-9.52924090982782
30
0
41
1
10
195.283070160783
20
-9.40988433843651
30
0
41
1
10
195.26443145426
20
-9.35077141544215
30
0
41
1
10
195.239256729067
20
-9.29456196852794
30
0
0
SPLINE
5
256
100
AcDbEntity
8
1
62
256
6
ByLayer
370
-1
48
1
60
0
100
AcDbSpline
70
4
71
3
72
10
73
6
40
0
40
0
40
0
40
0
40
0.5
40
0.5
40
1
40
1
40
1
40
1
41
1
10
195.969495258926
20
-2.26940013804503
30
0
41
1
10
195.978776594975
20
-2.29149552053798
30
0
41
1
10
195.986715793809
20
-2.31622745586265
30
0
41
1
10
195.99691305306
20
-2.36624264400592
30
0
41
1
10
195.999127687973
20
-2.39133039854147
30
0
41
1
10
195.99896371591
20
-2.41397207188493
30
0
0
SPLINE
5
257
100
AcDbEntity
8
1
62
256
6
ByLayer
370
-1
48
1
60
0
100
AcDbSpline
70
4
71
3
72
10
73
6
40
0
40
0
40
0
40
0
40
0.310983025413771
40
0.310983025413771
40
1
40
1
40
1
40
1
41
1
10
195.243054424833
20
-11.5760012505927
30
0
41
1
10
195.249878948477
20
-11.3764905427916
30
0
41
1
10
195.25670929086
20
-11.1769800331587
30
0
41
1
10
195.278696098975
20
-10.5354329147167
30
0
41
1
10
195.293880620664
20
-10.0933972608945
30
0
41
1
10
195.309116394523
20
-9.65136336832384
30
0
0
SPLINE
5
258
100
AcDbEntity
8
1
62
256
6
ByLayer
370
-1
48
1
60
0
100
AcDbSpline
70
4
71
3
72
10
73
6
40
0
40
0
40
0
40
0
40
0.5
40
0.5
40
1
40
1
40
1
40
1
41
1
10
196.003372849133
20
-2.60693052946681
30
0
41
1
10
196.00157120807
20
-2.57261729078186
30
0
41
1
10
196.000361652596
20
-2.53947315707953
30
0
41
1
10
195.998947781894
20
-2.47516979084091
30
0
41
1
10
195.998748269643
20
-2.44372143247955
30
0
41
1
10
195.99896371591
20
-2.41397207188541
30
0
0
SPLINE
5
259
100
AcDbEntity
8
1
62
256
6
ByLayer
370
-1
48
1
60
0
100
AcDbSpline
70
4
71
3
72
18
73
14
40
0
40
0
40
0
40
0
40
0.25
40
0.25
40
0.5
40
0.5
40
0.625
40
0.625
40
0.75
40
0.75
40
0.875
40
0.875
40
1
40
1
40
1
40
1
41
1
10
195.234122725115
20
-0.0570364911574188
30
0
41
1
10
195.24159284348
20
-0.100866657217068
30
0
41
1
10
195.250026716047
20
-0.147049197083646
30
0
41
1
10
195.269720906462
20
-0.245399106285532
30
0
41
1
10
195.280943024462
20
-0.297529829030594
30
0
41
1
10
195.301589457938
20
-0.383922942375705
30
0
41
1
10
195.309117681723
20
-0.414109467868229
30
0
41
1
10
195.326100115559
20
-0.478622645753177
30
0
41
1
10
195.335648962698
20
-0.513294181347703
30
0
41
1
10
195.357361802783
20
-0.587572264522549
30
0
41
1
10
195.369371907614
20
-0.626684631326981
30
0
41
1
10
195.396850299546
20
-0.71082442799468
30
0
41
1
10
195.411779900443
20
-0.754153733922806
30
0
41
1
10
195.428022270532
20
-0.798696043342233
30
0
0
SPLINE
5
25A
100
AcDbEntity
8
1
62
256
6
ByLayer
370
-1
48
1
60
0
100
AcDbSpline
70
4
71
3
72
10
73
6
40
0
40
0
40
0
40
0
40
0.5
40
0.5
40
1
40
1
40
1
40
1
41
1
10
195.359214855558
20
-9.65771681339714
30
0
41
1
10
195.361517845313
20
-9.59230455433192
30
0
41
1
10
195.356368239887
20
-9.52796252441274
30
0
41
1
10
195.331809297203
20
-9.40132625754791
30
0
41
1
10
195.312117594501
20
-9.33855197739783
30
0
41
1
10
195.285440625196
20
-9.27876192425239
30
0
0
SPLINE
5
25B
100
AcDbEntity
8
1
62
256
6
ByLayer
370
-1
48
1
60
0
100
AcDbSpline
70
4
71
3
72
26
73
22
40
0
40
0
40
0
40
0
40
0.125000000000014
40
0.125000000000014
40
0.250000000000029
40
0.250000000000029
40
0.375000000000044
40
0.375000000000044
40
0.437500000000051
40
0.437500000000051
40
0.500000000000058
40
0.500000000000058
40
0.562500000000066
40
0.562500000000066
40
0.625000000000073
40
0.625000000000073
40
0.750000000000049
40
0.750000000000049
40
0.875000000000024
40
0.875000000000024
40
1
40
1
40
1
40
1
41
1
10
196.733036543499
20
-12.6218575174403
30
0
41
1
10
196.738081825135
20
-12.6557131603049
30
0
41
1
10
196.741675098876
20
-12.690810032896
30
0
41
1
10
196.744547880058
20
-12.7646610272734
30
0
41
1
10
196.743907802399
20
-12.8033478387407
30
0
41
1
10
196.735083241764
20
-12.8870774795287
30
0
41
1
10
196.727064744669
20
-12.9319537931802
30
0
41
1
10
196.703305289629
20
-13.0051047294037
30
0
41
1
10
196.693451501215
20
-13.0301715249576
30
0
41
1
10
196.668345469428
20
-13.0811583931967
30
0
41
1
10
196.653224118104
20
-13.106632992142
30
0
41
1
10
196.618138496138
20
-13.1548899361875
30
0
41
1
10
196.59889526607
20
-13.17668642166
30
0
41
1
10
196.559180930843
20
-13.2148015302215
30
0
41
1
10
196.539327425263
20
-13.2306752085703
30
0
41
1
10
196.479778410688
20
-13.2720363354449
30
0
41
1
10
196.442369271321
20
-13.2900533586592
30
0
41
1
10
196.370018194947
20
-13.3175870007829
30
0
41
1
10
196.335820763686
20
-13.3265417200521
30
0
41
1
10
196.269868957876
20
-13.3391150363333
30
0
41
1
10
196.23809689718
20
-13.3426501506535
30
0
41
1
10
196.207139996544
20
-13.3443419194568
30
0
0
SPLINE
5
25C
100
AcDbEntity
8
1
62
256
6
ByLayer
370
-1
48
1
60
0
100
AcDbSpline
70
4
71
3
72
18
73
14
40
0
40
0
40
0
40
0
40
0.125000000000001
40
0.125000000000001
40
0.250000000000003
40
0.250000000000003
40
0.375000000000004
40
0.375000000000004
40
0.500000000000006
40
0.500000000000006
40
0.750000000000003
40
0.750000000000003
40
1
40
1
40
1
40
1
41
1
10
196.674486205877
20
-11.7725841938788
30
0
41
1
10
196.672848913086
20
-11.8193826732289
30
0
41
1
10
196.672205476524
20
-11.8665665631419
30
0
41
1
10
196.672653089568
20
-11.9572990308841
30
0
41
1
10
196.673724768985
20
-12.0010610237805
30
0
41
1
10
196.676931319611
20
-12.0832063413803
30
0
41
1
10
196.679087620539
20
-12.1224102373621
30
0
41
1
10
196.684074793588
20
-12.1970229679284
30
0
41
1
10
196.686882214031
20
-12.2321635111618
30
0
41
1
10
196.695926663942
20
-12.3332913100504
30
0
41
1
10
196.702772247768
20
-12.3950788270181
30
0
41
1
10
196.717331534239
20
-12.5126628231319
30
0
41
1
10
196.72507566369
20
-12.5684371688617
30
0
41
1
10
196.733036543499
20
-12.6218575174405
30
0
0
SPLINE
5
25D
100
AcDbEntity
8
1
62
256
6
ByLayer
370
-1
48
1
60
0
100
AcDbSpline
70
4
71
3
72
10
73
6
40
0
40
0
40
0
40
0
40
0.414631168620572
40
0.414631168620572
40
1
40
1
40
1
40
1
41
1
10
195.291078224377
20
-11.582239567345
30
0
41
1
10
195.30051718826
20
-11.3162542181
30
0
41
1
10
195.309948528799
20
-11.0502675517611
30
0
41
1
10
195.33267232567
20
-10.4087618862753
30
0
41
1
10
195.345955478025
20
-10.0332413110452
30
0
41
1
10
195.359214855558
20
-9.65771681339714
30
0
0
SPLINE
5
25E
100
AcDbEntity
8
1
62
256
6
ByLayer
370
-1
48
1
60
0
100
AcDbSpline
70
4
71
3
72
10
73
6
40
0
40
0
40
0
40
0
40
0.825424594715582
40
0.825424594715582
40
1
40
1
40
1
40
1
41
1
10
195.239256729067
20
-9.29456196852794
30
0
41
1
10
195.180480459567
20
-9.16332790043521
30
0
41
1
10
195.1279277359
20
-9.02978277085037
30
0
41
1
10
195.071764642501
20
-8.86520645333005
30
0
41
1
10
195.062237375892
20
-8.83636619906716
30
0
41
1
10
195.052991524763
20
-8.80743263884079
30
0
0
SPLINE
5
25F
100
AcDbEntity
8
1
62
256
6
ByLayer
370
-1
48
1
60
0
100
AcDbSpline
70
4
71
3
72
10
73
6
40
0
40
0
40
0
40
0
40
0.411501615199944
40
0.411501615199944
40
1
40
1
40
1
40
1
41
1
10
195.216915874656
20
-11.8323191210858
30
0
41
1
10
195.235512738223
20
-11.8013290330436
30
0
41
1
10
195.250956257636
20
-11.7683388555274
30
0
41
1
10
195.279510132679
20
-11.6858949198641
30
0
41
1
10
195.289245459114
20
-11.6342664480515
30
0
41
1
10
195.291078224377
20
-11.582239567345
30
0
0
SPLINE
5
260
100
AcDbEntity
8
1
62
256
6
ByLayer
370
-1
48
1
60
0
100
AcDbSpline
70
4
71
3
72
8
73
4
40
0
40
0
40
0
40
0
40
1
40
1
40
1
40
1
41
1
10
195.285440625196
20
-9.27876192425239
30
0
41
1
10
195.185964297948
20
-9.05567755592611
30
0
41
1
10
195.105128898869
20
-8.82735380232745
30
0
41
1
10
195.042470287746
20
-8.59392046635236
30
0
0
SPLINE
5
261
100
AcDbEntity
8
1
62
256
6
ByLayer
370
-1
48
1
60
0
100
AcDbSpline
70
4
71
3
72
22
73
18
40
0
40
0
40
0
40
0
40
0.098015296087873
40
0.098015296087873
40
0.188213766479098
40
0.188213766479098
40
0.278412236870324
40
0.278412236870324
40
0.368610707261549
40
0.368610707261549
40
0.458809177652774
40
0.458809177652774
40
0.639206118435183
40
0.639206118435183
40
0.819603059217591
40
0.819603059217591
40
1
40
1
40
1
40
1
41
1
10
194.77263962727
20
0.444823849053393
30
0
41
1
10
194.795690666719
20
0.438835548548923
30
0
41
1
10
194.819843617279
20
0.431309752310199
30
0
41
1
10
194.868722827897
20
0.412722190938098
30
0
41
1
10
194.892978957269
20
0.402030873073045
30
0
41
1
10
194.942834367467
20
0.375747220666199
30
0
41
1
10
194.968007078496
20
0.360305233613275
30
0
41
1
10
195.016350050622
20
0.325280912097355
30
0
41
1
10
195.038532258823
20
0.306417922971974
30
0
41
1
10
195.077941548777
20
0.267998338107333
30
0
41
1
10
195.094692863495
20
0.249028255108698
30
0
41
1
10
195.139140548261
20
0.192593965448992
30
0
41
1
10
195.159675491993
20
0.157734220376341
30
0
41
1
10
195.19261388994
20
0.0908614124148244
30
0
41
1
10
195.204420000671
20
0.0595571369424306
30
0
41
1
10
195.222838711928
20
-0.0004606150888833
30
0
41
1
10
195.229375690306
20
-0.0291837432111777
30
0
41
1
10
195.234122725115
20
-0.0570364911585273
30
0
0
SPLINE
5
262
100
AcDbEntity
8
1
62
256
6
ByLayer
370
-1
48
1
60
0
100
AcDbSpline
70
4
71
3
72
18
73
14
40
0
40
0
40
0
40
0
40
0.250000000000025
40
0.250000000000025
40
0.50000000000005
40
0.50000000000005
40
0.625000000000037
40
0.625000000000037
40
0.750000000000025
40
0.750000000000025
40
0.875000000000012
40
0.875000000000012
40
1
40
1
40
1
40
1
41
1
10
196.207139996545
20
-13.3443419194559
30
0
41
1
10
196.158425015239
20
-13.3470041525585
30
0
41
1
10
196.107413048504
20
-13.3506880149854
30
0
41
1
10
195.999756497896
20
-13.3612396315274
30
0
41
1
10
195.943134615907
20
-13.3680552699948
30
0
41
1
10
195.850454474956
20
-13.3825490332505
30
0
41
1
10
195.818248468085
20
-13.3881038046964
30
0
41
1
10
195.749923466036
20
-13.4013701786067
30
0
41
1
10
195.713441382183
20
-13.4091587134042
30
0
41
1
10
195.635993148827
20
-13.4278053610509
30
0
41
1
10
195.595536950914
20
-13.4385246924709
30
0
41
1
10
195.509432623396
20
-13.464147902741
30
0
41
1
10
195.465531230155
20
-13.4785594545572
30
0
41
1
10
195.420905685098
20
-13.4947715293513
30
0
0
SPLINE
5
263
100
AcDbEntity
8
1
62
256
6
ByLayer
370
-1
48
1
60
0
100
AcDbSpline
70
4
71
3
72
14
73
10
40
0
40
0
40
0
40
0
40
0.0891812280517155
40
0.0891812280517155
40
0.39278748536781
40
0.39278748536781
40
0.696393742683905
40
0.696393742683905
40
1
40
1
40
1
40
1
41
1
10
194.79736091319
20
0.526222140756857
30
0
41
1
10
194.819892909227
20
0.520612650651856
30
0
41
1
10
194.842182854944
20
0.514023836926924
30
0
41
1
10
194.93897539507
20
0.480758451220936
30
0
41
1
10
195.010022859032
20
0.443826876696505
30
0
41
1
10
195.137913805556
20
0.351073001789075
30
0
41
1
10
195.195108506708
20
0.294963741692385
30
0
41
1
10
195.290231652557
20
0.1689385628531
30
0
41
1
10
195.328338055185
20
0.0989610277572126
30
0
41
1
10
195.355464447227
20
0.0245708900388877
30
0
0
SPLINE
5
264
100
AcDbEntity
8
1
62
256
6
ByLayer
370
-1
48
1
60
0
100
AcDbSpline
70
4
71
3
72
10
73
6
40
0
40
0
40
0
40
0
40
0.5
40
0.5
40
1
40
1
40
1
40
1
41
1
10
195.896876120423
20
-2.08445872086978
30
0
41
1
10
195.908422947279
20
-2.11612419406174
30
0
41
1
10
195.920635743453
20
-2.14830052535996
30
0
41
1
10
195.945053288452
20
-2.21034752135313
30
0
41
1
10
195.95727081116
20
-2.24029830963178
30
0
41
1
10
195.969495258926
20
-2.26940013804514
30
0
0
SPLINE
5
265
100
AcDbEntity
8
SK1
62
256
6
ByLayer
370
-1
48
1
60
0
100
AcDbSpline
70
4
71
3
72
72
73
68
40
0
40
0
40
0
40
0
40
0.0156250000000003
40
0.0156250000000003
40
0.0312500000000005
40
0.0312500000000005
40
0.0468750000000008
40
0.0468750000000008
40
0.062500000000001
40
0.062500000000001
40
0.0937500000000014
40
0.0937500000000014
40
0.109375000000002
40
0.109375000000002
40
0.125000000000002
40
0.125000000000002
40
0.156250000000002
40
0.156250000000002
40
0.187500000000002
40
0.187500000000002
40
0.218750000000001
40
0.218750000000001
40
0.250000000000001
40
0.250000000000001
40
0.312500000000001
40
0.312500000000001
40
0.375000000000002
40
0.375000000000002
40
0.406250000000002
40
0.406250000000002
40
0.437500000000002
40
0.437500000000002
40
0.500000000000002
40
0.500000000000002
40
0.562500000000002
40
0.562500000000002
40
0.625000000000002
40
0.625000000000002
40
0.687500000000002
40
0.687500000000002
40
0.718750000000002
40
0.718750000000002
40
0.750000000000002
40
0.750000000000002
40
0.812500000000002
40
0.812500000000002
40
0.843750000000001
40
0.843750000000001
40
0.859375000000001
40
0.859375000000001
40
0.875000000000001
40
0.875000000000001
40
0.906250000000001
40
0.906250000000001
40
0.921875000000001
40
0.921875000000001
40
0.937500000000001
40
0.937500000000001
40
0.953125000000001
40
0.953125000000001
40
0.96875
40
0.96875
40
0.9765625
40
0.9765625
40
0.984375
40
0.984375
40
1
40
1
40
1
40
1
41
1
10
-6.5
20
-9.10261500888618
30
0
41
1
10
-6.38914660019725
20
-9.10261500888618
30
0
41
1
10
-6.27612961385466
20
-9.09015098385046
30
0
41
1
10
-6.05985917895461
20
-9.04281130004992
30
0
41
1
10
-5.95475985097423
20
-9.00792576349431
30
0
41
1
10
-5.75343258145492
20
-8.91941414226187
30
0
41
1
10
-5.65919810333844
20
-8.86684398682266
30
0
41
1
10
-5.48088894318994
20
-8.74834825662376
30
0
41
1
10
-5.39640443529882
20
-8.68198569080923
30
0
41
1
10
-5.15892238475899
20
-8.4684605676342
30
0
41
1
10
-5.02365441240056
20
-8.30974008062717
30
0
41
1
10
-4.84296399719619
20
-8.05482884459988
30
0
41
1
10
-4.78642322072847
20
-7.96675301550394
30
0
41
1
10
-4.68042079967142
20
-7.78654390286022
30
0
41
1
10
-4.63122526195846
20
-7.69491452027412
30
0
41
1
10
-4.49299887645103
20
-7.41608134345648
30
0
41
1
10
-4.41323038468988
20
-7.22496300624556
30
0
41
1
10
-4.27152687943763
20
-6.8343560263894
30
0
41
1
10
-4.20965906429049
20
-6.6348461887967
30
0
41
1
10
-4.09961007502051
20
-6.2286775881141
30
0
41
1
10
-4.05150917072524
20
-6.02203194443632
30
0
41
1
10
-3.96692144189856
20
-5.6074574550413
30
0
41
1
10
-3.93025488815388
20
-5.39884469275898
30
0
41
1
10
-3.83321097175369
20
-4.76942146087168
30
0
41
1
10
-3.78559277520367
20
-4.34504706257979
30
0
41
1
10
-3.7112361899147
20
-3.48808137992401
30
0
41
1
10
-3.68460707386046
20
-3.05547999795235
30
0
41
1
10
-3.65470782442822
20
-2.40091890566339
30
0
41
1
10
-3.64643900603767
20
-2.18145148399697
30
0
41
1
10
-3.63274891948819
20
-1.74230735687166
30
0
41
1
10
-3.62733252136272
20
-1.52296705685933
30
0
41
1
10
-3.61463310465442
20
-0.865617065631682
30
0
41
1
10
-3.61080933488054
20
-0.428275684574771
30
0
41
1
10
-3.61090950897167
20
0.444684991040077
30
0
41
1
10
-3.61483745040269
20
0.88030412472645
30
0
41
1
10
-3.63179619285316
20
1.74979970758309
30
0
41
1
10
-3.64481102904037
20
2.18367646184913
30
0
41
1
10
-3.68431141261161
20
3.04958358359085
30
0
41
1
10
-3.71074384326306
20
3.48161507013518
30
0
41
1
10
-3.76673696017031
20
4.12812283873399
30
0
41
1
10
-3.78821526595235
20
4.34375014492497
30
0
41
1
10
-3.83787895821774
20
4.77101649951717
30
0
41
1
10
-3.86607610819138
20
4.9829568382882
30
0
41
1
10
-3.96342969061479
20
5.61325776204001
30
0
41
1
10
-4.04484226281082
20
6.02618785295124
30
0
41
1
10
-4.20877761048993
20
6.63176810724454
30
0
41
1
10
-4.27047938114893
20
6.83131020667685
30
0
41
1
10
-4.37747378301123
20
7.1264778598424
30
0
41
1
10
-4.41562361112287
20
7.22427655673613
30
0
41
1
10
-4.49679279030673
20
7.41629459142595
30
0
41
1
10
-4.5398877733324
20
7.51074836914336
30
0
41
1
10
-4.67791145216944
20
7.78892537172752
30
0
41
1
10
-4.78135481362554
20
7.96756739375849
30
0
41
1
10
-4.96130737226687
20
8.22195198147358
30
0
41
1
10
-5.02546297402537
20
8.30446540137604
30
0
41
1
10
-5.16438164479459
20
8.46391044858186
30
0
41
1
10
-5.23841496286948
20
8.53994273964545
30
0
41
1
10
-5.39629023089529
20
8.68187427767452
30
0
41
1
10
-5.4804954947721
20
8.74813957968226
30
0
41
1
10
-5.66096910628903
20
8.86796771603022
30
0
41
1
10
-5.75541196182655
20
8.92033547523616
30
0
41
1
10
-5.90448373735469
20
8.98579651940287
30
0
41
1
10
-5.95541416893875
20
9.00542573092372
30
0
41
1
10
-6.06002939197239
20
9.03984379515771
30
0
41
1
10
-6.1141052041134
20
9.05470732343474
30
0
41
1
10
-6.277583542549
20
9.09042477028081
30
0
41
1
10
-6.38802552881097
20
9.10261500888618
30
0
41
1
10
-6.5
20
9.10261500888618
30
0
0
SPLINE
5
266
100
AcDbEntity
8
SK1
62
256
6
ByLayer
370
-1
48
1
60
0
100
AcDbSpline
70
4
71
3
72
8
73
4
40
0
40
0
40
0
40
0
40
1
40
1
40
1
40
1
41
1
10
-68.5162227297291
20
-8.87304222606727
30
0
41
1
10
-68.5439066952102
20
-8.94968599658964
30
0
41
1
10
-68.571834450002
20
-9.02620926996545
30
0
41
1
10
-68.6
20
-9.10261500888612
30
0
0
SPLINE
5
267
100
AcDbEntity
8
SK1
62
256
6
ByLayer
370
-1
48
1
60
0
100
AcDbSpline
70
4
71
3
72
8
73
4
40
0
40
0
40
0
40
0
40
1
40
1
40
1
40
1
41
1
10
-69
20
-9.10261500888609
30
0
41
1
10
-69.3687115489839
20
-8.2926547802831
30
0
41
1
10
-69.7055026821388
20
-7.46777015601629
30
0
41
1
10
-70
20
-6.62311105146205
30
0
0
SPLINE
5
268
100
AcDbEntity
8
SK1
62
256
6
ByLayer
370
-1
48
1
60
0
100
AcDbSpline
70
4
71
3
72
8
73
4
40
0
40
0
40
0
40
0
40
1
40
1
40
1
40
1
41
1
10
-70
20
6.62311105146222
30
0
41
1
10
-69.7055026821388
20
7.46777015601646
30
0
41
1
10
-69.3687115489839
20
8.29265478028327
30
0
41
1
10
-69
20
9.10261500888626
30
0
0
SPLINE
5
269
100
AcDbEntity
8
SK1
62
256
6
ByLayer
370
-1
48
1
60
0
100
AcDbSpline
70
4
71
3
72
8
73
4
40
0
40
0
40
0
40
0
40
1
40
1
40
1
40
1
41
1
10
-68.6
20
9.10261500888626
30
0
41
1
10
-68.571834450002
20
9.02620926996562
30
0
41
1
10
-68.5439066952102
20
8.94968599658984
30
0
41
1
10
-68.516222729729
20
8.87304222606744
30
0
0
SPLINE
5
26A
100
AcDbEntity
8
SK1
62
256
6
ByLayer
370
-1
48
1
60
0
100
AcDbSpline
70
4
71
3
72
8
73
4
40
0
40
0
40
0
40
0
40
1
40
1
40
1
40
1
41
1
10
-67.6338144512152
20
8.29060283092377
30
0
41
1
10
-67.2932836983815
20
8.56864972917003
30
0
41
1
10
-66.9484012097206
20
8.83881772536409
30
0
41
1
10
-66.6
20
9.10261500888626
30
0
0
SPLINE
5
26B
100
AcDbEntity
8
SK1
62
256
6
ByLayer
370
-1
48
1
60
0
100
AcDbSpline
70
4
71
3
72
20
73
16
40
0
40
0
40
0
40
0
40
0.125000000000019
40
0.125000000000019
40
0.187500000000028
40
0.187500000000028
40
0.250000000000038
40
0.250000000000038
40
0.375000000000024
40
0.375000000000024
40
0.50000000000001
40
0.50000000000001
40
0.750000000000005
40
0.750000000000005
40
1
40
1
40
1
40
1
41
1
10
-67.6338144512151
20
-8.29060283092329
30
0
41
1
10
-67.6746000935235
20
-8.25730093016261
30
0
41
1
10
-67.7199836490945
20
-8.22876323292448
30
0
41
1
10
-67.7948550962205
20
-8.20056981372309
30
0
41
1
10
-67.8205420829085
20
-8.19379354056497
30
0
41
1
10
-67.8728129362724
20
-8.18630243082055
30
0
41
1
10
-67.8998340844743
20
-8.1856286499503
30
0
41
1
10
-67.9787783127119
20
-8.19310764466417
30
0
41
1
10
-68.0301252704948
20
-8.21095104743222
30
0
41
1
10
-68.1222359195847
20
-8.26210721442101
30
0
41
1
10
-68.1643255549633
20
-8.29567338223035
30
0
41
1
10
-68.2768770736766
20
-8.40615789436035
30
0
41
1
10
-68.3371994967397
20
-8.49473748926303
30
0
41
1
10
-68.4387470357031
20
-8.67793923211124
30
0
41
1
10
-68.4804562077026
20
-8.77402168984949
30
0
41
1
10
-68.5162227297291
20
-8.87304222606727
30
0
0
SPLINE
5
26C
100
AcDbEntity
8
SK1
62
256
6
ByLayer
370
-1
48
1
60
0
100
AcDbSpline
70
4
71
3
72
20
73
16
40
0
40
0
40
0
40
0
40
0.249999999999997
40
0.249999999999997
40
0.374999999999998
40
0.374999999999998
40
0.499999999999998
40
0.499999999999998
40
0.624999999999999
40
0.624999999999999
40
0.749999999999999
40
0.749999999999999
40
0.875
40
0.875
40
1
40
1
40
1
40
1
41
1
10
-68.5162227297303
20
8.87304222606696
30
0
41
1
10
-68.4805102229812
20
8.77417123253394
30
0
41
1
10
-68.4382573152345
20
8.67693148618665
30
0
41
1
10
-68.3621710721186
20
8.53985159931514
30
0
41
1
10
-68.3346894685715
20
8.49562896904695
30
0
41
1
10
-68.2739659602408
20
8.41118058772861
30
0
41
1
10
-68.2407881315988
20
8.37091037639976
30
0
41
1
10
-68.1654488761744
20
8.29660337023134
30
0
41
1
10
-68.123541484252
20
8.2629600402953
30
0
41
1
10
-68.0305243323762
20
8.21104725205689
30
0
41
1
10
-67.9795833203366
20
8.19319188549028
30
0
41
1
10
-67.872813969243
20
8.18306085753042
30
0
41
1
10
-67.8196144054522
20
8.19122791676685
30
0
41
1
10
-67.7199392264586
20
8.22879859450236
30
0
41
1
10
-67.6749143258214
20
8.2570443562262
30
0
41
1
10
-67.6338144512151
20
8.29060283092346
30
0
0
SPLINE
5
26D
100
AcDbEntity
8
SK1
62
256
6
ByLayer
370
-1
48
1
60
0
100
AcDbSpline
70
4
71
3
72
8
73
4
40
0
40
0
40
0
40
0
40
1
40
1
40
1
40
1
41
1
10
-66.6
20
-9.10261500888609
30
0
41
1
10
-66.9484012097206
20
-8.83881772536392
30
0
41
1
10
-67.2932836983816
20
-8.56864972916986
30
0
41
1
10
-67.6338144512153
20
-8.2906028309236
30
0
0
LINE
5
45
100
AcDbEntity
8
80
62
256
6
ByLayer
370
-1
48
1
60
0
100
AcDbLine
10
0
20
0
30
0
11
-7
21
0
31
0
39
0
210
0
220
0
230
1
0
LINE
5
46
100
AcDbEntity
8
81
62
256
6
ByLayer
370
-1
48
1
60
0
100
AcDbLine
10
197
20
0
30
0
11
204
21
0
31
0
39
0
210
0
220
0
230
1
0
LINE
5
47
100
AcDbEntity
8
SK1
62
256
6
ByLayer
370
-1
48
1
60
0
100
AcDbLine
10
-2
20
19.996
30
0
11
-66.6
21
19.996
31
0
39
0
210
0
220
0
230
1
0
LINE
5
49
100
AcDbEntity
8
SK1
62
256
6
ByLayer
370
-1
48
1
60
0
100
AcDbLine
10
-66.6
20
-19.996
30
0
11
-2
21
-19.996
31
0
39
0
210
0
220
0
230
1
0
LINE
5
4A
100
AcDbEntity
8
SK1
62
256
6
ByLayer
370
-1
48
1
60
0
100
AcDbLine
10
-2
20
-19.996
30
0
11
-1.552821
21
-19.787477
31
0
39
0
210
0
220
0
230
1
0
LINE
5
4B
100
AcDbEntity
8
SK1
62
256
6
ByLayer
370
-1
48
1
60
0
100
AcDbLine
10
-1.552821
20
19.787477
30
0
11
-2
21
19.996
31
0
39
0
210
0
220
0
230
1
0
LINE
5
4C
100
AcDbEntity
8
SK1
62
256
6
ByLayer
370
-1
48
1
60
0
100
AcDbLine
10
-0.15
20
19.75
30
0
11
-1.383773
21
19.75
31
0
39
0
210
0
220
0
230
1
0
LINE
5
4D
100
AcDbEntity
8
SK1
62
256
6
ByLayer
370
-1
48
1
60
0
100
AcDbLine
10
-1.383773
20
-19.75
30
0
11
-0.15
21
-19.75
31
0
39
0
210
0
220
0
230
1
0
LINE
5
4E
100
AcDbEntity
8
SK1
62
256
6
ByLayer
370
-1
48
1
60
0
100
AcDbLine
10
-68.6
20
19.996
30
0
11
-69
21
19.996
31
0
39
0
210
0
220
0
230
1
0
LINE
5
4F
100
AcDbEntity
8
SK1
62
256
6
ByLayer
370
-1
48
1
60
0
100
AcDbLine
10
-69
20
-19.996
30
0
11
-68.6
21
-19.996
31
0
39
0
210
0
220
0
230
1
0
LINE
5
50
100
AcDbEntity
8
SK1
62
256
6
ByLayer
370
-1
48
1
60
0
100
AcDbLine
10
-66.6
20
19.996
30
0
11
-67.633814
21
19.639667
31
0
39
0
210
0
220
0
230
1
0
LINE
5
51
100
AcDbEntity
8
SK1
62
256
6
ByLayer
370
-1
48
1
60
0
100
AcDbLine
10
-67.633814
20
-19.639667
30
0
11
-66.6
21
-19.996
31
0
39
0
210
0
220
0
230
1
0
LINE
5
52
100
AcDbEntity
8
SK1
62
256
6
ByLayer
370
-1
48
1
60
0
100
AcDbLine
10
-69
20
19.996
30
0
11
-70
21
18.996
31
0
39
0
210
0
220
0
230
1
0
LINE
5
53
100
AcDbEntity
8
SK1
62
256
6
ByLayer
370
-1
48
1
60
0
100
AcDbLine
10
-70
20
-18.996
30
0
11
-69
21
-19.996
31
0
39
0
210
0
220
0
230
1
0
LINE
5
54
100
AcDbEntity
8
SK1
62
256
6
ByLayer
370
-1
48
1
60
0
100
AcDbLine
10
-68.6
20
-19.996
30
0
11
-68.516223
21
-19.892544
31
0
39
0
210
0
220
0
230
1
0
LINE
5
55
100
AcDbEntity
8
SK1
62
256
6
ByLayer
370
-1
48
1
60
0
100
AcDbLine
10
-68.516223
20
19.892544
30
0
11
-68.6
21
19.996
31
0
39
0
210
0
220
0
230
1
0
LINE
5
56
100
AcDbEntity
8
1
62
256
6
ByLayer
370
-1
48
1
60
0
100
AcDbLine
10
0.2
20
31.25
30
0
11
0
21
31.05
31
0
39
0
210
0
220
0
230
1
0
LINE
5
58
100
AcDbEntity
8
1
62
256
6
ByLayer
370
-1
48
1
60
0
100
AcDbLine
10
0
20
-31.05
30
0
11
0.2
21
-31.25
31
0
39
0
210
0
220
0
230
1
0
LINE
5
59
100
AcDbEntity
8
1
62
256
6
ByLayer
370
-1
48
1
60
0
100
AcDbLine
10
5
20
31.25
30
0
11
0.2
21
31.25
31
0
39
0
210
0
220
0
230
1
0
LINE
5
5A
100
AcDbEntity
8
1
62
256
6
ByLayer
370
-1
48
1
60
0
100
AcDbLine
10
0.2
20
-31.25
30
0
11
5
21
-31.25
31
0
39
0
210
0
220
0
230
1
0
LINE
5
5B
100
AcDbEntity
8
1
62
256
6
ByLayer
370
-1
48
1
60
0
100
AcDbLine
10
98.323867
20
25.3
30
0
11
36
21
25.3
31
0
39
0
210
0
220
0
230
1
0
LINE
5
5C
100
AcDbEntity
8
1
62
256
6
ByLayer
370
-1
48
1
60
0
100
AcDbLine
10
36
20
-25.3
30
0
11
89.022947
21
-25.3
31
0
39
0
210
0
220
0
230
1
0
LINE
5
5D
100
AcDbEntity
8
SK4
62
256
6
ByLayer
370
-1
48
0.05
60
0
100
AcDbLine
10
197
20
0
30
0
11
-70
21
0
31
0
39
0
210
0
220
0
230
1
0
LINE
5
5F
100
AcDbEntity
8
4
62
256
6
ByLayer
370
-1
48
0.05
60
0
100
AcDbLine
10
197
20
0
30
0
11
0
21
0
31
0
39
0
210
0
220
0
230
1
0
LINE
5
61
100
AcDbEntity
8
1
62
256
6
ByLayer
370
-1
48
1
60
0
100
AcDbLine
10
194.794608
20
0.495359
30
0
11
195.539219
21
10.595347
31
0
39
0
210
0
220
0
230
1
0
LINE
5
62
100
AcDbEntity
8
1
62
256
6
ByLayer
370
-1
48
1
60
0
100
AcDbLine
10
36
20
25.3
30
0
11
36
21
14.821311
31
0
39
0
210
0
220
0
230
1
0
LINE
5
63
100
AcDbEntity
8
1
62
256
6
ByLayer
370
-1
48
1
60
0
100
AcDbLine
10
0
20
31.05
30
0
11
0
21
-31.05
31
0
39
0
210
0
220
0
230
1
0
LINE
5
64
100
AcDbEntity
8
1
62
256
6
ByLayer
370
-1
48
1
60
0
100
AcDbLine
10
194.798892
20
10.305808
30
0
11
194.246187
21
10.335737
31
0
39
0
210
0
220
0
230
1
0
LINE
5
65
100
AcDbEntity
8
1
62
256
6
ByLayer
370
-1
48
1
60
0
100
AcDbLine
10
180.579373
20
25.290693
30
0
11
180.82266
21
17.660999
31
0
39
0
210
0
220
0
230
1
0
LINE
5
66
100
AcDbEntity
8
1
62
256
6
ByLayer
370
-1
48
1
60
0
100
AcDbLine
10
36
20
-25.3
30
0
11
36
21
-16.710774
31
0
39
0
210
0
220
0
230
1
0
LINE
5
67
100
AcDbEntity
8
1
62
256
6
ByLayer
370
-1
48
1
60
0
100
AcDbLine
10
194.73091
20
0.523323
30
0
11
194.74293
21
0.522904
31
0
39
0
210
0
220
0
230
1
0
LINE
5
68
100
AcDbEntity
8
1
62
256
6
ByLayer
370
-1
48
1
60
0
100
AcDbLine
10
177.90611
20
-25.270808
30
0
11
194.756122
21
-25.270808
31
0
39
0
210
0
220
0
230
1
0
LINE
5
69
100
AcDbEntity
8
1
62
256
6
ByLayer
370
-1
48
1
60
0
100
AcDbLine
10
171.679761
20
6.485579
30
0
11
171.348737
21
5.346789
31
0
39
0
210
0
220
0
230
1
0
LINE
5
6A
100
AcDbEntity
8
1
62
256
6
ByLayer
370
-1
48
1
60
0
100
AcDbLine
10
180.933553
20
25.267495
30
0
11
180.935796
21
25.197131
31
0
39
0
210
0
220
0
230
1
0
LINE
5
6B
100
AcDbEntity
8
1
62
256
6
ByLayer
370
-1
48
1
60
0
100
AcDbLine
10
194.636663
20
-0.788122
30
0
11
195.256321
21
-12.589842
31
0
39
0
210
0
220
0
230
1
0
LINE
5
6C
100
AcDbEntity
8
1
62
256
6
ByLayer
370
-1
48
1
60
0
100
AcDbLine
10
194.74293
20
0.522904
30
0
11
194.794608
21
0.495359
31
0
39
0
210
0
220
0
230
1
0
LINE
5
6D
100
AcDbEntity
8
1
62
256
6
ByLayer
370
-1
48
1
60
0
100
AcDbLine
10
176.94497
20
25.286448
30
0
11
176.94497
21
15.4
31
0
39
0
210
0
220
0
230
1
0
LINE
5
6E
100
AcDbEntity
8
1
62
256
6
ByLayer
370
-1
48
1
60
0
100
AcDbLine
10
194.756122
20
-25.270808
30
0
11
195.749407
21
-14.072168
31
0
39
0
210
0
220
0
230
1
0
LINE
5
6F
100
AcDbEntity
8
1
62
256
6
ByLayer
370
-1
48
1
60
0
100
AcDbLine
10
195.116362
20
10.301049
30
0
11
194.798892
21
10.305808
31
0
39
0
210
0
220
0
230
1
0
LINE
5
70
100
AcDbEntity
8
1
62
256
6
ByLayer
370
-1
48
1
60
0
100
AcDbLine
10
194.691118
20
0.433137
30
0
11
194.770747
21
0.430361
31
0
39
0
210
0
220
0
230
1
0
LINE
5
71
100
AcDbEntity
8
1
62
256
6
ByLayer
370
-1
48
1
60
0
100
AcDbLine
10
194.640069
20
-0.223667
30
0
11
194.636663
21
-0.788122
31
0
39
0
210
0
220
0
230
1
0
LINE
5
72
100
AcDbEntity
8
1
62
256
6
ByLayer
370
-1
48
1
60
0
100
AcDbLine
10
0.2
20
31.25
30
0
11
0.2
21
-31.25
31
0
39
0
210
0
220
0
230
1
0
LINE
5
73
100
AcDbEntity
8
1
62
256
6
ByLayer
370
-1
48
1
60
0
100
AcDbLine
10
194.246187
20
10.335737
30
0
11
194.456917
21
10.335737
31
0
39
0
210
0
220
0
230
1
0
LINE
5
74
100
AcDbEntity
8
1
62
256
6
ByLayer
370
-1
48
1
60
0
100
AcDbLine
10
181.119545
20
10.134923
30
0
11
181.16765
21
10.134923
31
0
39
0
210
0
220
0
230
1
0
LINE
5
75
100
AcDbEntity
8
1
62
256
6
ByLayer
370
-1
48
1
60
0
100
AcDbLine
10
180.762295
20
16.347656
30
0
11
180.927437
21
11.600549
31
0
39
0
210
0
220
0
230
1
0
LINE
5
76
100
AcDbEntity
8
1
62
256
6
ByLayer
370
-1
48
1
60
0
100
AcDbLine
10
180.186893
20
3.684303
30
0
11
181.913811
21
9.62526
31
0
39
0
210
0
220
0
230
1
0
LINE
5
77
100
AcDbEntity
8
1
62
256
6
ByLayer
370
-1
48
1
60
0
100
AcDbLine
10
180.807364
20
17.660999
30
0
11
180.82266
21
17.660999
31
0
39
0
210
0
220
0
230
1
0
LINE
5
78
100
AcDbEntity
8
1
62
256
6
ByLayer
370
-1
48
1
60
0
100
AcDbLine
10
180.807364
20
17.660999
30
0
11
180.563945
21
25.294832
31
0
39
0
210
0
220
0
230
1
0
LINE
5
79
100
AcDbEntity
8
1
62
256
6
ByLayer
370
-1
48
1
60
0
100
AcDbLine
10
180.404956
20
16.347656
30
0
11
180.762295
21
16.347656
31
0
39
0
210
0
220
0
230
1
0
LINE
5
7A
100
AcDbEntity
8
1
62
256
6
ByLayer
370
-1
48
1
60
0
100
AcDbLine
10
174.937304
20
15.301142
30
0
11
150.733139
21
19.073261
31
0
39
0
210
0
220
0
230
1
0
LINE
5
7B
100
AcDbEntity
8
1
62
256
6
ByLayer
370
-1
48
1
60
0
100
AcDbLine
10
192.139599
20
4.410497
30
0
11
194.798892
21
10.305808
31
0
39
0
210
0
220
0
230
1
0
LINE
5
7C
100
AcDbEntity
8
1
62
256
6
ByLayer
370
-1
48
1
60
0
100
AcDbLine
10
175.049874
20
25.260446
30
0
11
175.049874
21
15.4
31
0
39
0
210
0
220
0
230
1
0
LINE
5
7D
100
AcDbEntity
8
1
62
256
6
ByLayer
370
-1
48
1
60
0
100
AcDbLine
10
194.456991
20
10.335737
30
0
11
195.116362
21
10.301049
31
0
39
0
210
0
220
0
230
1
0
LINE
5
7E
100
AcDbEntity
8
1
62
256
6
ByLayer
370
-1
48
1
60
0
100
AcDbLine
10
181.02804
20
17.857603
30
0
11
181.05739
21
17.857603
31
0
39
0
210
0
220
0
230
1
0
LINE
5
7F
100
AcDbEntity
8
1
62
256
6
ByLayer
370
-1
48
1
60
0
100
AcDbLine
10
194.636663
20
-0.788122
30
0
11
192.098331
21
0.34289
31
0
39
0
210
0
220
0
230
1
0
LINE
5
80
100
AcDbEntity
8
1
62
256
6
ByLayer
370
-1
48
1
60
0
100
AcDbLine
10
175.049874
20
15.4
30
0
11
176.94497
21
15.4
31
0
39
0
210
0
220
0
230
1
0
LINE
5
81
100
AcDbEntity
8
1
62
256
6
ByLayer
370
-1
48
1
60
0
100
AcDbLine
10
195.256321
20
-12.589842
30
0
11
193.155557
21
-11.653799
31
0
39
0
210
0
220
0
230
1
0
LINE
5
82
100
AcDbEntity
8
1
62
256
6
ByLayer
370
-1
48
1
60
0
100
AcDbLine
10
180.570098
20
11.600549
30
0
11
180.927437
21
11.600549
31
0
39
0
210
0
220
0
230
1
0
LINE
5
83
100
AcDbEntity
8
1
62
256
6
ByLayer
370
-1
48
1
60
0
100
AcDbLine
10
195.256321
20
-12.589842
30
0
11
195.209344
21
-13.119477
31
0
39
0
210
0
220
0
230
1
0
LINE
5
84
100
AcDbEntity
8
1
62
256
6
ByLayer
370
-1
48
1
60
0
100
AcDbLine
10
180.404956
20
16.347656
30
0
11
180.570098
21
11.600549
31
0
39
0
210
0
220
0
230
1
0
LINE
5
85
100
AcDbEntity
8
1
62
256
6
ByLayer
370
-1
48
1
60
0
100
AcDbLine
10
195.232352
20
-14.009711
30
0
11
195.749407
21
-14.072168
31
0
39
0
210
0
220
0
230
1
0
LINE
5
86
100
AcDbEntity
8
1
62
256
6
ByLayer
370
-1
48
1
60
0
100
AcDbLine
10
183.681937
20
9.965416
30
0
11
194.246187
21
10.335737
31
0
39
0
210
0
220
0
230
1
0
LINE
5
87
100
AcDbEntity
8
1
62
256
6
ByLayer
370
-1
48
1
60
0
100
AcDbLine
10
5
20
31.25
30
0
11
5
21
-31.25
31
0
39
0
210
0
220
0
230
1
0
LINE
5
88
100
AcDbEntity
8
1
62
256
6
ByLayer
370
-1
48
1
60
0
100
AcDbLine
10
194.770747
20
0.430361
30
0
11
194.794608
21
0.495359
31
0
39
0
210
0
220
0
230
1
0
LINE
5
89
100
AcDbEntity
8
1
62
256
6
ByLayer
370
-1
48
1
60
0
100
AcDbLine
10
194.580389
20
12.463685
30
0
11
183.280467
21
12.067575
31
0
39
0
210
0
220
0
230
1
0
LINE
5
8A
100
AcDbEntity
8
1
62
256
6
ByLayer
370
-1
48
1
60
0
100
AcDbLine
10
184.858024
20
21.337682
30
0
11
185.438668
21
20.794154
31
0
39
0
210
0
220
0
230
1
0
LINE
5
8B
100
AcDbEntity
8
1
62
256
6
ByLayer
370
-1
48
1
60
0
100
AcDbLine
10
182.703547
20
23.554334
30
0
11
183.098149
21
12.211248
31
0
39
0
210
0
220
0
230
1
0
LINE
5
8C
100
AcDbEntity
8
1
62
256
6
ByLayer
370
-1
48
1
60
0
100
AcDbLine
10
193.463505
20
19.759068
30
0
11
193.359205
21
22.75724
31
0
39
0
210
0
220
0
230
1
0
LINE
5
8D
100
AcDbEntity
8
1
62
256
6
ByLayer
370
-1
48
1
60
0
100
AcDbLine
10
180.96028
20
23.492516
30
0
11
181.354882
21
12.14943
31
0
39
0
210
0
220
0
230
1
0
LINE
5
8E
100
AcDbEntity
8
1
62
256
6
ByLayer
370
-1
48
1
60
0
100
AcDbLine
10
194.180688
20
24.780093
30
0
11
182.880766
21
24.383984
31
0
39
0
210
0
220
0
230
1
0
LINE
5
8F
100
AcDbEntity
8
1
62
256
6
ByLayer
370
-1
48
1
60
0
100
AcDbLine
10
194.181873
20
24.391194
30
0
11
182.881951
21
23.995084
31
0
39
0
210
0
220
0
230
1
0
LINE
5
90
100
AcDbEntity
8
1
62
256
6
ByLayer
370
-1
48
1
60
0
100
AcDbLine
10
184.673296
20
14.470232
30
0
11
185.044867
21
14.122413
31
0
39
0
210
0
220
0
230
1
0
LINE
5
91
100
AcDbEntity
8
1
62
256
6
ByLayer
370
-1
48
1
60
0
100
AcDbLine
10
194.606707
20
12.179079
30
0
11
183.306785
21
11.78297
31
0
39
0
210
0
220
0
230
1
0
LINE
5
92
100
AcDbEntity
8
1
62
256
6
ByLayer
370
-1
48
1
60
0
100
AcDbLine
10
194.133803
20
25.905491
30
0
11
182.833881
21
25.509382
31
0
39
0
210
0
220
0
230
1
0
LINE
5
93
100
AcDbEntity
8
1
62
256
6
ByLayer
370
-1
48
1
60
0
100
AcDbLine
10
181.292598
20
11.096363
30
0
11
180.861483
21
23.489026
31
0
39
0
210
0
220
0
230
1
0
LINE
5
94
100
AcDbEntity
8
1
62
256
6
ByLayer
370
-1
48
1
60
0
100
AcDbLine
10
193.050099
20
23.046588
30
0
11
190.063335
21
22.941889
31
0
39
0
210
0
220
0
230
1
0
LINE
5
95
100
AcDbEntity
8
1
62
256
6
ByLayer
370
-1
48
1
60
0
100
AcDbLine
10
184.861631
20
22.914936
30
0
11
186.224058
21
21.639599
31
0
39
0
210
0
220
0
230
1
0
LINE
5
96
100
AcDbEntity
8
1
62
256
6
ByLayer
370
-1
48
1
60
0
100
AcDbLine
10
183.364073
20
10.268672
30
0
11
194.663995
21
10.664781
31
0
39
0
210
0
220
0
230
1
0
LINE
5
97
100
AcDbEntity
8
1
62
256
6
ByLayer
370
-1
48
1
60
0
100
AcDbLine
10
196.537596
20
12.681647
30
0
11
196.142994
21
24.024733
31
0
39
0
210
0
220
0
230
1
0
LINE
5
98
100
AcDbEntity
8
1
62
256
6
ByLayer
370
-1
48
1
60
0
100
AcDbLine
10
196.206803
20
25.0778
30
0
11
196.637918
21
12.685137
31
0
39
0
210
0
220
0
230
1
0
LINE
5
99
100
AcDbEntity
8
1
62
256
6
ByLayer
370
-1
48
1
60
0
100
AcDbLine
10
194.175148
20
24.135249
30
0
11
182.875226
21
23.73914
31
0
39
0
210
0
220
0
230
1
0
LINE
5
9A
100
AcDbEntity
8
1
62
256
6
ByLayer
370
-1
48
1
60
0
100
AcDbLine
10
194.157716
20
25.457053
30
0
11
182.857794
21
25.060943
31
0
39
0
210
0
220
0
230
1
0
LINE
5
9B
100
AcDbEntity
8
1
62
256
6
ByLayer
370
-1
48
1
60
0
100
AcDbLine
10
193.568167
20
16.750494
30
0
11
193.672467
21
13.752321
31
0
39
0
210
0
220
0
230
1
0
LINE
5
9C
100
AcDbEntity
8
1
62
256
6
ByLayer
370
-1
48
1
60
0
100
AcDbLine
10
194.63258
20
11.790179
30
0
11
183.332658
21
11.39407
31
0
39
0
210
0
220
0
230
1
0
LINE
5
9D
100
AcDbEntity
8
1
62
256
6
ByLayer
370
-1
48
1
60
0
100
AcDbLine
10
185.227619
20
21.735539
30
0
11
185.808263
21
21.192011
31
0
39
0
210
0
220
0
230
1
0
LINE
5
9E
100
AcDbEntity
8
1
62
256
6
ByLayer
370
-1
48
1
60
0
100
AcDbLine
10
194.646285
20
11.467085
30
0
11
183.346363
21
11.070976
31
0
39
0
210
0
220
0
230
1
0
LINE
5
9F
100
AcDbEntity
8
1
62
256
6
ByLayer
370
-1
48
1
60
0
100
AcDbLine
10
193.852055
20
13.758754
30
0
11
193.747755
21
16.756927
31
0
39
0
210
0
220
0
230
1
0
LINE
5
A0
100
AcDbEntity
8
1
62
256
6
ByLayer
370
-1
48
1
60
0
100
AcDbLine
10
181.785584
20
25.572669
30
0
11
194.131089
21
26.00543
31
0
39
0
210
0
220
0
230
1
0
LINE
5
A1
100
AcDbEntity
8
1
62
256
6
ByLayer
370
-1
48
1
60
0
100
AcDbLine
10
184.359516
20
22.611084
30
0
11
184.516664
21
22.029134
31
0
39
0
210
0
220
0
230
1
0
LINE
5
A2
100
AcDbEntity
8
1
62
256
6
ByLayer
370
-1
48
1
60
0
100
AcDbLine
10
184.858024
20
21.337682
30
0
11
184.880308
21
21.333266
31
0
39
0
210
0
220
0
230
1
0
LINE
5
A3
100
AcDbEntity
8
1
62
256
6
ByLayer
370
-1
48
1
60
0
100
AcDbLine
10
185.312033
20
14.709129
30
0
11
185.460662
21
14.570002
31
0
39
0
210
0
220
0
230
1
0
LINE
5
A4
100
AcDbEntity
8
1
62
256
6
ByLayer
370
-1
48
1
60
0
100
AcDbLine
10
181.769731
20
23.520533
30
0
11
182.164333
21
12.177447
31
0
39
0
210
0
220
0
230
1
0
LINE
5
A5
100
AcDbEntity
8
1
62
256
6
ByLayer
370
-1
48
1
60
0
100
AcDbLine
10
195.748546
20
12.65363
30
0
11
195.353944
21
23.996716
31
0
39
0
210
0
220
0
230
1
0
LINE
5
A6
100
AcDbEntity
8
1
62
256
6
ByLayer
370
-1
48
1
60
0
100
AcDbLine
10
183.927379
20
22.145904
30
0
11
184.516664
21
22.029134
31
0
39
0
210
0
220
0
230
1
0
LINE
5
A7
100
AcDbEntity
8
1
62
256
6
ByLayer
370
-1
48
1
60
0
100
AcDbLine
10
194.171914
20
25.103187
30
0
11
182.871991
21
24.707078
31
0
39
0
210
0
220
0
230
1
0
LINE
5
A8
100
AcDbEntity
8
1
62
256
6
ByLayer
370
-1
48
1
60
0
100
AcDbLine
10
185.312033
20
14.709129
30
0
11
185.44676
21
14.854158
31
0
39
0
210
0
220
0
230
1
0
LINE
5
A9
100
AcDbEntity
8
1
62
256
6
ByLayer
370
-1
48
1
60
0
100
AcDbLine
10
193.643093
20
19.765501
30
0
11
193.538793
21
22.763673
31
0
39
0
210
0
220
0
230
1
0
LINE
5
AA
100
AcDbEntity
8
1
62
256
6
ByLayer
370
-1
48
1
60
0
100
AcDbLine
10
194.724512
20
12.618828
30
0
11
194.32991
21
23.961914
31
0
39
0
210
0
220
0
230
1
0
LINE
5
AB
100
AcDbEntity
8
1
62
256
6
ByLayer
370
-1
48
1
60
0
100
AcDbLine
10
194.753852
20
12.619829
30
0
11
194.35925
21
23.962915
31
0
39
0
210
0
220
0
230
1
0
LINE
5
AC
100
AcDbEntity
8
1
62
256
6
ByLayer
370
-1
48
1
60
0
100
AcDbLine
10
194.582174
20
12.435023
30
0
11
183.282252
21
12.038914
31
0
39
0
210
0
220
0
230
1
0
LINE
5
AD
100
AcDbEntity
8
1
62
256
6
ByLayer
370
-1
48
1
60
0
100
AcDbLine
10
183.660446
20
21.621903
30
0
11
185.022873
21
20.346566
31
0
39
0
210
0
220
0
230
1
0
LINE
5
AE
100
AcDbEntity
8
1
62
256
6
ByLayer
370
-1
48
1
60
0
100
AcDbLine
10
194.656707
20
11.11322
30
0
11
183.356785
21
10.717111
31
0
39
0
210
0
220
0
230
1
0
LINE
5
AF
100
AcDbEntity
8
1
62
256
6
ByLayer
370
-1
48
1
60
0
100
AcDbLine
10
193.384221
20
13.442034
30
0
11
190.397457
21
13.337336
31
0
39
0
210
0
220
0
230
1
0
LINE
5
B0
100
AcDbEntity
8
1
62
256
6
ByLayer
370
-1
48
1
60
0
100
AcDbLine
10
196.099177
20
12.665988
30
0
11
195.704575
21
24.009073
31
0
39
0
210
0
220
0
230
1
0
LINE
5
B1
100
AcDbEntity
8
1
62
256
6
ByLayer
370
-1
48
1
60
0
100
AcDbLine
10
193.039768
20
23.230798
30
0
11
190.053005
21
23.1261
31
0
39
0
210
0
220
0
230
1
0
LINE
5
B2
100
AcDbEntity
8
1
62
256
6
ByLayer
370
-1
48
1
60
0
100
AcDbLine
10
184.645572
20
14.88907
30
0
11
185.120245
21
15.400039
31
0
39
0
210
0
220
0
230
1
0
LINE
5
B3
100
AcDbEntity
8
1
62
256
6
ByLayer
370
-1
48
1
60
0
100
AcDbLine
10
195.713817
20
10.601494
30
0
11
183.368312
21
10.168733
31
0
39
0
210
0
220
0
230
1
0
LINE
5
B4
100
AcDbEntity
8
1
62
256
6
ByLayer
370
-1
48
1
60
0
100
AcDbLine
10
190.399944
20
13.153125
30
0
11
193.386707
21
13.257824
31
0
39
0
210
0
220
0
230
1
0
LINE
5
B5
100
AcDbEntity
8
1
62
256
6
ByLayer
370
-1
48
1
60
0
100
AcDbLine
10
195.024452
20
12.628767
30
0
11
194.62985
21
23.971853
31
0
39
0
210
0
220
0
230
1
0
LINE
5
B6
100
AcDbEntity
8
1
62
256
6
ByLayer
370
-1
48
1
60
0
100
AcDbLine
10
181.415324
20
23.508176
30
0
11
181.809926
21
12.16509
31
0
39
0
210
0
220
0
230
1
0
LINE
5
B7
100
AcDbEntity
8
1
62
256
6
ByLayer
370
-1
48
1
60
0
100
AcDbLine
10
182.08913
20
23.531816
30
0
11
182.483732
21
12.18873
31
0
39
0
210
0
220
0
230
1
0
LINE
5
B8
100
AcDbEntity
8
1
62
256
6
ByLayer
370
-1
48
1
60
0
100
AcDbLine
10
184.890971
20
14.667652
30
0
11
184.877375
21
14.680379
31
0
39
0
210
0
220
0
230
1
0
LINE
5
B9
100
AcDbEntity
8
1
62
256
6
ByLayer
370
-1
48
1
60
0
100
AcDbLine
10
184.645572
20
14.88907
30
0
11
184.645987
21
14.888682
31
0
39
0
210
0
220
0
230
1
0
LINE
5
BA
100
AcDbEntity
8
1
62
256
6
ByLayer
370
-1
48
1
60
0
100
AcDbLine
10
185.227619
20
21.735539
30
0
11
185.233562
21
21.713531
31
0
39
0
210
0
220
0
230
1
0
LINE
5
BB
100
AcDbEntity
8
1
62
256
6
ByLayer
370
-1
48
1
60
0
100
AcDbLine
10
182.464206
20
23.545396
30
0
11
182.858808
21
12.20231
31
0
39
0
210
0
220
0
230
1
0
LINE
5
BC
100
AcDbEntity
8
1
62
256
6
ByLayer
370
-1
48
1
60
0
100
AcDbLine
10
195.424216
20
12.642348
30
0
11
195.029614
21
23.985433
31
0
39
0
210
0
220
0
230
1
0
LINE
5
BD
100
AcDbEntity
8
1
62
256
6
ByLayer
370
-1
48
1
60
0
100
AcDbLine
10
182.731311
20
23.555335
30
0
11
183.125913
21
12.212249
31
0
39
0
210
0
220
0
230
1
0
LINE
5
BE
100
AcDbEntity
8
1
62
256
6
ByLayer
370
-1
48
1
60
0
100
AcDbLine
10
194.175357
20
24.106588
30
0
11
182.875435
21
23.710479
31
0
39
0
210
0
220
0
230
1
0
LINE
5
BF
100
AcDbEntity
8
1
62
256
6
ByLayer
370
-1
48
1
60
0
100
AcDbLine
10
194.981687
20
-2.532173
30
0
11
195.249345
21
-7.629861
31
0
39
0
210
0
220
0
230
1
0
LINE
5
C0
100
AcDbEntity
8
1
62
256
6
ByLayer
370
-1
48
1
60
0
100
AcDbLine
10
195.969495
20
-2.2694
30
0
11
196.219159
21
-2.343985
31
0
39
0
210
0
220
0
230
1
0
LINE
5
C1
100
AcDbEntity
8
1
62
256
6
ByLayer
370
-1
48
1
60
0
100
AcDbLine
10
195.420906
20
-13.494772
30
0
11
195.183481
21
-13.581026
31
0
39
0
210
0
220
0
230
1
0
LINE
5
C2
100
AcDbEntity
8
1
62
256
6
ByLayer
370
-1
48
1
60
0
100
AcDbLine
10
195.88846
20
-9.024224
30
0
11
196.548886
21
-8.858538
31
0
39
0
210
0
220
0
230
1
0
LINE
5
C3
100
AcDbEntity
8
1
62
256
6
ByLayer
370
-1
48
1
60
0
100
AcDbLine
10
196.784389
20
-8.881942
30
0
11
196.548886
21
-8.858538
31
0
39
0
210
0
220
0
230
1
0
LINE
5
C4
100
AcDbEntity
8
1
62
256
6
ByLayer
370
-1
48
1
60
0
100
AcDbLine
10
195.230987
20
-12.875495
30
0
11
195.420906
21
-13.494772
31
0
39
0
210
0
220
0
230
1
0
LINE
5
C5
100
AcDbEntity
8
1
62
256
6
ByLayer
370
-1
48
1
60
0
100
AcDbLine
10
196.528525
20
-7.819351
30
0
11
196.248628
21
-2.488557
31
0
39
0
210
0
220
0
230
1
0
LINE
5
C6
100
AcDbEntity
8
1
62
256
6
ByLayer
370
-1
48
1
60
0
100
AcDbLine
10
196.999513
20
-9.985115
30
0
11
196.900049
21
-12.828067
31
0
39
0
210
0
220
0
230
1
0
LINE
5
C7
100
AcDbEntity
8
1
62
256
6
ByLayer
370
-1
48
1
60
0
100
AcDbLine
10
195.548934
20
-7.61419
30
0
11
195.281276
21
-2.516502
31
0
39
0
210
0
220
0
230
1
0
LINE
5
C8
100
AcDbEntity
8
1
62
256
6
ByLayer
370
-1
48
1
60
0
100
AcDbLine
10
195.652021
20
-11.608744
30
0
11
195.719357
21
-9.684091
31
0
39
0
210
0
220
0
230
1
0
LINE
5
C9
100
AcDbEntity
8
1
62
256
6
ByLayer
370
-1
48
1
60
0
100
AcDbLine
10
195.355464
20
0.024571
30
0
11
196.219159
21
-2.343985
31
0
39
0
210
0
220
0
230
1
0
LINE
5
CA
100
AcDbEntity
8
1
62
256
6
ByLayer
370
-1
48
1
60
0
100
AcDbLine
10
196.733037
20
-12.621858
30
0
11
196.900049
21
-12.828067
31
0
39
0
210
0
220
0
230
1
0
LINE
5
CB
100
AcDbEntity
8
1
62
256
6
ByLayer
370
-1
48
1
60
0
100
AcDbLine
10
194.935488
20
-2.305521
30
0
11
194.679472
21
-1.603434
31
0
39
0
210
0
220
0
230
1
0
LINE
5
CC
100
AcDbEntity
8
1
62
256
6
ByLayer
370
-1
48
1
60
0
100
AcDbLine
10
196.019175
20
-9.694541
30
0
11
196.741822
21
-9.847931
31
0
39
0
210
0
220
0
230
1
0
LINE
5
CD
100
AcDbEntity
8
1
62
256
6
ByLayer
370
-1
48
1
60
0
100
AcDbLine
10
196.019175
20
-9.694541
30
0
11
195.951839
21
-11.619194
31
0
39
0
210
0
220
0
230
1
0
LINE
5
CE
100
AcDbEntity
8
1
62
256
6
ByLayer
370
-1
48
1
60
0
100
AcDbLine
10
196.741822
20
-9.847931
30
0
11
196.674486
21
-11.772584
31
0
39
0
210
0
220
0
230
1
0
LINE
5
CF
100
AcDbEntity
8
1
62
256
6
ByLayer
370
-1
48
1
60
0
100
AcDbLine
10
196.528525
20
-7.819351
30
0
11
196.271031
21
-7.704619
31
0
39
0
210
0
220
0
230
1
0
LINE
5
D0
100
AcDbEntity
8
1
62
256
6
ByLayer
370
-1
48
1
60
0
100
AcDbLine
10
195.951839
20
-11.619194
30
0
11
196.674486
21
-11.772584
31
0
39
0
210
0
220
0
230
1
0
LINE
5
D1
100
AcDbEntity
8
1
62
256
6
ByLayer
370
-1
48
1
60
0
100
AcDbLine
10
196.003373
20
-2.606931
30
0
11
196.271031
21
-7.704619
31
0
39
0
210
0
220
0
230
1
0
LINE
5
D2
100
AcDbEntity
8
1
62
256
6
ByLayer
370
-1
48
1
60
0
100
AcDbLine
10
194.748542
20
-0.917343
30
0
11
195.217396
21
-2.203106
31
0
39
0
210
0
220
0
230
1
0
LINE
5
D3
100
AcDbEntity
8
1
62
256
6
ByLayer
370
-1
48
1
60
0
100
AcDbLine
10
196.999513
20
-9.985115
30
0
11
196.741822
21
-9.847931
31
0
39
0
210
0
220
0
230
1
0
LINE
5
D4
100
AcDbEntity
8
1
62
256
6
ByLayer
370
-1
48
1
60
0
100
AcDbLine
10
195.998964
20
-2.413972
30
0
11
196.248628
21
-2.488557
31
0
39
0
210
0
220
0
230
1
0
LINE
5
D5
100
AcDbEntity
8
1
62
256
6
ByLayer
370
-1
48
1
60
0
100
AcDbLine
10
194.748542
20
-0.917343
30
0
11
195.428022
21
-0.798696
31
0
39
0
210
0
220
0
230
1
0
LINE
5
D6
100
AcDbEntity
8
1
62
256
6
ByLayer
370
-1
48
1
60
0
100
AcDbLine
10
195.281276
20
-2.516502
30
0
11
196.003373
21
-2.606931
31
0
39
0
210
0
220
0
230
1
0
LINE
5
D7
100
AcDbEntity
8
1
62
256
6
ByLayer
370
-1
48
1
60
0
100
AcDbLine
10
196.20714
20
-13.344342
30
0
11
196.374153
21
-13.550551
31
0
39
0
210
0
220
0
230
1
0
LINE
5
D8
100
AcDbEntity
8
1
62
256
6
ByLayer
370
-1
48
1
60
0
100
AcDbLine
10
195.217396
20
-2.203106
30
0
11
195.896876
21
-2.084459
31
0
39
0
210
0
220
0
230
1
0
LINE
5
D9
100
AcDbEntity
8
1
62
256
6
ByLayer
370
-1
48
1
60
0
100
AcDbLine
10
195.548934
20
-7.61419
30
0
11
196.271031
21
-7.704619
31
0
39
0
210
0
220
0
230
1
0
LINE
5
DA
100
AcDbEntity
8
1
62
256
6
ByLayer
370
-1
48
1
60
0
100
AcDbLine
10
195.428022
20
-0.798696
30
0
11
195.896876
21
-2.084459
31
0
39
0
210
0
220
0
230
1
0
LINE
5
DB
100
AcDbEntity
8
1
62
256
6
ByLayer
370
-1
48
1
60
0
100
AcDbLine
10
195.234123
20
-0.057036
30
0
11
195.355464
21
0.024571
31
0
39
0
210
0
220
0
230
1
0
LINE
5
DC
100
AcDbEntity
8
1
62
256
6
ByLayer
370
-1
48
1
60
0
100
AcDbLine
10
196.374153
20
-13.550551
30
0
11
195.208092
21
-13.974171
31
0
39
0
210
0
220
0
230
1
0
LINE
5
DD
100
AcDbEntity
8
SK1
62
256
6
ByLayer
370
-1
48
1
60
0
100
AcDbLine
10
-70
20
-6.623111
30
0
11
-70
21
-18.996
31
0
39
0
210
0
220
0
230
1
0
LINE
5
DE
100
AcDbEntity
8
SK1
62
256
6
ByLayer
370
-1
48
1
60
0
100
AcDbLine
10
-70
20
18.996
30
0
11
-70
21
6.623111
31
0
39
0
210
0
220
0
230
1
0
LINE
5
DF
100
AcDbEntity
8
SK1
62
256
6
ByLayer
370
-1
48
1
60
0
100
AcDbLine
10
-1.383773
20
19.75
30
0
11
-1.383773
21
-19.75
31
0
39
0
210
0
220
0
230
1
0
LINE
5
E0
100
AcDbEntity
8
SK1
62
256
6
ByLayer
370
-1
48
1
60
0
100
AcDbLine
10
-67.633814
20
-8.290603
30
0
11
-67.633814
21
-19.639667
31
0
39
0
210
0
220
0
230
1
0
LINE
5
E1
100
AcDbEntity
8
SK1
62
256
6
ByLayer
370
-1
48
1
60
0
100
AcDbLine
10
-67.633814
20
19.639667
30
0
11
-67.633814
21
8.290603
31
0
39
0
210
0
220
0
230
1
0
LINE
5
E2
100
AcDbEntity
8
SK1
62
256
6
ByLayer
370
-1
48
1
60
0
100
AcDbLine
10
-66.6
20
9.102615
30
0
11
-6.5
21
9.102615
31
0
39
0
210
0
220
0
230
1
0
LINE
5
E3
100
AcDbEntity
8
SK1
62
256
6
ByLayer
370
-1
48
1
60
0
100
AcDbLine
10
-69
20
9.102615
30
0
11
-68.6
21
9.102615
31
0
39
0
210
0
220
0
230
1
0
LINE
5
E4
100
AcDbEntity
8
SK1
62
256
6
ByLayer
370
-1
48
1
60
0
100
AcDbLine
10
-68.6
20
-19.996
30
0
11
-68.6
21
-9.102615
31
0
39
0
210
0
220
0
230
1
0
LINE
5
E5
100
AcDbEntity
8
SK1
62
256
6
ByLayer
370
-1
48
1
60
0
100
AcDbLine
10
-68.6
20
9.102615
30
0
11
-68.6
21
19.996
31
0
39
0
210
0
220
0
230
1
0
LINE
5
E6
100
AcDbEntity
8
SK1
62
256
6
ByLayer
370
-1
48
1
60
0
100
AcDbLine
10
-6.5
20
9.102615
30
0
11
-6.5
21
-9.102615
31
0
39
0
210
0
220
0
230
1
0
LINE
5
E7
100
AcDbEntity
8
SK1
62
256
6
ByLayer
370
-1
48
1
60
0
100
AcDbLine
10
-2
20
-19.996
30
0
11
-2
21
19.996
31
0
39
0
210
0
220
0
230
1
0
LINE
5
E8
100
AcDbEntity
8
SK1
62
256
6
ByLayer
370
-1
48
1
60
0
100
AcDbLine
10
-0.15
20
19.75
30
0
11
-0.15
21
-19.75
31
0
39
0
210
0
220
0
230
1
0
LINE
5
E9
100
AcDbEntity
8
SK1
62
256
6
ByLayer
370
-1
48
1
60
0
100
AcDbLine
10
-6.5
20
-9.102615
30
0
11
-66.6
21
-9.102615
31
0
39
0
210
0
220
0
230
1
0
LINE
5
EA
100
AcDbEntity
8
SK1
62
256
6
ByLayer
370
-1
48
1
60
0
100
AcDbLine
10
-68.6
20
-9.102615
30
0
11
-69
21
-9.102615
31
0
39
0
210
0
220
0
230
1
0
LINE
5
EB
100
AcDbEntity
8
SK1
62
256
6
ByLayer
370
-1
48
1
60
0
100
AcDbLine
10
-68.516223
20
-8.873042
30
0
11
-68.516223
21
-19.892544
31
0
39
0
210
0
220
0
230
1
0
LINE
5
EC
100
AcDbEntity
8
SK1
62
256
6
ByLayer
370
-1
48
1
60
0
100
AcDbLine
10
-68.516223
20
19.892544
30
0
11
-68.516223
21
8.873042
31
0
39
0
210
0
220
0
230
1
0
LINE
5
ED
100
AcDbEntity
8
SK1
62
256
6
ByLayer
370
-1
48
1
60
0
100
AcDbLine
10
-1.552821
20
19.787477
30
0
11
-1.552821
21
-19.787477
31
0
39
0
210
0
220
0
230
1
0
LINE
5
EE
100
AcDbEntity
8
SK1
62
256
6
ByLayer
370
-1
48
1
60
0
100
AcDbLine
10
-69
20
-9.102615
30
0
11
-69
21
-19.996
31
0
39
0
210
0
220
0
230
1
0
LINE
5
EF
100
AcDbEntity
8
SK1
62
256
6
ByLayer
370
-1
48
1
60
0
100
AcDbLine
10
-69
20
19.996
30
0
11
-69
21
9.102615
31
0
39
0
210
0
220
0
230
1
0
LINE
5
F0
100
AcDbEntity
8
SK1
62
256
6
ByLayer
370
-1
48
1
60
0
100
AcDbLine
10
-70
20
6.623111
30
0
11
-70
21
-6.623111
31
0
39
0
210
0
220
0
230
1
0
LINE
5
F1
100
AcDbEntity
8
SK1
62
256
6
ByLayer
370
-1
48
1
60
0
100
AcDbLine
10
-66.6
20
9.102615
30
0
11
-66.6
21
19.996
31
0
39
0
210
0
220
0
230
1
0
LINE
5
F2
100
AcDbEntity
8
SK1
62
256
6
ByLayer
370
-1
48
1
60
0
100
AcDbLine
10
-66.6
20
-19.996
30
0
11
-66.6
21
-9.102615
31
0
39
0
210
0
220
0
230
1
0
MTEXT
5
26E
100
AcDbEntity
8
SK6
62
256
6
ByLayer
370
-1
48
1
60
0
100
AcDbMText
10
0.79375
20
-80.79375
30
0
210
0
220
0
230
1
1
\W00.747;\fsimplex.shx,bigfont.shx;880-D5200L40-03 
40
3.175
41
0
44
1.084337
50
0
71
7
72
5
7
DEFAULT
0
DIMENSION
5
29E
100
AcDbEntity
8
SK2
62
256
6
ByLayer
370
-3
48
1
60
0
100
AcDbDimension
2
DimnDraft3D1
10
197
20
-70.11955
30
0
11
63.5
21
-70.11955
31
0
70
32
71
5
72
1
41
1
210
0
220
0
230
1
3
Standard
100
AcDbAlignedDimension
13
-70
23
-21.5875
33
0
14
197
24
-27.5875
34
0
50
0
100
AcDbRotatedDimension
1001
ACAD
1000
DSTYLE
1002
{
1070
   279
1070
     0
1070
   172
1070
     1
1070
   173
1070
     1
1070
   340
1005
26F
1070
   271
1070
     1
1070
   272
1070
     2
1070
    77
1070
     1
1070
    73
1070
     0
1070
   171
1070
     3
1070
   274
1070
     4
1070
   177
1070
   150
1070
   176
1070
     9
1070
   178
1070
    43
1070
    78
1070
     8
1070
    48
1040
-0.005
1070
    41
1041
4.175
1070
   147
1041
2.25
1070
    42
1041
1.5875
1070
    44
1041
3.175
1070
   140
1041
4.5
1070
   343
1005
0
1070
   344
1005
0
1002
}
0
DIMENSION
5
2A8
100
AcDbEntity
8
SK2
62
256
6
ByLayer
370
-3
48
1
60
0
100
AcDbDimension
2
DimnDraft3D2
10
0
20
-58.1508
30
0
11
-35
21
-58.1508
31
0
70
32
71
5
72
1
41
1
210
0
220
0
230
1
3
Standard
100
AcDbAlignedDimension
13
-70
23
-21.5875
33
0
14
0
24
-32.8375
34
0
50
0
100
AcDbRotatedDimension
1001
ACAD
1000
DSTYLE
1002
{
1070
   279
1070
     0
1070
   172
1070
     1
1070
   173
1070
     1
1070
   340
1005
26F
1070
   271
1070
     1
1070
   272
1070
     2
1070
    77
1070
     1
1070
    73
1070
     0
1070
   171
1070
     3
1070
   274
1070
     4
1070
   177
1070
   150
1070
   176
1070
     9
1070
   178
1070
    43
1070
    78
1070
     8
1070
    48
1040
-0.005
1070
    41
1041
4.175
1070
   147
1041
2.25
1070
    42
1041
1.5875
1070
    44
1041
3.175
1070
   140
1041
4.5
1070
   343
1005
0
1070
   344
1005
0
1002
}
0
DIMENSION
5
2B3
100
AcDbEntity
8
2
62
256
6
ByLayer
370
-3
48
1
60
0
100
AcDbDimension
2
DimnDraft3D3
10
197
20
-58.1508
30
0
11
98.5
21
-58.1508
31
0
70
32
71
5
72
1
41
1
210
0
220
0
230
1
3
Standard
100
AcDbAlignedDimension
13
0
23
-32.8375
33
0
14
197
24
-27.5875
34
0
50
0
100
AcDbRotatedDimension
1001
ACAD
1000
DSTYLE
1002
{
1070
   279
1070
     0
1070
   172
1070
     1
1070
   173
1070
     1
1070
   340
1005
26F
1070
   271
1070
     1
1070
   272
1070
     2
1070
    77
1070
     1
1070
    73
1070
     0
1070
   171
1070
     3
1070
   274
1070
     4
1070
   177
1070
   150
1070
   176
1070
     9
1070
   178
1070
    43
1070
    78
1070
     8
1070
    48
1040
-0.005
1070
    41
1041
4.175
1070
   147
1041
2.25
1070
    42
1041
1.5875
1070
    44
1041
3.175
1070
   140
1041
4.5
1070
   343
1005
0
1070
   344
1005
0
1002
}
0
DIMENSION
5
2BD
100
AcDbEntity
8
SK2
62
256
6
ByLayer
370
-3
48
1
60
0
100
AcDbDimension
2
DimnDraft3D4
10
197
20
-48.1508
30
0
11
116.5
21
-48.1508
31
0
70
32
71
5
72
1
41
1
210
0
220
0
230
1
3
Standard
100
AcDbAlignedDimension
13
36
23
-11.5875
33
0
14
197
24
-27.5875
34
0
50
0
100
AcDbRotatedDimension
1001
ACAD
1000
DSTYLE
1002
{
1070
   279
1070
     0
1070
   172
1070
     1
1070
   173
1070
     1
1070
   340
1005
26F
1070
   271
1070
     1
1070
   272
1070
     2
1070
    77
1070
     1
1070
    73
1070
     0
1070
   171
1070
     3
1070
   274
1070
     4
1070
   177
1070
   150
1070
   176
1070
     9
1070
   178
1070
    43
1070
    78
1070
     8
1070
    48
1040
-0.005
1070
    41
1041
4.175
1070
   147
1041
2.25
1070
    42
1041
1.5875
1070
    44
1041
3.175
1070
   140
1041
4.5
1070
   343
1005
0
1070
   344
1005
0
1002
}
0
DIMENSION
5
2C8
100
AcDbEntity
8
SK2
62
256
6
ByLayer
370
-3
48
1
60
0
100
AcDbDimension
2
DimnDraft3D5
10
-81.9
20
-20
30
0
11
-82.1
21
3.884211
31
0
70
33
71
5
72
1
41
1
210
0
220
0
230
1
3
Standard
100
AcDbAlignedDimension
13
-71.5875
23
20
33
0
14
-71.5875
24
-20
34
0
1001
ACAD
1000
DSTYLE
1002
{
1070
   279
1070
     0
1070
    74
1070
     0
1070
   173
1070
     1
1070
   340
1005
26F
1070
   271
1070
     2
1070
   272
1070
     2
1070
    77
1070
     1
1070
    73
1070
     0
1070
   171
1070
     3
1070
   274
1070
     4
1070
   177
1070
   150
1070
   176
1070
     9
1070
   178
1070
    43
1070
    78
1070
     8
1070
    48
1040
-0.005
1070
    41
1041
4.175
1070
   147
1041
2.25
1070
    42
1041
1.5875
1070
    44
1041
3.175
1070
   140
1041
4.5
1070
   343
1005
0
1070
   344
1005
0
1002
}
0
DIMENSION
5
2D3
100
AcDbEntity
8
SK2
62
256
6
ByLayer
370
-3
48
1
60
0
100
AcDbDimension
2
DimnDraft3D6
10
-91.9
20
31.25
30
0
11
-92.1
21
1.586842
31
0
70
33
71
5
72
1
41
1
210
0
220
0
230
1
3
Standard
100
AcDbAlignedDimension
13
-1.5875
23
-31.25
33
0
14
-1.5875
24
31.25
34
0
1001
ACAD
1000
DSTYLE
1002
{
1070
   279
1070
     0
1070
    74
1070
     0
1070
   173
1070
     1
1070
   340
1005
26F
1070
   271
1070
     1
1070
   272
1070
     2
1070
    77
1070
     1
1070
    73
1070
     0
1070
   171
1070
     3
1070
   274
1070
     4
1070
   177
1070
   150
1070
   176
1070
     9
1070
   178
1070
    43
1070
    78
1070
     8
1070
    48
1040
-0.005
1070
    41
1041
4.175
1070
   147
1041
2.25
1070
    42
1041
1.5875
1070
    44
1041
3.175
1070
   140
1041
4.5
1070
   343
1005
0
1070
   344
1005
0
1002
}
0
DIMENSION
5
2DE
100
AcDbEntity
8
2
62
256
6
ByLayer
370
-3
48
1
60
0
100
AcDbDimension
2
DimnDraft3D7
10
227.15
20
-26
30
0
11
220.6
21
4.121053
31
0
70
33
71
5
72
1
41
1
210
0
220
0
230
1
3
Standard
100
AcDbAlignedDimension
13
198.5875
23
26
33
0
14
198.5875
24
-26
34
0
1001
ACAD
1000
DSTYLE
1002
{
1070
   279
1070
     0
1070
    74
1070
     0
1070
   173
1070
     1
1070
   340
1005
26F
1070
   271
1070
     2
1070
   272
1070
     2
1070
    77
1070
     1
1070
    73
1070
     0
1070
   171
1070
     3
1070
   274
1070
     4
1070
   177
1070
   150
1070
   176
1070
     9
1070
   178
1070
    43
1070
    78
1070
     8
1070
    48
1040
-0.005
1070
    41
1041
4.175
1070
   147
1041
2.25
1070
    42
1041
1.5875
1070
    44
1041
3.175
1070
   140
1041
4.5
1070
   343
1005
0
1070
   344
1005
0
1002
}
0
ENDSEC
0
SECTION
2
OBJECTS
0
DICTIONARY
5
30f
330
0
100
AcDbDictionary
280
0
281
1
3
ACAD_GROUP
350
310
3
ACAD_MLINESTYLE
350
311
0
DICTIONARY
5
310
330
0
100
AcDbDictionary
280
0
281
1
0
DICTIONARY
5
311
330
0
100
AcDbDictionary
280
0
281
1
3
Standard
350
18
0
MLINESTYLE
5
18
330
311
100
AcDbMlineStyle
2
Standard
70
0
3

62
256
51
90
52
90
71
2
49
-0.5
62
256
6
ByLayer
49
0.5
62
256
6
ByLayer
0
RASTERVARIABLES
5
2fd
330

100
AcDbRasterVariables
90
0
70
1
71
1
72
1
0
ENDSEC
0
EOF
