0
SECTION
2
HEADER
9
$ACADVER
1
AC1015
9
$DWGCODEPAGE
3
ANSI_1252
9
$HANDSEED
5
32f
9
$ANGBASE
50
0
9
$ANGDIR
70
0
9
$ATTMODE
70
1
9
$AUNITS
70
0
9
$AUPREC
70
0
9
$CECOLOR
62
256
9
$CELTSCALE
40
1
9
$CELTYPE
6
ByLayer
9
$CELWEIGHT
370
-1
9
$CLAYER
8
0
9
$CMLJUST
70
0
9
$CMLSCALE
40
1
9
$CMLSTYLE
2
Standard
9
$DIMSTYLE
2
Standard
9
$TEXTSIZE
40
0.2
9
$TEXTSTYLE
7
Standard
9
$LUNITS
70
2
9
$LUPREC
70
4
9
$EXTNAMES
290
1
9
$INSUNITS
70
4
9
$LTSCALE
40
1
9
$LWDISPLAY
290
0
9
$PDMODE
70
0
9
$PDSIZE
40
0
9
$PLINEGEN
70
0
0
ENDSEC
0
SECTION
2
CLASSES
0
CLASS
1
RASTERVARIABLES
2
AcDbRasterVariables
3
ISM
90
0
280
0
281
0
0
ENDSEC
0
SECTION
2
TABLES
0
TABLE
2
VPORT
5
325
100
AcDbSymbolTable
0
VPORT
5
1
100
AcDbSymbolTableRecord
100
AcDbViewportTableRecord
2
*Active
70
0
10
0
20
0
11
1
21
1
12
-1
22
1
13
0
23
0
14
0.5
24
0.5
15
10
25
10
16
0
26
0
36
1
17
0
27
0
37
0
0
ENDTAB
0
TABLE
2
LTYPE
5
326
100
AcDbSymbolTable
0
LTYPE
5
14
100
AcDbSymbolTableRecord
100
AcDbLinetypeTableRecord
70
0
2
ByBlock
3

72
65
73
0
40
0
0
LTYPE
5
15
100
AcDbSymbolTableRecord
100
AcDbLinetypeTableRecord
70
0
2
ByLayer
3

72
65
73
0
40
0
0
LTYPE
5
16
100
AcDbSymbolTableRecord
100
AcDbLinetypeTableRecord
70
0
2
CONTINUOUS
3
Solid line
72
65
73
0
40
0
0
LTYPE
5
3B
100
AcDbSymbolTableRecord
100
AcDbLinetypeTableRecord
70
0
2
DASHED
3
__ __ __ __ __ __ __ __ __
72
65
73
2
40
25.72
49
12.86
74
0
49
-12.86
74
0
0
LTYPE
5
3C
100
AcDbSymbolTableRecord
100
AcDbLinetypeTableRecord
70
0
2
HIDDEN
3
_ _ _ _ _ _ _ _ _ _ _ _ _ _ _
72
65
73
2
40
0.5
49
0.25
74
0
49
-0.25
74
0
0
LTYPE
5
3D
100
AcDbSymbolTableRecord
100
AcDbLinetypeTableRecord
70
0
2
PHANTOM
3
____ _ _ ____ _ _ _____ _ _ ____
72
65
73
6
40
50.5
49
18
74
0
49
-6.5
74
0
49
6.5
74
0
49
-6.5
74
0
49
6.5
74
0
49
-6.5
74
0
0
LTYPE
5
3E
100
AcDbSymbolTableRecord
100
AcDbLinetypeTableRecord
70
0
2
CENTER
3
____ _ ____ _ ____ _ ____
72
65
73
4
40
47.5
49
22
74
0
49
-8.5
74
0
49
8.5
74
0
49
-8.5
74
0
0
LTYPE
5
3F
100
AcDbSymbolTableRecord
100
AcDbLinetypeTableRecord
70
0
2
DOT
3
.........................
72
65
73
2
40
10
49
0
74
0
49
-10
74
0
0
LTYPE
5
40
100
AcDbSymbolTableRecord
100
AcDbLinetypeTableRecord
70
0
2
DASHDOT
3
_._._._._._._._._._._._._._._._.
72
65
73
4
40
70
49
31
74
0
49
-13
74
0
49
13
74
0
49
-13
74
0
0
ENDTAB
0
TABLE
2
LAYER
5
327
100
AcDbSymbolTable
0
LAYER
5
10
100
AcDbSymbolTableRecord
100
AcDbLayerTableRecord
2
0
70
0
62
7
6
CONTINUOUS
290
1
370
-3
390
0
0
LAYER
5
42
100
AcDbSymbolTableRecord
100
AcDbLayerTableRecord
2
81
70
0
62
-3
6
CONTINUOUS
290
1
370
-3
390
0
0
LAYER
5
44
100
AcDbSymbolTableRecord
100
AcDbLayerTableRecord
2
80
70
0
62
-6
6
CONTINUOUS
290
1
370
-3
390
0
0
LAYER
5
48
100
AcDbSymbolTableRecord
100
AcDbLayerTableRecord
2
1
70
0
62
4
6
CONTINUOUS
290
1
370
-3
390
0
0
LAYER
5
62
100
AcDbSymbolTableRecord
100
AcDbLayerTableRecord
2
4
70
0
62
-2
6
CENTER
290
1
370
-3
390
0
0
LAYER
5
2BE
100
AcDbSymbolTableRecord
100
AcDbLayerTableRecord
2
2
70
0
62
7
6
CONTINUOUS
290
1
370
-3
390
0
0
LAYER
5
311
100
AcDbSymbolTableRecord
100
AcDbLayerTableRecord
2
SK1
70
0
62
4
6
CONTINUOUS
290
1
370
-3
390
0
0
LAYER
5
312
100
AcDbSymbolTableRecord
100
AcDbLayerTableRecord
2
SK4
70
0
62
2
6
CENTER
290
1
370
-3
390
0
0
LAYER
5
313
100
AcDbSymbolTableRecord
100
AcDbLayerTableRecord
2
SK6
70
0
62
5
6
CONTINUOUS
290
1
370
-3
390
0
0
LAYER
5
314
100
AcDbSymbolTableRecord
100
AcDbLayerTableRecord
2
SK2
70
0
62
7
6
CONTINUOUS
290
1
370
-3
390
0
0
ENDTAB
0
TABLE
2
STYLE
5
328
100
AcDbSymbolTable
0
STYLE
5
11
100
AcDbSymbolTableRecord
100
AcDbTextStyleTableRecord
2
Standard
3
txt
70
0
71
0
40
0
41
1
42
0
50
0
0
STYLE
5
282
100
AcDbSymbolTableRecord
100
AcDbTextStyleTableRecord
2
DEFAULT
3
simplex.shx
70
0
71
0
40
0
41
1
42
0
50
0
0
STYLE
5
2A5
100
AcDbSymbolTableRecord
100
AcDbTextStyleTableRecord
2
DWGDirectTextStyle
3
SIMPLEX
70
0
71
0
40
0
41
1
42
0
50
0
0
ENDTAB
0
TABLE
2
DIMSTYLE
5
329
100
AcDbSymbolTable
100
AcDbDimStyleTable
0
DIMSTYLE
105
27
100
AcDbSymbolTableRecord
100
AcDbDimStyleTableRecord
2
Standard
70
0
3
<>
41
0.18
42
0.0625
44
0.18
140
0.18
147
0.09
73
0
74
0
77
1
271
2
275
0
278
52
280
0
340
11
0
ENDTAB
0
TABLE
2
VIEW
5
32a
100
AcDbSymbolTable
0
ENDTAB
0
TABLE
2
UCS
5
32b
100
AcDbSymbolTable
0
ENDTAB
0
TABLE
2
APPID
5
32c
100
AcDbSymbolTable
0
APPID
5
12
100
AcDbSymbolTableRecord
100
AcDbRegAppTableRecord
2
ACAD
70
0
0
ENDTAB
0
TABLE
2
BLOCK_RECORD
5
32d
100
AcDbSymbolTable
0
BLOCK_RECORD
5
1F
100
AcDbSymbolTableRecord
100
AcDbBlockTableRecord
2
*Model_Space
340
0
70
0
0
BLOCK_RECORD
5
1B
100
AcDbSymbolTableRecord
100
AcDbBlockTableRecord
2
*Paper_Space
340
0
70
0
0
BLOCK_RECORD
5
23
100
AcDbSymbolTableRecord
100
AcDbBlockTableRecord
2
*Paper_Space0
340
0
70
0
0
BLOCK_RECORD
5
2A7
100
AcDbSymbolTableRecord
100
AcDbBlockTableRecord
2
DimnDraft3D1
340
0
70
0
0
BLOCK_RECORD
5
2B2
100
AcDbSymbolTableRecord
100
AcDbBlockTableRecord
2
DimnDraft3D2
340
0
70
0
0
BLOCK_RECORD
5
2BC
100
AcDbSymbolTableRecord
100
AcDbBlockTableRecord
2
DimnDraft3D3
340
0
70
0
0
BLOCK_RECORD
5
2C7
100
AcDbSymbolTableRecord
100
AcDbBlockTableRecord
2
DimnDraft3D4
340
0
70
0
0
BLOCK_RECORD
5
2D1
100
AcDbSymbolTableRecord
100
AcDbBlockTableRecord
2
DimnDraft3D5
340
0
70
0
0
BLOCK_RECORD
5
2DC
100
AcDbSymbolTableRecord
100
AcDbBlockTableRecord
2
DimnDraft3D6
340
0
70
0
0
BLOCK_RECORD
5
2E7
100
AcDbSymbolTableRecord
100
AcDbBlockTableRecord
2
DimnDraft3D7
340
0
70
0
0
ENDTAB
0
ENDSEC
0
SECTION
2
BLOCKS
0
BLOCK
5
20
100
AcDbEntity
8
0
100
AcDbBlockBegin
2
*Model_Space
70
0
10
0
20
0
30
0
3
*Model_Space
0
ENDBLK
5
21
100
AcDbEntity
8
0
100
AcDbBlockEnd
0
BLOCK
5
1C
100
AcDbEntity
8
0
100
AcDbBlockBegin
2
*Paper_Space
70
0
10
0
20
0
30
0
3
*Paper_Space
0
ENDBLK
5
1D
100
AcDbEntity
8
0
100
AcDbBlockEnd
0
BLOCK
5
24
100
AcDbEntity
8
0
100
AcDbBlockBegin
2
*Paper_Space0
70
0
10
0
20
0
30
0
3
*Paper_Space0
0
ENDBLK
5
25
100
AcDbEntity
8
0
100
AcDbBlockEnd
0
BLOCK
5
2AF
100
AcDbEntity
8
0
100
AcDbBlockBegin
2
DimnDraft3D1
70
0
10
0
20
0
30
0
3
DimnDraft3D1
0
MTEXT
5
2A8
100
AcDbEntity
8
SK2
62
256
6
ByLayer
370
-1
48
1
60
0
100
AcDbMText
10
74.844079
20
-67.0258
30
0
210
0
220
0
230
1
1
\W01.000;\fsimplex.shx,bigfont.shx;(325) 
40
4.5
41
0
44
1.084337
50
0
71
7
72
5
7
DEFAULT
0
LINE
5
2AA
100
AcDbEntity
8
SK2
62
256
6
ByLayer
370
-1
48
1
60
0
100
AcDbLine
10
-80
20
-26.5875
30
0
11
-80
21
-73.29455
31
0
39
0
210
0
220
0
230
1
0
LINE
5
2AB
100
AcDbEntity
8
SK2
62
256
6
ByLayer
370
-1
48
1
60
0
100
AcDbLine
10
245
20
-27.0875
30
0
11
245
21
-73.29455
31
0
39
0
210
0
220
0
230
1
0
LINE
5
2AC
100
AcDbEntity
8
SK2
62
256
6
ByLayer
370
-1
48
1
60
0
100
AcDbLine
10
-80
20
-70.11955
30
0
11
245
21
-70.11955
31
0
39
0
210
0
220
0
230
1
0
SOLID
5
2AD
100
AcDbEntity
8
SK2
62
256
6
ByLayer
370
-1
48
1
60
0
100
AcDbTrace
10
-80
20
-70.11955
30
0
11
-75.825003
21
-69.193975
31
0
12
-75.824997
22
-71.045125
32
0
13
-80
23
-70.11955
33
0
39
0
210
0
220
0
230
1
0
SOLID
5
2AE
100
AcDbEntity
8
SK2
62
256
6
ByLayer
370
-1
48
1
60
0
100
AcDbTrace
10
245
20
-70.11955
30
0
11
240.825003
21
-71.045125
31
0
12
240.824997
22
-69.193975
32
0
13
245
23
-70.11955
33
0
39
0
210
0
220
0
230
1
0
ENDBLK
5
2B0
100
AcDbEntity
8
0
100
AcDbBlockEnd
0
BLOCK
5
2B9
100
AcDbEntity
8
0
100
AcDbBlockBegin
2
DimnDraft3D2
70
0
10
0
20
0
30
0
3
DimnDraft3D2
0
MTEXT
5
2B3
100
AcDbEntity
8
SK2
62
256
6
ByLayer
370
-1
48
1
60
0
100
AcDbMText
10
-41.503947
20
-57.0258
30
0
210
0
220
0
230
1
1
\W01.000;\fsimplex.shx,bigfont.shx;80 
40
4.5
41
0
44
1.084337
50
0
71
7
72
5
7
DEFAULT
0
LINE
5
2B4
100
AcDbEntity
8
SK2
62
256
6
ByLayer
370
-1
48
1
60
0
100
AcDbLine
10
-80
20
-26.5875
30
0
11
-80
21
-61.3258
31
0
39
0
210
0
220
0
230
1
0
LINE
5
2B5
100
AcDbEntity
8
SK2
62
256
6
ByLayer
370
-1
48
1
60
0
100
AcDbLine
10
0
20
-32.8375
30
0
11
0
21
-61.3258
31
0
39
0
210
0
220
0
230
1
0
LINE
5
2B6
100
AcDbEntity
8
SK2
62
256
6
ByLayer
370
-1
48
1
60
0
100
AcDbLine
10
-80
20
-58.1508
30
0
11
0
21
-58.1508
31
0
39
0
210
0
220
0
230
1
0
SOLID
5
2B7
100
AcDbEntity
8
SK2
62
256
6
ByLayer
370
-1
48
1
60
0
100
AcDbTrace
10
-80
20
-58.1508
30
0
11
-75.825003
21
-57.225225
31
0
12
-75.824997
22
-59.076375
32
0
13
-80
23
-58.1508
33
0
39
0
210
0
220
0
230
1
0
SOLID
5
2B8
100
AcDbEntity
8
SK2
62
256
6
ByLayer
370
-1
48
1
60
0
100
AcDbTrace
10
0
20
-58.1508
30
0
11
-4.174997
21
-59.076375
31
0
12
-4.175003
22
-57.225225
32
0
13
0
23
-58.1508
33
0
39
0
210
0
220
0
230
1
0
ENDBLK
5
2BA
100
AcDbEntity
8
0
100
AcDbBlockEnd
0
BLOCK
5
2C4
100
AcDbEntity
8
0
100
AcDbBlockBegin
2
DimnDraft3D3
70
0
10
0
20
0
30
0
3
DimnDraft3D3
0
MTEXT
5
2BD
100
AcDbEntity
8
2
62
256
6
ByLayer
370
-1
48
1
60
0
100
AcDbMText
10
119.107237
20
-57.0258
30
0
210
0
220
0
230
1
1
\W01.000;\fsimplex.shx,bigfont.shx;245 
40
4.5
41
0
44
1.084337
50
0
71
7
72
5
7
DEFAULT
0
LINE
5
2BF
100
AcDbEntity
8
2
62
256
6
ByLayer
370
-1
48
1
60
0
100
AcDbLine
10
0
20
-32.8375
30
0
11
0
21
-61.3258
31
0
39
0
210
0
220
0
230
1
0
LINE
5
2C0
100
AcDbEntity
8
2
62
256
6
ByLayer
370
-1
48
1
60
0
100
AcDbLine
10
245
20
-27.0875
30
0
11
245
21
-61.3258
31
0
39
0
210
0
220
0
230
1
0
LINE
5
2C1
100
AcDbEntity
8
2
62
256
6
ByLayer
370
-1
48
1
60
0
100
AcDbLine
10
0
20
-58.1508
30
0
11
245
21
-58.1508
31
0
39
0
210
0
220
0
230
1
0
SOLID
5
2C2
100
AcDbEntity
8
2
62
256
6
ByLayer
370
-1
48
1
60
0
100
AcDbTrace
10
0
20
-58.1508
30
0
11
4.174997
21
-57.225225
31
0
12
4.175003
22
-59.076375
32
0
13
0
23
-58.1508
33
0
39
0
210
0
220
0
230
1
0
SOLID
5
2C3
100
AcDbEntity
8
2
62
256
6
ByLayer
370
-1
48
1
60
0
100
AcDbTrace
10
245
20
-58.1508
30
0
11
240.825003
21
-59.076375
31
0
12
240.824997
22
-57.225225
32
0
13
245
23
-58.1508
33
0
39
0
210
0
220
0
230
1
0
ENDBLK
5
2C5
100
AcDbEntity
8
0
100
AcDbBlockEnd
0
BLOCK
5
2CE
100
AcDbEntity
8
0
100
AcDbBlockBegin
2
DimnDraft3D4
70
0
10
0
20
0
30
0
3
DimnDraft3D4
0
MTEXT
5
2C8
100
AcDbEntity
8
SK2
62
256
6
ByLayer
370
-1
48
1
60
0
100
AcDbMText
10
137.344079
20
-47.0258
30
0
210
0
220
0
230
1
1
\W01.000;\fsimplex.shx,bigfont.shx;209 
40
4.5
41
0
44
1.084337
50
0
71
7
72
5
7
DEFAULT
0
LINE
5
2C9
100
AcDbEntity
8
SK2
62
256
6
ByLayer
370
-1
48
1
60
0
100
AcDbLine
10
36
20
-11.5875
30
0
11
36
21
-51.3258
31
0
39
0
210
0
220
0
230
1
0
LINE
5
2CA
100
AcDbEntity
8
SK2
62
256
6
ByLayer
370
-1
48
1
60
0
100
AcDbLine
10
245
20
-27.0875
30
0
11
245
21
-51.3258
31
0
39
0
210
0
220
0
230
1
0
LINE
5
2CB
100
AcDbEntity
8
SK2
62
256
6
ByLayer
370
-1
48
1
60
0
100
AcDbLine
10
36
20
-48.1508
30
0
11
245
21
-48.1508
31
0
39
0
210
0
220
0
230
1
0
SOLID
5
2CC
100
AcDbEntity
8
SK2
62
256
6
ByLayer
370
-1
48
1
60
0
100
AcDbTrace
10
36
20
-48.1508
30
0
11
40.174997
21
-47.225225
31
0
12
40.175003
22
-49.076375
32
0
13
36
23
-48.1508
33
0
39
0
210
0
220
0
230
1
0
SOLID
5
2CD
100
AcDbEntity
8
SK2
62
256
6
ByLayer
370
-1
48
1
60
0
100
AcDbTrace
10
245
20
-48.1508
30
0
11
240.825003
21
-49.076375
31
0
12
240.824997
22
-47.225225
32
0
13
245
23
-48.1508
33
0
39
0
210
0
220
0
230
1
0
ENDBLK
5
2CF
100
AcDbEntity
8
0
100
AcDbBlockEnd
0
BLOCK
5
2D9
100
AcDbEntity
8
0
100
AcDbBlockBegin
2
DimnDraft3D5
70
0
10
0
20
0
30
0
3
DimnDraft3D5
0
MTEXT
5
2D2
100
AcDbEntity
8
SK2
62
256
6
ByLayer
370
-1
48
1
60
0
100
AcDbMText
10
-90.975
20
5.246053
30
0
210
0
220
0
230
1
1
\W01.000;\fsimplex.shx,bigfont.shx;50 
40
4.5
41
0
44
1.084337
50
90
71
7
72
5
7
DEFAULT
0
MTEXT
5
2D3
100
AcDbEntity
8
SK2
62
256
6
ByLayer
370
-1
48
1
60
0
100
AcDbMText
10
-90.975
20
-8.253947
30
0
210
0
220
0
230
1
1
\W01.000;\fsimplex.shx,bigfont.shx;%%c 
40
4.5
41
0
44
1.084337
50
90
71
7
72
5
7
DEFAULT
0
LINE
5
2D4
100
AcDbEntity
8
SK2
62
256
6
ByLayer
370
-1
48
1
60
0
100
AcDbLine
10
-81.5875
20
25
30
0
11
-91.9
21
25
31
0
39
0
210
0
220
0
230
1
0
LINE
5
2D5
100
AcDbEntity
8
SK2
62
256
6
ByLayer
370
-1
48
1
60
0
100
AcDbLine
10
-81.5875
20
-25
30
0
11
-91.9
21
-25
31
0
39
0
210
0
220
0
230
1
0
LINE
5
2D6
100
AcDbEntity
8
SK2
62
256
6
ByLayer
370
-1
48
1
60
0
100
AcDbLine
10
-88.725
20
25
30
0
11
-88.725
21
-25
31
0
39
0
210
0
220
0
230
1
0
SOLID
5
2D7
100
AcDbEntity
8
SK2
62
256
6
ByLayer
370
-1
48
1
60
0
100
AcDbTrace
10
-88.725
20
25
30
0
11
-87.799425
21
20.825003
31
0
12
-89.650575
22
20.824997
32
0
13
-88.725
23
25
33
0
39
0
210
0
220
0
230
1
0
SOLID
5
2D8
100
AcDbEntity
8
SK2
62
256
6
ByLayer
370
-1
48
1
60
0
100
AcDbTrace
10
-88.725
20
-25
30
0
11
-89.650575
21
-20.825003
31
0
12
-87.799425
22
-20.824997
32
0
13
-88.725
23
-25
33
0
39
0
210
0
220
0
230
1
0
ENDBLK
5
2DA
100
AcDbEntity
8
0
100
AcDbBlockEnd
0
BLOCK
5
2E4
100
AcDbEntity
8
0
100
AcDbBlockBegin
2
DimnDraft3D6
70
0
10
0
20
0
30
0
3
DimnDraft3D6
0
MTEXT
5
2DD
100
AcDbEntity
8
SK2
62
256
6
ByLayer
370
-1
48
1
60
0
100
AcDbMText
10
-100.975
20
2.711842
30
0
210
0
220
0
230
1
1
\W01.000;\fsimplex.shx,bigfont.shx;62.5 
40
4.5
41
0
44
1.084337
50
90
71
7
72
5
7
DEFAULT
0
MTEXT
5
2DE
100
AcDbEntity
8
SK2
62
256
6
ByLayer
370
-1
48
1
60
0
100
AcDbMText
10
-100.975
20
-10.788158
30
0
210
0
220
0
230
1
1
\W01.000;\fsimplex.shx,bigfont.shx;%%c 
40
4.5
41
0
44
1.084337
50
90
71
7
72
5
7
DEFAULT
0
LINE
5
2DF
100
AcDbEntity
8
SK2
62
256
6
ByLayer
370
-1
48
1
60
0
100
AcDbLine
10
-1.5875
20
-31.25
30
0
11
-101.9
21
-31.25
31
0
39
0
210
0
220
0
230
1
0
LINE
5
2E0
100
AcDbEntity
8
SK2
62
256
6
ByLayer
370
-1
48
1
60
0
100
AcDbLine
10
-1.5875
20
31.25
30
0
11
-101.9
21
31.25
31
0
39
0
210
0
220
0
230
1
0
LINE
5
2E1
100
AcDbEntity
8
SK2
62
256
6
ByLayer
370
-1
48
1
60
0
100
AcDbLine
10
-98.725
20
-31.25
30
0
11
-98.725
21
31.25
31
0
39
0
210
0
220
0
230
1
0
SOLID
5
2E2
100
AcDbEntity
8
SK2
62
256
6
ByLayer
370
-1
48
1
60
0
100
AcDbTrace
10
-98.725
20
-31.25
30
0
11
-99.650575
21
-27.075003
31
0
12
-97.799425
22
-27.074997
32
0
13
-98.725
23
-31.25
33
0
39
0
210
0
220
0
230
1
0
SOLID
5
2E3
100
AcDbEntity
8
SK2
62
256
6
ByLayer
370
-1
48
1
60
0
100
AcDbTrace
10
-98.725
20
31.25
30
0
11
-97.799425
21
27.075003
31
0
12
-99.650575
22
27.074997
32
0
13
-98.725
23
31.25
33
0
39
0
210
0
220
0
230
1
0
ENDBLK
5
2E5
100
AcDbEntity
8
0
100
AcDbBlockEnd
0
BLOCK
5
2EF
100
AcDbEntity
8
0
100
AcDbBlockBegin
2
DimnDraft3D7
70
0
10
0
20
0
30
0
3
DimnDraft3D7
0
MTEXT
5
2E8
100
AcDbEntity
8
2
62
256
6
ByLayer
370
-1
48
1
60
0
100
AcDbMText
10
269.725
20
5.808553
30
0
210
0
220
0
230
1
1
\W01.000;\fsimplex.shx,bigfont.shx;51 
40
4.5
41
0
44
1.084337
50
90
71
7
72
5
7
DEFAULT
0
MTEXT
5
2E9
100
AcDbEntity
8
2
62
256
6
ByLayer
370
-1
48
1
60
0
100
AcDbMText
10
269.725
20
-7.691447
30
0
210
0
220
0
230
1
1
\W01.000;\fsimplex.shx,bigfont.shx;%%c 
40
4.5
41
0
44
1.084337
50
90
71
7
72
5
7
DEFAULT
0
LINE
5
2EA
100
AcDbEntity
8
2
62
256
6
ByLayer
370
-1
48
1
60
0
100
AcDbLine
10
246.5875
20
25.5
30
0
11
275.15
21
25.5
31
0
39
0
210
0
220
0
230
1
0
LINE
5
2EB
100
AcDbEntity
8
2
62
256
6
ByLayer
370
-1
48
1
60
0
100
AcDbLine
10
246.5875
20
-25.5
30
0
11
275.15
21
-25.5
31
0
39
0
210
0
220
0
230
1
0
LINE
5
2EC
100
AcDbEntity
8
2
62
256
6
ByLayer
370
-1
48
1
60
0
100
AcDbLine
10
271.975
20
25.5
30
0
11
271.975
21
-25.5
31
0
39
0
210
0
220
0
230
1
0
SOLID
5
2ED
100
AcDbEntity
8
2
62
256
6
ByLayer
370
-1
48
1
60
0
100
AcDbTrace
10
271.975
20
25.5
30
0
11
272.900575
21
21.325003
31
0
12
271.049425
22
21.324997
32
0
13
271.975
23
25.5
33
0
39
0
210
0
220
0
230
1
0
SOLID
5
2EE
100
AcDbEntity
8
2
62
256
6
ByLayer
370
-1
48
1
60
0
100
AcDbTrace
10
271.975
20
-25.5
30
0
11
271.049425
21
-21.325003
31
0
12
272.900575
22
-21.324997
32
0
13
271.975
23
-25.5
33
0
39
0
210
0
220
0
230
1
0
ENDBLK
5
2F0
100
AcDbEntity
8
0
100
AcDbBlockEnd
0
ENDSEC
0
SECTION
2
ENTITIES
0
ARC
5
F9
100
AcDbEntity
8
SK1
62
256
6
ByLayer
370
-1
48
1
60
0
100
AcDbCircle
39
0
10
1.383773
20
25.15
30
0
40
0.4
210
0
220
0
230
-1
100
AcDbArc
50
270
51
295
0
ARC
5
FA
100
AcDbEntity
8
SK1
62
256
6
ByLayer
370
-1
48
1
60
0
100
AcDbCircle
39
0
10
1.383773
20
-25.15
30
0
40
0.4
210
0
220
0
230
-1
100
AcDbArc
50
65
51
90
0
ARC
5
FB
100
AcDbEntity
8
SK1
62
256
6
ByLayer
370
-1
48
1
60
0
100
AcDbCircle
39
0
10
0.15
20
25.15
30
0
40
0.4
210
0
220
0
230
-1
100
AcDbArc
50
247.975687
51
270
0
ARC
5
FC
100
AcDbEntity
8
SK1
62
256
6
ByLayer
370
-1
48
1
60
0
100
AcDbCircle
39
0
10
0.15
20
-25.15
30
0
40
0.4
210
0
220
0
230
-1
100
AcDbArc
50
90
51
112.024313
0
ARC
5
FD
100
AcDbEntity
8
SK1
62
256
6
ByLayer
370
-1
48
1
60
0
100
AcDbCircle
39
0
10
77.894506
20
25.396
30
0
40
0.8
210
0
220
0
230
-1
100
AcDbArc
50
250.982048
51
321
0
ARC
5
FE
100
AcDbEntity
8
SK1
62
256
6
ByLayer
370
-1
48
1
60
0
100
AcDbCircle
39
0
10
77.894506
20
-25.396
30
0
40
0.8
210
0
220
0
230
-1
100
AcDbArc
50
39
51
109.017952
0
ELLIPSE
5
FF
100
AcDbEntity
8
1
62
256
6
ByLayer
370
-1
48
1
60
0
100
AcDbEllipse
10
229.771827
20
11.148415
30
0
11
-0.799516360141551
21
-0.0278134835287853
31
0
210
0
220
0
230
1
40
0.003042
41
0.0872135714666033
42
0.974050329556275
0
ELLIPSE
5
100
100
AcDbEntity
8
1
62
256
6
ByLayer
370
-1
48
1
60
0
100
AcDbEllipse
10
237.170681
20
17.329166
30
0
11
2.63577002021162E-15
21
2.25
31
0
210
0
220
0
230
1
40
0.996195
41
0.0349501263397862
42
1.57079643761665
0
ELLIPSE
5
101
100
AcDbEntity
8
1
62
256
6
ByLayer
370
-1
48
1
60
0
100
AcDbEllipse
10
237.170681
20
17.329166
30
0
11
2.63577002021162E-15
21
2.25
31
0
210
0
220
0
230
1
40
0.996195
41
1.87572723107153
42
-1.57079614170616
0
ELLIPSE
5
102
100
AcDbEntity
8
1
62
256
6
ByLayer
370
-1
48
1
60
0
100
AcDbEllipse
10
237.170681
20
17.329166
30
0
11
2.63577002021162E-15
21
2.25
31
0
210
0
220
0
230
1
40
0.996195
41
1.57079643761666
42
1.87572723107153
0
ELLIPSE
5
103
100
AcDbEntity
8
1
62
256
6
ByLayer
370
-1
48
1
60
0
100
AcDbEllipse
10
231.08254
20
11.193785
30
0
11
-1.83236116208164
21
-1.63166900511754
31
0
210
0
220
0
230
-1
40
0.721468
41
-1.30152588459568
42
-0.459180144135956
0
ELLIPSE
5
104
100
AcDbEntity
8
1
62
256
6
ByLayer
370
-1
48
1
60
0
100
AcDbEllipse
10
241.977228
20
-17.143673
30
0
11
-0.252619673901224
21
-3.13587607718981
31
0
210
0
220
0
230
-1
40
0.120647
41
0
42
6.28318530717959
0
ELLIPSE
5
105
100
AcDbEntity
8
1
62
256
6
ByLayer
370
-1
48
1
60
0
100
AcDbEllipse
10
229.364457
20
-0.000293
30
0
11
-0.802991706143597
21
24.8001932761814
31
0
210
0
220
0
230
-1
40
0.087397
41
0.0234478721038199
42
0.0304991175968922
0
ELLIPSE
5
106
100
AcDbEntity
8
1
62
256
6
ByLayer
370
-1
48
1
60
0
100
AcDbEllipse
10
221.809052
20
11.981064
30
0
11
-0.313595748497264
21
-0.735973984950855
31
0
210
0
220
0
230
1
40
0.080227
41
0.729607644349142
42
1.60496756452651
0
ELLIPSE
5
107
100
AcDbEntity
8
1
62
256
6
ByLayer
370
-1
48
1
60
0
100
AcDbEllipse
10
229.606685
20
15.895522
30
0
11
-0.799516360141551
21
-0.0278134835287853
31
0
210
0
220
0
230
1
40
0.003042
41
0.087213571465873
42
0.974050329556246
0
ELLIPSE
5
108
100
AcDbEntity
8
1
62
256
6
ByLayer
370
-1
48
1
60
0
100
AcDbEllipse
10
247.65347
20
0
30
0
11
-59.2201843791498
21
24.0187013264189
31
0
210
0
220
0
230
-1
40
0.104287
41
-1.11679713297878
42
-0.57337789211269
0
ELLIPSE
5
109
100
AcDbEntity
8
1
62
256
6
ByLayer
370
-1
48
1
60
0
100
AcDbEllipse
10
229.352267
20
29.654757
30
0
11
2.24919041724725E-14
21
19.2
31
0
210
0
220
0
230
1
40
0.996195
41
2.74016692563109
42
3.1099422500536
0
ELLIPSE
5
10A
100
AcDbEntity
8
1
62
256
6
ByLayer
370
-1
48
1
60
0
100
AcDbEllipse
10
229.282543
20
29.654757
30
0
11
-2.14373874554696E-14
21
-20
31
0
210
0
220
0
230
1
40
0.996195
41
-0.305615327307511
42
-0.00336141707416191
0
ELLIPSE
5
10B
100
AcDbEntity
8
1
62
256
6
ByLayer
370
-1
48
1
60
0
100
AcDbEllipse
10
222.315031
20
14.9
30
0
11
1.17145334231354E-16
21
0.0999999999997669
31
0
210
0
220
0
230
1
40
0.984549
41
2.97588849760427
42
-1.5707963267949
0
ELLIPSE
5
10C
100
AcDbEntity
8
1
62
256
6
ByLayer
370
-1
48
1
60
0
100
AcDbEllipse
10
243.159561
20
10.622342
30
0
11
-0.00142011084368786
21
-0.801016165211598
31
0
210
0
220
0
230
-1
40
0.121987
41
-0.892213658102742
42
0.00162178720720106
0
ELLIPSE
5
10D
100
AcDbEntity
8
1
62
256
6
ByLayer
370
-1
48
1
60
0
100
AcDbEllipse
10
229.640931
20
18.028091
30
0
11
-0.773306902731844
21
-0.824449257085172
31
0
210
0
220
0
230
-1
40
0.04503
41
-0.757084599932993
42
-0.704869713512318
0
ELLIPSE
5
10E
100
AcDbEntity
8
1
62
256
6
ByLayer
370
-1
48
1
60
0
100
AcDbEllipse
10
236.820748
20
-5.794395
30
0
11
-1.65
21
1.6675544408859E-15
31
0
210
0
220
0
230
1
40
0.997564
41
-3.11636194851898
42
-0.0253295671303054
0
ELLIPSE
5
10F
100
AcDbEntity
8
1
62
256
6
ByLayer
370
-1
48
1
60
0
100
AcDbEllipse
10
243.310232
20
-12.839013
30
0
11
-0.0766931515660571
21
-0.877709776629639
31
0
210
0
220
0
230
-1
40
0.115977
41
0.0117126501981795
42
1.58250897699151
0
ELLIPSE
5
110
100
AcDbEntity
8
1
62
256
6
ByLayer
370
-1
48
1
60
0
100
AcDbEllipse
10
230.981101
20
10.461923
30
0
11
-11.5240026037457
21
0.60622583789418
31
0
210
0
220
0
230
-1
40
0.000357
41
-3.13583344338395
42
-3.13481450702372
0
ELLIPSE
5
111
100
AcDbEntity
8
1
62
256
6
ByLayer
370
-1
48
1
60
0
100
AcDbEllipse
10
230.708753
20
11.193785
30
0
11
2.46005201886418E-15
21
2.1
31
0
210
0
220
0
230
1
40
0.996195
41
1.60570291183478
42
1.92552816401088
0
ELLIPSE
5
112
100
AcDbEntity
8
1
62
256
6
ByLayer
370
-1
48
1
60
0
100
AcDbEllipse
10
237.170681
20
17.329166
30
0
11
2.34290668463255E-15
21
2
31
0
210
0
220
0
230
1
40
0.996195
41
0
42
6.28318530717959
0
ELLIPSE
5
113
100
AcDbEntity
8
1
62
256
6
ByLayer
370
-1
48
1
60
0
100
AcDbEllipse
10
194.787078
20
19.150352
30
0
11
-1.82535208182639
21
-10.746073225945
31
0
210
0
220
0
230
1
40
0.172713
41
1.37958624044973
42
1.54416380396866
0
ELLIPSE
5
114
100
AcDbEntity
8
1
62
256
6
ByLayer
370
-1
48
1
60
0
100
AcDbEllipse
10
102.167469
20
34.882926
30
0
11
-122.493144304057
21
20.6461878042795
31
0
210
0
220
0
230
-1
40
0.087738
41
-2.94237075758654
42
-2.91245477778117
0
ELLIPSE
5
115
100
AcDbEntity
8
1
62
256
6
ByLayer
370
-1
48
1
60
0
100
AcDbEllipse
10
201.602685
20
17.961744
30
0
11
-32.5262137658292
21
16.3082122324434
31
0
210
0
220
0
230
-1
40
0.081626
41
-2.0862365674223
42
-1.49610310146978
0
ELLIPSE
5
116
100
AcDbEntity
8
1
62
256
6
ByLayer
370
-1
48
1
60
0
100
AcDbEllipse
10
237.580313
20
17.329166
30
0
11
2.34290668463255E-15
21
2
31
0
210
0
220
0
230
1
40
0.996195
41
0.102985300926076
42
1.57079604872776
0
ELLIPSE
5
117
100
AcDbEntity
8
1
62
256
6
ByLayer
370
-1
48
1
60
0
100
AcDbEllipse
10
237.580313
20
17.329166
30
0
11
2.34290668463255E-15
21
2
31
0
210
0
220
0
230
1
40
0.996195
41
1.57079654872776
42
3.03860729631731
0
ELLIPSE
5
118
100
AcDbEntity
8
1
62
256
6
ByLayer
370
-1
48
1
60
0
100
AcDbEllipse
10
243.210266
20
0
30
0
11
-0.050158527046003
21
-24.7999992695275
31
0
210
0
220
0
230
-1
40
0.122986
41
1.60209605443401
42
1.73456073558937
0
ELLIPSE
5
119
100
AcDbEntity
8
1
62
256
6
ByLayer
370
-1
48
1
60
0
100
AcDbEllipse
10
18.8
20
6.009726
30
0
11
-12.5
21
1.26329881885295E-14
31
0
210
0
220
0
230
1
40
0.819401
41
-1.74091930305459
42
-0.141431130347599
0
ELLIPSE
5
11A
100
AcDbEntity
8
1
62
256
6
ByLayer
370
-1
48
1
60
0
100
AcDbEllipse
10
236.970223
20
17.329166
30
0
11
2.63577002021162E-15
21
2.25
31
0
210
0
220
0
230
1
40
0.996195
41
-2.22542577446687
42
0
0
ELLIPSE
5
11B
100
AcDbEntity
8
1
62
256
6
ByLayer
370
-1
48
1
60
0
100
AcDbEllipse
10
236.970223
20
17.329166
30
0
11
2.63577002021162E-15
21
2.25
31
0
210
0
220
0
230
1
40
0.996195
41
0
42
1.16248744141283
0
ELLIPSE
5
11C
100
AcDbEntity
8
1
62
256
6
ByLayer
370
-1
48
1
60
0
100
AcDbEllipse
10
220.390074
20
14.80137
30
0
11
-1.82535208182639
21
-10.746073225945
31
0
210
0
220
0
230
1
40
0.172713
41
1.38611637884447
42
1.60012534302287
0
ELLIPSE
5
11D
100
AcDbEntity
8
1
62
256
6
ByLayer
370
-1
48
1
60
0
100
AcDbEllipse
10
236.820748
20
-5.711121
30
0
11
2.1
21
0
31
0
210
0
220
0
230
1
40
0.997564
41
0.100236327221974
42
2.91853948834466
0
ELLIPSE
5
11E
100
AcDbEntity
8
1
62
256
6
ByLayer
370
-1
48
1
60
0
100
AcDbEllipse
10
230.900949
20
15.940891
30
0
11
-2.25092568282431E-15
21
-2.1
31
0
210
0
220
0
230
1
40
0.996195
41
-2.12048111657724
42
-1.53588974175501
0
ELLIPSE
5
11F
100
AcDbEntity
8
1
62
256
6
ByLayer
370
-1
48
1
60
0
100
AcDbEllipse
10
236.820748
20
-5.711121
30
0
11
-1.65
21
1.6675544408859E-15
31
0
210
0
220
0
230
1
40
0.997564
41
-3.141592486695
42
0
0
ELLIPSE
5
120
100
AcDbEntity
8
1
62
256
6
ByLayer
370
-1
48
1
60
0
100
AcDbEllipse
10
236.820748
20
-5.711121
30
0
11
-1.65
21
1.6675544408859E-15
31
0
210
0
220
0
230
1
40
0.997564
41
0
42
0.804836977109298
0
ELLIPSE
5
121
100
AcDbEntity
8
1
62
256
6
ByLayer
370
-1
48
1
60
0
100
AcDbEllipse
10
236.820748
20
-5.711121
30
0
11
-1.65
21
1.6675544408859E-15
31
0
210
0
220
0
230
1
40
0.997564
41
2.3424498166973
42
3.14159221294405
0
ELLIPSE
5
122
100
AcDbEntity
8
1
62
256
6
ByLayer
370
-1
48
1
60
0
100
AcDbEllipse
10
242.74064
20
0.009289
30
0
11
-0.00119936296346511
21
-0.800436766682627
31
0
210
0
220
0
230
-1
40
0.122882
41
1.64466342666433
42
-3.06772555371094
0
ELLIPSE
5
123
100
AcDbEntity
8
1
62
256
6
ByLayer
370
-1
48
1
60
0
100
AcDbEllipse
10
236.820748
20
-6.283124
30
0
11
-2
21
2.02127811016473E-15
31
0
210
0
220
0
230
1
40
0.997564
41
-2.25595810801175
42
-0.885732702026401
0
ELLIPSE
5
124
100
AcDbEntity
8
1
62
256
6
ByLayer
370
-1
48
1
60
0
100
AcDbEllipse
10
59.489301
20
0
30
0
11
-441.058991312188
21
-23.9831034602099
31
0
210
0
220
0
230
-1
40
0.014313
41
-1.99218787536104
42
-1.96270478992247
0
ELLIPSE
5
125
100
AcDbEntity
8
1
62
256
6
ByLayer
370
-1
48
1
60
0
100
AcDbEllipse
10
243.160549
20
0
30
0
11
-1.53080624045551
21
24.799335973193
31
0
210
0
220
0
230
-1
40
0.118552
41
-2.03363601808878
42
-1.53193001752638
0
ELLIPSE
5
126
100
AcDbEntity
8
1
62
256
6
ByLayer
370
-1
48
1
60
0
100
AcDbEllipse
10
229.48605
20
0
30
0
11
-139.435624648968
21
-1.57994463129484E-13
31
0
210
0
220
0
230
-1
40
0.17786
41
1.39345636880269
42
1.52005175525746
0
ELLIPSE
5
127
100
AcDbEntity
8
1
62
256
6
ByLayer
370
-1
48
1
60
0
100
AcDbEllipse
10
230.543611
20
15.940891
30
0
11
2.46005201886418E-15
21
2.1
31
0
210
0
220
0
230
1
40
0.996195
41
0.9391157406859
42
1.60570291183478
0
ELLIPSE
5
128
100
AcDbEntity
8
1
62
256
6
ByLayer
370
-1
48
1
60
0
100
AcDbEllipse
10
231.066091
20
11.193785
30
0
11
-2.25092568282431E-15
21
-2.1
31
0
210
0
220
0
230
1
40
0.996195
41
-1.53588974175501
42
-0.158767832418391
0
ELLIPSE
5
129
100
AcDbEntity
8
1
62
256
6
ByLayer
370
-1
48
1
60
0
100
AcDbEllipse
10
244.938253
20
0
30
0
11
-2.01170080214485
21
-24.7986818416236
31
0
210
0
220
0
230
-1
40
0.127103
41
0.0478089702190729
42
1.09032841131918
0
ELLIPSE
5
12A
100
AcDbEntity
8
1
62
256
6
ByLayer
370
-1
48
1
60
0
100
AcDbEllipse
10
228.935819
20
0
30
0
11
-163.239869128194
21
1.77062194206115
31
0
210
0
220
0
230
-1
40
0.151536
41
-1.54380783879339
42
-1.43803042700328
0
ELLIPSE
5
12B
100
AcDbEntity
8
1
62
256
6
ByLayer
370
-1
48
1
60
0
100
AcDbEllipse
10
220.390074
20
14.80137
30
0
11
-1.82535208182639
21
-10.746073225945
31
0
210
0
220
0
230
1
40
0.172713
41
0.676474036796023
42
1.27807862984009
0
ELLIPSE
5
12C
100
AcDbEntity
8
1
62
256
6
ByLayer
370
-1
48
1
60
0
100
AcDbEllipse
10
234.456639
20
-8E-06
30
0
11
-283.465341661819
21
-3.21194490894449E-13
31
0
210
0
220
0
230
-1
40
0.087489
41
1.53294297161214
42
1.55017811502786
0
ELLIPSE
5
12D
100
AcDbEntity
8
1
62
256
6
ByLayer
370
-1
48
1
60
0
100
AcDbEllipse
10
241.417789
20
13.261798
30
0
11
-5.19131082315858E-16
21
-0.484323085911669
31
0
210
0
220
0
230
1
40
0.996195
41
0.034906585039867
42
1.60570291183474
0
ELLIPSE
5
12E
100
AcDbEntity
8
1
62
256
6
ByLayer
370
-1
48
1
60
0
100
AcDbEllipse
10
238.121685
20
22.162018
30
0
11
-3.21560811832046E-16
21
-0.300000000000001
31
0
210
0
220
0
230
1
40
0.996195
41
-3.10668606854988
42
-0.28753685041726
0
ELLIPSE
5
12F
100
AcDbEntity
8
1
62
256
6
ByLayer
370
-1
48
1
60
0
100
AcDbEllipse
10
232.666094
20
22.211088
30
0
11
-0.956951143726675
21
1.59255145156818
31
0
210
0
220
0
230
-1
40
0.020508
41
1.58311883827581
42
2.22661994671931
0
ELLIPSE
5
130
100
AcDbEntity
8
1
62
256
6
ByLayer
370
-1
48
1
60
0
100
AcDbEllipse
10
236.779754
20
17.607028
30
0
11
5.21296737330743E-15
21
4.45
31
0
210
0
220
0
230
1
40
0.996195
41
-1.21344630629792
42
-0.287536850417209
0
ELLIPSE
5
131
100
AcDbEntity
8
1
62
256
6
ByLayer
370
-1
48
1
60
0
100
AcDbEllipse
10
232.929113
20
14.213973
30
0
11
3.5846472274878E-16
21
0.306
31
0
210
0
220
0
230
1
40
0.996195
41
0.881327184778923
42
2.39110107523223
0
ELLIPSE
5
132
100
AcDbEntity
8
1
62
256
6
ByLayer
370
-1
48
1
60
0
100
AcDbEllipse
10
233.243131
20
20.090307
30
0
11
0.348527918949299
21
0.3723282016083
31
0
210
0
220
0
230
1
40
0.063742
41
-2.1547009679559
42
-0.86769875036941
0
ELLIPSE
5
133
100
AcDbEntity
8
1
62
256
6
ByLayer
370
-1
48
1
60
0
100
AcDbEllipse
10
233.185186
20
13.741824
30
0
11
6.37270618220054E-16
21
0.544
31
0
210
0
220
0
230
1
40
0.996195
41
1.74759996643892
42
-2.42145532631405
0
ELLIPSE
5
134
100
AcDbEntity
8
1
62
256
6
ByLayer
370
-1
48
1
60
0
100
AcDbEllipse
10
240.897908
20
19.163606
30
0
11
0.374905085817622
21
0.139449548683677
31
0
210
0
220
0
230
1
40
0.030486
41
-1.96792246060795
42
-1.48901737573328
0
ELLIPSE
5
135
100
AcDbEntity
8
1
62
256
6
ByLayer
370
-1
48
1
60
0
100
AcDbEllipse
10
231.880704
20
21.365644
30
0
11
-1.65004005276233
21
0.846499037450637
31
0
210
0
220
0
230
-1
40
0.010943
41
1.59212368475364
42
2.23562479424977
0
ELLIPSE
5
136
100
AcDbEntity
8
1
62
256
6
ByLayer
370
-1
48
1
60
0
100
AcDbEllipse
10
232.316061
20
13.592322
30
0
11
0.502108561637825
21
0.0893699744321017
31
0
210
0
220
0
230
1
40
0.015329
41
-2.12838464107856
42
-0.841382423491658
0
ELLIPSE
5
137
100
AcDbEntity
8
1
62
256
6
ByLayer
370
-1
48
1
60
0
100
AcDbEllipse
10
233.391108
20
14.711294
30
0
11
3.5846472274878E-16
21
0.306
31
0
210
0
220
0
230
1
40
0.996195
41
-0.106990469564346
42
0.820304748434691
0
ELLIPSE
5
138
100
AcDbEntity
8
1
62
256
6
ByLayer
370
-1
48
1
60
0
100
AcDbEllipse
10
238.431025
20
13.1571
30
0
11
-5.19131082315856E-16
21
-0.484323085911667
31
0
210
0
220
0
230
1
40
0.996195
41
-2.78424263309281
42
0.0349065850398707
0
ELLIPSE
5
139
100
AcDbEntity
8
1
62
256
6
ByLayer
370
-1
48
1
60
0
100
AcDbEllipse
10
241.104527
20
22.266717
30
0
11
-5.19131082315858E-16
21
-0.484323085911669
31
0
210
0
220
0
230
1
40
0.996195
41
1.60570291183474
42
-3.10668606854999
0
ELLIPSE
5
13A
100
AcDbEntity
8
1
62
256
6
ByLayer
370
-1
48
1
60
0
100
AcDbEllipse
10
241.421711
20
13.261798
30
0
11
3.51436002694886E-16
21
0.300000000000003
31
0
210
0
220
0
230
1
40
0.996195
41
-3.10668606854998
42
-1.53588974175502
0
ELLIPSE
5
13B
100
AcDbEntity
8
1
62
256
6
ByLayer
370
-1
48
1
60
0
100
AcDbEllipse
10
233.939055
20
13.351526
30
0
11
-0.406468958660141
21
0.308030819311543
31
0
210
0
220
0
230
1
40
0.052768
41
-2.28381636720036
42
-0.996814149614133
0
ELLIPSE
5
13C
100
AcDbEntity
8
1
62
256
6
ByLayer
370
-1
48
1
60
0
100
AcDbEllipse
10
231.916263
20
21.365644
30
0
11
3.5846472274878E-16
21
0.306
31
0
210
0
220
0
230
1
40
0.996195
41
-0.194895099805945
42
2.39110107523211
0
ELLIPSE
5
13D
100
AcDbEntity
8
1
62
256
6
ByLayer
370
-1
48
1
60
0
100
AcDbEllipse
10
232.893554
20
14.213973
30
0
11
-0.719441078864573
21
-0.0251232539330878
31
0
210
0
220
0
230
-1
40
0.002159
41
-2.27604469498574
42
-1.63254358524557
0
ELLIPSE
5
13E
100
AcDbEntity
8
1
62
256
6
ByLayer
370
-1
48
1
60
0
100
AcDbEllipse
10
238.002069
20
21.874335
30
0
11
0.113834701403356
21
0.383460116252537
31
0
210
0
220
0
230
1
40
0.083578
41
-2.0248954978849
42
-1.54599041301063
0
ELLIPSE
5
13F
100
AcDbEntity
8
1
62
256
6
ByLayer
370
-1
48
1
60
0
100
AcDbEllipse
10
232.893558
20
14.213972
30
0
11
-0.0251697076243846
21
0.72077361013862
31
0
210
0
220
0
230
-1
40
0.061588
41
1.57294544350764
42
1.60954609651331
0
ELLIPSE
5
140
100
AcDbEntity
8
1
62
256
6
ByLayer
370
-1
48
1
60
0
100
AcDbEllipse
10
231.880704
20
21.365644
30
0
11
0.099131498336372
21
0.500272871578687
31
0
210
0
220
0
230
1
40
0.085506
41
-1.55385457642578
42
-0.910353467632208
0
ELLIPSE
5
141
100
AcDbEntity
8
1
62
256
6
ByLayer
370
-1
48
1
60
0
100
AcDbEllipse
10
241.317411
20
16.259971
30
0
11
3.51436002694884E-16
21
0.300000000000001
31
0
210
0
220
0
230
1
40
0.996195
41
-1.53588974175502
42
1.28325947637776
0
ELLIPSE
5
142
100
AcDbEntity
8
1
62
256
6
ByLayer
370
-1
48
1
60
0
100
AcDbEllipse
10
233.265125
20
13.866154
30
0
11
-0.348527918949299
21
-0.3723282016083
31
0
210
0
220
0
230
1
40
0.063742
41
0.986891685633968
42
2.27389390322046
0
ELLIPSE
5
143
100
AcDbEntity
8
1
62
256
6
ByLayer
370
-1
48
1
60
0
100
AcDbEllipse
10
232.951704
20
21.15342
30
0
11
0.492364140378783
21
0.132956960212929
31
0
210
0
220
0
230
1
40
0.022802
41
-1.48655483674065
42
-0.843053727948011
0
ELLIPSE
5
144
100
AcDbEntity
8
1
62
256
6
ByLayer
370
-1
48
1
60
0
100
AcDbEllipse
10
241.685525
20
13.272268
30
0
11
0.399758180070776
21
0.0139067417643925
31
0
210
0
220
0
230
1
40
0.003042
41
-1.48358275532896
42
-1.00467767045518
0
ELLIPSE
5
145
100
AcDbEntity
8
1
62
256
6
ByLayer
370
-1
48
1
60
0
100
AcDbEllipse
10
236.775832
20
17.607028
30
0
11
4.99704147825015E-15
21
4.26567691408833
31
0
210
0
220
0
230
1
40
0.996195
41
-1.21344630629793
42
-0.287536850417223
0
ELLIPSE
5
146
100
AcDbEntity
8
1
62
256
6
ByLayer
370
-1
48
1
60
0
100
AcDbEllipse
10
241.108449
20
22.266717
30
0
11
-3.21560811832048E-16
21
-0.300000000000003
31
0
210
0
220
0
230
1
40
0.996195
41
1.60570291183477
42
-3.10668606854988
0
ELLIPSE
5
147
100
AcDbEntity
8
1
62
256
6
ByLayer
370
-1
48
1
60
0
100
AcDbEllipse
10
236.775832
20
17.607028
30
0
11
3.68413502519129E-15
21
3.14492681194351
31
0
210
0
220
0
230
1
40
0.996195
41
0
42
6.28318530717959
0
ELLIPSE
5
148
100
AcDbEntity
8
1
62
256
6
ByLayer
370
-1
48
1
60
0
100
AcDbEllipse
10
234.028521
20
20.935752
30
0
11
0.348527918949299
21
0.3723282016083
31
0
210
0
220
0
230
1
40
0.063742
41
-2.1547009679553
42
-0.867698750369297
0
ELLIPSE
5
149
100
AcDbEntity
8
1
62
256
6
ByLayer
370
-1
48
1
60
0
100
AcDbEllipse
10
236.779754
20
17.607028
30
0
11
-4.76981870884199E-15
21
-4.45
31
0
210
0
220
0
230
1
40
0.996195
41
0.357350020496975
42
1.28325947637769
0
ELLIPSE
5
14A
100
AcDbEntity
8
1
62
256
6
ByLayer
370
-1
48
1
60
0
100
AcDbEllipse
10
232.987264
20
21.15342
30
0
11
-3.27992028068685E-16
21
-0.306
31
0
210
0
220
0
230
1
40
0.996195
41
-0.194895099805933
42
1.83550459668058
0
ELLIPSE
5
14B
100
AcDbEntity
8
1
62
256
6
ByLayer
370
-1
48
1
60
0
100
AcDbEllipse
10
233.300684
20
13.866154
30
0
11
-5.83096938788774E-16
21
-0.544
31
0
210
0
220
0
230
1
40
0.996195
41
0.920472169598869
42
2.77549784972788
0
ELLIPSE
5
14C
100
AcDbEntity
8
1
62
256
6
ByLayer
370
-1
48
1
60
0
100
AcDbEllipse
10
232.701653
20
22.211088
30
0
11
3.5846472274878E-16
21
0.306
31
0
210
0
220
0
230
1
40
0.996195
41
-0.750491578357555
42
1.83550459668067
0
ELLIPSE
5
14D
100
AcDbEntity
8
1
62
256
6
ByLayer
370
-1
48
1
60
0
100
AcDbEllipse
10
232.626754
20
14.380782
30
0
11
2.34993540468645E-15
21
2.006
31
0
210
0
220
0
230
1
40
0.996195
41
-2.42145532631402
42
-2.22112048399091
0
ELLIPSE
5
14E
100
AcDbEntity
8
1
62
256
6
ByLayer
370
-1
48
1
60
0
100
AcDbEllipse
10
237.17239
20
17.607028
30
0
11
-2.51889302601768E-15
21
-2.35
31
0
210
0
220
0
230
1
40
0.996195
41
-3.1119438437377
42
-0.0296489603413535
0
ELLIPSE
5
14F
100
AcDbEntity
8
1
62
256
6
ByLayer
370
-1
48
1
60
0
100
AcDbEllipse
10
236.775832
20
17.607028
30
0
11
4.99704147825015E-15
21
4.26567691408833
31
0
210
0
220
0
230
1
40
0.996195
41
-2.78424263309281
42
-1.85833317721211
0
ELLIPSE
5
150
100
AcDbEntity
8
1
62
256
6
ByLayer
370
-1
48
1
60
0
100
AcDbEllipse
10
232.880875
20
14.200325
30
0
11
0.373651049327857
21
-0.347109339165905
31
0
210
0
220
0
230
1
40
0.05944
41
1.47029936263275
42
2.15039938434923
0
ELLIPSE
5
151
100
AcDbEntity
8
1
62
256
6
ByLayer
370
-1
48
1
60
0
100
AcDbEllipse
10
241.063156
20
22.566534
30
0
11
-0.0140130575244562
21
0.399754467415708
31
0
210
0
220
0
230
1
40
0.087103
41
-1.5738496276308
42
-1.09494454275608
0
ELLIPSE
5
152
100
AcDbEntity
8
1
62
256
6
ByLayer
370
-1
48
1
60
0
100
AcDbEllipse
10
236.849187
20
17.607028
30
0
11
-3.30786649004912E-15
21
-3.0860724021715
31
0
210
0
220
0
230
1
40
0.996195
41
2.2155101975546
42
0
0
ELLIPSE
5
153
100
AcDbEntity
8
1
62
256
6
ByLayer
370
-1
48
1
60
0
100
AcDbEllipse
10
236.849187
20
17.607028
30
0
11
-3.30786649004912E-15
21
-3.0860724021715
31
0
210
0
220
0
230
1
40
0.996195
41
0
42
0.92608266050835
0
ELLIPSE
5
154
100
AcDbEntity
8
1
62
256
6
ByLayer
370
-1
48
1
60
0
100
AcDbEllipse
10
241.212749
20
19.268544
30
0
11
-3.21560811832046E-16
21
-0.300000000000001
31
0
210
0
220
0
230
1
40
0.996195
41
-1.21344630629795
42
1.60570291183477
0
ELLIPSE
5
155
100
AcDbEntity
8
1
62
256
6
ByLayer
370
-1
48
1
60
0
100
AcDbEllipse
10
234.064081
20
20.935752
30
0
11
-3.27992028068685E-16
21
-0.306
31
0
210
0
220
0
230
1
40
0.996195
41
-0.750491578357678
42
2.39110107523211
0
ELLIPSE
5
156
100
AcDbEntity
8
1
62
256
6
ByLayer
370
-1
48
1
60
0
100
AcDbEllipse
10
232.666094
20
22.211088
30
0
11
0.492364140378783
21
0.132956960212929
31
0
210
0
220
0
230
1
40
0.022802
41
-2.13005594553366
42
-1.48655483674065
0
ELLIPSE
5
157
100
AcDbEntity
8
1
62
256
6
ByLayer
370
-1
48
1
60
0
100
AcDbEllipse
10
241.476563
20
19.279014
30
0
11
-0.399758180070776
21
-0.0139067417643927
31
0
210
0
220
0
230
1
40
0.003042
41
1.65800989826097
42
2.13691498313534
0
ELLIPSE
5
158
100
AcDbEntity
8
1
62
256
6
ByLayer
370
-1
48
1
60
0
100
AcDbEllipse
10
232.893554
20
14.213973
30
0
11
0.348527918949299
21
0.3723282016083
31
0
210
0
220
0
230
1
40
0.063742
41
-2.15470096795623
42
-1.54779877208525
0
ELLIPSE
5
159
100
AcDbEntity
8
1
62
256
6
ByLayer
370
-1
48
1
60
0
100
AcDbEllipse
10
241.372263
20
22.277187
30
0
11
0.399758180070776
21
0.0139067417643925
31
0
210
0
220
0
230
1
40
0.003042
41
-1.48358275532889
42
-1.00467767045091
0
ELLIPSE
5
15A
100
AcDbEntity
8
1
62
256
6
ByLayer
370
-1
48
1
60
0
100
AcDbEllipse
10
233.355548
20
14.711294
30
0
11
0.373651049327857
21
-0.347109339165905
31
0
210
0
220
0
230
1
40
0.05944
41
1.50689827555577
42
2.15039938434869
0
ELLIPSE
5
15B
100
AcDbEntity
8
1
62
256
6
ByLayer
370
-1
48
1
60
0
100
AcDbEllipse
10
232.951704
20
21.15342
30
0
11
-0.705563291586008
21
0.659061826935013
31
0
210
0
220
0
230
-1
40
0.031444
41
0.960945087835906
42
1.60444619665059
0
ELLIPSE
5
15C
100
AcDbEntity
8
1
62
256
6
ByLayer
370
-1
48
1
60
0
100
AcDbEllipse
10
241.208827
20
19.268544
30
0
11
-5.19131082315857E-16
21
-0.484323085911668
31
0
210
0
220
0
230
1
40
0.996195
41
-1.21344630629796
42
1.60570291183474
0
ELLIPSE
5
15D
100
AcDbEntity
8
1
62
256
6
ByLayer
370
-1
48
1
60
0
100
AcDbEllipse
10
233.278691
20
20.090307
30
0
11
-3.27992028068685E-16
21
-0.306
31
0
210
0
220
0
230
1
40
0.996195
41
-0.750491578357678
42
2.39110107523224
0
ELLIPSE
5
15E
100
AcDbEntity
8
1
62
256
6
ByLayer
370
-1
48
1
60
0
100
AcDbEllipse
10
233.708058
20
13.102866
30
0
11
-0.337063013710962
21
0.382738193531928
31
0
210
0
220
0
230
1
40
0.065516
41
-2.27193125321687
42
-0.984929035630729
0
ELLIPSE
5
15F
100
AcDbEntity
8
1
62
256
6
ByLayer
370
-1
48
1
60
0
100
AcDbEllipse
10
238.295546
20
13.438148
30
0
11
0.14038589456198
21
-0.374555470668942
31
0
210
0
220
0
230
1
40
0.08165
41
1.54020296240859
42
2.01910804728321
0
ELLIPSE
5
160
100
AcDbEntity
8
1
62
256
6
ByLayer
370
-1
48
1
60
0
100
AcDbEllipse
10
238.076393
20
22.461836
30
0
11
-0.0140130575244562
21
0.399754467415708
31
0
210
0
220
0
230
1
40
0.087103
41
-1.5738496276308
42
-1.09494454275608
0
ELLIPSE
5
161
100
AcDbEntity
8
1
62
256
6
ByLayer
370
-1
48
1
60
0
100
AcDbEllipse
10
232.880875
20
14.200325
30
0
11
-0.37340082812668
21
0.346876892031236
31
0
210
0
220
0
230
1
40
0.05944
41
-1.6346943780341
42
-0.992087287820554
0
ELLIPSE
5
162
100
AcDbEntity
8
1
62
256
6
ByLayer
370
-1
48
1
60
0
100
AcDbEllipse
10
237.033429
20
17.607028
30
0
11
-2.51889302601768E-15
21
-2.35
31
0
210
0
220
0
230
1
40
0.996195
41
3.09878844376697
42
0
0
ELLIPSE
5
163
100
AcDbEntity
8
1
62
256
6
ByLayer
370
-1
48
1
60
0
100
AcDbEllipse
10
237.033429
20
17.607028
30
0
11
-2.51889302601768E-15
21
-2.35
31
0
210
0
220
0
230
1
40
0.996195
41
0
42
0.0335758030814264
0
ELLIPSE
5
164
100
AcDbEntity
8
1
62
256
6
ByLayer
370
-1
48
1
60
0
100
AcDbEllipse
10
238.434947
20
13.1571
30
0
11
3.51436002694884E-16
21
0.300000000000001
31
0
210
0
220
0
230
1
40
0.996195
41
0.357350020497004
42
-3.10668606854998
0
ELLIPSE
5
165
100
AcDbEntity
8
1
62
256
6
ByLayer
370
-1
48
1
60
0
100
AcDbEllipse
10
233.300684
20
13.866154
30
0
11
-3.27992028068685E-16
21
-0.306
31
0
210
0
220
0
230
1
40
0.996195
41
-0.750491578357555
42
2.39110107523225
0
ELLIPSE
5
166
100
AcDbEntity
8
1
62
256
6
ByLayer
370
-1
48
1
60
0
100
AcDbEllipse
10
236.872902
20
17.607028
30
0
11
-3.19627500372467E-15
21
-2.98196318032136
31
0
210
0
220
0
230
1
40
0.996195
41
0
42
6.28318530717959
0
ELLIPSE
5
167
100
AcDbEntity
8
1
62
256
6
ByLayer
370
-1
48
1
60
0
100
AcDbEllipse
10
241.313489
20
16.259971
30
0
11
-5.19131082315857E-16
21
-0.484323085911668
31
0
210
0
220
0
230
1
40
0.996195
41
1.60570291183474
42
-1.85833317721212
0
ELLIPSE
5
168
100
AcDbEntity
8
1
62
256
6
ByLayer
370
-1
48
1
60
0
100
AcDbEllipse
10
240.99596
20
16.345048
30
0
11
0.383695343937984
21
-0.113039298654548
31
0
210
0
220
0
230
1
40
0.024717
41
1.4870954970176
42
1.96600058189239
0
ELLIPSE
5
169
100
AcDbEntity
8
1
62
256
6
ByLayer
370
-1
48
1
60
0
100
AcDbEllipse
10
232.666094
20
22.211088
30
0
11
0.348527918949299
21
0.3723282016083
31
0
210
0
220
0
230
1
40
0.063742
41
-1.51119985916248
42
-0.86769875036941
0
ELLIPSE
5
16A
100
AcDbEntity
8
1
62
256
6
ByLayer
370
-1
48
1
60
0
100
AcDbEllipse
10
233.355548
20
14.711294
30
0
11
-0.0546667450361371
21
-0.507061679667428
31
0
210
0
220
0
230
1
40
0.086657
41
1.58013866027565
42
2.22363976906916
0
ELLIPSE
5
16B
100
AcDbEntity
8
1
62
256
6
ByLayer
370
-1
48
1
60
0
100
AcDbEllipse
10
232.951704
20
21.15342
30
0
11
0.099131498336372
21
0.500272871578687
31
0
210
0
220
0
230
1
40
0.085506
41
-2.19735568521924
42
-1.55385457642578
0
ELLIPSE
5
16C
100
AcDbEntity
8
1
62
256
6
ByLayer
370
-1
48
1
60
0
100
AcDbEllipse
10
233.300684
20
13.866154
30
0
11
-1.23908099492614E-15
21
-1.156
31
0
210
0
220
0
230
1
40
0.996195
41
0.920472169598878
42
3.03460218402552
0
ELLIPSE
5
16D
100
AcDbEntity
8
1
62
256
6
ByLayer
370
-1
48
1
60
0
100
AcDbEllipse
10
231.880704
20
21.365644
30
0
11
0.348527918949299
21
0.3723282016083
31
0
210
0
220
0
230
1
40
0.063742
41
-2.1547009679558
42
-1.51119985916242
0
ELLIPSE
5
16E
100
AcDbEntity
8
1
62
256
6
ByLayer
370
-1
48
1
60
0
100
AcDbEllipse
10
232.626754
20
14.380782
30
0
11
1.63300595918889E-15
21
1.394
31
0
210
0
220
0
230
1
40
0.996195
41
-2.42145532631403
42
-2.2211204839909
0
ELLIPSE
5
16F
100
AcDbEntity
8
1
62
256
6
ByLayer
370
-1
48
1
60
0
100
AcDbEllipse
10
238.410515
20
12.857282
30
0
11
0.0140130575244561
21
-0.399754467415708
31
0
210
0
220
0
230
1
40
0.087103
41
1.08883794108392
42
1.56774302595899
0
ELLIPSE
5
170
100
AcDbEntity
8
1
62
256
6
ByLayer
370
-1
48
1
60
0
100
AcDbEllipse
10
241.397278
20
12.961981
30
0
11
0.0140130575244561
21
-0.399754467415708
31
0
210
0
220
0
230
1
40
0.087103
41
1.08883794108392
42
1.56774302595899
0
ELLIPSE
5
171
100
AcDbEntity
8
1
62
256
6
ByLayer
370
-1
48
1
60
0
100
AcDbEllipse
10
232.351621
20
13.592322
30
0
11
3.58464722748779E-16
21
0.305999999999999
31
0
210
0
220
0
230
1
40
0.996195
41
-1.39399268715089
42
1.747599966439
0
ELLIPSE
5
172
100
AcDbEntity
8
1
62
256
6
ByLayer
370
-1
48
1
60
0
100
AcDbEllipse
10
233.185186
20
13.741824
30
0
11
1.35420006371761E-15
21
1.156
31
0
210
0
220
0
230
1
40
0.996195
41
1.74759996643896
42
-2.42145532631402
0
ELLIPSE
5
173
100
AcDbEntity
8
1
62
256
6
ByLayer
370
-1
48
1
60
0
100
AcDbEllipse
10
238.117763
20
22.162018
30
0
11
-5.19131082315856E-16
21
-0.484323085911667
31
0
210
0
220
0
230
1
40
0.996195
41
-3.10668606854993
42
-0.287536850417242
0
ELLIPSE
5
174
100
AcDbEntity
8
1
62
256
6
ByLayer
370
-1
48
1
60
0
100
AcDbEllipse
10
241.581225
20
16.27044
30
0
11
-0.399758180070776
21
-0.0139067417643927
31
0
210
0
220
0
230
1
40
0.003042
41
1.65800989826097
42
2.13691498313456
0
ELLIPSE
5
175
100
AcDbEntity
8
1
62
256
6
ByLayer
370
-1
48
1
60
0
100
AcDbEllipse
10
241.636065
20
-1.031228
30
0
11
1.18387341434896
21
0
31
0
210
0
220
0
230
1
40
0.997564
41
0.349065850399045
42
0.56230512977227
0
ELLIPSE
5
176
100
AcDbEntity
8
1
62
256
6
ByLayer
370
-1
48
1
60
0
100
AcDbEllipse
10
243.719357
20
-9.361138
30
0
11
0.399755140417831
21
-0.0139938454157801
31
0
210
0
220
0
230
1
40
0.069714
41
-2.69020654808527
42
-1.56835592109669
0
ELLIPSE
5
177
100
AcDbEntity
8
1
62
256
6
ByLayer
370
-1
48
1
60
0
100
AcDbEllipse
10
243.614458
20
-8.823509
30
0
11
0.365188559267697
21
0.163209424298917
31
0
210
0
220
0
230
1
40
0.063711
41
-2.7203783083816
42
-1.59926245588946
0
ELLIPSE
5
178
100
AcDbEntity
8
1
62
256
6
ByLayer
370
-1
48
1
60
0
100
AcDbEllipse
10
242.198888
20
-2.282137
30
0
11
-0.783873414348954
21
7.92213086781812E-16
31
0
210
0
220
0
230
1
40
0.997564
41
-3.08923277602995
42
-2.79252680319094
0
ELLIPSE
5
179
100
AcDbEntity
8
1
62
256
6
ByLayer
370
-1
48
1
60
0
100
AcDbEllipse
10
243.652021
20
-11.28469
30
0
11
0.399755140417831
21
-0.0139938454157801
31
0
210
0
220
0
230
1
40
0.069714
41
-2.69484373370654
42
-1.56835592109676
0
ELLIPSE
5
17A
100
AcDbEntity
8
1
62
256
6
ByLayer
370
-1
48
1
60
0
100
AcDbEllipse
10
242.501036
20
-9.346599
30
0
11
1.51906443419564
21
0
31
0
210
0
220
0
230
1
40
0.997564
41
-0.034906585039902
42
0.419380376866307
0
ELLIPSE
5
17B
100
AcDbEntity
8
1
62
256
6
ByLayer
370
-1
48
1
60
0
100
AcDbEllipse
10
243.249345
20
-7.308083
30
0
11
0.399449138938554
21
0.0209853615944158
31
0
210
0
220
0
230
1
40
0.069661
41
-2.26019022116293
42
-1.57445599702667
0
ELLIPSE
5
17C
100
AcDbEntity
8
1
62
256
6
ByLayer
370
-1
48
1
60
0
100
AcDbEllipse
10
242.501036
20
-9.639576
30
0
11
-2.49999999999999
21
2.5265976377059E-15
31
0
210
0
220
0
230
1
40
0.997564
41
3.1066860685499
42
-2.7222122767235
0
ELLIPSE
5
17D
100
AcDbEntity
8
1
62
256
6
ByLayer
370
-1
48
1
60
0
100
AcDbEllipse
10
247.524413
20
-7.112484
30
0
11
-3.98093556580436
21
4.02328895856829E-15
31
0
210
0
220
0
230
1
40
0.997564
41
0.0523598775598143
42
0.419380376866292
0
ELLIPSE
5
17E
100
AcDbEntity
8
1
62
256
6
ByLayer
370
-1
48
1
60
0
100
AcDbEllipse
10
247.524413
20
-7.112484
30
0
11
4.28093556580439
21
0
31
0
210
0
220
0
230
1
40
0.997564
41
-3.08923277602997
42
-2.7222122767235
0
ELLIPSE
5
17F
100
AcDbEntity
8
1
62
256
6
ByLayer
370
-1
48
1
60
0
100
AcDbEllipse
10
242.501036
20
-9.346599
30
0
11
-1.21906443419553
21
1.23203412785989E-15
31
0
210
0
220
0
230
1
40
0.997564
41
3.10668606854992
42
-2.72221227672347
0
ELLIPSE
5
180
100
AcDbEntity
8
1
62
256
6
ByLayer
370
-1
48
1
60
0
100
AcDbEllipse
10
242.981687
20
-2.213309
30
0
11
0.399449138938554
21
0.0209853615944158
31
0
210
0
220
0
230
1
40
0.069661
41
-2.2601837520614
42
-1.57445599702667
0
ELLIPSE
5
181
100
AcDbEntity
8
1
62
256
6
ByLayer
370
-1
48
1
60
0
100
AcDbEllipse
10
247.524413
20
-7.405461
30
0
11
-3.00000000000001
21
3.0319171652471E-15
31
0
210
0
220
0
230
1
40
0.997564
41
0.0523598775598167
42
0.419380376866298
0
ELLIPSE
5
182
100
AcDbEntity
8
1
62
256
6
ByLayer
370
-1
48
1
60
0
100
AcDbEllipse
10
242.198888
20
-2.282137
30
0
11
1.08387341434895
21
0
31
0
210
0
220
0
230
1
40
0.997564
41
0.0523598775598166
42
0.349065850399032
0
ELLIPSE
5
183
100
AcDbEntity
8
1
62
256
6
ByLayer
370
-1
48
1
60
0
100
AcDbEllipse
10
237.064564
20
-6.829188
30
0
11
2.35
21
0
31
0
210
0
220
0
230
1
40
0.997564
41
1.1507064630006
42
2.46850638643292
0
ELLIPSE
5
184
100
AcDbEntity
8
1
62
256
6
ByLayer
370
-1
48
1
60
0
100
AcDbEllipse
10
243.020083
20
-11.284811
30
0
11
0.299807042544351
21
-0.0107581244094681
31
0
210
0
220
0
230
1
40
0.071534
41
0.446810241819324
42
0.7362021191058
0
ELLIPSE
5
185
100
AcDbEntity
8
1
62
256
6
ByLayer
370
-1
48
1
60
0
100
AcDbEllipse
10
243.038678
20
-9.100809
30
0
11
0.27401681486339
21
0.122126103565629
31
0
210
0
220
0
230
1
40
0.065991
41
0.421280855964159
42
0.720612613954092
0
ELLIPSE
5
186
100
AcDbEntity
8
1
62
256
6
ByLayer
370
-1
48
1
60
0
100
AcDbEllipse
10
242.768686
20
-11.281821
30
0
11
-0.883873414348952
21
8.93276992290047E-16
31
0
210
0
220
0
230
1
40
0.997564
41
2.13649437897206
42
3.10668606854994
0
ELLIPSE
5
187
100
AcDbEntity
8
1
62
256
6
ByLayer
370
-1
48
1
60
0
100
AcDbEllipse
10
243.088926
20
-9.361087
30
0
11
0.299810376168269
21
-0.0106648179469134
31
0
210
0
220
0
230
1
40
0.070874
41
0.451425555480483
42
0.749393722448999
0
ELLIPSE
5
188
100
AcDbEntity
8
1
62
256
6
ByLayer
370
-1
48
1
60
0
100
AcDbEllipse
10
242.935488
20
-1.986787
30
0
11
0.375769594861038
21
0.137102923302063
31
0
210
0
220
0
230
1
40
0.06555
41
-2.20420308577726
42
-1.59470814660093
0
ELLIPSE
5
189
100
AcDbEntity
8
1
62
256
6
ByLayer
370
-1
48
1
60
0
100
AcDbEllipse
10
237.064564
20
-6.710992
30
0
11
2.35
21
0
31
0
210
0
220
0
230
1
40
0.997564
41
1.38269361528275
42
2.42383717155513
0
ELLIPSE
5
18A
100
AcDbEntity
8
1
62
256
6
ByLayer
370
-1
48
1
60
0
100
AcDbEllipse
10
242.768686
20
-11.281821
30
0
11
1.18387341434896
21
0
31
0
210
0
220
0
230
1
40
0.997564
41
-1.1520231251962
42
-0.0349065850398924
0
ELLIPSE
5
18B
100
AcDbEntity
8
1
62
256
6
ByLayer
370
-1
48
1
60
0
100
AcDbEllipse
10
247.524413
20
-7.258973
30
0
11
-3.25784757789614
21
3.29250799772732E-15
31
0
210
0
220
0
230
1
40
0.997564
41
0.0523598775598178
42
0.419380376866285
0
ELLIPSE
5
18C
100
AcDbEntity
8
1
62
256
6
ByLayer
370
-1
48
1
60
0
100
AcDbEllipse
10
242.501036
20
-9.493088
30
0
11
-2.24215242210385
21
2.26600680522567E-15
31
0
210
0
220
0
230
1
40
0.997564
41
3.10668606854989
42
-2.72221227672349
0
POINT
5
41
100
AcDbEntity
8
81
62
256
6
ByLayer
370
-1
48
1
60
0
100
AcDbPoint
10
245
20
0
30
0
39
0
210
0
220
0
230
1
50
360
0
POINT
5
43
100
AcDbEntity
8
80
62
256
6
ByLayer
370
-1
48
1
60
0
100
AcDbPoint
10
0
20
0
30
0
39
0
210
0
220
0
230
1
50
360
0
SPLINE
5
18D
100
AcDbEntity
8
1
62
256
6
ByLayer
370
-1
48
1
60
0
100
AcDbSpline
70
4
71
3
72
24
73
20
40
0
40
0
40
0
40
0
40
0.0512219324959642
40
0.114795075180376
40
0.178268200557153
40
0.241581453348872
40
0.304701879023929
40
0.367626814561738
40
0.430381895458716
40
0.493015351539978
40
0.555590417373251
40
0.618167359708154
40
0.680802024190449
40
0.743557000804841
40
0.806479913224955
40
0.869596202215362
40
0.932903765868111
40
0.99637098343543
40
1
40
1
40
1
40
1
41
1
10
237.132352545585
20
19.9479992745937
30
0
41
1
10
237.25481700971
20
19.9459251441247
30
0
41
1
10
237.524172302965
20
19.9187167776612
30
0
41
1
10
237.930666458736
20
19.7911660578907
30
0
41
1
10
238.331005512447
20
19.5766487805643
30
0
41
1
10
238.682811084607
20
19.2874047520688
30
0
41
1
10
238.972595989077
20
18.9357586463917
30
0
41
1
10
239.189690243256
20
18.5347502296939
30
0
41
1
10
239.326180266019
20
18.0996085409653
30
0
41
1
10
239.377250450512
20
17.6465809723647
30
0
41
1
10
239.341251580017
20
17.1924933808115
30
0
41
1
10
239.219722238617
20
16.7540921108212
30
0
41
1
10
239.017293077752
20
16.3475323292867
30
0
41
1
10
238.741448948073
20
15.987449872291
30
0
41
1
10
238.402262329633
20
15.6878785256345
30
0
41
1
10
238.011961480825
20
15.4567052777719
30
0
41
1
10
237.58506512327
20
15.3146520497059
30
0
41
1
10
237.277500290022
20
15.2514334261424
30
0
41
1
10
237.119175901979
20
15.2601419325178
30
0
41
1
10
237.110606963363
20
15.2606882347455
30
0
0
SPLINE
5
18E
100
AcDbEntity
8
1
62
256
6
ByLayer
370
-1
48
1
60
0
100
AcDbSpline
70
4
71
3
72
14
73
10
40
0
40
0
40
0
40
0
40
0.0980815738878583
40
0.249062059821424
40
0.399741873919272
40
0.550160065347697
40
0.700391882070508
40
0.850537183337699
40
1
40
1
40
1
40
1
41
1
10
235.214750524209
20
-5.387865615518
30
0
41
1
10
235.275469293358
20
-5.31080658447746
30
0
41
1
10
235.442072511976
20
-5.1246708833103
30
0
41
1
10
235.755070043961
20
-4.87104457370225
30
0
41
1
10
236.158460607823
20
-4.65706971182195
30
0
41
1
10
236.595404908373
20
-4.52435066513144
30
0
41
1
10
237.049554824372
20
-4.47766840551677
30
0
41
1
10
237.503301535653
20
-4.51853529908595
30
0
41
1
10
237.794517712569
20
-4.6027824234902
30
0
41
1
10
237.934350821348
20
-4.65818666372965
30
0
0
SPLINE
5
18F
100
AcDbEntity
8
1
62
256
6
ByLayer
370
-1
48
1
60
0
100
AcDbSpline
70
4
71
3
72
16
73
12
40
0
40
0
40
0
40
0
40
0.0785075927303822
40
0.157278324085021
40
0.235768029740281
40
0.314339348731591
40
0.437615042857548
40
0.560690352706014
40
0.707031431651315
40
0.853372505821331
40
1
40
1
40
1
40
1
41
1
10
36
20
25.185
30
0
41
1
10
35.1627813411736
20
25.1855535300115
30
0
41
1
10
33.5054040217511
20
25.3037605578776
30
0
41
1
10
31.0453501126463
20
25.8069320446046
30
0
41
1
10
28.7146412839093
20
26.7132506830611
30
0
41
1
10
25.9282893621179
20
27.7343486466013
30
0
41
1
10
22.6428928659987
20
28.7633657682116
30
0
41
1
10
18.6113927343309
20
29.7886958661014
30
0
41
1
10
14.281454247039
20
30.6009070740098
30
0
41
1
10
9.65426304688867
20
31.1302195907141
30
0
41
1
10
6.55577365621897
20
31.2483980453229
30
0
41
1
10
5.00000000000003
20
31.25
30
0
0
SPLINE
5
190
100
AcDbEntity
8
1
62
256
6
ByLayer
370
-1
48
1
60
0
100
AcDbSpline
70
4
71
3
72
17
73
13
40
0
40
0
40
0
40
0
40
0.139970595175855
40
0.279666639505871
40
0.41934312865842
40
0.559174713372415
40
0.632527178722468
40
0.705957912704071
40
0.779469485754253
40
0.852880308184807
40
0.926576742826213
40
1
40
1
40
1
40
1
41
1
10
4.99999999999997
20
-31.25
30
0
41
1
10
6.48491616206442
20
-31.2486173907529
30
0
41
1
10
9.44306283496584
20
-31.1407885887176
30
0
41
1
10
13.8622092968793
20
-30.6580609846626
30
0
41
1
10
18.2339143638746
20
-29.8736972588482
30
0
41
1
10
21.8631426504674
20
-28.9730075518963
30
0
41
1
10
24.7692338834673
20
-28.0978963149813
30
0
41
1
10
26.9833131533116
20
-27.3608303787075
30
0
41
1
10
29.1604945927404
20
-26.5237693889975
30
0
41
1
10
31.3611983068567
20
-25.7293231904608
30
0
41
1
10
33.6663293195987
20
-25.2888772667315
30
0
41
1
10
35.2176767793832
20
-25.1854236003397
30
0
41
1
10
36
20
-25.185
30
0
0
SPLINE
5
191
100
AcDbEntity
8
1
62
256
6
ByLayer
370
-1
48
1
60
0
100
AcDbSpline
70
4
71
3
72
30
73
26
40
0
40
0
40
0
40
0
40
0.063936390095055
40
0.063936390095055
40
0.130798076516832
40
0.130798076516832
40
0.197659762938609
40
0.197659762938609
40
0.264521449360386
40
0.264521449360386
40
0.331383135782164
40
0.331383135782164
40
0.465106508625723
40
0.465106508625723
40
0.531968195047507
40
0.531968195047507
40
0.598829881469291
40
0.598829881469291
40
0.73255325431286
40
0.73255325431286
40
0.799414940734644
40
0.799414940734644
40
0.866276627156428
40
0.866276627156428
40
1
40
1
40
1
40
1
41
1
10
196.164107970158
20
16.8902887990214
30
0
41
1
10
196.136570632775
20
16.9204989095105
30
0
41
1
10
196.111277947515
20
16.9527180476071
30
0
41
1
10
196.064073286816
20
17.0226931406963
30
0
41
1
10
196.042470037865
20
17.060691716211
30
0
41
1
10
196.005548455785
20
17.1385440113042
30
0
41
1
10
195.990009066155
20
17.1786982561785
30
0
41
1
10
195.9646050851
20
17.2613967137925
30
0
41
1
10
195.954705312719
20
17.3042681190443
30
0
41
1
10
195.940969173458
20
17.3904382019317
30
0
41
1
10
195.937066493135
20
17.4337609579523
30
0
41
1
10
195.933761667426
20
17.5644087391961
30
0
41
1
10
195.943030078083
20
17.6532332738923
30
0
41
1
10
195.972099914829
20
17.7815786440858
30
0
41
1
10
195.984298994277
20
17.8237708163304
30
0
41
1
10
196.013599254806
20
17.9070051650143
30
0
41
1
10
196.030820851616
20
17.9482549862103
30
0
41
1
10
196.088665121207
20
18.0677049682445
30
0
41
1
10
196.135485923322
20
18.1422801306831
30
0
41
1
10
196.217681774571
20
18.2468154162143
30
0
41
1
10
196.247147662226
20
18.2804300031381
30
0
41
1
10
196.308725186342
20
18.3436687424689
30
0
41
1
10
196.340992220407
20
18.3735048493881
30
0
41
1
10
196.442112126033
20
18.4578036932428
30
0
41
1
10
196.515800875291
20
18.5073444734973
30
0
41
1
10
196.59379867933
20
18.5490404727409
30
0
0
SPLINE
5
192
100
AcDbEntity
8
1
62
256
6
ByLayer
370
-1
48
1
60
0
100
AcDbSpline
70
4
71
3
72
10
73
6
40
0
40
0
40
0
40
0
40
0.5
40
0.5
40
1
40
1
40
1
40
1
41
1
10
196.593798679333
20
18.5490404727355
30
0
41
1
10
196.766338196208
20
18.6412764998103
30
0
41
1
10
196.943772134656
20
18.7199930515833
30
0
41
1
10
197.304002134703
20
18.862556406966
30
0
41
1
10
197.486898720326
20
18.9261279720071
30
0
41
1
10
197.671632116
20
18.9845941171821
30
0
0
SPLINE
5
193
100
AcDbEntity
8
1
62
256
6
ByLayer
370
-1
48
1
60
0
100
AcDbSpline
70
4
71
3
72
16
73
12
40
0
40
0
40
0
40
0
40
0.249999999999995
40
0.249999999999995
40
0.499999999999991
40
0.499999999999991
40
0.624999999999993
40
0.624999999999993
40
0.749999999999995
40
0.749999999999995
40
1
40
1
40
1
40
1
41
1
10
228.270288555019
20
3.32629101701519
30
0
41
1
10
227.508749628395
20
3.28036196358042
30
0
41
1
10
226.752114651863
20
3.28102044147883
30
0
41
1
10
225.248386529871
20
3.3729836384575
30
0
41
1
10
224.501293457621
20
3.46428967924624
30
0
41
1
10
223.38799747178
20
3.67066949755781
30
0
41
1
10
223.018126724155
20
3.75106710348382
30
0
41
1
10
222.280923953633
20
3.93575284671454
30
0
41
1
10
221.913459850138
20
4.04016830080224
30
0
41
1
10
220.827013016574
20
4.38644715626072
30
0
41
1
10
220.11989263869
20
4.66212614333503
30
0
41
1
10
219.430573706321
20
4.98341466857451
30
0
0
SPLINE
5
194
100
AcDbEntity
8
1
62
256
6
ByLayer
370
-1
48
1
60
0
100
AcDbSpline
70
4
71
3
72
8
73
4
40
0
40
0
40
0
40
0
40
1
40
1
40
1
40
1
41
1
10
20.9162943914456
20
16.1043792590313
30
0
41
1
10
20.9162943914456
20
17.0072668479153
30
0
41
1
10
20.9162943914456
20
17.9101544367994
30
0
41
1
10
20.9162943914456
20
18.8130420256835
30
0
0
SPLINE
5
195
100
AcDbEntity
8
1
62
256
6
ByLayer
370
-1
48
1
60
0
100
AcDbSpline
70
4
71
3
72
36
73
32
40
0
40
0
40
0
40
0
40
0.045380015103818
40
0.045380015103818
40
0.113567156882117
40
0.113567156882117
40
0.181754298660415
40
0.181754298660415
40
0.249941440438714
40
0.249941440438714
40
0.318128582217013
40
0.318128582217013
40
0.386315723995311
40
0.386315723995311
40
0.45450286577361
40
0.45450286577361
40
0.522690007551909
40
0.522690007551909
40
0.590877149330208
40
0.590877149330208
40
0.659064291108506
40
0.659064291108506
40
0.727251432886805
40
0.727251432886805
40
0.795438574665104
40
0.795438574665104
40
0.863625716443402
40
0.863625716443402
40
0.931812858221701
40
0.931812858221701
40
1
40
1
40
1
40
1
41
1
10
14.3839442352843
20
-5.5857122736324
30
0
41
1
10
14.3215031575494
20
-5.50406949215645
30
0
41
1
10
14.2678194305605
20
-5.39943206467785
30
0
41
1
10
14.1562520851553
20
-5.08140790561959
30
0
41
1
10
14.1098191325611
20
-4.83980055795149
30
0
41
1
10
14.0593034665785
20
-4.2617317910501
30
0
41
1
10
14.0552213609089
20
-3.92527732616142
30
0
41
1
10
14.0895179063019
20
-3.16653710752016
30
0
41
1
10
14.1278961447665
20
-2.74426048164517
30
0
41
1
10
14.2460849410251
20
-1.82520103714006
30
0
41
1
10
14.3258940769716
20
-1.32842927507699
30
0
41
1
10
14.5248048623666
20
-0.273703186643871
30
0
41
1
10
14.6439041188574
20
0.284238451047798
30
0
41
1
10
14.918201368615
20
1.44633951906621
30
0
41
1
10
15.0733960620017
20
2.0504849689606
30
0
41
1
10
15.4157221068602
20
3.28878915715049
30
0
41
1
10
15.6028493400447
20
3.92293299826673
30
0
41
1
10
16.0040217262248
20
5.20422439698987
30
0
41
1
10
16.2180620529936
20
5.8513565402682
30
0
41
1
10
16.6673198496547
20
7.14126616351442
30
0
41
1
10
16.9025319148379
20
7.78402812547387
30
0
41
1
10
17.3878243621421
20
9.04795581449719
30
0
41
1
10
17.6378989060461
20
9.66910633612324
30
0
41
1
10
18.1462086612181
20
10.8731488639878
30
0
41
1
10
18.4044377573638
20
11.4560263852253
30
0
41
1
10
18.9221300680891
20
12.5678868670561
30
0
41
1
10
19.1815870546713
20
13.0968564516267
30
0
41
1
10
19.6947754937072
20
14.0867106668106
30
0
41
1
10
19.9485007723465
20
14.547583389174
30
0
41
1
10
20.4434197229885
20
15.3888797775369
30
0
41
1
10
20.6846074409643
20
15.7692933224827
30
0
41
1
10
20.9162943914446
20
16.1043792590313
30
0
0
SPLINE
5
196
100
AcDbEntity
8
1
62
256
6
ByLayer
370
-1
48
1
60
0
100
AcDbSpline
70
4
71
3
72
12
73
8
40
0
40
0
40
0
40
0
40
0.104898575172374
40
0.104898575172374
40
0.403265716781579
40
0.403265716781579
40
1
40
1
40
1
40
1
41
1
10
242.54453569309
20
10.0705821930548
30
0
41
1
10
242.543590153527
20
10.0563702052583
30
0
41
1
10
242.542563644661
20
10.0427691509298
30
0
41
1
10
242.538370489463
20
9.99280065081206
30
0
41
1
10
242.534678955687
20
9.96054120315057
30
0
41
1
10
242.52288524652
20
9.88329019383909
30
0
41
1
10
242.513820017836
20
9.85576659158249
30
0
41
1
10
242.504911158386
20
9.85568394260832
30
0
0
SPLINE
5
197
100
AcDbEntity
8
1
62
256
6
ByLayer
370
-1
48
1
60
0
100
AcDbSpline
70
4
71
3
72
18
73
14
40
0
40
0
40
0
40
0
40
0.249999999999998
40
0.249999999999998
40
0.374999999999998
40
0.374999999999998
40
0.437499999999998
40
0.437499999999998
40
0.499999999999998
40
0.499999999999998
40
0.749999999999999
40
0.749999999999999
40
1
40
1
40
1
40
1
41
1
10
21.58533880794
20
-9.59600147149294
30
0
41
1
10
22.2070089669733
20
-9.97827055314565
30
0
41
1
10
22.8747580989741
20
-10.3692132358372
30
0
41
1
10
23.9386804654749
20
-10.9834735346365
30
0
41
1
10
24.3037627887911
20
-11.1927174902692
30
0
41
1
10
24.8667363216325
20
-11.5138330753941
30
0
41
1
10
25.0569563457402
20
-11.6220706555142
30
0
41
1
10
25.442516297659
20
-11.8409207620585
30
0
41
1
10
25.6382818100891
20
-11.9517730991916
30
0
41
1
10
26.6235043550199
20
-12.5080850392698
30
0
41
1
10
27.4320355992606
20
-12.9602498120374
30
0
41
1
10
29.0910481589249
20
-13.8631618630911
30
0
41
1
10
29.9415671412052
20
-14.3138094391013
30
0
41
1
10
30.8172755644557
20
-14.7514841670467
30
0
0
SPLINE
5
198
100
AcDbEntity
8
1
62
256
6
ByLayer
370
-1
48
1
60
0
100
AcDbSpline
70
4
71
3
72
8
73
4
40
0
40
0
40
0
40
0
40
1
40
1
40
1
40
1
41
1
10
221.614645003231
20
11.415671907353
30
0
41
1
10
221.623211851507
20
11.4099806878365
30
0
41
1
10
221.63179632103
20
11.4043171609123
30
0
41
1
10
221.640397943123
20
11.3986805711521
30
0
0
SPLINE
5
199
100
AcDbEntity
8
1
62
256
6
ByLayer
370
-1
48
1
60
0
100
AcDbSpline
70
4
71
2
72
6
73
3
40
0
40
0
40
0
40
1
40
1
40
1
41
1
10
11.4853388079399
20
-3.6142726245975
30
0
41
1
10
11.4853388079399
20
-4.97483336760885
30
0
41
1
10
11.4853388079399
20
-6.3353941106202
30
0
0
SPLINE
5
19A
100
AcDbEntity
8
1
62
256
6
ByLayer
370
-1
48
1
60
0
100
AcDbSpline
70
4
71
3
72
16
73
12
40
0
40
0
40
0
40
0
40
0.125
40
0.125
40
0.25
40
0.25
40
0.5
40
0.5
40
0.75
40
0.75
40
1
40
1
40
1
40
1
41
1
10
229.961731237117
20
9.14520681378221
30
0
41
1
10
229.900144498266
20
9.16043955697384
30
0
41
1
10
229.846204660947
20
9.1774287085581
30
0
41
1
10
229.747618924744
20
9.21350158669148
30
0
41
1
10
229.703082943056
20
9.23261111554692
30
0
41
1
10
229.579487830557
20
9.29214763745102
30
0
41
1
10
229.510167129883
20
9.33481121995021
30
0
41
1
10
229.387964307852
20
9.42317290911197
30
0
41
1
10
229.33573312498
20
9.4685353785446
30
0
41
1
10
229.243243409058
20
9.56071250100928
30
0
41
1
10
229.203068992178
20
9.60754033993379
30
0
41
1
10
229.167465110237
20
9.6548699574488
30
0
0
SPLINE
5
19B
100
AcDbEntity
8
1
62
256
6
ByLayer
370
-1
48
1
60
0
100
AcDbSpline
70
4
71
3
72
16
73
12
40
0
40
0
40
0
40
0
40
0.25
40
0.25
40
0.5
40
0.5
40
0.75
40
0.75
40
0.875
40
0.875
40
1
40
1
40
1
40
1
41
1
10
11.4853388079399
20
-6.33539411062026
30
0
41
1
10
11.1636383718582
20
-5.79649615515123
30
0
41
1
10
10.8736928149475
20
-5.24251717686971
30
0
41
1
10
10.345824873449
20
-4.10887103582144
30
0
41
1
10
10.1079517463967
20
-3.52918348663178
30
0
41
1
10
9.67577563708724
20
-2.34730112724034
30
0
41
1
10
9.4814992381674
20
-1.74509548927259
30
0
41
1
10
9.21776017211471
20
-0.826708790245306
30
0
41
1
10
9.1344714828461
20
-0.518061661209089
30
0
41
1
10
8.97642260558402
20
0.10402003706804
30
0
41
1
10
8.90206982263285
20
0.415879960281643
30
0
41
1
10
8.83212823521882
20
0.727428725485424
30
0
0
SPLINE
5
19C
100
AcDbEntity
8
1
62
256
6
ByLayer
370
-1
48
1
60
0
100
AcDbSpline
70
4
71
3
72
14
73
10
40
0
40
0
40
0
40
0
40
0.24999999999998
40
0.24999999999998
40
0.37499999999998
40
0.37499999999998
40
0.49999999999998
40
0.49999999999998
40
1
40
1
40
1
40
1
41
1
10
225.024904894445
20
10.1019173028197
30
0
41
1
10
225.364747270204
20
10.0289997063936
30
0
41
1
10
225.707399408908
20
9.96467000442897
30
0
41
1
10
226.225688389783
20
9.88135208204056
30
0
41
1
10
226.399285106246
20
9.85576849577561
30
0
41
1
10
226.745866930411
20
9.80930900962409
30
0
41
1
10
226.919096742147
20
9.78839015266109
30
0
41
1
10
227.784945184703
20
9.69522905843357
30
0
41
1
10
228.476664588901
20
9.65719266401527
30
0
41
1
10
229.167465110236
20
9.65486995744874
30
0
0
SPLINE
5
19D
100
AcDbEntity
8
1
62
256
6
ByLayer
370
-1
48
1
60
0
100
AcDbSpline
70
4
71
3
72
8
73
4
40
0
40
0
40
0
40
0
40
1
40
1
40
1
40
1
41
1
10
34.330155447737
20
-16.1810729611439
30
0
41
1
10
34.0398130552951
20
-16.1209102957125
30
0
41
1
10
33.7511787107141
20
-16.050728941526
30
0
41
1
10
33.4641919229667
20
-15.970579284485
30
0
0
SPLINE
5
19E
100
AcDbEntity
8
1
62
256
6
ByLayer
370
-1
48
1
60
0
100
AcDbSpline
70
4
71
3
72
12
73
8
40
0
40
0
40
0
40
0
40
0.5
40
0.5
40
0.75
40
0.75
40
1
40
1
40
1
40
1
41
1
10
216.477212810153
20
7.61308710802621
30
0
41
1
10
217.038167204347
20
7.36355783732742
30
0
41
1
10
217.597566196153
20
7.13210734018406
30
0
41
1
10
218.434417789179
20
6.81104773041167
30
0
41
1
10
218.712991129039
20
6.7084120336315
30
0
41
1
10
219.269365406164
20
6.51211844010396
30
0
41
1
10
219.547805169623
20
6.41828126164074
30
0
41
1
10
219.822092879881
20
6.33032232786155
30
0
0
SPLINE
5
19F
100
AcDbEntity
8
1
62
256
6
ByLayer
370
-1
48
1
60
0
100
AcDbSpline
70
4
71
3
72
8
73
4
40
0
40
0
40
0
40
0
40
1
40
1
40
1
40
1
41
1
10
20.9162943914446
20
16.1043792590269
30
0
41
1
10
26.8122112041343
20
13.1207844492208
30
0
41
1
10
32.6762566064892
20
10.1399043212899
30
0
41
1
10
38.5162943914455
20
7.18039070358748
30
0
0
SPLINE
5
1A0
100
AcDbEntity
8
1
62
256
6
ByLayer
370
-1
48
1
60
0
100
AcDbSpline
70
4
71
3
72
14
73
10
40
0
40
0
40
0
40
0
40
0.500000000000002
40
0.500000000000002
40
0.750000000000002
40
0.750000000000002
40
0.875000000000001
40
0.875000000000001
40
1
40
1
40
1
40
1
41
1
10
14.8618784094242
20
-5.79640862649748
30
0
41
1
10
14.2777792136021
20
-5.55952881976319
30
0
41
1
10
13.7052869144796
20
-5.25802309723383
30
0
41
1
10
12.8605566497513
20
-4.71219606429901
30
0
41
1
10
12.5813386370199
20
-4.51453517656338
30
0
41
1
10
12.1658205475664
20
-4.19371972409542
30
0
41
1
10
12.0277091227096
20
-4.08257095497839
30
0
41
1
10
11.7545631520952
20
-3.85364343337585
30
0
41
1
10
11.6193033297403
20
-3.73570157144329
30
0
41
1
10
11.4853388079398
20
-3.61427262459753
30
0
0
SPLINE
5
1A1
100
AcDbEntity
8
1
62
256
6
ByLayer
370
-1
48
1
60
0
100
AcDbSpline
70
4
71
2
72
6
73
3
40
0
40
0
40
0
40
1
40
1
40
1
41
1
10
30.8172755648058
20
-14.7514841670927
30
0
41
1
10
30.8172755648058
20
-16.2796977504572
30
0
41
1
10
30.8172755648058
20
-17.8079113338219
30
0
0
SPLINE
5
1A2
100
AcDbEntity
8
1
62
256
6
ByLayer
370
-1
48
1
60
0
100
AcDbSpline
70
4
71
3
72
8
73
4
40
0
40
0
40
0
40
0
40
1
40
1
40
1
40
1
41
1
10
227.938984564255
20
6.99658877203032
30
0
41
1
10
227.510140786531
20
6.74797345324279
30
0
41
1
10
227.067873097938
20
6.51025742381259
30
0
41
1
10
226.613388483303
20
6.28544583705806
30
0
0
SPLINE
5
1A3
100
AcDbEntity
8
1
62
256
6
ByLayer
370
-1
48
1
60
0
100
AcDbSpline
70
4
71
3
72
30
73
26
40
0
40
0
40
0
40
0
40
0.124999999999999
40
0.124999999999999
40
0.249999999999998
40
0.249999999999998
40
0.374999999999997
40
0.374999999999997
40
0.499999999999996
40
0.499999999999996
40
0.624999999999996
40
0.624999999999996
40
0.687499999999996
40
0.687499999999996
40
0.749999999999996
40
0.749999999999996
40
0.781249999999996
40
0.781249999999996
40
0.812499999999996
40
0.812499999999996
40
0.874999999999997
40
0.874999999999997
40
0.937499999999999
40
0.937499999999999
40
1
40
1
40
1
40
1
41
1
10
140.5
20
-14.4459540690836
30
0
41
1
10
143.276951850719
20
-15.0725209445835
30
0
41
1
10
146.051473331169
20
-15.6775523958127
30
0
41
1
10
151.598070931385
20
-16.8380059306004
30
0
41
1
10
154.369550402108
20
-17.395133533996
30
0
41
1
10
159.910468905997
20
-18.4586704890675
30
0
41
1
10
162.680391406136
20
-18.963828448663
30
0
41
1
10
168.221434351975
20
-19.9160778175424
30
0
41
1
10
170.992142400729
20
-20.3641618428941
30
0
41
1
10
176.534867281705
20
-21.2020334321554
30
0
41
1
10
179.306885508502
20
-21.591775164297
30
0
41
1
10
183.467337527753
20
-22.1295042559899
30
0
41
1
10
184.854578216976
20
-22.3009089368945
30
0
41
1
10
187.629959156923
20
-22.6278696277227
30
0
41
1
10
189.018187700841
20
-22.7836642301158
30
0
41
1
10
191.100366188684
20
-23.0041125448225
30
0
41
1
10
191.794489324089
20
-23.0753461673712
30
0
41
1
10
193.182635356853
20
-23.2136490314323
30
0
41
1
10
193.876525541118
20
-23.2808841654718
30
0
41
1
10
195.958039976632
20
-23.4762889953422
30
0
41
1
10
197.345910029988
20
-23.5977030555302
30
0
41
1
10
200.121398836393
20
-23.8236439343408
30
0
41
1
10
201.508954015386
20
-23.9281974570042
30
0
41
1
10
204.284556497157
20
-24.1195993306975
30
0
41
1
10
205.672544279056
20
-24.2065203964746
30
0
41
1
10
207.060793086398
20
-24.2846290463681
30
0
0
SPLINE
5
1A4
100
AcDbEntity
8
1
62
256
6
ByLayer
370
-1
48
1
60
0
100
AcDbSpline
70
4
71
3
72
18
73
14
40
0
40
0
40
0
40
0
40
0.250000000000002
40
0.250000000000002
40
0.375000000000002
40
0.375000000000002
40
0.437500000000003
40
0.437500000000003
40
0.500000000000002
40
0.500000000000002
40
0.750000000000001
40
0.750000000000001
40
1
40
1
40
1
40
1
41
1
10
36
20
13.3194457672584
30
0
41
1
10
34.7183509702687
20
13.7301989813916
30
0
41
1
10
33.4462444990999
20
14.1581565725579
30
0
41
1
10
31.5623077082328
20
14.8523060174212
30
0
41
1
10
30.9383973433812
20
15.0924676565659
30
0
41
1
10
30.0102149555881
20
15.4700168192391
30
0
41
1
10
29.7022077709777
20
15.5990028647724
30
0
41
1
10
29.0886364045223
20
15.862536249294
30
0
41
1
10
28.7812598754378
20
15.9927986989019
30
0
41
1
10
27.2404275886672
20
16.6341849987598
30
0
41
1
10
25.9958954356254
20
17.1177870854125
30
0
41
1
10
23.4778727458349
20
18.0182135453633
30
0
41
1
10
22.2047801878118
20
18.4348805138667
30
0
41
1
10
20.9162943914438
20
18.8130420256761
30
0
0
SPLINE
5
1A5
100
AcDbEntity
8
1
62
256
6
ByLayer
370
-1
48
1
60
0
100
AcDbSpline
70
4
71
3
72
54
73
50
40
0
40
0
40
0
40
0
40
0.0625000000000002
40
0.0625000000000002
40
0.125000000000001
40
0.125000000000001
40
0.156250000000001
40
0.156250000000001
40
0.187500000000001
40
0.187500000000001
40
0.250000000000001
40
0.250000000000001
40
0.281250000000001
40
0.281250000000001
40
0.312500000000002
40
0.312500000000002
40
0.375000000000002
40
0.375000000000002
40
0.406250000000003
40
0.406250000000003
40
0.421875000000003
40
0.421875000000003
40
0.437500000000002
40
0.437500000000002
40
0.500000000000002
40
0.500000000000002
40
0.531250000000002
40
0.531250000000002
40
0.562500000000001
40
0.562500000000001
40
0.625000000000001
40
0.625000000000001
40
0.656250000000001
40
0.656250000000001
40
0.687500000000001
40
0.687500000000001
40
0.750000000000001
40
0.750000000000001
40
0.781250000000001
40
0.781250000000001
40
0.812500000000001
40
0.812500000000001
40
0.875000000000001
40
0.875000000000001
40
0.9375
40
0.9375
40
0.96875
40
0.96875
40
1
40
1
40
1
40
1
41
1
10
20.9162943914456
20
18.8130420256835
30
0
41
1
10
20.2910461051275
20
18.9878168802308
30
0
41
1
10
19.6646841673745
20
19.1199316544625
30
0
41
1
10
18.4099198826848
20
19.301884957341
30
0
41
1
10
17.7815165707729
20
19.3517287248236
30
0
41
1
10
16.8371815787645
20
19.3621538526701
30
0
41
1
10
16.5210748446723
20
19.3547215144995
30
0
41
1
10
15.8983982847831
20
19.3180544056503
30
0
41
1
10
15.5908011734619
20
19.2889023622955
30
0
41
1
10
14.6789999993902
20
19.1692020625691
30
0
41
1
10
14.0857238231134
20
19.0466283450019
30
0
41
1
10
13.2178864762019
20
18.7955972180081
30
0
41
1
10
12.9323020088929
20
18.700672494942
30
0
41
1
10
12.3687565340222
20
18.487103746927
30
0
41
1
10
12.094545601623
20
18.3698648291185
30
0
41
1
10
11.2951287532891
20
17.9875607778829
30
0
41
1
10
10.7924886127139
20
17.6919071301219
30
0
41
1
10
10.0839718907501
20
17.1850464952822
30
0
41
1
10
9.85540709122924
20
17.0054821306687
30
0
41
1
10
9.52429030413958
20
16.7194725302511
30
0
41
1
10
9.41565572083175
20
16.6211440935866
30
0
41
1
10
9.20344464222919
20
16.4197713301297
30
0
41
1
10
9.10012926060062
20
16.3169969043151
30
0
41
1
10
8.59725395316306
20
15.7927768168057
30
0
41
1
10
8.2385573900381
20
15.3404655437499
30
0
41
1
10
7.76417171946835
20
14.6121637566062
30
0
41
1
10
7.61670047002625
20
14.3610557706219
30
0
41
1
10
7.34334530882069
20
13.8416546932571
30
0
41
1
10
7.21703984252585
20
13.5721371724929
30
0
41
1
10
6.87708055045007
20
12.7513067434755
30
0
41
1
10
6.70018513485681
20
12.1850466174103
30
0
41
1
10
6.50507414631841
20
11.3076804244429
30
0
41
1
10
6.4517961220977
20
11.0105442038415
30
0
41
1
10
6.36862141930553
20
10.4067985990395
30
0
41
1
10
6.33872292911957
20
10.0990355431557
30
0
41
1
10
6.28490938332664
20
9.17571404118823
30
0
41
1
10
6.29586518750705
20
8.55692097379514
30
0
41
1
10
6.37684820196992
20
7.62378573395745
30
0
41
1
10
6.41465159022368
20
7.31191492080924
30
0
41
1
10
6.51147019085249
20
6.68649178867324
30
0
41
1
10
6.57076205383228
20
6.37184297441334
30
0
41
1
10
6.77765324812731
20
5.43649405341276
30
0
41
1
10
6.95399141488886
20
4.82287289754058
30
0
41
1
10
7.37688108047271
20
3.61371510941748
30
0
41
1
10
7.62346681759328
20
3.01818752789083
30
0
41
1
10
8.04459522384971
20
2.13811425551847
30
0
41
1
10
8.19251951701162
20
1.84914705353842
30
0
41
1
10
8.50200013899749
20
1.28124481361792
30
0
41
1
10
8.66368891360054
20
1.00203520113411
30
0
41
1
10
8.83212823521882
20
0.727428725485368
30
0
0
SPLINE
5
1A6
100
AcDbEntity
8
1
62
256
6
ByLayer
370
-1
48
1
60
0
100
AcDbSpline
70
4
71
3
72
40
73
36
40
0
40
0
40
0
40
0
40
0.0628111518650388
40
0.0628111518650388
40
0.101860687203996
40
0.101860687203996
40
0.140910222542953
40
0.140910222542953
40
0.17995975788191
40
0.17995975788191
40
0.219009293220867
40
0.219009293220867
40
0.29710836389878
40
0.29710836389878
40
0.375207434576694
40
0.375207434576694
40
0.453306505254607
40
0.453306505254607
40
0.531405575932521
40
0.531405575932521
40
0.609504646610435
40
0.609504646610435
40
0.648554181949391
40
0.648554181949391
40
0.687603717288348
40
0.687603717288348
40
0.765702787966261
40
0.765702787966261
40
0.804752323305218
40
0.804752323305218
40
0.843801858644174
40
0.843801858644174
40
0.921900929322087
40
0.921900929322087
40
1
40
1
40
1
40
1
41
1
10
163.52126854322
20
-19.1113790769252
30
0
41
1
10
160.816523015829
20
-19.5307786986714
30
0
41
1
10
158.111565188261
20
-19.924039298626
30
0
41
1
10
153.723522369245
20
-20.5165248230111
30
0
41
1
10
152.040891920456
20
-20.7329806256913
30
0
41
1
10
148.676757642221
20
-21.1438307874356
30
0
41
1
10
146.994980677975
20
-21.3383076849661
30
0
41
1
10
143.631659276843
20
-21.7050795497723
30
0
41
1
10
141.950115118542
20
-21.8774058549562
30
0
41
1
10
138.587085322878
20
-22.1983434772745
30
0
41
1
10
136.905555750999
20
-22.3472027465052
30
0
41
1
10
131.860315106739
20
-22.7588355385514
30
0
41
1
10
128.494948817017
20
-22.9868914167082
30
0
41
1
10
121.7678904194
20
-23.3420801019008
30
0
41
1
10
118.405553553649
20
-23.4694538365415
30
0
41
1
10
111.680124419562
20
-23.6220027990278
30
0
41
1
10
108.316620160731
20
-23.6473591811648
30
0
41
1
10
101.587841288443
20
-23.599676289966
30
0
41
1
10
98.2249920995099
20
-23.5261344168099
30
0
41
1
10
91.4997092645249
20
-23.2805576654632
30
0
41
1
10
88.1372864381559
20
-23.1083660234064
30
0
41
1
10
83.0918278902305
20
-22.7775853856167
30
0
41
1
10
81.4094411221655
20
-22.6552630221108
30
0
41
1
10
78.0456221463853
20
-22.3864482161479
30
0
41
1
10
76.3640936973735
20
-22.2398149011357
30
0
41
1
10
71.3200409956416
20
-21.7642578123784
30
0
41
1
10
67.9579948507321
20
-21.4000361772224
30
0
41
1
10
62.9139588728865
20
-20.7863777368685
30
0
41
1
10
61.2324514890625
20
-20.5706051991188
30
0
41
1
10
57.8687705972567
20
-20.1172197248152
30
0
41
1
10
56.186678228766
20
-19.8796779619021
30
0
41
1
10
51.1422135113454
20
-19.1352101560924
30
0
41
1
10
47.78034970927
20
-18.5981445946672
30
0
41
1
10
41.0563525830736
20
-17.4454646299321
30
0
41
1
10
37.6941035620884
20
-16.8307789144507
30
0
41
1
10
34.3301554477355
20
-16.1810729611438
30
0
0
SPLINE
5
1A7
100
AcDbEntity
8
1
62
256
6
ByLayer
370
-1
48
1
60
0
100
AcDbSpline
70
4
71
3
72
12
73
8
40
0
40
0
40
0
40
0
40
0.5
40
0.5
40
0.75
40
0.75
40
1
40
1
40
1
40
1
41
1
10
9.58784102411238
20
-0.913420833812864
30
0
41
1
10
9.846707172881
20
-1.4232778048877
30
0
41
1
10
10.1325037085959
20
-1.90294396540941
30
0
41
1
10
10.6057715215074
20
-2.57876140616986
30
0
41
1
10
10.7709707809906
20
-2.79671936695371
30
0
41
1
10
11.1171784524653
20
-3.21787123845129
30
0
41
1
10
11.2985836466187
20
-3.42134520199235
30
0
41
1
10
11.4853388079404
20
-3.61427262459819
30
0
0
SPLINE
5
1A8
100
AcDbEntity
8
1
62
256
6
ByLayer
370
-1
48
1
60
0
100
AcDbSpline
70
4
71
3
72
29
73
25
40
0
40
0
40
0
40
0
40
0.0595471846775918
40
0.131889708933163
40
0.204232233188732
40
0.276574757444303
40
0.348917281699871
40
0.421259805955442
40
0.439345437019335
40
0.457431068083227
40
0.493602330211012
40
0.529773592338797
40
0.565944854466582
40
0.602116116594366
40
0.638287378722151
40
0.674458640849936
40
0.710629902977721
40
0.746801165105506
40
0.782972427233291
40
0.855314951488861
40
0.891486213616646
40
0.92765747574443
40
0.963828737872215
40
1
40
1
40
1
40
1
41
1
10
75.4716095406374
20
2.61977151662012
30
0
41
1
10
74.7382113134354
20
2.71746632336283
30
0
41
1
10
73.1137937838783
20
2.93330629001531
30
0
41
1
10
70.5982371645912
20
3.26526183529117
30
0
41
1
10
67.9249369234459
20
3.61518371529914
30
0
41
1
10
65.2515297139622
20
3.96184884247089
30
0
41
1
10
62.5780528258479
20
4.30489973561174
30
0
41
1
10
60.5729597418655
20
4.55923658228332
30
0
41
1
10
59.2361969760066
20
4.72741597339291
30
0
41
1
10
58.3449362372863
20
4.83913169549021
30
0
41
1
10
57.2306332320378
20
4.97818177500071
30
0
41
1
10
55.8936400943875
20
5.14414544124082
30
0
41
1
10
54.5571425688721
20
5.30882628914267
30
0
41
1
10
53.2207019213653
20
5.47203940669007
30
0
41
1
10
51.8834501010835
20
5.63413880228228
30
0
41
1
10
50.5463250340279
20
5.7952032767017
30
0
41
1
10
49.2098012577185
20
5.95486696536861
30
0
41
1
10
47.8734726460168
20
6.11296153989943
30
0
41
1
10
46.0907538095201
20
6.32197232395129
30
0
41
1
10
44.3079991209859
20
6.52852639292144
30
0
41
1
10
42.5259141248693
20
6.73212468225893
30
0
41
1
10
41.1896869561211
20
6.88315687988083
30
0
41
1
10
39.8533284886498
20
7.03258100617063
30
0
41
1
10
38.962034533797
20
7.13127387101568
30
0
41
1
10
38.5162943914485
20
7.18039070358705
30
0
0
SPLINE
5
1A9
100
AcDbEntity
8
1
62
256
6
ByLayer
370
-1
48
1
60
0
100
AcDbSpline
70
4
71
3
72
8
73
4
40
0
40
0
40
0
40
0
40
1
40
1
40
1
40
1
41
1
10
223.287840390372
20
10.5815170980679
30
0
41
1
10
223.886572155573
20
10.3861010422607
30
0
41
1
10
224.46634443761
20
10.2283756076438
30
0
41
1
10
225.024904894445
20
10.1019173028197
30
0
0
SPLINE
5
1AA
100
AcDbEntity
8
1
62
256
6
ByLayer
370
-1
48
1
60
0
100
AcDbSpline
70
4
71
3
72
10
73
6
40
0
40
0
40
0
40
0
40
0.5
40
0.5
40
1
40
1
40
1
40
1
41
1
10
221.640397943124
20
11.3986805711531
30
0
41
1
10
221.903391889988
20
11.2263422642836
30
0
41
1
10
222.171110650946
20
11.0696758146212
30
0
41
1
10
222.720125559554
20
10.7939712236611
30
0
41
1
10
223.002675691443
20
10.6745900966273
30
0
41
1
10
223.287840390372
20
10.5815170980679
30
0
0
SPLINE
5
1AB
100
AcDbEntity
8
1
62
256
6
ByLayer
370
-1
48
1
60
0
100
AcDbSpline
70
4
71
3
72
22
73
18
40
0
40
0
40
0
40
0
40
0.0298621738193194
40
0.0298621738193194
40
0.272396630364491
40
0.272396630364491
40
0.393663858637076
40
0.393663858637076
40
0.514931086909661
40
0.514931086909661
40
0.636198315182246
40
0.636198315182246
40
0.757465543454831
40
0.757465543454831
40
0.878732771727415
40
0.878732771727415
40
1
40
1
40
1
40
1
41
1
10
171.687484291578
20
21.1573284337814
30
0
41
1
10
172.01752043084
20
21.2050521797364
30
0
41
1
10
172.347562300572
20
21.2523548956179
30
0
41
1
10
175.358185735595
20
21.6800066135482
30
0
41
1
10
178.038722540657
20
22.0336112842149
30
0
41
1
10
182.062235879282
20
22.5179996664795
30
0
41
1
10
183.403928393195
20
22.671703990959
30
0
41
1
10
186.088668408322
20
22.963226272431
30
0
41
1
10
187.431834096988
20
23.1010696834846
30
0
41
1
10
190.11853032317
20
23.3615485737307
30
0
41
1
10
191.461846768633
20
23.4836704009353
30
0
41
1
10
194.147618265606
20
23.7126143495394
30
0
41
1
10
195.489912738288
20
23.8195420004668
30
0
41
1
10
198.175294014816
20
24.0162779673307
30
0
41
1
10
199.518010497757
20
24.1065055923086
30
0
41
1
10
202.202980657204
20
24.271038639624
30
0
41
1
10
203.545378611241
20
24.3452017802183
30
0
41
1
10
204.887949900212
20
24.4110476540295
30
0
0
SPLINE
5
1AC
100
AcDbEntity
8
1
62
256
6
ByLayer
370
-1
48
1
60
0
100
AcDbSpline
70
4
71
3
72
14
73
10
40
0
40
0
40
0
40
0
40
0.153725231458695
40
0.153725231458695
40
0.576862615729347
40
0.576862615729347
40
0.788431307864675
40
0.788431307864675
40
1
40
1
40
1
40
1
41
1
10
210.309060508115
20
10.4321723203105
30
0
41
1
10
210.281498467614
20
10.5084900458466
30
0
41
1
10
210.252355477759
20
10.5850383273969
30
0
41
1
10
210.136585697595
20
10.8715052265794
30
0
41
1
10
210.03923643217
20
11.0803926139791
30
0
41
1
10
209.861815541936
20
11.3848275692667
30
0
41
1
10
209.797366999765
20
11.4847843621769
30
0
41
1
10
209.65331207027
20
11.6792749140334
30
0
41
1
10
209.573465540286
20
11.773936273478
30
0
41
1
10
209.48502986555
20
11.8609358413882
30
0
0
SPLINE
5
1AD
100
AcDbEntity
8
1
62
256
6
ByLayer
370
-1
48
1
60
0
100
AcDbSpline
70
4
71
3
72
8
73
4
40
0
40
0
40
0
40
0
40
1
40
1
40
1
40
1
41
1
10
21.5853388079399
20
-9.59600147149294
30
0
41
1
10
21.58533880794
20
-11.476166241028
30
0
41
1
10
21.5853388079399
20
-13.356331010563
30
0
41
1
10
21.5853388079399
20
-15.2364957800981
30
0
0
SPLINE
5
1AE
100
AcDbEntity
8
1
62
256
6
ByLayer
370
-1
48
1
60
0
100
AcDbSpline
70
4
71
4
72
10
73
5
40
0
40
0
40
0
40
0
40
0
40
1
40
1
40
1
40
1
40
1
41
0.984176914128496
10
209.396142250878
20
10.8522689481545
30
0
41
0.985046284471937
10
209.421004086148
20
11.1003892182908
30
0
41
0.985980768157054
10
209.444117061343
20
11.3516540576467
30
0
41
0.986964383760592
10
209.465459294731
20
11.6054045210811
30
0
41
0.987975802831393
10
209.48502986555
20
11.8609358413878
30
0
0
SPLINE
5
1AF
100
AcDbEntity
8
1
62
256
6
ByLayer
370
-1
48
1
60
0
100
AcDbSpline
70
4
71
3
72
16
73
12
40
0
40
0
40
0
40
0
40
0.153125665076331
40
0.153125665076331
40
0.435417110050903
40
0.435417110050903
40
0.717708555025475
40
0.717708555025475
40
0.858854277512737
40
0.858854277512737
40
1
40
1
40
1
40
1
41
1
10
232.252095012587
20
9.71004865724217
30
0
41
1
10
232.230963311716
20
9.69056539021221
30
0
41
1
10
232.210013355504
20
9.67211886064297
30
0
41
1
10
232.151272778254
20
9.62250767828741
30
0
41
1
10
232.114134074564
20
9.59371678028694
30
0
41
1
10
232.044602933474
20
9.54369278467021
30
0
41
1
10
232.012756530348
20
9.52288963795345
30
0
41
1
10
231.975589268225
20
9.50088759413981
30
0
41
1
10
231.96499475835
20
9.49510691711745
30
0
41
1
10
231.948954175935
20
9.48738361479397
30
0
41
1
10
231.943383364439
20
9.48536269783222
30
0
41
1
10
231.940587100648
20
9.48536269783222
30
0
0
SPLINE
5
1B0
100
AcDbEntity
8
1
62
256
6
ByLayer
370
-1
48
1
60
0
100
AcDbSpline
70
4
71
3
72
8
73
4
40
0
40
0
40
0
40
0
40
1
40
1
40
1
40
1
41
1
10
36
20
13.3194457672584
30
0
41
1
10
36.8440775250857
20
13.0489289967825
30
0
41
1
10
37.6826948362107
20
12.7636063100899
30
0
41
1
10
38.5162943914456
20
12.4636335238754
30
0
0
SPLINE
5
1B1
100
AcDbEntity
8
1
62
256
6
ByLayer
370
-1
48
1
60
0
100
AcDbSpline
70
4
71
3
72
8
73
4
40
0
40
0
40
0
40
0
40
1
40
1
40
1
40
1
41
1
10
222.41348544957
20
24.7680767080167
30
0
41
1
10
222.861404943862
20
24.7721228440838
30
0
41
1
10
223.299820661741
20
24.7772002032312
30
0
41
1
10
223.729086777289
20
24.7822344473097
30
0
0
SPLINE
5
1B2
100
AcDbEntity
8
1
62
256
6
ByLayer
370
-1
48
1
60
0
100
AcDbSpline
70
4
71
3
72
18
73
14
40
0
40
0
40
0
40
0
40
0.25
40
0.25
40
0.375
40
0.375
40
0.5
40
0.5
40
0.625
40
0.625
40
0.75
40
0.75
40
1
40
1
40
1
40
1
41
1
10
11.4853388079399
20
-6.33539411062023
30
0
41
1
10
12.2708666302334
20
-7.23358390228287
30
0
41
1
10
13.0715296364881
20
-8.09507451252577
30
0
41
1
10
14.2965811980105
20
-9.33289927745935
30
0
41
1
10
14.708954350725
20
-9.73641429405509
30
0
41
1
10
15.5421263026739
20
-10.52508527297
30
0
41
1
10
15.9624057585989
20
-10.9097186415128
30
0
41
1
10
16.8078236710773
20
-11.656951782575
30
0
41
1
10
17.2333841631696
20
-12.0199542944926
30
0
41
1
10
18.0906208050702
20
-12.7246557855565
30
0
41
1
10
18.5227056536376
20
-13.0666514540291
30
0
41
1
10
19.8243057370879
20
-14.0569225174598
30
0
41
1
10
20.6999263974267
20
-14.6703218412183
30
0
41
1
10
21.5853388079399
20
-15.2364957800981
30
0
0
SPLINE
5
1B3
100
AcDbEntity
8
1
62
256
6
ByLayer
370
-1
48
1
60
0
100
AcDbSpline
70
4
71
3
72
94
73
90
40
-0.0312499999999992
40
-0.0312499999999992
40
0
40
0
40
0.0312499999999916
40
0.0312499999999916
40
0.0468749999999874
40
0.0468749999999874
40
0.0624999999999832
40
0.0624999999999832
40
0.0937499999999749
40
0.0937499999999749
40
0.124999999999966
40
0.124999999999966
40
0.156249999999958
40
0.156249999999958
40
0.171874999999954
40
0.171874999999954
40
0.18749999999995
40
0.18749999999995
40
0.218749999999947
40
0.218749999999947
40
0.249999999999944
40
0.249999999999944
40
0.265624999999946
40
0.265624999999946
40
0.281249999999947
40
0.281249999999947
40
0.312499999999951
40
0.312499999999951
40
0.328124999999952
40
0.328124999999952
40
0.343749999999954
40
0.343749999999954
40
0.374999999999957
40
0.374999999999957
40
0.406249999999961
40
0.406249999999961
40
0.421874999999962
40
0.421874999999962
40
0.437499999999964
40
0.437499999999964
40
0.468749999999968
40
0.468749999999968
40
0.484374999999969
40
0.484374999999969
40
0.49999999999997
40
0.49999999999997
40
0.531249999999972
40
0.531249999999972
40
0.546874999999973
40
0.546874999999973
40
0.562499999999975
40
0.578124999999977
40
0.578124999999977
40
0.593749999999978
40
0.593749999999978
40
0.624999999999981
40
0.624999999999981
40
0.640624999999983
40
0.640624999999983
40
0.656249999999984
40
0.656249999999984
40
0.687499999999992
40
0.687499999999992
40
0.71875
40
0.71875
40
0.750000000000008
40
0.750000000000008
40
0.765625000000009
40
0.765625000000009
40
0.781250000000009
40
0.79687500000001
40
0.79687500000001
40
0.812500000000011
40
0.812500000000011
40
0.843750000000007
40
0.843750000000007
40
0.859375000000005
40
0.859375000000005
40
0.875000000000003
40
0.875000000000003
40
0.906250000000003
40
0.906250000000003
40
0.937500000000003
40
0.937500000000003
40
0.953125000000002
40
0.953125000000002
40
0.968750000000001
40
0.968750000000001
40
1
40
1
40
1.03124999999999
40
1.03124999999999
41
1
10
234.730740554382
20
-5.35111243974325
30
0
41
1
10
234.716511874986
20
-5.07479580902631
30
0
41
1
10
234.722552091964
20
-4.93789483111971
30
0
41
1
10
234.750850476089
20
-4.7343957782476
30
0
41
1
10
234.763511823141
20
-4.66687400159131
30
0
41
1
10
234.795480272726
20
-4.53247813501213
30
0
41
1
10
234.81492037903
20
-4.46527901726657
30
0
41
1
10
234.882341047657
20
-4.26857239846805
30
0
41
1
10
234.939394542205
20
-4.14308508311811
30
0
41
1
10
235.077726849478
20
-3.90350918040397
30
0
41
1
10
235.160130709905
20
-3.78838147539543
30
0
41
1
10
235.343736361966
20
-3.57934753696955
30
0
41
1
10
235.445125961411
20
-3.48452598641117
30
0
41
1
10
235.611892461157
20
-3.35722062075115
30
0
41
1
10
235.670301796153
20
-3.31709356647423
30
0
41
1
10
235.789906213588
20
-3.24354067401074
30
0
41
1
10
235.85118444808
20
-3.2099940691318
30
0
41
1
10
236.039356286589
20
-3.11885937012056
30
0
41
1
10
236.170597727984
20
-3.0706639589182
30
0
41
1
10
236.444901599936
20
-3.00079072050158
30
0
41
1
10
236.583262022518
20
-2.98029903092427
30
0
41
1
10
236.792545959634
20
-2.97041811813429
30
0
41
1
10
236.862600081769
20
-2.97062732038407
30
0
41
1
10
237.003309643428
20
-2.97823911856028
30
0
41
1
10
237.073918737408
20
-2.98569341881571
30
0
41
1
10
237.281783958443
20
-3.01835143124401
30
0
41
1
10
237.416764461164
20
-3.05379132195029
30
0
41
1
10
237.613848657935
20
-3.12738986614806
30
0
41
1
10
237.678992888759
20
-3.1555481246055
30
0
41
1
10
237.805040693045
20
-3.21779698907946
30
0
41
1
10
237.866057738444
20
-3.2518794260028
30
0
41
1
10
238.043252597731
20
-3.36274313117411
30
0
41
1
10
238.15383923088
20
-3.44825649145906
30
0
41
1
10
238.358135924639
20
-3.64194832525226
30
0
41
1
10
238.448885246108
20
-3.74723901267149
30
0
41
1
10
238.568766690701
20
-3.91712727076333
30
0
41
1
10
238.605999845637
20
-3.97576380944321
30
0
41
1
10
238.674919300383
20
-4.09710617714563
30
0
41
1
10
238.706501615758
20
-4.15971874438321
30
0
41
1
10
238.7910058656
20
-4.34961185026859
30
0
41
1
10
238.83453642556
20
-4.48020131118472
30
0
41
1
10
238.880996885043
20
-4.68190124454742
30
0
41
1
10
238.893360246638
20
-4.75047045092191
30
0
41
1
10
238.911332004577
20
-4.88755846383654
30
0
41
1
10
238.916977940332
20
-4.95602055575063
30
0
41
1
10
238.924225260758
20
-5.16116352305548
30
0
41
1
10
238.91622431491
20
-5.29760165282499
30
0
41
1
10
238.884647306357
20
-5.50177224117039
30
0
41
1
10
238.870854859863
20
-5.569416828556
30
0
41
1
10
238.837284534879
20
-5.70191905492021
30
0
41
1
10
238.797643066337
20
-5.83223326125591
30
0
41
1
10
238.746006004245
20
-5.95824496386268
30
0
41
1
10
238.688271583701
20
-6.08208339648522
30
0
41
1
10
238.656209700131
20
-6.14315995399352
30
0
41
1
10
238.551482068082
20
-6.32128253401373
30
0
41
1
10
238.471344871517
20
-6.43182291571799
30
0
41
1
10
238.335813243348
20
-6.58557196948814
30
0
41
1
10
238.288063485877
20
-6.63479709296132
30
0
41
1
10
238.187211434534
20
-6.72905888782051
30
0
41
1
10
238.133848675736
20
-6.77425766182753
30
0
41
1
10
237.968970897522
20
-6.90045518067248
30
0
41
1
10
237.851885448844
20
-6.97307783560314
30
0
41
1
10
237.603070864445
20
-7.09499728637527
30
0
41
1
10
237.469777070029
20
-7.14448316976464
30
0
41
1
10
237.199664730697
20
-7.21430980756128
30
0
41
1
10
237.061907526368
20
-7.23543576404029
30
0
41
1
10
236.851082674427
20
-7.24579368171121
30
0
41
1
10
236.779914912786
20
-7.24560709126854
30
0
41
1
10
236.639658417024
20
-7.23800510332009
30
0
41
1
10
236.500629231109
20
-7.22326207897646
30
0
41
1
10
236.364000443116
20
-7.19454066131405
30
0
41
1
10
236.228579791651
20
-7.15877225860416
30
0
41
1
10
236.161114968998
20
-7.13720717684075
30
0
41
1
10
235.964536574091
20
-7.06314970401826
30
0
41
1
10
235.840437536842
20
-7.00136795624078
30
0
41
1
10
235.664239614695
20
-6.89080914286495
30
0
41
1
10
235.606904912135
20
-6.85073152275359
30
0
41
1
10
235.497077719275
20
-6.76555765378399
30
0
41
1
10
235.444718911642
20
-6.7206184351929
30
0
41
1
10
235.294977767145
20
-6.57901119305279
30
0
41
1
10
235.204861375176
20
-6.47561790483141
30
0
41
1
10
235.044093334893
20
-6.25062537137791
30
0
41
1
10
234.975666607468
20
-6.13207922277704
30
0
41
1
10
234.890434906219
20
-5.94633021688256
30
0
41
1
10
234.864918740497
20
-5.88304082115596
30
0
41
1
10
234.819755753518
20
-5.75366363184915
30
0
41
1
10
234.800061829724
20
-5.68731629182787
30
0
41
1
10
234.75083326122
20
-5.48699580854867
30
0
41
1
10
234.730740554382
20
-5.35111243974325
30
0
41
1
10
234.716511874986
20
-5.07479580902631
30
0
0
SPLINE
5
1B4
100
AcDbEntity
8
1
62
256
6
ByLayer
370
-1
48
1
60
0
100
AcDbSpline
70
4
71
3
72
24
73
20
40
0
40
0
40
0
40
0
40
0.250000000000001
40
0.250000000000001
40
0.375000000000001
40
0.375000000000001
40
0.437500000000001
40
0.437500000000001
40
0.5
40
0.5
40
0.75
40
0.75
40
0.8125
40
0.8125
40
0.84375
40
0.84375
40
0.875
40
0.875
40
1
40
1
40
1
40
1
41
1
10
21.58533880794
20
-15.2364957800981
30
0
41
1
10
22.1644773300202
20
-15.8031402205734
30
0
41
1
10
22.798445001269
20
-16.2775419559052
30
0
41
1
10
23.8360041436694
20
-16.8577532862499
30
0
41
1
10
24.1963373324063
20
-17.029145903421
30
0
41
1
10
24.7596142346445
20
-17.2530390392824
30
0
41
1
10
24.9513125271982
20
-17.3221233649468
30
0
41
1
10
25.3375489466559
20
-17.4476697525968
30
0
41
1
10
25.5326735410831
20
-17.5043827441604
30
0
41
1
10
26.5182059241066
20
-17.7587872755933
30
0
41
1
10
27.3381972907237
20
-17.8697489561669
30
0
41
1
10
28.4021870314713
20
-17.9028197599871
30
0
41
1
10
28.617310148915
20
-17.9040960879559
30
0
41
1
10
28.9414464570772
20
-17.898120364974
30
0
41
1
10
29.0497031591699
20
-17.8948190206321
30
0
41
1
10
29.2666365244086
20
-17.885641123662
30
0
41
1
10
29.3752342265638
20
-17.8793651790802
30
0
41
1
10
29.9203845181784
20
-17.8473020740202
30
0
41
1
10
30.3646110959969
20
-17.8254744885785
30
0
41
1
10
30.8172755644557
20
-17.807911333776
30
0
0
SPLINE
5
1B5
100
AcDbEntity
8
1
62
256
6
ByLayer
370
-1
48
1
60
0
100
AcDbSpline
70
4
71
3
72
12
73
8
40
0
40
0
40
0
40
0
40
0.25
40
0.25
40
0.5
40
0.5
40
1
40
1
40
1
40
1
41
1
10
228.870579620347
20
17.1809450446483
30
0
41
1
10
228.874774607
20
17.1809450446483
30
0
41
1
10
228.882945692772
20
17.1866220152702
30
0
41
1
10
228.906331976588
20
17.2074213606826
30
0
41
1
10
228.921765355247
20
17.2227635730492
30
0
41
1
10
228.975548903286
20
17.2774585725618
30
0
41
1
10
229.022019920437
20
17.3258162949464
30
0
41
1
10
229.075960497171
20
17.3775491619128
30
0
0
SPLINE
5
1B6
100
AcDbEntity
8
1
62
256
6
ByLayer
370
-1
48
1
60
0
100
AcDbSpline
70
4
71
3
72
10
73
6
40
0
40
0
40
0
40
0
40
0.313304786563608
40
0.313304786563608
40
1
40
1
40
1
40
1
41
1
10
122.372176223189
20
24.8701132953178
30
0
41
1
10
124.263136906343
20
24.8628303177843
30
0
41
1
10
126.154481550046
20
24.8392341856951
30
0
41
1
10
132.193414110012
20
24.7118698201269
30
0
41
1
10
136.343617865946
20
24.5461058442867
30
0
41
1
10
140.5
20
24.3038002414524
30
0
0
SPLINE
5
1B7
100
AcDbEntity
8
1
62
256
6
ByLayer
370
-1
48
1
60
0
100
AcDbSpline
70
4
71
3
72
8
73
4
40
0
40
0
40
0
40
0
40
1
40
1
40
1
40
1
41
1
10
9.5878410241159
20
-0.913420833819856
30
0
41
1
10
9.31306328430892
20
-0.372224749267787
30
0
41
1
10
9.06182171564018
20
0.175429458735181
30
0
41
1
10
8.83212823521882
20
0.727428725485396
30
0
0
SPLINE
5
1B8
100
AcDbEntity
8
1
62
256
6
ByLayer
370
-1
48
1
60
0
100
AcDbSpline
70
4
71
3
72
8
73
4
40
0
40
0
40
0
40
0
40
1
40
1
40
1
40
1
41
1
10
36
20
-18.0914321522819
30
0
41
1
10
37.6667116231142
20
-18.4191731628237
30
0
41
1
10
39.3333096342849
20
-18.7374381142392
30
0
41
1
10
41
20
-19.0457302648591
30
0
0
SPLINE
5
1B9
100
AcDbEntity
8
1
62
256
6
ByLayer
370
-1
48
1
60
0
100
AcDbSpline
70
4
71
3
72
32
73
28
40
0
40
0
40
0
40
0
40
0.125000000000009
40
0.125000000000009
40
0.187500000000011
40
0.187500000000011
40
0.21875000000001
40
0.21875000000001
40
0.250000000000009
40
0.250000000000009
40
0.375000000000008
40
0.375000000000008
40
0.500000000000008
40
0.500000000000008
40
0.562500000000007
40
0.562500000000007
40
0.625000000000006
40
0.625000000000006
40
0.750000000000004
40
0.750000000000004
40
0.781250000000003
40
0.781250000000003
40
0.812500000000003
40
0.812500000000003
40
0.875000000000001
40
0.875000000000001
40
1
40
1
40
1
40
1
41
1
10
225.024904894445
20
10.1019173028197
30
0
41
1
10
225.3943146788
20
9.94484080205464
30
0
41
1
10
225.744475497415
20
9.7972138204361
30
0
41
1
10
226.23778279811
20
9.58468572293188
30
0
41
1
10
226.396875777872
20
9.51532926043882
30
0
41
1
10
226.626897520867
20
9.41284626646001
30
0
41
1
10
226.702133411142
20
9.37894359952583
30
0
41
1
10
226.849605087489
20
9.31153725573341
30
0
41
1
10
226.921940603947
20
9.27798430263343
30
0
41
1
10
227.272768209288
20
9.11234787558877
30
0
41
1
10
227.521147631594
20
8.98557985485178
30
0
41
1
10
227.950216425264
20
8.73555332907893
30
0
41
1
10
228.130953761723
20
8.61231305854244
30
0
41
1
10
228.345570072174
20
8.42483237279927
30
0
41
1
10
228.407876584689
20
8.36156027830248
30
0
41
1
10
228.510245134516
20
8.23578478188736
30
0
41
1
10
228.550583755005
20
8.17314636174055
30
0
41
1
10
228.639268436513
20
7.9851643665321
30
0
41
1
10
228.655456670938
20
7.8596600711937
30
0
41
1
10
228.620182652823
20
7.70128364271852
30
0
41
1
10
228.610338647337
20
7.66954103648069
30
0
41
1
10
228.584968388644
20
7.60592023093736
30
0
41
1
10
228.569385736421
20
7.57395162604587
30
0
41
1
10
228.514383337401
20
7.47862078750515
30
0
41
1
10
228.466851913098
20
7.41590965153256
30
0
41
1
10
228.293104431879
20
7.23060452237357
30
0
41
1
10
228.135889487565
20
7.11074125091181
30
0
41
1
10
227.938984564258
20
6.99658877203291
30
0
0
SPLINE
5
1BA
100
AcDbEntity
8
1
62
256
6
ByLayer
370
-1
48
1
60
0
100
AcDbSpline
70
4
71
3
72
34
73
30
40
0
40
0
40
0
40
0
40
0.0751045478826859
40
0.0751045478826859
40
0.150209095765372
40
0.150209095765372
40
0.225313643648058
40
0.225313643648058
40
0.300418191530744
40
0.300418191530744
40
0.37552273941343
40
0.37552273941343
40
0.450627287296116
40
0.450627287296116
40
0.525731835178801
40
0.525731835178801
40
0.600836383061487
40
0.600836383061487
40
0.675940930944173
40
0.675940930944173
40
0.751045478826859
40
0.751045478826859
40
0.826150026709545
40
0.826150026709545
40
0.901254574592231
40
0.901254574592231
40
0.976359122474917
40
0.976359122474917
40
1
40
1
40
1
40
1
41
1
10
38.5162943914475
20
7.180390703586
30
0
41
1
10
38.2569694169722
20
6.93268765871767
30
0
41
1
10
37.9857364923427
20
6.62148588073356
30
0
41
1
10
37.4285440636131
20
5.88251358067063
30
0
41
1
10
37.1425950770102
20
5.45475700734406
30
0
41
1
10
36.5655740319795
20
4.49703761872377
30
0
41
1
10
36.2745128653316
20
3.96709288122608
30
0
41
1
10
35.6970430313339
20
2.82279236497092
30
0
41
1
10
35.4106452642353
20
2.2084581858924
30
0
41
1
10
34.8521215416297
20
0.91600901619762
30
0
41
1
10
34.5800061287493
20
0.237918421696463
30
0
41
1
10
34.0591870938464
20
-1.15927120694934
30
0
41
1
10
33.8104933027414
20
-1.87834386791062
30
0
41
1
10
33.3448711823077
20
-3.33334794823401
30
0
41
1
10
33.1279516420063
20
-4.06925190311412
30
0
41
1
10
32.7331648193809
20
-5.53320267181635
30
0
41
1
10
32.5553049890055
20
-6.26122185227982
30
0
41
1
10
32.2446127733975
20
-7.6849510626092
30
0
41
1
10
32.1117862527537
20
-8.3806342183338
30
0
41
1
10
31.8956235521172
20
-9.71632450469474
30
0
41
1
10
31.8122914523857
20
-10.3563064230019
30
0
41
1
10
31.6979183066282
20
-11.5590972948727
30
0
41
1
10
31.6668794194961
20
-12.1218835447006
30
0
41
1
10
31.6581371647969
20
-13.1513780709528
30
0
41
1
10
31.6804339622476
20
-13.6180669147624
30
0
41
1
10
31.7776162159504
20
-14.4396884948856
30
0
41
1
10
31.8524998378021
20
-14.7946057223692
30
0
41
1
10
31.9838737876908
20
-15.179935196565
30
0
41
1
10
32.0178067570368
20
-15.2660594777783
30
0
41
1
10
32.0541548464884
20
-15.3459345595866
30
0
0
SPLINE
5
1BB
100
AcDbEntity
8
1
62
256
6
ByLayer
370
-1
48
1
60
0
100
AcDbSpline
70
4
71
3
72
8
73
4
40
0
40
0
40
0
40
0
40
1
40
1
40
1
40
1
41
1
10
197.847988449775
20
16.5311328868411
30
0
41
1
10
197.419684100771
20
16.6239413855324
30
0
41
1
10
196.98538889674
20
16.7227161983851
30
0
41
1
10
196.54535882013
20
16.827202391557
30
0
0
SPLINE
5
1BC
100
AcDbEntity
8
1
62
256
6
ByLayer
370
-1
48
1
60
0
100
AcDbSpline
70
4
71
3
72
26
73
22
40
0
40
0
40
0
40
0
40
0.125000000000001
40
0.125000000000001
40
0.250000000000002
40
0.250000000000002
40
0.375000000000003
40
0.375000000000003
40
0.437500000000003
40
0.437500000000003
40
0.468750000000003
40
0.468750000000003
40
0.500000000000003
40
0.500000000000003
40
0.625000000000002
40
0.625000000000002
40
0.750000000000002
40
0.750000000000002
40
0.875000000000001
40
0.875000000000001
40
1
40
1
40
1
40
1
41
1
10
40.9999999999999
20
-19.0457302648591
30
0
41
1
10
45.1504158415903
20
-19.7965861707525
30
0
41
1
10
49.2955340367539
20
-20.4837207892174
30
0
41
1
10
57.5812663548006
20
-21.7188786400977
30
0
41
1
10
61.7219001234687
20
-22.2668951023833
30
0
41
1
10
70.0043996105825
20
-23.2153154142272
30
0
41
1
10
74.146217563522
20
-23.6158236120575
30
0
41
1
10
80.3637301863994
20
-24.1012904513051
30
0
41
1
10
82.4370476461775
20
-24.2438862947307
30
0
41
1
10
85.5487977085531
20
-24.4284157149105
30
0
41
1
10
86.5863434042614
20
-24.4850327015107
30
0
41
1
10
88.6621180610453
20
-24.5884093291559
30
0
41
1
10
89.700571334089
20
-24.6351769152376
30
0
41
1
10
94.8908445578702
20
-24.8440725028134
30
0
41
1
10
99.0380546010074
20
-24.9313789201751
30
0
41
1
10
107.328117186007
20
-24.9467727859761
30
0
41
1
10
111.470984025457
20
-24.874917406265
30
0
41
1
10
119.757353819423
20
-24.5742224448671
30
0
41
1
10
123.900787585168
20
-24.3452707881034
30
0
41
1
10
132.194084700914
20
-23.7344175229312
30
0
41
1
10
136.343968884361
20
-23.3525355379815
30
0
41
1
10
140.5
20
-22.8977786565225
30
0
0
SPLINE
5
1BD
100
AcDbEntity
8
1
62
256
6
ByLayer
370
-1
48
1
60
0
100
AcDbSpline
70
4
71
3
72
28
73
24
40
0
40
0
40
0
40
0
40
0.124999999999995
40
0.124999999999995
40
0.187499999999992
40
0.187499999999992
40
0.249999999999989
40
0.249999999999989
40
0.374999999999983
40
0.374999999999983
40
0.437499999999973
40
0.437499999999973
40
0.499999999999963
40
0.499999999999963
40
0.624999999999958
40
0.624999999999958
40
0.687499999999965
40
0.687499999999965
40
0.749999999999972
40
0.749999999999972
40
0.874999999999986
40
0.874999999999986
40
1
40
1
40
1
40
1
41
1
10
223.729086777293
20
14.8999999999991
30
0
41
1
10
223.729086777293
20
14.7631679595428
30
0
41
1
10
223.717863917079
20
14.6280316412293
30
0
41
1
10
223.684722037642
20
14.4277911648635
30
0
41
1
10
223.670942137729
20
14.3614572236207
30
0
41
1
10
223.63783128893
20
14.2296280788974
30
0
41
1
10
223.618393231473
20
14.1638501416828
30
0
41
1
10
223.552454617697
20
13.9705970140024
30
0
41
1
10
223.49842830002
20
13.8468792979677
30
0
41
1
10
223.402643568959
20
13.6687985034092
30
0
41
1
10
223.36824513852
20
13.6106939629082
30
0
41
1
10
223.294414716731
20
13.4970437026126
30
0
41
1
10
223.254784711002
20
13.4412514932509
30
0
41
1
10
223.129624097494
20
13.2798527883633
30
0
41
1
10
223.038303079455
20
13.180539145635
30
0
41
1
10
222.889847271529
20
13.0436324805816
30
0
41
1
10
222.838439640604
20
13.000018053031
30
0
41
1
10
222.731718050978
20
12.916896222484
30
0
41
1
10
222.676175048616
20
12.8772426535371
30
0
41
1
10
222.505125710947
20
12.7657330084831
30
0
41
1
10
222.386375348627
20
12.7019005683484
30
0
41
1
10
222.139759539699
20
12.5945379106568
30
0
41
1
10
222.011397239549
20
12.5508857616044
30
0
41
1
10
221.8793069983
20
12.5181464060137
30
0
0
SPLINE
5
1BE
100
AcDbEntity
8
1
62
256
6
ByLayer
370
-1
48
1
60
0
100
AcDbSpline
70
4
71
3
72
10
73
6
40
0
40
0
40
0
40
0
40
0.5
40
0.5
40
1
40
1
40
1
40
1
41
1
10
224.262541308816
20
-24.6799226369575
30
0
41
1
10
224.842986984253
20
-24.6885934111047
30
0
41
1
10
225.411515914311
20
-24.7007972671348
30
0
41
1
10
226.525441463211
20
-24.7284353595814
30
0
41
1
10
227.070838085164
20
-24.7438855635978
30
0
41
1
10
227.604328207537
20
-24.7581263317982
30
0
0
SPLINE
5
1BF
100
AcDbEntity
8
1
62
256
6
ByLayer
370
-1
48
1
60
0
100
AcDbSpline
70
4
71
3
72
8
73
4
40
0
40
0
40
0
40
0
40
1
40
1
40
1
40
1
41
1
10
38.5162943914458
20
12.4636335238751
30
0
41
1
10
39.3441959743321
20
12.2609111476396
30
0
41
1
10
40.1720939103875
20
12.0566125846011
30
0
41
1
10
41
20
11.8507748339512
30
0
0
SPLINE
5
1C0
100
AcDbEntity
8
1
62
256
6
ByLayer
370
-1
48
1
60
0
100
AcDbSpline
70
4
71
4
72
19
73
14
40
0
40
0
40
0
40
0
40
0
40
0.412714710443808
40
0.412714710443808
40
0.412714710443808
40
0.619072065665712
40
0.619072065665712
40
0.619072065665712
40
0.825429420887616
40
0.825429420887616
40
0.825429420887616
40
1
40
1
40
1
40
1
40
1
41
1
10
38.5162943914485
20
7.18039070358705
30
0
41
1
10
38.5162943914485
20
5.99652748514876
30
0
41
0.974581796258695
10
38.3554432980705
20
3.73533921515263
30
0
41
0.974581796258695
10
37.9395167223363
20
0.39606298922493
30
0
41
0.987290898129348
10
37.1859234032827
20
-4.62385526941004
30
0
41
0.993645449064674
10
36.918342498853
20
-6.26685682766774
30
0
41
1
10
36.649407685866
20
-7.79406663622152
30
0
41
1
10
36.1505923141399
20
-10.4530852044555
30
0
41
0.993645449064674
10
35.8816575011528
20
-11.7930791827566
30
0
41
0.987290898129348
10
35.6140765967231
20
-13.0028469404137
30
0
41
0.979470723078119
10
35.1526894526362
20
-14.8484067328183
30
0
41
0.977402798760163
10
34.9552485066326
20
-15.5367281135857
30
0
41
0.978133138395696
10
34.7849336351428
20
-16.0079164347734
30
0
41
0.980774430912235
10
34.6472830674735
20
-16.2589015929871
30
0
0
SPLINE
5
1C1
100
AcDbEntity
8
1
62
256
6
ByLayer
370
-1
48
1
60
0
100
AcDbSpline
70
4
71
3
72
24
73
20
40
0
40
0
40
0
40
0
40
0.25
40
0.25
40
0.375
40
0.375
40
0.4375
40
0.4375
40
0.46875
40
0.46875
40
0.5
40
0.5
40
0.625
40
0.625
40
0.75
40
0.75
40
0.875
40
0.875
40
1
40
1
40
1
40
1
41
1
10
41
20
11.8507748339512
30
0
41
1
10
49.3024045466351
20
9.77444185727811
30
0
41
1
10
57.5837131192721
20
7.55871701146381
30
0
41
1
10
70.0076912594216
20
4.14310274958771
30
0
41
1
10
74.1493920011767
20
2.98940341965957
30
0
41
1
10
80.3671247737529
20
1.25274645147331
30
0
41
1
10
82.4405419170547
20
0.672761884215049
30
0
41
1
10
85.5523703109963
20
-0.197245618628926
30
0
41
1
10
86.5899401583499
20
-0.487216761483865
30
0
41
1
10
88.6657784554684
20
-1.06668543004099
30
0
41
1
10
89.7042709320363
20
-1.35625445524894
30
0
41
1
10
94.8946818953547
20
-2.80102240836311
30
0
41
1
10
99.0417491019612
20
-3.94789000890677
30
0
41
1
10
107.331148032719
20
-6.20298363769763
30
0
41
1
10
111.473435799009
20
-7.31137312090848
30
0
41
1
10
119.758833968847
20
-9.4703514726753
30
0
41
1
10
123.901715553889
20
-10.5216986471021
30
0
41
1
10
132.194399977091
20
-12.5463234331706
30
0
41
1
10
136.344387742773
20
-13.5190734237989
30
0
41
1
10
140.5
20
-14.4459540690837
30
0
0
SPLINE
5
1C2
100
AcDbEntity
8
1
62
256
6
ByLayer
370
-1
48
1
60
0
100
AcDbSpline
70
4
71
3
72
24
73
20
40
0
40
0
40
0
40
0
40
0.0625
40
0.0625
40
0.125
40
0.125
40
0.25
40
0.25
40
0.375
40
0.375
40
0.5
40
0.5
40
0.625
40
0.625
40
0.75
40
0.75
40
0.875
40
0.875
40
1
40
1
40
1
40
1
41
1
10
229.215570138845
20
9.6548699574486
30
0
41
1
10
229.218082389209
20
9.6548699574486
30
0
41
1
10
229.218904168829
20
9.65642870210002
30
0
41
1
10
229.217271973236
20
9.66262639733506
30
0
41
1
10
229.214772844307
20
9.66732776136877
30
0
41
1
10
229.202951443159
20
9.68555119891548
30
0
41
1
10
229.189421823412
20
9.70312329285434
30
0
41
1
10
229.154595746933
20
9.74768447443805
30
0
41
1
10
229.133889994258
20
9.77395343342494
30
0
41
1
10
229.088630855642
20
9.83364808128604
30
0
41
1
10
229.063826784499
20
9.86741665909111
30
0
41
1
10
229.013105528065
20
9.94061650086425
30
0
41
1
10
228.987188119272
20
9.98000243365462
30
0
41
1
10
228.935219921795
20
10.0646915002592
30
0
41
1
10
228.909073574947
20
10.1102249786859
30
0
41
1
10
228.859061761854
20
10.2045664980758
30
0
41
1
10
228.834964769087
20
10.2537153272442
30
0
41
1
10
228.788952859274
20
10.3564028293908
30
0
41
1
10
228.766880170088
20
10.4104764830136
30
0
41
1
10
228.746992878914
20
10.4643729447576
30
0
0
SPLINE
5
1C3
100
AcDbEntity
8
1
62
256
6
ByLayer
370
-1
48
1
60
0
100
AcDbSpline
70
4
71
3
72
10
73
6
40
0
40
0
40
0
40
0
40
0.61166751309804
40
0.61166751309804
40
1
40
1
40
1
40
1
41
1
10
140.5
20
-22.8977786565224
30
0
41
1
10
145.566039479151
20
-22.358118042619
30
0
41
1
10
150.624360018314
20
-21.7094347000053
30
0
41
1
10
158.889464954853
20
-20.4859937233576
30
0
41
1
10
162.097851616362
20
-19.9705401726875
30
0
41
1
10
165.306347237522
20
-19.4176754975944
30
0
0
SPLINE
5
1C4
100
AcDbEntity
8
1
62
256
6
ByLayer
370
-1
48
1
60
0
100
AcDbSpline
70
4
71
3
72
10
73
6
40
0
40
0
40
0
40
0
40
0.5
40
0.5
40
1
40
1
40
1
40
1
41
1
10
36
20
-18.0914321522819
30
0
41
1
10
35.1303339745867
20
-17.9204216318956
30
0
41
1
10
34.2626020601518
20
-17.8119683712313
30
0
41
1
10
32.5339894273505
20
-17.7175058243257
30
0
41
1
10
31.6731000656486
20
-17.7314492062676
30
0
41
1
10
30.8172755648058
20
-17.8079113337628
30
0
0
SPLINE
5
1C5
100
AcDbEntity
8
1
62
256
6
ByLayer
370
-1
48
1
60
0
100
AcDbSpline
70
4
71
3
72
20
73
16
40
0
40
0
40
0
40
0
40
0.249999999999999
40
0.249999999999999
40
0.312499999999999
40
0.312499999999999
40
0.374999999999998
40
0.374999999999998
40
0.499999999999997
40
0.499999999999997
40
0.624999999999996
40
0.624999999999996
40
0.749999999999995
40
0.749999999999995
40
1
40
1
40
1
40
1
41
1
10
204.887949900211
20
24.4110476540445
30
0
41
1
10
204.517344237886
20
23.7250229929761
30
0
41
1
10
204.084878538448
20
23.0836947132612
30
0
41
1
10
203.44729525407
20
22.3521216290795
30
0
41
1
10
203.314963436987
20
22.2092861604455
30
0
41
1
10
203.040360430484
20
21.9307968221073
30
0
41
1
10
202.898949617389
20
21.7960514694646
30
0
41
1
10
202.465488433494
20
21.407348198735
30
0
41
1
10
202.163093118793
20
21.1678207288832
30
0
41
1
10
201.534449852209
20
20.723613927482
30
0
41
1
10
201.208219847367
20
20.5189083757301
30
0
41
1
10
200.535219331556
20
20.1395064654582
30
0
41
1
10
200.187376746552
20
19.9643739143593
30
0
41
1
10
199.13121908342
20
19.4826363066193
30
0
41
1
10
198.407201992873
20
19.2173941209398
30
0
41
1
10
197.671632116
20
18.9845941171796
30
0
0
SPLINE
5
1C6
100
AcDbEntity
8
1
62
256
6
ByLayer
370
-1
48
1
60
0
100
AcDbSpline
70
4
71
3
72
24
73
20
40
0
40
0
40
0
40
0
40
0.332115559533921
40
0.332115559533921
40
0.415144449417401
40
0.415144449417401
40
0.498173339300881
40
0.498173339300881
40
0.664231119067855
40
0.664231119067855
40
0.747260008951342
40
0.747260008951342
40
0.830288898834828
40
0.830288898834828
40
0.913317788718317
40
0.913317788718317
40
0.996346678601806
40
0.996346678601806
40
1
40
1
40
1
40
1
41
1
10
236.010759452646
20
17.2558767688046
30
0
41
1
10
236.039565682906
20
17.015444734365
30
0
41
1
10
236.107629803145
20
16.7767259231064
30
0
41
1
10
236.250027016945
20
16.4827857109604
30
0
41
1
10
236.281415354615
20
16.4243621514584
30
0
41
1
10
236.34948951321
20
16.3098029207489
30
0
41
1
10
236.386267638742
20
16.253466259271
30
0
41
1
10
236.505246037389
20
16.0875508114067
30
0
41
1
10
236.595973754839
20
15.9810138295318
30
0
41
1
10
236.752494711523
20
15.8291098637499
30
0
41
1
10
236.807797817513
20
15.7801454875929
30
0
41
1
10
236.923572608828
20
15.6871396098123
30
0
41
1
10
236.984239767864
20
15.6429010369337
30
0
41
1
10
237.111543889582
20
15.5593923621747
30
0
41
1
10
237.178177294107
20
15.5201190681626
30
0
41
1
10
237.318080605535
20
15.4472027482879
30
0
41
1
10
237.391086455823
20
15.4137682162244
30
0
41
1
10
237.469005436554
20
15.3830146775518
30
0
41
1
10
237.472293381145
20
15.3817257878879
30
0
41
1
10
237.47558529746
20
15.3804441774435
30
0
0
SPLINE
5
1C7
100
AcDbEntity
8
1
62
256
6
ByLayer
370
-1
48
1
60
0
100
AcDbSpline
70
4
71
3
72
24
73
20
40
0
40
0
40
0
40
0
40
0.0522708140005905
40
0.0522708140005905
40
0.125173059077468
40
0.125173059077468
40
0.198075304154345
40
0.198075304154345
40
0.270977549231223
40
0.270977549231223
40
0.416782039384978
40
0.416782039384978
40
0.562586529538734
40
0.562586529538734
40
0.708391019692489
40
0.708391019692489
40
0.854195509846245
40
0.854195509846245
40
1
40
1
40
1
40
1
41
1
10
237.218980379934
20
19.3094072013881
30
0
41
1
10
237.166746406478
20
19.2903023836324
30
0
41
1
10
237.116287003628
20
19.2692636261776
30
0
41
1
10
237.000966101374
20
19.2154005593344
30
0
41
1
10
236.937644434453
20
19.1809964443555
30
0
41
1
10
236.817624603829
20
19.1067992533689
30
0
41
1
10
236.760636829841
20
19.0667440938148
30
0
41
1
10
236.654653575994
20
18.9832780237858
30
0
41
1
10
236.605494639397
20
18.9398252181614
30
0
41
1
10
236.467821925155
20
18.8048622918043
30
0
41
1
10
236.388997057647
20
18.7087924537999
30
0
41
1
10
236.252783621342
20
18.5056877481277
30
0
41
1
10
236.196715444999
20
18.4004635134322
30
0
41
1
10
236.105595654098
20
18.1849453395655
30
0
41
1
10
236.070404157
20
18.0743530544433
30
0
41
1
10
236.019416936215
20
17.847513909624
30
0
41
1
10
236.003652346793
20
17.7306917299
30
0
41
1
10
235.992197657533
20
17.4950605411923
30
0
41
1
10
235.996356337515
20
17.3760927860245
30
0
41
1
10
236.010759452646
20
17.2558767688046
30
0
0
SPLINE
5
1C8
100
AcDbEntity
8
1
62
256
6
ByLayer
370
-1
48
1
60
0
100
AcDbSpline
70
4
71
1
72
4
73
2
40
0
40
0
40
1
40
1
41
1
10
38.5162943914455
20
7.18039070358748
30
0
41
1
10
38.5162943914456
20
12.4636335238753
30
0
0
SPLINE
5
1C9
100
AcDbEntity
8
1
62
256
6
ByLayer
370
-1
48
1
60
0
100
AcDbSpline
70
4
71
3
72
8
73
4
40
0
40
0
40
0
40
0
40
1
40
1
40
1
40
1
41
1
10
14.8618802651967
20
-5.79639962989225
30
0
41
1
10
17.1118109161008
20
-7.05572399141678
30
0
41
1
10
19.355129509677
20
-8.32313245092467
30
0
41
1
10
21.58533880794
20
-9.59600147149294
30
0
0
SPLINE
5
1CA
100
AcDbEntity
8
1
62
256
6
ByLayer
370
-1
48
1
60
0
100
AcDbSpline
70
4
71
3
72
12
73
8
40
0
40
0
40
0
40
0
40
0.250000000000015
40
0.250000000000015
40
0.50000000000003
40
0.50000000000003
40
1
40
1
40
1
40
1
41
1
10
228.627934843299
20
24.7905071489746
30
0
41
1
10
228.633238742028
20
24.7888461721882
30
0
41
1
10
228.645144587217
20
24.7870156235477
30
0
41
1
10
228.681644365447
20
24.7830831170405
30
0
41
1
10
228.706655856012
20
24.7809579010348
30
0
41
1
10
228.797800176913
20
24.7746174703618
30
0
41
1
10
228.881814194685
20
24.7702961502594
30
0
41
1
10
228.982129675375
20
24.7668415783797
30
0
0
SPLINE
5
1CB
100
AcDbEntity
8
1
62
256
6
ByLayer
370
-1
48
1
60
0
100
AcDbSpline
70
4
71
3
72
14
73
10
40
0
40
0
40
0
40
0
40
0.284535420711087
40
0.284535420711087
40
0.569070841422174
40
0.569070841422174
40
0.853606262133261
40
0.853606262133261
40
1
40
1
40
1
40
1
41
1
10
209.485029865541
20
11.8609358412753
30
0
41
1
10
208.688958655488
20
12.227736408935
30
0
41
1
10
207.88111309874
20
12.5749200990441
30
0
41
1
10
206.246395734421
20
13.2341731015113
30
0
41
1
10
205.419536217997
20
13.5463085616968
30
0
41
1
10
203.749969684906
20
14.1388862965238
30
0
41
1
10
202.907267981648
20
14.4193586183017
30
0
41
1
10
201.620971424722
20
14.8227779388192
30
0
41
1
10
201.182245162321
20
14.956101616887
30
0
41
1
10
200.741897011109
20
15.0858859976667
30
0
0
SPLINE
5
1CC
100
AcDbEntity
8
1
62
256
6
ByLayer
370
-1
48
1
60
0
100
AcDbSpline
70
4
71
3
72
16
73
12
40
0
40
0
40
0
40
0
40
0.25
40
0.25
40
0.499999999999999
40
0.499999999999999
40
0.749999999999999
40
0.749999999999999
40
0.874999999999999
40
0.874999999999999
40
1
40
1
40
1
40
1
41
1
10
140.5
20
24.3038002414524
30
0
41
1
10
145.176385357925
20
24.0458669322482
30
0
41
1
10
149.846417928207
20
23.6890650840076
30
0
41
1
10
159.181039227804
20
22.7872566765212
30
0
41
1
10
163.845360357806
20
22.2418004940916
30
0
41
1
10
173.176508138694
20
20.9749882241394
30
0
41
1
10
177.843427935523
20
20.2537958303213
30
0
41
1
10
184.852167923464
20
19.0535476551326
30
0
41
1
10
187.190295172283
20
18.633650415928
30
0
41
1
10
191.867992078969
20
17.75711347453
30
0
41
1
10
194.206586552495
20
17.3006714726562
30
0
41
1
10
196.545358820128
20
16.8272023915579
30
0
0
SPLINE
5
1CD
100
AcDbEntity
8
1
62
256
6
ByLayer
370
-1
48
1
60
0
100
AcDbSpline
70
4
71
3
72
24
73
20
40
0
40
0
40
0
40
0
40
0.125000000000001
40
0.125000000000001
40
0.250000000000002
40
0.250000000000002
40
0.312500000000003
40
0.312500000000003
40
0.375000000000003
40
0.375000000000003
40
0.500000000000004
40
0.500000000000004
40
0.625000000000004
40
0.625000000000004
40
0.687500000000001
40
0.687500000000001
40
0.749999999999997
40
0.749999999999997
40
1
40
1
40
1
40
1
41
1
10
226.613388483304
20
6.28544583705875
30
0
41
1
10
226.449382182774
20
6.2043198418709
30
0
41
1
10
226.263713494947
20
6.13014648243012
30
0
41
1
10
225.853752085582
20
5.99753334921459
30
0
41
1
10
225.62943605976
20
5.93909743604326
30
0
41
1
10
225.266043999971
20
5.86533200835592
30
0
41
1
10
225.140414227053
20
5.84306525747894
30
0
41
1
10
224.8803647787
20
5.80360975783762
30
0
41
1
10
224.745485020617
20
5.78638052729664
30
0
41
1
10
224.332060853377
20
5.74345025906965
30
0
41
1
10
224.044761277211
20
5.72637551863738
30
0
41
1
10
223.449734256222
20
5.71714471736428
30
0
41
1
10
223.141995815599
20
5.72498658311034
30
0
41
1
10
222.666467697713
20
5.75729875563553
30
0
41
1
10
222.505631117529
20
5.77149964661561
30
0
41
1
10
222.179460541847
20
5.80714393951996
30
0
41
1
10
222.014284693528
20
5.82859079851306
30
0
41
1
10
221.185798582446
20
5.95349174214309
30
0
41
1
10
220.508660654591
20
6.11015289564764
30
0
41
1
10
219.822092879881
20
6.33032232786155
30
0
0
SPLINE
5
1CE
100
AcDbEntity
8
1
62
256
6
ByLayer
370
-1
48
1
60
0
100
AcDbSpline
70
4
71
3
72
28
73
24
40
0
40
0
40
0
40
0
40
0.0625000000000599
40
0.0625000000000599
40
0.0937500000000637
40
0.0937500000000637
40
0.125000000000068
40
0.125000000000068
40
0.156250000000071
40
0.156250000000071
40
0.187500000000075
40
0.187500000000075
40
0.250000000000083
40
0.250000000000083
40
0.312500000000091
40
0.312500000000091
40
0.375000000000099
40
0.375000000000099
40
0.500000000000079
40
0.500000000000079
40
0.750000000000039
40
0.750000000000039
40
1
40
1
40
1
40
1
41
1
10
221.047509177971
20
12.3352638638634
30
0
41
1
10
221.018120897236
20
12.3295258293406
30
0
41
1
10
220.98903988609
20
12.3219064358028
30
0
41
1
10
220.947371205405
20
12.3050186901669
30
0
41
1
10
220.933969888995
20
12.2985212659204
30
0
41
1
10
220.908622030949
20
12.2829396913185
30
0
41
1
10
220.896476858248
20
12.2736617814771
30
0
41
1
10
220.875773482615
20
12.2520773270112
30
0
41
1
10
220.867091140856
20
12.2395009076117
30
0
41
1
10
220.855266359938
20
12.2125407483048
30
0
41
1
10
220.85199107897
20
12.1978772101976
30
0
41
1
10
220.849405972044
20
12.1544212074584
30
0
41
1
10
220.856558899258
20
12.1257396176691
30
0
41
1
10
220.877577343625
20
12.0724143436912
30
0
41
1
10
220.891679099186
20
12.0472177871175
30
0
41
1
10
220.922597406901
20
11.9996430350911
30
0
41
1
10
220.939643591819
20
11.9769991542485
30
0
41
1
10
220.993657427831
20
11.9111469687794
30
0
41
1
10
221.033552391593
20
11.8699153103416
30
0
41
1
10
221.156994840029
20
11.7522447968522
30
0
41
1
10
221.245130662797
20
11.680807479254
30
0
41
1
10
221.426335873175
20
11.5439267094636
30
0
41
1
10
221.519653764289
20
11.4787774947957
30
0
41
1
10
221.61464500324
20
11.4156719073506
30
0
0
SPLINE
5
1CF
100
AcDbEntity
8
1
62
256
6
ByLayer
370
-1
48
1
60
0
100
AcDbSpline
70
4
71
3
72
8
73
4
40
0
40
0
40
0
40
0
40
1
40
1
40
1
40
1
41
1
10
33.4641925627661
20
-15.9705758549653
30
0
41
1
10
32.5761029154103
20
-15.5791256081771
30
0
41
1
10
31.6933518492734
20
-15.1738846298435
30
0
41
1
10
30.8172755648058
20
-14.7514841672218
30
0
0
SPLINE
5
1D0
100
AcDbEntity
8
1
62
256
6
ByLayer
370
-1
48
1
60
0
100
AcDbSpline
70
4
71
3
72
15
73
11
40
0
40
0
40
0
40
0
40
0.250139710793311
40
0.500351579587124
40
0.750563448380937
40
0.875669382777844
40
0.938222349976297
40
0.969498833575523
40
0.985137075375137
40
1
40
1
40
1
40
1
41
1
10
244.418211421235
20
10.4728605856746
30
0
41
1
10
244.42677184726
20
10.4649062327391
30
0
41
1
10
244.443895168258
20
10.4489952327191
30
0
41
1
10
244.469576351243
20
10.4251322622693
30
0
41
1
10
244.491003727643
20
10.4052219314199
30
0
41
1
10
244.505951036402
20
10.391332883262
30
0
41
1
10
244.513500207365
20
10.3843181891296
30
0
41
1
10
244.517161517972
20
10.3809160971436
30
0
41
1
10
244.519426734172
20
10.3788112569079
30
0
41
1
10
244.520029550235
20
10.378251119865
30
0
41
1
10
244.520963360785
20
10.3773834225486
30
0
0
SPLINE
5
1D1
100
AcDbEntity
8
1
62
256
6
ByLayer
370
-1
48
1
60
0
100
AcDbSpline
70
4
71
3
72
12
73
8
40
0
40
0
40
0
40
0
40
0.0285608994398915
40
0.0933235061438987
40
0.222848719551913
40
0.481899146367942
40
1
40
1
40
1
40
1
41
1
10
229.857847214518
20
11.685036381264
30
0
41
1
10
229.853513949438
20
11.6848872300158
30
0
41
1
10
229.839358901784
20
11.6844001218791
30
0
41
1
10
229.805556374865
20
11.6832368265595
30
0
41
1
10
229.736793656249
20
11.6808704540837
30
0
41
1
10
229.59926736991
20
11.6761376422829
30
0
41
1
10
229.481387979317
20
11.6720809680329
30
0
41
1
10
229.402801652152
20
11.6693765137266
30
0
0
SPLINE
5
1D2
100
AcDbEntity
8
1
62
256
6
ByLayer
370
-1
48
1
60
0
100
AcDbSpline
70
4
71
3
72
15
73
11
40
0
40
0
40
0
40
0
40
0.424997863749039
40
0.849995727498078
40
0.956245193435337
40
0.982807559919652
40
0.99608874316181
40
0.99774889106708
40
0.999409038972349
40
1
40
1
40
1
40
1
41
1
10
229.402801652152
20
11.6693765137266
30
0
41
1
10
229.407974242268
20
11.5206871049501
30
0
41
1
10
229.418316627518
20
11.223311301369
30
0
41
1
10
229.429964739302
20
10.8887495370405
30
0
41
1
10
229.43674240789
20
10.6936069704325
30
0
41
1
10
229.43852812921
20
10.6424867178077
30
0
41
1
10
229.439026303845
20
10.6279738008266
30
0
41
1
10
229.439233886105
20
10.6221596382953
30
0
41
1
10
229.439273917516
20
10.6207923426235
30
0
41
1
10
229.439312111101
20
10.620006622026
30
0
41
1
10
229.439324144711
20
10.619800293625
30
0
0
SPLINE
5
1D3
100
AcDbEntity
8
1
62
256
6
ByLayer
370
-1
48
1
60
0
100
AcDbSpline
70
4
71
3
72
11
73
7
40
0
40
0
40
0
40
0
40
0.486341095999822
40
0.729511643999733
40
0.972682191999644
40
1
40
1
40
1
40
1
41
1
10
230.923354548463
20
23.2304250430163
30
0
41
1
10
230.923182401692
20
23.2353735119761
30
0
41
1
10
230.923021068528
20
23.2427957336882
30
0
41
1
10
230.923013809061
20
23.2520417631851
30
0
41
1
10
230.923083105321
20
23.2565872524645
30
0
41
1
10
230.923139366527
20
23.2588601207934
30
0
41
1
10
230.923145179711
20
23.2590888636641
30
0
0
SPLINE
5
1D4
100
AcDbEntity
8
1
62
256
6
ByLayer
370
-1
48
1
60
0
100
AcDbSpline
70
4
71
3
72
17
73
13
40
0
40
0
40
0
40
0
40
0.003270318640327
40
0.0092094466334016
40
0.0210877026195509
40
0.0448442145918496
40
0.0923572385364469
40
0.282409334314836
40
0.662513525871614
40
0.852565621650003
40
0.947591669539198
40
1
40
1
40
1
40
1
41
1
10
242.630093487645
20
11.954967375169
30
0
41
1
10
242.630120112986
20
11.9546870771128
30
0
41
1
10
242.630195409681
20
11.9539011382506
30
0
41
1
10
242.63036851002
20
11.9521091436756
30
0
41
1
10
242.630708016131
20
11.9485571929804
30
0
41
1
10
242.631388261823
20
11.9414667071333
30
0
41
1
10
242.633524965924
20
11.9191691398143
30
0
41
1
10
242.638576297792
20
11.8664760406287
30
0
41
1
10
242.644792350204
20
11.8016125082885
30
0
41
1
10
242.650233141517
20
11.7448756189069
30
0
41
1
10
242.652991079715
20
11.7160628974893
30
0
41
1
10
242.654198711395
20
11.7035047345743
30
0
41
1
10
242.654626482203
20
11.6990246217362
30
0
0
SPLINE
5
1D5
100
AcDbEntity
8
1
62
256
6
ByLayer
370
-1
48
1
60
0
100
AcDbSpline
70
4
71
3
72
14
73
10
40
0
40
0
40
0
40
0
40
0.0318086637758963
40
0.315507725074456
40
0.599206786373015
40
0.882905847671575
40
0.953830612996214
40
0.989292995658534
40
1
40
1
40
1
40
1
41
1
10
230.929870759909
20
23.515031617097
30
0
41
1
10
230.929965141118
20
23.518674781863
30
0
41
1
10
230.930884095237
20
23.5549165075589
30
0
41
1
10
230.931980545332
20
23.6277157362093
30
0
41
1
10
230.931890762293
20
23.7386774001333
30
0
41
1
10
230.930581772336
20
23.8257873849253
30
0
41
1
10
230.929319441864
20
23.8797704442299
30
0
41
1
10
230.928899115005
20
23.8960256938918
30
0
41
1
10
230.928726993787
20
23.902441524253
30
0
41
1
10
230.928686845249
20
23.9039296366749
30
0
0
SPLINE
5
1D6
100
AcDbEntity
8
1
62
256
6
ByLayer
370
-1
48
1
60
0
100
AcDbSpline
70
4
71
3
72
15
73
11
40
0
40
0
40
0
40
0
40
0.250227978749331
40
0.500467923373471
40
0.750707867997611
40
0.875827840309681
40
0.938387826465716
40
0.969667819543734
40
0.985307816082742
40
1
40
1
40
1
40
1
41
1
10
244.59791714487
20
10.7700193474589
30
0
41
1
10
244.607643038018
20
10.7677699444817
30
0
41
1
10
244.627095289313
20
10.7632710309818
30
0
41
1
10
244.656268253736
20
10.7565239125387
30
0
41
1
10
244.680606730494
20
10.7508949136128
30
0
41
1
10
244.697585517733
20
10.7469680624755
30
0
41
1
10
244.706159590708
20
10.7449850522793
30
0
41
1
10
244.710319608162
20
10.7440229241226
30
0
41
1
10
244.712883235779
20
10.7434300087464
30
0
41
1
10
244.713493559161
20
10.7432888532545
30
0
41
1
10
244.714650932446
20
10.7430211761503
30
0
0
SPLINE
5
1D7
100
AcDbEntity
8
1
62
256
6
ByLayer
370
-1
48
1
60
0
100
AcDbSpline
70
4
71
3
72
14
73
10
40
0
40
0
40
0
40
0
40
0.136649739226131
40
0.273299478452262
40
0.546598956904524
40
0.614923826517589
40
0.683248696130655
40
0.819898435356786
40
1
40
1
40
1
40
1
41
1
10
242.772431721422
20
12.1387747443751
30
0
41
1
10
242.772517051726
20
12.1363218702771
30
0
41
1
10
242.772567377972
20
12.1314119193107
30
0
41
1
10
242.772188187955
20
12.1215988346721
30
0
41
1
10
242.771228565491
20
12.1130523455557
30
0
41
1
10
242.769960384088
20
12.1057996294765
30
0
41
1
10
242.768996847561
20
12.1009867738975
30
0
41
1
10
242.767391269668
20
12.0942586665245
30
0
41
1
10
242.765759445565
20
12.0888072930168
30
0
41
1
10
242.764732754803
20
12.0857410697154
30
0
0
SPLINE
5
1D8
100
AcDbEntity
8
1
62
256
6
ByLayer
370
-1
48
1
60
0
100
AcDbSpline
70
4
71
3
72
12
73
8
40
0
40
0
40
0
40
0
40
0.448044053330179
40
0.448044053330179
40
0.724021472165492
40
0.724021472165492
40
1
40
1
40
1
40
1
41
1
10
242.179008786643
20
25.5253769019258
30
0
41
1
10
242.335164962546
20
25.5308508256818
30
0
41
1
10
242.491379095872
20
25.5362035201259
30
0
41
1
10
242.743762901147
20
25.5449616211337
30
0
41
1
10
242.839939752046
20
25.5483526817816
30
0
41
1
10
243.032261507795
20
25.5551986180565
30
0
41
1
10
243.128405256655
20
25.5586573159427
30
0
41
1
10
243.224591642118
20
25.5620289318469
30
0
0
SPLINE
5
1D9
100
AcDbEntity
8
1
62
256
6
ByLayer
370
-1
48
1
60
0
100
AcDbSpline
70
4
71
3
72
15
73
11
40
0
40
0
40
0
40
0
40
0.0466427416046952
40
0.130083711367239
40
0.213524681129782
40
0.380406620654868
40
0.714170499705041
40
0.881052439230128
40
0.964493408992671
40
1
40
1
40
1
40
1
41
1
10
229.463245251947
20
23.0281222684981
30
0
41
1
10
229.468737747834
20
23.0283113197684
30
0
41
1
10
229.484061471082
20
23.0288389110034
30
0
41
1
10
229.509273351588
20
23.0297085860907
30
0
41
1
10
229.548765801417
20
23.0310738992325
30
0
41
1
10
229.618026250557
20
23.0334761324544
30
0
41
1
10
229.69723470338
20
23.0362412949715
30
0
41
1
10
229.766080069838
20
23.0386603925476
30
0
41
1
10
229.79959735058
20
23.0398419588128
30
0
41
1
10
229.813502689021
20
23.0403329522104
30
0
41
1
10
229.817651583875
20
23.0404794844225
30
0
0
SPLINE
5
1DA
100
AcDbEntity
8
1
62
256
6
ByLayer
370
-1
48
1
60
0
100
AcDbSpline
70
4
71
3
72
17
73
13
40
0
40
0
40
0
40
0
40
0.0032703186403169
40
0.0092094466333916
40
0.021087702619541
40
0.0448442145918399
40
0.0923572385364376
40
0.282409334314829
40
0.66251352587161
40
0.852565621650001
40
0.947591669539196
40
1
40
1
40
1
40
1
41
1
10
230.923145179711
20
23.2590888636641
30
0
41
1
10
230.923152303099
20
23.2593691617203
30
0
41
1
10
230.923172917492
20
23.2601551005826
30
0
41
1
10
230.923221338427
20
23.2619470951575
30
0
41
1
10
230.92331371483
20
23.2654990458527
30
0
41
1
10
230.923500634504
20
23.2725895316998
30
0
41
1
10
230.92408596817
20
23.2948870990188
30
0
41
1
10
230.925471137045
20
23.3475801982044
30
0
41
1
10
230.927174259195
20
23.4124437305446
30
0
41
1
10
230.928667537694
20
23.4691806199262
30
0
41
1
10
230.929420808589
20
23.4979933413439
30
0
41
1
10
230.929754696404
20
23.5105515042589
30
0
41
1
10
230.929870759909
20
23.515031617097
30
0
0
SPLINE
5
1DB
100
AcDbEntity
8
1
62
256
6
ByLayer
370
-1
48
1
60
0
100
AcDbSpline
70
4
71
3
72
8
73
4
40
0
40
0
40
0
40
0
40
1
40
1
40
1
40
1
41
1
10
229.074282210389
20
24.8366685397718
30
0
41
1
10
228.979177900369
20
24.7342792992104
30
0
41
1
10
228.911993053036
20
24.6074341124341
30
0
41
1
10
228.880608920218
20
24.4710306952303
30
0
0
SPLINE
5
1DC
100
AcDbEntity
8
1
62
256
6
ByLayer
370
-1
48
1
60
0
100
AcDbSpline
70
4
71
3
72
12
73
8
40
0
40
0
40
0
40
0
40
0.518100853439273
40
0.77715128015891
40
0.906676493518728
40
0.971439100198638
40
1
40
1
40
1
40
1
41
1
10
244.585516260921
20
12.2015938384396
30
0
41
1
10
244.509801117619
20
12.1988893841333
30
0
41
1
10
244.396228788274
20
12.1948327117573
30
0
41
1
10
244.263726358623
20
12.1900998952677
30
0
41
1
10
244.197476998957
20
12.1877335298376
30
0
41
1
10
244.164907780622
20
12.1865702235686
30
0
41
1
10
244.151271267123
20
12.1860831200535
30
0
41
1
10
244.147094832812
20
12.185933970335
30
0
0
SPLINE
5
1DD
100
AcDbEntity
8
1
62
256
6
ByLayer
370
-1
48
1
60
0
100
AcDbSpline
70
4
71
3
72
12
73
8
40
0
40
0
40
0
40
0
40
0.448044053330177
40
0.448044053330177
40
0.724021472165484
40
0.724021472165484
40
1
40
1
40
1
40
1
41
1
10
244.685837559186
20
12.2050837881098
30
0
41
1
10
244.691290653009
20
12.0483311209832
30
0
41
1
10
244.696677358409
20
11.8915748623422
30
0
41
1
10
244.705441397412
20
11.6382664071325
30
0
41
1
10
244.708810879761
20
11.5417134688632
30
0
41
1
10
244.715584769025
20
11.3486109033977
30
0
41
1
10
244.718991279495
20
11.252060725936
30
0
41
1
10
244.722350117067
20
11.1555069759889
30
0
0
SPLINE
5
1DE
100
AcDbEntity
8
1
62
256
6
ByLayer
370
-1
48
1
60
0
100
AcDbSpline
70
4
71
3
72
15
73
11
40
0
40
0
40
0
40
0
40
0.42499786374904
40
0.84999572749808
40
0.95624519343534
40
0.982807559919655
40
0.996088743161813
40
0.997748891067082
40
0.999409038972352
40
1
40
1
40
1
40
1
41
1
10
244.190914288775
20
23.5446797251066
30
0
41
1
10
244.185741698659
20
23.693369133883
30
0
41
1
10
244.17539935487
20
23.9907449374641
30
0
41
1
10
244.163751097973
20
24.3253067017927
30
0
41
1
10
244.156973597819
20
24.5204492684007
30
0
41
1
10
244.15518776313
20
24.5715695210254
30
0
41
1
10
244.154689691742
20
24.5860824380066
30
0
41
1
10
244.154482027491
20
24.5918966005379
30
0
41
1
10
244.154442112217
20
24.5932638962096
30
0
41
1
10
244.154403751213
20
24.5940496168072
30
0
41
1
10
244.154391642791
20
24.5942559452082
30
0
0
SPLINE
5
1DF
100
AcDbEntity
8
1
62
256
6
ByLayer
370
-1
48
1
60
0
100
AcDbSpline
70
4
71
3
72
8
73
4
40
0
40
0
40
0
40
0
40
1
40
1
40
1
40
1
41
1
10
229.344094033188
20
10.5253746049059
30
0
41
1
10
229.344810066285
20
10.5090571683266
30
0
41
1
10
229.34560574999
20
10.4927430585351
30
0
41
1
10
229.346480641457
20
10.4764334334848
30
0
0
SPLINE
5
1E0
100
AcDbEntity
8
1
62
256
6
ByLayer
370
-1
48
1
60
0
100
AcDbSpline
70
4
71
3
72
9
73
5
40
0
40
0
40
0
40
0
40
0.5
40
1
40
1
40
1
40
1
41
1
10
229.689852619303
20
9.95657746612471
30
0
41
1
10
229.64604703718
20
9.99296318632449
30
0
41
1
10
229.565906010456
20
10.0792795708459
30
0
41
1
10
229.51055762632
20
10.1853249985321
30
0
41
1
10
229.490317015765
20
10.2404581499819
30
0
0
SPLINE
5
1E1
100
AcDbEntity
8
1
62
256
6
ByLayer
370
-1
48
1
60
0
100
AcDbSpline
70
4
71
3
72
15
73
11
40
0
40
0
40
0
40
0
40
0.0466427416045202
40
0.130083711367089
40
0.213524681129657
40
0.380406620654794
40
0.714170499705068
40
0.881052439230205
40
0.964493408992774
40
1
40
1
40
1
40
1
41
1
10
244.147094832812
20
12.185933970335
30
0
41
1
10
244.141801090256
20
12.1857449190647
30
0
41
1
10
244.127023323836
20
12.1852173278297
30
0
41
1
10
244.102616268472
20
12.1843476527425
30
0
41
1
10
244.064211367646
20
12.1829823396006
30
0
41
1
10
243.996413439545
20
12.1805801063787
30
0
41
1
10
243.917856741202
20
12.1778149438617
30
0
41
1
10
243.848681541989
20
12.1753958462856
30
0
41
1
10
243.814785070626
20
12.1742142800203
30
0
41
1
10
243.800676993181
20
12.1737232866228
30
0
41
1
10
243.796465556062
20
12.1735767544106
30
0
0
SPLINE
5
1E2
100
AcDbEntity
8
1
62
256
6
ByLayer
370
-1
48
1
60
0
100
AcDbSpline
70
4
71
3
72
20
73
16
40
0
40
0
40
0
40
0
40
0.0006369940731758
40
0.0022970655115924
40
0.0039571369500091
40
0.0172377084573423
40
0.0437988514720087
40
0.150043423530674
40
0.362532567648006
40
0.468777139706672
40
0.521899425736004
40
0.575021711765337
40
0.787510855882669
40
0.893755427941334
40
1
40
1
40
1
40
1
41
1
10
243.228068427551
20
25.4620790824946
30
0
41
1
10
243.227846178027
20
25.462076670456
30
0
41
1
10
243.227044018091
20
25.4620596008341
30
0
41
1
10
243.225663729138
20
25.4620042674655
30
0
41
1
10
243.219884386758
20
25.4618055362902
30
0
41
1
10
243.205411846372
20
25.4612934426962
30
0
41
1
10
243.154502130941
20
25.4595153445354
30
0
41
1
10
243.034115297088
20
25.4552991912679
30
0
41
1
10
242.885890416365
20
25.4501374201179
30
0
41
1
10
242.756135194919
20
25.4456330439074
30
0
41
1
10
242.681971524226
20
25.4430649949397
30
0
41
1
10
242.570741166062
20
25.4391997525457
30
0
41
1
10
242.441016083724
20
25.434652143977
30
0
41
1
10
242.292825742419
20
25.429404989183
30
0
41
1
10
242.218752487074
20
25.4267611518785
30
0
41
1
10
242.181722942056
20
25.4254378192238
30
0
0
SPLINE
5
1E3
100
AcDbEntity
8
1
62
256
6
ByLayer
370
-1
48
1
60
0
100
AcDbSpline
70
4
71
3
72
8
73
4
40
0
40
0
40
0
40
0
40
1
40
1
40
1
40
1
41
1
10
228.870137895591
20
24.1495132870106
30
0
41
1
10
228.869719437554
20
24.1658411289226
30
0
41
1
10
228.869381362477
20
24.1821712319533
30
0
41
1
10
228.869120743811
20
24.1985023937596
30
0
0
SPLINE
5
1E4
100
AcDbEntity
8
1
62
256
6
ByLayer
370
-1
48
1
60
0
100
AcDbSpline
70
4
71
3
72
8
73
4
40
0
40
0
40
0
40
0
40
1
40
1
40
1
40
1
41
1
10
229.833503910871
20
25.0926155844325
30
0
41
1
10
229.803302429905
20
25.0915568968515
30
0
41
1
10
229.773105253955
20
25.090360613773
30
0
41
1
10
229.742914759821
20
25.0890257909457
30
0
0
SPLINE
5
1E5
100
AcDbEntity
8
1
62
256
6
ByLayer
370
-1
48
1
60
0
100
AcDbSpline
70
4
71
3
72
15
73
11
40
0
40
0
40
0
40
0
40
0.0355064919379663
40
0.118947470229815
40
0.285829426813512
40
0.619593339980906
40
0.786475296564603
40
0.869916274856451
40
0.9533572531483
40
1
40
1
40
1
40
1
41
1
10
230.919911686171
20
24.2270245064722
30
0
41
1
10
230.919797038676
20
24.2312205819414
30
0
41
1
10
230.919409865801
20
24.2452802995235
30
0
41
1
10
230.918421845693
20
24.2791163670442
30
0
41
1
10
230.916177223906
20
24.3483899671679
30
0
41
1
10
230.913096564835
20
24.4275739773954
30
0
41
1
10
230.909972212211
20
24.4963649386247
30
0
41
1
10
230.90806832017
20
24.5354623880504
30
0
41
1
10
230.90679946868
20
24.5603664164617
30
0
41
1
10
230.906000966337
20
24.5754748227625
30
0
41
1
10
230.905713277295
20
24.5808885984724
30
0
0
SPLINE
5
1E6
100
AcDbEntity
8
1
62
256
6
ByLayer
370
-1
48
1
60
0
100
AcDbSpline
70
4
71
3
72
8
73
4
40
0
40
0
40
0
40
0
40
1
40
1
40
1
40
1
41
1
10
230.231229372353
20
9.6482421828774
30
0
41
1
10
230.178086377628
20
9.64738781786664
30
0
41
1
10
230.124939472874
20
9.64697071090697
30
0
41
1
10
230.071785375169
20
9.64696064880943
30
0
0
SPLINE
5
1E7
100
AcDbEntity
8
1
62
256
6
ByLayer
370
-1
48
1
60
0
100
AcDbSpline
70
4
71
3
72
16
73
12
40
0
40
0
40
0
40
0
40
0.0319528420423089
40
0.215044192449683
40
0.398135542857057
40
0.581226893264431
40
0.764318243671805
40
0.855863918875492
40
0.947409594079178
40
0.993182431681022
40
1
40
1
40
1
40
1
41
1
10
243.077533552041
20
23.5053799297089
30
0
41
1
10
243.080987950052
20
23.5055000789787
30
0
41
1
10
243.104236624819
20
23.5063089864581
30
0
41
1
10
243.147278820094
20
23.5078062096031
30
0
41
1
10
243.206660797899
20
23.5098719714874
30
0
41
1
10
243.266042840791
20
23.5119377699761
30
0
41
1
10
243.315527819943
20
23.5136592343986
30
0
41
1
10
243.355115670888
20
23.5150364379101
30
0
41
1
10
243.379858235975
20
23.5158971587722
30
0
41
1
10
243.395440995729
20
23.5164391950245
30
0
41
1
10
243.401126532897
20
23.5166370069085
30
0
41
1
10
243.401863576546
20
23.516662651181
30
0
0
SPLINE
5
1E8
100
AcDbEntity
8
1
62
256
6
ByLayer
370
-1
48
1
60
0
100
AcDbSpline
70
4
71
3
72
8
73
4
40
0
40
0
40
0
40
0
40
1
40
1
40
1
40
1
41
1
10
231.328386528683
20
11.5875219082435
30
0
41
1
10
231.328740491426
20
11.5773470229835
30
0
41
1
10
231.32937278664
20
11.5671953348505
30
0
41
1
10
231.330171693389
20
11.5588605567893
30
0
0
SPLINE
5
1E9
100
AcDbEntity
8
1
62
256
6
ByLayer
370
-1
48
1
60
0
100
AcDbSpline
70
4
71
3
72
91
73
87
40
0
40
0
40
0
40
0
40
0.0276322771566276
40
0.0681475989417682
40
0.0782764293880533
40
0.0833408446111959
40
0.0839738965140887
40
0.0846069484169815
40
0.0849234743684279
40
0.0852400003198743
40
0.0858730522227671
40
0.0884052598343384
40
0.0985340902806235
40
0.108662920726909
40
0.118791751173194
40
0.128920581619479
40
0.149178242512049
40
0.169435903404619
40
0.179564733850905
40
0.184629149074047
40
0.18969356429719
40
0.190326616200083
40
0.190959668102975
40
0.192225771908761
40
0.192858823811654
40
0.193491875714547
40
0.194757979520332
40
0.197290187131903
40
0.199822394743475
40
0.204886809966617
40
0.20995122518976
40
0.220080055636045
40
0.222612263247616
40
0.223878367053402
40
0.225144470859188
40
0.23020888608233
40
0.270724207867471
40
0.290981868760041
40
0.311239529652611
40
0.331497190545182
40
0.341626020991467
40
0.346690436214609
40
0.349222643826181
40
0.350488747631966
40
0.351121799534859
40
0.351754851437752
40
0.352387903340645
40
0.353020955243537
40
0.354287059049323
40
0.356819266660894
40
0.361883681884037
40
0.372012512330322
40
0.392270173222892
40
0.412527834115463
40
0.432785495008033
40
0.473300816793173
40
0.475833024404745
40
0.478365232016316
40
0.479631335822101
40
0.480897439627887
40
0.483429647239459
40
0.493558477685744
40
0.503687308132029
40
0.508751723355171
40
0.511283930966743
40
0.512550034772528
40
0.513816138578314
40
0.514449190481207
40
0.523944969024599
40
0.534073799470884
40
0.554331460363454
40
0.564460290809739
40
0.574589121256025
40
0.594846782148595
40
0.615104443041165
40
0.617636650652736
40
0.618269702555629
40
0.618586228507076
40
0.618902754458522
40
0.619535806361415
40
0.620168858264308
40
0.62523327348745
40
0.635362103933735
40
0.675877425718876
40
0.837938712859438
40
1
40
1
40
1
40
1
41
1
10
242.764732754803
20
12.0857410697154
30
0
41
1
10
242.764201468818
20
12.0841543782532
30
0
41
1
10
242.76282591183
20
12.0802632685864
30
0
41
1
10
242.761062650951
20
12.0758625977755
30
0
41
1
10
242.759713066739
20
12.0727716298349
30
0
41
1
10
242.759321639656
20
12.0718971010644
30
0
41
1
10
242.759163869021
20
12.0715478349278
30
0
41
1
10
242.759124359731
20
12.0714605487428
30
0
41
1
10
242.759092712335
20
12.0713907380346
30
0
41
1
10
242.759061038302
20
12.0713209394966
30
0
41
1
10
242.758973824852
20
12.0711290437605
30
0
41
1
10
242.758639430355
20
12.0703969914769
30
0
41
1
10
242.758056612776
20
12.0691464661039
30
0
41
1
10
242.757259228767
20
12.0674887805427
30
0
41
1
10
242.756441672674
20
12.0658410258701
30
0
41
1
10
242.755324864196
20
12.0636575932056
30
0
41
1
10
242.75387903248
20
12.0609543760246
30
0
41
1
10
242.752367584733
20
12.058287585614
30
0
41
1
10
242.751275549259
20
12.0564408288809
30
0
41
1
10
242.750641869311
20
12.0553913772632
30
0
41
1
10
242.750301816489
20
12.0548359457686
30
0
41
1
10
242.750100660562
20
12.0545099201007
30
0
41
1
10
242.750020098259
20
12.0543795720156
30
0
41
1
10
242.749939386139
20
12.0542493173115
30
0
41
1
10
242.749858524366
20
12.0541191562037
30
0
41
1
10
242.749777562879
20
12.0539890575654
30
0
41
1
10
242.749635618671
20
12.0537615491192
30
0
41
1
10
242.749432094607
20
12.0534370071902
30
0
41
1
10
242.749104866804
20
12.05291874766
30
0
41
1
10
242.748692858667
20
12.0522728210348
30
0
41
1
10
242.748027330415
20
12.0512434238259
30
0
41
1
10
242.747436741177
20
12.0503481116151
30
0
41
1
10
242.746967351763
20
12.049648257722
30
0
41
1
10
242.746796081831
20
12.0493941604703
30
0
41
1
10
242.746538594719
20
12.049013410528
30
0
41
1
10
242.744941791806
20
12.0466715698395
30
0
41
1
10
242.742607322236
20
12.0434427725038
30
0
41
1
10
242.739591293609
20
12.0395783921627
30
0
41
1
10
242.737259197603
20
12.0367366342781
30
0
41
1
10
242.735258508086
20
12.0344170799632
30
0
41
1
10
242.733828543046
20
12.032819667336
30
0
41
1
10
242.733106263383
20
12.0320276264125
30
0
41
1
10
242.732743308448
20
12.031633284366
30
0
41
1
10
242.732561378351
20
12.0314365344551
30
0
41
1
10
242.732457289138
20
12.0313242264678
30
0
41
1
10
242.73237915769
20
12.0312400557978
30
0
41
1
10
242.732300961744
20
12.0311559455023
30
0
41
1
10
242.732196614555
20
12.0310438790005
30
0
41
1
10
242.732013781588
20
12.0308479742464
30
0
41
1
10
242.73164721553
20
12.0304570124885
30
0
41
1
10
242.730910494274
20
12.0296784900107
30
0
41
1
10
242.729422786013
20
12.0281351294932
30
0
41
1
10
242.727257248165
20
12.0259698859337
30
0
41
1
10
242.72459587886
20
12.0234363532603
30
0
41
1
10
242.720965968791
20
12.0201466133069
30
0
41
1
10
242.718037284982
20
12.017682278685
30
0
41
1
10
242.715883942838
20
12.0159642426638
30
0
41
1
10
242.715584140017
20
12.0157265486273
30
0
41
1
10
242.715343862869
20
12.0155369480783
30
0
41
1
10
242.715103296334
20
12.015347717794
30
0
41
1
10
242.714440546868
20
12.0148288638254
30
0
41
1
10
242.713349573016
20
12.0139881932728
30
0
41
1
10
242.712126042207
20
12.0130691357456
30
0
41
1
10
242.711263709195
20
12.0124337617178
30
0
41
1
10
242.710831088679
20
12.0121180763001
30
0
41
1
10
242.710583463147
20
12.0119382579512
30
0
41
1
10
242.710428525106
20
12.0118261106644
30
0
41
1
10
242.709870284449
20
12.0114230270281
30
0
41
1
10
242.708873464928
20
12.010712567489
30
0
41
1
10
242.70689450979
20
12.0093374127084
30
0
41
1
10
242.704858719586
20
12.0079777717062
30
0
41
1
10
242.70279846324
20
12.0066560298378
30
0
41
1
10
242.700722215113
20
12.0053597398927
30
0
41
1
10
242.698097518449
20
12.003787448256
30
0
41
1
10
242.695834577241
20
12.002506270393
30
0
41
1
10
242.694593907396
20
12.0018263169243
30
0
41
1
10
242.694409291253
20
12.0017255976222
30
0
41
1
10
242.694342137167
20
12.0016890111507
30
0
41
1
10
242.694274969129
20
12.0016524505043
30
0
41
1
10
242.694190982939
20
12.0016067981292
30
0
41
1
10
242.693854898945
20
12.0014244470506
30
0
41
1
10
242.693013124795
20
12.0009714778756
30
0
41
1
10
242.690035561946
20
11.9994044235229
30
0
41
1
10
242.678486099698
20
11.9937722550723
30
0
41
1
10
242.65756355067
20
11.9865917578603
30
0
41
1
10
242.638082709666
20
11.9839738208207
30
0
41
1
10
242.62830854898
20
11.9836311958169
30
0
0
SPLINE
5
1EA
100
AcDbEntity
8
1
62
256
6
ByLayer
370
-1
48
1
60
0
100
AcDbSpline
70
4
71
3
72
8
73
4
40
0
40
0
40
0
40
0
40
1
40
1
40
1
40
1
41
1
10
243.523456274855
20
25.5670955894425
30
0
41
1
10
243.561287833775
20
25.5671027521921
30
0
41
1
10
243.598639461766
20
25.5628236884857
30
0
41
1
10
243.635503458096
20
25.5542813814968
30
0
0
SPLINE
5
1EB
100
AcDbEntity
8
1
62
256
6
ByLayer
370
-1
48
1
60
0
100
AcDbSpline
70
4
71
3
72
15
73
11
40
0
40
0
40
0
40
0
40
0.424997863749044
40
0.849995727498088
40
0.956245193435349
40
0.982807559919664
40
0.996088743161822
40
0.997748891067091
40
0.999409038972361
40
1
40
1
40
1
40
1
41
1
10
242.711915019168
20
10.1847277071826
30
0
41
1
10
242.860038619853
20
10.1899200557524
30
0
41
1
10
243.156282839452
20
10.2003019264246
30
0
41
1
10
243.489571422704
20
10.2119946049372
30
0
41
1
10
243.683971497148
20
10.2187980785794
30
0
41
1
10
243.734897165093
20
10.2205906779656
30
0
41
1
10
243.749354907667
20
10.2210907037258
30
0
41
1
10
243.75514690456
20
10.2212991200684
30
0
41
1
10
243.756509055327
20
10.2213392461026
30
0
41
1
10
243.757291702311
20
10.22137766961
30
0
41
1
10
243.757497208163
20
10.2213897867355
30
0
0
SPLINE
5
1EC
100
AcDbEntity
8
1
62
256
6
ByLayer
370
-1
48
1
60
0
100
AcDbSpline
70
4
71
3
72
9
73
5
40
0
40
0
40
0
40
0
40
0.5
40
1
40
1
40
1
40
1
41
1
10
228.996851571705
20
24.4440365686756
30
0
41
1
10
229.01316919101
20
24.5004445526432
30
0
41
1
10
229.060844727986
20
24.6100810781132
30
0
41
1
10
229.134505841887
20
24.7018098099563
30
0
41
1
10
229.175527255293
20
24.741188769363
30
0
0
SPLINE
5
1ED
100
AcDbEntity
8
1
62
256
6
ByLayer
370
-1
48
1
60
0
100
AcDbSpline
70
4
71
3
72
12
73
8
40
0
40
0
40
0
40
0
40
0.0285608994399456
40
0.0933235061439492
40
0.222848719551957
40
0.481899146367971
40
1
40
1
40
1
40
1
41
1
10
243.752492883452
20
23.5290198575692
30
0
41
1
10
243.756669378311
20
23.5291690088174
30
0
41
1
10
243.770306074668
20
23.5296561169541
30
0
41
1
10
243.802874858954
20
23.5308194122737
30
0
41
1
10
243.869124498219
20
23.5331857847494
30
0
41
1
10
244.001626741703
20
23.5379185965503
30
0
41
1
10
244.115199145473
20
23.5419752708002
30
0
41
1
10
244.190914288775
20
23.5446797251066
30
0
0
SPLINE
5
1EE
100
AcDbEntity
8
1
62
256
6
ByLayer
370
-1
48
1
60
0
100
AcDbSpline
70
4
71
3
72
15
73
11
40
0
40
0
40
0
40
0
40
0.0466427416045701
40
0.130083711367134
40
0.213524681129697
40
0.380406620654824
40
0.714170499705077
40
0.881052439230204
40
0.964493408992767
40
1
40
1
40
1
40
1
41
1
10
242.205635291551
20
24.9769978698043
30
0
41
1
10
242.20592300009
20
24.9715841497433
30
0
41
1
10
242.206721562094
20
24.9564759135091
30
0
41
1
10
242.207990340377
20
24.9315716774367
30
0
41
1
10
242.209894232591
20
24.8924742244971
30
0
41
1
10
242.21301858511
20
24.8236832655095
30
0
41
1
10
242.216099102588
20
24.7444993713026
30
0
41
1
10
242.21834407839
20
24.6752254803978
30
0
41
1
10
242.219331553129
20
24.6413898495548
30
0
41
1
10
242.219719308646
20
24.6273296382626
30
0
41
1
10
242.219834012127
20
24.6231335047212
30
0
0
SPLINE
5
1EF
100
AcDbEntity
8
1
62
256
6
ByLayer
370
-1
48
1
60
0
100
AcDbSpline
70
4
71
3
72
8
73
4
40
0
40
0
40
0
40
0
40
1
40
1
40
1
40
1
41
1
10
229.694159897961
20
25.0866301401301
30
0
41
1
10
229.641086987258
20
25.0837611952584
30
0
41
1
10
229.58803511286
20
25.0804660198654
30
0
41
1
10
229.535015491102
20
25.0767433151743
30
0
0
SPLINE
5
1F0
100
AcDbEntity
8
1
62
256
6
ByLayer
370
-1
48
1
60
0
100
AcDbSpline
70
4
71
3
72
16
73
12
40
0
40
0
40
0
40
0
40
0.0319528420423087
40
0.215044192449659
40
0.398135542857009
40
0.581226893264359
40
0.764318243671709
40
0.855863918875384
40
0.947409594079059
40
0.993182431680897
40
1
40
1
40
1
40
1
41
1
10
230.531653740243
20
11.7086763091242
30
0
41
1
10
230.528253073642
20
11.7085561598544
30
0
41
1
10
230.50534988212
20
11.707747252375
30
0
41
1
10
230.462968658575
20
11.7062500292301
30
0
41
1
10
230.404489485743
20
11.7041842673458
30
0
41
1
10
230.346008289554
20
11.7021184688571
30
0
41
1
10
230.297275860806
20
11.7003970044345
30
0
41
1
10
230.2582879612
20
11.6990198009231
30
0
41
1
10
230.233922469858
20
11.698159080061
30
0
41
1
10
230.218579585726
20
11.6976170438086
30
0
41
1
10
230.212979051429
20
11.6974192319246
30
0
41
1
10
230.212252972203
20
11.6973935876521
30
0
0
SPLINE
5
1F1
100
AcDbEntity
8
1
62
256
6
ByLayer
370
-1
48
1
60
0
100
AcDbSpline
70
4
71
3
72
8
73
4
40
0
40
0
40
0
40
0
40
1
40
1
40
1
40
1
41
1
10
229.356329804955
20
10.3166811601003
30
0
41
1
10
229.358970008958
20
10.2787952694659
30
0
41
1
10
229.365822664753
20
10.2416930213506
30
0
41
1
10
229.376880966742
20
10.2053735454152
30
0
0
SPLINE
5
1F2
100
AcDbEntity
8
1
62
256
6
ByLayer
370
-1
48
1
60
0
100
AcDbSpline
70
4
71
3
72
25
73
21
40
0
40
0
40
0
40
0
40
0.125
40
0.1875
40
0.21875
40
0.234375
40
0.25
40
0.3125
40
0.34375
40
0.375
40
0.5
40
0.625
40
0.6875
40
0.71875
40
0.7265625
40
0.734375
40
0.75
40
0.8125
40
0.875
40
1
40
1
40
1
40
1
41
1
10
243.228068311476
20
25.4620898491441
30
0
41
1
10
243.245078077863
20
25.4618510345394
30
0
41
1
10
243.270569112069
20
25.4614210536086
30
0
41
1
10
243.300315473753
20
25.4608272650409
30
0
41
1
10
243.315155639822
20
25.4604889328394
30
0
41
1
10
243.323622012428
20
25.4602811463485
30
0
41
1
10
243.336304710298
20
25.4599536725836
30
0
41
1
10
243.351045373744
20
25.4595217415831
30
0
41
1
10
243.367898588166
20
25.4589765914773
30
0
41
1
10
243.393225366487
20
25.4581158119904
30
0
41
1
10
243.431553724045
20
25.4566950039555
30
0
41
1
10
243.47388973894
20
25.4548948685469
30
0
41
1
10
243.503738356704
20
25.4535221120915
30
0
41
1
10
243.517320619621
20
25.4528539322209
30
0
41
1
10
243.523909250977
20
25.4525450893047
30
0
41
1
10
243.526908292724
20
25.4523247169309
30
0
41
1
10
243.536183878485
20
25.4516269184811
30
0
41
1
10
243.550809258993
20
25.4500038026098
30
0
41
1
10
243.576801090634
20
25.4457671545285
30
0
41
1
10
243.595909322552
20
25.4411016193737
30
0
41
1
10
243.608375228612
20
25.4373569736937
30
0
0
SPLINE
5
1F3
100
AcDbEntity
8
1
62
256
6
ByLayer
370
-1
48
1
60
0
100
AcDbSpline
70
4
71
3
72
16
73
12
40
0
40
0
40
0
40
0
40
0.0068174563922578
40
0.0525902990102911
40
0.144135984246358
40
0.235681669482424
40
0.418773039954558
40
0.601864410426691
40
0.784955780898824
40
0.968047151370957
40
1
40
1
40
1
40
1
41
1
10
242.219834012127
20
24.6231335047212
30
0
41
1
10
242.219854086013
20
24.6223991529356
30
0
41
1
10
242.220008690616
20
24.6167345349526
30
0
41
1
10
242.220428098933
20
24.6012131792101
30
0
41
1
10
242.221097273196
20
24.5765651381709
30
0
41
1
10
242.222169260322
20
24.5371271911089
30
0
41
1
10
242.223507861675
20
24.4878309372041
30
0
41
1
10
242.225115561824
20
24.4286740175439
30
0
41
1
10
242.226721867423
20
24.3695185351496
30
0
41
1
10
242.22788295001
20
24.3266436291532
30
0
41
1
10
242.228516039089
20
24.3034795495197
30
0
41
1
10
242.228608865519
20
24.3000389242762
30
0
0
SPLINE
5
1F4
100
AcDbEntity
8
1
62
256
6
ByLayer
370
-1
48
1
60
0
100
AcDbSpline
70
4
71
3
72
12
73
8
40
0
40
0
40
0
40
0
40
0.448044053330177
40
0.448044053330177
40
0.724021472165483
40
0.724021472165483
40
1
40
1
40
1
40
1
41
1
10
228.909403409632
20
23.0089724507233
30
0
41
1
10
228.903950315808
20
23.1657251178499
30
0
41
1
10
228.898672369557
20
23.3224813764909
30
0
41
1
10
228.889986860981
20
23.5757898317007
30
0
41
1
10
228.886600030053
20
23.6723427699699
30
0
41
1
10
228.879734148476
20
23.8654453354355
30
0
41
1
10
228.876249585953
20
23.9619955128972
30
0
41
1
10
228.87289085175
20
24.0585492628443
30
0
0
SPLINE
5
1F5
100
AcDbEntity
8
1
62
256
6
ByLayer
370
-1
48
1
60
0
100
AcDbSpline
70
4
71
3
72
8
73
4
40
0
40
0
40
0
40
0
40
1
40
1
40
1
40
1
41
1
10
244.171109528135
20
10.1579425823408
30
0
41
1
10
244.304477293691
20
10.1988708665819
30
0
41
1
10
244.425847747111
20
10.2749975762568
30
0
41
1
10
244.52095875894
20
10.3773876985895
30
0
0
SPLINE
5
1F6
100
AcDbEntity
8
1
62
256
6
ByLayer
370
-1
48
1
60
0
100
AcDbSpline
70
4
71
3
72
8
73
4
40
0
40
0
40
0
40
0
40
1
40
1
40
1
40
1
41
1
10
243.315209120421
20
25.5647920020329
30
0
41
1
10
243.331475260483
20
25.5652124906748
30
0
41
1
10
243.347743865531
20
25.5655525025893
30
0
41
1
10
243.364012821771
20
25.56581405598
30
0
0
SPLINE
5
1F7
100
AcDbEntity
8
1
62
256
6
ByLayer
370
-1
48
1
60
0
100
AcDbSpline
70
4
71
3
72
8
73
4
40
0
40
0
40
0
40
0
40
1
40
1
40
1
40
1
41
1
10
228.867843814918
20
24.3585551680225
30
0
41
1
10
228.86783346781
20
24.3965344612348
30
0
41
1
10
228.872099569894
20
24.4340254321824
30
0
41
1
10
228.880608920332
20
24.4710306952035
30
0
0
SPLINE
5
1F8
100
AcDbEntity
8
1
62
256
6
ByLayer
370
-1
48
1
60
0
100
AcDbSpline
70
4
71
3
72
9
73
5
40
0
40
0
40
0
40
0
40
0.375000000000866
40
1
40
1
40
1
40
1
41
1
10
242.179008786643
20
25.5253769019259
30
0
41
1
10
242.17934805607
20
25.5128845165881
30
0
41
1
10
242.180252774541
20
25.4795714890207
30
0
41
1
10
242.181157493012
20
25.4462584614534
30
0
41
1
10
242.181722942056
20
25.4254378192238
30
0
0
SPLINE
5
1F9
100
AcDbEntity
8
1
62
256
6
ByLayer
370
-1
48
1
60
0
100
AcDbSpline
70
4
71
3
72
15
73
11
40
0
40
0
40
0
40
0
40
0.250139710793512
40
0.500351579587172
40
0.750563448380832
40
0.875669382777662
40
0.938222349976077
40
0.969498833575285
40
0.985137075374889
40
1
40
1
40
1
40
1
41
1
10
229.689845816125
20
9.95657008415787
30
0
41
1
10
229.681984617954
20
9.94804008496135
30
0
41
1
10
229.666259954331
20
9.93097762639468
30
0
41
1
10
229.642676447141
20
9.90538772355603
30
0
41
1
10
229.622999289524
20
9.88403650774688
30
0
41
1
10
229.609272898344
20
9.86914232709034
30
0
41
1
10
229.602340354475
20
9.86161998859234
30
0
41
1
10
229.59897810496
20
9.85797169159795
30
0
41
1
10
229.596897914862
20
9.85571452678963
30
0
41
1
10
229.596344337678
20
9.85511385335147
30
0
41
1
10
229.595486802111
20
9.85418336189952
30
0
0
SPLINE
5
1FA
100
AcDbEntity
8
1
62
256
6
ByLayer
370
-1
48
1
60
0
100
AcDbSpline
70
4
71
3
72
17
73
13
40
0
40
0
40
0
40
0
40
0.0144631560763523
40
0.0301057427839841
40
0.0613909161992479
40
0.123961263029775
40
0.24910195669083
40
0.49938334401294
40
0.74966473133505
40
0.99994611865716
40
0.99994611865716
40
1
40
1
40
1
40
1
41
1
10
243.224590835685
20
25.5620521132696
30
0
41
1
10
243.224628925311
20
25.5609572026233
30
0
41
1
10
243.224644081506
20
25.5605215281226
30
0
41
1
10
243.224720067387
20
25.5583372654135
30
0
41
1
10
243.224844034793
20
25.5547737430938
30
0
41
1
10
243.225099399377
20
25.5474331249332
30
0
41
1
10
243.225605175363
20
25.5328942709593
30
0
41
1
10
243.226330141903
20
25.5120546444168
30
0
41
1
10
243.227199144137
20
25.4870746198195
30
0
41
1
10
243.22777858903
20
25.4704181060359
30
0
41
1
10
243.228068231183
20
25.4620921572221
30
0
41
1
10
243.228068578886
20
25.4620821622682
30
0
41
1
10
243.228068926589
20
25.4620721673143
30
0
0
SPLINE
5
1FB
100
AcDbEntity
8
1
62
256
6
ByLayer
370
-1
48
1
60
0
100
AcDbSpline
70
4
71
3
72
8
73
4
40
0
40
0
40
0
40
0
40
1
40
1
40
1
40
1
41
1
10
243.852326129578
20
10.1250304478875
30
0
41
1
10
243.868581541176
20
10.1257491480649
30
0
41
1
10
243.884833635341
20
10.1265478064193
30
0
41
1
10
243.901081138694
20
10.1274260987031
30
0
0
SPLINE
5
1FC
100
AcDbEntity
8
1
62
256
6
ByLayer
370
-1
48
1
60
0
100
AcDbSpline
70
4
71
3
72
8
73
4
40
0
40
0
40
0
40
0
40
1
40
1
40
1
40
1
41
1
10
244.727397835103
20
10.8555010708107
30
0
41
1
10
244.727401758981
20
10.8175217775983
30
0
41
1
10
244.723142299911
20
10.7800308066508
30
0
41
1
10
244.714632048485
20
10.7430255436296
30
0
0
SPLINE
5
1FD
100
AcDbEntity
8
1
62
256
6
ByLayer
370
-1
48
1
60
0
100
AcDbSpline
70
4
71
3
72
8
73
4
40
0
40
0
40
0
40
0
40
1
40
1
40
1
40
1
41
1
10
244.722350117066
20
11.1555069759889
30
0
41
1
10
244.723404756254
20
11.12519012775
30
0
41
1
10
244.724323482388
20
11.0948682225305
30
0
41
1
10
244.725102272658
20
11.0645429518228
30
0
0
SPLINE
5
1FE
100
AcDbEntity
8
1
62
256
6
ByLayer
370
-1
48
1
60
0
100
AcDbSpline
70
4
71
3
72
8
73
4
40
0
40
0
40
0
40
0
40
1
40
1
40
1
40
1
41
1
10
243.364012821771
20
25.5658140559557
30
0
41
1
10
243.417155420823
20
25.5666684209665
30
0
41
1
10
243.470311200392
20
25.5670855279261
30
0
41
1
10
243.523456274863
20
25.5670955900237
30
0
0
SPLINE
5
1FF
100
AcDbEntity
8
1
62
256
6
ByLayer
370
-1
48
1
60
0
100
AcDbSpline
70
4
71
3
72
25
73
21
40
0
40
0
40
0
40
0
40
0.125
40
0.1875
40
0.21875
40
0.234375
40
0.25
40
0.3125
40
0.34375
40
0.375
40
0.5
40
0.625
40
0.6875
40
0.71875
40
0.7265625
40
0.734375
40
0.75
40
0.8125
40
0.875
40
1
40
1
40
1
40
1
41
1
10
230.367172657341
20
9.75196638968907
30
0
41
1
10
230.350160263389
20
9.75220520429377
30
0
41
1
10
230.3246648895
20
9.75263518522451
30
0
41
1
10
230.294913525596
20
9.75322897379223
30
0
41
1
10
230.280070341528
20
9.75356730599376
30
0
41
1
10
230.271602030845
20
9.75377509248469
30
0
41
1
10
230.258916164337
20
9.75410256624957
30
0
41
1
10
230.244170939546
20
9.75453449725003
30
0
41
1
10
230.227312599212
20
9.75507964735587
30
0
41
1
10
230.201978833741
20
9.7559404268427
30
0
41
1
10
230.163645103472
20
9.75736123487761
30
0
41
1
10
230.121299283883
20
9.75916137028622
30
0
41
1
10
230.091447012964
20
9.76053412674167
30
0
41
1
10
230.077858903697
20
9.76120230661229
30
0
41
1
10
230.071272382076
20
9.76151114952847
30
0
41
1
10
230.068253787767
20
9.76173152190225
30
0
41
1
10
230.058939814022
20
9.762429320352
30
0
41
1
10
230.04424313697
20
9.76405243622332
30
0
41
1
10
230.018125986895
20
9.76828908430463
30
0
41
1
10
229.998922043459
20
9.77295461945945
30
0
41
1
10
229.986392092691
20
9.77669926513943
30
0
0
SPLINE
5
200
100
AcDbEntity
8
1
62
256
6
ByLayer
370
-1
48
1
60
0
100
AcDbSpline
70
4
71
3
72
15
73
11
40
0
40
0
40
0
40
0
40
0.0355064919380677
40
0.118947470229916
40
0.285829426813613
40
0.619593339981007
40
0.786475296564705
40
0.869916274856553
40
0.953357253148402
40
1
40
1
40
1
40
1
41
1
10
243.401863576546
20
23.516662651181
30
0
41
1
10
243.406075009779
20
23.5168091813653
30
0
41
1
10
243.42018316086
20
23.5173001575221
30
0
41
1
10
243.45407953706
20
23.5184817390365
30
0
41
1
10
243.523254790499
20
23.5209008264582
30
0
41
1
10
243.601811466864
20
23.5236659930268
30
0
41
1
10
243.66960939717
20
23.5260682263271
30
0
41
1
10
243.708014294548
20
23.5274335393462
30
0
41
1
10
243.732421062609
20
23.5283032071817
30
0
41
1
10
243.747199064027
20
23.5288308043556
30
0
41
1
10
243.752492883452
20
23.5290198575692
30
0
0
SPLINE
5
201
100
AcDbEntity
8
1
62
256
6
ByLayer
370
-1
48
1
60
0
100
AcDbSpline
70
4
71
3
72
8
73
4
40
0
40
0
40
0
40
0
40
1
40
1
40
1
40
1
41
1
10
244.725102272648
20
11.0645429518226
30
0
41
1
10
244.725521591722
20
11.0482151099106
30
0
41
1
10
244.725860952778
20
11.0318850068798
30
0
41
1
10
244.726121450314
20
11.0155538450735
30
0
0
SPLINE
5
202
100
AcDbEntity
8
1
62
256
6
ByLayer
370
-1
48
1
60
0
100
AcDbSpline
70
4
71
3
72
8
73
4
40
0
40
0
40
0
40
0
40
1
40
1
40
1
40
1
41
1
10
244.218360002075
20
25.008682693418
30
0
41
1
10
244.177586432315
20
25.1425609361031
30
0
41
1
10
244.101747498247
20
25.2643969217391
30
0
41
1
10
243.999749940754
20
25.3598682914411
30
0
0
SPLINE
5
203
100
AcDbEntity
8
1
62
256
6
ByLayer
370
-1
48
1
60
0
100
AcDbSpline
70
4
71
3
72
17
73
13
40
0
40
0
40
0
40
0
40
0.0144631560763584
40
0.030105742783997
40
0.061390916199274
40
0.123961263029828
40
0.249101956690936
40
0.499383344013153
40
0.749664731335369
40
0.999946118657586
40
0.999946118657586
40
1
40
1
40
1
40
1
41
1
10
230.370650133132
20
9.65200412556359
30
0
41
1
10
230.370612043506
20
9.65309903620985
30
0
41
1
10
230.370596887311
20
9.65353471071049
30
0
41
1
10
230.37052090143
20
9.6557189734196
30
0
41
1
10
230.370396934024
20
9.65928249573935
30
0
41
1
10
230.370141569441
20
9.66662311389999
30
0
41
1
10
230.369635793454
20
9.68116196787381
30
0
41
1
10
230.368910826914
20
9.70200159441637
30
0
41
1
10
230.36804182468
20
9.7269816190136
30
0
41
1
10
230.367462379787
20
9.74363813279726
30
0
41
1
10
230.367172737634
20
9.75196408161105
30
0
41
1
10
230.367172389931
20
9.75197407656495
30
0
41
1
10
230.367172042227
20
9.75198407151885
30
0
0
SPLINE
5
204
100
AcDbEntity
8
1
62
256
6
ByLayer
370
-1
48
1
60
0
100
AcDbSpline
70
4
71
3
72
11
73
7
40
0
40
0
40
0
40
0
40
0.486341095999841
40
0.729511643999761
40
0.972682191999682
40
1
40
1
40
1
40
1
41
1
10
231.173833348166
20
11.732195607791
30
0
41
1
10
231.168903709625
20
11.7320228034471
30
0
41
1
10
231.161606601942
20
11.7317636137536
30
0
41
1
10
231.152710146726
20
11.7314407352888
30
0
41
1
10
231.148409378626
20
11.7312820033055
30
0
41
1
10
231.146280488737
20
11.7312026329945
30
0
41
1
10
231.146066386966
20
11.7311946451174
30
0
0
SPLINE
5
205
100
AcDbEntity
8
1
62
256
6
ByLayer
370
-1
48
1
60
0
100
AcDbSpline
70
4
71
3
72
9
73
5
40
0
40
0
40
0
40
0
40
0.5
40
1
40
1
40
1
40
1
41
1
10
244.418204012937
20
10.4728674694701
30
0
41
1
10
244.381909671211
20
10.4289418171551
30
0
41
1
10
244.295851953643
20
10.3485647242746
30
0
41
1
10
244.190193964523
20
10.2930210760901
30
0
41
1
10
244.135274592786
20
10.2726991530565
30
0
0
SPLINE
5
206
100
AcDbEntity
8
1
62
256
6
ByLayer
370
-1
48
1
60
0
100
AcDbSpline
70
4
71
3
72
17
73
13
40
0
40
0
40
0
40
0
40
0.0524083454183607
40
0.147434401200697
40
0.337486512765371
40
0.717590735894717
40
0.90764284745939
40
0.955155875350559
40
0.978912389296143
40
0.990790646268935
40
0.996729774755331
40
1
40
1
40
1
40
1
41
1
10
231.354704461908
20
11.3029153341813
30
0
41
1
10
231.354276690966
20
11.3073954484219
30
0
41
1
10
231.353069059119
20
11.3199536130194
30
0
41
1
10
231.350311121592
20
11.3487663274541
30
0
41
1
10
231.344870322612
20
11.4055031507057
30
0
41
1
10
231.338654320736
20
11.4703671786573
30
0
41
1
10
231.333602891604
20
11.5230593199401
30
0
41
1
10
231.331466282035
20
11.5453578188699
30
0
41
1
10
231.330785935121
20
11.5524473059146
30
0
41
1
10
231.330446588195
20
11.5560008322304
30
0
41
1
10
231.330273267254
20
11.5577906140279
30
0
41
1
10
231.330198004243
20
11.5585768688256
30
0
41
1
10
231.330171398527
20
11.5588573454413
30
0
0
SPLINE
5
207
100
AcDbEntity
8
1
62
256
6
ByLayer
370
-1
48
1
60
0
100
AcDbSpline
70
4
71
3
72
91
73
87
40
0
40
0
40
0
40
0
40
0.0276322771565298
40
0.0681475989416744
40
0.0782764293879605
40
0.0833408446111036
40
0.0839738965139965
40
0.0846069484168894
40
0.0849234743683358
40
0.0852400003197823
40
0.0858730522226751
40
0.0884052598342467
40
0.0985340902805328
40
0.108662920726819
40
0.118791751173105
40
0.128920581619391
40
0.149178242511964
40
0.169435903404536
40
0.179564733850822
40
0.184629149073965
40
0.189693564297108
40
0.190326616200001
40
0.190959668102894
40
0.19222577190868
40
0.192858823811573
40
0.193491875714465
40
0.194757979520251
40
0.197290187131823
40
0.199822394743394
40
0.204886809966537
40
0.209951225189681
40
0.220080055635967
40
0.222612263247538
40
0.223878367053324
40
0.22514447085911
40
0.230208886082253
40
0.270724207867397
40
0.29098186875997
40
0.311239529652542
40
0.331497190545114
40
0.3416260209914
40
0.346690436214543
40
0.349222643826115
40
0.350488747631901
40
0.351121799534794
40
0.351754851437686
40
0.35238790334058
40
0.353020955243472
40
0.354287059049258
40
0.35681926666083
40
0.361883681883973
40
0.372012512330259
40
0.392270173222831
40
0.412527834115403
40
0.432785495007976
40
0.47330081679312
40
0.475833024404692
40
0.478365232016263
40
0.479631335822049
40
0.480897439627835
40
0.483429647239407
40
0.493558477685693
40
0.503687308131979
40
0.508751723355122
40
0.511283930966693
40
0.512550034772479
40
0.513816138578265
40
0.514449190481158
40
0.523944969024551
40
0.534073799470837
40
0.55433146036341
40
0.564460290809696
40
0.574589121255982
40
0.594846782148554
40
0.615104443041126
40
0.617636650652698
40
0.618269702555591
40
0.618586228507037
40
0.618902754458484
40
0.619535806361377
40
0.620168858264269
40
0.625233273487413
40
0.635362103933699
40
0.675877425718843
40
0.837938712859422
40
1
40
1
40
1
40
1
41
1
10
231.275554663167
20
11.5952502836649
30
0
41
1
10
231.273974009545
20
11.595783599076
30
0
41
1
10
231.270097706725
20
11.597164410468
30
0
41
1
10
231.265713781795
20
11.5989344067169
30
0
41
1
10
231.26263457592
20
11.6002891461218
30
0
41
1
10
231.261763374996
20
11.6006820683923
30
0
41
1
10
231.261415437923
20
11.6008404416861
30
0
41
1
10
231.261328483888
20
11.600880101895
30
0
41
1
10
231.261258938831
20
11.6009118701785
30
0
41
1
10
231.261189405897
20
11.6009436652012
30
0
41
1
10
231.260998240382
20
11.6010312117925
30
0
41
1
10
231.260268973778
20
11.6013668836224
30
0
41
1
10
231.259023207032
20
11.60195192747
30
0
41
1
10
231.257371829465
20
11.6027523573561
30
0
41
1
10
231.255730344996
20
11.6035730363807
30
0
41
1
10
231.253555220952
20
11.604694110886
30
0
41
1
10
231.250862290329
20
11.6061454654438
30
0
41
1
10
231.248205647861
20
11.6076626866759
30
0
41
1
10
231.246365918595
20
11.6087588935482
30
0
41
1
10
231.245320460457
20
11.6093949940503
30
0
41
1
10
231.244767142547
20
11.6097363458185
30
0
41
1
10
231.244442357505
20
11.6099382701285
30
0
41
1
10
231.244312505434
20
11.6100191401668
30
0
41
1
10
231.244182746388
20
11.6101001605941
30
0
41
1
10
231.244053080583
20
11.6101813312459
30
0
41
1
10
231.243923477009
20
11.6102626019925
30
0
41
1
10
231.243696834301
20
11.6104050884039
30
0
41
1
10
231.243373527352
20
11.6106093898967
30
0
41
1
10
231.242857239956
20
11.6109378676575
30
0
41
1
10
231.242213771277
20
11.6113514495982
30
0
41
1
10
231.241188291235
20
11.6120195200598
30
0
41
1
10
231.240296385957
20
11.6126123652526
30
0
41
1
10
231.23959919522
20
11.6130835476584
30
0
41
1
10
231.239346064885
20
11.6132554718131
30
0
41
1
10
231.238966763811
20
11.613513942485
30
0
41
1
10
231.236633834533
20
11.6151168449253
30
0
41
1
10
231.233417323746
20
11.6174602317893
30
0
41
1
10
231.229567648539
20
11.6204877811565
30
0
41
1
10
231.226736704401
20
11.6228287853902
30
0
41
1
10
231.224425976691
20
11.6248371172159
30
0
41
1
10
231.222834642701
20
11.6262725444902
30
0
41
1
10
231.222045615732
20
11.626997583144
30
0
41
1
10
231.221652774276
20
11.6273619245085
30
0
41
1
10
231.221456773058
20
11.627544549548
30
0
41
1
10
231.221344892437
20
11.6276490363653
30
0
41
1
10
231.221261042061
20
11.627727466263
30
0
41
1
10
231.221177251831
20
11.6278059609043
30
0
41
1
10
231.221065611776
20
11.627910706683
30
0
41
1
10
231.220870452499
20
11.6280942380423
30
0
41
1
10
231.220480978468
20
11.6284622043226
30
0
41
1
10
231.219705418504
20
11.6292017397343
30
0
41
1
10
231.218167930939
20
11.6306951307994
30
0
41
1
10
231.216010926785
20
11.6328689406498
30
0
41
1
10
231.213487034968
20
11.6355404759536
30
0
41
1
10
231.210209813468
20
11.639184251689
30
0
41
1
10
231.207754856384
20
11.6421241225948
30
0
41
1
10
231.206043358008
20
11.6442856901559
30
0
41
1
10
231.205806568469
20
11.6445866381744
30
0
41
1
10
231.205617689408
20
11.6448278331422
30
0
41
1
10
231.205429179202
20
11.6450693186029
30
0
41
1
10
231.204912299629
20
11.6457345996637
30
0
41
1
10
231.204074828082
20
11.6468297408585
30
0
41
1
10
231.203159267846
20
11.6480579453571
30
0
41
1
10
231.202526311608
20
11.6489235723411
30
0
41
1
10
231.202211827469
20
11.6493578453964
30
0
41
1
10
231.202032693383
20
11.6496064168182
30
0
41
1
10
231.201920972851
20
11.6497619466969
30
0
41
1
10
231.201519423069
20
11.6503223197428
30
0
41
1
10
231.200811667043
20
11.651322946952
30
0
41
1
10
231.199441745142
20
11.6533094613774
30
0
41
1
10
231.198087277984
20
11.6553530279693
30
0
41
1
10
231.196770565742
20
11.6574211541595
30
0
41
1
10
231.195479208572
20
11.6595053332175
30
0
41
1
10
231.193912899979
20
11.6621400557965
30
0
41
1
10
231.192636597385
20
11.6644116410724
30
0
41
1
10
231.191959231345
20
11.6656570500746
30
0
41
1
10
231.19185889531
20
11.6658423714209
30
0
41
1
10
231.191822448061
20
11.6659097820245
30
0
41
1
10
231.191786026539
20
11.6659772066338
30
0
41
1
10
231.191740547885
20
11.6660615136378
30
0
41
1
10
231.191558890707
20
11.6663988814173
30
0
41
1
10
231.191107645216
20
11.6672438710079
30
0
41
1
10
231.189546553979
20
11.6702328076632
30
0
41
1
10
231.183935817629
20
11.6818263869812
30
0
41
1
10
231.176782644377
20
11.702828856747
30
0
41
1
10
231.174174669378
20
11.722384111399
30
0
41
1
10
231.173833348166
20
11.732195607791
30
0
0
SPLINE
5
208
100
AcDbEntity
8
1
62
256
6
ByLayer
370
-1
48
1
60
0
100
AcDbSpline
70
4
71
3
72
8
73
4
40
0
40
0
40
0
40
0
40
1
40
1
40
1
40
1
41
1
10
244.248760395199
20
24.7376228053483
30
0
41
1
10
244.24590217595
20
24.7908982536384
30
0
41
1
10
244.242619237012
20
24.8441524737395
30
0
41
1
10
244.238911153494
20
24.8973750787352
30
0
0
SPLINE
5
209
100
AcDbEntity
8
1
62
256
6
ByLayer
370
-1
48
1
60
0
100
AcDbSpline
70
4
71
3
72
15
73
11
40
0
40
0
40
0
40
0
40
0.250244249035887
40
0.500488498071774
40
0.750732747107661
40
0.875854871625605
40
0.938415933884577
40
0.969696465014062
40
0.985336730578805
40
1
40
1
40
1
40
1
41
1
10
244.135274592786
20
10.2726991530565
30
0
41
1
10
244.138260837399
20
10.2631361054968
30
0
41
1
10
244.144233326623
20
10.2440100103776
30
0
41
1
10
244.15319032721
20
10.2153264182017
30
0
41
1
10
244.160662871744
20
10.1913965972906
30
0
41
1
10
244.165875800435
20
10.1747028928338
30
0
41
1
10
244.168508263542
20
10.1662727830604
30
0
41
1
10
244.169785496953
20
10.1621826144911
30
0
41
1
10
244.170572224612
20
10.1596632247563
30
0
41
1
10
244.170759621795
20
10.1590631104319
30
0
41
1
10
244.171113212866
20
10.1579307824838
30
0
0
SPLINE
5
20A
100
AcDbEntity
8
1
62
256
6
ByLayer
370
-1
48
1
60
0
100
AcDbSpline
70
4
71
3
72
20
73
16
40
0
40
0
40
0
40
0
40
0.0006369940731584
40
0.0022970655115751
40
0.0039571369499918
40
0.0172377084573252
40
0.0437988514719921
40
0.15004342353066
40
0.362532567647995
40
0.468777139706662
40
0.521899425735996
40
0.57502171176533
40
0.787510855882665
40
0.893755427941333
40
1
40
1
40
1
40
1
41
1
10
230.367172541509
20
9.75197715633851
30
0
41
1
10
230.367394825216
20
9.75197956837712
30
0
41
1
10
230.368197107562
20
9.75199663799904
30
0
41
1
10
230.369577597322
20
9.75205197136765
30
0
41
1
10
230.375357720494
20
9.75225070254297
30
0
41
1
10
230.389831536032
20
9.75276279613692
30
0
41
1
10
230.440739358844
20
9.75454089429772
30
0
41
1
10
230.561071648195
20
9.75875704756518
30
0
41
1
10
230.709079553968
20
9.76391881871521
30
0
41
1
10
230.838518731012
20
9.76842319492573
30
0
41
1
10
230.912458571583
20
9.77099124389346
30
0
41
1
10
231.023389328457
20
9.7748564862874
30
0
41
1
10
231.152866499697
20
9.77940409485612
30
0
41
1
10
231.30091553513
20
9.7846512496501
30
0
41
1
10
231.374962517899
20
9.78729508695463
30
0
41
1
10
231.411992998871
20
9.78861841960926
30
0
0
SPLINE
5
20B
100
AcDbEntity
8
1
62
256
6
ByLayer
370
-1
48
1
60
0
100
AcDbSpline
70
4
71
3
72
17
73
13
40
0
40
0
40
0
40
0
40
0.0144631560764198
40
0.0301057427840957
40
0.0613909161994476
40
0.123961263030151
40
0.249101956691559
40
0.499383344014374
40
0.749664731337189
40
0.999946118660004
40
0.999946118660004
40
1
40
1
40
1
40
1
41
1
10
244.722373210278
20
11.155507785502
30
0
41
1
10
244.721282466097
20
11.1554695503797
30
0
41
1
10
244.720848449469
20
11.1554543362909
30
0
41
1
10
244.718672498539
20
11.1553780601563
30
0
41
1
10
244.715122536498
20
11.1552536192148
30
0
41
1
10
244.707809851605
20
11.1549972791801
30
0
41
1
10
244.69332632236
20
11.1544895712118
30
0
41
1
10
244.672565996888
20
11.153761835417
30
0
41
1
10
244.647681028826
20
11.1528895137361
30
0
41
1
10
244.631087898106
20
11.1523078554578
30
0
41
1
10
244.622793651012
20
11.1520171075835
30
0
41
1
10
244.622783656151
20
11.152016757222
30
0
41
1
10
244.62277366129
20
11.1520164068605
30
0
0
SPLINE
5
20C
100
AcDbEntity
8
1
62
256
6
ByLayer
370
-1
48
1
60
0
100
AcDbSpline
70
4
71
3
72
25
73
21
40
0
40
0
40
0
40
0
40
0.125
40
0.1875
40
0.25
40
0.265625
40
0.2734375
40
0.28125
40
0.3125
40
0.375
40
0.5
40
0.625
40
0.65625
40
0.6875
40
0.75
40
0.765625
40
0.78125
40
0.8125
40
0.875
40
1
40
1
40
1
40
1
41
1
10
244.103156276462
20
24.9735980888512
30
0
41
1
10
244.107760400898
20
24.9613481715308
30
0
41
1
10
244.11374820567
20
24.9424936642862
30
0
41
1
10
244.119791981279
20
24.9166983816024
30
0
41
1
10
244.122435022031
20
24.9021285887156
30
0
41
1
10
244.123780439645
20
24.8928693192786
30
0
41
1
10
244.124210692256
20
24.8898711220697
30
0
41
1
10
244.124978519136
20
24.8832964473727
30
0
41
1
10
244.126593380878
20
24.869738728971
30
0
41
1
10
244.13004657041
20
24.8399421566481
30
0
41
1
10
244.134798696901
20
24.797668063166
30
0
41
1
10
244.138893127108
20
24.7593834983087
30
0
41
1
10
244.141521237586
20
24.7340775928363
30
0
41
1
10
244.143242627005
20
24.71723623233
30
0
41
1
10
244.144703664925
20
24.702503405129
30
0
41
1
10
244.14591678903
20
24.6898245926864
30
0
41
1
10
244.146715848257
20
24.6813601121804
30
0
41
1
10
244.148090717502
20
24.6665215683314
30
0
41
1
10
244.15076264064
20
24.6367729006872
30
0
41
1
10
244.152973969715
20
24.6112744308037
30
0
41
1
10
244.154401730895
20
24.5942565372276
30
0
0
SPLINE
5
20D
100
AcDbEntity
8
1
62
256
6
ByLayer
370
-1
48
1
60
0
100
AcDbSpline
70
4
71
3
72
12
73
8
40
0
40
0
40
0
40
0
40
0.0285608994399156
40
0.0933235061439213
40
0.222848719551933
40
0.481899146367955
40
1
40
1
40
1
40
1
41
1
10
242.704626820676
20
10.6331676403607
30
0
41
1
10
242.704697019248
20
10.6288965074411
30
0
41
1
10
242.704923098143
20
10.6149475554618
30
0
41
1
10
242.705465095456
20
10.5816351360464
30
0
41
1
10
242.706565923494
20
10.513871094469
30
0
41
1
10
242.70876870409
20
10.3783410969997
30
0
41
1
10
242.710656448058
20
10.2621731456911
30
0
41
1
10
242.711915019168
20
10.1847277071826
30
0
0
SPLINE
5
20E
100
AcDbEntity
8
1
62
256
6
ByLayer
370
-1
48
1
60
0
100
AcDbSpline
70
4
71
3
72
8
73
4
40
0
40
0
40
0
40
0
40
1
40
1
40
1
40
1
41
1
10
230.280031047819
20
9.64926423680026
30
0
41
1
10
230.263765768793
20
9.64884374815838
30
0
41
1
10
230.247498449724
20
9.64850373624381
30
0
41
1
10
230.231229372354
20
9.64824218285312
30
0
0
SPLINE
5
20F
100
AcDbEntity
8
1
62
256
6
ByLayer
370
-1
48
1
60
0
100
AcDbSpline
70
4
71
3
72
25
73
21
40
0
40
0
40
0
40
0
40
0.125
40
0.1875
40
0.25
40
0.265625
40
0.2734375
40
0.28125
40
0.3125
40
0.375
40
0.5
40
0.625
40
0.65625
40
0.6875
40
0.75
40
0.765625
40
0.78125
40
0.8125
40
0.875
40
1
40
1
40
1
40
1
41
1
10
244.135274592786
20
10.2726991530565
30
0
41
1
10
244.123069334497
20
10.2680754785413
30
0
41
1
10
244.104286222331
20
10.2620644479691
30
0
41
1
10
244.078593612145
20
10.2560021170191
30
0
41
1
10
244.064083603339
20
10.2533533384857
30
0
41
1
10
244.054862985386
20
10.2520062118164
30
0
41
1
10
244.051877418622
20
10.2515755417755
30
0
41
1
10
244.045330187797
20
10.2508072164357
30
0
41
1
10
244.031829111368
20
10.2491912562385
30
0
41
1
10
244.002156983338
20
10.2457359776674
30
0
41
1
10
243.960059481481
20
10.2409814848323
30
0
41
1
10
243.92193481717
20
10.2368856850893
30
0
41
1
10
243.896734664444
20
10.2342570279131
30
0
41
1
10
243.879963692937
20
10.2325353896783
30
0
41
1
10
243.86529244632
20
10.2310743096357
30
0
41
1
10
243.852666619821
20
10.2298613089322
30
0
41
1
10
243.84423751101
20
10.2290623712969
30
0
41
1
10
243.829460970592
20
10.2276878097228
30
0
41
1
10
243.799836596686
20
10.2250168137146
30
0
41
1
10
243.774444665414
20
10.2228065832815
30
0
41
1
10
243.757497874643
20
10.2213797371026
30
0
0
SPLINE
5
210
100
AcDbEntity
8
1
62
256
6
ByLayer
370
-1
48
1
60
0
100
AcDbSpline
70
4
71
3
72
8
73
4
40
0
40
0
40
0
40
0
40
1
40
1
40
1
40
1
41
1
10
229.346480641457
20
10.4764334334848
30
0
41
1
10
229.349338477548
20
10.4231579851947
30
0
41
1
10
229.352620811122
20
10.3699037650937
30
0
41
1
10
229.356329804955
20
10.3166811600979
30
0
0
SPLINE
5
211
100
AcDbEntity
8
1
62
256
6
ByLayer
370
-1
48
1
60
0
100
AcDbSpline
70
4
71
3
72
11
73
7
40
0
40
0
40
0
40
0
40
0.486341095999569
40
0.729511643999354
40
0.972682191999138
40
1
40
1
40
1
40
1
41
1
10
242.377829749277
20
23.4818606310421
30
0
41
1
10
242.382759387819
20
23.482033435386
30
0
41
1
10
242.390250235971
20
23.4822926250795
30
0
41
1
10
242.399775471881
20
23.4826155035443
30
0
41
1
10
242.404531088422
20
23.4827742355276
30
0
41
1
10
242.40693063729
20
23.4828536058386
30
0
41
1
10
242.40717228039
20
23.4828615937157
30
0
0
SPLINE
5
212
100
AcDbEntity
8
1
62
256
6
ByLayer
370
-1
48
1
60
0
100
AcDbSpline
70
4
71
3
72
8
73
4
40
0
40
0
40
0
40
0
40
1
40
1
40
1
40
1
41
1
10
230.370649326699
20
9.65202730698704
30
0
41
1
10
230.340447859453
20
9.65096865554341
30
0
41
1
10
230.310240122127
20
9.65004519926916
30
0
41
1
10
230.280031047819
20
9.64926423679023
30
0
0
SPLINE
5
213
100
AcDbEntity
8
1
62
256
6
ByLayer
370
-1
48
1
60
0
100
AcDbSpline
70
4
71
3
72
8
73
4
40
0
40
0
40
0
40
0
40
1
40
1
40
1
40
1
41
1
10
229.535015491104
20
25.0767433151745
30
0
41
1
10
229.49727409172
20
25.074093351258
30
0
41
1
10
229.460313739792
20
25.0672152330782
30
0
41
1
10
229.424131440682
20
25.0561136564922
30
0
0
SPLINE
5
214
100
AcDbEntity
8
1
62
256
6
ByLayer
370
-1
48
1
60
0
100
AcDbSpline
70
4
71
3
72
17
73
13
40
0
40
0
40
0
40
0
40
0.0032703186403209
40
0.0092094466333959
40
0.0210877026195461
40
0.0448442145918465
40
0.0923572385364472
40
0.28240933431485
40
0.662513525871655
40
0.852565621650058
40
0.94759166953926
40
1
40
1
40
1
40
1
41
1
10
231.146066386966
20
11.7311946451174
30
0
41
1
10
231.145804029893
20
11.7311848568936
30
0
41
1
10
231.145069037309
20
11.7311574113038
30
0
41
1
10
231.143394622452
20
11.7310948334743
30
0
41
1
10
231.140072129258
20
11.7309707966228
30
0
41
1
10
231.133442207533
20
11.7307231914009
30
0
41
1
10
231.112590508074
20
11.7299445431924
30
0
41
1
10
231.06331617241
20
11.7281044596219
30
0
41
1
10
231.002659052675
20
11.7258393751606
30
0
41
1
10
230.949605099192
20
11.7238580793249
30
0
41
1
10
230.922657623425
20
11.7228519169218
30
0
41
1
10
230.910918007859
20
11.7224133762094
30
0
41
1
10
230.906726860359
20
11.7222569272217
30
0
0
SPLINE
5
215
100
AcDbEntity
8
1
62
256
6
ByLayer
370
-1
48
1
60
0
100
AcDbSpline
70
4
71
3
72
25
73
21
40
0
40
0
40
0
40
0
40
0.125
40
0.1875
40
0.21875
40
0.234375
40
0.25
40
0.3125
40
0.34375
40
0.375
40
0.5
40
0.625
40
0.6875
40
0.71875
40
0.7265625
40
0.734375
40
0.75
40
0.8125
40
0.875
40
1
40
1
40
1
40
1
41
1
10
244.622791332746
20
11.1520170263186
30
0
41
1
10
244.622552113121
20
11.1349409665864
30
0
41
1
10
244.622121598556
20
11.1093503826407
30
0
41
1
10
244.621527568423
20
11.0794878840239
30
0
41
1
10
244.621189014678
20
11.0645895161677
30
0
41
1
10
244.620981049839
20
11.056089830654
30
0
41
1
10
244.620653237892
20
11.0433570965673
30
0
41
1
10
244.620220669847
20
11.0285578367976
30
0
41
1
10
244.619675031245
20
11.0116376730888
30
0
41
1
10
244.61881403371
20
10.986210643669
30
0
41
1
10
244.617395945922
20
10.9477331813947
30
0
41
1
10
244.615597758226
20
10.9052305287277
30
0
41
1
10
244.614228398946
20
10.8752660605378
30
0
41
1
10
244.613559838526
20
10.8616289812421
30
0
41
1
10
244.613253225718
20
10.8550162412813
30
0
41
1
10
244.613023915646
20
10.8519959300572
30
0
41
1
10
244.612309578538
20
10.8426656457558
30
0
41
1
10
244.610656990841
20
10.8279486142278
30
0
41
1
10
244.606373805268
20
10.8017945994476
30
0
41
1
10
244.601678168123
20
10.7825653386275
30
0
41
1
10
244.597915749597
20
10.7700196701575
30
0
0
SPLINE
5
216
100
AcDbEntity
8
1
62
256
6
ByLayer
370
-1
48
1
60
0
100
AcDbSpline
70
4
71
3
72
8
73
4
40
0
40
0
40
0
40
0
40
1
40
1
40
1
40
1
41
1
10
229.595491028541
20
9.85418794789803
30
0
41
1
10
229.697493587545
20
9.75871740321625
30
0
41
1
10
229.823857038498
20
9.69127496865107
30
0
41
1
10
229.959737510696
20
9.65977485722058
30
0
0
SPLINE
5
217
100
AcDbEntity
8
1
62
256
6
ByLayer
370
-1
48
1
60
0
100
AcDbSpline
70
4
71
3
72
15
73
11
40
0
40
0
40
0
40
0
40
0.250227978747738
40
0.500467923372336
40
0.750707867996934
40
0.875827840309233
40
0.938387826465383
40
0.969667819543457
40
0.985307816082495
40
1
40
1
40
1
40
1
41
1
10
243.608375552913
20
25.4373583714553
30
0
41
1
10
243.610636130603
20
25.4471016061826
30
0
41
1
10
243.615157394061
20
25.4665885414676
30
0
41
1
10
243.621938031222
20
25.4958135222247
30
0
41
1
10
243.627594994209
20
25.5201953952689
30
0
41
1
10
243.631541353381
20
25.5372044562316
30
0
41
1
10
243.633534214888
20
25.5457938170549
30
0
41
1
10
243.634501122759
20
25.5499612519537
30
0
41
1
10
243.635096983654
20
25.5525294506012
30
0
41
1
10
243.635238840386
20
25.5531408622091
30
0
41
1
10
243.635507847272
20
25.5543002991282
30
0
0
SPLINE
5
218
100
AcDbEntity
8
1
62
256
6
ByLayer
370
-1
48
1
60
0
100
AcDbSpline
70
4
71
3
72
8
73
4
40
0
40
0
40
0
40
0
40
1
40
1
40
1
40
1
41
1
10
228.869120743835
20
24.19850239376
30
0
41
1
10
228.868269432104
20
24.251848187499
30
0
41
1
10
228.86785834977
20
24.3052025591526
30
0
41
1
10
228.867843814344
20
24.3585551680252
30
0
0
SPLINE
5
219
100
AcDbEntity
8
1
62
256
6
ByLayer
370
-1
48
1
60
0
100
AcDbSpline
70
4
71
3
72
17
73
13
40
0
40
0
40
0
40
0
40
0.0524083454184529
40
0.147434401200788
40
0.337486512765457
40
0.717590735894797
40
0.907642847459467
40
0.955155875350634
40
0.978912389296218
40
0.99079064626901
40
0.996729774755405
40
1
40
1
40
1
40
1
41
1
10
243.072372353882
20
12.1487134249438
30
0
41
1
10
243.067637370587
20
12.1485569759071
30
0
41
1
10
243.054356233742
20
12.1481184351359
30
0
41
1
10
243.023897556266
20
12.1471122729767
30
0
41
1
10
242.963909588882
20
12.1451309794502
30
0
41
1
10
242.895332868636
20
12.1428658776819
30
0
41
1
10
242.839622855901
20
12.1410258275621
30
0
41
1
10
242.816048317548
20
12.1402471468209
30
0
41
1
10
242.808552089491
20
12.139999576478
30
0
41
1
10
242.804796358156
20
12.1398754846047
30
0
41
1
10
242.802902328802
20
12.1398129840471
30
0
41
1
10
242.802071155072
20
12.1397855274246
30
0
41
1
10
242.801774897227
20
12.1397757329653
30
0
0
SPLINE
5
21A
100
AcDbEntity
8
1
62
256
6
ByLayer
370
-1
48
1
60
0
100
AcDbSpline
70
4
71
3
72
14
73
10
40
0
40
0
40
0
40
0
40
0.0107070020616595
40
0.0461693850894093
40
0.117094151144909
40
0.400793215366908
40
0.684492279588907
40
0.968191343810906
40
1
40
1
40
1
40
1
41
1
10
231.380578426713
20
10.9140173145569
30
0
41
1
10
231.380515038723
20
10.9155054266416
30
0
41
1
10
231.380240773613
20
10.9219212566585
30
0
41
1
10
231.379530128867
20
10.9381765081481
30
0
41
1
10
231.377036546437
20
10.9921595660684
30
0
41
1
10
231.372284791956
20
11.0792695527326
30
0
41
1
10
231.36465433227
20
11.190231208108
30
0
41
1
10
231.358492819614
20
11.2630304397401
30
0
41
1
10
231.355052319067
20
11.2992721699183
30
0
41
1
10
231.354704461908
20
11.3029153341813
30
0
0
SPLINE
5
21B
100
AcDbEntity
8
1
62
256
6
ByLayer
370
-1
48
1
60
0
100
AcDbSpline
70
4
71
3
72
8
73
4
40
0
40
0
40
0
40
0
40
1
40
1
40
1
40
1
41
1
10
242.22327656876
20
23.6265343305896
30
0
41
1
10
242.222922606018
20
23.6367092158496
30
0
41
1
10
242.222848589705
20
23.6468609039826
30
0
41
1
10
242.223067597845
20
23.6551956820438
30
0
0
SPLINE
5
21C
100
AcDbEntity
8
1
62
256
6
ByLayer
370
-1
48
1
60
0
100
AcDbSpline
70
4
71
3
72
9
73
5
40
0
40
0
40
0
40
0
40
0.5
40
1
40
1
40
1
40
1
41
1
10
243.608375228612
20
25.4373569736937
30
0
41
1
10
243.664485696205
20
25.4208938402306
30
0
41
1
10
243.773529012307
20
25.3728595088344
30
0
41
1
10
243.864732564072
20
25.2987402241171
30
0
41
1
10
243.903878648926
20
25.2574787727084
30
0
0
SPLINE
5
21D
100
AcDbEntity
8
1
62
256
6
ByLayer
370
-1
48
1
60
0
100
AcDbSpline
70
4
71
3
72
11
73
7
40
0
40
0
40
0
40
0
40
0.486341095999873
40
0.729511643999809
40
0.972682191999745
40
1
40
1
40
1
40
1
41
1
10
242.62830854898
20
11.9836311958169
30
0
41
1
10
242.628480695751
20
11.978682726857
30
0
41
1
10
242.628835769384
20
11.9712605051449
30
0
41
1
10
242.629471809546
20
11.962014475648
30
0
41
1
10
242.629857361727
20
11.9574689863686
30
0
41
1
10
242.630071759499
20
11.9551961180398
30
0
41
1
10
242.630093487645
20
11.954967375169
30
0
0
SPLINE
5
21E
100
AcDbEntity
8
1
62
256
6
ByLayer
370
-1
48
1
60
0
100
AcDbSpline
70
4
71
3
72
16
73
12
40
0
40
0
40
0
40
0
40
0.0319528420422953
40
0.215044192449651
40
0.398135542857006
40
0.581226893264362
40
0.764318243671717
40
0.855863918875395
40
0.947409594079073
40
0.993182431680911
40
1
40
1
40
1
40
1
41
1
10
230.928686845249
20
23.9039296366749
30
0
41
1
10
230.928594018888
20
23.907370261598
30
0
41
1
10
230.927960931168
20
23.9305343410581
30
0
41
1
10
230.926799891275
20
23.9734092022597
30
0
41
1
10
230.925193392724
20
24.0325648828015
30
0
41
1
10
230.923585878575
20
24.0917216115552
30
0
41
1
10
230.922247240046
20
24.1410179027763
30
0
41
1
10
230.921175252879
20
24.180455851353
30
0
41
1
10
230.920506344192
20
24.2051036719655
30
0
41
1
10
230.920086308362
20
24.2206255593768
30
0
41
1
10
230.919931750648
20
24.2262901505889
30
0
41
1
10
230.919911686171
20
24.2270245064722
30
0
0
SPLINE
5
21F
100
AcDbEntity
8
1
62
256
6
ByLayer
370
-1
48
1
60
0
100
AcDbSpline
70
4
71
3
72
8
73
4
40
0
40
0
40
0
40
0
40
1
40
1
40
1
40
1
41
1
10
228.872890851751
20
24.0585492628443
30
0
41
1
10
228.871836245028
20
24.0888661110832
30
0
41
1
10
228.870915086673
20
24.1191880163027
30
0
41
1
10
228.870137895582
20
24.1495132870103
30
0
0
SPLINE
5
220
100
AcDbEntity
8
1
62
256
6
ByLayer
370
-1
48
1
60
0
100
AcDbSpline
70
4
71
3
72
15
73
11
40
0
40
0
40
0
40
0
40
0.250227978747986
40
0.500467923372483
40
0.750707867996981
40
0.87582784030923
40
0.938387826465354
40
0.969667819543417
40
0.985307816082448
40
1
40
1
40
1
40
1
41
1
10
229.986391774051
20
9.77669786737795
30
0
41
1
10
229.984170665101
20
9.76695463265057
30
0
41
1
10
229.979728341008
20
9.74746769736552
30
0
41
1
10
229.973066090928
20
9.71824271660844
30
0
41
1
10
229.967507896144
20
9.69386084356429
30
0
41
1
10
229.963630438749
20
9.67685178260152
30
0
41
1
10
229.961672371769
20
9.66826242177819
30
0
41
1
10
229.960722345703
20
9.66409498687943
30
0
41
1
10
229.96013688829
20
9.6615267882319
30
0
41
1
10
229.959997508317
20
9.66091537662408
30
0
41
1
10
229.959733198178
20
9.65975593970489
30
0
0
SPLINE
5
221
100
AcDbEntity
8
1
62
256
6
ByLayer
370
-1
48
1
60
0
100
AcDbSpline
70
4
71
3
72
12
73
8
40
0
40
0
40
0
40
0
40
0.518100853439295
40
0.777151280158942
40
0.906676493518765
40
0.971439100198677
40
1
40
1
40
1
40
1
41
1
10
242.181722942056
20
25.4254378192238
30
0
41
1
10
242.185852697029
20
25.3479923807153
30
0
41
1
10
242.192047446917
20
25.231824483073
30
0
41
1
10
242.199274222631
20
25.096294351333
30
0
41
1
10
242.202888201606
20
25.0285305115183
30
0
41
1
10
242.204663830766
20
24.9952177785549
30
0
41
1
10
242.205408307371
20
24.9812689589199
30
0
41
1
10
242.205635291551
20
24.9769978698043
30
0
0
SPLINE
5
222
100
AcDbEntity
8
1
62
256
6
ByLayer
370
-1
48
1
60
0
100
AcDbSpline
70
4
71
3
72
9
73
5
40
0
40
0
40
0
40
0
40
0.625000000000013
40
1
40
1
40
1
40
1
41
1
10
243.757497874643
20
10.2213797371026
30
0
41
1
10
243.758381037831
20
10.200559094873
30
0
41
1
10
243.759794098932
20
10.1672460673057
30
0
41
1
10
243.761207160033
20
10.1339330397384
30
0
41
1
10
243.761737057946
20
10.1214406544007
30
0
0
SPLINE
5
223
100
AcDbEntity
8
1
62
256
6
ByLayer
370
-1
48
1
60
0
100
AcDbSpline
70
4
71
3
72
8
73
4
40
0
40
0
40
0
40
0
40
1
40
1
40
1
40
1
41
1
10
244.520958758428
20
10.3773876990614
30
0
41
1
10
244.616068949279
20
10.4797769396228
30
0
41
1
10
244.683255693427
20
10.6066221263991
30
0
41
1
10
244.714632048602
20
10.7430255436029
30
0
0
SPLINE
5
224
100
AcDbEntity
8
1
62
256
6
ByLayer
370
-1
48
1
60
0
100
AcDbSpline
70
4
71
3
72
15
73
11
40
0
40
0
40
0
40
0
40
0.0466427416045669
40
0.13008371136713
40
0.213524681129693
40
0.380406620654819
40
0.71417049970507
40
0.881052439230196
40
0.964493408992759
40
1
40
1
40
1
40
1
41
1
10
231.404704793208
20
10.2370583690288
30
0
41
1
10
231.404615838001
20
10.2424720890898
30
0
41
1
10
231.404363232824
20
10.257580325324
30
0
41
1
10
231.403899279684
20
10.2824845613964
30
0
41
1
10
231.403082936472
20
10.321582014336
30
0
41
1
10
231.401421104992
20
10.3903729733236
30
0
41
1
10
231.398992341993
20
10.4695568675305
30
0
41
1
10
231.396417533436
20
10.5388307584354
30
0
41
1
10
231.395050868077
20
10.5726663892783
30
0
41
1
10
231.394460373556
20
10.5867266005705
30
0
41
1
10
231.39428312781
20
10.5909227341119
30
0
0
SPLINE
5
225
100
AcDbEntity
8
1
62
256
6
ByLayer
370
-1
48
1
60
0
100
AcDbSpline
70
4
71
3
72
17
73
13
40
0
40
0
40
0
40
0
40
0.0524083454184906
40
0.147434401200824
40
0.33748651276549
40
0.717590735894822
40
0.907642847459489
40
0.955155875350655
40
0.978912389296238
40
0.99079064626903
40
0.996729774755426
40
1
40
1
40
1
40
1
41
1
10
230.512124888235
20
23.0653428138893
30
0
41
1
10
230.516316037047
20
23.065499262926
30
0
41
1
10
230.52805565418
20
23.0659378036972
30
0
41
1
10
230.55500312342
20
23.0669439658564
30
0
41
1
10
230.608057001055
20
23.0689252593829
30
0
41
1
10
230.668714682294
20
23.0711903611513
30
0
41
1
10
230.717987933113
20
23.073030411271
30
0
41
1
10
230.738840687579
20
23.0738090920122
30
0
41
1
10
230.745469478334
20
23.0740566623551
30
0
41
1
10
230.748793755149
20
23.0741807542284
30
0
41
1
10
230.75046566807
20
23.074243254786
30
0
41
1
10
230.751201020062
20
23.0742707114086
30
0
41
1
10
230.751463580852
20
23.0742805058678
30
0
0
SPLINE
5
226
100
AcDbEntity
8
1
62
256
6
ByLayer
370
-1
48
1
60
0
100
AcDbSpline
70
4
71
3
72
14
73
10
40
0
40
0
40
0
40
0
40
0.0107070020616484
40
0.0461693850893984
40
0.117094151144899
40
0.400793215366899
40
0.684492279588899
40
0.968191343810899
40
1
40
1
40
1
40
1
41
1
10
242.228608865519
20
24.3000389242762
30
0
41
1
10
242.228649014074
20
24.2985508121915
30
0
41
1
10
242.228821135283
20
24.2921349821746
30
0
41
1
10
242.22924146219
20
24.275879730685
30
0
41
1
10
242.230503792627
20
24.2218966727648
30
0
41
1
10
242.231812782616
20
24.1347866861005
30
0
41
1
10
242.231902565637
20
24.0238250307251
30
0
41
1
10
242.230806115638
20
23.951025799093
30
0
41
1
10
242.229887161405
20
23.9147840689148
30
0
41
1
10
242.229792780208
20
23.9111409046519
30
0
0
SPLINE
5
227
100
AcDbEntity
8
1
62
256
6
ByLayer
370
-1
48
1
60
0
100
AcDbSpline
70
4
71
3
72
15
73
11
40
0
40
0
40
0
40
0
40
0.0355064919379526
40
0.118947470229801
40
0.285829426813497
40
0.61959333998089
40
0.786475296564586
40
0.869916274856434
40
0.953357253148283
40
1
40
1
40
1
40
1
41
1
10
230.212252972203
20
11.6973935876521
30
0
41
1
10
230.208104189166
20
11.6972470574679
30
0
41
1
10
230.194199908023
20
11.6967560813111
30
0
41
1
10
230.160681662087
20
11.6955744997967
30
0
41
1
10
230.091836929203
20
11.6931554123749
30
0
41
1
10
230.012628223244
20
11.6903902458063
30
0
41
1
10
229.943367771844
20
11.6879880125061
30
0
41
1
10
229.903875325567
20
11.686622699487
30
0
41
1
10
229.878663571499
20
11.6857530316514
30
0
41
1
10
229.863339744411
20
11.6852254344776
30
0
41
1
10
229.857847214518
20
11.685036381264
30
0
0
SPLINE
5
228
100
AcDbEntity
8
1
62
256
6
ByLayer
370
-1
48
1
60
0
100
AcDbSpline
70
4
71
3
72
14
73
10
40
0
40
0
40
0
40
0
40
0.0318086637759067
40
0.315507725074468
40
0.599206786373029
40
0.882905847671591
40
0.953830612996231
40
0.989292995658551
40
1
40
1
40
1
40
1
41
1
10
242.654626482204
20
11.6990246217361
30
0
41
1
10
242.65497433941
20
11.6953814569701
30
0
41
1
10
242.658414839531
20
11.6591397312742
30
0
41
1
10
242.664576352077
20
11.5863405026238
30
0
41
1
10
242.672206812338
20
11.4753788386998
30
0
41
1
10
242.676958566721
20
11.3882688539078
30
0
41
1
10
242.679452149213
20
11.3342857946032
30
0
41
1
10
242.68016279388
20
11.3180305449413
30
0
41
1
10
242.680437059004
20
11.3116147145801
30
0
41
1
10
242.680500447035
20
11.3101266021582
30
0
0
SPLINE
5
229
100
AcDbEntity
8
1
62
256
6
ByLayer
370
-1
48
1
60
0
100
AcDbSpline
70
4
71
3
72
15
73
11
40
0
40
0
40
0
40
0
40
0.0355064919379684
40
0.118947470229818
40
0.285829426813516
40
0.619593339980913
40
0.786475296564612
40
0.869916274856461
40
0.95335725314831
40
1
40
1
40
1
40
1
41
1
10
242.694204862578
20
10.9870317323609
30
0
41
1
10
242.694382160269
20
10.9828356568917
30
0
41
1
10
242.694973203082
20
10.9687759393096
30
0
41
1
10
242.696339353454
20
10.9349398717889
30
0
41
1
10
242.698914495795
20
10.8656662716652
30
0
41
1
10
242.701343125274
20
10.7864822614377
30
0
41
1
10
242.703004956804
20
10.7176913002084
30
0
41
1
10
242.703821299945
20
10.6785938507827
30
0
41
1
10
242.704285165429
20
10.6536898223715
30
0
41
1
10
242.704537842101
20
10.6385814160706
30
0
41
1
10
242.704626820676
20
10.6331676403607
30
0
0
SPLINE
5
22A
100
AcDbEntity
8
1
62
256
6
ByLayer
370
-1
48
1
60
0
100
AcDbSpline
70
4
71
3
72
12
73
8
40
0
40
0
40
0
40
0
40
0.0285608994399013
40
0.0933235061439079
40
0.222848719551921
40
0.481899146367947
40
1
40
1
40
1
40
1
41
1
10
230.905713277295
20
24.5808885984724
30
0
41
1
10
230.905486308501
20
24.585159731392
30
0
41
1
10
230.90474187831
20
24.5991086833713
30
0
41
1
10
230.902966138363
20
24.6324211027867
30
0
41
1
10
230.899352230974
20
24.7001851443642
30
0
41
1
10
230.892125407523
20
24.8357151418334
30
0
41
1
10
230.885930676732
20
24.951883093142
30
0
41
1
10
230.881800921759
20
25.0293285316505
30
0
0
SPLINE
5
22B
100
AcDbEntity
8
1
62
256
6
ByLayer
370
-1
48
1
60
0
100
AcDbSpline
70
4
71
3
72
17
73
13
40
0
40
0
40
0
40
0
40
0.0032703186402662
40
0.0092094466333412
40
0.0210877026194912
40
0.0448442145917912
40
0.0923572385363912
40
0.282409334314791
40
0.662513525871591
40
0.852565621649991
40
0.947591669539191
40
1
40
1
40
1
40
1
41
1
10
242.40717228039
20
23.4828615937157
30
0
41
1
10
242.407468386192
20
23.4828713819395
30
0
41
1
10
242.408299289863
20
23.4828988275294
30
0
41
1
10
242.410195225995
20
23.4829614053588
30
0
41
1
10
242.413949601702
20
23.4830854422103
30
0
41
1
10
242.421446688793
20
23.4833330474322
30
0
41
1
10
242.44502042602
20
23.4841116956407
30
0
41
1
10
242.500731262426
20
23.4859517792112
30
0
41
1
10
242.569307556725
20
23.4882168636725
30
0
41
1
10
242.629295580018
20
23.4901981595083
30
0
41
1
10
242.659754264879
20
23.4912043219113
30
0
41
1
10
242.67303539994
20
23.4916428626237
30
0
41
1
10
242.677770381753
20
23.4917993116114
30
0
0
SPLINE
5
22C
100
AcDbEntity
8
1
62
256
6
ByLayer
370
-1
48
1
60
0
100
AcDbSpline
70
4
71
3
72
9
73
5
40
0
40
0
40
0
40
0
40
0.375000000000492
40
1
40
1
40
1
40
1
41
1
10
231.416232182174
20
9.68867933690728
30
0
41
1
10
231.415702284261
20
9.70117172224505
30
0
41
1
10
231.41428922316
20
9.7344847498124
30
0
41
1
10
231.412876162059
20
9.76779777737971
30
0
41
1
10
231.411992998871
20
9.78861841960926
30
0
0
SPLINE
5
22D
100
AcDbEntity
8
1
62
256
6
ByLayer
370
-1
48
1
60
0
100
AcDbSpline
70
4
71
3
72
25
73
21
40
0
40
0
40
0
40
0
40
0.125
40
0.1875
40
0.21875
40
0.234375
40
0.25
40
0.3125
40
0.34375
40
0.375
40
0.5
40
0.625
40
0.6875
40
0.71875
40
0.7265625
40
0.734375
40
0.75
40
0.8125
40
0.875
40
1
40
1
40
1
40
1
41
1
10
228.972449636071
20
24.0620392125145
30
0
41
1
10
228.972686228131
20
24.0791152722468
30
0
41
1
10
228.973112403013
20
24.1047058561925
30
0
41
1
10
228.973701430926
20
24.1345683548092
30
0
41
1
10
228.974036966672
20
24.1494667226654
30
0
41
1
10
228.974242993434
20
24.1579664081792
30
0
41
1
10
228.974567636743
20
24.1706991422659
30
0
41
1
10
228.974995643443
20
24.1854984020355
30
0
41
1
10
228.975536156132
20
24.2024185657443
30
0
41
1
10
228.976390166519
20
24.2278455951641
30
0
41
1
10
228.977802881594
20
24.2663230574385
30
0
41
1
10
228.979591264597
20
24.3088257101054
30
0
41
1
10
228.980956970723
20
24.3387901782953
30
0
41
1
10
228.981619684792
20
24.3524272575911
30
0
41
1
10
228.981928407335
20
24.3590399975519
30
0
41
1
10
228.982138164845
20
24.3620603087759
30
0
41
1
10
228.982814113968
20
24.3713905930773
30
0
41
1
10
228.984395405122
20
24.3861076246054
30
0
41
1
10
228.988553272261
20
24.4122616393855
30
0
41
1
10
228.993153197887
20
24.4314909002056
30
0
41
1
10
228.996851571705
20
24.4440365686756
30
0
0
SPLINE
5
22E
100
AcDbEntity
8
1
62
256
6
ByLayer
370
-1
48
1
60
0
100
AcDbSpline
70
4
71
3
72
14
73
10
40
0
40
0
40
0
40
0
40
0.0318086637759493
40
0.315507725074495
40
0.599206786373042
40
0.882905847671588
40
0.953830612996225
40
0.989292995658543
40
1
40
1
40
1
40
1
41
1
10
242.677770381753
20
23.4917993116114
30
0
41
1
10
242.681620802385
20
23.4919265337284
30
0
41
1
10
242.719904344493
20
23.4931921226774
30
0
41
1
10
242.79605553142
20
23.4957343277603
30
0
41
1
10
242.910365291324
20
23.4996091944486
30
0
41
1
10
242.998865178537
20
23.502651142148
30
0
41
1
10
243.053258442013
20
23.5045362721184
30
0
41
1
10
243.069596994446
20
23.5051039179449
30
0
41
1
10
243.076039482589
20
23.505327963678
30
0
41
1
10
243.077533552041
20
23.5053799297089
30
0
0
SPLINE
5
22F
100
AcDbEntity
8
1
62
256
6
ByLayer
370
-1
48
1
60
0
100
AcDbSpline
70
4
71
3
72
8
73
4
40
0
40
0
40
0
40
0
40
1
40
1
40
1
40
1
41
1
10
243.901081138694
20
10.1274260987031
30
0
41
1
10
243.95415366624
20
10.1302950435747
30
0
41
1
10
244.007204935274
20
10.1335902189677
30
0
41
1
10
244.060225467347
20
10.1373129236588
30
0
0
SPLINE
5
230
100
AcDbEntity
8
1
62
256
6
ByLayer
370
-1
48
1
60
0
100
AcDbSpline
70
4
71
3
72
8
73
4
40
0
40
0
40
0
40
0
40
1
40
1
40
1
40
1
41
1
10
244.254723029159
20
24.5977464868979
30
0
41
1
10
244.253668370204
20
24.6280633326151
30
0
41
1
10
244.252476473728
20
24.6583756906229
30
0
41
1
10
244.251146856212
20
24.6886816339273
30
0
0
SPLINE
5
231
100
AcDbEntity
8
1
62
256
6
ByLayer
370
-1
48
1
60
0
100
AcDbSpline
70
4
71
3
72
12
73
8
40
0
40
0
40
0
40
0
40
0.518100853439349
40
0.777151280159024
40
0.906676493518861
40
0.97143910019878
40
1
40
1
40
1
40
1
41
1
10
229.008199680006
20
23.0124624003936
30
0
41
1
10
229.086786007172
20
23.0151668546999
30
0
41
1
10
229.204665365267
20
23.0192235270758
30
0
41
1
10
229.342191732957
20
23.0239563435655
30
0
41
1
10
229.410954329184
20
23.0263227089955
30
0
41
1
10
229.444757046762
20
23.0274860152645
30
0
41
1
10
229.458912013594
20
23.0279731187796
30
0
41
1
10
229.463245251947
20
23.0281222684981
30
0
0
SPLINE
5
232
100
AcDbEntity
8
1
62
256
6
ByLayer
370
-1
48
1
60
0
100
AcDbSpline
70
4
71
3
72
8
73
4
40
0
40
0
40
0
40
0
40
1
40
1
40
1
40
1
41
1
10
244.251146856212
20
24.6886816339273
30
0
41
1
10
244.250430958697
20
24.7049990705065
30
0
41
1
10
244.249635403965
20
24.7213131802981
30
0
41
1
10
244.248760395199
20
24.7376228053483
30
0
0
SPLINE
5
233
100
AcDbEntity
8
1
62
256
6
ByLayer
370
-1
48
1
60
0
100
AcDbSpline
70
4
71
3
72
8
73
4
40
0
40
0
40
0
40
0
40
1
40
1
40
1
40
1
41
1
10
230.779231376021
20
23.075281494458
30
0
41
1
10
230.769095209271
20
23.0749261796352
30
0
41
1
10
230.759261290827
20
23.074571674874
30
0
41
1
10
230.751467186557
20
23.0742806180106
30
0
0
SPLINE
5
234
100
AcDbEntity
8
1
62
256
6
ByLayer
370
-1
48
1
60
0
100
AcDbSpline
70
4
71
3
72
91
73
87
40
0
40
0
40
0
40
0
40
0.0276322771567685
40
0.0681475989419031
40
0.0782764293881868
40
0.0833408446113286
40
0.0839738965142213
40
0.0846069484171141
40
0.0849234743685604
40
0.0852400003200068
40
0.0858730522228995
40
0.0884052598344704
40
0.0985340902807541
40
0.108662920727038
40
0.118791751173321
40
0.128920581619605
40
0.149178242512172
40
0.16943590340474
40
0.179564733851023
40
0.184629149074165
40
0.189693564297307
40
0.1903266162002
40
0.190959668103093
40
0.192225771908878
40
0.192858823811771
40
0.193491875714663
40
0.194757979520449
40
0.19729018713202
40
0.199822394743591
40
0.204886809966733
40
0.209951225189874
40
0.220080055636158
40
0.222612263247729
40
0.223878367053514
40
0.2251444708593
40
0.230208886082442
40
0.270724207867576
40
0.290981868760144
40
0.311239529652711
40
0.331497190545278
40
0.341626020991562
40
0.346690436214704
40
0.349222643826275
40
0.35048874763206
40
0.351121799534953
40
0.351754851437846
40
0.352387903340738
40
0.353020955243631
40
0.354287059049416
40
0.356819266660988
40
0.361883681884129
40
0.372012512330413
40
0.39227017322298
40
0.412527834115548
40
0.432785495008115
40
0.47330081679325
40
0.475833024404821
40
0.478365232016391
40
0.479631335822177
40
0.480897439627962
40
0.483429647239533
40
0.493558477685817
40
0.503687308132101
40
0.508751723355242
40
0.511283930966813
40
0.512550034772599
40
0.513816138578384
40
0.514449190481277
40
0.523944969024668
40
0.534073799470952
40
0.554331460363519
40
0.564460290809803
40
0.574589121256086
40
0.594846782148654
40
0.615104443041221
40
0.617636650652792
40
0.618269702555684
40
0.618586228507131
40
0.618902754458577
40
0.61953580636147
40
0.620168858264363
40
0.625233273487504
40
0.635362103933788
40
0.675877425718923
40
0.837938712859461
40
1
40
1
40
1
40
1
41
1
10
242.276108434276
20
23.6188059551682
30
0
41
1
10
242.277689087899
20
23.6182726397571
30
0
41
1
10
242.281565390718
20
23.6168918283651
30
0
41
1
10
242.285949315648
20
23.6151218321162
30
0
41
1
10
242.289028521523
20
23.6137670927113
30
0
41
1
10
242.289899722447
20
23.6133741704408
30
0
41
1
10
242.290247659521
20
23.613215797147
30
0
41
1
10
242.290334613556
20
23.6131761369381
30
0
41
1
10
242.290404158613
20
23.6131443686546
30
0
41
1
10
242.290473691546
20
23.6131125736319
30
0
41
1
10
242.290664857061
20
23.6130250270407
30
0
41
1
10
242.291394123665
20
23.6126893552108
30
0
41
1
10
242.292639890411
20
23.6121043113631
30
0
41
1
10
242.294291267979
20
23.611303881477
30
0
41
1
10
242.295932752447
20
23.6104832024524
30
0
41
1
10
242.298107876491
20
23.6093621279471
30
0
41
1
10
242.300800807115
20
23.6079107733893
30
0
41
1
10
242.303457449583
20
23.6063935521573
30
0
41
1
10
242.305297178849
20
23.6052973452849
30
0
41
1
10
242.306342636986
20
23.6046612447828
30
0
41
1
10
242.306895954896
20
23.6043198930146
30
0
41
1
10
242.307220739938
20
23.6041179687046
30
0
41
1
10
242.307350592009
20
23.6040370986663
30
0
41
1
10
242.307480351055
20
23.603956078239
30
0
41
1
10
242.30761001686
20
23.6038749075872
30
0
41
1
10
242.307739620434
20
23.6037936368406
30
0
41
1
10
242.307966263142
20
23.6036511504292
30
0
41
1
10
242.308289570091
20
23.6034468489364
30
0
41
1
10
242.308805857487
20
23.6031183711757
30
0
41
1
10
242.309449326166
20
23.6027047892349
30
0
41
1
10
242.310474806208
20
23.6020367187733
30
0
41
1
10
242.311366711486
20
23.6014438735805
30
0
41
1
10
242.312063902224
20
23.6009726911748
30
0
41
1
10
242.312317032558
20
23.60080076702
30
0
41
1
10
242.312696333632
20
23.6005422963481
30
0
41
1
10
242.31502926291
20
23.5989393939078
30
0
41
1
10
242.318245773697
20
23.5965960070438
30
0
41
1
10
242.322095448904
20
23.5935684576766
30
0
41
1
10
242.324926393042
20
23.5912274534429
30
0
41
1
10
242.327237120753
20
23.5892191216172
30
0
41
1
10
242.328828454743
20
23.5877836943429
30
0
41
1
10
242.329617481711
20
23.5870586556891
30
0
41
1
10
242.330010323167
20
23.5866943143246
30
0
41
1
10
242.330206324385
20
23.5865116892851
30
0
41
1
10
242.330318205007
20
23.5864072024678
30
0
41
1
10
242.330402055382
20
23.5863287725701
30
0
41
1
10
242.330485845612
20
23.5862502779288
30
0
41
1
10
242.330597485667
20
23.5861455321501
30
0
41
1
10
242.330792644945
20
23.5859620007908
30
0
41
1
10
242.331182118975
20
23.5855940345106
30
0
41
1
10
242.33195767894
20
23.5848544990988
30
0
41
1
10
242.333495166504
20
23.5833611080338
30
0
41
1
10
242.335652170659
20
23.5811872981833
30
0
41
1
10
242.338176062475
20
23.5785157628795
30
0
41
1
10
242.341453283975
20
23.5748719871441
30
0
41
1
10
242.343908241059
20
23.5719321162383
30
0
41
1
10
242.345619739435
20
23.5697705486772
30
0
41
1
10
242.345856528974
20
23.5694696006587
30
0
41
1
10
242.346045408036
20
23.5692284056909
30
0
41
1
10
242.346233918242
20
23.5689869202303
30
0
41
1
10
242.346750797814
20
23.5683216391694
30
0
41
1
10
242.347588269361
20
23.5672264979746
30
0
41
1
10
242.348503829597
20
23.565998293476
30
0
41
1
10
242.349136785835
20
23.565132666492
30
0
41
1
10
242.349451269975
20
23.5646983934367
30
0
41
1
10
242.34963040406
20
23.5644498220149
30
0
41
1
10
242.349742124593
20
23.5642942921362
30
0
41
1
10
242.350143674374
20
23.5637339190903
30
0
41
1
10
242.3508514304
20
23.5627332918811
30
0
41
1
10
242.352221352302
20
23.5607467774557
30
0
41
1
10
242.35357581946
20
23.5587032108639
30
0
41
1
10
242.354892531701
20
23.5566350846737
30
0
41
1
10
242.356183888871
20
23.5545509056156
30
0
41
1
10
242.357750197464
20
23.5519161830366
30
0
41
1
10
242.359026500058
20
23.5496445977607
30
0
41
1
10
242.359703866099
20
23.5483991887585
30
0
41
1
10
242.359804202133
20
23.5482138674122
30
0
41
1
10
242.359840649382
20
23.5481464568086
30
0
41
1
10
242.359877070905
20
23.5480790321993
30
0
41
1
10
242.359922549558
20
23.5479947251953
30
0
41
1
10
242.360104206736
20
23.5476573574158
30
0
41
1
10
242.360555452227
20
23.5468123678253
30
0
41
1
10
242.362116543465
20
23.5438234311699
30
0
41
1
10
242.367727279814
20
23.5322298518519
30
0
41
1
10
242.374880453066
20
23.5112273820861
30
0
41
1
10
242.377488428065
20
23.4916721274342
30
0
41
1
10
242.377829749277
20
23.4818606310421
30
0
0
SPLINE
5
235
100
AcDbEntity
8
1
62
256
6
ByLayer
370
-1
48
1
60
0
100
AcDbSpline
70
4
71
3
72
10
73
6
40
0
40
0
40
0
40
0
40
0.5
40
0.5
40
1
40
1
40
1
40
1
41
1
10
233.494680041599
20
14.3741043677399
30
0
41
1
10
233.485650688858
20
14.4258234284887
30
0
41
1
10
233.473102037045
20
14.4801694846829
30
0
41
1
10
233.441084103858
20
14.5939364074025
30
0
41
1
10
233.421382751573
20
14.6535247329664
30
0
41
1
10
233.39999741566
20
14.7112936163674
30
0
0
SPLINE
5
236
100
AcDbEntity
8
1
62
256
6
ByLayer
370
-1
48
1
60
0
100
AcDbSpline
70
4
71
3
72
9
73
5
40
0
40
0
40
0
40
0
40
0.375000000002256
40
1
40
1
40
1
40
1
41
1
10
244.685837559186
20
12.2050837881098
30
0
41
1
10
244.673297396903
20
12.2046475444011
30
0
41
1
10
244.639856964147
20
12.2034842278443
30
0
41
1
10
244.606416531392
20
12.2023209112876
30
0
41
1
10
244.585516260921
20
12.2015938384396
30
0
0
SPLINE
5
237
100
AcDbEntity
8
1
62
256
6
ByLayer
370
-1
48
1
60
0
100
AcDbSpline
70
4
71
3
72
15
73
11
40
0
40
0
40
0
40
0
40
0.250244249035873
40
0.500488498071746
40
0.750732747107619
40
0.875854871625555
40
0.938415933884523
40
0.969696465014008
40
0.98533673057875
40
1
40
1
40
1
40
1
41
1
10
229.490317015765
20
10.2404581499819
30
0
41
1
10
229.48086401168
20
10.2375344329347
30
0
41
1
10
229.461958003509
20
10.2316869988402
30
0
41
1
10
229.433604477886
20
10.2229175446576
30
0
41
1
10
229.409950021143
20
10.2156014642033
30
0
41
1
10
229.393448413737
20
10.2104976865636
30
0
41
1
10
229.385115310547
20
10.2079203433578
30
0
41
1
10
229.381072208183
20
10.2066698533339
30
0
41
1
10
229.378581809458
20
10.2058995985934
30
0
41
1
10
229.377988600742
20
10.205716125232
30
0
41
1
10
229.376869302668
20
10.2053699378368
30
0
0
SPLINE
5
238
100
AcDbEntity
8
1
62
256
6
ByLayer
370
-1
48
1
60
0
100
AcDbSpline
70
4
71
3
72
91
73
87
40
0
40
0
40
0
40
0
40
0.0276322771566301
40
0.0681475989417705
40
0.0782764293880556
40
0.0833408446111981
40
0.083973896514091
40
0.0846069484169838
40
0.0849234743684302
40
0.0852400003198766
40
0.0858730522227694
40
0.0884052598343407
40
0.0985340902806258
40
0.108662920726911
40
0.118791751173196
40
0.128920581619481
40
0.149178242512051
40
0.169435903404622
40
0.179564733850907
40
0.184629149074049
40
0.189693564297192
40
0.190326616200085
40
0.190959668102977
40
0.192225771908763
40
0.192858823811656
40
0.193491875714549
40
0.194757979520334
40
0.197290187131906
40
0.199822394743477
40
0.204886809966619
40
0.209951225189762
40
0.220080055636047
40
0.222612263247618
40
0.223878367053404
40
0.22514447085919
40
0.230208886082332
40
0.270724207867473
40
0.290981868760043
40
0.311239529652613
40
0.331497190545183
40
0.341626020991468
40
0.346690436214611
40
0.349222643826182
40
0.350488747631968
40
0.351121799534861
40
0.351754851437753
40
0.352387903340646
40
0.353020955243539
40
0.354287059049325
40
0.356819266660896
40
0.361883681884039
40
0.372012512330324
40
0.392270173222894
40
0.412527834115464
40
0.432785495008034
40
0.473300816793175
40
0.475833024404746
40
0.478365232016317
40
0.479631335822103
40
0.480897439627889
40
0.48342964723946
40
0.493558477685745
40
0.50368730813203
40
0.508751723355172
40
0.511283930966744
40
0.512550034772529
40
0.513816138578315
40
0.514449190481208
40
0.5239449690246
40
0.534073799470885
40
0.554331460363455
40
0.564460290809741
40
0.574589121256026
40
0.594846782148596
40
0.615104443041166
40
0.617636650652737
40
0.61826970255563
40
0.618586228507077
40
0.618902754458523
40
0.619535806361416
40
0.620168858264309
40
0.625233273487451
40
0.635362103933736
40
0.675877425718877
40
0.837938712859438
40
1
40
1
40
1
40
1
41
1
10
230.78693034264
20
23.1283151691177
30
0
41
1
10
230.787461628625
20
23.1299018605799
30
0
41
1
10
230.788837185613
20
23.1337929702467
30
0
41
1
10
230.790600446492
20
23.1381936410576
30
0
41
1
10
230.791950030704
20
23.1412846089982
30
0
41
1
10
230.792341457787
20
23.1421591377687
30
0
41
1
10
230.792499228423
20
23.1425084039053
30
0
41
1
10
230.792538737712
20
23.1425956900904
30
0
41
1
10
230.792570385108
20
23.1426655007985
30
0
41
1
10
230.792602059141
20
23.1427352993365
30
0
41
1
10
230.792689272591
20
23.1429271950726
30
0
41
1
10
230.793023667088
20
23.1436592473562
30
0
41
1
10
230.793606484667
20
23.1449097727293
30
0
41
1
10
230.794403868676
20
23.1465674582904
30
0
41
1
10
230.795221424769
20
23.148215212963
30
0
41
1
10
230.796338233248
20
23.1503986456276
30
0
41
1
10
230.797784064963
20
23.1531018628085
30
0
41
1
10
230.79929551271
20
23.1557686532191
30
0
41
1
10
230.800387548185
20
23.1576154099522
30
0
41
1
10
230.801021228132
20
23.15866486157
30
0
41
1
10
230.801361280954
20
23.1592202930645
30
0
41
1
10
230.801562436881
20
23.1595463187324
30
0
41
1
10
230.801642999184
20
23.1596766668175
30
0
41
1
10
230.801723711305
20
23.1598069215217
30
0
41
1
10
230.801804573078
20
23.1599370826294
30
0
41
1
10
230.801885534564
20
23.1600671812677
30
0
41
1
10
230.802027478772
20
23.1602946897139
30
0
41
1
10
230.802231002836
20
23.1606192316429
30
0
41
1
10
230.80255823064
20
23.1611374911731
30
0
41
1
10
230.802970238776
20
23.1617834177983
30
0
41
1
10
230.803635767028
20
23.1628128150072
30
0
41
1
10
230.804226356266
20
23.163708127218
30
0
41
1
10
230.80469574568
20
23.1644079811112
30
0
41
1
10
230.804867015612
20
23.1646620783628
30
0
41
1
10
230.805124502725
20
23.1650428283051
30
0
41
1
10
230.806721305637
20
23.1673846689936
30
0
41
1
10
230.809055775207
20
23.1706134663293
30
0
41
1
10
230.812071803835
20
23.1744778466704
30
0
41
1
10
230.81440389984
20
23.177319604555
30
0
41
1
10
230.816404589357
20
23.17963915887
30
0
41
1
10
230.817834554397
20
23.1812365714971
30
0
41
1
10
230.81855683406
20
23.1820286124206
30
0
41
1
10
230.818919788996
20
23.1824229544671
30
0
41
1
10
230.819101719092
20
23.1826197043781
30
0
41
1
10
230.819205808305
20
23.1827320123653
30
0
41
1
10
230.819283939753
20
23.1828161830353
30
0
41
1
10
230.819362135699
20
23.1829002933308
30
0
41
1
10
230.819466482888
20
23.1830123598326
30
0
41
1
10
230.819649315855
20
23.1832082645867
30
0
41
1
10
230.820015881913
20
23.1835992263446
30
0
41
1
10
230.820752603169
20
23.1843777488224
30
0
41
1
10
230.82224031143
20
23.1859211093399
30
0
41
1
10
230.824405849278
20
23.1880863528994
30
0
41
1
10
230.827067218583
20
23.1906198855728
30
0
41
1
10
230.830697128652
20
23.1939096255262
30
0
41
1
10
230.833625812461
20
23.1963739601481
30
0
41
1
10
230.835779154605
20
23.1980919961693
30
0
41
1
10
230.836078957426
20
23.1983296902058
30
0
41
1
10
230.836319234574
20
23.1985192907548
30
0
41
1
10
230.83655980111
20
23.1987085210392
30
0
41
1
10
230.837222550575
20
23.1992273750077
30
0
41
1
10
230.838313524427
20
23.2000680455603
30
0
41
1
10
230.839537055237
20
23.2009871030875
30
0
41
1
10
230.840399388249
20
23.2016224771153
30
0
41
1
10
230.840832008764
20
23.201938162533
30
0
41
1
10
230.841079634296
20
23.2021179808819
30
0
41
1
10
230.841234572337
20
23.2022301281687
30
0
41
1
10
230.841792812994
20
23.202633211805
30
0
41
1
10
230.842789632515
20
23.2033436713441
30
0
41
1
10
230.844768587653
20
23.2047188261247
30
0
41
1
10
230.846804377857
20
23.206078467127
30
0
41
1
10
230.848864634203
20
23.2074002089953
30
0
41
1
10
230.85094088233
20
23.2086964989404
30
0
41
1
10
230.853565578994
20
23.2102687905772
30
0
41
1
10
230.855828520202
20
23.2115499684401
30
0
41
1
10
230.857069190047
20
23.2122299219088
30
0
41
1
10
230.85725380619
20
23.2123306412109
30
0
41
1
10
230.857320960276
20
23.2123672276824
30
0
41
1
10
230.857388128314
20
23.2124037883288
30
0
41
1
10
230.857472114505
20
23.2124494407039
30
0
41
1
10
230.857808198498
20
23.2126317917825
30
0
41
1
10
230.858649972648
20
23.2130847609576
30
0
41
1
10
230.861627535497
20
23.2146518153102
30
0
41
1
10
230.873176997746
20
23.2202839837609
30
0
41
1
10
230.894099546773
20
23.2274644809728
30
0
41
1
10
230.913580387777
20
23.2300824180124
30
0
41
1
10
230.923354548463
20
23.2304250430163
30
0
0
SPLINE
5
239
100
AcDbEntity
8
1
62
256
6
ByLayer
370
-1
48
1
60
0
100
AcDbSpline
70
4
71
3
72
9
73
5
40
0
40
0
40
0
40
0
40
0.624999999999719
40
1
40
1
40
1
40
1
41
1
10
229.836218066284
20
24.9926765017306
30
0
41
1
10
229.83565261724
20
25.0134971439601
30
0
41
1
10
229.834747898769
20
25.0468101715275
30
0
41
1
10
229.833843180298
20
25.0801231990948
30
0
41
1
10
229.833503910871
20
25.0926155844325
30
0
0
SPLINE
5
23A
100
AcDbEntity
8
1
62
256
6
ByLayer
370
-1
48
1
60
0
100
AcDbSpline
70
4
71
3
72
16
73
12
40
0
40
0
40
0
40
0
40
0.006817456392267
40
0.0525902990102964
40
0.144135984246355
40
0.235681669482414
40
0.418773039954532
40
0.601864410426649
40
0.784955780898767
40
0.968047151370885
40
1
40
1
40
1
40
1
41
1
10
243.796465556062
20
12.1735767544106
30
0
41
1
10
243.795728526047
20
12.1735511102812
30
0
41
1
10
243.790043008167
20
12.1733532974623
30
0
41
1
10
243.774460169041
20
12.1728112797762
30
0
41
1
10
243.749717642275
20
12.1719505512167
30
0
41
1
10
243.710129792851
20
12.1705733477581
30
0
41
1
10
243.660644814995
20
12.1688518846387
30
0
41
1
10
243.601262761281
20
12.1667860794834
30
0
41
1
10
243.541880794811
20
12.1647203245186
30
0
41
1
10
243.498838596047
20
12.1632230998093
30
0
41
1
10
243.475589922461
20
12.1624141923239
30
0
41
1
10
243.472135524188
20
12.1622940430429
30
0
0
SPLINE
5
23B
100
AcDbEntity
8
1
62
256
6
ByLayer
370
-1
48
1
60
0
100
AcDbSpline
70
4
71
3
72
14
73
10
40
0
40
0
40
0
40
0
40
0.136649739226085
40
0.273299478452169
40
0.546598956904338
40
0.61492382651738
40
0.683248696130423
40
0.819898435356507
40
1
40
1
40
1
40
1
41
1
10
231.328386528683
20
11.5875219082435
30
0
41
1
10
231.325942988512
20
11.5874362519926
30
0
41
1
10
231.321051721391
20
11.5873857335081
30
0
41
1
10
231.311275978502
20
11.5877663719693
30
0
41
1
10
231.302762011357
20
11.5887296600349
30
0
41
1
10
231.295536894052
20
11.5900026856854
30
0
41
1
10
231.290742352842
20
11.5909699027651
30
0
41
1
10
231.284039847948
20
11.592581613705
30
0
41
1
10
231.278609218563
20
11.5942196711107
30
0
41
1
10
231.275554663167
20
11.5952502836649
30
0
0
SPLINE
5
23C
100
AcDbEntity
8
1
62
256
6
ByLayer
370
-1
48
1
60
0
100
AcDbSpline
70
4
71
3
72
8
73
4
40
0
40
0
40
0
40
0
40
1
40
1
40
1
40
1
41
1
10
229.424131440682
20
25.0561136564923
30
0
41
1
10
229.290761615132
20
25.0151853722513
30
0
41
1
10
229.169387342698
20
24.9390586625763
30
0
41
1
10
229.074282209893
20
24.8366685402436
30
0
0
SPLINE
5
23D
100
AcDbEntity
8
1
62
256
6
ByLayer
370
-1
48
1
60
0
100
AcDbSpline
70
4
71
3
72
15
73
11
40
0
40
0
40
0
40
0
40
0.250227978749024
40
0.500467923373163
40
0.750707867997302
40
0.875827840309371
40
0.938387826465406
40
0.969667819543423
40
0.985307816082432
40
1
40
1
40
1
40
1
41
1
10
228.996850182094
20
24.4440368913743
30
0
41
1
10
228.987163757686
20
24.4462862943515
30
0
41
1
10
228.967790445755
20
24.4507852078513
30
0
41
1
10
228.938735868414
20
24.4575323262944
30
0
41
1
10
228.914496159859
20
24.4631613252204
30
0
41
1
10
228.897586274397
20
24.4670881763576
30
0
41
1
10
228.889046995948
20
24.4690711865538
30
0
41
1
10
228.884903860301
20
24.4700333147105
30
0
41
1
10
228.882350636165
20
24.4706262300867
30
0
41
1
10
228.881742789542
20
24.4707673855787
30
0
41
1
10
228.880590113004
20
24.4710350626829
30
0
0
SPLINE
5
23E
100
AcDbEntity
8
1
62
256
6
ByLayer
370
-1
48
1
60
0
100
AcDbSpline
70
4
71
3
72
8
73
4
40
0
40
0
40
0
40
0
40
1
40
1
40
1
40
1
41
1
10
242.772431721422
20
12.1387747443751
30
0
41
1
10
242.782567888172
20
12.1391300591979
30
0
41
1
10
242.792960085518
20
12.1394845639591
30
0
41
1
10
242.801772104677
20
12.1397756208225
30
0
0
SPLINE
5
23F
100
AcDbEntity
8
1
62
256
6
ByLayer
370
-1
48
1
60
0
100
AcDbSpline
70
4
71
3
72
8
73
4
40
0
40
0
40
0
40
0
40
1
40
1
40
1
40
1
41
1
10
229.376880966742
20
10.2053735454151
30
0
41
1
10
229.417652476507
20
10.07149530273
30
0
41
1
10
229.493487591562
20
9.94965931709402
30
0
41
1
10
229.595491028079
20
9.85418794739209
30
0
0
SPLINE
5
240
100
AcDbEntity
8
1
62
256
6
ByLayer
370
-1
48
1
60
0
100
AcDbSpline
70
4
71
3
72
14
73
10
40
0
40
0
40
0
40
0
40
0.0107070020617151
40
0.0461693850894665
40
0.117094151144969
40
0.40079321536698
40
0.684492279588992
40
0.968191343811003
40
1
40
1
40
1
40
1
41
1
10
230.137051768044
20
23.0517621957903
30
0
41
1
10
230.138522597696
20
23.0518141618094
30
0
41
1
10
230.144862941592
20
23.0520382075305
30
0
41
1
10
230.160911178022
20
23.0526058534208
30
0
41
1
10
230.214073188113
20
23.0544909833429
30
0
41
1
10
230.299130312733
20
23.0575329311076
30
0
41
1
10
230.405899387177
20
23.0614077974974
30
0
41
1
10
230.474792614426
20
23.0639500026844
30
0
41
1
10
230.508716706489
20
23.0652155917899
30
0
41
1
10
230.512124888235
20
23.0653428138893
30
0
0
SPLINE
5
241
100
AcDbEntity
8
1
62
256
6
ByLayer
370
-1
48
1
60
0
100
AcDbSpline
70
4
71
3
72
25
73
21
40
0
40
0
40
0
40
0
40
0.125
40
0.1875
40
0.25
40
0.265625
40
0.2734375
40
0.28125
40
0.3125
40
0.375
40
0.5
40
0.625
40
0.65625
40
0.6875
40
0.75
40
0.765625
40
0.78125
40
0.8125
40
0.875
40
1
40
1
40
1
40
1
41
1
10
229.490317015765
20
10.2404581499819
30
0
41
1
10
229.485708980125
20
10.2527080673023
30
0
41
1
10
229.479720471325
20
10.271562574547
30
0
41
1
10
229.473685723033
20
10.2973578572308
30
0
41
1
10
229.471051365523
20
10.3119276501175
30
0
41
1
10
229.469712782245
20
10.3211869195545
30
0
41
1
10
229.469284972433
20
10.3241851167635
30
0
41
1
10
229.468521996053
20
10.3307597914604
30
0
41
1
10
229.466917235834
20
10.3443175098622
30
0
41
1
10
229.46348616498
20
10.374114082185
30
0
41
1
10
229.458765490362
20
10.4163881756672
30
0
41
1
10
229.454699492592
20
10.4546727405245
30
0
41
1
10
229.452090294386
20
10.4799786459968
30
0
41
1
10
229.450381510042
20
10.4968200065031
30
0
41
1
10
229.448931507578
20
10.5115528337041
30
0
41
1
10
229.447727861944
20
10.5242316461467
30
0
41
1
10
229.446935126298
20
10.5326961266528
30
0
41
1
10
229.445571333639
20
10.5475346705018
30
0
41
1
10
229.442921592653
20
10.5772833381459
30
0
41
1
10
229.440729282049
20
10.6027818080295
30
0
41
1
10
229.439314210032
20
10.6197997016055
30
0
0
SPLINE
5
242
100
AcDbEntity
8
1
62
256
6
ByLayer
370
-1
48
1
60
0
100
AcDbSpline
70
4
71
3
72
14
73
10
40
0
40
0
40
0
40
0
40
0.136649739226198
40
0.273299478452395
40
0.546598956904791
40
0.614923826517889
40
0.683248696130988
40
0.819898435357186
40
1
40
1
40
1
40
1
41
1
10
242.22327656876
20
23.6265343305896
30
0
41
1
10
242.225720108932
20
23.6266199868405
30
0
41
1
10
242.230611376052
20
23.626670505325
30
0
41
1
10
242.240387118941
20
23.6262898668638
30
0
41
1
10
242.248901086086
20
23.6253265787983
30
0
41
1
10
242.256126203391
20
23.6240535531477
30
0
41
1
10
242.260920744602
20
23.623086336068
30
0
41
1
10
242.267623249495
20
23.6214746251281
30
0
41
1
10
242.27305387888
20
23.6198365677224
30
0
41
1
10
242.276108434276
20
23.6188059551682
30
0
0
SPLINE
5
243
100
AcDbEntity
8
1
62
256
6
ByLayer
370
-1
48
1
60
0
100
AcDbSpline
70
4
71
3
72
12
73
8
40
0
40
0
40
0
40
0
40
0.518100853439293
40
0.77715128015894
40
0.906676493518763
40
0.971439100198675
40
1
40
1
40
1
40
1
41
1
10
231.411992998871
20
9.78861841960926
30
0
41
1
10
231.410734427761
20
9.8660638581178
30
0
41
1
10
231.408846706624
20
9.98223175576013
30
0
41
1
10
231.406643868949
20
10.1177618875001
30
0
41
1
10
231.405543126535
20
10.1855257273149
30
0
41
1
10
231.405000996619
20
10.2188384602782
30
0
41
1
10
231.404774973346
20
10.2327872799133
30
0
41
1
10
231.404704793208
20
10.2370583690288
30
0
0
SPLINE
5
244
100
AcDbEntity
8
1
62
256
6
ByLayer
370
-1
48
1
60
0
100
AcDbSpline
70
4
71
3
72
15
73
11
40
0
40
0
40
0
40
0
40
0.250139710793312
40
0.500351579587099
40
0.750563448380886
40
0.875669382777779
40
0.938222349976226
40
0.969498833575449
40
0.985137075375061
40
1
40
1
40
1
40
1
41
1
10
243.903885560949
20
25.2574861546753
30
0
41
1
10
243.91187253122
20
25.2660161538718
30
0
41
1
10
243.92784877532
20
25.2830786124385
30
0
41
1
10
243.951809597415
20
25.3086685152771
30
0
41
1
10
243.971801571857
20
25.3300197310863
30
0
41
1
10
243.985747572951
20
25.3449139117428
30
0
41
1
10
243.992791031288
20
25.3524362502408
30
0
41
1
10
243.996207073771
20
25.3560845472352
30
0
41
1
10
243.998320545039
20
25.3583417120435
30
0
41
1
10
243.99888297896
20
25.3589423854816
30
0
41
1
10
243.999754234325
20
25.3598728769336
30
0
0
SPLINE
5
245
100
AcDbEntity
8
1
62
256
6
ByLayer
370
-1
48
1
60
0
100
AcDbSpline
70
4
71
3
72
14
73
10
40
0
40
0
40
0
40
0
40
0.0318086637759265
40
0.31550772507448
40
0.599206786373034
40
0.882905847671588
40
0.953830612996227
40
0.989292995658546
40
1
40
1
40
1
40
1
41
1
10
230.906726860359
20
11.7222569272217
30
0
41
1
10
230.903318678143
20
11.7221297051047
30
0
41
1
10
230.869394590275
20
11.7208641161557
30
0
41
1
10
230.800501365989
20
11.7183219110728
30
0
41
1
10
230.693732283308
20
11.7144470443845
30
0
41
1
10
230.60867516052
20
11.7114050966851
30
0
41
1
10
230.555513149064
20
11.7095199667147
30
0
41
1
10
230.539464914438
20
11.7089523208882
30
0
41
1
10
230.533124570202
20
11.7087282751551
30
0
41
1
10
230.531653740243
20
11.7086763091242
30
0
0
SPLINE
5
246
100
AcDbEntity
8
1
62
256
6
ByLayer
370
-1
48
1
60
0
100
AcDbSpline
70
4
71
3
72
12
73
8
40
0
40
0
40
0
40
0
40
0.448044053330183
40
0.448044053330183
40
0.724021472165503
40
0.724021472165503
40
1
40
1
40
1
40
1
41
1
10
231.416232182174
20
9.68867933690728
30
0
41
1
10
231.260076006271
20
9.68320541315134
30
0
41
1
10
231.103970632095
20
9.67785271870724
30
0
41
1
10
230.851665357246
20
9.66909461769944
30
0
41
1
10
230.755471157768
20
9.66570355705147
30
0
41
1
10
230.563057409706
20
9.65885762077664
30
0
41
1
10
230.466835608792
20
9.65539892289041
30
0
41
1
10
230.370649326699
20
9.65202730698621
30
0
0
SPLINE
5
247
100
AcDbEntity
8
1
62
256
6
ByLayer
370
-1
48
1
60
0
100
AcDbSpline
70
4
71
3
72
8
73
4
40
0
40
0
40
0
40
0
40
1
40
1
40
1
40
1
41
1
10
243.224591642118
20
25.5620289318461
30
0
41
1
10
243.254793141829
20
25.5630875832897
30
0
41
1
10
243.284998446934
20
25.564011039564
30
0
41
1
10
243.315209120421
20
25.5647920020429
30
0
0
SPLINE
5
248
100
AcDbEntity
8
1
62
256
6
ByLayer
370
-1
48
1
60
0
100
AcDbSpline
70
4
71
3
72
14
73
10
40
0
40
0
40
0
40
0
40
0.0107070020615914
40
0.0461693850893462
40
0.117094151144856
40
0.400793215366894
40
0.684492279588933
40
0.968191343810971
40
1
40
1
40
1
40
1
41
1
10
243.472135524188
20
12.1622940430429
30
0
41
1
10
243.470641455102
20
12.1622420770238
30
0
41
1
10
243.464198967304
20
12.1620180313027
30
0
41
1
10
243.447860413035
20
12.1614503854124
30
0
41
1
10
243.393467150951
20
12.1595652554903
30
0
41
1
10
243.30496726184
20
12.1565233077255
30
0
41
1
10
243.190657510731
20
12.1526484413357
30
0
41
1
10
243.114506320826
20
12.1501062361488
30
0
41
1
10
243.076222773983
20
12.1488406470432
30
0
41
1
10
243.072372353882
20
12.1487134249438
30
0
0
SPLINE
5
249
100
AcDbEntity
8
1
62
256
6
ByLayer
370
-1
48
1
60
0
100
AcDbSpline
70
4
71
3
72
8
73
4
40
0
40
0
40
0
40
0
40
1
40
1
40
1
40
1
41
1
10
244.060225467345
20
10.1373129236586
30
0
41
1
10
244.097967514726
20
10.1399628875752
30
0
41
1
10
244.134929288517
20
10.1468410057549
30
0
41
1
10
244.171109528135
20
10.1579425823409
30
0
0
SPLINE
5
24A
100
AcDbEntity
8
1
62
256
6
ByLayer
370
-1
48
1
60
0
100
AcDbSpline
70
4
71
3
72
15
73
11
40
0
40
0
40
0
40
0
40
0.250139710793403
40
0.500351579587146
40
0.75056344838089
40
0.875669382777762
40
0.938222349976198
40
0.969498833575416
40
0.985137075375025
40
1
40
1
40
1
40
1
41
1
10
229.175519955839
20
24.7411956531585
30
0
41
1
10
229.167085301915
20
24.749150006094
30
0
41
1
10
229.150213561392
20
24.765061006114
30
0
41
1
10
229.124909693313
20
24.7889239765639
30
0
41
1
10
229.103797133738
20
24.8088343074133
30
0
41
1
10
229.089069434893
20
24.8227233555711
30
0
41
1
10
229.081631178397
20
24.8297380497036
30
0
41
1
10
229.078023660759
20
24.8331401416895
30
0
41
1
10
229.075791725729
20
24.8352449819252
30
0
41
1
10
229.075197766403
20
24.8358051189681
30
0
41
1
10
229.074277675651
20
24.8366728162846
30
0
0
SPLINE
5
24B
100
AcDbEntity
8
1
62
256
6
ByLayer
370
-1
48
1
60
0
100
AcDbSpline
70
4
71
3
72
15
73
11
40
0
40
0
40
0
40
0
40
0.250244249035914
40
0.500488498071827
40
0.750732747107741
40
0.875854871625697
40
0.938415933884676
40
0.969696465014165
40
0.985336730578909
40
1
40
1
40
1
40
1
41
1
10
244.103156276462
20
24.9735980888512
30
0
41
1
10
244.11275658693
20
24.9765218058984
30
0
41
1
10
244.131957207865
20
24.9823692399929
30
0
41
1
10
244.160752567138
20
24.9911386941755
30
0
41
1
10
244.184775631831
20
24.9984547746299
30
0
41
1
10
244.201534384168
20
25.0035585522695
30
0
41
1
10
244.209997342299
20
25.0061358954753
30
0
41
1
10
244.214103448421
20
25.0073863854993
30
0
41
1
10
244.216632655088
20
25.0081566402398
30
0
41
1
10
244.217235107789
20
25.0083401136011
30
0
41
1
10
244.218371847911
20
25.0086863009963
30
0
0
SPLINE
5
24C
100
AcDbEntity
8
1
62
256
6
ByLayer
370
-1
48
1
60
0
100
AcDbSpline
70
4
71
3
72
16
73
12
40
0
40
0
40
0
40
0
40
0.0319528420423168
40
0.215044192449668
40
0.39813554285702
40
0.581226893264372
40
0.764318243671724
40
0.8558639188754
40
0.947409594079076
40
0.993182431680913
40
1
40
1
40
1
40
1
41
1
10
242.680500447035
20
11.3101266021582
30
0
41
1
10
242.680647004805
20
11.3066859772352
30
0
41
1
10
242.68162557577
20
11.283521897775
30
0
41
1
10
242.683447587394
20
11.2406470365734
30
0
41
1
10
242.685956890917
20
11.1814913560316
30
0
41
1
10
242.688465251771
20
11.122334627278
30
0
41
1
10
242.690556440703
20
11.0730383360568
30
0
41
1
10
242.692228379209
20
11.0336003874801
30
0
41
1
10
242.693274361641
20
11.0089525668676
30
0
41
1
10
242.693934273092
20
10.9934306794563
30
0
41
1
10
242.694173833679
20
10.9877660882442
30
0
41
1
10
242.694204862578
20
10.9870317323609
30
0
0
SPLINE
5
24D
100
AcDbEntity
8
1
62
256
6
ByLayer
370
-1
48
1
60
0
100
AcDbSpline
70
4
71
3
72
15
73
11
40
0
40
0
40
0
40
0
40
0.250244249035876
40
0.500488498071753
40
0.750732747107629
40
0.875854871625567
40
0.938415933884536
40
0.969696465014021
40
0.985336730578763
40
1
40
1
40
1
40
1
41
1
10
229.458198699441
20
24.9413570857767
30
0
41
1
10
229.455359761211
20
24.9509201333363
30
0
41
1
10
229.449681884751
20
24.9700462284556
30
0
41
1
10
229.441166717814
20
24.9987298206314
30
0
41
1
10
229.434062781229
20
25.0226596415425
30
0
41
1
10
229.42910699747
20
25.0393533459994
30
0
41
1
10
229.426604389304
20
25.0477834557728
30
0
41
1
10
229.425390159651
20
25.0518736243421
30
0
41
1
10
229.424642239933
20
25.0543930140768
30
0
41
1
10
229.424464086736
20
25.0549931284012
30
0
41
1
10
229.424127937712
20
25.0561254563494
30
0
0
SPLINE
5
24E
100
AcDbEntity
8
1
62
256
6
ByLayer
370
-1
48
1
60
0
100
AcDbSpline
70
4
71
3
72
9
73
5
40
0
40
0
40
0
40
0
40
0.5
40
1
40
1
40
1
40
1
41
1
10
229.986392092691
20
9.77669926513943
30
0
41
1
10
229.930115891167
20
9.79316239860253
30
0
41
1
10
229.820720556489
20
9.84119672999876
30
0
41
1
10
229.729164755603
20
9.91531601471601
30
0
41
1
10
229.689852619303
20
9.95657746612471
30
0
0
SPLINE
5
24F
100
AcDbEntity
8
1
62
256
6
ByLayer
370
-1
48
1
60
0
100
AcDbSpline
70
4
71
3
72
16
73
12
40
0
40
0
40
0
40
0
40
0.0068174563922489
40
0.0525902990102833
40
0.144135984246352
40
0.235681669482421
40
0.418773039954558
40
0.601864410426696
40
0.784955780898834
40
0.968047151370971
40
1
40
1
40
1
40
1
41
1
10
231.39428312781
20
10.5909227341119
30
0
41
1
10
231.394252108605
20
10.5916570858975
30
0
41
1
10
231.394012593045
20
10.5973217038805
30
0
41
1
10
231.393352091072
20
10.612843059623
30
0
41
1
10
231.39230635888
20
10.6374911006622
30
0
41
1
10
231.390634420439
20
10.6769290477243
30
0
41
1
10
231.388543196926
20
10.726225301629
30
0
41
1
10
231.38603500879
20
10.7853822212892
30
0
41
1
10
231.383525526101
20
10.8445377036835
30
0
41
1
10
231.381703554054
20
10.8874126096799
30
0
41
1
10
231.380724984437
20
10.9105766893134
30
0
41
1
10
231.380578426713
20
10.9140173145569
30
0
0
SPLINE
5
250
100
AcDbEntity
8
1
62
256
6
ByLayer
370
-1
48
1
60
0
100
AcDbSpline
70
4
71
3
72
9
73
5
40
0
40
0
40
0
40
0
40
0.5
40
1
40
1
40
1
40
1
41
1
10
229.175527255293
20
24.741188769363
30
0
41
1
10
229.211727436665
20
24.7851144216781
30
0
41
1
10
229.297645568336
20
24.8654915145585
30
0
41
1
10
229.403271364851
20
24.921035162743
30
0
41
1
10
229.458198699441
20
24.9413570857767
30
0
0
SPLINE
5
251
100
AcDbEntity
8
1
62
256
6
ByLayer
370
-1
48
1
60
0
100
AcDbSpline
70
4
71
3
72
8
73
4
40
0
40
0
40
0
40
0
40
1
40
1
40
1
40
1
41
1
10
244.238911153494
20
24.8973750787328
30
0
41
1
10
244.236271597489
20
24.9352609693673
30
0
41
1
10
244.229420363557
20
24.9723632174826
30
0
41
1
10
244.218360002075
20
25.008682693418
30
0
0
SPLINE
5
252
100
AcDbEntity
8
1
62
256
6
ByLayer
370
-1
48
1
60
0
100
AcDbSpline
70
4
71
3
72
14
73
10
40
0
40
0
40
0
40
0
40
0.136649739226132
40
0.273299478452264
40
0.546598956904528
40
0.614923826517594
40
0.68324869613066
40
0.819898435356792
40
1
40
1
40
1
40
1
41
1
10
230.779231376021
20
23.075281494458
30
0
41
1
10
230.779146045718
20
23.077734368556
30
0
41
1
10
230.779095719471
20
23.0826443195225
30
0
41
1
10
230.779474909488
20
23.092457404161
30
0
41
1
10
230.780434531952
20
23.1010038932774
30
0
41
1
10
230.781702713355
20
23.1082566093566
30
0
41
1
10
230.782666249882
20
23.1130694649356
30
0
41
1
10
230.784271827775
20
23.1197975723086
30
0
41
1
10
230.785903651878
20
23.1252489458163
30
0
41
1
10
230.78693034264
20
23.1283151691177
30
0
0
SPLINE
5
253
100
AcDbEntity
8
1
62
256
6
ByLayer
370
-1
48
1
60
0
100
AcDbSpline
70
4
71
3
72
25
73
21
40
0
40
0
40
0
40
0
40
0.125
40
0.1875
40
0.25
40
0.265625
40
0.2734375
40
0.28125
40
0.3125
40
0.375
40
0.5
40
0.625
40
0.65625
40
0.6875
40
0.75
40
0.765625
40
0.78125
40
0.8125
40
0.875
40
1
40
1
40
1
40
1
41
1
10
229.458198699441
20
24.9413570857767
30
0
41
1
10
229.470400046525
20
24.9459807602919
30
0
41
1
10
229.489182454663
20
24.9519917908641
30
0
41
1
10
229.514884092168
20
24.958054121814
30
0
41
1
10
229.529402784215
20
24.9607029003474
30
0
41
1
10
229.538630236504
20
24.9620500270167
30
0
41
1
10
229.541618246067
20
24.9624806970577
30
0
41
1
10
229.548170327392
20
24.9632490223974
30
0
41
1
10
229.561681505343
20
24.9648649825946
30
0
41
1
10
229.591375752051
20
24.9683202611657
30
0
41
1
10
229.633504705782
20
24.9730747540009
30
0
41
1
10
229.67165780253
20
24.9771705537438
30
0
41
1
10
229.696876867527
20
24.97979921092
30
0
41
1
10
229.71366044411
20
24.9815208491548
30
0
41
1
10
229.728342726184
20
24.9829819291975
30
0
41
1
10
229.740978031153
20
24.9841949299009
30
0
41
1
10
229.749413463545
20
24.9849938675363
30
0
41
1
10
229.764201080548
20
24.9863684291104
30
0
41
1
10
229.793847636607
20
24.9890394251185
30
0
41
1
10
229.819258586349
20
24.9912496555517
30
0
41
1
10
229.836218066284
20
24.9926765017306
30
0
0
SPLINE
5
254
100
AcDbEntity
8
1
62
256
6
ByLayer
370
-1
48
1
60
0
100
AcDbSpline
70
4
71
3
72
8
73
4
40
0
40
0
40
0
40
0
40
1
40
1
40
1
40
1
41
1
10
229.742914759821
20
25.0890257909457
30
0
41
1
10
229.726659483806
20
25.0883070907683
30
0
41
1
10
229.710407518614
20
25.0875084324138
30
0
41
1
10
229.694159897961
20
25.08663014013
30
0
0
SPLINE
5
255
100
AcDbEntity
8
1
62
256
6
ByLayer
370
-1
48
1
60
0
100
AcDbSpline
70
4
71
3
72
9
73
5
40
0
40
0
40
0
40
0
40
0.5
40
1
40
1
40
1
40
1
41
1
10
244.597915749597
20
10.7700196701575
30
0
41
1
10
244.581432396361
20
10.7136116861899
30
0
41
1
10
244.533404840811
20
10.60397516072
30
0
41
1
10
244.459391477788
20
10.5122464288768
30
0
41
1
10
244.418204012937
20
10.4728674694701
30
0
0
SPLINE
5
256
100
AcDbEntity
8
1
62
256
6
ByLayer
370
-1
48
1
60
0
100
AcDbSpline
70
4
71
3
72
20
73
16
40
0
40
0
40
0
40
0
40
0.0006369940731693
40
0.002297065511586
40
0.0039571369500027
40
0.017237708457336
40
0.0437988514720026
40
0.150043423530669
40
0.362532567648002
40
0.468777139706668
40
0.521899425736001
40
0.575021711765334
40
0.787510855882667
40
0.893755427941334
40
1
40
1
40
1
40
1
41
1
10
228.972460361871
20
24.0620393289109
30
0
41
1
10
228.972462781823
20
24.0618162132729
30
0
41
1
10
228.972479847694
20
24.0610109277778
30
0
41
1
10
228.972535070907
20
24.0596252655584
30
0
41
1
10
228.972733436246
20
24.0538234551421
30
0
41
1
10
228.973244218745
20
24.039294991991
30
0
41
1
10
228.975014604396
20
23.9881917596423
30
0
41
1
10
228.979187441676
20
23.8673724440679
30
0
41
1
10
228.984221083254
20
23.7186902702608
30
0
41
1
10
228.988550296752
20
23.588598030768
30
0
41
1
10
228.990996658457
20
23.5142634094595
30
0
41
1
10
228.994697391791
20
23.4027585422566
30
0
41
1
10
228.999103739788
20
23.2726623602181
30
0
41
1
10
229.004260274638
20
23.1239768787028
30
0
41
1
10
229.006880915055
20
23.0496338620223
30
0
41
1
10
229.008199680006
20
23.0124624003936
30
0
0
SPLINE
5
257
100
AcDbEntity
8
1
62
256
6
ByLayer
370
-1
48
1
60
0
100
AcDbSpline
70
4
71
3
72
17
73
13
40
0
40
0
40
0
40
0
40
0.0524083454183521
40
0.147434401200689
40
0.337486512765364
40
0.717590735894712
40
0.907642847459386
40
0.955155875350555
40
0.978912389296139
40
0.990790646268931
40
0.996729774755327
40
1
40
1
40
1
40
1
41
1
10
242.229792780208
20
23.9111409046519
30
0
41
1
10
242.229676716668
20
23.9066607904112
30
0
41
1
10
242.229342828803
20
23.8941026258138
30
0
41
1
10
242.228589558093
20
23.865289911379
30
0
41
1
10
242.227096267326
20
23.8085530881274
30
0
41
1
10
242.225393230194
20
23.7436890601759
30
0
41
1
10
242.224007897409
20
23.690996918893
30
0
41
1
10
242.223422723092
20
23.6686984199632
30
0
41
1
10
242.223235632704
20
23.6616089329185
30
0
41
1
10
242.223143525111
20
23.6580554066027
30
0
41
1
10
242.223094729618
20
23.6562656248052
30
0
41
1
10
242.223074170891
20
23.6554793700075
30
0
41
1
10
242.223067079552
20
23.6551988933918
30
0
0
SPLINE
5
258
100
AcDbEntity
8
1
62
256
6
ByLayer
370
-1
48
1
60
0
100
AcDbSpline
70
4
71
3
72
8
73
4
40
0
40
0
40
0
40
0
40
1
40
1
40
1
40
1
41
1
10
243.761737057946
20
10.1214406544007
30
0
41
1
10
243.791938538912
20
10.1224993419817
30
0
41
1
10
243.82213538363
20
10.1236956250601
30
0
41
1
10
243.852326129578
20
10.1250304478874
30
0
0
SPLINE
5
259
100
AcDbEntity
8
1
62
256
6
ByLayer
370
-1
48
1
60
0
100
AcDbSpline
70
4
71
3
72
8
73
4
40
0
40
0
40
0
40
0
40
1
40
1
40
1
40
1
41
1
10
230.071785375167
20
9.64696064939065
30
0
41
1
10
230.033947393016
20
9.64695348664102
30
0
41
1
10
229.996602408038
20
9.65123255034749
30
0
41
1
10
229.959737510722
20
9.65977485733634
30
0
0
SPLINE
5
25A
100
AcDbEntity
8
1
62
256
6
ByLayer
370
-1
48
1
60
0
100
AcDbSpline
70
4
71
3
72
9
73
5
40
0
40
0
40
0
40
0
40
0.5
40
1
40
1
40
1
40
1
41
1
10
243.903878648926
20
25.2574787727084
30
0
41
1
10
243.947590070696
20
25.2210930525087
30
0
41
1
10
244.027591511523
20
25.1347766679872
30
0
41
1
10
244.082907703055
20
25.028731240301
30
0
41
1
10
244.103156276462
20
24.9735980888512
30
0
0
SPLINE
5
25B
100
AcDbEntity
8
1
62
256
6
ByLayer
370
-1
48
1
60
0
100
AcDbSpline
70
4
71
3
72
8
73
4
40
0
40
0
40
0
40
0
40
1
40
1
40
1
40
1
41
1
10
244.72612145029
20
11.0155538450732
30
0
41
1
10
244.726972366347
20
10.9622080513342
30
0
41
1
10
244.727392323496
20
10.9088536796805
30
0
41
1
10
244.727397835687
20
10.855501070808
30
0
0
SPLINE
5
25C
100
AcDbEntity
8
1
62
256
6
ByLayer
370
-1
48
1
60
0
100
AcDbSpline
70
4
71
3
72
17
73
13
40
0
40
0
40
0
40
0
40
0.014463156076389
40
0.0301057427840521
40
0.0613909161993784
40
0.123961263030031
40
0.249101956691336
40
0.499383344013947
40
0.749664731336557
40
0.999946118659168
40
0.999946118659168
40
1
40
1
40
1
40
1
41
1
10
228.87286775854
20
24.0585484533312
30
0
41
1
10
228.87395850272
20
24.0585866884535
30
0
41
1
10
228.874392519348
20
24.0586019025423
30
0
41
1
10
228.876568470278
20
24.0586781786768
30
0
41
1
10
228.880118432319
20
24.0588026196184
30
0
41
1
10
228.887431117212
20
24.0590589596531
30
0
41
1
10
228.901914646457
20
24.0595666676213
30
0
41
1
10
228.922674971929
20
24.0602944034161
30
0
41
1
10
228.947559939991
20
24.061166725097
30
0
41
1
10
228.964153070711
20
24.0617483833754
30
0
41
1
10
228.972447317805
20
24.0620391312497
30
0
41
1
10
228.972457312666
20
24.0620394816112
30
0
41
1
10
228.972467307527
20
24.0620398319726
30
0
0
SPLINE
5
25D
100
AcDbEntity
8
1
62
256
6
ByLayer
370
-1
48
1
60
0
100
AcDbSpline
70
4
71
3
72
9
73
5
40
0
40
0
40
0
40
0
40
0.375000000003781
40
1
40
1
40
1
40
1
41
1
10
228.909403409631
20
23.0089724507233
30
0
41
1
10
228.921752943428
20
23.0094086944321
30
0
41
1
10
228.954685033553
20
23.0105720109888
30
0
41
1
10
228.987617123678
20
23.0117353275456
30
0
41
1
10
229.008199680006
20
23.0124624003936
30
0
0
SPLINE
5
25E
100
AcDbEntity
8
1
62
256
6
ByLayer
370
-1
48
1
60
0
100
AcDbSpline
70
4
71
3
72
16
73
12
40
0
40
0
40
0
40
0
40
0.0068174563921441
40
0.0525902990101866
40
0.144135984246272
40
0.235681669482357
40
0.418773039954527
40
0.601864410426697
40
0.784955780898867
40
0.968047151371037
40
1
40
1
40
1
40
1
41
1
10
229.817651583875
20
23.0404794844225
30
0
41
1
10
229.818377668571
20
23.040505128552
30
0
41
1
10
229.823978275494
20
23.0407029413708
30
0
41
1
10
229.839320020963
20
23.0412449590569
30
0
41
1
10
229.863685989801
20
23.0421056876164
30
0
41
1
10
229.90267388791
20
23.043482891075
30
0
41
1
10
229.951406243606
20
23.0452043541944
30
0
41
1
10
230.009887809333
20
23.0472701593497
30
0
41
1
10
230.068366598712
20
23.0493359143146
30
0
41
1
10
230.110747908017
20
23.0508331390239
30
0
41
1
10
230.133651101065
20
23.0516420465092
30
0
41
1
10
230.137051768044
20
23.0517621957903
30
0
0
SPLINE
5
25F
100
AcDbEntity
8
1
62
256
6
ByLayer
370
-1
48
1
60
0
100
AcDbSpline
70
4
71
3
72
9
73
5
40
0
40
0
40
0
40
0
40
0.625000000003226
40
1
40
1
40
1
40
1
41
1
10
244.154401730895
20
24.5942565372276
30
0
41
1
10
244.175302001366
20
24.5949836100756
30
0
41
1
10
244.208742434121
20
24.5961469266323
30
0
41
1
10
244.242182866876
20
24.5973102431891
30
0
41
1
10
244.254723029159
20
24.5977464868979
30
0
0
SPLINE
5
260
100
AcDbEntity
8
1
62
256
6
ByLayer
370
-1
48
1
60
0
100
AcDbSpline
70
4
71
3
72
8
73
4
40
0
40
0
40
0
40
0
40
1
40
1
40
1
40
1
41
1
10
229.340517939658
20
10.6163097519353
30
0
41
1
10
229.341572598613
20
10.585992906218
30
0
41
1
10
229.342764163857
20
10.5556805482103
30
0
41
1
10
229.344094033188
20
10.5253746049059
30
0
0
SPLINE
5
261
100
AcDbEntity
8
1
62
256
6
ByLayer
370
-1
48
1
60
0
100
AcDbSpline
70
4
71
3
72
20
73
16
40
0
40
0
40
0
40
0
40
0.0006369940731741
40
0.0022970655115907
40
0.0039571369500074
40
0.0172377084573406
40
0.0437988514720071
40
0.150043423530673
40
0.362532567648005
40
0.468777139706671
40
0.521899425736004
40
0.575021711765337
40
0.787510855882668
40
0.893755427941334
40
1
40
1
40
1
40
1
41
1
10
244.622780607189
20
11.1520169099222
30
0
41
1
10
244.62277822142
20
11.1522400255602
30
0
41
1
10
244.622761277958
20
11.1530453110553
30
0
41
1
10
244.622706255554
20
11.1544309732747
30
0
41
1
10
244.622508671006
20
11.1602327836911
30
0
41
1
10
244.621999163659
20
11.1747612468421
30
0
41
1
10
244.620226885389
20
11.2258644791909
30
0
41
1
10
244.615999503606
20
11.3466837947652
30
0
41
1
10
244.610748887079
20
11.4953659685723
30
0
41
1
10
244.606103629179
20
11.6254582080651
30
0
41
1
10
244.603433437352
20
11.6997928293737
30
0
41
1
10
244.599433102727
20
11.8112976965765
30
0
41
1
10
244.594778843633
20
11.9413938786151
30
0
41
1
10
244.589481002911
20
12.0900793601303
30
0
41
1
10
244.586834089918
20
12.1644223768109
30
0
41
1
10
244.585516260921
20
12.2015938384396
30
0
0
SPLINE
5
262
100
AcDbEntity
8
1
62
256
6
ByLayer
370
-1
48
1
60
0
100
AcDbSpline
70
4
71
3
72
15
73
11
40
0
40
0
40
0
40
0
40
0.424997863749051
40
0.849995727498102
40
0.956245193435365
40
0.98280755991968
40
0.996088743161838
40
0.997748891067108
40
0.999409038972378
40
1
40
1
40
1
40
1
41
1
10
230.881800921759
20
25.0293285316505
30
0
41
1
10
230.733677321074
20
25.0241361830807
30
0
41
1
10
230.437433142936
20
25.0137543124086
30
0
41
1
10
230.104144414571
20
25.0020616338959
30
0
41
1
10
229.909744508561
20
24.9952581602538
30
0
41
1
10
229.858818727247
20
24.9934655608675
30
0
41
1
10
229.84436108792
20
24.9929655351073
30
0
41
1
10
229.838569009037
20
24.9927571187647
30
0
41
1
10
229.837206974407
20
24.9927169927305
30
0
41
1
10
229.836424160004
20
24.9926785692232
30
0
41
1
10
229.836218579338
20
24.9926664520976
30
0
0
SPLINE
5
263
100
AcDbEntity
8
1
62
256
6
ByLayer
370
-1
48
1
60
0
100
AcDbSpline
70
4
71
3
72
8
73
4
40
0
40
0
40
0
40
0
40
1
40
1
40
1
40
1
41
1
10
243.999749940276
20
25.3598682909351
30
0
41
1
10
243.897753262103
20
25.4553388356169
30
0
41
1
10
243.771391707966
20
25.5227812701821
30
0
41
1
10
243.635503458124
20
25.5542813816126
30
0
0
SPLINE
5
264
100
AcDbEntity
8
1
62
256
6
ByLayer
370
-1
48
1
60
0
100
AcDbSpline
70
4
71
3
72
9
73
5
40
0
40
0
40
0
40
0
40
0.625000000001302
40
1
40
1
40
1
40
1
41
1
10
229.439314210032
20
10.6197997016055
30
0
41
1
10
229.418731653704
20
10.6190726287576
30
0
41
1
10
229.385799563579
20
10.6179093122008
30
0
41
1
10
229.352867473455
20
10.6167459956441
30
0
41
1
10
229.340517939658
20
10.6163097519353
30
0
0
SPLINE
5
265
100
AcDbEntity
8
1
62
256
6
ByLayer
370
-1
48
1
60
0
100
AcDbSpline
70
4
71
3
72
10
73
6
40
0
40
0
40
0
40
0
40
0.825424482464829
40
0.825424482464829
40
1
40
1
40
1
40
1
41
1
10
243.239256729067
20
-8.99711113877373
30
0
41
1
10
243.180480459567
20
-8.86595211225182
30
0
41
1
10
243.1279277359
20
-8.73248334573674
30
0
41
1
10
243.071764634864
20
-8.5680011130078
30
0
41
1
10
243.062237361049
20
-8.53917732748826
30
0
41
1
10
243.052991503156
20
-8.51026028922612
30
0
0
SPLINE
5
266
100
AcDbEntity
8
1
62
256
6
ByLayer
370
-1
48
1
60
0
100
AcDbSpline
70
4
71
3
72
18
73
14
40
0
40
0
40
0
40
0
40
0.250000000000025
40
0.250000000000025
40
0.50000000000005
40
0.50000000000005
40
0.625000000000037
40
0.625000000000037
40
0.750000000000025
40
0.750000000000025
40
0.875000000000012
40
0.875000000000012
40
1
40
1
40
1
40
1
41
1
10
244.207139996545
20
-13.0717317816439
30
0
41
1
10
244.158425015239
20
-13.073705944193
30
0
41
1
10
244.107413048504
20
-13.0767096976933
30
0
41
1
10
243.999756497896
20
-13.0859512211565
30
0
41
1
10
243.943134615907
20
-13.092134902168
30
0
41
1
10
243.850454474956
20
-13.1057447606132
30
0
41
1
10
243.818248468085
20
-13.1110157459451
30
0
41
1
10
243.749923466036
20
-13.1237468883698
30
0
41
1
10
243.713441382183
20
-13.1312814235623
30
0
41
1
10
243.635993148827
20
-13.1494840951689
30
0
41
1
10
243.595536950914
20
-13.1600156518533
30
0
41
1
10
243.509432623396
20
-13.1853658673309
30
0
41
1
10
243.465531230155
20
-13.1996989758761
30
0
41
1
10
243.420905685098
20
-13.2159017803674
30
0
0
SPLINE
5
267
100
AcDbEntity
8
1
62
256
6
ByLayer
370
-1
48
1
60
0
100
AcDbSpline
70
4
71
3
72
10
73
6
40
0
40
0
40
0
40
0
40
0.310983025413771
40
0.310983025413771
40
1
40
1
40
1
40
1
41
1
10
243.243054424833
20
-11.2772458602931
30
0
41
1
10
243.249878948477
20
-11.0778492356498
30
0
41
1
10
243.25670929086
20
-10.8784528090615
30
0
41
1
10
243.278696098975
20
-10.2372725367001
30
0
41
1
10
243.293880620664
20
-9.79548964536787
30
0
41
1
10
243.309116394523
20
-9.35370851428004
30
0
0
SPLINE
5
268
100
AcDbEntity
8
1
62
256
6
ByLayer
370
-1
48
1
60
0
100
AcDbSpline
70
4
71
3
72
10
73
6
40
0
40
0
40
0
40
0
40
0.411393459475828
40
0.411393459475828
40
1
40
1
40
1
40
1
41
1
10
243.216940785071
20
-11.53400385092
30
0
41
1
10
243.235526529547
20
-11.5030435653146
30
0
41
1
10
243.250961504376
20
-11.4700866204698
30
0
41
1
10
243.279510132679
20
-11.3877051828352
30
0
41
1
10
243.289245459114
20
-11.3361064143831
30
0
41
1
10
243.291078224377
20
-11.2841095127544
30
0
0
SPLINE
5
269
100
AcDbEntity
8
1
62
256
6
ByLayer
370
-1
48
1
60
0
100
AcDbSpline
70
4
71
3
72
18
73
14
40
0
40
0
40
0
40
0
40
0.125000000000002
40
0.125000000000002
40
0.250000000000004
40
0.250000000000004
40
0.375000000000006
40
0.375000000000006
40
0.500000000000008
40
0.500000000000008
40
0.750000000000004
40
0.750000000000004
40
1
40
1
40
1
40
1
41
1
10
244.674486205877
20
-11.4946992169496
30
0
41
1
10
244.672848913086
20
-11.5414709362408
30
0
41
1
10
244.672205476525
20
-11.5886983045252
30
0
41
1
10
244.672653089568
20
-11.6796322310489
30
0
41
1
10
244.673724768985
20
-11.7235512497166
30
0
41
1
10
244.676931319611
20
-11.8060748976344
30
0
41
1
10
244.679087620539
20
-11.8455031358878
30
0
41
1
10
244.684074793588
20
-11.9206046172824
30
0
41
1
10
244.686882214031
20
-11.9560074256097
30
0
41
1
10
244.695926663942
20
-12.0579574868015
30
0
41
1
10
244.702772247769
20
-12.1203396907998
30
0
41
1
10
244.717331534239
20
-12.2391625469181
30
0
41
1
10
244.72507566369
20
-12.2955831523303
30
0
41
1
10
244.733036543499
20
-12.3496605068386
30
0
0
SPLINE
5
26A
100
AcDbEntity
8
1
62
256
6
ByLayer
370
-1
48
1
60
0
100
AcDbSpline
70
4
71
3
72
10
73
6
40
0
40
0
40
0
40
0
40
0.5
40
0.5
40
1
40
1
40
1
40
1
41
1
10
243.896876120423
20
-1.81211355661529
30
0
41
1
10
243.908422947279
20
-1.84376092302384
30
0
41
1
10
243.920635743453
20
-1.87595754253627
30
0
41
1
10
243.945053288452
20
-1.93811359276518
30
0
41
1
10
243.95727081116
20
-1.96815177508589
30
0
41
1
10
243.969495258926
20
-1.99736700895804
30
0
0
SPLINE
5
26B
100
AcDbEntity
8
1
62
256
6
ByLayer
370
-1
48
1
60
0
100
AcDbSpline
70
4
71
3
72
14
73
10
40
0
40
0
40
0
40
0
40
0.086441005787813
40
0.086441005787813
40
0.390960670525209
40
0.390960670525209
40
0.695480335262604
40
0.695480335262604
40
1
40
1
40
1
40
1
41
1
10
242.799633597962
20
0.778145507150924
30
0
41
1
10
242.821391945086
20
0.772664177251158
30
0
41
1
10
242.842922006402
20
0.766269296816631
30
0
41
1
10
242.93897539507
20
0.733276816966736
30
0
41
1
10
243.010022859032
20
0.696366360459962
30
0
41
1
10
243.137913805556
20
0.603665523582777
30
0
41
1
10
243.195108506708
20
0.547588347586469
30
0
41
1
10
243.290231652557
20
0.42163523179849
30
0
41
1
10
243.328338055185
20
0.351697710886668
30
0
41
1
10
243.355464447227
20
0.277350110543495
30
0
0
SPLINE
5
26C
100
AcDbEntity
8
1
62
256
6
ByLayer
370
-1
48
1
60
0
100
AcDbSpline
70
4
71
3
72
8
73
4
40
0
40
0
40
0
40
0
40
1
40
1
40
1
40
1
41
1
10
244.219159193423
20
-2.0898512375019
30
0
41
1
10
244.236197611057
20
-2.13654987190858
30
0
41
1
10
244.246020430052
20
-2.1847129604019
30
0
41
1
10
244.248627650407
20
-2.234340502983
30
0
0
SPLINE
5
26D
100
AcDbEntity
8
1
62
256
6
ByLayer
370
-1
48
1
60
0
100
AcDbSpline
70
4
71
3
72
10
73
6
40
0
40
0
40
0
40
0
40
0.414631168620573
40
0.414631168620573
40
1
40
1
40
1
40
1
41
1
10
243.291078224377
20
-11.2841095127544
30
0
41
1
10
243.30051718826
20
-11.0182786915721
30
0
41
1
10
243.309948528799
20
-10.7524464066702
30
0
41
1
10
243.332672325671
20
-10.1113126526225
30
0
41
1
10
243.345955478025
20
-9.73600943286516
30
0
41
1
10
243.359214855558
20
-9.36070185536275
30
0
0
SPLINE
5
26E
100
AcDbEntity
8
1
62
256
6
ByLayer
370
-1
48
1
60
0
100
AcDbSpline
70
4
71
3
72
26
73
22
40
0
40
0
40
0
40
0
40
0.125000000000012
40
0.125000000000012
40
0.250000000000024
40
0.250000000000024
40
0.375000000000037
40
0.375000000000037
40
0.437500000000044
40
0.437500000000044
40
0.500000000000052
40
0.500000000000052
40
0.562500000000059
40
0.562500000000059
40
0.625000000000066
40
0.625000000000066
40
0.750000000000044
40
0.750000000000044
40
0.875000000000022
40
0.875000000000022
40
1
40
1
40
1
40
1
41
1
10
244.733036543499
20
-12.3496605068384
30
0
41
1
10
244.738081825135
20
-12.3839325333227
30
0
41
1
10
244.741675098876
20
-12.4194366333532
30
0
41
1
10
244.744547880058
20
-12.4940751066017
30
0
41
1
10
244.743907802399
20
-12.5331426659145
30
0
41
1
10
244.735083241764
20
-12.6175869234098
30
0
41
1
10
244.727064744669
20
-12.6627978413812
30
0
41
1
10
244.703305289629
20
-12.7363377636586
30
0
41
1
10
244.693451501215
20
-12.7615128014826
30
0
41
1
10
244.668345469428
20
-12.8126458695709
30
0
41
1
10
244.653224118105
20
-12.8381558596207
30
0
41
1
10
244.618138496138
20
-12.8863858027177
30
0
41
1
10
244.59889526607
20
-12.9081205100406
30
0
41
1
10
244.559180930843
20
-12.9460390093121
30
0
41
1
10
244.539327425263
20
-12.9617823979624
30
0
41
1
10
244.479778410688
20
-13.002689716646
30
0
41
1
10
244.442369271321
20
-13.0203413279635
30
0
41
1
10
244.370018194947
20
-13.047094002104
30
0
41
1
10
244.335820763686
20
-13.0556384029885
30
0
41
1
10
244.269868957876
20
-13.0673723228315
30
0
41
1
10
244.23809689718
20
-13.0704772609156
30
0
41
1
10
244.207139996544
20
-13.0717317816448
30
0
0
SPLINE
5
26F
100
AcDbEntity
8
1
62
256
6
ByLayer
370
-1
48
1
60
0
100
AcDbSpline
70
4
71
3
72
14
73
10
40
0
40
0
40
0
40
0
40
0.25
40
0.25
40
0.5
40
0.5
40
0.75
40
0.75
40
1
40
1
40
1
40
1
41
1
10
244.900049096012
20
-12.5679380243298
30
0
41
1
10
244.897281137902
20
-12.647008890856
30
0
41
1
10
244.882713837581
20
-12.7252671251491
30
0
41
1
10
244.83119258203
20
-12.874534793377
30
0
41
1
10
244.794191993951
20
-12.9454091892879
30
0
41
1
10
244.701264791078
20
-13.0729885998942
30
0
41
1
10
244.645050680333
20
-13.1300439776283
30
0
41
1
10
244.518789999873
20
-13.2249354082753
30
0
41
1
10
244.448681698663
20
-13.2629489856221
30
0
41
1
10
244.374152549057
20
-13.2900092991361
30
0
0
SPLINE
5
270
100
AcDbEntity
8
1
62
256
6
ByLayer
370
-1
48
1
60
0
100
AcDbSpline
70
4
71
3
72
10
73
6
40
0
40
0
40
0
40
0
40
0.5
40
0.5
40
1
40
1
40
1
40
1
41
1
10
243.359214855558
20
-9.36070185536275
30
0
41
1
10
243.361517845313
20
-9.29532726135835
30
0
41
1
10
243.356368239887
20
-9.23102234708284
30
0
41
1
10
243.331809297203
20
-9.10445926388053
30
0
41
1
10
243.312117594501
20
-9.04172133091677
30
0
41
1
10
243.285440625196
20
-8.98196597276112
30
0
0
SPLINE
5
271
100
AcDbEntity
8
1
62
256
6
ByLayer
370
-1
48
1
60
0
100
AcDbSpline
70
4
71
3
72
22
73
18
40
0
40
0
40
0
40
0
40
0.0906139845505379
40
0.0906139845505379
40
0.181552586095471
40
0.181552586095471
40
0.272491187640405
40
0.272491187640405
40
0.363429789185339
40
0.363429789185339
40
0.454368390730272
40
0.454368390730272
40
0.636245593820181
40
0.636245593820181
40
0.818122796910091
40
0.818122796910091
40
1
40
1
40
1
40
1
41
1
10
242.77840473476
20
0.704997772421137
30
0
41
1
10
242.799710771794
20
0.699099041892367
30
0
41
1
10
242.821957267949
20
0.691876966108879
30
0
41
1
10
242.868722827897
20
0.673816645850593
30
0
41
1
10
242.892978957269
20
0.663008865605775
30
0
41
1
10
242.942834367467
20
0.636564887687456
30
0
41
1
10
242.968007078496
20
0.621081772734897
30
0
41
1
10
243.016350050622
20
0.586076885559265
30
0
41
1
10
243.038532258824
20
0.567273997167149
30
0
41
1
10
243.077941548777
20
0.529051195696496
30
0
41
1
10
243.094692863495
20
0.510213172966189
30
0
41
1
10
243.139140548261
20
0.454241310553584
30
0
41
1
10
243.159675491993
20
0.419756608294023
30
0
41
1
10
243.19261388994
20
0.353687263029371
30
0
41
1
10
243.204420000671
20
0.322806085746748
30
0
41
1
10
243.222838711928
20
0.263654859580043
30
0
41
1
10
243.229375690306
20
0.235376310570615
30
0
41
1
10
243.234122725115
20
0.207975769930101
30
0
0
SPLINE
5
272
100
AcDbEntity
8
1
62
256
6
ByLayer
370
-1
48
1
60
0
100
AcDbSpline
70
4
71
3
72
10
73
6
40
0
40
0
40
0
40
0
40
0.5
40
0.5
40
1
40
1
40
1
40
1
41
1
10
243.969495258926
20
-1.99736700895795
30
0
41
1
10
243.978776594976
20
-2.0195484938412
30
0
41
1
10
243.986715793809
20
-2.04432610669315
30
0
41
1
10
243.99691305306
20
-2.09431274784072
30
0
41
1
10
243.999127687973
20
-2.11932631582201
30
0
41
1
10
243.998963715911
20
-2.14185627443916
30
0
0
SPLINE
5
273
100
AcDbEntity
8
1
62
256
6
ByLayer
370
-1
48
1
60
0
100
AcDbSpline
70
4
71
3
72
18
73
14
40
0
40
0
40
0
40
0
40
0.249999999999999
40
0.249999999999999
40
0.499999999999999
40
0.499999999999999
40
0.624999999999999
40
0.624999999999999
40
0.749999999999999
40
0.749999999999999
40
0.875
40
0.875
40
1
40
1
40
1
40
1
41
1
10
243.234122725115
20
0.207975769931181
30
0
41
1
10
243.24159284348
20
0.164857214854749
30
0
41
1
10
243.250026716048
20
0.119379085283839
30
0
41
1
10
243.269720906462
20
0.0223894735161423
30
0
41
1
10
243.280943024462
20
-0.0290833799412553
30
0
41
1
10
243.301589457939
20
-0.114551475369609
30
0
41
1
10
243.309117681723
20
-0.144440129948862
30
0
41
1
10
243.326100115559
20
-0.208388772671782
30
0
41
1
10
243.335648962698
20
-0.242790936565939
30
0
41
1
10
243.357361802783
20
-0.316593232827415
30
0
41
1
10
243.369371907614
20
-0.355501589340804
30
0
41
1
10
243.396850299546
20
-0.439334930571164
30
0
41
1
10
243.411779900443
20
-0.482569257630956
30
0
41
1
10
243.428022270532
20
-0.527086097102568
30
0
0
SPLINE
5
274
100
AcDbEntity
8
1
62
256
6
ByLayer
370
-1
48
1
60
0
100
AcDbSpline
70
4
71
3
72
8
73
4
40
0
40
0
40
0
40
0
40
1
40
1
40
1
40
1
41
1
10
243.285440625196
20
-8.98196597276112
30
0
41
1
10
243.185996986712
20
-8.75908534741117
30
0
41
1
10
243.105182027276
20
-8.53097140062599
30
0
41
1
10
243.042532064087
20
-8.29775365073493
30
0
0
SPLINE
5
275
100
AcDbEntity
8
1
62
256
6
ByLayer
370
-1
48
1
60
0
100
AcDbSpline
70
4
71
3
72
10
73
6
40
0
40
0
40
0
40
0
40
0.5
40
0.5
40
1
40
1
40
1
40
1
41
1
10
244.003372849133
20
-2.3342866081457
30
0
41
1
10
244.001571208069
20
-2.29999299027546
30
0
41
1
10
244.000361652597
20
-2.2669065556394
30
0
41
1
10
243.998947781894
20
-2.20278323661711
30
0
41
1
10
243.998748269643
20
-2.17145885075564
30
0
41
1
10
243.99896371591
20
-2.14185627443965
30
0
0
SPLINE
5
276
100
AcDbEntity
8
1
62
256
6
ByLayer
370
-1
48
1
60
0
100
AcDbSpline
70
4
71
3
72
10
73
6
40
0
40
0
40
0
40
0
40
0.5
40
0.5
40
1
40
1
40
1
40
1
41
1
10
243.309116394523
20
-9.35370851428004
30
0
41
1
10
243.311237310285
20
-9.29220979598179
30
0
41
1
10
243.306348190819
20
-9.23165588720241
30
0
41
1
10
243.283070160783
20
-9.11236756565458
30
0
41
1
10
243.26443145426
20
-9.05328844429926
30
0
41
1
10
243.239256729067
20
-8.99711113877373
30
0
0
SPLINE
5
277
100
AcDbEntity
8
1
62
256
6
ByLayer
370
-1
48
1
60
0
100
AcDbSpline
70
4
71
3
72
8
73
4
40
0
40
0
40
0
40
0
40
1
40
1
40
1
40
1
41
1
10
243.215718973814
20
-11.4198877678631
30
0
41
1
10
243.232012071754
20
-11.3742566411204
30
0
41
1
10
243.241383653756
20
-11.3260618847669
30
0
41
1
10
243.243054424833
20
-11.2772458602931
30
0
0
SPLINE
5
278
100
AcDbEntity
8
SK1
62
256
6
ByLayer
370
-1
48
1
60
0
100
AcDbSpline
70
4
71
3
72
74
73
70
40
0
40
0
40
0
40
0
40
0.0078125
40
0.0078125
40
0.015625
40
0.015625
40
0.0234375000000001
40
0.0234375000000001
40
0.0312500000000001
40
0.0312500000000001
40
0.0468750000000002
40
0.0468750000000002
40
0.0625000000000004
40
0.0625000000000004
40
0.0781250000000005
40
0.0781250000000005
40
0.0937500000000007
40
0.0937500000000007
40
0.125000000000001
40
0.125000000000001
40
0.156250000000001
40
0.156250000000001
40
0.187500000000001
40
0.187500000000001
40
0.250000000000001
40
0.250000000000001
40
0.3125
40
0.3125
40
0.375
40
0.375
40
0.4375
40
0.4375
40
0.5
40
0.5
40
0.5625
40
0.5625
40
0.625
40
0.625
40
0.6875
40
0.6875
40
0.71875
40
0.71875
40
0.75
40
0.75
40
0.8125
40
0.8125
40
0.84375
40
0.84375
40
0.875
40
0.875
40
0.90625
40
0.90625
40
0.921874999999999
40
0.921874999999999
40
0.937499999999999
40
0.937499999999999
40
0.953124999999999
40
0.953124999999999
40
0.960937499999999
40
0.960937499999999
40
0.96875
40
0.96875
40
0.9765625
40
0.9765625
40
0.984375
40
0.984375
40
0.9921875
40
0.9921875
40
1
40
1
40
1
40
1
41
1
10
-6.50000000000001
20
-10.670482650752
30
0
41
1
10
-6.43582469560522
20
-10.670482650752
30
0
41
1
10
-6.37081264331927
20
-10.6660189653216
30
0
41
1
10
-6.24392038992225
20
-10.6486969876231
30
0
41
1
10
-6.18157921432719
20
-10.6358875710277
30
0
41
1
10
-6.05894945950165
20
-10.6025434279042
30
0
41
1
10
-5.99828531584176
20
-10.5818434566541
30
0
41
1
10
-5.88083692317713
20
-10.5339153969847
30
0
41
1
10
-5.82427185750655
20
-10.5068475724891
30
0
41
1
10
-5.66013950429974
20
-10.4175987193405
30
0
41
1
10
-5.55767796670693
20
-10.3470965653228
30
0
41
1
10
-5.36621601012163
20
-10.1903902962456
30
0
41
1
10
-5.2788035718618
20
-10.1056422220725
30
0
41
1
10
-5.11622750836629
20
-9.92648705790921
30
0
41
1
10
-5.04111152798338
20
-9.8320448969433
30
0
41
1
10
-4.90065886276919
20
-9.63522912882672
30
0
41
1
10
-4.83542500373021
20
-9.53286259528852
30
0
41
1
10
-4.65471203118304
20
-9.22109644529974
30
0
41
1
10
-4.55256385540467
20
-9.0051958714954
30
0
41
1
10
-4.37262453777109
20
-8.56162021481845
30
0
41
1
10
-4.29501129112501
20
-8.33388009499919
30
0
41
1
10
-4.15784189524744
20
-7.86879502034912
30
0
41
1
10
-4.09907903740439
20
-7.63402615605699
30
0
41
1
10
-3.9443525266111
20
-6.92518666874861
30
0
41
1
10
-3.86941590197452
20
-6.4460789539506
30
0
41
1
10
-3.75181901250799
20
-5.47739344626228
30
0
41
1
10
-3.70948261237383
20
-4.98778106711202
30
0
41
1
10
-3.64452511166275
20
-3.99941572019102
30
0
41
1
10
-3.62198013028762
20
-3.50007827001653
30
0
41
1
10
-3.58892377607326
20
-2.4954364308274
30
0
41
1
10
-3.57852544151932
20
-1.9938019826163
30
0
41
1
10
-3.56516453260046
20
-0.991813220234803
30
0
41
1
10
-3.56222270481227
20
-0.49145923809175
30
0
41
1
10
-3.56229115849558
20
0.508003221132356
30
0
41
1
10
-3.56530396713819
20
1.0071116342211
30
0
41
1
10
-3.57872854634992
20
2.00406630022576
30
0
41
1
10
-3.58912588826433
20
2.50191273366485
30
0
41
1
10
-3.62186596237338
20
3.49627385340571
30
0
41
1
10
-3.64416085648715
20
3.99278917523472
30
0
41
1
10
-3.69293036786834
20
4.73646313788097
30
0
41
1
10
-3.71182176597957
20
4.98464599195373
30
0
41
1
10
-3.75616257191398
20
5.47799266038496
30
0
41
1
10
-3.78158287580702
20
5.72301013604627
30
0
41
1
10
-3.87032370623447
20
6.45266121988658
30
0
41
1
10
-3.94563979261514
20
6.93197513305708
30
0
41
1
10
-4.09993208028902
20
7.63748203830275
30
0
41
1
10
-4.15833437396446
20
7.87039260799332
30
0
41
1
10
-4.29410155537131
20
8.33086753859507
30
0
41
1
10
-4.37155898125482
20
8.5589040944626
30
0
41
1
10
-4.55298151088468
20
9.00631450635206
30
0
41
1
10
-4.65571371792436
20
9.22299836195256
30
0
41
1
10
-4.83609280283839
20
9.53392693237404
30
0
41
1
10
-4.90064241103279
20
9.63520102478984
30
0
41
1
10
-5.04103051650715
20
9.83193642265834
30
0
41
1
10
-5.11703382242625
20
9.92748901775266
30
0
41
1
10
-5.28035565179317
20
10.1072375093538
30
0
41
1
10
-5.36794028451175
20
10.1919346295056
30
0
41
1
10
-5.5111141918655
20
10.3089173634913
30
0
41
1
10
-5.56098716244992
20
10.346308238641
30
0
41
1
10
-5.66357783518522
20
10.4159186649603
30
0
41
1
10
-5.71645596113862
20
10.4482905987006
30
0
41
1
10
-5.8257765875092
20
10.5075946315751
30
0
41
1
10
-5.88221687926884
20
10.5345300782901
30
0
41
1
10
-5.99920669180636
20
10.5821668732083
30
0
41
1
10
-6.05997126142914
20
10.6028655288242
30
0
41
1
10
-6.18253580232603
20
10.6361026919536
30
0
41
1
10
-6.24472496658315
20
10.6488298146219
30
0
41
1
10
-6.37103256116302
20
10.6660258041167
30
0
41
1
10
-6.43568437547604
20
10.6704826507524
30
0
41
1
10
-6.50000000000006
20
10.6704826507524
30
0
0
SPLINE
5
279
100
AcDbEntity
8
SK1
62
256
6
ByLayer
370
-1
48
1
60
0
100
AcDbSpline
70
4
71
3
72
28
73
24
40
0
40
0
40
0
40
0
40
0.0625
40
0.0625
40
0.125
40
0.125
40
0.1875
40
0.1875
40
0.25
40
0.25
40
0.3125
40
0.3125
40
0.375
40
0.375
40
0.4375
40
0.4375
40
0.5
40
0.5
40
0.625
40
0.625
40
0.75
40
0.75
40
1
40
1
40
1
40
1
41
1
10
-77.6338144512151
20
-9.8067508950777
30
0
41
1
10
-77.6543579611202
20
-9.78895998994784
30
0
41
1
10
-77.6759742207358
20
-9.77252139976983
30
0
41
1
10
-77.722047757932
20
-9.74322562431684
30
0
41
1
10
-77.7466515021883
20
-9.73034655008655
30
0
41
1
10
-77.7978350200696
20
-9.71031034137371
30
0
41
1
10
-77.8240756138441
20
-9.70323109189889
30
0
41
1
10
-77.8780393772639
20
-9.6957878232482
30
0
41
1
10
-77.9058291361522
20
-9.69556645816945
30
0
41
1
10
-77.9596871329427
20
-9.70210490207472
30
0
41
1
10
-77.9864847496244
20
-9.70890522195111
30
0
41
1
10
-78.037569321387
20
-9.72811272586878
30
0
41
1
10
-78.0617557835843
20
-9.74036263557792
30
0
41
1
10
-78.1080225163778
20
-9.76897310396529
30
0
41
1
10
-78.1301520272264
20
-9.78542501141285
30
0
41
1
10
-78.1715088706165
20
-9.8205825368494
30
0
41
1
10
-78.1909321556219
20
-9.83940079115041
30
0
41
1
10
-78.2463112147692
20
-9.89871031654829
30
0
41
1
10
-78.2795961287113
20
-9.94232448617103
30
0
41
1
10
-78.3396100313876
20
-10.0324563718159
30
0
41
1
10
-78.366506987321
20
-10.0791581867371
30
0
41
1
10
-78.4406180649772
20
-10.2227246318282
30
0
41
1
10
-78.4815513469768
20
-10.3236034091323
30
0
41
1
10
-78.516222729729
20
-10.4258292340309
30
0
0
SPLINE
5
27A
100
AcDbEntity
8
SK1
62
256
6
ByLayer
370
-1
48
1
60
0
100
AcDbSpline
70
4
71
3
72
8
73
4
40
0
40
0
40
0
40
0
40
1
40
1
40
1
40
1
41
1
10
-76.6000000000001
20
-10.670482650752
30
0
41
1
10
-76.9485917454248
20
-10.3890222754873
30
0
41
1
10
-77.293445384311
20
-10.1015142440092
30
0
41
1
10
-77.6338144512152
20
-9.80675089507795
30
0
0
SPLINE
5
27B
100
AcDbEntity
8
SK1
62
256
6
ByLayer
370
-1
48
1
60
0
100
AcDbSpline
70
4
71
3
72
8
73
4
40
0
40
0
40
0
40
0
40
1
40
1
40
1
40
1
41
1
10
-79
20
-10.6704826507519
30
0
41
1
10
-79.3659007463117
20
-9.81334662849696
30
0
41
1
10
-79.7018274913942
20
-8.94238761528712
30
0
41
1
10
-80
20
-8.05401763097143
30
0
0
SPLINE
5
27C
100
AcDbEntity
8
SK1
62
256
6
ByLayer
370
-1
48
1
60
0
100
AcDbSpline
70
4
71
3
72
8
73
4
40
0
40
0
40
0
40
0
40
1
40
1
40
1
40
1
41
1
10
-77.6338144512152
20
9.8067508950781
30
0
41
1
10
-77.293445384311
20
10.1015142440094
30
0
41
1
10
-76.9485917454248
20
10.3890222754875
30
0
41
1
10
-76.6
20
10.6704826507522
30
0
0
SPLINE
5
27D
100
AcDbEntity
8
SK1
62
256
6
ByLayer
370
-1
48
1
60
0
100
AcDbSpline
70
4
71
3
72
8
73
4
40
0
40
0
40
0
40
0
40
1
40
1
40
1
40
1
41
1
10
-78.5162227297291
20
-10.4258292340309
30
0
41
1
10
-78.5439189315756
20
-10.5074892906994
30
0
41
1
10
-78.5718462461953
20
-10.5890396904415
30
0
41
1
10
-78.6
20
-10.6704826507519
30
0
0
SPLINE
5
27E
100
AcDbEntity
8
SK1
62
256
6
ByLayer
370
-1
48
1
60
0
100
AcDbSpline
70
4
71
3
72
8
73
4
40
0
40
0
40
0
40
0
40
1
40
1
40
1
40
1
41
1
10
-80
20
8.0540176309716
30
0
41
1
10
-79.7018274913942
20
8.94238761528729
30
0
41
1
10
-79.3659007463117
20
9.81334662849713
30
0
41
1
10
-79
20
10.6704826507521
30
0
0
SPLINE
5
27F
100
AcDbEntity
8
SK1
62
256
6
ByLayer
370
-1
48
1
60
0
100
AcDbSpline
70
4
71
3
72
8
73
4
40
0
40
0
40
0
40
0
40
1
40
1
40
1
40
1
41
1
10
-78.6
20
10.6704826507521
30
0
41
1
10
-78.5718462461953
20
10.5890396904417
30
0
41
1
10
-78.5439189315755
20
10.5074892906996
30
0
41
1
10
-78.516222729729
20
10.4258292340311
30
0
0
SPLINE
5
280
100
AcDbEntity
8
SK1
62
256
6
ByLayer
370
-1
48
1
60
0
100
AcDbSpline
70
4
71
3
72
20
73
16
40
0
40
0
40
0
40
0
40
0.25
40
0.25
40
0.375
40
0.375
40
0.5
40
0.5
40
0.625
40
0.625
40
0.75
40
0.75
40
0.875
40
0.875
40
1
40
1
40
1
40
1
41
1
10
-78.516222729729
20
10.4258292340311
30
0
41
1
10
-78.481648532285
20
10.3238899523136
30
0
41
1
10
-78.4407178893849
20
10.222863184314
30
0
41
1
10
-78.366182383801
20
10.0785569359928
30
0
41
1
10
-78.3389517594226
20
10.0313738170425
30
0
41
1
10
-78.2789242561791
20
9.9414114685452
30
0
41
1
10
-78.2462023973559
20
9.89858010737444
30
0
41
1
10
-78.1723924001263
20
9.81955890101548
30
0
41
1
10
-78.1310509912521
20
9.78321524627549
30
0
41
1
10
-78.0387498131119
20
9.72613440999527
30
0
41
1
10
-77.987439503438
20
9.70551112784312
30
0
41
1
10
-77.8785037156704
20
9.69221220969743
30
0
41
1
10
-77.8229596875428
20
9.70044596670573
30
0
41
1
10
-77.7211757832574
20
9.74034844732952
30
0
41
1
10
-77.6748225543307
20
9.77123742754159
30
0
41
1
10
-77.6338144512148
20
9.80675089507758
30
0
0
LINE
5
45
100
AcDbEntity
8
80
62
256
6
ByLayer
370
-1
48
1
60
0
100
AcDbLine
10
0
20
0
30
0
11
-7
21
0
31
0
39
0
210
0
220
0
230
1
0
LINE
5
46
100
AcDbEntity
8
81
62
256
6
ByLayer
370
-1
48
1
60
0
100
AcDbLine
10
245
20
0
30
0
11
252
21
0
31
0
39
0
210
0
220
0
230
1
0
LINE
5
47
100
AcDbEntity
8
1
62
256
6
ByLayer
370
-1
48
1
60
0
100
AcDbLine
10
0.2
20
31.25
30
0
11
0
21
31.05
31
0
39
0
210
0
220
0
230
1
0
LINE
5
49
100
AcDbEntity
8
1
62
256
6
ByLayer
370
-1
48
1
60
0
100
AcDbLine
10
0
20
-31.05
30
0
11
0.2
21
-31.25
31
0
39
0
210
0
220
0
230
1
0
LINE
5
4A
100
AcDbEntity
8
1
62
256
6
ByLayer
370
-1
48
1
60
0
100
AcDbLine
10
5
20
31.25
30
0
11
0.2
21
31.25
31
0
39
0
210
0
220
0
230
1
0
LINE
5
4B
100
AcDbEntity
8
1
62
256
6
ByLayer
370
-1
48
1
60
0
100
AcDbLine
10
0.2
20
-31.25
30
0
11
5
21
-31.25
31
0
39
0
210
0
220
0
230
1
0
LINE
5
4C
100
AcDbEntity
8
1
62
256
6
ByLayer
370
-1
48
1
60
0
100
AcDbLine
10
122.378146
20
24.87012
30
0
11
41
21
25.185
31
0
39
0
210
0
220
0
230
1
0
LINE
5
4D
100
AcDbEntity
8
1
62
256
6
ByLayer
370
-1
48
1
60
0
100
AcDbLine
10
41
20
25.185
30
0
11
36
21
25.185
31
0
39
0
210
0
220
0
230
1
0
LINE
5
4E
100
AcDbEntity
8
1
62
256
6
ByLayer
370
-1
48
1
60
0
100
AcDbLine
10
36
20
-25.185
30
0
11
41
21
-25.185
31
0
39
0
210
0
220
0
230
1
0
LINE
5
4F
100
AcDbEntity
8
1
62
256
6
ByLayer
370
-1
48
1
60
0
100
AcDbLine
10
41
20
-25.185
30
0
11
105.043938
21
-24.937192
31
0
39
0
210
0
220
0
230
1
0
LINE
5
50
100
AcDbEntity
8
SK1
62
256
6
ByLayer
370
-1
48
1
60
0
100
AcDbLine
10
-2
20
-24.996
30
0
11
-1.552821
21
-24.787477
31
0
39
0
210
0
220
0
230
1
0
LINE
5
52
100
AcDbEntity
8
SK1
62
256
6
ByLayer
370
-1
48
1
60
0
100
AcDbLine
10
-1.552821
20
24.787477
30
0
11
-2
21
24.996
31
0
39
0
210
0
220
0
230
1
0
LINE
5
53
100
AcDbEntity
8
SK1
62
256
6
ByLayer
370
-1
48
1
60
0
100
AcDbLine
10
-2
20
24.996
30
0
11
-76.6
21
24.996
31
0
39
0
210
0
220
0
230
1
0
LINE
5
54
100
AcDbEntity
8
SK1
62
256
6
ByLayer
370
-1
48
1
60
0
100
AcDbLine
10
-76.6
20
-24.996
30
0
11
-2
21
-24.996
31
0
39
0
210
0
220
0
230
1
0
LINE
5
55
100
AcDbEntity
8
SK1
62
256
6
ByLayer
370
-1
48
1
60
0
100
AcDbLine
10
-0.15
20
24.75
30
0
11
-1.383773
21
24.75
31
0
39
0
210
0
220
0
230
1
0
LINE
5
56
100
AcDbEntity
8
SK1
62
256
6
ByLayer
370
-1
48
1
60
0
100
AcDbLine
10
-1.383773
20
-24.75
30
0
11
-0.15
21
-24.75
31
0
39
0
210
0
220
0
230
1
0
LINE
5
57
100
AcDbEntity
8
SK1
62
256
6
ByLayer
370
-1
48
1
60
0
100
AcDbLine
10
-76.6
20
24.996
30
0
11
-77.633814
21
24.639667
31
0
39
0
210
0
220
0
230
1
0
LINE
5
58
100
AcDbEntity
8
SK1
62
256
6
ByLayer
370
-1
48
1
60
0
100
AcDbLine
10
-77.633814
20
-24.639667
30
0
11
-76.6
21
-24.996
31
0
39
0
210
0
220
0
230
1
0
LINE
5
59
100
AcDbEntity
8
SK1
62
256
6
ByLayer
370
-1
48
1
60
0
100
AcDbLine
10
-78.6
20
-24.996
30
0
11
-78.516223
21
-24.892544
31
0
39
0
210
0
220
0
230
1
0
LINE
5
5A
100
AcDbEntity
8
SK1
62
256
6
ByLayer
370
-1
48
1
60
0
100
AcDbLine
10
-78.516223
20
24.892544
30
0
11
-78.6
21
24.996
31
0
39
0
210
0
220
0
230
1
0
LINE
5
5B
100
AcDbEntity
8
SK1
62
256
6
ByLayer
370
-1
48
1
60
0
100
AcDbLine
10
-79
20
24.996
30
0
11
-80
21
23.996
31
0
39
0
210
0
220
0
230
1
0
LINE
5
5C
100
AcDbEntity
8
SK1
62
256
6
ByLayer
370
-1
48
1
60
0
100
AcDbLine
10
-80
20
-23.996
30
0
11
-79
21
-24.996
31
0
39
0
210
0
220
0
230
1
0
LINE
5
5D
100
AcDbEntity
8
SK1
62
256
6
ByLayer
370
-1
48
1
60
0
100
AcDbLine
10
-78.6
20
24.996
30
0
11
-79
21
24.996
31
0
39
0
210
0
220
0
230
1
0
LINE
5
5E
100
AcDbEntity
8
SK1
62
256
6
ByLayer
370
-1
48
1
60
0
100
AcDbLine
10
-79
20
-24.996
30
0
11
-78.6
21
-24.996
31
0
39
0
210
0
220
0
230
1
0
LINE
5
5F
100
AcDbEntity
8
SK4
62
256
6
ByLayer
370
-1
48
0.05
60
0
100
AcDbLine
10
245
20
0
30
0
11
-80
21
0
31
0
39
0
210
0
220
0
230
1
0
LINE
5
61
100
AcDbEntity
8
4
62
256
6
ByLayer
370
-1
48
0.05
60
0
100
AcDbLine
10
245
20
0
30
0
11
0
21
0
31
0
39
0
210
0
220
0
230
1
0
LINE
5
63
100
AcDbEntity
8
1
62
256
6
ByLayer
370
-1
48
1
60
0
100
AcDbLine
10
36
20
-25.185
30
0
11
36
21
-18.091432
31
0
39
0
210
0
220
0
230
1
0
LINE
5
64
100
AcDbEntity
8
1
62
256
6
ByLayer
370
-1
48
1
60
0
100
AcDbLine
10
243.157983
20
9.821327
30
0
11
242.840113
21
9.826117
31
0
39
0
210
0
220
0
230
1
0
LINE
5
65
100
AcDbEntity
8
1
62
256
6
ByLayer
370
-1
48
1
60
0
100
AcDbLine
10
223.729087
20
24.782234
30
0
11
223.729087
21
14.9
31
0
39
0
210
0
220
0
230
1
0
LINE
5
66
100
AcDbEntity
8
1
62
256
6
ByLayer
370
-1
48
1
60
0
100
AcDbLine
10
222.298791
20
14.80137
30
0
11
197.671632
21
18.984594
31
0
39
0
210
0
220
0
230
1
0
LINE
5
67
100
AcDbEntity
8
1
62
256
6
ByLayer
370
-1
48
1
60
0
100
AcDbLine
10
228.452876
20
15.867602
30
0
11
228.618018
21
11.120496
31
0
39
0
210
0
220
0
230
1
0
LINE
5
68
100
AcDbEntity
8
1
62
256
6
ByLayer
370
-1
48
1
60
0
100
AcDbLine
10
243.232352
20
-13.716558
30
0
11
243.749407
21
-13.814825
31
0
39
0
210
0
220
0
230
1
0
LINE
5
69
100
AcDbEntity
8
1
62
256
6
ByLayer
370
-1
48
1
60
0
100
AcDbLine
10
5
20
31.25
30
0
11
5
21
-31.25
31
0
39
0
210
0
220
0
230
1
0
LINE
5
6A
100
AcDbEntity
8
1
62
256
6
ByLayer
370
-1
48
1
60
0
100
AcDbLine
10
140.5
20
24.3038
30
0
11
140.5
21
-14.445954
31
0
39
0
210
0
220
0
230
1
0
LINE
5
6B
100
AcDbEntity
8
1
62
256
6
ByLayer
370
-1
48
1
60
0
100
AcDbLine
10
228.855284
20
17.180945
30
0
11
228.612504
21
24.794729
31
0
39
0
210
0
220
0
230
1
0
LINE
5
6C
100
AcDbEntity
8
1
62
256
6
ByLayer
370
-1
48
1
60
0
100
AcDbLine
10
228.855284
20
17.180945
30
0
11
228.87058
21
17.180945
31
0
39
0
210
0
220
0
230
1
0
LINE
5
6D
100
AcDbEntity
8
1
62
256
6
ByLayer
370
-1
48
1
60
0
100
AcDbLine
10
242.642637
20
0.068508
30
0
11
242.636663
21
-0.495535
31
0
39
0
210
0
220
0
230
1
0
LINE
5
6E
100
AcDbEntity
8
1
62
256
6
ByLayer
370
-1
48
1
60
0
100
AcDbLine
10
242.692975
20
0.704852
30
0
11
242.780907
21
0.701789
31
0
39
0
210
0
220
0
230
1
0
LINE
5
6F
100
AcDbEntity
8
1
62
256
6
ByLayer
370
-1
48
1
60
0
100
AcDbLine
10
0
20
31.05
30
0
11
0
21
-31.05
31
0
39
0
210
0
220
0
230
1
0
LINE
5
70
100
AcDbEntity
8
1
62
256
6
ByLayer
370
-1
48
1
60
0
100
AcDbLine
10
243.256321
20
-12.290507
30
0
11
241.213343
21
-11.235063
31
0
39
0
210
0
220
0
230
1
0
LINE
5
71
100
AcDbEntity
8
1
62
256
6
ByLayer
370
-1
48
1
60
0
100
AcDbLine
10
228.627935
20
24.790507
30
0
11
228.87058
21
17.180945
31
0
39
0
210
0
220
0
230
1
0
LINE
5
72
100
AcDbEntity
8
1
62
256
6
ByLayer
370
-1
48
1
60
0
100
AcDbLine
10
221.878777
20
11.981064
30
0
11
221.047509
21
12.335264
31
0
39
0
210
0
220
0
230
1
0
LINE
5
73
100
AcDbEntity
8
1
62
256
6
ByLayer
370
-1
48
1
60
0
100
AcDbLine
10
242.636663
20
-0.495535
30
0
11
240.163266
21
0.782272
31
0
39
0
210
0
220
0
230
1
0
LINE
5
74
100
AcDbEntity
8
1
62
256
6
ByLayer
370
-1
48
1
60
0
100
AcDbLine
10
0.2
20
31.25
30
0
11
0.2
21
-31.25
31
0
39
0
210
0
220
0
230
1
0
LINE
5
75
100
AcDbEntity
8
1
62
256
6
ByLayer
370
-1
48
1
60
0
100
AcDbLine
10
242.735348
20
0.808011
30
0
11
242.749095
21
0.807532
31
0
39
0
210
0
220
0
230
1
0
LINE
5
76
100
AcDbEntity
8
1
62
256
6
ByLayer
370
-1
48
1
60
0
100
AcDbLine
10
36
20
25.185
30
0
11
36
21
13.319446
31
0
39
0
210
0
220
0
230
1
0
LINE
5
77
100
AcDbEntity
8
1
62
256
6
ByLayer
370
-1
48
1
60
0
100
AcDbLine
10
242.749095
20
0.807532
30
0
11
242.805336
21
0.773547
31
0
39
0
210
0
220
0
230
1
0
LINE
5
78
100
AcDbEntity
8
1
62
256
6
ByLayer
370
-1
48
1
60
0
100
AcDbLine
10
222.413485
20
14.9
30
0
11
223.729087
21
14.9
31
0
39
0
210
0
220
0
230
1
0
LINE
5
79
100
AcDbEntity
8
1
62
256
6
ByLayer
370
-1
48
1
60
0
100
AcDbLine
10
228.98213
20
24.766842
30
0
11
228.983716
21
24.71708
31
0
39
0
210
0
220
0
230
1
0
LINE
5
7A
100
AcDbEntity
8
1
62
256
6
ByLayer
370
-1
48
1
60
0
100
AcDbLine
10
231.729857
20
9.485363
30
0
11
242.294107
21
9.855684
31
0
39
0
210
0
220
0
230
1
0
LINE
5
7B
100
AcDbEntity
8
1
62
256
6
ByLayer
370
-1
48
1
60
0
100
AcDbLine
10
242.294107
20
9.855684
30
0
11
242.504837
21
9.855684
31
0
39
0
210
0
220
0
230
1
0
LINE
5
7C
100
AcDbEntity
8
1
62
256
6
ByLayer
370
-1
48
1
60
0
100
AcDbLine
10
242.805336
20
0.773547
30
0
11
243.576378
21
10.11489
31
0
39
0
210
0
220
0
230
1
0
LINE
5
7D
100
AcDbEntity
8
1
62
256
6
ByLayer
370
-1
48
1
60
0
100
AcDbLine
10
219.822093
20
6.330322
30
0
11
219.430574
21
4.983415
31
0
39
0
210
0
220
0
230
1
0
LINE
5
7E
100
AcDbEntity
8
1
62
256
6
ByLayer
370
-1
48
1
60
0
100
AcDbLine
10
242.840113
20
9.826117
30
0
11
242.294107
21
9.855684
31
0
39
0
210
0
220
0
230
1
0
LINE
5
7F
100
AcDbEntity
8
1
62
256
6
ByLayer
370
-1
48
1
60
0
100
AcDbLine
10
228.452876
20
15.867602
30
0
11
228.810215
21
15.867602
31
0
39
0
210
0
220
0
230
1
0
LINE
5
80
100
AcDbEntity
8
1
62
256
6
ByLayer
370
-1
48
1
60
0
100
AcDbLine
10
228.270289
20
3.326291
30
0
11
229.961731
21
9.145207
31
0
39
0
210
0
220
0
230
1
0
LINE
5
81
100
AcDbEntity
8
1
62
256
6
ByLayer
370
-1
48
1
60
0
100
AcDbLine
10
243.256321
20
-12.290507
30
0
11
243.209344
21
-12.819839
31
0
39
0
210
0
220
0
230
1
0
LINE
5
82
100
AcDbEntity
8
1
62
256
6
ByLayer
370
-1
48
1
60
0
100
AcDbLine
10
242.780907
20
0.701789
30
0
11
242.805336
21
0.773547
31
0
39
0
210
0
220
0
230
1
0
LINE
5
83
100
AcDbEntity
8
1
62
256
6
ByLayer
370
-1
48
1
60
0
100
AcDbLine
10
41
20
25.185
30
0
11
41
21
11.850775
31
0
39
0
210
0
220
0
230
1
0
LINE
5
84
100
AcDbEntity
8
1
62
256
6
ByLayer
370
-1
48
1
60
0
100
AcDbLine
10
229.07596
20
17.377549
30
0
11
229.10531
21
17.377549
31
0
39
0
210
0
220
0
230
1
0
LINE
5
85
100
AcDbEntity
8
1
62
256
6
ByLayer
370
-1
48
1
60
0
100
AcDbLine
10
228.618018
20
11.120496
30
0
11
228.975357
21
11.120496
31
0
39
0
210
0
220
0
230
1
0
LINE
5
86
100
AcDbEntity
8
1
62
256
6
ByLayer
370
-1
48
1
60
0
100
AcDbLine
10
227.604328
20
-24.758126
30
0
11
242.778215
21
-24.758126
31
0
39
0
210
0
220
0
230
1
0
LINE
5
87
100
AcDbEntity
8
1
62
256
6
ByLayer
370
-1
48
1
60
0
100
AcDbLine
10
41
20
-25.185
30
0
11
41
21
-19.04573
31
0
39
0
210
0
220
0
230
1
0
LINE
5
88
100
AcDbEntity
8
1
62
256
6
ByLayer
370
-1
48
1
60
0
100
AcDbLine
10
242.504911
20
9.855684
30
0
11
243.157983
21
9.821327
31
0
39
0
210
0
220
0
230
1
0
LINE
5
89
100
AcDbEntity
8
1
62
256
6
ByLayer
370
-1
48
1
60
0
100
AcDbLine
10
240.209188
20
4.049314
30
0
11
242.840113
21
9.826117
31
0
39
0
210
0
220
0
230
1
0
LINE
5
8A
100
AcDbEntity
8
1
62
256
6
ByLayer
370
-1
48
1
60
0
100
AcDbLine
10
242.636663
20
-0.495535
30
0
11
243.256321
21
-12.290507
31
0
39
0
210
0
220
0
230
1
0
LINE
5
8B
100
AcDbEntity
8
1
62
256
6
ByLayer
370
-1
48
1
60
0
100
AcDbLine
10
242.778215
20
-24.758126
30
0
11
243.749407
21
-13.814825
31
0
39
0
210
0
220
0
230
1
0
LINE
5
8C
100
AcDbEntity
8
1
62
256
6
ByLayer
370
-1
48
1
60
0
100
AcDbLine
10
229.167465
20
9.65487
30
0
11
229.21557
21
9.65487
31
0
39
0
210
0
220
0
230
1
0
LINE
5
8D
100
AcDbEntity
8
1
62
256
6
ByLayer
370
-1
48
1
60
0
100
AcDbLine
10
222.413485
20
24.768077
30
0
11
222.413485
21
14.9
31
0
39
0
210
0
220
0
230
1
0
LINE
5
8E
100
AcDbEntity
8
1
62
256
6
ByLayer
370
-1
48
1
60
0
100
AcDbLine
10
228.810215
20
15.867602
30
0
11
228.975357
21
11.120496
31
0
39
0
210
0
220
0
230
1
0
LINE
5
8F
100
AcDbEntity
8
1
62
256
6
ByLayer
370
-1
48
1
60
0
100
AcDbLine
10
231.975299
20
21.66585
30
0
11
232.564584
21
21.549081
31
0
39
0
210
0
220
0
230
1
0
LINE
5
90
100
AcDbEntity
8
1
62
256
6
ByLayer
370
-1
48
1
60
0
100
AcDbLine
10
229.340518
20
10.61631
30
0
11
228.909403
21
23.008972
31
0
39
0
210
0
220
0
230
1
0
LINE
5
91
100
AcDbEntity
8
1
62
256
6
ByLayer
370
-1
48
1
60
0
100
AcDbLine
10
241.098019
20
22.566534
30
0
11
238.111255
21
22.461836
31
0
39
0
210
0
220
0
230
1
0
LINE
5
92
100
AcDbEntity
8
1
62
256
6
ByLayer
370
-1
48
1
60
0
100
AcDbLine
10
242.628309
20
11.983631
30
0
11
231.328387
21
11.587522
31
0
39
0
210
0
220
0
230
1
0
LINE
5
93
100
AcDbEntity
8
1
62
256
6
ByLayer
370
-1
48
1
60
0
100
AcDbLine
10
229.0082
20
23.012462
30
0
11
229.402802
21
11.669377
31
0
39
0
210
0
220
0
230
1
0
LINE
5
94
100
AcDbEntity
8
1
62
256
6
ByLayer
370
-1
48
1
60
0
100
AcDbLine
10
242.181723
20
25.425438
30
0
11
230.881801
21
25.029329
31
0
39
0
210
0
220
0
230
1
0
LINE
5
95
100
AcDbEntity
8
1
62
256
6
ByLayer
370
-1
48
1
60
0
100
AcDbLine
10
238.447864
20
12.673072
30
0
11
241.434627
21
12.77777
31
0
39
0
210
0
220
0
230
1
0
LINE
5
96
100
AcDbEntity
8
1
62
256
6
ByLayer
370
-1
48
1
60
0
100
AcDbLine
10
232.905944
20
20.857629
30
0
11
232.928228
21
20.853213
31
0
39
0
210
0
220
0
230
1
0
LINE
5
97
100
AcDbEntity
8
1
62
256
6
ByLayer
370
-1
48
1
60
0
100
AcDbLine
10
229.463244
20
23.028122
30
0
11
229.857846
21
11.685036
31
0
39
0
210
0
220
0
230
1
0
LINE
5
98
100
AcDbEntity
8
1
62
256
6
ByLayer
370
-1
48
1
60
0
100
AcDbLine
10
230.751467
20
23.074281
30
0
11
231.146069
21
11.731195
31
0
39
0
210
0
220
0
230
1
0
LINE
5
99
100
AcDbEntity
8
1
62
256
6
ByLayer
370
-1
48
1
60
0
100
AcDbLine
10
241.087688
20
22.750745
30
0
11
238.100925
21
22.646046
31
0
39
0
210
0
220
0
230
1
0
LINE
5
9A
100
AcDbEntity
8
1
62
256
6
ByLayer
370
-1
48
1
60
0
100
AcDbLine
10
233.359953
20
14.229076
30
0
11
233.49468
21
14.374104
31
0
39
0
210
0
220
0
230
1
0
LINE
5
9B
100
AcDbEntity
8
1
62
256
6
ByLayer
370
-1
48
1
60
0
100
AcDbLine
10
230.512126
20
23.065343
30
0
11
230.906728
21
11.722257
31
0
39
0
210
0
220
0
230
1
0
LINE
5
9C
100
AcDbEntity
8
1
62
256
6
ByLayer
370
-1
48
1
60
0
100
AcDbLine
10
242.205636
20
24.976999
30
0
11
230.905714
21
24.58089
31
0
39
0
210
0
220
0
230
1
0
LINE
5
9D
100
AcDbEntity
8
1
62
256
6
ByLayer
370
-1
48
1
60
0
100
AcDbLine
10
243.072372
20
12.148713
30
0
11
242.67777
21
23.491799
31
0
39
0
210
0
220
0
230
1
0
LINE
5
9E
100
AcDbEntity
8
1
62
256
6
ByLayer
370
-1
48
1
60
0
100
AcDbLine
10
232.938891
20
14.187598
30
0
11
232.925295
21
14.200325
31
0
39
0
210
0
220
0
230
1
0
LINE
5
9F
100
AcDbEntity
8
1
62
256
6
ByLayer
370
-1
48
1
60
0
100
AcDbLine
10
242.6805
20
11.310126
30
0
11
231.380578
21
10.914017
31
0
39
0
210
0
220
0
230
1
0
LINE
5
A0
100
AcDbEntity
8
1
62
256
6
ByLayer
370
-1
48
1
60
0
100
AcDbLine
10
233.275539
20
21.255485
30
0
11
233.281482
21
21.233478
31
0
39
0
210
0
220
0
230
1
0
LINE
5
A1
100
AcDbEntity
8
1
62
256
6
ByLayer
370
-1
48
1
60
0
100
AcDbLine
10
242.223068
20
23.655196
30
0
11
230.923146
21
23.259086
31
0
39
0
210
0
220
0
230
1
0
LINE
5
A2
100
AcDbEntity
8
1
62
256
6
ByLayer
370
-1
48
1
60
0
100
AcDbLine
10
230.779231
20
23.075281
30
0
11
231.173833
21
11.732196
31
0
39
0
210
0
220
0
230
1
0
LINE
5
A3
100
AcDbEntity
8
1
62
256
6
ByLayer
370
-1
48
1
60
0
100
AcDbLine
10
232.905944
20
20.857629
30
0
11
233.486588
21
20.314101
31
0
39
0
210
0
220
0
230
1
0
LINE
5
A4
100
AcDbEntity
8
1
62
256
6
ByLayer
370
-1
48
1
60
0
100
AcDbLine
10
242.228608
20
24.30004
30
0
11
230.928686
21
23.90393
31
0
39
0
210
0
220
0
230
1
0
LINE
5
A5
100
AcDbEntity
8
1
62
256
6
ByLayer
370
-1
48
1
60
0
100
AcDbLine
10
242.630094
20
11.95497
30
0
11
231.330172
21
11.558861
31
0
39
0
210
0
220
0
230
1
0
LINE
5
A6
100
AcDbEntity
8
1
62
256
6
ByLayer
370
-1
48
1
60
0
100
AcDbLine
10
241.432141
20
12.961981
30
0
11
238.445377
21
12.857282
31
0
39
0
210
0
220
0
230
1
0
LINE
5
A7
100
AcDbEntity
8
1
62
256
6
ByLayer
370
-1
48
1
60
0
100
AcDbLine
10
243.472136
20
12.162294
30
0
11
243.077534
21
23.50538
31
0
39
0
210
0
220
0
230
1
0
LINE
5
A8
100
AcDbEntity
8
1
62
256
6
ByLayer
370
-1
48
1
60
0
100
AcDbLine
10
233.275539
20
21.255485
30
0
11
233.856183
21
20.711957
31
0
39
0
210
0
220
0
230
1
0
LINE
5
A9
100
AcDbEntity
8
1
62
256
6
ByLayer
370
-1
48
1
60
0
100
AcDbLine
10
231.411993
20
9.788618
30
0
11
242.711915
21
10.184728
31
0
39
0
210
0
220
0
230
1
0
LINE
5
AA
100
AcDbEntity
8
1
62
256
6
ByLayer
370
-1
48
1
60
0
100
AcDbLine
10
230.13705
20
23.051762
30
0
11
230.531652
21
11.708676
31
0
39
0
210
0
220
0
230
1
0
LINE
5
AB
100
AcDbEntity
8
1
62
256
6
ByLayer
370
-1
48
1
60
0
100
AcDbLine
10
242.229793
20
23.91114
30
0
11
230.929871
21
23.515031
31
0
39
0
210
0
220
0
230
1
0
LINE
5
AC
100
AcDbEntity
8
1
62
256
6
ByLayer
370
-1
48
1
60
0
100
AcDbLine
10
232.693492
20
14.409017
30
0
11
233.168165
21
14.919985
31
0
39
0
210
0
220
0
230
1
0
LINE
5
AD
100
AcDbEntity
8
1
62
256
6
ByLayer
370
-1
48
1
60
0
100
AcDbLine
10
243.761737
20
10.121441
30
0
11
231.416232
21
9.688679
31
0
39
0
210
0
220
0
230
1
0
LINE
5
AE
100
AcDbEntity
8
1
62
256
6
ByLayer
370
-1
48
1
60
0
100
AcDbLine
10
244.147097
20
12.185934
30
0
11
243.752495
21
23.52902
31
0
39
0
210
0
220
0
230
1
0
LINE
5
AF
100
AcDbEntity
8
1
62
256
6
ByLayer
370
-1
48
1
60
0
100
AcDbLine
10
232.721216
20
13.990179
30
0
11
233.092787
21
13.64236
31
0
39
0
210
0
220
0
230
1
0
LINE
5
B0
100
AcDbEntity
8
1
62
256
6
ByLayer
370
-1
48
1
60
0
100
AcDbLine
10
229.833504
20
25.092616
30
0
11
242.179009
21
25.525377
31
0
39
0
210
0
220
0
230
1
0
LINE
5
B1
100
AcDbEntity
8
1
62
256
6
ByLayer
370
-1
48
1
60
0
100
AcDbLine
10
242.223277
20
23.626534
30
0
11
230.923355
21
23.230425
31
0
39
0
210
0
220
0
230
1
0
LINE
5
B2
100
AcDbEntity
8
1
62
256
6
ByLayer
370
-1
48
1
60
0
100
AcDbLine
10
242.654627
20
11.699025
30
0
11
231.354705
21
11.302916
31
0
39
0
210
0
220
0
230
1
0
LINE
5
B3
100
AcDbEntity
8
1
62
256
6
ByLayer
370
-1
48
1
60
0
100
AcDbLine
10
241.616087
20
16.27044
30
0
11
241.720387
21
13.272268
31
0
39
0
210
0
220
0
230
1
0
LINE
5
B4
100
AcDbEntity
8
1
62
256
6
ByLayer
370
-1
48
1
60
0
100
AcDbLine
10
242.704627
20
10.633166
30
0
11
231.404705
21
10.237057
31
0
39
0
210
0
220
0
230
1
0
LINE
5
B5
100
AcDbEntity
8
1
62
256
6
ByLayer
370
-1
48
1
60
0
100
AcDbLine
10
241.511425
20
19.279014
30
0
11
241.407125
21
22.277187
31
0
39
0
210
0
220
0
230
1
0
LINE
5
B6
100
AcDbEntity
8
1
62
256
6
ByLayer
370
-1
48
1
60
0
100
AcDbLine
10
241.899975
20
13.278701
30
0
11
241.795675
21
16.276873
31
0
39
0
210
0
220
0
230
1
0
LINE
5
B7
100
AcDbEntity
8
1
62
256
6
ByLayer
370
-1
48
1
60
0
100
AcDbLine
10
242.801772
20
12.139776
30
0
11
242.40717
21
23.482862
31
0
39
0
210
0
220
0
230
1
0
LINE
5
B8
100
AcDbEntity
8
1
62
256
6
ByLayer
370
-1
48
1
60
0
100
AcDbLine
10
232.407436
20
22.13103
30
0
11
232.564584
21
21.549081
31
0
39
0
210
0
220
0
230
1
0
LINE
5
B9
100
AcDbEntity
8
1
62
256
6
ByLayer
370
-1
48
1
60
0
100
AcDbLine
10
242.694205
20
10.987032
30
0
11
231.394283
21
10.590922
31
0
39
0
210
0
220
0
230
1
0
LINE
5
BA
100
AcDbEntity
8
1
62
256
6
ByLayer
370
-1
48
1
60
0
100
AcDbLine
10
233.359953
20
14.229076
30
0
11
233.508582
21
14.089948
31
0
39
0
210
0
220
0
230
1
0
LINE
5
BB
100
AcDbEntity
8
1
62
256
6
ByLayer
370
-1
48
1
60
0
100
AcDbLine
10
242.219834
20
24.623134
30
0
11
230.919911
21
24.227025
31
0
39
0
210
0
220
0
230
1
0
LINE
5
BC
100
AcDbEntity
8
1
62
256
6
ByLayer
370
-1
48
1
60
0
100
AcDbLine
10
244.585516
20
12.201594
30
0
11
244.190914
21
23.54468
31
0
39
0
210
0
220
0
230
1
0
LINE
5
BD
100
AcDbEntity
8
1
62
256
6
ByLayer
370
-1
48
1
60
0
100
AcDbLine
10
232.693492
20
14.409017
30
0
11
232.693907
21
14.408628
31
0
39
0
210
0
220
0
230
1
0
LINE
5
BE
100
AcDbEntity
8
1
62
256
6
ByLayer
370
-1
48
1
60
0
100
AcDbLine
10
232.909551
20
22.434883
30
0
11
234.271978
21
21.159546
31
0
39
0
210
0
220
0
230
1
0
LINE
5
BF
100
AcDbEntity
8
1
62
256
6
ByLayer
370
-1
48
1
60
0
100
AcDbLine
10
243.796466
20
12.173577
30
0
11
243.401864
21
23.516663
31
0
39
0
210
0
220
0
230
1
0
LINE
5
C0
100
AcDbEntity
8
1
62
256
6
ByLayer
370
-1
48
1
60
0
100
AcDbLine
10
231.708366
20
21.141849
30
0
11
233.070793
21
19.866512
31
0
39
0
210
0
220
0
230
1
0
LINE
5
C1
100
AcDbEntity
8
1
62
256
6
ByLayer
370
-1
48
1
60
0
100
AcDbLine
10
241.691013
20
19.285447
30
0
11
241.586713
21
22.283619
31
0
39
0
210
0
220
0
230
1
0
LINE
5
C2
100
AcDbEntity
8
1
62
256
6
ByLayer
370
-1
48
1
60
0
100
AcDbLine
10
242.772432
20
12.138775
30
0
11
242.37783
21
23.481861
31
0
39
0
210
0
220
0
230
1
0
LINE
5
C3
100
AcDbEntity
8
1
62
256
6
ByLayer
370
-1
48
1
60
0
100
AcDbLine
10
229.817651
20
23.040479
30
0
11
230.212253
21
11.697394
31
0
39
0
210
0
220
0
230
1
0
LINE
5
C4
100
AcDbEntity
8
1
62
256
6
ByLayer
370
-1
48
1
60
0
100
AcDbLine
10
244.254723
20
24.597746
30
0
11
244.685838
21
12.205084
31
0
39
0
210
0
220
0
230
1
0
LINE
5
C5
100
AcDbEntity
8
1
62
256
6
ByLayer
370
-1
48
1
60
0
100
AcDbLine
10
243.951839
20
-11.323037
30
0
11
244.674486
21
-11.494699
31
0
39
0
210
0
220
0
230
1
0
LINE
5
C6
100
AcDbEntity
8
1
62
256
6
ByLayer
370
-1
48
1
60
0
100
AcDbLine
10
244.374153
20
-13.290009
30
0
11
243.221291
21
-13.708594
31
0
39
0
210
0
220
0
230
1
0
LINE
5
C7
100
AcDbEntity
8
1
62
256
6
ByLayer
370
-1
48
1
60
0
100
AcDbLine
10
244.528525
20
-7.562087
30
0
11
244.271031
21
-7.42906
31
0
39
0
210
0
220
0
230
1
0
LINE
5
C8
100
AcDbEntity
8
1
62
256
6
ByLayer
370
-1
48
1
60
0
100
AcDbLine
10
244.528525
20
-7.562087
30
0
11
244.248628
21
-2.234341
31
0
39
0
210
0
220
0
230
1
0
LINE
5
C9
100
AcDbEntity
8
1
62
256
6
ByLayer
370
-1
48
1
60
0
100
AcDbLine
10
244.019175
20
-9.399484
30
0
11
244.741822
21
-9.571147
31
0
39
0
210
0
220
0
230
1
0
LINE
5
CA
100
AcDbEntity
8
1
62
256
6
ByLayer
370
-1
48
1
60
0
100
AcDbLine
10
243.548934
20
-7.320323
30
0
11
244.271031
21
-7.42906
31
0
39
0
210
0
220
0
230
1
0
LINE
5
CB
100
AcDbEntity
8
1
62
256
6
ByLayer
370
-1
48
1
60
0
100
AcDbLine
10
242.748542
20
-0.627306
30
0
11
243.428022
21
-0.527086
31
0
39
0
210
0
220
0
230
1
0
LINE
5
CC
100
AcDbEntity
8
1
62
256
6
ByLayer
370
-1
48
1
60
0
100
AcDbLine
10
244.003373
20
-2.334287
30
0
11
244.271031
21
-7.42906
31
0
39
0
210
0
220
0
230
1
0
LINE
5
CD
100
AcDbEntity
8
1
62
256
6
ByLayer
370
-1
48
1
60
0
100
AcDbLine
10
244.20714
20
-13.071732
30
0
11
244.374153
21
-13.290009
31
0
39
0
210
0
220
0
230
1
0
LINE
5
CE
100
AcDbEntity
8
1
62
256
6
ByLayer
370
-1
48
1
60
0
100
AcDbLine
10
243.355464
20
0.27735
30
0
11
244.219159
21
-2.089851
31
0
39
0
210
0
220
0
230
1
0
LINE
5
CF
100
AcDbEntity
8
1
62
256
6
ByLayer
370
-1
48
1
60
0
100
AcDbLine
10
243.217396
20
-1.912333
30
0
11
243.896876
21
-1.812114
31
0
39
0
210
0
220
0
230
1
0
LINE
5
D0
100
AcDbEntity
8
1
62
256
6
ByLayer
370
-1
48
1
60
0
100
AcDbLine
10
243.998964
20
-2.141856
30
0
11
244.248628
21
-2.234341
31
0
39
0
210
0
220
0
230
1
0
LINE
5
D1
100
AcDbEntity
8
1
62
256
6
ByLayer
370
-1
48
1
60
0
100
AcDbLine
10
242.981687
20
-2.241212
30
0
11
243.249345
21
-7.335985
31
0
39
0
210
0
220
0
230
1
0
LINE
5
D2
100
AcDbEntity
8
1
62
256
6
ByLayer
370
-1
48
1
60
0
100
AcDbLine
10
244.741822
20
-9.571147
30
0
11
244.674486
21
-11.494699
31
0
39
0
210
0
220
0
230
1
0
LINE
5
D3
100
AcDbEntity
8
1
62
256
6
ByLayer
370
-1
48
1
60
0
100
AcDbLine
10
244.019175
20
-9.399484
30
0
11
243.951839
21
-11.323037
31
0
39
0
210
0
220
0
230
1
0
LINE
5
D4
100
AcDbEntity
8
1
62
256
6
ByLayer
370
-1
48
1
60
0
100
AcDbLine
10
243.652021
20
-11.312592
30
0
11
243.719357
21
-9.38904
31
0
39
0
210
0
220
0
230
1
0
LINE
5
D5
100
AcDbEntity
8
1
62
256
6
ByLayer
370
-1
48
1
60
0
100
AcDbLine
10
244.999513
20
-9.726612
30
0
11
244.741822
21
-9.571147
31
0
39
0
210
0
220
0
230
1
0
LINE
5
D6
100
AcDbEntity
8
1
62
256
6
ByLayer
370
-1
48
1
60
0
100
AcDbLine
10
243.234123
20
0.207976
30
0
11
243.355464
21
0.27735
31
0
39
0
210
0
220
0
230
1
0
LINE
5
D7
100
AcDbEntity
8
1
62
256
6
ByLayer
370
-1
48
1
60
0
100
AcDbLine
10
243.428022
20
-0.527086
30
0
11
243.896876
21
-1.812114
31
0
39
0
210
0
220
0
230
1
0
LINE
5
D8
100
AcDbEntity
8
1
62
256
6
ByLayer
370
-1
48
1
60
0
100
AcDbLine
10
244.999513
20
-9.726612
30
0
11
244.900049
21
-12.567938
31
0
39
0
210
0
220
0
230
1
0
LINE
5
D9
100
AcDbEntity
8
1
62
256
6
ByLayer
370
-1
48
1
60
0
100
AcDbLine
10
243.230515
20
-12.581309
30
0
11
243.420906
21
-13.215902
31
0
39
0
210
0
220
0
230
1
0
LINE
5
DA
100
AcDbEntity
8
1
62
256
6
ByLayer
370
-1
48
1
60
0
100
AcDbLine
10
242.748542
20
-0.627306
30
0
11
243.217396
21
-1.912333
31
0
39
0
210
0
220
0
230
1
0
LINE
5
DB
100
AcDbEntity
8
1
62
256
6
ByLayer
370
-1
48
1
60
0
100
AcDbLine
10
244.733037
20
-12.349661
30
0
11
244.900049
21
-12.567938
31
0
39
0
210
0
220
0
230
1
0
LINE
5
DC
100
AcDbEntity
8
1
62
256
6
ByLayer
370
-1
48
1
60
0
100
AcDbLine
10
243.281276
20
-2.225549
30
0
11
244.003373
21
-2.334287
31
0
39
0
210
0
220
0
230
1
0
LINE
5
DD
100
AcDbEntity
8
1
62
256
6
ByLayer
370
-1
48
1
60
0
100
AcDbLine
10
243.969495
20
-1.997367
30
0
11
244.219159
21
-2.089851
31
0
39
0
210
0
220
0
230
1
0
LINE
5
DE
100
AcDbEntity
8
1
62
256
6
ByLayer
370
-1
48
1
60
0
100
AcDbLine
10
243.548934
20
-7.320323
30
0
11
243.281276
21
-2.225549
31
0
39
0
210
0
220
0
230
1
0
LINE
5
DF
100
AcDbEntity
8
1
62
256
6
ByLayer
370
-1
48
1
60
0
100
AcDbLine
10
243.88846
20
-8.729551
30
0
11
244.548886
21
-8.582319
31
0
39
0
210
0
220
0
230
1
0
LINE
5
E0
100
AcDbEntity
8
1
62
256
6
ByLayer
370
-1
48
1
60
0
100
AcDbLine
10
244.784389
20
-8.624069
30
0
11
244.548886
21
-8.582319
31
0
39
0
210
0
220
0
230
1
0
LINE
5
E1
100
AcDbEntity
8
1
62
256
6
ByLayer
370
-1
48
1
60
0
100
AcDbLine
10
243.420906
20
-13.215902
30
0
11
243.183179
21
-13.302217
31
0
39
0
210
0
220
0
230
1
0
LINE
5
E2
100
AcDbEntity
8
1
62
256
6
ByLayer
370
-1
48
1
60
0
100
AcDbLine
10
242.935488
20
-2.014689
30
0
11
242.679633
21
-1.313446
31
0
39
0
210
0
220
0
230
1
0
LINE
5
E3
100
AcDbEntity
8
SK1
62
256
6
ByLayer
370
-1
48
1
60
0
100
AcDbLine
10
-78.516223
20
-10.425829
30
0
11
-78.516223
21
-24.892544
31
0
39
0
210
0
220
0
230
1
0
LINE
5
E4
100
AcDbEntity
8
SK1
62
256
6
ByLayer
370
-1
48
1
60
0
100
AcDbLine
10
-78.516223
20
24.892544
30
0
11
-78.516223
21
10.425829
31
0
39
0
210
0
220
0
230
1
0
LINE
5
E5
100
AcDbEntity
8
SK1
62
256
6
ByLayer
370
-1
48
1
60
0
100
AcDbLine
10
-78.6
20
-10.670483
30
0
11
-79
21
-10.670483
31
0
39
0
210
0
220
0
230
1
0
LINE
5
E6
100
AcDbEntity
8
SK1
62
256
6
ByLayer
370
-1
48
1
60
0
100
AcDbLine
10
-6.5
20
-10.670483
30
0
11
-76.6
21
-10.670483
31
0
39
0
210
0
220
0
230
1
0
LINE
5
E7
100
AcDbEntity
8
SK1
62
256
6
ByLayer
370
-1
48
1
60
0
100
AcDbLine
10
-79
20
-10.670483
30
0
11
-79
21
-24.996
31
0
39
0
210
0
220
0
230
1
0
LINE
5
E8
100
AcDbEntity
8
SK1
62
256
6
ByLayer
370
-1
48
1
60
0
100
AcDbLine
10
-79
20
24.996
30
0
11
-79
21
10.670483
31
0
39
0
210
0
220
0
230
1
0
LINE
5
E9
100
AcDbEntity
8
SK1
62
256
6
ByLayer
370
-1
48
1
60
0
100
AcDbLine
10
-79
20
10.670483
30
0
11
-78.6
21
10.670483
31
0
39
0
210
0
220
0
230
1
0
LINE
5
EA
100
AcDbEntity
8
SK1
62
256
6
ByLayer
370
-1
48
1
60
0
100
AcDbLine
10
-1.383773
20
24.75
30
0
11
-1.383773
21
-24.75
31
0
39
0
210
0
220
0
230
1
0
LINE
5
EB
100
AcDbEntity
8
SK1
62
256
6
ByLayer
370
-1
48
1
60
0
100
AcDbLine
10
-77.633814
20
-9.806751
30
0
11
-77.633814
21
-24.639667
31
0
39
0
210
0
220
0
230
1
0
LINE
5
EC
100
AcDbEntity
8
SK1
62
256
6
ByLayer
370
-1
48
1
60
0
100
AcDbLine
10
-77.633814
20
24.639667
30
0
11
-77.633814
21
9.806751
31
0
39
0
210
0
220
0
230
1
0
LINE
5
ED
100
AcDbEntity
8
SK1
62
256
6
ByLayer
370
-1
48
1
60
0
100
AcDbLine
10
-0.15
20
24.75
30
0
11
-0.15
21
-24.75
31
0
39
0
210
0
220
0
230
1
0
LINE
5
EE
100
AcDbEntity
8
SK1
62
256
6
ByLayer
370
-1
48
1
60
0
100
AcDbLine
10
-1.552821
20
24.787477
30
0
11
-1.552821
21
-24.787477
31
0
39
0
210
0
220
0
230
1
0
LINE
5
EF
100
AcDbEntity
8
SK1
62
256
6
ByLayer
370
-1
48
1
60
0
100
AcDbLine
10
-80
20
8.054018
30
0
11
-80
21
-8.054018
31
0
39
0
210
0
220
0
230
1
0
LINE
5
F0
100
AcDbEntity
8
SK1
62
256
6
ByLayer
370
-1
48
1
60
0
100
AcDbLine
10
-80
20
-8.054018
30
0
11
-80
21
-23.996
31
0
39
0
210
0
220
0
230
1
0
LINE
5
F1
100
AcDbEntity
8
SK1
62
256
6
ByLayer
370
-1
48
1
60
0
100
AcDbLine
10
-80
20
23.996
30
0
11
-80
21
8.054018
31
0
39
0
210
0
220
0
230
1
0
LINE
5
F2
100
AcDbEntity
8
SK1
62
256
6
ByLayer
370
-1
48
1
60
0
100
AcDbLine
10
-6.5
20
10.670483
30
0
11
-6.5
21
-10.670483
31
0
39
0
210
0
220
0
230
1
0
LINE
5
F3
100
AcDbEntity
8
SK1
62
256
6
ByLayer
370
-1
48
1
60
0
100
AcDbLine
10
-78.6
20
-24.996
30
0
11
-78.6
21
-10.670483
31
0
39
0
210
0
220
0
230
1
0
LINE
5
F4
100
AcDbEntity
8
SK1
62
256
6
ByLayer
370
-1
48
1
60
0
100
AcDbLine
10
-78.6
20
10.670483
30
0
11
-78.6
21
24.996
31
0
39
0
210
0
220
0
230
1
0
LINE
5
F5
100
AcDbEntity
8
SK1
62
256
6
ByLayer
370
-1
48
1
60
0
100
AcDbLine
10
-76.6
20
10.670483
30
0
11
-76.6
21
24.996
31
0
39
0
210
0
220
0
230
1
0
LINE
5
F6
100
AcDbEntity
8
SK1
62
256
6
ByLayer
370
-1
48
1
60
0
100
AcDbLine
10
-76.6
20
-24.996
30
0
11
-76.6
21
-10.670483
31
0
39
0
210
0
220
0
230
1
0
LINE
5
F7
100
AcDbEntity
8
SK1
62
256
6
ByLayer
370
-1
48
1
60
0
100
AcDbLine
10
-76.6
20
10.670483
30
0
11
-6.5
21
10.670483
31
0
39
0
210
0
220
0
230
1
0
LINE
5
F8
100
AcDbEntity
8
SK1
62
256
6
ByLayer
370
-1
48
1
60
0
100
AcDbLine
10
-2
20
-24.996
30
0
11
-2
21
24.996
31
0
39
0
210
0
220
0
230
1
0
MTEXT
5
281
100
AcDbEntity
8
SK6
62
256
6
ByLayer
370
-1
48
1
60
0
100
AcDbMText
10
0.79375
20
-80.79375
30
0
210
0
220
0
230
1
1
\W00.728;\fsimplex.shx,bigfont.shx;880-D5100L50-04 
40
3.175
41
0
44
1.084337
50
0
71
7
72
5
7
DEFAULT
0
DIMENSION
5
2B1
100
AcDbEntity
8
SK2
62
256
6
ByLayer
370
-3
48
1
60
0
100
AcDbDimension
2
DimnDraft3D1
10
245
20
-70.11955
30
0
11
82.5
21
-70.11955
31
0
70
32
71
5
72
1
41
1
210
0
220
0
230
1
3
Standard
100
AcDbAlignedDimension
13
-80
23
-26.5875
33
0
14
245
24
-27.0875
34
0
50
0
100
AcDbRotatedDimension
1001
ACAD
1000
DSTYLE
1002
{
1070
   279
1070
     0
1070
   172
1070
     1
1070
   173
1070
     1
1070
   340
1005
282
1070
   271
1070
     1
1070
   272
1070
     2
1070
    77
1070
     1
1070
    73
1070
     0
1070
   171
1070
     3
1070
   274
1070
     4
1070
   177
1070
   150
1070
   176
1070
     9
1070
   178
1070
    43
1070
    78
1070
     8
1070
    48
1040
-0.005
1070
    41
1041
4.175
1070
   147
1041
2.25
1070
    42
1041
1.5875
1070
    44
1041
3.175
1070
   140
1041
4.5
1070
   343
1005
0
1070
   344
1005
0
1002
}
0
DIMENSION
5
2BB
100
AcDbEntity
8
SK2
62
256
6
ByLayer
370
-3
48
1
60
0
100
AcDbDimension
2
DimnDraft3D2
10
0
20
-58.1508
30
0
11
-40
21
-58.1508
31
0
70
32
71
5
72
1
41
1
210
0
220
0
230
1
3
Standard
100
AcDbAlignedDimension
13
-80
23
-26.5875
33
0
14
0
24
-32.8375
34
0
50
0
100
AcDbRotatedDimension
1001
ACAD
1000
DSTYLE
1002
{
1070
   279
1070
     0
1070
   172
1070
     1
1070
   173
1070
     1
1070
   340
1005
282
1070
   271
1070
     1
1070
   272
1070
     2
1070
    77
1070
     1
1070
    73
1070
     0
1070
   171
1070
     3
1070
   274
1070
     4
1070
   177
1070
   150
1070
   176
1070
     9
1070
   178
1070
    43
1070
    78
1070
     8
1070
    48
1040
-0.005
1070
    41
1041
4.175
1070
   147
1041
2.25
1070
    42
1041
1.5875
1070
    44
1041
3.175
1070
   140
1041
4.5
1070
   343
1005
0
1070
   344
1005
0
1002
}
0
DIMENSION
5
2C6
100
AcDbEntity
8
2
62
256
6
ByLayer
370
-3
48
1
60
0
100
AcDbDimension
2
DimnDraft3D3
10
245
20
-58.1508
30
0
11
122.5
21
-58.1508
31
0
70
32
71
5
72
1
41
1
210
0
220
0
230
1
3
Standard
100
AcDbAlignedDimension
13
0
23
-32.8375
33
0
14
245
24
-27.0875
34
0
50
0
100
AcDbRotatedDimension
1001
ACAD
1000
DSTYLE
1002
{
1070
   279
1070
     0
1070
   172
1070
     1
1070
   173
1070
     1
1070
   340
1005
282
1070
   271
1070
     1
1070
   272
1070
     2
1070
    77
1070
     1
1070
    73
1070
     0
1070
   171
1070
     3
1070
   274
1070
     4
1070
   177
1070
   150
1070
   176
1070
     9
1070
   178
1070
    43
1070
    78
1070
     8
1070
    48
1040
-0.005
1070
    41
1041
4.175
1070
   147
1041
2.25
1070
    42
1041
1.5875
1070
    44
1041
3.175
1070
   140
1041
4.5
1070
   343
1005
0
1070
   344
1005
0
1002
}
0
DIMENSION
5
2D0
100
AcDbEntity
8
SK2
62
256
6
ByLayer
370
-3
48
1
60
0
100
AcDbDimension
2
DimnDraft3D4
10
245
20
-48.1508
30
0
11
140.5
21
-48.1508
31
0
70
32
71
5
72
1
41
1
210
0
220
0
230
1
3
Standard
100
AcDbAlignedDimension
13
36
23
-11.5875
33
0
14
245
24
-27.0875
34
0
50
0
100
AcDbRotatedDimension
1001
ACAD
1000
DSTYLE
1002
{
1070
   279
1070
     0
1070
   172
1070
     1
1070
   173
1070
     1
1070
   340
1005
282
1070
   271
1070
     1
1070
   272
1070
     2
1070
    77
1070
     1
1070
    73
1070
     0
1070
   171
1070
     3
1070
   274
1070
     4
1070
   177
1070
   150
1070
   176
1070
     9
1070
   178
1070
    43
1070
    78
1070
     8
1070
    48
1040
-0.005
1070
    41
1041
4.175
1070
   147
1041
2.25
1070
    42
1041
1.5875
1070
    44
1041
3.175
1070
   140
1041
4.5
1070
   343
1005
0
1070
   344
1005
0
1002
}
0
DIMENSION
5
2DB
100
AcDbEntity
8
SK2
62
256
6
ByLayer
370
-3
48
1
60
0
100
AcDbDimension
2
DimnDraft3D5
10
-91.9
20
-25
30
0
11
-92.1
21
4.121053
31
0
70
33
71
5
72
1
41
1
210
0
220
0
230
1
3
Standard
100
AcDbAlignedDimension
13
-81.5875
23
25
33
0
14
-81.5875
24
-25
34
0
1001
ACAD
1000
DSTYLE
1002
{
1070
   279
1070
     0
1070
    74
1070
     0
1070
   173
1070
     1
1070
   340
1005
282
1070
   271
1070
     2
1070
   272
1070
     2
1070
    77
1070
     1
1070
    73
1070
     0
1070
   171
1070
     3
1070
   274
1070
     4
1070
   177
1070
   150
1070
   176
1070
     9
1070
   178
1070
    43
1070
    78
1070
     8
1070
    48
1040
-0.005
1070
    41
1041
4.175
1070
   147
1041
2.25
1070
    42
1041
1.5875
1070
    44
1041
3.175
1070
   140
1041
4.5
1070
   343
1005
0
1070
   344
1005
0
1002
}
0
DIMENSION
5
2E6
100
AcDbEntity
8
SK2
62
256
6
ByLayer
370
-3
48
1
60
0
100
AcDbDimension
2
DimnDraft3D6
10
-101.9
20
31.25
30
0
11
-102.1
21
1.586842
31
0
70
33
71
5
72
1
41
1
210
0
220
0
230
1
3
Standard
100
AcDbAlignedDimension
13
-1.5875
23
-31.25
33
0
14
-1.5875
24
31.25
34
0
1001
ACAD
1000
DSTYLE
1002
{
1070
   279
1070
     0
1070
    74
1070
     0
1070
   173
1070
     1
1070
   340
1005
282
1070
   271
1070
     1
1070
   272
1070
     2
1070
    77
1070
     1
1070
    73
1070
     0
1070
   171
1070
     3
1070
   274
1070
     4
1070
   177
1070
   150
1070
   176
1070
     9
1070
   178
1070
    43
1070
    78
1070
     8
1070
    48
1040
-0.005
1070
    41
1041
4.175
1070
   147
1041
2.25
1070
    42
1041
1.5875
1070
    44
1041
3.175
1070
   140
1041
4.5
1070
   343
1005
0
1070
   344
1005
0
1002
}
0
DIMENSION
5
2F1
100
AcDbEntity
8
2
62
256
6
ByLayer
370
-3
48
1
60
0
100
AcDbDimension
2
DimnDraft3D7
10
275.15
20
-25.5
30
0
11
268.6
21
4.683553
31
0
70
33
71
5
72
1
41
1
210
0
220
0
230
1
3
Standard
100
AcDbAlignedDimension
13
246.5875
23
25.5
33
0
14
246.5875
24
-25.5
34
0
1001
ACAD
1000
DSTYLE
1002
{
1070
   279
1070
     0
1070
    74
1070
     0
1070
   173
1070
     1
1070
   340
1005
282
1070
   271
1070
     2
1070
   272
1070
     2
1070
    77
1070
     1
1070
    73
1070
     0
1070
   171
1070
     3
1070
   274
1070
     4
1070
   177
1070
   150
1070
   176
1070
     9
1070
   178
1070
    43
1070
    78
1070
     8
1070
    48
1040
-0.005
1070
    41
1041
4.175
1070
   147
1041
2.25
1070
    42
1041
1.5875
1070
    44
1041
3.175
1070
   140
1041
4.5
1070
   343
1005
0
1070
   344
1005
0
1002
}
0
ENDSEC
0
SECTION
2
OBJECTS
0
DICTIONARY
5
322
330
0
100
AcDbDictionary
280
0
281
1
3
ACAD_GROUP
350
323
3
ACAD_MLINESTYLE
350
324
0
DICTIONARY
5
323
330
0
100
AcDbDictionary
280
0
281
1
0
DICTIONARY
5
324
330
0
100
AcDbDictionary
280
0
281
1
3
Standard
350
18
0
MLINESTYLE
5
18
330
324
100
AcDbMlineStyle
2
Standard
70
0
3

62
256
51
90
52
90
71
2
49
-0.5
62
256
6
ByLayer
49
0.5
62
256
6
ByLayer
0
RASTERVARIABLES
5
310
330

100
AcDbRasterVariables
90
0
70
1
71
1
72
1
0
ENDSEC
0
EOF
