0
SECTION
2
HEADER
9
$ACADVER
1
AC1015
9
$DWGCODEPAGE
3
ANSI_1252
9
$HANDSEED
5
31e
9
$ANGBASE
50
0
9
$ANGDIR
70
0
9
$ATTMODE
70
1
9
$AUNITS
70
0
9
$AUPREC
70
0
9
$CECOLOR
62
256
9
$CELTSCALE
40
1
9
$CELTYPE
6
ByLayer
9
$CELWEIGHT
370
-1
9
$CLAYER
8
0
9
$CMLJUST
70
0
9
$CMLSCALE
40
1
9
$CMLSTYLE
2
Standard
9
$DIMSTYLE
2
Standard
9
$TEXTSIZE
40
0.2
9
$TEXTSTYLE
7
Standard
9
$LUNITS
70
2
9
$LUPREC
70
4
9
$EXTNAMES
290
1
9
$INSUNITS
70
4
9
$LTSCALE
40
1
9
$LWDISPLAY
290
0
9
$PDMODE
70
0
9
$PDSIZE
40
0
9
$PLINEGEN
70
0
0
ENDSEC
0
SECTION
2
CLASSES
0
CLASS
1
RASTERVARIABLES
2
AcDbRasterVariables
3
ISM
90
0
280
0
281
0
0
ENDSEC
0
SECTION
2
TABLES
0
TABLE
2
VPORT
5
314
100
AcDbSymbolTable
0
VPORT
5
1
100
AcDbSymbolTableRecord
100
AcDbViewportTableRecord
2
*Active
70
0
10
0
20
0
11
1
21
1
12
-1
22
1
13
0
23
0
14
0.5
24
0.5
15
10
25
10
16
0
26
0
36
1
17
0
27
0
37
0
0
ENDTAB
0
TABLE
2
LTYPE
5
315
100
AcDbSymbolTable
0
LTYPE
5
14
100
AcDbSymbolTableRecord
100
AcDbLinetypeTableRecord
70
0
2
ByBlock
3

72
65
73
0
40
0
0
LTYPE
5
15
100
AcDbSymbolTableRecord
100
AcDbLinetypeTableRecord
70
0
2
ByLayer
3

72
65
73
0
40
0
0
LTYPE
5
16
100
AcDbSymbolTableRecord
100
AcDbLinetypeTableRecord
70
0
2
CONTINUOUS
3
Solid line
72
65
73
0
40
0
0
LTYPE
5
3B
100
AcDbSymbolTableRecord
100
AcDbLinetypeTableRecord
70
0
2
DASHED
3
__ __ __ __ __ __ __ __ __
72
65
73
2
40
25.72
49
12.86
74
0
49
-12.86
74
0
0
LTYPE
5
3C
100
AcDbSymbolTableRecord
100
AcDbLinetypeTableRecord
70
0
2
HIDDEN
3
_ _ _ _ _ _ _ _ _ _ _ _ _ _ _
72
65
73
2
40
0.5
49
0.25
74
0
49
-0.25
74
0
0
LTYPE
5
3D
100
AcDbSymbolTableRecord
100
AcDbLinetypeTableRecord
70
0
2
PHANTOM
3
____ _ _ ____ _ _ _____ _ _ ____
72
65
73
6
40
50.5
49
18
74
0
49
-6.5
74
0
49
6.5
74
0
49
-6.5
74
0
49
6.5
74
0
49
-6.5
74
0
0
LTYPE
5
3E
100
AcDbSymbolTableRecord
100
AcDbLinetypeTableRecord
70
0
2
CENTER
3
____ _ ____ _ ____ _ ____
72
65
73
4
40
47.5
49
22
74
0
49
-8.5
74
0
49
8.5
74
0
49
-8.5
74
0
0
LTYPE
5
3F
100
AcDbSymbolTableRecord
100
AcDbLinetypeTableRecord
70
0
2
DOT
3
.........................
72
65
73
2
40
10
49
0
74
0
49
-10
74
0
0
LTYPE
5
40
100
AcDbSymbolTableRecord
100
AcDbLinetypeTableRecord
70
0
2
DASHDOT
3
_._._._._._._._._._._._._._._._.
72
65
73
4
40
70
49
31
74
0
49
-13
74
0
49
13
74
0
49
-13
74
0
0
ENDTAB
0
TABLE
2
LAYER
5
316
100
AcDbSymbolTable
0
LAYER
5
10
100
AcDbSymbolTableRecord
100
AcDbLayerTableRecord
2
0
70
0
62
7
6
CONTINUOUS
290
1
370
-3
390
0
0
LAYER
5
42
100
AcDbSymbolTableRecord
100
AcDbLayerTableRecord
2
81
70
0
62
-3
6
CONTINUOUS
290
1
370
-3
390
0
0
LAYER
5
44
100
AcDbSymbolTableRecord
100
AcDbLayerTableRecord
2
80
70
0
62
-6
6
CONTINUOUS
290
1
370
-3
390
0
0
LAYER
5
57
100
AcDbSymbolTableRecord
100
AcDbLayerTableRecord
2
1
70
0
62
4
6
CONTINUOUS
290
1
370
-3
390
0
0
LAYER
5
60
100
AcDbSymbolTableRecord
100
AcDbLayerTableRecord
2
4
70
0
62
-2
6
CENTER
290
1
370
-3
390
0
0
LAYER
5
2AD
100
AcDbSymbolTableRecord
100
AcDbLayerTableRecord
2
2
70
0
62
7
6
CONTINUOUS
290
1
370
-3
390
0
0
LAYER
5
300
100
AcDbSymbolTableRecord
100
AcDbLayerTableRecord
2
SK1
70
0
62
4
6
CONTINUOUS
290
1
370
-3
390
0
0
LAYER
5
301
100
AcDbSymbolTableRecord
100
AcDbLayerTableRecord
2
SK4
70
0
62
2
6
CENTER
290
1
370
-3
390
0
0
LAYER
5
302
100
AcDbSymbolTableRecord
100
AcDbLayerTableRecord
2
SK6
70
0
62
5
6
CONTINUOUS
290
1
370
-3
390
0
0
LAYER
5
303
100
AcDbSymbolTableRecord
100
AcDbLayerTableRecord
2
SK2
70
0
62
7
6
CONTINUOUS
290
1
370
-3
390
0
0
ENDTAB
0
TABLE
2
STYLE
5
317
100
AcDbSymbolTable
0
STYLE
5
11
100
AcDbSymbolTableRecord
100
AcDbTextStyleTableRecord
2
Standard
3
txt
70
0
71
0
40
0
41
1
42
0
50
0
0
STYLE
5
271
100
AcDbSymbolTableRecord
100
AcDbTextStyleTableRecord
2
DEFAULT
3
simplex.shx
70
0
71
0
40
0
41
1
42
0
50
0
0
STYLE
5
294
100
AcDbSymbolTableRecord
100
AcDbTextStyleTableRecord
2
DWGDirectTextStyle
3
SIMPLEX
70
0
71
0
40
0
41
1
42
0
50
0
0
ENDTAB
0
TABLE
2
DIMSTYLE
5
318
100
AcDbSymbolTable
100
AcDbDimStyleTable
0
DIMSTYLE
105
27
100
AcDbSymbolTableRecord
100
AcDbDimStyleTableRecord
2
Standard
70
0
3
<>
41
0.18
42
0.0625
44
0.18
140
0.18
147
0.09
73
0
74
0
77
1
271
2
275
0
278
52
280
0
340
11
0
ENDTAB
0
TABLE
2
VIEW
5
319
100
AcDbSymbolTable
0
ENDTAB
0
TABLE
2
UCS
5
31a
100
AcDbSymbolTable
0
ENDTAB
0
TABLE
2
APPID
5
31b
100
AcDbSymbolTable
0
APPID
5
12
100
AcDbSymbolTableRecord
100
AcDbRegAppTableRecord
2
ACAD
70
0
0
ENDTAB
0
TABLE
2
BLOCK_RECORD
5
31c
100
AcDbSymbolTable
0
BLOCK_RECORD
5
1F
100
AcDbSymbolTableRecord
100
AcDbBlockTableRecord
2
*Model_Space
340
0
70
0
0
BLOCK_RECORD
5
1B
100
AcDbSymbolTableRecord
100
AcDbBlockTableRecord
2
*Paper_Space
340
0
70
0
0
BLOCK_RECORD
5
23
100
AcDbSymbolTableRecord
100
AcDbBlockTableRecord
2
*Paper_Space0
340
0
70
0
0
BLOCK_RECORD
5
296
100
AcDbSymbolTableRecord
100
AcDbBlockTableRecord
2
DimnDraft3D1
340
0
70
0
0
BLOCK_RECORD
5
2A1
100
AcDbSymbolTableRecord
100
AcDbBlockTableRecord
2
DimnDraft3D2
340
0
70
0
0
BLOCK_RECORD
5
2AB
100
AcDbSymbolTableRecord
100
AcDbBlockTableRecord
2
DimnDraft3D3
340
0
70
0
0
BLOCK_RECORD
5
2B6
100
AcDbSymbolTableRecord
100
AcDbBlockTableRecord
2
DimnDraft3D4
340
0
70
0
0
BLOCK_RECORD
5
2C0
100
AcDbSymbolTableRecord
100
AcDbBlockTableRecord
2
DimnDraft3D5
340
0
70
0
0
BLOCK_RECORD
5
2CB
100
AcDbSymbolTableRecord
100
AcDbBlockTableRecord
2
DimnDraft3D6
340
0
70
0
0
BLOCK_RECORD
5
2D6
100
AcDbSymbolTableRecord
100
AcDbBlockTableRecord
2
DimnDraft3D7
340
0
70
0
0
ENDTAB
0
ENDSEC
0
SECTION
2
BLOCKS
0
BLOCK
5
20
100
AcDbEntity
8
0
100
AcDbBlockBegin
2
*Model_Space
70
0
10
0
20
0
30
0
3
*Model_Space
0
ENDBLK
5
21
100
AcDbEntity
8
0
100
AcDbBlockEnd
0
BLOCK
5
1C
100
AcDbEntity
8
0
100
AcDbBlockBegin
2
*Paper_Space
70
0
10
0
20
0
30
0
3
*Paper_Space
0
ENDBLK
5
1D
100
AcDbEntity
8
0
100
AcDbBlockEnd
0
BLOCK
5
24
100
AcDbEntity
8
0
100
AcDbBlockBegin
2
*Paper_Space0
70
0
10
0
20
0
30
0
3
*Paper_Space0
0
ENDBLK
5
25
100
AcDbEntity
8
0
100
AcDbBlockEnd
0
BLOCK
5
29E
100
AcDbEntity
8
0
100
AcDbBlockBegin
2
DimnDraft3D1
70
0
10
0
20
0
30
0
3
DimnDraft3D1
0
MTEXT
5
297
100
AcDbEntity
8
SK2
62
256
6
ByLayer
370
-1
48
1
60
0
100
AcDbMText
10
54.107237
20
-67.0258
30
0
210
0
220
0
230
1
1
\W01.000;\fsimplex.shx,bigfont.shx;(264) 
40
4.5
41
0
44
1.084337
50
0
71
7
72
5
7
DEFAULT
0
LINE
5
299
100
AcDbEntity
8
SK2
62
256
6
ByLayer
370
-1
48
1
60
0
100
AcDbLine
10
-70
20
-21.5875
30
0
11
-70
21
-73.29455
31
0
39
0
210
0
220
0
230
1
0
LINE
5
29A
100
AcDbEntity
8
SK2
62
256
6
ByLayer
370
-1
48
1
60
0
100
AcDbLine
10
194
20
-27.0875
30
0
11
194
21
-73.29455
31
0
39
0
210
0
220
0
230
1
0
LINE
5
29B
100
AcDbEntity
8
SK2
62
256
6
ByLayer
370
-1
48
1
60
0
100
AcDbLine
10
-70
20
-70.11955
30
0
11
194
21
-70.11955
31
0
39
0
210
0
220
0
230
1
0
SOLID
5
29C
100
AcDbEntity
8
SK2
62
256
6
ByLayer
370
-1
48
1
60
0
100
AcDbTrace
10
-70
20
-70.11955
30
0
11
-65.825003
21
-69.193975
31
0
12
-65.824997
22
-71.045125
32
0
13
-70
23
-70.11955
33
0
39
0
210
0
220
0
230
1
0
SOLID
5
29D
100
AcDbEntity
8
SK2
62
256
6
ByLayer
370
-1
48
1
60
0
100
AcDbTrace
10
194
20
-70.11955
30
0
11
189.825003
21
-71.045125
31
0
12
189.824997
22
-69.193975
32
0
13
194
23
-70.11955
33
0
39
0
210
0
220
0
230
1
0
ENDBLK
5
29F
100
AcDbEntity
8
0
100
AcDbBlockEnd
0
BLOCK
5
2A8
100
AcDbEntity
8
0
100
AcDbBlockBegin
2
DimnDraft3D2
70
0
10
0
20
0
30
0
3
DimnDraft3D2
0
MTEXT
5
2A2
100
AcDbEntity
8
SK2
62
256
6
ByLayer
370
-1
48
1
60
0
100
AcDbMText
10
-36.503947
20
-57.0258
30
0
210
0
220
0
230
1
1
\W01.000;\fsimplex.shx,bigfont.shx;70 
40
4.5
41
0
44
1.084337
50
0
71
7
72
5
7
DEFAULT
0
LINE
5
2A3
100
AcDbEntity
8
SK2
62
256
6
ByLayer
370
-1
48
1
60
0
100
AcDbLine
10
-70
20
-21.5875
30
0
11
-70
21
-61.3258
31
0
39
0
210
0
220
0
230
1
0
LINE
5
2A4
100
AcDbEntity
8
SK2
62
256
6
ByLayer
370
-1
48
1
60
0
100
AcDbLine
10
0
20
-32.8375
30
0
11
0
21
-61.3258
31
0
39
0
210
0
220
0
230
1
0
LINE
5
2A5
100
AcDbEntity
8
SK2
62
256
6
ByLayer
370
-1
48
1
60
0
100
AcDbLine
10
-70
20
-58.1508
30
0
11
0
21
-58.1508
31
0
39
0
210
0
220
0
230
1
0
SOLID
5
2A6
100
AcDbEntity
8
SK2
62
256
6
ByLayer
370
-1
48
1
60
0
100
AcDbTrace
10
-70
20
-58.1508
30
0
11
-65.825003
21
-57.225225
31
0
12
-65.824997
22
-59.076375
32
0
13
-70
23
-58.1508
33
0
39
0
210
0
220
0
230
1
0
SOLID
5
2A7
100
AcDbEntity
8
SK2
62
256
6
ByLayer
370
-1
48
1
60
0
100
AcDbTrace
10
0
20
-58.1508
30
0
11
-4.174997
21
-59.076375
31
0
12
-4.175003
22
-57.225225
32
0
13
0
23
-58.1508
33
0
39
0
210
0
220
0
230
1
0
ENDBLK
5
2A9
100
AcDbEntity
8
0
100
AcDbBlockEnd
0
BLOCK
5
2B3
100
AcDbEntity
8
0
100
AcDbBlockBegin
2
DimnDraft3D3
70
0
10
0
20
0
30
0
3
DimnDraft3D3
0
MTEXT
5
2AC
100
AcDbEntity
8
2
62
256
6
ByLayer
370
-1
48
1
60
0
100
AcDbMText
10
94.169737
20
-57.0258
30
0
210
0
220
0
230
1
1
\W01.000;\fsimplex.shx,bigfont.shx;194 
40
4.5
41
0
44
1.084337
50
0
71
7
72
5
7
DEFAULT
0
LINE
5
2AE
100
AcDbEntity
8
2
62
256
6
ByLayer
370
-1
48
1
60
0
100
AcDbLine
10
0
20
-32.8375
30
0
11
0
21
-61.3258
31
0
39
0
210
0
220
0
230
1
0
LINE
5
2AF
100
AcDbEntity
8
2
62
256
6
ByLayer
370
-1
48
1
60
0
100
AcDbLine
10
194
20
-27.0875
30
0
11
194
21
-61.3258
31
0
39
0
210
0
220
0
230
1
0
LINE
5
2B0
100
AcDbEntity
8
2
62
256
6
ByLayer
370
-1
48
1
60
0
100
AcDbLine
10
0
20
-58.1508
30
0
11
194
21
-58.1508
31
0
39
0
210
0
220
0
230
1
0
SOLID
5
2B1
100
AcDbEntity
8
2
62
256
6
ByLayer
370
-1
48
1
60
0
100
AcDbTrace
10
0
20
-58.1508
30
0
11
4.174997
21
-57.225225
31
0
12
4.175003
22
-59.076375
32
0
13
0
23
-58.1508
33
0
39
0
210
0
220
0
230
1
0
SOLID
5
2B2
100
AcDbEntity
8
2
62
256
6
ByLayer
370
-1
48
1
60
0
100
AcDbTrace
10
194
20
-58.1508
30
0
11
189.825003
21
-59.076375
31
0
12
189.824997
22
-57.225225
32
0
13
194
23
-58.1508
33
0
39
0
210
0
220
0
230
1
0
ENDBLK
5
2B4
100
AcDbEntity
8
0
100
AcDbBlockEnd
0
BLOCK
5
2BD
100
AcDbEntity
8
0
100
AcDbBlockBegin
2
DimnDraft3D4
70
0
10
0
20
0
30
0
3
DimnDraft3D4
0
MTEXT
5
2B7
100
AcDbEntity
8
SK2
62
256
6
ByLayer
370
-1
48
1
60
0
100
AcDbMText
10
112.406579
20
-47.0258
30
0
210
0
220
0
230
1
1
\W01.000;\fsimplex.shx,bigfont.shx;158 
40
4.5
41
0
44
1.084337
50
0
71
7
72
5
7
DEFAULT
0
LINE
5
2B8
100
AcDbEntity
8
SK2
62
256
6
ByLayer
370
-1
48
1
60
0
100
AcDbLine
10
36
20
-11.5875
30
0
11
36
21
-51.3258
31
0
39
0
210
0
220
0
230
1
0
LINE
5
2B9
100
AcDbEntity
8
SK2
62
256
6
ByLayer
370
-1
48
1
60
0
100
AcDbLine
10
194
20
-27.0875
30
0
11
194
21
-51.3258
31
0
39
0
210
0
220
0
230
1
0
LINE
5
2BA
100
AcDbEntity
8
SK2
62
256
6
ByLayer
370
-1
48
1
60
0
100
AcDbLine
10
36
20
-48.1508
30
0
11
194
21
-48.1508
31
0
39
0
210
0
220
0
230
1
0
SOLID
5
2BB
100
AcDbEntity
8
SK2
62
256
6
ByLayer
370
-1
48
1
60
0
100
AcDbTrace
10
36
20
-48.1508
30
0
11
40.174997
21
-47.225225
31
0
12
40.175003
22
-49.076375
32
0
13
36
23
-48.1508
33
0
39
0
210
0
220
0
230
1
0
SOLID
5
2BC
100
AcDbEntity
8
SK2
62
256
6
ByLayer
370
-1
48
1
60
0
100
AcDbTrace
10
194
20
-48.1508
30
0
11
189.825003
21
-49.076375
31
0
12
189.824997
22
-47.225225
32
0
13
194
23
-48.1508
33
0
39
0
210
0
220
0
230
1
0
ENDBLK
5
2BE
100
AcDbEntity
8
0
100
AcDbBlockEnd
0
BLOCK
5
2C8
100
AcDbEntity
8
0
100
AcDbBlockBegin
2
DimnDraft3D5
70
0
10
0
20
0
30
0
3
DimnDraft3D5
0
MTEXT
5
2C1
100
AcDbEntity
8
SK2
62
256
6
ByLayer
370
-1
48
1
60
0
100
AcDbMText
10
-80.975
20
5.009211
30
0
210
0
220
0
230
1
1
\W01.000;\fsimplex.shx,bigfont.shx;40 
40
4.5
41
0
44
1.084337
50
90
71
7
72
5
7
DEFAULT
0
MTEXT
5
2C2
100
AcDbEntity
8
SK2
62
256
6
ByLayer
370
-1
48
1
60
0
100
AcDbMText
10
-80.975
20
-8.490789
30
0
210
0
220
0
230
1
1
\W01.000;\fsimplex.shx,bigfont.shx;%%c 
40
4.5
41
0
44
1.084337
50
90
71
7
72
5
7
DEFAULT
0
LINE
5
2C3
100
AcDbEntity
8
SK2
62
256
6
ByLayer
370
-1
48
1
60
0
100
AcDbLine
10
-71.5875
20
20
30
0
11
-81.9
21
20
31
0
39
0
210
0
220
0
230
1
0
LINE
5
2C4
100
AcDbEntity
8
SK2
62
256
6
ByLayer
370
-1
48
1
60
0
100
AcDbLine
10
-71.5875
20
-20
30
0
11
-81.9
21
-20
31
0
39
0
210
0
220
0
230
1
0
LINE
5
2C5
100
AcDbEntity
8
SK2
62
256
6
ByLayer
370
-1
48
1
60
0
100
AcDbLine
10
-78.725
20
20
30
0
11
-78.725
21
-20
31
0
39
0
210
0
220
0
230
1
0
SOLID
5
2C6
100
AcDbEntity
8
SK2
62
256
6
ByLayer
370
-1
48
1
60
0
100
AcDbTrace
10
-78.725
20
20
30
0
11
-77.799425
21
15.825003
31
0
12
-79.650575
22
15.824997
32
0
13
-78.725
23
20
33
0
39
0
210
0
220
0
230
1
0
SOLID
5
2C7
100
AcDbEntity
8
SK2
62
256
6
ByLayer
370
-1
48
1
60
0
100
AcDbTrace
10
-78.725
20
-20
30
0
11
-79.650575
21
-15.825003
31
0
12
-77.799425
22
-15.824997
32
0
13
-78.725
23
-20
33
0
39
0
210
0
220
0
230
1
0
ENDBLK
5
2C9
100
AcDbEntity
8
0
100
AcDbBlockEnd
0
BLOCK
5
2D3
100
AcDbEntity
8
0
100
AcDbBlockBegin
2
DimnDraft3D6
70
0
10
0
20
0
30
0
3
DimnDraft3D6
0
MTEXT
5
2CC
100
AcDbEntity
8
SK2
62
256
6
ByLayer
370
-1
48
1
60
0
100
AcDbMText
10
-90.975
20
2.711842
30
0
210
0
220
0
230
1
1
\W01.000;\fsimplex.shx,bigfont.shx;62.5 
40
4.5
41
0
44
1.084337
50
90
71
7
72
5
7
DEFAULT
0
MTEXT
5
2CD
100
AcDbEntity
8
SK2
62
256
6
ByLayer
370
-1
48
1
60
0
100
AcDbMText
10
-90.975
20
-10.788158
30
0
210
0
220
0
230
1
1
\W01.000;\fsimplex.shx,bigfont.shx;%%c 
40
4.5
41
0
44
1.084337
50
90
71
7
72
5
7
DEFAULT
0
LINE
5
2CE
100
AcDbEntity
8
SK2
62
256
6
ByLayer
370
-1
48
1
60
0
100
AcDbLine
10
-1.5875
20
-31.25
30
0
11
-91.9
21
-31.25
31
0
39
0
210
0
220
0
230
1
0
LINE
5
2CF
100
AcDbEntity
8
SK2
62
256
6
ByLayer
370
-1
48
1
60
0
100
AcDbLine
10
-1.5875
20
31.25
30
0
11
-91.9
21
31.25
31
0
39
0
210
0
220
0
230
1
0
LINE
5
2D0
100
AcDbEntity
8
SK2
62
256
6
ByLayer
370
-1
48
1
60
0
100
AcDbLine
10
-88.725
20
-31.25
30
0
11
-88.725
21
31.25
31
0
39
0
210
0
220
0
230
1
0
SOLID
5
2D1
100
AcDbEntity
8
SK2
62
256
6
ByLayer
370
-1
48
1
60
0
100
AcDbTrace
10
-88.725
20
-31.25
30
0
11
-89.650575
21
-27.075003
31
0
12
-87.799425
22
-27.074997
32
0
13
-88.725
23
-31.25
33
0
39
0
210
0
220
0
230
1
0
SOLID
5
2D2
100
AcDbEntity
8
SK2
62
256
6
ByLayer
370
-1
48
1
60
0
100
AcDbTrace
10
-88.725
20
31.25
30
0
11
-87.799425
21
27.075003
31
0
12
-89.650575
22
27.074997
32
0
13
-88.725
23
31.25
33
0
39
0
210
0
220
0
230
1
0
ENDBLK
5
2D4
100
AcDbEntity
8
0
100
AcDbBlockEnd
0
BLOCK
5
2DE
100
AcDbEntity
8
0
100
AcDbBlockBegin
2
DimnDraft3D7
70
0
10
0
20
0
30
0
3
DimnDraft3D7
0
MTEXT
5
2D7
100
AcDbEntity
8
2
62
256
6
ByLayer
370
-1
48
1
60
0
100
AcDbMText
10
218.725
20
5.808553
30
0
210
0
220
0
230
1
1
\W01.000;\fsimplex.shx,bigfont.shx;51 
40
4.5
41
0
44
1.084337
50
90
71
7
72
5
7
DEFAULT
0
MTEXT
5
2D8
100
AcDbEntity
8
2
62
256
6
ByLayer
370
-1
48
1
60
0
100
AcDbMText
10
218.725
20
-7.691447
30
0
210
0
220
0
230
1
1
\W01.000;\fsimplex.shx,bigfont.shx;%%c 
40
4.5
41
0
44
1.084337
50
90
71
7
72
5
7
DEFAULT
0
LINE
5
2D9
100
AcDbEntity
8
2
62
256
6
ByLayer
370
-1
48
1
60
0
100
AcDbLine
10
195.5875
20
25.5
30
0
11
224.15
21
25.5
31
0
39
0
210
0
220
0
230
1
0
LINE
5
2DA
100
AcDbEntity
8
2
62
256
6
ByLayer
370
-1
48
1
60
0
100
AcDbLine
10
195.5875
20
-25.5
30
0
11
224.15
21
-25.5
31
0
39
0
210
0
220
0
230
1
0
LINE
5
2DB
100
AcDbEntity
8
2
62
256
6
ByLayer
370
-1
48
1
60
0
100
AcDbLine
10
220.975
20
25.5
30
0
11
220.975
21
-25.5
31
0
39
0
210
0
220
0
230
1
0
SOLID
5
2DC
100
AcDbEntity
8
2
62
256
6
ByLayer
370
-1
48
1
60
0
100
AcDbTrace
10
220.975
20
25.5
30
0
11
221.900575
21
21.325003
31
0
12
220.049425
22
21.324997
32
0
13
220.975
23
25.5
33
0
39
0
210
0
220
0
230
1
0
SOLID
5
2DD
100
AcDbEntity
8
2
62
256
6
ByLayer
370
-1
48
1
60
0
100
AcDbTrace
10
220.975
20
-25.5
30
0
11
220.049425
21
-21.325003
31
0
12
221.900575
22
-21.324997
32
0
13
220.975
23
-25.5
33
0
39
0
210
0
220
0
230
1
0
ENDBLK
5
2DF
100
AcDbEntity
8
0
100
AcDbBlockEnd
0
ENDSEC
0
SECTION
2
ENTITIES
0
ARC
5
F3
100
AcDbEntity
8
SK1
62
256
6
ByLayer
370
-1
48
1
60
0
100
AcDbCircle
39
0
10
1.383773
20
20.15
30
0
40
0.4
210
0
220
0
230
-1
100
AcDbArc
50
270
51
295
0
ARC
5
F4
100
AcDbEntity
8
SK1
62
256
6
ByLayer
370
-1
48
1
60
0
100
AcDbCircle
39
0
10
1.383773
20
-20.15
30
0
40
0.4
210
0
220
0
230
-1
100
AcDbArc
50
65
51
90
0
ARC
5
F5
100
AcDbEntity
8
SK1
62
256
6
ByLayer
370
-1
48
1
60
0
100
AcDbCircle
39
0
10
0.15
20
20.15
30
0
40
0.4
210
0
220
0
230
-1
100
AcDbArc
50
247.975687
51
270
0
ARC
5
F6
100
AcDbEntity
8
SK1
62
256
6
ByLayer
370
-1
48
1
60
0
100
AcDbCircle
39
0
10
0.15
20
-20.15
30
0
40
0.4
210
0
220
0
230
-1
100
AcDbArc
50
90
51
112.024313
0
ARC
5
F7
100
AcDbEntity
8
SK1
62
256
6
ByLayer
370
-1
48
1
60
0
100
AcDbCircle
39
0
10
67.894506
20
20.396
30
0
40
0.8
210
0
220
0
230
-1
100
AcDbArc
50
250.982048
51
321
0
ARC
5
F8
100
AcDbEntity
8
SK1
62
256
6
ByLayer
370
-1
48
1
60
0
100
AcDbCircle
39
0
10
67.894506
20
-20.396
30
0
40
0.8
210
0
220
0
230
-1
100
AcDbArc
50
39
51
109.017952
0
ELLIPSE
5
F9
100
AcDbEntity
8
1
62
256
6
ByLayer
370
-1
48
1
60
0
100
AcDbEllipse
10
192.202339
20
0
30
0
11
-0.0191116031742897
21
24.7999998787253
31
0
210
0
220
0
230
-1
40
0.122756
41
-1.54789027373148
42
-1.40747834680337
0
ELLIPSE
5
FA
100
AcDbEntity
8
1
62
256
6
ByLayer
370
-1
48
1
60
0
100
AcDbEllipse
10
190.967914
20
-17.050203
30
0
11
-0.256874145241993
21
-3.10223906239331
31
0
210
0
220
0
230
-1
40
0.121425
41
0
42
6.28318530717959
0
ELLIPSE
5
FB
100
AcDbEntity
8
1
62
256
6
ByLayer
370
-1
48
1
60
0
100
AcDbEllipse
10
185.820748
20
-5.921889
30
0
11
-1.65
21
1.6675544408859E-15
31
0
210
0
220
0
230
1
40
0.998135
41
-3.11950312485273
42
-0.0221874378536125
0
ELLIPSE
5
FC
100
AcDbEntity
8
1
62
256
6
ByLayer
370
-1
48
1
60
0
100
AcDbEllipse
10
178.312347
20
29.634755
30
0
11
2.24919041724725E-14
21
19.2
31
0
210
0
220
0
230
1
40
0.996195
41
2.78496437622926
42
3.10994225005361
0
ELLIPSE
5
FD
100
AcDbEntity
8
1
62
256
6
ByLayer
370
-1
48
1
60
0
100
AcDbEllipse
10
185.930303
20
17.309163
30
0
11
2.63577002021162E-15
21
2.25
31
0
210
0
220
0
230
1
40
0.996195
41
-2.22542577446687
42
0
0
ELLIPSE
5
FE
100
AcDbEntity
8
1
62
256
6
ByLayer
370
-1
48
1
60
0
100
AcDbEllipse
10
185.930303
20
17.309163
30
0
11
2.63577002021162E-15
21
2.25
31
0
210
0
220
0
230
1
40
0.996195
41
0
42
1.16248744141283
0
ELLIPSE
5
FF
100
AcDbEntity
8
1
62
256
6
ByLayer
370
-1
48
1
60
0
100
AcDbEllipse
10
171.838729
20
14.9
30
0
11
1.17145334231588E-16
21
0.0999999999999664
31
0
210
0
220
0
230
1
40
0.978567
41
2.9902988835725
42
-1.5707963267949
0
ELLIPSE
5
100
100
AcDbEntity
8
1
62
256
6
ByLayer
370
-1
48
1
60
0
100
AcDbEllipse
10
183.232985
20
10.268747
30
0
11
-8.23219822765386
21
0.433051491715663
31
0
210
0
220
0
230
-1
40
0.000422
41
-3.13477859328767
42
-3.13357302300182
0
ELLIPSE
5
101
100
AcDbEntity
8
1
62
256
6
ByLayer
370
-1
48
1
60
0
100
AcDbEllipse
10
193.933371
20
0
30
0
11
-2.03938946371788
21
-24.7986605981786
31
0
210
0
220
0
230
-1
40
0.126383
41
0.0373865448164435
42
1.08150697782711
0
ELLIPSE
5
102
100
AcDbEntity
8
1
62
256
6
ByLayer
370
-1
48
1
60
0
100
AcDbEllipse
10
186.130761
20
17.309163
30
0
11
2.63577002021162E-15
21
2.25
31
0
210
0
220
0
230
1
40
0.996195
41
0.0349501263397862
42
1.57079643761665
0
ELLIPSE
5
103
100
AcDbEntity
8
1
62
256
6
ByLayer
370
-1
48
1
60
0
100
AcDbEllipse
10
186.130761
20
17.309163
30
0
11
2.63577002021162E-15
21
2.25
31
0
210
0
220
0
230
1
40
0.996195
41
1.57079643761666
42
1.87572723107153
0
ELLIPSE
5
104
100
AcDbEntity
8
1
62
256
6
ByLayer
370
-1
48
1
60
0
100
AcDbEllipse
10
185.820748
20
-6.349608
30
0
11
-2
21
2.02127811016473E-15
31
0
210
0
220
0
230
1
40
0.998135
41
-2.12106600584354
42
-1.02062521243922
0
ELLIPSE
5
105
100
AcDbEntity
8
1
62
256
6
ByLayer
370
-1
48
1
60
0
100
AcDbEllipse
10
178.804726
20
0
30
0
11
-117.848035899089
21
-1.33533572999119E-13
31
0
210
0
220
0
230
-1
40
0.210441
41
1.35141103059879
42
1.51248364855604
0
ELLIPSE
5
106
100
AcDbEntity
8
1
62
256
6
ByLayer
370
-1
48
1
60
0
100
AcDbEllipse
10
178.601011
20
18.008089
30
0
11
-0.773306906623335
21
-0.824449261499935
31
0
210
0
220
0
230
-1
40
0.04503
41
-0.757084598463591
42
-0.704869712235139
0
ELLIPSE
5
107
100
AcDbEntity
8
1
62
256
6
ByLayer
370
-1
48
1
60
0
100
AcDbEllipse
10
196.567794
20
0
30
0
11
-59.2201843787856
21
24.0187013263011
31
0
210
0
220
0
230
-1
40
0.104287
41
-1.11766828687448
42
-0.491089359182956
0
ELLIPSE
5
108
100
AcDbEntity
8
1
62
256
6
ByLayer
370
-1
48
1
60
0
100
AcDbEllipse
10
192.155631
20
0
30
0
11
-1.50482159649988
21
24.7993524711858
31
0
210
0
220
0
230
-1
40
0.119092
41
-2.04246617607007
42
-1.54075850764841
0
ELLIPSE
5
109
100
AcDbEntity
8
1
62
256
6
ByLayer
370
-1
48
1
60
0
100
AcDbEllipse
10
18.8
20
9.09896
30
0
11
-12.5
21
1.26329881885295E-14
31
0
210
0
220
0
230
1
40
0.74276
41
-1.81588209971453
42
-0.159396538834526
0
ELLIPSE
5
10A
100
AcDbEntity
8
1
62
256
6
ByLayer
370
-1
48
1
60
0
100
AcDbEllipse
10
179.861029
20
15.920889
30
0
11
-2.25092568282431E-15
21
-2.1
31
0
210
0
220
0
230
1
40
0.996195
41
-2.12048111657724
42
-1.53588974175501
0
ELLIPSE
5
10B
100
AcDbEntity
8
1
62
256
6
ByLayer
370
-1
48
1
60
0
100
AcDbEllipse
10
178.242623
20
29.634755
30
0
11
-2.14373874554696E-14
21
-20
31
0
210
0
220
0
230
1
40
0.996195
41
-0.261475189742425
42
-0.00336141707415656
0
ELLIPSE
5
10C
100
AcDbEntity
8
1
62
256
6
ByLayer
370
-1
48
1
60
0
100
AcDbEllipse
10
173.244724
20
0
30
0
11
-112.98981452606
21
1.59030963903973
31
0
210
0
220
0
230
-1
40
0.219037
41
-1.58033530507075
42
-1.42348717794709
0
ELLIPSE
5
10D
100
AcDbEntity
8
1
62
256
6
ByLayer
370
-1
48
1
60
0
100
AcDbEllipse
10
179.503691
20
15.920889
30
0
11
2.46005201886418E-15
21
2.1
31
0
210
0
220
0
230
1
40
0.996195
41
0.939115740685899
42
1.60570291183478
0
ELLIPSE
5
10E
100
AcDbEntity
8
1
62
256
6
ByLayer
370
-1
48
1
60
0
100
AcDbEllipse
10
183.416719
20
1.7E-05
30
0
11
-283.465199716346
21
-3.21194330056078E-13
31
0
210
0
220
0
230
-1
40
0.087489
41
1.53723125154108
42
1.55017585433073
0
ELLIPSE
5
10F
100
AcDbEntity
8
1
62
256
6
ByLayer
370
-1
48
1
60
0
100
AcDbEllipse
10
169.579342
20
14.801142
30
0
11
-1.67795645707759
21
-10.7700725219541
31
0
210
0
220
0
230
1
40
0.203578
41
0.627111843304233
42
1.60250271160661
0
ELLIPSE
5
110
100
AcDbEntity
8
1
62
256
6
ByLayer
370
-1
48
1
60
0
100
AcDbEllipse
10
178.731907
20
11.128413
30
0
11
-0.799516360141551
21
-0.0278134835287853
31
0
210
0
220
0
230
1
40
0.003042
41
0.0872135714651397
42
0.974050329556216
0
ELLIPSE
5
111
100
AcDbEntity
8
1
62
256
6
ByLayer
370
-1
48
1
60
0
100
AcDbEllipse
10
151.549652
20
17.55991
30
0
11
-29.0775656966909
21
15.3390625999713
31
0
210
0
220
0
230
-1
40
0.091996
41
-2.0900924438172
42
-1.38211609033486
0
ELLIPSE
5
112
100
AcDbEntity
8
1
62
256
6
ByLayer
370
-1
48
1
60
0
100
AcDbEllipse
10
180.026171
20
11.173782
30
0
11
-2.25092568282431E-15
21
-2.1
31
0
210
0
220
0
230
1
40
0.996195
41
-1.53588974175501
42
-0.158767832418391
0
ELLIPSE
5
113
100
AcDbEntity
8
1
62
256
6
ByLayer
370
-1
48
1
60
0
100
AcDbEllipse
10
186.540393
20
17.309163
30
0
11
2.34290668463255E-15
21
2
31
0
210
0
220
0
230
1
40
0.996195
41
0.102985300926076
42
1.57079604872776
0
ELLIPSE
5
114
100
AcDbEntity
8
1
62
256
6
ByLayer
370
-1
48
1
60
0
100
AcDbEllipse
10
186.540393
20
17.309163
30
0
11
2.34290668463255E-15
21
2
31
0
210
0
220
0
230
1
40
0.996195
41
1.57079654872776
42
3.03860729631731
0
ELLIPSE
5
115
100
AcDbEntity
8
1
62
256
6
ByLayer
370
-1
48
1
60
0
100
AcDbEllipse
10
192.122533
20
10.602188
30
0
11
-0.000791445728855577
21
0.801130856242079
31
0
210
0
220
0
230
-1
40
0.121743
41
2.24970359558044
42
-3.1396462663598
0
ELLIPSE
5
116
100
AcDbEntity
8
1
62
256
6
ByLayer
370
-1
48
1
60
0
100
AcDbEllipse
10
191.738508
20
-0.026403
30
0
11
-0.0010354417433759
21
0.800514042005845
31
0
210
0
220
0
230
-1
40
0.122644
41
-1.50531329188619
42
0.0654830348942543
0
ELLIPSE
5
117
100
AcDbEntity
8
1
62
256
6
ByLayer
370
-1
48
1
60
0
100
AcDbEllipse
10
8.793329
20
0
30
0
11
-441.058987226622
21
-23.9831032744242
31
0
210
0
220
0
230
-1
40
0.014313
41
-1.99139810232222
42
-1.96186033541291
0
ELLIPSE
5
118
100
AcDbEntity
8
1
62
256
6
ByLayer
370
-1
48
1
60
0
100
AcDbEllipse
10
180.04262
20
11.173782
30
0
11
-1.83236116208154
21
-1.63166900511056
31
0
210
0
220
0
230
-1
40
0.721468
41
-1.30152588459852
42
-0.459180144137484
0
ELLIPSE
5
119
100
AcDbEntity
8
1
62
256
6
ByLayer
370
-1
48
1
60
0
100
AcDbEllipse
10
179.668833
20
11.173782
30
0
11
2.46005201886418E-15
21
2.1
31
0
210
0
220
0
230
1
40
0.996195
41
1.60570291183478
42
1.92552816401089
0
ELLIPSE
5
11A
100
AcDbEntity
8
1
62
256
6
ByLayer
370
-1
48
1
60
0
100
AcDbEllipse
10
192.310232
20
-12.88213
30
0
11
-0.0775054657256789
21
-0.878086631940109
31
0
210
0
220
0
230
-1
40
0.115224
41
0.00370845515754433
42
1.57450478193988
0
ELLIPSE
5
11B
100
AcDbEntity
8
1
62
256
6
ByLayer
370
-1
48
1
60
0
100
AcDbEllipse
10
178.566765
20
15.875519
30
0
11
-0.799516360141551
21
-0.0278134835287853
31
0
210
0
220
0
230
1
40
0.003042
41
0.0872135714666033
42
0.974050329556275
0
ELLIPSE
5
11C
100
AcDbEntity
8
1
62
256
6
ByLayer
370
-1
48
1
60
0
100
AcDbEllipse
10
178.323898
20
-0.000412
30
0
11
-0.802995264133048
21
24.8003130679737
31
0
210
0
220
0
230
-1
40
0.087397
41
0.0234500647411437
42
0.0305012935370595
0
ELLIPSE
5
11D
100
AcDbEntity
8
1
62
256
6
ByLayer
370
-1
48
1
60
0
100
AcDbEllipse
10
186.130761
20
17.309163
30
0
11
2.34290668463255E-15
21
2
31
0
210
0
220
0
230
1
40
0.996195
41
0
42
6.28318530717959
0
ELLIPSE
5
11E
100
AcDbEntity
8
1
62
256
6
ByLayer
370
-1
48
1
60
0
100
AcDbEllipse
10
185.820748
20
-5.84901
30
0
11
-1.65
21
1.6675544408859E-15
31
0
210
0
220
0
230
1
40
0.998135
41
3.14159250247964
42
0
0
ELLIPSE
5
11F
100
AcDbEntity
8
1
62
256
6
ByLayer
370
-1
48
1
60
0
100
AcDbEllipse
10
185.820748
20
-5.84901
30
0
11
-1.65
21
1.6675544408859E-15
31
0
210
0
220
0
230
1
40
0.998135
41
0
42
1.17682109171009
0
ELLIPSE
5
120
100
AcDbEntity
8
1
62
256
6
ByLayer
370
-1
48
1
60
0
100
AcDbEllipse
10
185.820748
20
-5.84901
30
0
11
-1.65
21
1.6675544408859E-15
31
0
210
0
220
0
230
1
40
0.998135
41
2.11173944693049
42
3.14159250247965
0
ELLIPSE
5
121
100
AcDbEntity
8
1
62
256
6
ByLayer
370
-1
48
1
60
0
100
AcDbEllipse
10
185.820748
20
-5.84901
30
0
11
2.1
21
0
31
0
210
0
220
0
230
1
40
0.998135
41
0.076968821441188
42
3.05578791712358
0
ELLIPSE
5
122
100
AcDbEntity
8
1
62
256
6
ByLayer
370
-1
48
1
60
0
100
AcDbEllipse
10
185.820748
20
-5.84901
30
0
11
2.1
21
0
31
0
210
0
220
0
230
1
40
0.998135
41
-3.14159250110336
42
-4.2373236548073E-16
0
ELLIPSE
5
123
100
AcDbEntity
8
1
62
256
6
ByLayer
370
-1
48
1
60
0
100
AcDbEllipse
10
144.068763
20
18.775641
30
0
11
-1.67795645707759
21
-10.7700725219541
31
0
210
0
220
0
230
1
40
0.203578
41
1.44494853159295
42
1.46841670940087
0
ELLIPSE
5
124
100
AcDbEntity
8
1
62
256
6
ByLayer
370
-1
48
1
60
0
100
AcDbEllipse
10
182.260764
20
13.846152
30
0
11
-1.23908099492614E-15
21
-1.156
31
0
210
0
220
0
230
1
40
0.996195
41
0.920472169598907
42
3.0346021840255
0
ELLIPSE
5
125
100
AcDbEntity
8
1
62
256
6
ByLayer
370
-1
48
1
60
0
100
AcDbEllipse
10
187.255626
20
13.418145
30
0
11
0.14038589456198
21
-0.374555470668942
31
0
210
0
220
0
230
1
40
0.08165
41
1.54020296240859
42
2.01910804728327
0
ELLIPSE
5
126
100
AcDbEntity
8
1
62
256
6
ByLayer
370
-1
48
1
60
0
100
AcDbEllipse
10
186.962149
20
21.854332
30
0
11
0.113834701403356
21
0.383460116252537
31
0
210
0
220
0
230
1
40
0.083578
41
-2.02489549788525
42
-1.54599041301063
0
ELLIPSE
5
127
100
AcDbEntity
8
1
62
256
6
ByLayer
370
-1
48
1
60
0
100
AcDbEllipse
10
189.857988
20
19.143604
30
0
11
0.374905085817622
21
0.139449548683677
31
0
210
0
220
0
230
1
40
0.030486
41
-1.96792246060795
42
-1.48901737573335
0
ELLIPSE
5
128
100
AcDbEntity
8
1
62
256
6
ByLayer
370
-1
48
1
60
0
100
AcDbEllipse
10
190.064607
20
22.246715
30
0
11
-5.19131082315858E-16
21
-0.484323085911669
31
0
210
0
220
0
230
1
40
0.996195
41
1.60570291183474
42
-3.10668606854993
0
ELLIPSE
5
129
100
AcDbEntity
8
1
62
256
6
ByLayer
370
-1
48
1
60
0
100
AcDbEllipse
10
181.586834
20
14.360779
30
0
11
1.63300595918889E-15
21
1.394
31
0
210
0
220
0
230
1
40
0.996195
41
-2.42145532631403
42
-2.22112048399092
0
ELLIPSE
5
12A
100
AcDbEntity
8
1
62
256
6
ByLayer
370
-1
48
1
60
0
100
AcDbEllipse
10
181.276141
20
13.57232
30
0
11
0.502108561637825
21
0.0893699744321017
31
0
210
0
220
0
230
1
40
0.015329
41
-2.1283846410786
42
-0.841382423492335
0
ELLIPSE
5
12B
100
AcDbEntity
8
1
62
256
6
ByLayer
370
-1
48
1
60
0
100
AcDbEllipse
10
181.626174
20
22.191086
30
0
11
0.492364140378782
21
0.132956960212932
31
0
210
0
220
0
230
1
40
0.022802
41
-2.13005594553371
42
-1.48655483674059
0
ELLIPSE
5
12C
100
AcDbEntity
8
1
62
256
6
ByLayer
370
-1
48
1
60
0
100
AcDbEllipse
10
190.645605
20
13.252266
30
0
11
0.399758180070776
21
0.0139067417643928
31
0
210
0
220
0
230
1
40
0.003042
41
-1.48358275532889
42
-1.00467767045494
0
ELLIPSE
5
12D
100
AcDbEntity
8
1
62
256
6
ByLayer
370
-1
48
1
60
0
100
AcDbEllipse
10
190.541305
20
16.250438
30
0
11
-0.399758180070776
21
-0.0139067417643927
31
0
210
0
220
0
230
1
40
0.003042
41
1.65800989826097
42
2.13691498313846
0
ELLIPSE
5
12E
100
AcDbEntity
8
1
62
256
6
ByLayer
370
-1
48
1
60
0
100
AcDbEllipse
10
181.853638
20
14.19397
30
0
11
-0.025169700848345
21
0.720773760631497
31
0
210
0
220
0
230
-1
40
0.061588
41
1.57294517238949
42
1.60954581756852
0
ELLIPSE
5
12F
100
AcDbEntity
8
1
62
256
6
ByLayer
370
-1
48
1
60
0
100
AcDbEllipse
10
190.273569
20
16.239968
30
0
11
-5.19131082315857E-16
21
-0.484323085911668
31
0
210
0
220
0
230
1
40
0.996195
41
1.60570291183474
42
-1.85833317721212
0
ELLIPSE
5
130
100
AcDbEntity
8
1
62
256
6
ByLayer
370
-1
48
1
60
0
100
AcDbEllipse
10
185.739834
20
17.587026
30
0
11
5.21296737330743E-15
21
4.45
31
0
210
0
220
0
230
1
40
0.996195
41
-1.21344630629792
42
-0.287536850417209
0
ELLIPSE
5
131
100
AcDbEntity
8
1
62
256
6
ByLayer
370
-1
48
1
60
0
100
AcDbEllipse
10
181.311701
20
13.57232
30
0
11
3.58464722748779E-16
21
0.305999999999999
31
0
210
0
220
0
230
1
40
0.996195
41
-1.39399268715089
42
1.747599966439
0
ELLIPSE
5
132
100
AcDbEntity
8
1
62
256
6
ByLayer
370
-1
48
1
60
0
100
AcDbEllipse
10
181.853634
20
14.193971
30
0
11
0.348527918949299
21
0.372328201608301
31
0
210
0
220
0
230
1
40
0.063742
41
-2.15470096795575
42
-1.54779877208514
0
ELLIPSE
5
133
100
AcDbEntity
8
1
62
256
6
ByLayer
370
-1
48
1
60
0
100
AcDbEllipse
10
181.911784
20
21.133417
30
0
11
-0.705563291266099
21
0.659061826627008
31
0
210
0
220
0
230
-1
40
0.031444
41
0.96094508778316
42
1.60444619688647
0
ELLIPSE
5
134
100
AcDbEntity
8
1
62
256
6
ByLayer
370
-1
48
1
60
0
100
AcDbEllipse
10
190.377869
20
13.241796
30
0
11
-5.19131082315858E-16
21
-0.484323085911669
31
0
210
0
220
0
230
1
40
0.996195
41
0.0349065850399259
42
1.60570291183474
0
ELLIPSE
5
135
100
AcDbEntity
8
1
62
256
6
ByLayer
370
-1
48
1
60
0
100
AcDbEllipse
10
180.840784
20
21.345641
30
0
11
0.099131498336372
21
0.500272871578687
31
0
210
0
220
0
230
1
40
0.085506
41
-1.55385457642578
42
-0.910353467632622
0
ELLIPSE
5
136
100
AcDbEntity
8
1
62
256
6
ByLayer
370
-1
48
1
60
0
100
AcDbEllipse
10
181.840955
20
14.180323
30
0
11
-0.37340082812668
21
0.346876892031236
31
0
210
0
220
0
230
1
40
0.05944
41
-1.6346943780341
42
-0.992087287820633
0
ELLIPSE
5
137
100
AcDbEntity
8
1
62
256
6
ByLayer
370
-1
48
1
60
0
100
AcDbEllipse
10
187.395027
20
13.137097
30
0
11
3.51436002694884E-16
21
0.300000000000001
31
0
210
0
220
0
230
1
40
0.996195
41
0.35735002049701
42
-3.10668606854998
0
ELLIPSE
5
138
100
AcDbEntity
8
1
62
256
6
ByLayer
370
-1
48
1
60
0
100
AcDbEllipse
10
181.626174
20
22.191086
30
0
11
-0.956951143101257
21
1.59255145055038
31
0
210
0
220
0
230
-1
40
0.020508
41
1.58311883798128
42
2.22661994683245
0
ELLIPSE
5
139
100
AcDbEntity
8
1
62
256
6
ByLayer
370
-1
48
1
60
0
100
AcDbEllipse
10
180.876343
20
21.345641
30
0
11
3.5846472274878E-16
21
0.306
31
0
210
0
220
0
230
1
40
0.996195
41
-0.194895099806065
42
2.39110107523223
0
ELLIPSE
5
13A
100
AcDbEntity
8
1
62
256
6
ByLayer
370
-1
48
1
60
0
100
AcDbEllipse
10
181.853634
20
14.193971
30
0
11
-0.719441079446393
21
-0.0251232539526293
31
0
210
0
220
0
230
-1
40
0.002159
41
-2.2760446949765
42
-1.63254358571368
0
ELLIPSE
5
13B
100
AcDbEntity
8
1
62
256
6
ByLayer
370
-1
48
1
60
0
100
AcDbEllipse
10
180.840784
20
21.345641
30
0
11
0.348527918949298
21
0.3723282016083
31
0
210
0
220
0
230
1
40
0.063742
41
-2.15470096795555
42
-1.51119985916242
0
ELLIPSE
5
13C
100
AcDbEntity
8
1
62
256
6
ByLayer
370
-1
48
1
60
0
100
AcDbEllipse
10
182.145266
20
13.721822
30
0
11
1.35420006371761E-15
21
1.156
31
0
210
0
220
0
230
1
40
0.996195
41
1.74759996643894
42
-2.42145532631402
0
ELLIPSE
5
13D
100
AcDbEntity
8
1
62
256
6
ByLayer
370
-1
48
1
60
0
100
AcDbEllipse
10
185.809267
20
17.587026
30
0
11
-3.30786649004912E-15
21
-3.0860724021715
31
0
210
0
220
0
230
1
40
0.996195
41
2.2155101975546
42
0
0
ELLIPSE
5
13E
100
AcDbEntity
8
1
62
256
6
ByLayer
370
-1
48
1
60
0
100
AcDbEllipse
10
185.809267
20
17.587026
30
0
11
-3.30786649004912E-15
21
-3.0860724021715
31
0
210
0
220
0
230
1
40
0.996195
41
0
42
0.92608266050835
0
ELLIPSE
5
13F
100
AcDbEntity
8
1
62
256
6
ByLayer
370
-1
48
1
60
0
100
AcDbEllipse
10
190.023236
20
22.546532
30
0
11
-0.0140130575244566
21
0.399754467415708
31
0
210
0
220
0
230
1
40
0.087103
41
-1.5738496276308
42
-1.09494454275567
0
ELLIPSE
5
140
100
AcDbEntity
8
1
62
256
6
ByLayer
370
-1
48
1
60
0
100
AcDbEllipse
10
182.988601
20
20.915749
30
0
11
0.348527918949298
21
0.3723282016083
31
0
210
0
220
0
230
1
40
0.063742
41
-2.1547009679553
42
-0.867698750368744
0
ELLIPSE
5
141
100
AcDbEntity
8
1
62
256
6
ByLayer
370
-1
48
1
60
0
100
AcDbEllipse
10
189.95604
20
16.325046
30
0
11
0.383695343937984
21
-0.113039298654548
31
0
210
0
220
0
230
1
40
0.024717
41
1.4870954970176
42
1.96600058189239
0
ELLIPSE
5
142
100
AcDbEntity
8
1
62
256
6
ByLayer
370
-1
48
1
60
0
100
AcDbEllipse
10
186.13247
20
17.587026
30
0
11
-2.51889302601768E-15
21
-2.35
31
0
210
0
220
0
230
1
40
0.996195
41
-3.11194384373769
42
-0.0296489603413489
0
ELLIPSE
5
143
100
AcDbEntity
8
1
62
256
6
ByLayer
370
-1
48
1
60
0
100
AcDbEllipse
10
190.436643
20
19.259012
30
0
11
-0.399758180070776
21
-0.0139067417643927
31
0
210
0
220
0
230
1
40
0.003042
41
1.65800989826111
42
2.13691498313492
0
ELLIPSE
5
144
100
AcDbEntity
8
1
62
256
6
ByLayer
370
-1
48
1
60
0
100
AcDbEllipse
10
190.357358
20
12.941979
30
0
11
0.0140130575244565
21
-0.399754467415708
31
0
210
0
220
0
230
1
40
0.087103
41
1.08883794108433
42
1.56774302595899
0
ELLIPSE
5
145
100
AcDbEntity
8
1
62
256
6
ByLayer
370
-1
48
1
60
0
100
AcDbEllipse
10
185.993509
20
17.587026
30
0
11
-2.51889302601768E-15
21
-2.35
31
0
210
0
220
0
230
1
40
0.996195
41
3.09878844376697
42
0
0
ELLIPSE
5
146
100
AcDbEntity
8
1
62
256
6
ByLayer
370
-1
48
1
60
0
100
AcDbEllipse
10
185.993509
20
17.587026
30
0
11
-2.51889302601768E-15
21
-2.35
31
0
210
0
220
0
230
1
40
0.996195
41
0
42
0.0335758030814264
0
ELLIPSE
5
147
100
AcDbEntity
8
1
62
256
6
ByLayer
370
-1
48
1
60
0
100
AcDbEllipse
10
181.661733
20
22.191086
30
0
11
3.5846472274878E-16
21
0.306
31
0
210
0
220
0
230
1
40
0.996195
41
-0.750491578357687
42
1.83550459668068
0
ELLIPSE
5
148
100
AcDbEntity
8
1
62
256
6
ByLayer
370
-1
48
1
60
0
100
AcDbEllipse
10
182.899135
20
13.331524
30
0
11
-0.406468958660141
21
0.308030819311543
31
0
210
0
220
0
230
1
40
0.052768
41
-2.28381636720095
42
-0.99681414961358
0
ELLIPSE
5
149
100
AcDbEntity
8
1
62
256
6
ByLayer
370
-1
48
1
60
0
100
AcDbEllipse
10
183.024161
20
20.915749
30
0
11
-3.27992028068685E-16
21
-0.306
31
0
210
0
220
0
230
1
40
0.996195
41
-0.750491578357547
42
2.39110107523211
0
ELLIPSE
5
14A
100
AcDbEntity
8
1
62
256
6
ByLayer
370
-1
48
1
60
0
100
AcDbEllipse
10
182.668138
20
13.082864
30
0
11
-0.337063013710962
21
0.382738193531928
31
0
210
0
220
0
230
1
40
0.065516
41
-2.2719312532168
42
-0.984929035630729
0
ELLIPSE
5
14B
100
AcDbEntity
8
1
62
256
6
ByLayer
370
-1
48
1
60
0
100
AcDbEllipse
10
181.586834
20
14.360779
30
0
11
2.34993540468645E-15
21
2.006
31
0
210
0
220
0
230
1
40
0.996195
41
-2.421455326314
42
-2.2211204839909
0
ELLIPSE
5
14C
100
AcDbEntity
8
1
62
256
6
ByLayer
370
-1
48
1
60
0
100
AcDbEllipse
10
182.315628
20
14.691291
30
0
11
-0.0546667450361371
21
-0.507061679667428
31
0
210
0
220
0
230
1
40
0.086657
41
1.58013866027565
42
2.22363976906874
0
ELLIPSE
5
14D
100
AcDbEntity
8
1
62
256
6
ByLayer
370
-1
48
1
60
0
100
AcDbEllipse
10
182.145266
20
13.721822
30
0
11
6.37270618220054E-16
21
0.544
31
0
210
0
220
0
230
1
40
0.996195
41
1.74759996643892
42
-2.42145532631398
0
ELLIPSE
5
14E
100
AcDbEntity
8
1
62
256
6
ByLayer
370
-1
48
1
60
0
100
AcDbEllipse
10
185.735912
20
17.587026
30
0
11
3.68413502519129E-15
21
3.14492681194351
31
0
210
0
220
0
230
1
40
0.996195
41
0
42
6.28318530717959
0
ELLIPSE
5
14F
100
AcDbEntity
8
1
62
256
6
ByLayer
370
-1
48
1
60
0
100
AcDbEllipse
10
190.332343
20
22.257184
30
0
11
0.399758180070776
21
0.0139067417643928
31
0
210
0
220
0
230
1
40
0.003042
41
-1.48358275532896
42
-1.0046776704556
0
ELLIPSE
5
150
100
AcDbEntity
8
1
62
256
6
ByLayer
370
-1
48
1
60
0
100
AcDbEllipse
10
187.391105
20
13.137097
30
0
11
-5.19131082315856E-16
21
-0.484323085911667
31
0
210
0
220
0
230
1
40
0.996195
41
-2.78424263309281
42
0.0349065850399259
0
ELLIPSE
5
151
100
AcDbEntity
8
1
62
256
6
ByLayer
370
-1
48
1
60
0
100
AcDbEllipse
10
185.735912
20
17.587026
30
0
11
4.99704147825015E-15
21
4.26567691408833
31
0
210
0
220
0
230
1
40
0.996195
41
-2.78424263309282
42
-1.8583331772121
0
ELLIPSE
5
152
100
AcDbEntity
8
1
62
256
6
ByLayer
370
-1
48
1
60
0
100
AcDbEllipse
10
182.315628
20
14.691291
30
0
11
0.373651049327857
21
-0.347109339165905
31
0
210
0
220
0
230
1
40
0.05944
41
1.50689827555577
42
2.15039938434869
0
ELLIPSE
5
153
100
AcDbEntity
8
1
62
256
6
ByLayer
370
-1
48
1
60
0
100
AcDbEllipse
10
187.036473
20
22.441833
30
0
11
-0.0140130575244566
21
0.399754467415708
31
0
210
0
220
0
230
1
40
0.087103
41
-1.5738496276308
42
-1.09494454275608
0
ELLIPSE
5
154
100
AcDbEntity
8
1
62
256
6
ByLayer
370
-1
48
1
60
0
100
AcDbEllipse
10
190.068529
20
22.246715
30
0
11
-3.21560811832048E-16
21
-0.300000000000003
31
0
210
0
220
0
230
1
40
0.996195
41
1.60570291183477
42
-3.10668606854979
0
ELLIPSE
5
155
100
AcDbEntity
8
1
62
256
6
ByLayer
370
-1
48
1
60
0
100
AcDbEllipse
10
187.077843
20
22.142016
30
0
11
-5.19131082315856E-16
21
-0.484323085911667
31
0
210
0
220
0
230
1
40
0.996195
41
-3.10668606854993
42
-0.287536850417242
0
ELLIPSE
5
156
100
AcDbEntity
8
1
62
256
6
ByLayer
370
-1
48
1
60
0
100
AcDbEllipse
10
180.840784
20
21.345641
30
0
11
-1.65004005458274
21
0.846499038369815
31
0
210
0
220
0
230
-1
40
0.010943
41
1.59212368539516
42
2.23562479423266
0
ELLIPSE
5
157
100
AcDbEntity
8
1
62
256
6
ByLayer
370
-1
48
1
60
0
100
AcDbEllipse
10
182.203211
20
20.070304
30
0
11
0.348527918949298
21
0.3723282016083
31
0
210
0
220
0
230
1
40
0.063742
41
-2.1547009679556
42
-0.867698750369098
0
ELLIPSE
5
158
100
AcDbEntity
8
1
62
256
6
ByLayer
370
-1
48
1
60
0
100
AcDbEllipse
10
182.238771
20
20.070304
30
0
11
-3.27992028068685E-16
21
-0.306
31
0
210
0
220
0
230
1
40
0.996195
41
-0.750491578357564
42
2.39110107523224
0
ELLIPSE
5
159
100
AcDbEntity
8
1
62
256
6
ByLayer
370
-1
48
1
60
0
100
AcDbEllipse
10
182.225205
20
13.846152
30
0
11
-0.348527918949299
21
-0.3723282016083
31
0
210
0
220
0
230
1
40
0.063742
41
0.986891685633968
42
2.27389390322046
0
ELLIPSE
5
15A
100
AcDbEntity
8
1
62
256
6
ByLayer
370
-1
48
1
60
0
100
AcDbEllipse
10
182.260764
20
13.846152
30
0
11
-3.27992028068685E-16
21
-0.306
31
0
210
0
220
0
230
1
40
0.996195
41
-0.750491578357555
42
2.39110107523211
0
ELLIPSE
5
15B
100
AcDbEntity
8
1
62
256
6
ByLayer
370
-1
48
1
60
0
100
AcDbEllipse
10
181.947344
20
21.133417
30
0
11
-3.27992028068685E-16
21
-0.306
31
0
210
0
220
0
230
1
40
0.996195
41
-0.194895099805945
42
1.83550459668068
0
ELLIPSE
5
15C
100
AcDbEntity
8
1
62
256
6
ByLayer
370
-1
48
1
60
0
100
AcDbEllipse
10
182.260764
20
13.846152
30
0
11
-5.83096938788774E-16
21
-0.544
31
0
210
0
220
0
230
1
40
0.996195
41
0.920472169598871
42
2.77549784972785
0
ELLIPSE
5
15D
100
AcDbEntity
8
1
62
256
6
ByLayer
370
-1
48
1
60
0
100
AcDbEllipse
10
187.081765
20
22.142016
30
0
11
-3.21560811832046E-16
21
-0.300000000000001
31
0
210
0
220
0
230
1
40
0.996195
41
-3.10668606854979
42
-0.28753685041726
0
ELLIPSE
5
15E
100
AcDbEntity
8
1
62
256
6
ByLayer
370
-1
48
1
60
0
100
AcDbEllipse
10
181.911784
20
21.133417
30
0
11
0.492364140378782
21
0.132956960212932
31
0
210
0
220
0
230
1
40
0.022802
41
-1.48655483674065
42
-0.843053727947147
0
ELLIPSE
5
15F
100
AcDbEntity
8
1
62
256
6
ByLayer
370
-1
48
1
60
0
100
AcDbEllipse
10
190.172829
20
19.248542
30
0
11
-3.21560811832046E-16
21
-0.300000000000001
31
0
210
0
220
0
230
1
40
0.996195
41
-1.21344630629795
42
1.60570291183477
0
ELLIPSE
5
160
100
AcDbEntity
8
1
62
256
6
ByLayer
370
-1
48
1
60
0
100
AcDbEllipse
10
182.351188
20
14.691291
30
0
11
3.5846472274878E-16
21
0.306
31
0
210
0
220
0
230
1
40
0.996195
41
-0.10699046956434
42
0.820304748434563
0
ELLIPSE
5
161
100
AcDbEntity
8
1
62
256
6
ByLayer
370
-1
48
1
60
0
100
AcDbEllipse
10
185.735912
20
17.587026
30
0
11
4.99704147825015E-15
21
4.26567691408833
31
0
210
0
220
0
230
1
40
0.996195
41
-1.21344630629792
42
-0.287536850417201
0
ELLIPSE
5
162
100
AcDbEntity
8
1
62
256
6
ByLayer
370
-1
48
1
60
0
100
AcDbEllipse
10
187.370595
20
12.83728
30
0
11
0.0140130575244565
21
-0.399754467415708
31
0
210
0
220
0
230
1
40
0.087103
41
1.08883794108465
42
1.56774302595899
0
ELLIPSE
5
163
100
AcDbEntity
8
1
62
256
6
ByLayer
370
-1
48
1
60
0
100
AcDbEllipse
10
185.832982
20
17.587026
30
0
11
-3.19627500372467E-15
21
-2.98196318032136
31
0
210
0
220
0
230
1
40
0.996195
41
0
42
6.28318530717959
0
ELLIPSE
5
164
100
AcDbEntity
8
1
62
256
6
ByLayer
370
-1
48
1
60
0
100
AcDbEllipse
10
190.277491
20
16.239968
30
0
11
3.51436002694884E-16
21
0.300000000000001
31
0
210
0
220
0
230
1
40
0.996195
41
-1.53588974175502
42
1.28325947637766
0
ELLIPSE
5
165
100
AcDbEntity
8
1
62
256
6
ByLayer
370
-1
48
1
60
0
100
AcDbEllipse
10
190.381791
20
13.241796
30
0
11
3.51436002694886E-16
21
0.300000000000003
31
0
210
0
220
0
230
1
40
0.996195
41
-3.10668606854998
42
-1.53588974175502
0
ELLIPSE
5
166
100
AcDbEntity
8
1
62
256
6
ByLayer
370
-1
48
1
60
0
100
AcDbEllipse
10
181.840955
20
14.180323
30
0
11
0.373651049327857
21
-0.347109339165905
31
0
210
0
220
0
230
1
40
0.05944
41
1.47029936263286
42
2.15039938434869
0
ELLIPSE
5
167
100
AcDbEntity
8
1
62
256
6
ByLayer
370
-1
48
1
60
0
100
AcDbEllipse
10
181.626174
20
22.191086
30
0
11
0.348527918949298
21
0.3723282016083
31
0
210
0
220
0
230
1
40
0.063742
41
-1.51119985916248
42
-0.867698750368787
0
ELLIPSE
5
168
100
AcDbEntity
8
1
62
256
6
ByLayer
370
-1
48
1
60
0
100
AcDbEllipse
10
190.168907
20
19.248542
30
0
11
-5.19131082315857E-16
21
-0.484323085911668
31
0
210
0
220
0
230
1
40
0.996195
41
-1.21344630629796
42
1.60570291183474
0
ELLIPSE
5
169
100
AcDbEntity
8
1
62
256
6
ByLayer
370
-1
48
1
60
0
100
AcDbEllipse
10
185.739834
20
17.587026
30
0
11
-4.76981870884199E-15
21
-4.45
31
0
210
0
220
0
230
1
40
0.996195
41
0.357350020496975
42
1.28325947637769
0
ELLIPSE
5
16A
100
AcDbEntity
8
1
62
256
6
ByLayer
370
-1
48
1
60
0
100
AcDbEllipse
10
181.911784
20
21.133417
30
0
11
0.099131498336372
21
0.500272871578687
31
0
210
0
220
0
230
1
40
0.085506
41
-2.19735568521883
42
-1.55385457642578
0
ELLIPSE
5
16B
100
AcDbEntity
8
1
62
256
6
ByLayer
370
-1
48
1
60
0
100
AcDbEllipse
10
181.889193
20
14.193971
30
0
11
3.5846472274878E-16
21
0.306
31
0
210
0
220
0
230
1
40
0.996195
41
0.881327184779031
42
2.39110107523225
0
ELLIPSE
5
16C
100
AcDbEntity
8
1
62
256
6
ByLayer
370
-1
48
1
60
0
100
AcDbEllipse
10
191.198888
20
-2.323588
30
0
11
1.08387341434895
21
0
31
0
210
0
220
0
230
1
40
0.998135
41
0.0523598775598188
42
0.349065850399041
0
ELLIPSE
5
16D
100
AcDbEntity
8
1
62
256
6
ByLayer
370
-1
48
1
60
0
100
AcDbEllipse
10
192.719357
20
-9.410138
30
0
11
0.399755420109682
21
-0.0139858533144044
31
0
210
0
220
0
230
1
40
0.061011
41
-2.69051241236504
42
-1.56866178537651
0
ELLIPSE
5
16E
100
AcDbEntity
8
1
62
256
6
ByLayer
370
-1
48
1
60
0
100
AcDbEllipse
10
196.524413
20
-7.156699
30
0
11
-3.98093556580436
21
4.02328895856829E-15
31
0
210
0
220
0
230
1
40
0.998135
41
0.0523598775598139
42
0.419380376866296
0
ELLIPSE
5
16F
100
AcDbEntity
8
1
62
256
6
ByLayer
370
-1
48
1
60
0
100
AcDbEllipse
10
191.981687
20
-2.25822
30
0
11
0.399449767440439
21
0.0209733948558593
31
0
210
0
220
0
230
1
40
0.060965
41
-2.26004055362342
42
-1.5739973200739
0
ELLIPSE
5
170
100
AcDbEntity
8
1
62
256
6
ByLayer
370
-1
48
1
60
0
100
AcDbEllipse
10
191.501036
20
-9.392092
30
0
11
-1.21906443419553
21
1.23203412785989E-15
31
0
210
0
220
0
230
1
40
0.998135
41
3.10668606854992
42
-2.72221227672347
0
ELLIPSE
5
171
100
AcDbEntity
8
1
62
256
6
ByLayer
370
-1
48
1
60
0
100
AcDbEllipse
10
186.064564
20
-6.85973
30
0
11
2.35
21
0
31
0
210
0
220
0
230
1
40
0.998135
41
1.21020019771931
42
2.43365406000298
0
ELLIPSE
5
172
100
AcDbEntity
8
1
62
256
6
ByLayer
370
-1
48
1
60
0
100
AcDbEllipse
10
186.064564
20
-6.85973
30
0
11
2.35
21
0
31
0
210
0
220
0
230
1
40
0.998135
41
-3.14159257215789
42
-3.78654454259376E-16
0
ELLIPSE
5
173
100
AcDbEntity
8
1
62
256
6
ByLayer
370
-1
48
1
60
0
100
AcDbEllipse
10
186.064564
20
-6.756289
30
0
11
2.35
21
0
31
0
210
0
220
0
230
1
40
0.998135
41
1.43914375962751
42
2.37141152198152
0
ELLIPSE
5
174
100
AcDbEntity
8
1
62
256
6
ByLayer
370
-1
48
1
60
0
100
AcDbEllipse
10
186.064564
20
-6.756289
30
0
11
2.35
21
0
31
0
210
0
220
0
230
1
40
0.998135
41
-3.14159257215789
42
-3.78654454259376E-16
0
ELLIPSE
5
175
100
AcDbEntity
8
1
62
256
6
ByLayer
370
-1
48
1
60
0
100
AcDbEllipse
10
192.020086
20
-11.331931
30
0
11
0.299807269110745
21
-0.010751808608676
31
0
210
0
220
0
230
1
40
0.062833
41
0.44649492500309
42
0.735886306861261
0
ELLIPSE
5
176
100
AcDbEntity
8
1
62
256
6
ByLayer
370
-1
48
1
60
0
100
AcDbEllipse
10
190.636065
20
-1.071963
30
0
11
1.18387341434896
21
0
31
0
210
0
220
0
230
1
40
0.998135
41
0.349065850399013
42
0.562842392296928
0
ELLIPSE
5
177
100
AcDbEntity
8
1
62
256
6
ByLayer
370
-1
48
1
60
0
100
AcDbEllipse
10
191.768686
20
-11.328421
30
0
11
-0.883873414348952
21
8.93276992290047E-16
31
0
210
0
220
0
230
1
40
0.998135
41
2.13630974316582
42
3.10668606854994
0
ELLIPSE
5
178
100
AcDbEntity
8
1
62
256
6
ByLayer
370
-1
48
1
60
0
100
AcDbEllipse
10
191.768686
20
-11.328421
30
0
11
1.18387341434896
21
0
31
0
210
0
220
0
230
1
40
0.998135
41
-1.15180100044598
42
-0.0349065850398883
0
ELLIPSE
5
179
100
AcDbEntity
8
1
62
256
6
ByLayer
370
-1
48
1
60
0
100
AcDbEllipse
10
191.501036
20
-9.392092
30
0
11
1.51906443419564
21
0
31
0
210
0
220
0
230
1
40
0.998135
41
-0.0349065850399019
42
0.419380376866321
0
ELLIPSE
5
17A
100
AcDbEntity
8
1
62
256
6
ByLayer
370
-1
48
1
60
0
100
AcDbEllipse
10
192.652021
20
-11.33479
30
0
11
0.399755420109682
21
-0.0139858533144044
31
0
210
0
220
0
230
1
40
0.061011
41
-2.69514959798633
42
-1.56866178537651
0
ELLIPSE
5
17B
100
AcDbEntity
8
1
62
256
6
ByLayer
370
-1
48
1
60
0
100
AcDbEllipse
10
192.088928
20
-9.407211
30
0
11
0.29981059662464
21
-0.0106586186524087
31
0
210
0
220
0
230
1
40
0.062172
41
0.451113598197678
42
0.749081453625477
0
ELLIPSE
5
17C
100
AcDbEntity
8
1
62
256
6
ByLayer
370
-1
48
1
60
0
100
AcDbEllipse
10
196.524413
20
-7.413103
30
0
11
-3.00000000000001
21
3.0319171652471E-15
31
0
210
0
220
0
230
1
40
0.998135
41
0.0523598775598173
42
0.419380376866299
0
ELLIPSE
5
17D
100
AcDbEntity
8
1
62
256
6
ByLayer
370
-1
48
1
60
0
100
AcDbEllipse
10
196.524413
20
-7.156699
30
0
11
4.28093556580439
21
0
31
0
210
0
220
0
230
1
40
0.998135
41
-3.08923277602997
42
-2.7222122767235
0
ELLIPSE
5
17E
100
AcDbEntity
8
1
62
256
6
ByLayer
370
-1
48
1
60
0
100
AcDbEllipse
10
192.038678
20
-9.146998
30
0
11
0.274043758267672
21
0.122065632159629
31
0
210
0
220
0
230
1
40
0.058035
41
0.424839320317315
42
0.724171078307832
0
ELLIPSE
5
17F
100
AcDbEntity
8
1
62
256
6
ByLayer
370
-1
48
1
60
0
100
AcDbEllipse
10
192.249345
20
-7.355908
30
0
11
0.399449767440439
21
0.0209733948558593
31
0
210
0
220
0
230
1
40
0.060965
41
-2.26002761206164
42
-1.57399732007398
0
ELLIPSE
5
180
100
AcDbEntity
8
1
62
256
6
ByLayer
370
-1
48
1
60
0
100
AcDbEllipse
10
191.501036
20
-9.648496
30
0
11
-2.49999999999999
21
2.5265976377059E-15
31
0
210
0
220
0
230
1
40
0.998135
41
3.1066860685499
42
-2.72221227672349
0
ELLIPSE
5
181
100
AcDbEntity
8
1
62
256
6
ByLayer
370
-1
48
1
60
0
100
AcDbEllipse
10
191.501036
20
-9.520294
30
0
11
-2.24215242210385
21
2.26600680522567E-15
31
0
210
0
220
0
230
1
40
0.998135
41
3.10668606854989
42
-2.72221227672348
0
ELLIPSE
5
182
100
AcDbEntity
8
1
62
256
6
ByLayer
370
-1
48
1
60
0
100
AcDbEllipse
10
192.614458
20
-8.872202
30
0
11
0.365223319349419
21
0.163131624780091
31
0
210
0
220
0
230
1
40
0.055758
41
-2.71681212084368
42
-1.59569626835045
0
ELLIPSE
5
183
100
AcDbEntity
8
1
62
256
6
ByLayer
370
-1
48
1
60
0
100
AcDbEllipse
10
196.524413
20
-7.284901
30
0
11
-3.25784757789614
21
3.29250799772732E-15
31
0
210
0
220
0
230
1
40
0.998135
41
0.0523598775598178
42
0.419380376866289
0
ELLIPSE
5
184
100
AcDbEntity
8
1
62
256
6
ByLayer
370
-1
48
1
60
0
100
AcDbEllipse
10
191.935488
20
-2.031568
30
0
11
0.375794833735044
21
0.137033729198511
31
0
210
0
220
0
230
1
40
0.057367
41
-2.20153972804385
42
-1.59171212435566
0
ELLIPSE
5
185
100
AcDbEntity
8
1
62
256
6
ByLayer
370
-1
48
1
60
0
100
AcDbEllipse
10
191.198888
20
-2.323588
30
0
11
-0.783873414348954
21
7.92213086781812E-16
31
0
210
0
220
0
230
1
40
0.998135
41
-3.08923277602995
42
-2.79252680319093
0
POINT
5
41
100
AcDbEntity
8
81
62
256
6
ByLayer
370
-1
48
1
60
0
100
AcDbPoint
10
194
20
0
30
0
39
0
210
0
220
0
230
1
50
360
0
POINT
5
43
100
AcDbEntity
8
80
62
256
6
ByLayer
370
-1
48
1
60
0
100
AcDbPoint
10
0
20
0
30
0
39
0
210
0
220
0
230
1
50
360
0
SPLINE
5
186
100
AcDbEntity
8
1
62
256
6
ByLayer
370
-1
48
1
60
0
100
AcDbSpline
70
4
71
3
72
24
73
20
40
0
40
0
40
0
40
0
40
0.05122193249595
40
0.114795075180365
40
0.178268200557147
40
0.241581453348874
40
0.304701879023949
40
0.367626814561732
40
0.430381895458681
40
0.493015351539977
40
0.555590417373242
40
0.618167359708158
40
0.680802024190469
40
0.743557000804829
40
0.806479913224953
40
0.869596202215381
40
0.932903765868109
40
0.996370983435438
40
1
40
1
40
1
40
1
41
1
10
186.092432545585
20
19.9279970010539
30
0
41
1
10
186.21489700971
20
19.9259228705849
30
0
41
1
10
186.484252302965
20
19.8987145041215
30
0
41
1
10
186.890746458737
20
19.771163784351
30
0
41
1
10
187.291085512447
20
19.5566465070245
30
0
41
1
10
187.642891084607
20
19.2674024785289
30
0
41
1
10
187.932675989077
20
18.9157563728518
30
0
41
1
10
188.149770243256
20
18.5147479561541
30
0
41
1
10
188.286260266019
20
18.0796062674256
30
0
41
1
10
188.337330450512
20
17.626578698825
30
0
41
1
10
188.301331580017
20
17.1724911072716
30
0
41
1
10
188.179802238617
20
16.7340898372813
30
0
41
1
10
187.977373077752
20
16.3275300557469
30
0
41
1
10
187.701528948073
20
15.9674475987512
30
0
41
1
10
187.362342329633
20
15.6678762520947
30
0
41
1
10
186.972041480825
20
15.4367030042321
30
0
41
1
10
186.545145123271
20
15.2946497761661
30
0
41
1
10
186.23758029002
20
15.2314311526027
30
0
41
1
10
186.079255901979
20
15.2401396589781
30
0
41
1
10
186.070686963363
20
15.2406859612057
30
0
0
SPLINE
5
187
100
AcDbEntity
8
1
62
256
6
ByLayer
370
-1
48
1
60
0
100
AcDbSpline
70
4
71
3
72
14
73
10
40
0
40
0
40
0
40
0
40
0.0494021371765257
40
0.218888154709499
40
0.38811492150615
40
0.557115196213089
40
0.725953621708158
40
0.894716831922985
40
1
40
1
40
1
40
1
41
1
10
184.319490404385
20
-5.29250607545032
30
0
41
1
10
184.349098277346
20
-5.25981481316205
30
0
41
1
10
184.484404517675
20
-5.11863067050092
30
0
41
1
10
184.755162859348
20
-4.8989568864578
30
0
41
1
10
185.158685723285
20
-4.68466758461051
30
0
41
1
10
185.595845077081
20
-4.55177612949021
30
0
41
1
10
186.0502785377
20
-4.50511362485219
30
0
41
1
10
186.448022192915
20
-4.54113030136938
30
0
41
1
10
186.686849838935
20
-4.60129406102735
30
0
41
1
10
186.776860488099
20
-4.62979866232823
30
0
0
SPLINE
5
188
100
AcDbEntity
8
1
62
256
6
ByLayer
370
-1
48
1
60
0
100
AcDbSpline
70
4
71
3
72
16
73
12
40
0
40
0
40
0
40
0
40
0.0784921926617295
40
0.157320559444095
40
0.235797420759831
40
0.31438332546593
40
0.437638610717259
40
0.560674587369133
40
0.706978997407147
40
0.853322102565046
40
1
40
1
40
1
40
1
41
1
10
36.0000000000001
20
24.8
30
0
41
1
10
35.1601845166659
20
24.8005605876524
30
0
41
1
10
33.4969964095577
20
24.9196055038333
30
0
41
1
10
31.0289768857162
20
25.4258835352094
30
0
41
1
10
28.6908208616083
20
26.3394114501728
30
0
41
1
10
25.9382332472986
20
27.4729311954685
30
0
41
1
10
22.6653502005749
20
28.5789190018685
30
0
41
1
10
18.6429761194303
20
29.6876759069082
30
0
41
1
10
14.3097077795037
20
30.5582557767403
30
0
41
1
10
9.67049060199761
20
31.1229490589922
30
0
41
1
10
6.56182904989177
20
31.2487527534936
30
0
41
1
10
5.00000000000003
20
31.25
30
0
0
SPLINE
5
189
100
AcDbEntity
8
1
62
256
6
ByLayer
370
-1
48
1
60
0
100
AcDbSpline
70
4
71
3
72
17
73
13
40
0
40
0
40
0
40
0
40
0.140017362940842
40
0.27971601628767
40
0.419358292945036
40
0.559141293771253
40
0.632476793237491
40
0.705904034723594
40
0.779397480474823
40
0.852852249933355
40
0.926594819167857
40
1
40
1
40
1
40
1
41
1
10
4.99999999999997
20
-31.25
30
0
41
1
10
6.49067021272029
20
-31.2489266579215
30
0
41
1
10
9.45858866775438
20
-31.1340952347354
30
0
41
1
10
13.8897351277943
20
-30.6195613988551
30
0
41
1
10
18.265253418759
20
-29.7781896531559
30
0
41
1
10
21.88890234255
20
-28.8081181975841
30
0
41
1
10
24.7813066719088
20
-27.8589311136853
30
0
41
1
10
26.9834374947499
20
-27.0644421657988
30
0
41
1
10
29.1310948686989
20
-26.1319862175833
30
0
41
1
10
31.3471395105231
20
-25.3523977859544
30
0
41
1
10
33.6580914280033
20
-24.9033119918134
30
0
41
1
10
35.2152787361187
20
-24.8004289376348
30
0
41
1
10
36
20
-24.8
30
0
0
SPLINE
5
18A
100
AcDbEntity
8
1
62
256
6
ByLayer
370
-1
48
1
60
0
100
AcDbSpline
70
4
71
3
72
12
73
8
40
0
40
0
40
0
40
0
40
0.25
40
0.25
40
0.5
40
0.5
40
1
40
1
40
1
40
1
41
1
10
177.830659620347
20
17.1609427711086
30
0
41
1
10
177.834854607
20
17.1609427711086
30
0
41
1
10
177.843025692772
20
17.1666197417305
30
0
41
1
10
177.866411976588
20
17.1874190871429
30
0
41
1
10
177.881845355247
20
17.2027612995094
30
0
41
1
10
177.935628903286
20
17.2574562990221
30
0
41
1
10
177.982099920437
20
17.3058140214067
30
0
41
1
10
178.036040497171
20
17.357546888373
30
0
0
SPLINE
5
18B
100
AcDbEntity
8
1
62
256
6
ByLayer
370
-1
48
1
60
0
100
AcDbSpline
70
4
71
3
72
24
73
20
40
0
40
0
40
0
40
0
40
0.0625
40
0.0625
40
0.125
40
0.125
40
0.25
40
0.25
40
0.375
40
0.375
40
0.5
40
0.5
40
0.625
40
0.625
40
0.75
40
0.75
40
0.875
40
0.875
40
1
40
1
40
1
40
1
41
1
10
178.175650138845
20
9.63486768390888
30
0
41
1
10
178.178162389209
20
9.63486768390888
30
0
41
1
10
178.178984168829
20
9.63642642856027
30
0
41
1
10
178.177351973236
20
9.64262412379532
30
0
41
1
10
178.174852844307
20
9.64732548782902
30
0
41
1
10
178.163031443159
20
9.66554892537573
30
0
41
1
10
178.149501823412
20
9.6831210193146
30
0
41
1
10
178.114675746933
20
9.7276822008983
30
0
41
1
10
178.093969994258
20
9.75395115988519
30
0
41
1
10
178.048710855642
20
9.81364580774627
30
0
41
1
10
178.023906784499
20
9.84741438555136
30
0
41
1
10
177.973185528066
20
9.92061422732451
30
0
41
1
10
177.947268119272
20
9.96000016011487
30
0
41
1
10
177.895299921795
20
10.0446892267194
30
0
41
1
10
177.869153574947
20
10.0902227051462
30
0
41
1
10
177.819141761854
20
10.1845642245361
30
0
41
1
10
177.795044769087
20
10.2337130537044
30
0
41
1
10
177.749032859274
20
10.336400555851
30
0
41
1
10
177.726960170088
20
10.3904742094738
30
0
41
1
10
177.707072878914
20
10.4443706712179
30
0
0
SPLINE
5
18C
100
AcDbEntity
8
1
62
256
6
ByLayer
370
-1
48
1
60
0
100
AcDbSpline
70
4
71
3
72
22
73
18
40
0
40
0
40
0
40
0
40
0.159734630413093
40
0.159734630413093
40
0.327787704330473
40
0.327787704330473
40
0.495840778247853
40
0.495840778247853
40
0.663893852165233
40
0.663893852165233
40
0.747920389123925
40
0.747920389123925
40
0.831946926082617
40
0.831946926082617
40
0.915973463041309
40
0.915973463041309
40
1
40
1
40
1
40
1
41
1
10
131.974582224684
20
20.9539657153876
30
0
41
1
10
133.104145177864
20
21.1975938717219
30
0
41
1
10
134.234788233958
20
21.4310281411923
30
0
41
1
10
136.5522684982
20
21.8879973821919
30
0
41
1
10
137.73912419647
20
22.1103666780795
30
0
41
1
10
140.111943592864
20
22.5293168424677
30
0
41
1
10
141.297963024858
20
22.7258508828925
30
0
41
1
10
143.670326321328
20
23.0922666951702
30
0
41
1
10
144.856339869536
20
23.2624877225421
30
0
41
1
10
146.635167073019
20
23.4983354793355
30
0
41
1
10
147.228264444239
20
23.5735568775999
30
0
41
1
10
148.414078390942
20
23.7177449266831
30
0
41
1
10
149.006543215189
20
23.7868761489888
30
0
41
1
10
150.192062343592
20
23.9181074272195
30
0
41
1
10
150.78510175418
20
23.9802370755656
30
0
41
1
10
151.97151482509
20
24.0977283163396
30
0
41
1
10
152.564420026223
20
24.1533644407767
30
0
41
1
10
153.157494002831
20
24.2055790058065
30
0
0
SPLINE
5
18D
100
AcDbEntity
8
1
62
256
6
ByLayer
370
-1
48
1
60
0
100
AcDbSpline
70
4
71
3
72
48
73
44
40
0
40
0
40
0
40
0
40
0.0204952021096225
40
0.0204952021096225
40
0.0958417250242668
40
0.0958417250242668
40
0.171188247938911
40
0.171188247938911
40
0.246534770853555
40
0.246534770853555
40
0.284208032310878
40
0.284208032310878
40
0.3218812937682
40
0.3218812937682
40
0.397227816682845
40
0.397227816682845
40
0.472574339597489
40
0.472574339597489
40
0.510247601054811
40
0.510247601054811
40
0.547920862512133
40
0.547920862512133
40
0.623267385426778
40
0.623267385426778
40
0.698613908341422
40
0.698613908341422
40
0.736287169798744
40
0.736287169798744
40
0.773960431256067
40
0.773960431256067
40
0.811633692713389
40
0.811633692713389
40
0.849306954170711
40
0.849306954170711
40
0.886980215628034
40
0.886980215628034
40
0.905816846356695
40
0.905816846356695
40
0.924653477085356
40
0.924653477085356
40
0.962326738542678
40
0.962326738542678
40
1
40
1
40
1
40
1
41
1
10
125.480179641243
20
-18.727203662529
30
0
41
1
10
124.850252588209
20
-18.8713199078899
30
0
41
1
10
124.22026557033
20
-19.0125296349708
30
0
41
1
10
121.275434650514
20
-19.6585923174563
30
0
41
1
10
118.96303858741
20
-20.1251409091254
30
0
41
1
10
114.339697941019
20
-20.9711962301706
30
0
41
1
10
112.028767401233
20
-21.3510225069919
30
0
41
1
10
107.405051142698
20
-22.0212482516279
30
0
41
1
10
105.092447582659
20
-22.3106606953334
30
0
41
1
10
101.61933925583
20
-22.6750685960587
30
0
41
1
10
100.461573864943
20
-22.7847663906847
30
0
41
1
10
98.1480212730251
20
-22.9797763363295
30
0
41
1
10
96.9919251208975
20
-23.0648516501129
30
0
41
1
10
93.5247278561946
20
-23.283039973542
30
0
41
1
10
91.2149721265706
20
-23.3779353225386
30
0
41
1
10
86.5942855152298
20
-23.4664287815751
30
0
41
1
10
84.283200118335
20
-23.4607869197663
30
0
41
1
10
80.8129794659307
20
-23.3787231642606
30
0
41
1
10
79.6551773049856
20
-23.338924606382
30
0
41
1
10
77.3405519884415
20
-23.2344271206816
30
0
41
1
10
76.1839683664084
20
-23.1698499721978
30
0
41
1
10
72.7156379043647
20
-22.9399962745705
30
0
41
1
10
70.4054701380116
20
-22.7377948806981
30
0
41
1
10
65.7852693678502
20
-22.2393269909092
30
0
41
1
10
63.4753823622439
20
-21.9422668811513
30
0
41
1
10
60.0081051290021
20
-21.4258352203871
30
0
41
1
10
58.8519155653303
20
-21.2420325934029
30
0
41
1
10
56.5381726497675
20
-20.8518125326982
30
0
41
1
10
55.3806883865024
20
-20.6453887452411
30
0
41
1
10
53.0681603344992
20
-20.2107007550761
30
0
41
1
10
51.9125037523672
20
-19.9828336683182
30
0
41
1
10
49.6021301095124
20
-19.5058831007544
30
0
41
1
10
48.4475759488726
20
-19.2559131343959
30
0
41
1
10
46.1387733208626
20
-18.7361036330493
30
0
41
1
10
44.9841407180494
20
-18.4686045463039
30
0
41
1
10
43.2527264021426
20
-18.049210306968
30
0
41
1
10
42.6755823801169
20
-17.9069270748413
30
0
41
1
10
41.5210876467971
20
-17.6183808065162
30
0
41
1
10
40.9437733407859
20
-17.4719005163234
30
0
41
1
10
39.211819022057
20
-17.0240179428814
30
0
41
1
10
38.0569284357544
20
-16.7157359097345
30
0
41
1
10
35.7459091050895
20
-16.0822676366499
30
0
41
1
10
34.5897902492575
20
-15.7570865548526
30
0
41
1
10
33.4329310186301
20
-15.422838219626
30
0
0
SPLINE
5
18E
100
AcDbEntity
8
1
62
256
6
ByLayer
370
-1
48
1
60
0
100
AcDbSpline
70
4
71
3
72
8
73
4
40
0
40
0
40
0
40
0
40
1
40
1
40
1
40
1
41
1
10
36.0000000000001
20
14.447479684843
30
0
41
1
10
37.161299072793
20
13.9547335344019
30
0
41
1
10
38.3043864863908
20
13.4230475172515
30
0
41
1
10
39.4329941925878
20
12.854281156452
30
0
0
SPLINE
5
18F
100
AcDbEntity
8
1
62
256
6
ByLayer
370
-1
48
1
60
0
100
AcDbSpline
70
4
71
3
72
8
73
4
40
0
40
0
40
0
40
0
40
1
40
1
40
1
40
1
41
1
10
144.709700913883
20
17.8094088263761
30
0
41
1
10
144.201104305506
20
17.9531091893058
30
0
41
1
10
143.685939338094
20
18.1062558852358
30
0
41
1
10
143.165018318087
20
18.2676806897915
30
0
0
SPLINE
5
190
100
AcDbEntity
8
1
62
256
6
ByLayer
370
-1
48
1
60
0
100
AcDbSpline
70
4
71
2
72
6
73
3
40
0
40
0
40
0
40
1
40
1
40
1
41
1
10
28.4195399197389
20
-12.5333692970153
30
0
41
1
10
28.4195399197388
20
-14.7378053118206
30
0
41
1
10
28.4195399197388
20
-16.942241326626
30
0
0
SPLINE
5
191
100
AcDbEntity
8
1
62
256
6
ByLayer
370
-1
48
1
60
0
100
AcDbSpline
70
4
71
3
72
8
73
4
40
0
40
0
40
0
40
0
40
1
40
1
40
1
40
1
41
1
10
20.0863448182093
20
-6.38366840438096
30
0
41
1
10
20.0863448182093
20
-8.39980373454139
30
0
41
1
10
20.0863448182093
20
-10.4159390647018
30
0
41
1
10
20.0863448182093
20
-12.4320743948623
30
0
0
SPLINE
5
192
100
AcDbEntity
8
1
62
256
6
ByLayer
370
-1
48
1
60
0
100
AcDbSpline
70
4
71
3
72
14
73
10
40
0
40
0
40
0
40
0
40
0.500000000000001
40
0.500000000000001
40
0.625000000000001
40
0.625000000000001
40
0.750000000000001
40
0.750000000000001
40
1
40
1
40
1
40
1
41
1
10
164.754854612858
20
7.62524446150726
30
0
41
1
10
165.414553634545
20
7.32038736736246
30
0
41
1
10
166.076288733165
20
7.03963007554427
30
0
41
1
10
166.905925293982
20
6.71789197495178
30
0
41
1
10
167.071977598523
20
6.65502381347244
30
0
41
1
10
167.404336748738
20
6.53230033882878
30
0
41
1
10
167.571044352878
20
6.47230612114737
30
0
41
1
10
168.068394934402
20
6.29807345707593
30
0
41
1
10
168.395439656077
20
6.18982132192355
30
0
41
1
10
168.717971833116
20
6.08945505597472
30
0
0
SPLINE
5
193
100
AcDbEntity
8
1
62
256
6
ByLayer
370
-1
48
1
60
0
100
AcDbSpline
70
4
71
3
72
8
73
4
40
0
40
0
40
0
40
0
40
1
40
1
40
1
40
1
41
1
10
173.092178783844
20
10.314561009617
30
0
41
1
10
173.596848682826
20
10.1740580495392
30
0
41
1
10
174.085196264758
20
10.0599790847939
30
0
41
1
10
174.555664383892
20
9.96806550234572
30
0
0
SPLINE
5
194
100
AcDbEntity
8
1
62
256
6
ByLayer
370
-1
48
1
60
0
100
AcDbSpline
70
4
71
3
72
8
73
4
40
0
40
0
40
0
40
0
40
1
40
1
40
1
40
1
41
1
10
9.26664669376837
20
3.09383937114902
30
0
41
1
10
9.47677655849972
20
2.61529873516108
30
0
41
1
10
9.70941724070363
20
2.15406812494646
30
0
41
1
10
9.96767651800167
20
1.71047050034761
30
0
0
SPLINE
5
195
100
AcDbEntity
8
1
62
256
6
ByLayer
370
-1
48
1
60
0
100
AcDbSpline
70
4
71
3
72
42
73
38
40
0
40
0
40
0
40
0
40
0.0421998349854779
40
0.110614132486515
40
0.179028429987552
40
0.213235578738071
40
0.24744272748859
40
0.315857024989627
40
0.384271322490664
40
0.418478471241183
40
0.441995886007164
40
0.452685619991702
40
0.463375353976239
40
0.48689276874222
40
0.50399634311748
40
0.521099917492739
40
0.538203491867999
40
0.555307066243258
40
0.572410640618517
40
0.589514214993776
40
0.598066002181407
40
0.623721363744295
40
0.640824938119554
40
0.657928512494814
40
0.675032086870073
40
0.692135661245332
40
0.709239235620591
40
0.717791022808222
40
0.726342809995851
40
0.74344638437111
40
0.76054995874637
40
0.777653533121628
40
0.794757107496888
40
0.828964256247407
40
0.863171404997926
40
0.931585702498963
40
1
40
1
40
1
40
1
41
1
10
66.8617602706776
20
2.42683121504029
30
0
41
1
10
66.4760849488222
20
2.50159972554985
30
0
41
1
10
65.4651190301506
20
2.69723509590881
30
0
41
1
10
63.8287255158892
20
3.01228591565629
30
0
41
1
10
62.2652605843521
20
3.31115482638145
30
0
41
1
10
61.0143923786202
20
3.54870341198259
30
0
41
1
10
59.7633751271451
20
3.78498776538493
30
0
41
1
10
58.1994974258784
20
4.07838358802991
30
0
41
1
10
56.6359407837332
20
4.36877765625528
30
0
41
1
10
55.4831608845668
20
4.58054344109345
30
0
41
1
10
54.8580136415305
20
4.69453934916172
30
0
41
1
10
54.4478098550411
20
4.76899042755699
30
0
41
1
10
54.037494034139
20
4.84322933332203
30
0
41
1
10
53.5681037031819
20
4.92787226653832
30
0
41
1
10
53.039409452086
20
5.02299355140684
30
0
41
1
10
52.5688769166662
20
5.10755790551622
30
0
41
1
10
52.0983150346486
20
5.19210451648527
30
0
41
1
10
51.6282839260955
20
5.27639484686844
30
0
41
1
10
51.1591998920514
20
5.36024583377519
30
0
41
1
10
50.7693521320171
20
5.42951866956406
30
0
41
1
10
50.302019760461
20
5.51203334291665
30
0
41
1
10
49.8338682667646
20
5.59418992759043
30
0
41
1
10
49.2865626548871
20
5.68974637712432
30
0
41
1
10
48.8165573449688
20
5.77154938151673
30
0
41
1
10
48.3461650499698
20
5.85325853894773
30
0
41
1
10
47.8758515146744
20
5.93474090044433
30
0
41
1
10
47.4845121085368
20
6.00232881016322
30
0
41
1
10
47.1721821009966
20
6.05602846392779
30
0
41
1
10
46.8603354620916
20
6.1094349754614
30
0
41
1
10
46.470520136139
20
6.17585972476766
30
0
41
1
10
46.0021203637495
20
6.25523927983485
30
0
41
1
10
45.5332075249742
20
6.33431822752181
30
0
41
1
10
44.9072137343347
20
6.43940152056362
30
0
41
1
10
44.1243635393843
20
6.57003914183571
30
0
41
1
10
42.8720646627309
20
6.77714550073801
30
0
41
1
10
41.3072243169511
20
7.03243278275082
30
0
41
1
10
40.0572242349822
20
7.23237745822175
30
0
41
1
10
39.4329941925907
20
7.33085876070948
30
0
0
SPLINE
5
196
100
AcDbEntity
8
1
62
256
6
ByLayer
370
-1
48
1
60
0
100
AcDbSpline
70
4
71
3
72
32
73
28
40
0
40
0
40
0
40
0
40
0.0773410030054143
40
0.0773410030054143
40
0.154682006010829
40
0.154682006010829
40
0.232023009016243
40
0.232023009016243
40
0.309364012021657
40
0.309364012021657
40
0.386705015027072
40
0.386705015027072
40
0.464046018032486
40
0.464046018032486
40
0.541387021037901
40
0.541387021037901
40
0.618728024043315
40
0.618728024043315
40
0.69606902704873
40
0.69606902704873
40
0.773410030054144
40
0.773410030054144
40
0.850751033059558
40
0.850751033059558
40
0.928092036064973
40
0.928092036064973
40
1
40
1
40
1
40
1
41
1
10
39.4329941925897
20
7.33085876070842
30
0
41
1
10
39.1770217959121
20
7.07744713470632
30
0
41
1
10
38.9038855955552
20
6.76213778855313
30
0
41
1
10
38.3324895640136
20
6.01834875733445
30
0
41
1
10
38.0342406391767
20
5.58988326911569
30
0
41
1
10
37.4226911811237
20
4.63424851527753
30
0
41
1
10
37.1094023206716
20
4.10709749004559
30
0
41
1
10
36.4783533532154
20
2.97189175560891
30
0
41
1
10
36.1606052911665
20
2.36385871429806
30
0
41
1
10
35.5313692901726
20
1.08742140882546
30
0
41
1
10
35.2198933615783
20
0.419041508272215
30
0
41
1
10
34.613721573426
20
-0.95551813160111
30
0
41
1
10
34.3190372839874
20
-1.66167163443254
30
0
41
1
10
33.7564020052359
20
-3.08793047728409
30
0
41
1
10
33.4884617550526
20
-3.8080085940228
30
0
41
1
10
32.9883649196528
20
-5.23779746640713
30
0
41
1
10
32.7562178798824
20
-5.94748093139296
30
0
41
1
10
32.3355493050822
20
-7.33251143984668
30
0
41
1
10
32.1470357994357
20
-8.0078320469664
30
0
41
1
10
31.8200027644006
20
-9.30132742644204
30
0
41
1
10
31.6814894771554
20
-9.91947750959869
30
0
41
1
10
31.4591368991988
20
-11.0777524195305
30
0
41
1
10
31.3753018525746
20
-11.617855138086
30
0
41
1
10
31.2651392661315
20
-12.6017910514873
30
0
41
1
10
31.2388138290076
20
-13.045605465756
30
0
41
1
10
31.2443598753414
20
-13.7947027897335
30
0
41
1
10
31.2722729652136
20
-14.1075143120537
30
0
41
1
10
31.3249927456853
20
-14.3677201489809
30
0
0
SPLINE
5
197
100
AcDbEntity
8
1
62
256
6
ByLayer
370
-1
48
1
60
0
100
AcDbSpline
70
4
71
3
72
16
73
12
40
0
40
0
40
0
40
0
40
0.499999999999997
40
0.499999999999997
40
0.749999999999997
40
0.749999999999997
40
0.874999999999998
40
0.874999999999998
40
0.937499999999999
40
0.937499999999999
40
1
40
1
40
1
40
1
41
1
10
36
20
-17.5689038821761
30
0
41
1
10
34.7203831071642
20
-17.2017124858265
30
0
41
1
10
33.4425833042918
20
-16.9688104035247
30
0
41
1
10
31.5428204347837
20
-16.815310170613
30
0
41
1
10
30.9123930318862
20
-16.7968621364282
30
0
41
1
10
29.9728641724622
20
-16.8186784696296
30
0
41
1
10
29.6607075736646
20
-16.8342086578586
30
0
41
1
10
29.1942489745094
20
-16.8700595212247
30
0
41
1
10
29.0391112073957
20
-16.884795166273
30
0
41
1
10
28.7292210512065
20
-16.9151883619164
30
0
41
1
10
28.5743506396927
20
-16.9293041303935
30
0
41
1
10
28.4195399197388
20
-16.9422413266153
30
0
0
SPLINE
5
198
100
AcDbEntity
8
1
62
256
6
ByLayer
370
-1
48
1
60
0
100
AcDbSpline
70
4
71
3
72
12
73
8
40
0
40
0
40
0
40
0
40
0.104898575169668
40
0.104898575169668
40
0.403265716779782
40
0.403265716779782
40
1
40
1
40
1
40
1
41
1
10
191.50461569309
20
10.0505799195138
30
0
41
1
10
191.503670153527
20
10.0363679317178
30
0
41
1
10
191.502643644661
20
10.0227668773897
30
0
41
1
10
191.498450489464
20
9.97279837727231
30
0
41
1
10
191.494758955687
20
9.94053892961085
30
0
41
1
10
191.48296524652
20
9.86328792029937
30
0
41
1
10
191.473900017837
20
9.83576431804278
30
0
41
1
10
191.464991158386
20
9.83568166906858
30
0
0
SPLINE
5
199
100
AcDbEntity
8
1
62
256
6
ByLayer
370
-1
48
1
60
0
100
AcDbSpline
70
4
71
3
72
12
73
8
40
0
40
0
40
0
40
0
40
0.25
40
0.25
40
0.5
40
0.5
40
1
40
1
40
1
40
1
41
1
10
177.587377083541
20
24.7905056046495
30
0
41
1
10
177.592680986703
20
24.7888444926567
30
0
41
1
10
177.60458683642
20
24.7870138127086
30
0
41
1
10
177.641086622905
20
24.7830810510886
30
0
41
1
10
177.66609811728
20
24.7809557101989
30
0
41
1
10
177.757242448564
20
24.7746149336033
30
0
41
1
10
177.841256471197
20
24.7702934129514
30
0
41
1
10
177.941571958466
20
24.7668386902872
30
0
0
SPLINE
5
19A
100
AcDbEntity
8
1
62
256
6
ByLayer
370
-1
48
1
60
0
100
AcDbSpline
70
4
71
3
72
62
73
58
40
0
40
0
40
0
40
0
40
0.0312499999999999
40
0.0312499999999999
40
0.0624999999999998
40
0.0624999999999998
40
0.0781249999999997
40
0.0781249999999997
40
0.0937499999999997
40
0.0937499999999997
40
0.109375
40
0.109375
40
0.125
40
0.125
40
0.15625
40
0.15625
40
0.1875
40
0.1875
40
0.21875
40
0.21875
40
0.25
40
0.25
40
0.3125
40
0.3125
40
0.375
40
0.375
40
0.40625
40
0.40625
40
0.4375
40
0.4375
40
0.499999999999999
40
0.499999999999999
40
0.562499999999999
40
0.562499999999999
40
0.593749999999999
40
0.593749999999999
40
0.624999999999998
40
0.624999999999998
40
0.687499999999998
40
0.687499999999998
40
0.749999999999998
40
0.749999999999998
40
0.781249999999998
40
0.781249999999998
40
0.812499999999998
40
0.812499999999998
40
0.874999999999998
40
0.874999999999998
40
0.906249999999998
40
0.906249999999998
40
0.921874999999998
40
0.921874999999998
40
0.937499999999998
40
0.937499999999998
40
0.968749999999999
40
0.968749999999999
40
1
40
1
40
1
40
1
41
1
10
39.432994192588
20
12.8542811564516
30
0
41
1
10
40.6525366520701
20
12.4323872988939
30
0
41
1
10
41.8712385116153
20
12.0034330887222
30
0
41
1
10
44.3077772613636
20
11.1332878758686
30
0
41
1
10
45.5257006865058
20
10.6923057787135
30
0
41
1
10
47.3512300038076
20
10.0200771258947
30
0
41
1
10
47.9596406875746
20
9.79449136381118
30
0
41
1
10
49.17674243478
20
9.34141017055958
30
0
41
1
10
49.7853071866034
20
9.1136289218467
30
0
41
1
10
51.0018887961852
20
8.65423972689791
30
0
41
1
10
51.6099687462224
20
8.42277131869633
30
0
41
1
10
52.8267834794984
20
7.95881119071134
30
0
41
1
10
53.4354226452491
20
7.72610143922205
30
0
41
1
10
55.261312828385
20
7.02408893692194
30
0
41
1
10
56.4783691685734
20
6.55048681654844
30
0
41
1
10
58.9136406070759
20
5.59577023473861
30
0
41
1
10
60.1319449338329
20
5.11488406132611
30
0
41
1
10
62.5701211743422
20
4.14659221268889
30
0
41
1
10
63.7899656388228
20
3.6593191287925
30
0
41
1
10
66.2270478328261
20
2.68248364038425
30
0
41
1
10
67.4448884213672
20
2.19259707976562
30
0
41
1
10
71.0971122374742
20
0.720532612714891
30
0
41
1
10
73.5300100619181
20
-0.264516202685115
30
0
41
1
10
78.3975452555449
20
-2.22807663531248
30
0
41
1
10
80.8319373441321
20
-3.20719923457682
30
0
41
1
10
84.4880255194737
20
-4.66303374722861
30
0
41
1
10
85.7080920971039
20
-5.14643064696247
30
0
41
1
10
88.1461344007917
20
-6.10615202245398
30
0
41
1
10
89.3642864274738
20
-6.5824217637292
30
0
41
1
10
93.0172652568313
20
-7.99777503326214
30
0
41
1
10
95.4507111949433
20
-8.92318695339253
30
0
41
1
10
100.317691949738
20
-10.7288385149195
30
0
41
1
10
102.75126070658
20
-11.6089700413575
30
0
41
1
10
106.405815521892
20
-12.8858920877982
30
0
41
1
10
107.624944006296
20
-13.3043032616519
30
0
41
1
10
110.064293015786
20
-14.1252549445074
30
0
41
1
10
111.282893736873
20
-14.5273884200306
30
0
41
1
10
114.936545688965
20
-15.7066545992274
30
0
41
1
10
117.369760595369
20
-16.4560379234254
30
0
41
1
10
122.235199860221
20
-17.8738853478089
30
0
41
1
10
124.667320546496
20
-18.5424823951554
30
0
41
1
10
128.318828645873
20
-19.4776827128599
30
0
41
1
10
129.536525777601
20
-19.7781894995156
30
0
41
1
10
131.973469808824
20
-20.3559376137802
30
0
41
1
10
133.193213894929
20
-20.6333374437377
30
0
41
1
10
136.85184432403
20
-21.4285312861571
30
0
41
1
10
139.286637844534
20
-21.908705648609
30
0
41
1
10
142.936024143516
20
-22.5498297569161
30
0
41
1
10
144.151808076835
20
-22.7505693255807
30
0
41
1
10
145.975371763771
20
-23.0312571743836
30
0
41
1
10
146.583437927287
20
-23.1212067171035
30
0
41
1
10
147.799642108567
20
-23.2942555885304
30
0
41
1
10
148.407588400679
20
-23.3775173809089
30
0
41
1
10
150.231213489633
20
-23.6172087111883
30
0
41
1
10
151.447810017126
20
-23.7626880896895
30
0
41
1
10
153.88083972656
20
-24.0263764851788
30
0
41
1
10
155.097795248932
20
-24.1441610311118
30
0
41
1
10
156.315858308365
20
-24.2474962712492
30
0
0
SPLINE
5
19B
100
AcDbEntity
8
1
62
256
6
ByLayer
370
-1
48
1
60
0
100
AcDbSpline
70
4
71
3
72
12
73
8
40
0
40
0
40
0
40
0
40
0.25
40
0.25
40
0.5
40
0.5
40
1
40
1
40
1
40
1
41
1
10
174.555664383892
20
9.96806550234572
30
0
41
1
10
174.850881087662
20
9.91359385297068
30
0
41
1
10
175.148925495731
20
9.86546585171277
30
0
41
1
10
175.745605637791
20
9.78287339121761
30
0
41
1
10
176.043764205739
20
9.74843573392525
30
0
41
1
10
176.937709911527
20
9.66534252450532
30
0
41
1
10
177.532968141188
20
9.63686685412915
30
0
41
1
10
178.127545110236
20
9.63486768390902
30
0
0
SPLINE
5
19C
100
AcDbEntity
8
1
62
256
6
ByLayer
370
-1
48
1
60
0
100
AcDbSpline
70
4
71
3
72
8
73
4
40
0
40
0
40
0
40
0
40
1
40
1
40
1
40
1
41
1
10
173.974193935167
20
-24.7630015896103
30
0
41
1
10
174.203083662458
20
-24.765744832901
30
0
41
1
10
174.430380466435
20
-24.7686871797603
30
0
41
1
10
174.656084067529
20
-24.7716974525484
30
0
0
SPLINE
5
19D
100
AcDbEntity
8
1
62
256
6
ByLayer
370
-1
48
1
60
0
100
AcDbSpline
70
4
71
3
72
12
73
8
40
0
40
0
40
0
40
0
40
0.249999999999991
40
0.249999999999991
40
0.499999999999982
40
0.499999999999982
40
1
40
1
40
1
40
1
41
1
10
146.078340556973
20
17.3351246071577
30
0
41
1
10
146.180108764543
20
17.4714198137256
30
0
41
1
10
146.292935709395
20
17.5940751257473
30
0
41
1
10
146.531706788524
20
17.8231408437728
30
0
41
1
10
146.657821561708
20
17.929342674509
30
0
41
1
10
147.050029906175
20
18.2307222672828
30
0
41
1
10
147.330688718322
20
18.4092700143523
30
0
41
1
10
147.617507080606
20
18.5724639385254
30
0
0
SPLINE
5
19E
100
AcDbEntity
8
1
62
256
6
ByLayer
370
-1
48
1
60
0
100
AcDbSpline
70
4
71
3
72
16
73
12
40
0
40
0
40
0
40
0
40
0.249999999999998
40
0.249999999999998
40
0.499999999999996
40
0.499999999999996
40
0.624999999999995
40
0.624999999999995
40
0.749999999999994
40
0.749999999999994
40
1
40
1
40
1
40
1
41
1
10
177.23014993916
20
3.30553665930114
30
0
41
1
10
176.468616691188
20
3.25961875970896
30
0
41
1
10
175.71198693856
20
3.260277091354
30
0
41
1
10
174.20826816938
20
3.3522160213397
30
0
41
1
10
173.461179228491
20
3.44349795798271
30
0
41
1
10
172.347888154965
20
3.64982117495137
30
0
41
1
10
171.978018827087
20
3.73019648987571
30
0
41
1
10
171.240818331001
20
3.91483014359912
30
0
41
1
10
170.87334312377
20
4.019218920171
30
0
41
1
10
169.786849732646
20
4.36541420923965
30
0
41
1
10
169.079687742975
20
4.64102956140374
30
0
41
1
10
168.390315483967
20
4.96224883955648
30
0
0
SPLINE
5
19F
100
AcDbEntity
8
1
62
256
6
ByLayer
370
-1
48
1
60
0
100
AcDbSpline
70
4
71
3
72
34
73
30
40
0
40
0
40
0
40
0
40
0.0028955578774567
40
0.0028955578774567
40
0.0795958995791908
40
0.0795958995791908
40
0.156296241280925
40
0.156296241280925
40
0.232996582982659
40
0.232996582982659
40
0.309696924684393
40
0.309696924684393
40
0.386397266386127
40
0.386397266386127
40
0.463097608087861
40
0.463097608087861
40
0.539797949789595
40
0.539797949789595
40
0.616498291491329
40
0.616498291491329
40
0.693198633193064
40
0.693198633193064
40
0.769898974894798
40
0.769898974894798
40
0.846599316596532
40
0.846599316596532
40
0.923299658298266
40
0.923299658298266
40
1
40
1
40
1
40
1
41
1
10
13.6439050029125
20
-1.82536815528931
30
0
41
1
10
13.644236226553
20
-1.81813041973453
30
0
41
1
10
13.644601396202
20
-1.81082075967268
30
0
41
1
10
13.655572944016
20
-1.60791157040418
30
0
41
1
10
13.6899707312828
20
-1.36199738155699
30
0
41
1
10
13.8054692739896
20
-0.776171720520523
30
0
41
1
10
13.8865685578372
20
-0.436267712464712
30
0
41
1
10
14.0932326232215
20
0.328157288904293
30
0
41
1
10
14.2187947716058
20
0.752668542510577
30
0
41
1
10
14.5109196878485
20
1.67459200363561
30
0
41
1
10
14.677478733679
20
2.17199246472495
30
0
41
1
10
15.0470008019737
20
3.22596598083243
30
0
41
1
10
15.2499591162761
20
3.78252560694239
30
0
41
1
10
15.686678197931
20
4.93945571660137
30
0
41
1
10
15.9204334009499
20
5.5398114594496
30
0
41
1
10
16.4122944779175
20
6.76776272879076
30
0
41
1
10
16.6703940849563
20
7.39534260968668
30
0
41
1
10
17.2038200217077
20
8.6604191652865
30
0
41
1
10
17.4791395549232
20
9.297899721372
30
0
41
1
10
18.0394058762415
20
10.5651808983229
30
0
41
1
10
18.3243455258679
20
11.1949653724802
30
0
41
1
10
18.8959868653456
20
12.4294696503925
30
0
41
1
10
19.182681271789
20
13.0341737250572
30
0
41
1
10
19.7499182715881
20
14.201824343892
30
0
41
1
10
20.0304536376526
20
14.764756010769
30
0
41
1
10
20.5776285155579
20
15.8333216120294
30
0
41
1
10
20.8442610557234
20
16.3389419315837
30
0
41
1
10
21.356269816271
20
17.2789262597835
30
0
41
1
10
21.601639513037
20
17.7132782918823
30
0
41
1
10
21.8329941925866
20
18.1060063446065
30
0
0
SPLINE
5
1A0
100
AcDbEntity
8
1
62
256
6
ByLayer
370
-1
48
1
60
0
100
AcDbSpline
70
4
71
3
72
10
73
6
40
0
40
0
40
0
40
0
40
0.5
40
0.5
40
1
40
1
40
1
40
1
41
1
10
32.6087964951146
20
-15.1374753106488
30
0
41
1
10
31.907764412644
20
-14.7119124021796
30
0
41
1
10
31.2074249177336
20
-14.2834572664513
30
0
41
1
10
29.810230720047
20
-13.4168717624483
30
0
41
1
10
29.1133474183374
20
-12.97879330881
30
0
41
1
10
28.4195399197389
20
-12.533369297039
30
0
0
SPLINE
5
1A1
100
AcDbEntity
8
1
62
256
6
ByLayer
370
-1
48
1
60
0
100
AcDbSpline
70
4
71
2
72
6
73
3
40
0
40
0
40
0
40
1
40
1
40
1
41
1
10
9.98634481820918
20
1.67851232254543
30
0
41
1
10
9.9863448182092
20
0.511228490515578
30
0
41
1
10
9.9863448182092
20
-0.656055341514275
30
0
0
SPLINE
5
1A2
100
AcDbEntity
8
1
62
256
6
ByLayer
370
-1
48
1
60
0
100
AcDbSpline
70
4
71
3
72
10
73
6
40
0
40
0
40
0
40
0
40
0.5
40
0.5
40
1
40
1
40
1
40
1
41
1
10
9.98634481820926
20
-0.656055341514417
30
0
41
1
10
9.62411377595333
20
0.306421791010337
30
0
41
1
10
9.32727073285798
20
1.27751975178467
30
0
41
1
10
8.82512107125598
20
3.22879141508758
30
0
41
1
10
8.62011894972164
20
4.209024752217
30
0
41
1
10
8.44846770835468
20
5.19104073457569
30
0
0
SPLINE
5
1A3
100
AcDbEntity
8
1
62
256
6
ByLayer
370
-1
48
1
60
0
100
AcDbSpline
70
4
71
3
72
8
73
4
40
0
40
0
40
0
40
0
40
1
40
1
40
1
40
1
41
1
10
145.947476609915
20
17.133830256913
30
0
41
1
10
145.986462029614
20
17.2034165113804
30
0
41
1
10
146.030282336578
20
17.2707616274755
30
0
41
1
10
146.078340556973
20
17.3351246071576
30
0
0
SPLINE
5
1A4
100
AcDbEntity
8
1
62
256
6
ByLayer
370
-1
48
1
60
0
100
AcDbSpline
70
4
71
3
72
94
73
90
40
-0.0312499999999898
40
-0.0312499999999898
40
0
40
0
40
0.0312500000000015
40
0.0312500000000015
40
0.0468750000000023
40
0.0468750000000023
40
0.0625000000000032
40
0.0625000000000032
40
0.093750000000005
40
0.093750000000005
40
0.125000000000007
40
0.125000000000007
40
0.156250000000008
40
0.156250000000008
40
0.171875000000009
40
0.171875000000009
40
0.18750000000001
40
0.18750000000001
40
0.218750000000006
40
0.218750000000006
40
0.250000000000003
40
0.250000000000003
40
0.265625000000004
40
0.265625000000004
40
0.281250000000005
40
0.281250000000005
40
0.312500000000007
40
0.312500000000007
40
0.328125000000009
40
0.328125000000009
40
0.34375000000001
40
0.34375000000001
40
0.375000000000012
40
0.375000000000012
40
0.406250000000015
40
0.406250000000015
40
0.421875000000016
40
0.421875000000016
40
0.437500000000017
40
0.437500000000017
40
0.468750000000019
40
0.468750000000019
40
0.48437500000002
40
0.48437500000002
40
0.500000000000021
40
0.500000000000021
40
0.531250000000022
40
0.531250000000022
40
0.546875000000023
40
0.546875000000023
40
0.562500000000024
40
0.578125000000025
40
0.578125000000025
40
0.593750000000026
40
0.593750000000026
40
0.625000000000027
40
0.625000000000027
40
0.640625000000028
40
0.640625000000028
40
0.656250000000029
40
0.656250000000029
40
0.687500000000036
40
0.687500000000036
40
0.718750000000043
40
0.718750000000043
40
0.750000000000049
40
0.750000000000049
40
0.76562500000005
40
0.76562500000005
40
0.78125000000005
40
0.79687500000005
40
0.79687500000005
40
0.812500000000051
40
0.812500000000051
40
0.843750000000046
40
0.843750000000046
40
0.859375000000043
40
0.859375000000043
40
0.875000000000041
40
0.875000000000041
40
0.906250000000031
40
0.906250000000031
40
0.937500000000022
40
0.937500000000022
40
0.953125000000016
40
0.953125000000016
40
0.96875000000001
40
0.96875000000001
40
1
40
1
40
1.03125
40
1.03125
41
1
10
183.730740554382
20
-5.5622324351265
30
0
41
1
10
183.716511874986
20
-5.28644476026028
30
0
41
1
10
183.722552091964
20
-5.1497950759435
30
0
41
1
10
183.750850476089
20
-4.94665427659396
30
0
41
1
10
183.763511823141
20
-4.87924879776457
30
0
41
1
10
183.795480272726
20
-4.74507941133768
30
0
41
1
10
183.81492037903
20
-4.6779909838645
30
0
41
1
10
183.882341047657
20
-4.48160129576897
30
0
41
1
10
183.939394542205
20
-4.35630666005301
30
0
41
1
10
184.077726849477
20
-4.11708360135955
30
0
41
1
10
184.160130709905
20
-4.00211735358758
30
0
41
1
10
184.343736361966
20
-3.79336537773401
30
0
41
1
10
184.445125961411
20
-3.6986658146505
30
0
41
1
10
184.611892461157
20
-3.57151903792865
30
0
41
1
10
184.670301796153
20
-3.53144098244607
30
0
41
1
10
184.789906213588
20
-3.45797654284865
30
0
41
1
10
184.85118444808
20
-3.42446955367546
30
0
41
1
10
185.039356286589
20
-3.33344113771523
30
0
41
1
10
185.170597727984
20
-3.28530001280055
30
0
41
1
10
185.444901599935
20
-3.21550463914824
30
0
41
1
10
185.583262022518
20
-3.19503523997136
30
0
41
1
10
185.792545959634
20
-3.18516511773561
30
0
41
1
10
185.862600081769
20
-3.1853740924177
30
0
41
1
10
186.003309643428
20
-3.19297757607524
30
0
41
1
10
186.073918737408
20
-3.20042373236464
30
0
41
1
10
186.281783958443
20
-3.23304581166658
30
0
41
1
10
186.416764461164
20
-3.26844655308901
30
0
41
1
10
186.613848657935
20
-3.34196130192655
30
0
41
1
10
186.678992888759
20
-3.3700871753168
30
0
41
1
10
186.805040693045
20
-3.4322632854898
30
0
41
1
10
186.866057738444
20
-3.46630536748924
30
0
41
1
10
187.043252597731
20
-3.57703540956211
30
0
41
1
10
187.15383923088
20
-3.662442775334
30
0
41
1
10
187.358135924639
20
-3.85588310827467
30
0
41
1
10
187.448885246108
20
-3.96103199607552
30
0
41
1
10
187.568766690701
20
-4.1306801580929
30
0
41
1
10
187.605999845637
20
-4.18923207515144
30
0
41
1
10
187.674919300383
20
-4.31039514759271
30
0
41
1
10
187.706501615758
20
-4.37291314872522
30
0
41
1
10
187.7910058656
20
-4.56251266449334
30
0
41
1
10
187.83453642556
20
-4.692891388992
30
0
41
1
10
187.880996885043
20
-4.89425030169099
30
0
41
1
10
187.893360246638
20
-4.96270102664906
30
0
41
1
10
187.911332004577
20
-5.09954684288047
30
0
41
1
10
187.916977940332
20
-5.16788535403188
30
0
41
1
10
187.924225260758
20
-5.37265014323796
30
0
41
1
10
187.91622431491
20
-5.50882623924466
30
0
41
1
10
187.884647306357
20
-5.71258895850406
30
0
41
1
10
187.870854859862
20
-5.78009575631202
30
0
41
1
10
187.837284638716
20
-5.91232313405769
30
0
41
1
10
187.797643066337
20
-6.04236198545075
30
0
41
1
10
187.746006004245
20
-6.16809815490439
30
0
41
1
10
187.688271583701
20
-6.29166144998212
30
0
41
1
10
187.656209700131
20
-6.35260007458851
30
0
41
1
10
187.551482068082
20
-6.53031435470987
30
0
41
1
10
187.471344871517
20
-6.64059319173649
30
0
41
1
10
187.335813243348
20
-6.79396993101412
30
0
41
1
10
187.288063485876
20
-6.84307430880199
30
0
41
1
10
187.187211434534
20
-6.93710237414521
30
0
41
1
10
187.133848675736
20
-6.98218774316672
30
0
41
1
10
186.968970897522
20
-7.10806564721267
30
0
41
1
10
186.851885448844
20
-7.18050024194224
30
0
41
1
10
186.603070864444
20
-7.3021003630285
30
0
41
1
10
186.469777070029
20
-7.35145444093698
30
0
41
1
10
186.199664730697
20
-7.4210941284056
30
0
41
1
10
186.061907526368
20
-7.44216290241519
30
0
41
1
10
185.851082674427
20
-7.45249282640131
30
0
41
1
10
185.779914912786
20
-7.45230674100489
30
0
41
1
10
185.639658379659
20
-7.44472550452645
30
0
41
1
10
185.500629231109
20
-7.43002211131741
30
0
41
1
10
185.364000443116
20
-7.40137792923127
30
0
41
1
10
185.228579791651
20
-7.36570525172132
30
0
41
1
10
185.161114968997
20
-7.34419769347195
30
0
41
1
10
184.964536574091
20
-7.27033651372773
30
0
41
1
10
184.840437536842
20
-7.2087171332777
30
0
41
1
10
184.664239614695
20
-7.09844321011886
30
0
41
1
10
184.606904912135
20
-7.05846804680314
30
0
41
1
10
184.497077719275
20
-6.97350961813419
30
0
41
1
10
184.444718911642
20
-6.92868299428639
30
0
41
1
10
184.294977767145
20
-6.78742640358587
30
0
41
1
10
184.204861375176
20
-6.6842839222634
30
0
41
1
10
184.044093334893
20
-6.45982116977115
30
0
41
1
10
183.975666607467
20
-6.34154673959861
30
0
41
1
10
183.890434906219
20
-6.15620956773677
30
0
41
1
10
183.864918740497
20
-6.09305828017639
30
0
41
1
10
183.819755753518
20
-5.96395850160312
30
0
41
1
10
183.800061829724
20
-5.89775098879841
30
0
41
1
10
183.75083326122
20
-5.69784489835803
30
0
41
1
10
183.730740554382
20
-5.5622324351265
30
0
41
1
10
183.716511874986
20
-5.28644476026028
30
0
0
SPLINE
5
1A5
100
AcDbEntity
8
1
62
256
6
ByLayer
370
-1
48
1
60
0
100
AcDbSpline
70
4
71
3
72
22
73
18
40
0
40
0
40
0
40
0
40
0.249999999999999
40
0.249999999999999
40
0.312499999999999
40
0.312499999999999
40
0.374999999999999
40
0.374999999999999
40
0.499999999999999
40
0.499999999999999
40
0.624999999999999
40
0.624999999999999
40
0.687499999999999
40
0.687499999999999
40
0.749999999999999
40
0.749999999999999
40
1
40
1
40
1
40
1
41
1
10
9.98634481820923
20
-0.656055341514332
30
0
41
1
10
10.7461453938425
20
-1.78424244332894
30
0
41
1
10
11.5281770616504
20
-2.88254555029357
30
0
41
1
10
12.5353781354496
20
-4.21748437456117
30
0
41
1
10
12.7383110602869
20
-4.48256500281082
30
0
41
1
10
13.1472474817837
20
-5.00885748461329
30
0
41
1
10
13.3533024454291
20
-5.27012614908261
30
0
41
1
10
13.9741415230429
20
-6.04546743677255
30
0
41
1
10
14.3922609850912
20
-6.55195361764262
30
0
41
1
10
15.2375984820883
20
-7.54391112782506
30
0
41
1
10
15.6648161352561
20
-8.02938229729693
30
0
41
1
10
16.3130781656815
20
-8.74146260076949
30
0
41
1
10
16.5305803948349
20
-8.97631477092747
30
0
41
1
10
16.9670374090305
20
-9.43934448180028
30
0
41
1
10
17.1860331470704
20
-9.66757466878232
30
0
41
1
10
18.2850965552707
20
-10.7922569028051
30
0
41
1
10
19.177339775793
20
-11.6395009995199
30
0
41
1
10
20.0863448182093
20
-12.4320743948623
30
0
0
SPLINE
5
1A6
100
AcDbEntity
8
1
62
256
6
ByLayer
370
-1
48
1
60
0
100
AcDbSpline
70
4
71
3
72
8
73
4
40
0
40
0
40
0
40
0
40
1
40
1
40
1
40
1
41
1
10
9.26664669377163
20
3.09383937114146
30
0
41
1
10
8.96261022281107
20
3.78623883736142
30
0
41
1
10
8.69083815500275
20
4.48636621992745
30
0
41
1
10
8.44846770835468
20
5.19104073457569
30
0
0
SPLINE
5
1A7
100
AcDbEntity
8
1
62
256
6
ByLayer
370
-1
48
1
60
0
100
AcDbSpline
70
4
71
3
72
16
73
12
40
0
40
0
40
0
40
0
40
0.250000000000001
40
0.250000000000001
40
0.500000000000001
40
0.500000000000001
40
0.625000000000001
40
0.625000000000001
40
0.750000000000001
40
0.750000000000001
40
1
40
1
40
1
40
1
41
1
10
14.1823537120831
20
-2.16161358652215
30
0
41
1
10
13.8030031950074
20
-1.93931355169138
30
0
41
1
10
13.4310465569764
20
-1.69093371941611
30
0
41
1
10
12.6998866469318
20
-1.14409963182192
30
0
41
1
10
12.3406886553439
20
-0.845645772650244
30
0
41
1
10
11.8105786028789
20
-0.359799286086485
30
0
41
1
10
11.6348508027419
20
-0.190979950527577
30
0
41
1
10
11.2885274887356
20
0.157491328216651
30
0
41
1
10
11.1185291494249
20
0.336492785496347
30
0
41
1
10
10.6177133174085
20
0.887548439067643
30
0
41
1
10
10.2960201384136
20
1.2735776671957
30
0
41
1
10
9.98634481820915
20
1.6785123225454
30
0
0
SPLINE
5
1A8
100
AcDbEntity
8
1
62
256
6
ByLayer
370
-1
48
1
60
0
100
AcDbSpline
70
4
71
3
72
8
73
4
40
0
40
0
40
0
40
0
40
1
40
1
40
1
40
1
41
1
10
21.8329941925877
20
18.1060063446064
30
0
41
1
10
21.8329941925877
20
19.0741607206361
30
0
41
1
10
21.8329941925877
20
20.0423150966658
30
0
41
1
10
21.8329941925877
20
21.0104694726956
30
0
0
SPLINE
5
1A9
100
AcDbEntity
8
1
62
256
6
ByLayer
370
-1
48
1
60
0
100
AcDbSpline
70
4
71
3
72
18
73
14
40
0
40
0
40
0
40
0
40
0.250000000000001
40
0.250000000000001
40
0.375000000000001
40
0.375000000000001
40
0.437500000000001
40
0.437500000000001
40
0.500000000000001
40
0.500000000000001
40
0.750000000000001
40
0.750000000000001
40
1
40
1
40
1
40
1
41
1
10
20.0863448182093
20
-6.38366840438096
30
0
41
1
10
20.6074858855906
20
-6.85216439877172
30
0
41
1
10
21.1836401362195
20
-7.31943935246545
30
0
41
1
10
22.1217911707135
20
-8.04441681626818
30
0
41
1
10
22.4468738678422
20
-8.28997704211693
30
0
41
1
10
22.9524233236781
20
-8.66629116957029
30
0
41
1
10
23.1239307469162
20
-8.79304974739071
30
0
41
1
10
23.4728669109166
20
-9.04945681880645
30
0
41
1
10
23.6503845163451
20
-9.17916669722365
30
0
41
1
10
24.5443596930085
20
-9.82934608815083
30
0
41
1
10
25.2858828820014
20
-10.3599869755322
30
0
41
1
10
26.8161906762386
20
-11.438198228933
30
0
41
1
10
27.605048155478
20
-11.985570447331
30
0
41
1
10
28.4195399196881
20
-12.5333692970048
30
0
0
SPLINE
5
1AA
100
AcDbEntity
8
1
62
256
6
ByLayer
370
-1
48
1
60
0
100
AcDbSpline
70
4
71
3
72
16
73
12
40
0
40
0
40
0
40
0
40
0.250000000000001
40
0.250000000000001
40
0.375000000000001
40
0.375000000000001
40
0.500000000000001
40
0.500000000000001
40
0.75
40
0.75
40
1
40
1
40
1
40
1
41
1
10
20.0863448182093
20
-12.4320743948623
30
0
41
1
10
20.5425043036404
20
-13.1620805370419
30
0
41
1
10
21.0598334951937
20
-13.8125843135678
30
0
41
1
10
21.9409599156906
20
-14.6660463641358
30
0
41
1
10
22.2522487707809
20
-14.9300634646908
30
0
41
1
10
22.9132573933082
20
-15.4153277635918
30
0
41
1
10
23.2564346992464
20
-15.6317521257432
30
0
41
1
10
24.3233599754066
20
-16.2059208043366
30
0
41
1
10
25.0845445945011
20
-16.4893394322311
30
0
41
1
10
26.7113461967888
20
-16.863423042537
30
0
41
1
10
27.5526474423418
20
-16.9485567044668
30
0
41
1
10
28.4195399196881
20
-16.9422413266155
30
0
0
SPLINE
5
1AB
100
AcDbEntity
8
1
62
256
6
ByLayer
370
-1
48
1
60
0
100
AcDbSpline
70
4
71
1
72
4
73
2
40
0
40
0
40
1
40
1
41
1
10
39.4329941925877
20
7.33085876071013
30
0
41
1
10
39.4329941925878
20
12.8542811564518
30
0
0
SPLINE
5
1AC
100
AcDbEntity
8
1
62
256
6
ByLayer
370
-1
48
1
60
0
100
AcDbSpline
70
4
71
3
72
8
73
4
40
0
40
0
40
0
40
0
40
1
40
1
40
1
40
1
41
1
10
177.065370916901
20
6.98116340142215
30
0
41
1
10
176.389074140102
20
6.61569554026832
30
0
41
1
10
175.686830886823
20
6.27727343473609
30
0
41
1
10
174.965060723208
20
5.97121856728887
30
0
0
SPLINE
5
1AD
100
AcDbEntity
8
1
62
256
6
ByLayer
370
-1
48
1
60
0
100
AcDbSpline
70
4
71
3
72
8
73
4
40
0
40
0
40
0
40
0
40
1
40
1
40
1
40
1
41
1
10
14.1823538317606
20
-2.16161322716513
30
0
41
1
10
16.1637087111035
20
-3.55764095400525
30
0
41
1
10
18.1348881250586
20
-4.96619224102966
30
0
41
1
10
20.0863448182094
20
-6.38366840438096
30
0
0
SPLINE
5
1AE
100
AcDbEntity
8
1
62
256
6
ByLayer
370
-1
48
1
60
0
100
AcDbSpline
70
4
71
3
72
54
73
50
40
0
40
0
40
0
40
0
40
0.0625
40
0.0625
40
0.125
40
0.125
40
0.15625
40
0.15625
40
0.1875
40
0.1875
40
0.25
40
0.25
40
0.28125
40
0.28125
40
0.3125
40
0.3125
40
0.374999999999999
40
0.374999999999999
40
0.406249999999999
40
0.406249999999999
40
0.437499999999999
40
0.437499999999999
40
0.499999999999999
40
0.499999999999999
40
0.531249999999999
40
0.531249999999999
40
0.546874999999999
40
0.546874999999999
40
0.562499999999999
40
0.562499999999999
40
0.625
40
0.625
40
0.65625
40
0.65625
40
0.6875
40
0.6875
40
0.749999999999999
40
0.749999999999999
40
0.78125
40
0.78125
40
0.8125
40
0.8125
40
0.875
40
0.875
40
0.90625
40
0.90625
40
0.9375
40
0.9375
40
1
40
1
40
1
40
1
41
1
10
21.8329941925877
20
21.0104694726956
30
0
41
1
10
21.2167420793888
20
21.2376859405799
30
0
41
1
10
20.5955221807498
20
21.4252218708223
30
0
41
1
10
19.3437621257949
20
21.7241782908732
30
0
41
1
10
18.7132209388365
20
21.835602268614
30
0
41
1
10
17.7601465731934
20
21.9434844355206
30
0
41
1
10
17.4401163928968
20
21.9695147597082
30
0
41
1
10
16.8076782343248
20
22.0004633494691
30
0
41
1
10
16.4943172938234
20
22.0055605443536
30
0
41
1
10
15.562634153845
20
21.9899652646205
30
0
41
1
10
14.9526661402132
20
21.9385995877556
30
0
41
1
10
14.0545628807166
20
21.7973057563873
30
0
41
1
10
13.7580143066581
20
21.7394488743014
30
0
41
1
10
13.1707233084286
20
21.6010463529975
30
0
41
1
10
12.8833526458097
20
21.5212590455979
30
0
41
1
10
12.0430914184541
20
21.251303065045
30
0
41
1
10
11.5103695724946
20
21.0303787067617
30
0
41
1
10
10.7524789889352
20
20.6351753176044
30
0
41
1
10
10.5067447857135
20
20.4927553189875
30
0
41
1
10
10.029463703546
20
20.1854882681871
30
0
41
1
10
9.79733693746189
20
20.0200266419549
30
0
41
1
10
9.13599009640504
20
19.4986119215107
30
0
41
1
10
8.73712993018151
20
19.1152917570581
30
0
41
1
10
8.20041639066136
20
18.4858885599314
30
0
41
1
10
8.0318215760029
20
18.2669773637185
30
0
41
1
10
7.79463103270885
20
17.9244655519846
30
0
41
1
10
7.71818740888151
20
17.8079347609722
30
0
41
1
10
7.57061651754589
20
17.5700383805584
30
0
41
1
10
7.49967377362034
20
17.4489373884646
30
0
41
1
10
7.16151982080081
20
16.8371397354731
30
0
41
1
10
6.94114918599721
20
16.3236308033447
30
0
41
1
10
6.68171064573207
20
15.517698436571
30
0
41
1
10
6.60713941553715
20
15.2430854979802
30
0
41
1
10
6.48174687605885
20
14.6817150019328
30
0
41
1
10
6.43082930861874
20
14.3937486031788
30
0
41
1
10
6.31564639932682
20
13.5249119966186
30
0
41
1
10
6.28772611928554
20
12.9366399564646
30
0
41
1
10
6.31337529284994
20
12.0408920570208
30
0
41
1
10
6.33323385774946
20
11.7400791094626
30
0
41
1
10
6.39518378903921
20
11.1339524483137
30
0
41
1
10
6.43750198225223
20
10.8275958114956
30
0
41
1
10
6.59534841611355
20
9.91389584860821
30
0
41
1
10
6.74153778059119
20
9.30939111666484
30
0
41
1
10
7.01691360072974
20
8.40871588736209
30
0
41
1
10
7.11809915763075
20
8.10951163512232
30
0
41
1
10
7.33884602599756
20
7.51307843648749
30
0
41
1
10
7.45867220111148
20
7.21524804675934
30
0
41
1
10
7.84374081659081
20
6.32874413086776
30
0
41
1
10
8.13169190528072
20
5.75288798239822
30
0
41
1
10
8.44846770835468
20
5.19104073457569
30
0
0
SPLINE
5
1AF
100
AcDbEntity
8
1
62
256
6
ByLayer
370
-1
48
1
60
0
100
AcDbSpline
70
4
71
3
72
24
73
20
40
0
40
0
40
0
40
0
40
0.249999999999976
40
0.249999999999976
40
0.312499999999971
40
0.312499999999971
40
0.374999999999967
40
0.374999999999967
40
0.499999999999958
40
0.499999999999958
40
0.562499999999958
40
0.562499999999958
40
0.624999999999959
40
0.624999999999959
40
0.749999999999972
40
0.749999999999972
40
0.874999999999986
40
0.874999999999986
40
1
40
1
40
1
40
1
41
1
10
173.903974400099
20
14.8999999999993
30
0
41
1
10
173.903974400099
20
14.5438413260621
30
0
41
1
10
173.850803625779
20
14.196216301924
30
0
41
1
10
173.718100846809
20
13.7723161079233
30
0
41
1
10
173.688292512415
20
13.6885362800457
30
0
41
1
10
173.622885942423
20
13.5246806459497
30
0
41
1
10
173.58720492618
20
13.4443339049625
30
0
41
1
10
173.471355754558
20
13.2079694397989
30
0
41
1
10
173.382432864334
20
13.0566001880789
30
0
41
1
10
173.231096035365
20
12.8390784863621
30
0
41
1
10
173.177395413725
20
12.7678826442653
30
0
41
1
10
173.065453828848
20
12.6308050290862
30
0
41
1
10
173.007160609483
20
12.5647913958213
30
0
41
1
10
172.825468270543
20
12.3741579225226
30
0
41
1
10
172.695295196728
20
12.2569034015559
30
0
41
1
10
172.416721471326
20
12.0422132012249
30
0
41
1
10
172.267150859704
20
11.944320399281
30
0
41
1
10
171.958955303281
20
11.7750227306824
30
0
41
1
10
171.799528722515
20
11.7027750169445
30
0
41
1
10
171.634814489384
20
11.6428326595733
30
0
0
SPLINE
5
1B0
100
AcDbEntity
8
1
62
256
6
ByLayer
370
-1
48
1
60
0
100
AcDbSpline
70
4
71
3
72
8
73
4
40
0
40
0
40
0
40
0
40
1
40
1
40
1
40
1
41
1
10
33.4329310186316
20
-15.4228382196262
30
0
41
1
10
33.1560472367708
20
-15.3372492321959
30
0
41
1
10
32.8813714097202
20
-15.2421083757672
30
0
41
1
10
32.6087959927184
20
-15.137477129715
30
0
0
SPLINE
5
1B1
100
AcDbEntity
8
1
62
256
6
ByLayer
370
-1
48
1
60
0
100
AcDbSpline
70
4
71
3
72
8
73
4
40
0
40
0
40
0
40
0
40
1
40
1
40
1
40
1
41
1
10
171.936585310102
20
24.7578473778693
30
0
41
1
10
172.617551565572
20
24.76621323718
30
0
41
1
10
173.272910394824
20
24.7771534799636
30
0
41
1
10
173.903974400096
20
24.786031304077
30
0
0
SPLINE
5
1B2
100
AcDbEntity
8
1
62
256
6
ByLayer
370
-1
48
1
60
0
100
AcDbSpline
70
4
71
3
72
24
73
20
40
0
40
0
40
0
40
0
40
0.33217078884099
40
0.33217078884099
40
0.415213486051235
40
0.415213486051235
40
0.49825618326148
40
0.49825618326148
40
0.664341577681971
40
0.664341577681971
40
0.747384274892217
40
0.747384274892217
40
0.830426972102463
40
0.830426972102463
40
0.91346966931271
40
0.91346966931271
40
0.996512366522956
40
0.996512366522956
40
1
40
1
40
1
40
1
41
1
10
184.972532865144
20
17.2358744952648
30
0
41
1
10
185.001304265017
20
16.9953514613492
30
0
41
1
10
185.069362632849
20
16.7565726152408
30
0
41
1
10
185.211760081688
20
16.4625938321411
30
0
41
1
10
185.243151647988
20
16.4041592974609
30
0
41
1
10
185.311229962929
20
16.2895878314613
30
0
41
1
10
185.348009668412
20
16.2332482934837
30
0
41
1
10
185.46698909058
20
16.067333318956
30
0
41
1
10
185.557712824646
20
15.960808814158
30
0
41
1
10
185.71420881529
20
15.8089393766841
30
0
41
1
10
185.769505104933
20
15.7599848847847
30
0
41
1
10
185.88525462163
20
15.6670066090976
30
0
41
1
10
185.945904907365
20
15.6227841583609
30
0
41
1
10
186.073164074201
20
15.5393105668019
30
0
41
1
10
186.139769424627
20
15.5000562512941
30
0
41
1
10
186.279601492072
20
15.4271783442898
30
0
41
1
10
186.35257542803
20
15.3937578192467
30
0
41
1
10
186.430302452744
20
15.3630776614278
30
0
41
1
10
186.433438861308
20
15.3618476933921
30
0
41
1
10
186.436578875522
20
15.3606243533325
30
0
0
SPLINE
5
1B3
100
AcDbEntity
8
1
62
256
6
ByLayer
370
-1
48
1
60
0
100
AcDbSpline
70
4
71
3
72
24
73
20
40
0
40
0
40
0
40
0
40
0.0517177147470207
40
0.0517177147470207
40
0.124662505920327
40
0.124662505920327
40
0.197607297093633
40
0.197607297093633
40
0.270552088266939
40
0.270552088266939
40
0.416441670613551
40
0.416441670613551
40
0.562331252960164
40
0.562331252960164
40
0.708220835306776
40
0.708220835306776
40
0.854110417653388
40
0.854110417653388
40
1
40
1
40
1
40
1
41
1
10
186.180338798856
20
19.2890785387102
30
0
41
1
10
186.128719531189
20
19.2701711123922
30
0
41
1
10
186.078818809666
20
19.2493708165565
30
0
41
1
10
185.963985656901
20
19.1958099384024
30
0
41
1
10
185.900637550818
20
19.1614359208332
30
0
41
1
10
185.780567497258
20
19.087301366627
30
0
41
1
10
185.723549662141
20
19.0472767579428
30
0
41
1
10
185.617443663942
20
18.9638132739475
30
0
41
1
10
185.568230335457
20
18.920361072327
30
0
41
1
10
185.430408452207
20
18.7854004915571
30
0
41
1
10
185.351502536962
20
18.6893329927726
30
0
41
1
10
185.215143974596
20
18.4862431645621
30
0
41
1
10
185.158949411051
20
18.3809121480504
30
0
41
1
10
185.067682013247
20
18.1652994609536
30
0
41
1
10
185.032432889762
20
18.0546668368702
30
0
41
1
10
184.981347725357
20
17.8277637937223
30
0
41
1
10
184.965539377294
20
17.7109106214478
30
0
41
1
10
184.954012984976
20
17.4751577459212
30
0
41
1
10
184.958147165208
20
17.3561360122227
30
0
41
1
10
184.972532865144
20
17.2358744952648
30
0
0
SPLINE
5
1B4
100
AcDbEntity
8
1
62
256
6
ByLayer
370
-1
48
1
60
0
100
AcDbSpline
70
4
71
4
72
19
73
14
40
0
40
0
40
0
40
0
40
0
40
0.422602314351038
40
0.422602314351038
40
0.422602314351038
40
0.633903471526558
40
0.633903471526558
40
0.633903471526558
40
0.845204628702077
40
0.845204628702077
40
0.845204628702077
40
1
40
1
40
1
40
1
40
1
41
1
10
39.4329941925907
20
7.33085876070948
30
0
41
1
10
39.4329941925907
20
6.05759961348463
30
0
41
0.974581796258695
10
39.2024684046574
20
3.71668320520609
30
0
41
0.974581796258695
10
38.6063779486962
20
0.360606604444983
30
0
41
0.987290898129347
10
37.5263561098152
20
-4.61194946602713
30
0
41
0.993645449064674
10
37.1428691372735
20
-6.22760475293273
30
0
41
1
10
36.7574417934825
20
-7.7179584993232
30
0
41
1
10
36.0425582065231
20
-10.2955065471415
30
0
41
0.993645449064674
10
35.6571308627321
20
-11.5845074136875
30
0
41
0.987290898129347
10
35.2736438901903
20
-12.7342145311505
30
0
41
0.979951045480084
10
34.653319392659
20
-14.3513838743744
30
0
41
0.977984338487264
10
34.4058236662304
20
-14.9148261489036
30
0
41
0.977987192944471
10
34.1855462440002
20
-15.3203643692533
30
0
41
0.9795722285593
10
33.9986180479345
20
-15.5628068187499
30
0
0
SPLINE
5
1B5
100
AcDbEntity
8
1
62
256
6
ByLayer
370
-1
48
1
60
0
100
AcDbSpline
70
4
71
3
72
26
73
22
40
0
40
0
40
0
40
0
40
0.154175258556917
40
0.154175258556917
40
0.308350517113834
40
0.308350517113834
40
0.46252577567075
40
0.46252577567075
40
0.50106959030998
40
0.50106959030998
40
0.520341497629594
40
0.520341497629594
40
0.539613404949209
40
0.539613404949209
40
0.616701034227665
40
0.616701034227665
40
0.770876292784579
40
0.770876292784579
40
0.925051551341493
40
0.925051551341493
40
1
40
1
40
1
40
1
41
1
10
36
20
-17.568903882176
30
0
41
1
10
40.6814785588581
20
-18.912273650606
30
0
41
1
10
45.3349088625024
20
-20.0917962461605
30
0
41
1
10
54.6221605859751
20
-22.0762076743911
30
0
41
1
10
59.2558261706981
20
-22.8817267980498
30
0
41
1
10
68.5346423388536
20
-24.0889709383447
30
0
41
1
10
73.1801301775985
20
-24.4901992103556
30
0
41
1
10
79.0156494738382
20
-24.724295636672
30
0
41
1
10
80.1841792034684
20
-24.7577723600616
30
0
41
1
10
81.9394784848011
20
-24.7877773746142
30
0
41
1
10
82.5252798100171
20
-24.7944115946174
30
0
41
1
10
83.696179007391
20
-24.8009073311428
30
0
41
1
10
84.281212883479
20
-24.800772686195
30
0
41
1
10
87.2044461010393
20
-24.7832591273577
30
0
41
1
10
89.5367739146097
20
-24.715339354475
30
0
41
1
10
96.5209275792126
20
-24.3527729926035
30
0
41
1
10
101.160241931481
20
-23.8988466974296
30
0
41
1
10
110.441024209994
20
-22.5940934123389
30
0
41
1
10
115.082654890113
20
-21.7438813867508
30
0
41
1
10
122.005009884134
20
-20.2109682020084
30
0
41
1
10
124.273231232226
20
-19.6666957112708
30
0
41
1
10
126.547283003687
20
-19.0821263712317
30
0
0
SPLINE
5
1B6
100
AcDbEntity
8
1
62
256
6
ByLayer
370
-1
48
1
60
0
100
AcDbSpline
70
4
71
3
72
34
73
30
40
0
40
0
40
0
40
0
40
0.125000000000003
40
0.125000000000003
40
0.187500000000004
40
0.187500000000004
40
0.218750000000005
40
0.218750000000005
40
0.250000000000006
40
0.250000000000006
40
0.375000000000005
40
0.375000000000005
40
0.500000000000004
40
0.500000000000004
40
0.531250000000003
40
0.531250000000003
40
0.562500000000003
40
0.562500000000003
40
0.625000000000004
40
0.625000000000004
40
0.750000000000005
40
0.750000000000005
40
0.781250000000005
40
0.781250000000005
40
0.812500000000005
40
0.812500000000005
40
0.875000000000004
40
0.875000000000004
40
1
40
1
40
1
40
1
41
1
10
174.555664383892
20
9.96806550234572
30
0
41
1
10
174.910830717551
20
9.82260415910434
30
0
41
1
10
175.245706431306
20
9.68558396359336
30
0
41
1
10
175.714574317214
20
9.4874866985131
30
0
41
1
10
175.86526870726
20
9.42269387192297
30
0
41
1
10
176.082319213627
20
9.32669145235516
30
0
41
1
10
176.15316912192
20
9.29488817915095
30
0
41
1
10
176.291745023909
20
9.23156014389119
30
0
41
1
10
176.359599420549
20
9.19997245884369
30
0
41
1
10
176.688064093247
20
9.04370498243338
30
0
41
1
10
176.917956560447
20
8.92331562650793
30
0
41
1
10
177.309249011028
20
8.68422604496232
30
0
41
1
10
177.470693453067
20
8.56554144932716
30
0
41
1
10
177.625225001029
20
8.41417882435405
30
0
41
1
10
177.65375432455
20
8.38375791042105
30
0
41
1
10
177.705886855686
20
8.32252463423308
30
0
41
1
10
177.72945917922
20
8.29172532045246
30
0
41
1
10
177.79189506845
20
8.19966704162115
30
0
41
1
10
177.822799243969
20
8.13839574085557
30
0
41
1
10
177.883698552729
20
7.95421422409851
30
0
41
1
10
177.88204491958
20
7.83084467223975
30
0
41
1
10
177.825870840869
20
7.67508749406477
30
0
41
1
10
177.811917628474
20
7.64386609638427
30
0
41
1
10
177.778487775867
20
7.58129284129319
30
0
41
1
10
177.758955569732
20
7.5498657004986
30
0
41
1
10
177.692321224937
20
7.45598661494921
30
0
41
1
10
177.63744162643
20
7.39419307376645
30
0
41
1
10
177.442804925358
20
7.21159101405371
30
0
41
1
10
177.273196304793
20
7.0934713446384
30
0
41
1
10
177.0653709169
20
6.98116340142127
30
0
0
SPLINE
5
1B7
100
AcDbEntity
8
1
62
256
6
ByLayer
370
-1
48
1
60
0
100
AcDbSpline
70
4
71
3
72
8
73
4
40
0
40
0
40
0
40
0
40
1
40
1
40
1
40
1
41
1
10
21.8329941925865
20
18.1060063446026
30
0
41
1
10
27.7704342204106
20
14.5012428781459
30
0
41
1
10
33.6157101471723
20
10.8881058257897
30
0
41
1
10
39.4329941925877
20
7.33085876071013
30
0
0
SPLINE
5
1B8
100
AcDbEntity
8
1
62
256
6
ByLayer
370
-1
48
1
60
0
100
AcDbSpline
70
4
71
3
72
18
73
14
40
0
40
0
40
0
40
0
40
0.123608419495155
40
0.123608419495155
40
0.415738946330103
40
0.415738946330103
40
0.561804209747577
40
0.561804209747577
40
0.634836841456314
40
0.634836841456314
40
0.707869473165051
40
0.707869473165051
40
1
40
1
40
1
40
1
41
1
10
97.2496769542333
20
24.7998627348723
30
0
41
1
10
99.134108903823
20
24.8001542635591
30
0
41
1
10
101.017019089832
20
24.765451978815
30
0
41
1
10
107.349053111329
20
24.5317978081085
30
0
41
1
10
111.797200930088
20
24.1741222109247
30
0
41
1
10
118.486968307727
20
23.358666658329
30
0
41
1
10
120.719659584136
20
23.0402209609399
30
0
41
1
10
124.075838517291
20
22.494765216914
30
0
41
1
10
125.195756726855
20
22.3016582707592
30
0
41
1
10
127.438473885356
20
21.8933234154895
30
0
41
1
10
128.561762225385
20
21.6779968240995
30
0
41
1
10
134.181035357462
20
20.5484552803307
30
0
41
1
10
138.669519463555
20
19.4792447149416
30
0
41
1
10
143.165018318087
20
18.2676806897915
30
0
0
SPLINE
5
1B9
100
AcDbEntity
8
1
62
256
6
ByLayer
370
-1
48
1
60
0
100
AcDbSpline
70
4
71
3
72
18
73
14
40
0
40
0
40
0
40
0
40
0.25
40
0.25
40
0.499999999999999
40
0.499999999999999
40
0.624999999999999
40
0.624999999999999
40
0.75
40
0.75
40
0.875
40
0.875
40
1
40
1
40
1
40
1
41
1
10
153.157494002831
20
24.205579005821
30
0
41
1
10
152.836117735523
20
23.6097402780802
30
0
41
1
10
152.482517305566
20
23.0404513412528
30
0
41
1
10
151.698349196889
20
21.9652875082985
30
0
41
1
10
151.266161020438
20
21.4607477555058
30
0
41
1
10
150.560899793233
20
20.7508836298511
30
0
41
1
10
150.316344272462
20
20.5220633956185
30
0
41
1
10
149.808747611622
20
20.0796534028868
30
0
41
1
10
149.548584049445
20
19.8686833135808
30
0
41
1
10
149.016660850444
20
19.4659057007095
30
0
41
1
10
148.744946414871
20
19.2739328965924
30
0
41
1
10
148.189803881583
20
18.9091597223566
30
0
41
1
10
147.906164918623
20
18.736704487681
30
0
41
1
10
147.617507080606
20
18.5724639385254
30
0
0
SPLINE
5
1BA
100
AcDbEntity
8
1
62
256
6
ByLayer
370
-1
48
1
60
0
100
AcDbSpline
70
4
71
3
72
16
73
12
40
0
40
0
40
0
40
0
40
0.153125665071389
40
0.153125665071389
40
0.435417110047577
40
0.435417110047577
40
0.717708555023765
40
0.717708555023765
40
0.858854277511883
40
0.858854277511883
40
1
40
1
40
1
40
1
41
1
10
181.212175012585
20
9.69004638370026
30
0
41
1
10
181.191043311715
20
9.67056311667113
30
0
41
1
10
181.170093355503
20
9.65211658710257
30
0
41
1
10
181.111352778254
20
9.60250540474772
30
0
41
1
10
181.074214074564
20
9.57371450674722
30
0
41
1
10
181.004682933474
20
9.52369051113052
30
0
41
1
10
180.972836530348
20
9.50288736441374
30
0
41
1
10
180.935669268225
20
9.48088532060009
30
0
41
1
10
180.92507475835
20
9.47510464357777
30
0
41
1
10
180.909034175935
20
9.46738134125428
30
0
41
1
10
180.903463364439
20
9.4653604242925
30
0
41
1
10
180.900667100648
20
9.4653604242925
30
0
0
SPLINE
5
1BB
100
AcDbEntity
8
1
62
256
6
ByLayer
370
-1
48
1
60
0
100
AcDbSpline
70
4
71
3
72
16
73
12
40
0
40
0
40
0
40
0
40
0.125000000000006
40
0.125000000000006
40
0.250000000000012
40
0.250000000000012
40
0.500000000000008
40
0.500000000000008
40
0.750000000000004
40
0.750000000000004
40
1
40
1
40
1
40
1
41
1
10
178.921811237116
20
9.12520454024258
30
0
41
1
10
178.860224498265
20
9.14043728343421
30
0
41
1
10
178.806284660947
20
9.15742643501844
30
0
41
1
10
178.707698924744
20
9.19349931315182
30
0
41
1
10
178.663162943056
20
9.21260884200726
30
0
41
1
10
178.539567830557
20
9.27214536391136
30
0
41
1
10
178.470247129882
20
9.31480894641055
30
0
41
1
10
178.348044307852
20
9.40317063557228
30
0
41
1
10
178.29581312498
20
9.44853310500491
30
0
41
1
10
178.203323409058
20
9.54071022746956
30
0
41
1
10
178.163148992178
20
9.58753806639405
30
0
41
1
10
178.127545110237
20
9.63486768390905
30
0
0
SPLINE
5
1BC
100
AcDbEntity
8
1
62
256
6
ByLayer
370
-1
48
1
60
0
100
AcDbSpline
70
4
71
3
72
22
73
18
40
0
40
0
40
0
40
0
40
0.249999999999995
40
0.249999999999995
40
0.374999999999993
40
0.374999999999993
40
0.437499999999991
40
0.437499999999991
40
0.49999999999999
40
0.49999999999999
40
0.75
40
0.75
40
0.812499999999998
40
0.812499999999998
40
0.874999999999996
40
0.874999999999996
40
1
40
1
40
1
40
1
41
1
10
174.965060723207
20
5.9712185672885
30
0
41
1
10
174.641410584094
20
5.83398000379697
30
0
41
1
10
174.247858636337
20
5.72320219622165
30
0
41
1
10
173.571356057328
20
5.60678181100533
30
0
41
1
10
173.331313770795
20
5.57634952892417
30
0
41
1
10
172.950479445583
20
5.54527571919982
30
0
41
1
10
172.820482382776
20
5.5374015988933
30
0
41
1
10
172.556756786401
20
5.52692137094269
30
0
41
1
10
172.42272747241
20
5.52428920662439
30
0
41
1
10
171.742465984171
20
5.52455682713838
30
0
41
1
10
171.166273708324
20
5.56742413991776
30
0
41
1
10
170.413184697249
20
5.68359199372847
30
0
41
1
10
170.260924579533
20
5.70998783977245
30
0
41
1
10
169.955640836856
20
5.76886103035616
30
0
41
1
10
169.802317013778
20
5.80138109651003
30
0
41
1
10
169.340519151153
20
5.90838189198811
30
0
41
1
10
169.030227766264
20
5.9922865740013
30
0
41
1
10
168.717971833116
20
6.08945505597475
30
0
0
SPLINE
5
1BD
100
AcDbEntity
8
1
62
256
6
ByLayer
370
-1
48
1
60
0
100
AcDbSpline
70
4
71
3
72
28
73
24
40
0
40
0
40
0
40
0
40
0.0312500000000025
40
0.0312500000000025
40
0.0625000000000051
40
0.0625000000000051
40
0.0937500000000076
40
0.0937500000000076
40
0.12500000000001
40
0.12500000000001
40
0.156250000000013
40
0.156250000000013
40
0.187500000000015
40
0.187500000000015
40
0.250000000000018
40
0.250000000000018
40
0.375000000000024
40
0.375000000000024
40
0.500000000000029
40
0.500000000000029
40
0.750000000000015
40
0.750000000000015
40
1
40
1
40
1
40
1
41
1
10
171.634814489384
20
11.6428326595733
30
0
41
1
10
171.609418717752
20
11.6335906991796
30
0
41
1
10
171.584514001437
20
11.6230555190488
30
0
41
1
10
171.536417244713
20
11.5975019331552
30
0
41
1
10
171.51327317905
20
11.5824949314535
30
0
41
1
10
171.472778483401
20
11.5458389405049
30
0
41
1
10
171.455934937091
20
11.5244219132972
30
0
41
1
10
171.434168775166
20
11.4752381409994
30
0
41
1
10
171.430058270335
20
11.4488463557125
30
0
41
1
10
171.43237759775
20
11.3973488829467
30
0
41
1
10
171.438524994483
20
11.3721179229776
30
0
41
1
10
171.455933155158
20
11.3244093645801
30
0
41
1
10
171.467169939842
20
11.3018108009629
30
0
41
1
10
171.505403816433
20
11.2363065131121
30
0
41
1
10
171.536447729778
20
11.1963128176252
30
0
41
1
10
171.635263470753
20
11.0838930635088
30
0
41
1
10
171.710095769216
20
11.0174194413955
30
0
41
1
10
171.866512995953
20
10.893354912935
30
0
41
1
10
171.947552857899
20
10.836811729839
30
0
41
1
10
172.195901519743
20
10.6785792872214
30
0
41
1
10
172.368400137611
20
10.588219013947
30
0
41
1
10
172.723413896581
20
10.4319379849125
30
0
41
1
10
172.907246398449
20
10.3660472338096
30
0
41
1
10
173.092178783844
20
10.314561009617
30
0
0
SPLINE
5
1BE
100
AcDbEntity
8
1
62
256
6
ByLayer
370
-1
48
1
60
0
100
AcDbSpline
70
4
71
3
72
18
73
14
40
0
40
0
40
0
40
0
40
0.25
40
0.25
40
0.5
40
0.5
40
0.5625
40
0.5625
40
0.625000000000001
40
0.625000000000001
40
0.75
40
0.75
40
1
40
1
40
1
40
1
41
1
10
36
20
14.447479684843
30
0
41
1
10
34.8250596984442
20
14.9460138903318
30
0
41
1
10
33.6454007183003
20
15.4540404540248
30
0
41
1
10
31.2939879725297
20
16.5282503560918
30
0
41
1
10
30.1222666497035
20
17.0945547581271
30
0
41
1
10
28.6771086535354
20
17.8711086087635
30
0
41
1
10
28.3873710793802
20
18.0247803520567
30
0
41
1
10
27.805931065953
20
18.327301323617
30
0
41
1
10
27.5143161790435
20
18.4763647094344
30
0
41
1
10
26.6362264301992
20
18.9169717048645
30
0
41
1
10
26.0466400057966
20
19.2018623765929
30
0
41
1
10
24.2645460951443
20
20.0280611231508
30
0
41
1
10
23.0587165127041
20
20.5409213597788
30
0
41
1
10
21.8329941925854
20
21.0104694726896
30
0
0
SPLINE
5
1BF
100
AcDbEntity
8
1
62
256
6
ByLayer
370
-1
48
1
60
0
100
AcDbSpline
70
4
71
3
72
15
73
11
40
0
40
0
40
0
40
0
40
0.0355064919379644
40
0.118947470229814
40
0.285829426813513
40
0.619593339980911
40
0.786475296564611
40
0.86991627485646
40
0.95335725314831
40
1
40
1
40
1
40
1
41
1
10
191.654284862578
20
10.9670294588212
30
0
41
1
10
191.654462160269
20
10.962833383352
30
0
41
1
10
191.655053203082
20
10.9487736657699
30
0
41
1
10
191.656419353454
20
10.9149375982492
30
0
41
1
10
191.658994495795
20
10.8456639981255
30
0
41
1
10
191.661423125274
20
10.766479987898
30
0
41
1
10
191.663084956804
20
10.6976890266687
30
0
41
1
10
191.663901299945
20
10.658591577243
30
0
41
1
10
191.664365165429
20
10.6336875488317
30
0
41
1
10
191.664617842101
20
10.6185791425309
30
0
41
1
10
191.664706820676
20
10.613165366821
30
0
0
SPLINE
5
1C0
100
AcDbEntity
8
1
62
256
6
ByLayer
370
-1
48
1
60
0
100
AcDbSpline
70
4
71
3
72
16
73
12
40
0
40
0
40
0
40
0
40
0.0319528420423055
40
0.21504419244966
40
0.398135542857014
40
0.581226893264368
40
0.764318243671723
40
0.8558639188754
40
0.947409594079077
40
0.993182431680915
40
1
40
1
40
1
40
1
41
1
10
179.888766845249
20
23.8839273631352
30
0
41
1
10
179.888674018888
20
23.8873679880582
30
0
41
1
10
179.888040931168
20
23.9105320675184
30
0
41
1
10
179.886879891275
20
23.9534069287199
30
0
41
1
10
179.885273392725
20
24.0125626092618
30
0
41
1
10
179.883665878575
20
24.0717193380154
30
0
41
1
10
179.882327240046
20
24.1210156292366
30
0
41
1
10
179.881255252879
20
24.1604535778133
30
0
41
1
10
179.880586344192
20
24.1851013984258
30
0
41
1
10
179.880166308362
20
24.2006232858371
30
0
41
1
10
179.880011750648
20
24.2062878770492
30
0
41
1
10
179.879991686171
20
24.2070222329325
30
0
0
SPLINE
5
1C1
100
AcDbEntity
8
1
62
256
6
ByLayer
370
-1
48
1
60
0
100
AcDbSpline
70
4
71
3
72
25
73
21
40
0
40
0
40
0
40
0
40
0.125
40
0.1875
40
0.21875
40
0.234375
40
0.25
40
0.3125
40
0.34375
40
0.375
40
0.5
40
0.625
40
0.6875
40
0.71875
40
0.7265625
40
0.734375
40
0.75
40
0.8125
40
0.875
40
1
40
1
40
1
40
1
41
1
10
193.582871332746
20
11.1320147527789
30
0
41
1
10
193.582632113121
20
11.1149386930466
30
0
41
1
10
193.582201598556
20
11.0893481091009
30
0
41
1
10
193.581607568423
20
11.0594856104842
30
0
41
1
10
193.581269014678
20
11.044587242628
30
0
41
1
10
193.581061049839
20
11.0360875571143
30
0
41
1
10
193.580733237892
20
11.0233548230276
30
0
41
1
10
193.580300669847
20
11.0085555632579
30
0
41
1
10
193.579755031245
20
10.9916353995491
30
0
41
1
10
193.57889403371
20
10.9662083701293
30
0
41
1
10
193.577475945922
20
10.927730907855
30
0
41
1
10
193.575677758226
20
10.885228255188
30
0
41
1
10
193.574308398946
20
10.8552637869981
30
0
41
1
10
193.573639838526
20
10.8416267077023
30
0
41
1
10
193.573333225718
20
10.8350139677415
30
0
41
1
10
193.573103915646
20
10.8319936565175
30
0
41
1
10
193.572389578538
20
10.8226633722161
30
0
41
1
10
193.570736990841
20
10.8079463406881
30
0
41
1
10
193.566453805268
20
10.7817923259079
30
0
41
1
10
193.561758168123
20
10.7625630650878
30
0
41
1
10
193.557995749597
20
10.7500173966178
30
0
0
SPLINE
5
1C2
100
AcDbEntity
8
1
62
256
6
ByLayer
370
-1
48
1
60
0
100
AcDbSpline
70
4
71
3
72
16
73
12
40
0
40
0
40
0
40
0
40
0.0319528420422945
40
0.215044192449642
40
0.398135542856989
40
0.581226893264337
40
0.764318243671684
40
0.855863918875358
40
0.947409594079031
40
0.993182431680868
40
1
40
1
40
1
40
1
41
1
10
192.037613552041
20
23.4853776561692
30
0
41
1
10
192.041067950052
20
23.485497805439
30
0
41
1
10
192.064316624819
20
23.4863067129183
30
0
41
1
10
192.107358820094
20
23.4878039360633
30
0
41
1
10
192.166740797899
20
23.4898696979477
30
0
41
1
10
192.226122840791
20
23.4919354964364
30
0
41
1
10
192.275607819943
20
23.4936569608589
30
0
41
1
10
192.315195670888
20
23.4950341643704
30
0
41
1
10
192.339938235975
20
23.4958948852324
30
0
41
1
10
192.355520995729
20
23.4964369214848
30
0
41
1
10
192.361206532897
20
23.4966347333688
30
0
41
1
10
192.361943576546
20
23.4966603776413
30
0
0
SPLINE
5
1C3
100
AcDbEntity
8
1
62
256
6
ByLayer
370
-1
48
1
60
0
100
AcDbSpline
70
4
71
3
72
8
73
4
40
0
40
0
40
0
40
0
40
1
40
1
40
1
40
1
41
1
10
178.384211440682
20
25.0361113829526
30
0
41
1
10
178.250841615132
20
24.9951830987116
30
0
41
1
10
178.129467342697
20
24.9190563890366
30
0
41
1
10
178.034362209893
20
24.8166662667039
30
0
0
SPLINE
5
1C4
100
AcDbEntity
8
1
62
256
6
ByLayer
370
-1
48
1
60
0
100
AcDbSpline
70
4
71
3
72
8
73
4
40
0
40
0
40
0
40
0
40
1
40
1
40
1
40
1
41
1
10
178.793583910871
20
25.0726133108928
30
0
41
1
10
178.763382429905
20
25.0715546233118
30
0
41
1
10
178.733185253955
20
25.0703583402333
30
0
41
1
10
178.702994759821
20
25.0690235174059
30
0
0
SPLINE
5
1C5
100
AcDbEntity
8
1
62
256
6
ByLayer
370
-1
48
1
60
0
100
AcDbSpline
70
4
71
3
72
15
73
11
40
0
40
0
40
0
40
0
40
0.250227978748424
40
0.500467923372758
40
0.750707867997091
40
0.875827840309258
40
0.938387826465341
40
0.969667819543383
40
0.985307816082404
40
1
40
1
40
1
40
1
41
1
10
193.557997144871
20
10.7500170739191
30
0
41
1
10
193.567723038018
20
10.7477676709419
30
0
41
1
10
193.587175289313
20
10.7432687574421
30
0
41
1
10
193.616348253736
20
10.736521638999
30
0
41
1
10
193.640686730494
20
10.730892640073
30
0
41
1
10
193.657665517733
20
10.7269657889358
30
0
41
1
10
193.666239590708
20
10.7249827787396
30
0
41
1
10
193.670399608162
20
10.7240206505829
30
0
41
1
10
193.672963235779
20
10.7234277352067
30
0
41
1
10
193.673573559161
20
10.7232865797148
30
0
41
1
10
193.674730932446
20
10.7230189026105
30
0
0
SPLINE
5
1C6
100
AcDbEntity
8
1
62
256
6
ByLayer
370
-1
48
1
60
0
100
AcDbSpline
70
4
71
3
72
15
73
11
40
0
40
0
40
0
40
0
40
0.250227978748048
40
0.500467923372537
40
0.750707867997027
40
0.875827840309272
40
0.938387826465394
40
0.969667819543455
40
0.985307816082486
40
1
40
1
40
1
40
1
41
1
10
192.568455552913
20
25.4173560979155
30
0
41
1
10
192.570716130603
20
25.4270993326429
30
0
41
1
10
192.575237394061
20
25.4465862679279
30
0
41
1
10
192.582018031222
20
25.475811248685
30
0
41
1
10
192.587674994209
20
25.5001931217291
30
0
41
1
10
192.591621353381
20
25.5172021826919
30
0
41
1
10
192.593614214888
20
25.5257915435152
30
0
41
1
10
192.594581122759
20
25.529958978414
30
0
41
1
10
192.595176983654
20
25.5325271770615
30
0
41
1
10
192.595318840386
20
25.5331385886693
30
0
41
1
10
192.595587847272
20
25.5342980255885
30
0
0
SPLINE
5
1C7
100
AcDbEntity
8
1
62
256
6
ByLayer
370
-1
48
1
60
0
100
AcDbSpline
70
4
71
3
72
15
73
11
40
0
40
0
40
0
40
0
40
0.42499786374904
40
0.849995727498081
40
0.956245193435341
40
0.982807559919656
40
0.996088743161813
40
0.997748891067083
40
0.999409038972352
40
1
40
1
40
1
40
1
41
1
10
179.841880921759
20
25.0093262581108
30
0
41
1
10
179.693757321074
20
25.0041339095411
30
0
41
1
10
179.397513142936
20
24.9937520388688
30
0
41
1
10
179.064224414571
20
24.9820593603562
30
0
41
1
10
178.869824508561
20
24.975255886714
30
0
41
1
10
178.818898727247
20
24.9734632873278
30
0
41
1
10
178.80444108792
20
24.9729632615676
30
0
41
1
10
178.798649009037
20
24.972754845225
30
0
41
1
10
178.797286974406
20
24.9727147191908
30
0
41
1
10
178.796504160004
20
24.9726762956835
30
0
41
1
10
178.796298579338
20
24.9726641785579
30
0
0
SPLINE
5
1C8
100
AcDbEntity
8
1
62
256
6
ByLayer
370
-1
48
1
60
0
100
AcDbSpline
70
4
71
3
72
15
73
11
40
0
40
0
40
0
40
0
40
0.250227978748107
40
0.500467923372576
40
0.750707867997045
40
0.875827840309279
40
0.938387826465396
40
0.969667819543455
40
0.985307816082484
40
1
40
1
40
1
40
1
41
1
10
177.956930182094
20
24.4240346178346
30
0
41
1
10
177.947243757686
20
24.4262840208118
30
0
41
1
10
177.927870445755
20
24.4307829343116
30
0
41
1
10
177.898815868414
20
24.4375300527547
30
0
41
1
10
177.874576159859
20
24.4431590516806
30
0
41
1
10
177.857666274397
20
24.4470859028179
30
0
41
1
10
177.849126995948
20
24.4490689130141
30
0
41
1
10
177.8449838603
20
24.4500310411708
30
0
41
1
10
177.842430636165
20
24.450623956547
30
0
41
1
10
177.841822789542
20
24.4507651120389
30
0
41
1
10
177.840670113005
20
24.4510327891432
30
0
0
SPLINE
5
1C9
100
AcDbEntity
8
1
62
256
6
ByLayer
370
-1
48
1
60
0
100
AcDbSpline
70
4
71
3
72
8
73
4
40
0
40
0
40
0
40
0
40
1
40
1
40
1
40
1
41
1
10
178.306560641457
20
10.4564311599451
30
0
41
1
10
178.309418477548
20
10.403155711655
30
0
41
1
10
178.312700811122
20
10.3499014915539
30
0
41
1
10
178.316409804955
20
10.2966788865582
30
0
0
SPLINE
5
1CA
100
AcDbEntity
8
1
62
256
6
ByLayer
370
-1
48
1
60
0
100
AcDbSpline
70
4
71
3
72
11
73
7
40
0
40
0
40
0
40
0
40
0.486341095999646
40
0.72951164399947
40
0.972682191999293
40
1
40
1
40
1
40
1
41
1
10
191.337909749277
20
23.4618583575024
30
0
41
1
10
191.342839387819
20
23.4620311618463
30
0
41
1
10
191.350330235971
20
23.4622903515398
30
0
41
1
10
191.359855471881
20
23.4626132300046
30
0
41
1
10
191.364611088422
20
23.4627719619879
30
0
41
1
10
191.36701063729
20
23.4628513322989
30
0
41
1
10
191.36725228039
20
23.462859320176
30
0
0
SPLINE
5
1CB
100
AcDbEntity
8
1
62
256
6
ByLayer
370
-1
48
1
60
0
100
AcDbSpline
70
4
71
3
72
15
73
11
40
0
40
0
40
0
40
0
40
0.25013971079327
40
0.50035157958705
40
0.750563448380831
40
0.875669382777721
40
0.938222349976166
40
0.969498833575388
40
0.985137075375
40
1
40
1
40
1
40
1
41
1
10
193.378291421235
20
10.4528583121349
30
0
41
1
10
193.38685184726
20
10.4449039591994
30
0
41
1
10
193.403975168258
20
10.4289929591794
30
0
41
1
10
193.429656351243
20
10.4051299887296
30
0
41
1
10
193.451083727643
20
10.3852196578802
30
0
41
1
10
193.466031036402
20
10.3713306097223
30
0
41
1
10
193.473580207365
20
10.3643159155899
30
0
41
1
10
193.477241517972
20
10.3609138236039
30
0
41
1
10
193.479506734172
20
10.3588089833682
30
0
41
1
10
193.480109550235
20
10.3582488463253
30
0
41
1
10
193.481043360785
20
10.3573811490089
30
0
0
SPLINE
5
1CC
100
AcDbEntity
8
1
62
256
6
ByLayer
370
-1
48
1
60
0
100
AcDbSpline
70
4
71
3
72
8
73
4
40
0
40
0
40
0
40
0
40
1
40
1
40
1
40
1
41
1
10
192.324092821771
20
25.545811782416
30
0
41
1
10
192.377235420823
20
25.5466661474268
30
0
41
1
10
192.430391200392
20
25.5470832543864
30
0
41
1
10
192.483536274863
20
25.547093316484
30
0
0
SPLINE
5
1CD
100
AcDbEntity
8
1
62
256
6
ByLayer
370
-1
48
1
60
0
100
AcDbSpline
70
4
71
3
72
14
73
10
40
0
40
0
40
0
40
0
40
0.0107070020616567
40
0.0461693850894065
40
0.117094151144906
40
0.400793215366904
40
0.684492279588903
40
0.968191343810901
40
1
40
1
40
1
40
1
41
1
10
180.340658426713
20
10.8940150410172
30
0
41
1
10
180.340595038723
20
10.8955031531019
30
0
41
1
10
180.340320773613
20
10.9019189831188
30
0
41
1
10
180.339610128867
20
10.9181742346084
30
0
41
1
10
180.337116546437
20
10.9721572925286
30
0
41
1
10
180.332364791956
20
11.0592672791929
30
0
41
1
10
180.32473433227
20
11.1702289345683
30
0
41
1
10
180.318572819614
20
11.2430281662004
30
0
41
1
10
180.315132319067
20
11.2792698963786
30
0
41
1
10
180.314784461908
20
11.2829130606415
30
0
0
SPLINE
5
1CE
100
AcDbEntity
8
1
62
256
6
ByLayer
370
-1
48
1
60
0
100
AcDbSpline
70
4
71
3
72
8
73
4
40
0
40
0
40
0
40
0
40
1
40
1
40
1
40
1
41
1
10
193.178440002075
20
24.9886804198783
30
0
41
1
10
193.137666432315
20
25.1225586625634
30
0
41
1
10
193.061827498247
20
25.2443946481994
30
0
41
1
10
192.959829940754
20
25.3398660179013
30
0
0
SPLINE
5
1CF
100
AcDbEntity
8
1
62
256
6
ByLayer
370
-1
48
1
60
0
100
AcDbSpline
70
4
71
3
72
11
73
7
40
0
40
0
40
0
40
0
40
0.486341095999828
40
0.729511643999742
40
0.972682191999656
40
1
40
1
40
1
40
1
41
1
10
179.883434548463
20
23.2104227694765
30
0
41
1
10
179.883262401692
20
23.2153712384364
30
0
41
1
10
179.883101068528
20
23.2227934601485
30
0
41
1
10
179.883093809061
20
23.2320394896454
30
0
41
1
10
179.883163105321
20
23.2365849789248
30
0
41
1
10
179.883219366527
20
23.2388578472537
30
0
41
1
10
179.883225179712
20
23.2390865901244
30
0
0
SPLINE
5
1D0
100
AcDbEntity
8
1
62
256
6
ByLayer
370
-1
48
1
60
0
100
AcDbSpline
70
4
71
3
72
12
73
8
40
0
40
0
40
0
40
0
40
0.0285608994399188
40
0.0933235061439242
40
0.222848719551935
40
0.481899146367957
40
1
40
1
40
1
40
1
41
1
10
179.865793277295
20
24.5608863249327
30
0
41
1
10
179.865566308501
20
24.5651574578523
30
0
41
1
10
179.86482187831
20
24.5791064098316
30
0
41
1
10
179.863046138363
20
24.612418829247
30
0
41
1
10
179.859432230974
20
24.6801828708245
30
0
41
1
10
179.852205407523
20
24.8157128682937
30
0
41
1
10
179.846010676732
20
24.9318808196023
30
0
41
1
10
179.841880921759
20
25.0093262581108
30
0
0
SPLINE
5
1D1
100
AcDbEntity
8
1
62
256
6
ByLayer
370
-1
48
1
60
0
100
AcDbSpline
70
4
71
3
72
14
73
10
40
0
40
0
40
0
40
0
40
0.0107070020616565
40
0.0461693850894058
40
0.117094151144904
40
0.400793215366899
40
0.684492279588893
40
0.968191343810887
40
1
40
1
40
1
40
1
41
1
10
191.188688865519
20
24.2800366507365
30
0
41
1
10
191.188729014074
20
24.2785485386518
30
0
41
1
10
191.188901135283
20
24.2721327086349
30
0
41
1
10
191.18932146219
20
24.2558774571453
30
0
41
1
10
191.190583792627
20
24.201894399225
30
0
41
1
10
191.191892782616
20
24.1147844125608
30
0
41
1
10
191.191982565637
20
24.0038227571854
30
0
41
1
10
191.190886115638
20
23.9310235255533
30
0
41
1
10
191.189967161405
20
23.8947817953751
30
0
41
1
10
191.189872780208
20
23.8911386311121
30
0
0
SPLINE
5
1D2
100
AcDbEntity
8
1
62
256
6
ByLayer
370
-1
48
1
60
0
100
AcDbSpline
70
4
71
3
72
25
73
21
40
0
40
0
40
0
40
0
40
0.125
40
0.1875
40
0.21875
40
0.234375
40
0.25
40
0.3125
40
0.34375
40
0.375
40
0.5
40
0.625
40
0.6875
40
0.71875
40
0.7265625
40
0.734375
40
0.75
40
0.8125
40
0.875
40
1
40
1
40
1
40
1
41
1
10
179.327252657341
20
9.73196411614936
30
0
41
1
10
179.310240263389
20
9.73220293075406
30
0
41
1
10
179.2847448895
20
9.73263291168479
30
0
41
1
10
179.254993525596
20
9.73322670025249
30
0
41
1
10
179.240150341528
20
9.73356503245401
30
0
41
1
10
179.231682030845
20
9.73377281894497
30
0
41
1
10
179.218996164337
20
9.73410029270985
30
0
41
1
10
179.204250939546
20
9.73453222371032
30
0
41
1
10
179.187392599212
20
9.73507737381613
30
0
41
1
10
179.162058833741
20
9.73593815330298
30
0
41
1
10
179.123725103472
20
9.73735896133786
30
0
41
1
10
179.081379283883
20
9.73915909674648
30
0
41
1
10
179.051527012964
20
9.74053185320193
30
0
41
1
10
179.037938903697
20
9.74120003307257
30
0
41
1
10
179.031352382076
20
9.74150887598876
30
0
41
1
10
179.028333787767
20
9.7417292483625
30
0
41
1
10
179.019019814022
20
9.74242704681228
30
0
41
1
10
179.00432313697
20
9.74405016268358
30
0
41
1
10
178.978205986895
20
9.74828681076491
30
0
41
1
10
178.959002043459
20
9.75295234591971
30
0
41
1
10
178.946472092691
20
9.75669699159968
30
0
0
SPLINE
5
1D3
100
AcDbEntity
8
1
62
256
6
ByLayer
370
-1
48
1
60
0
100
AcDbSpline
70
4
71
3
72
17
73
13
40
0
40
0
40
0
40
0
40
0.0032703186403828
40
0.0092094466334571
40
0.0210877026196057
40
0.0448442145919028
40
0.0923572385364972
40
0.282409334314875
40
0.66251352587163
40
0.852565621650007
40
0.947591669539196
40
1
40
1
40
1
40
1
41
1
10
180.106146386966
20
11.7111923715777
30
0
41
1
10
180.105884029893
20
11.7111825833539
30
0
41
1
10
180.105149037309
20
11.7111551377641
30
0
41
1
10
180.103474622452
20
11.7110925599346
30
0
41
1
10
180.100152129258
20
11.7109685230831
30
0
41
1
10
180.093522207534
20
11.7107209178612
30
0
41
1
10
180.072670508074
20
11.7099422696527
30
0
41
1
10
180.02339617241
20
11.7081021860822
30
0
41
1
10
179.962739052675
20
11.7058371016209
30
0
41
1
10
179.909685099192
20
11.7038558057852
30
0
41
1
10
179.882737623425
20
11.7028496433821
30
0
41
1
10
179.870998007859
20
11.7024111026697
30
0
41
1
10
179.866806860359
20
11.702254653682
30
0
0
SPLINE
5
1D4
100
AcDbEntity
8
1
62
256
6
ByLayer
370
-1
48
1
60
0
100
AcDbSpline
70
4
71
3
72
91
73
87
40
0
40
0
40
0
40
0
40
0.0276322771565253
40
0.0681475989416701
40
0.0782764293879563
40
0.0833408446110994
40
0.0839738965139923
40
0.0846069484168852
40
0.0849234743683316
40
0.085240000319778
40
0.0858730522226709
40
0.0884052598342425
40
0.0985340902805287
40
0.108662920726815
40
0.118791751173101
40
0.128920581619387
40
0.14917824251196
40
0.169435903404532
40
0.179564733850818
40
0.184629149073961
40
0.189693564297104
40
0.190326616199997
40
0.19095966810289
40
0.192225771908676
40
0.192858823811569
40
0.193491875714462
40
0.194757979520248
40
0.197290187131819
40
0.199822394743391
40
0.204886809966534
40
0.209951225189677
40
0.220080055635963
40
0.222612263247535
40
0.22387836705332
40
0.225144470859106
40
0.230208886082249
40
0.270724207867394
40
0.290981868759967
40
0.311239529652539
40
0.331497190545111
40
0.341626020991397
40
0.34669043621454
40
0.349222643826112
40
0.350488747631898
40
0.351121799534791
40
0.351754851437684
40
0.352387903340577
40
0.353020955243469
40
0.354287059049255
40
0.356819266660827
40
0.36188368188397
40
0.372012512330256
40
0.392270173222828
40
0.412527834115401
40
0.432785495007973
40
0.473300816793118
40
0.475833024404689
40
0.478365232016261
40
0.479631335822047
40
0.480897439627832
40
0.483429647239404
40
0.49355847768569
40
0.503687308131976
40
0.50875172335512
40
0.511283930966691
40
0.512550034772477
40
0.513816138578263
40
0.514449190481156
40
0.523944969024549
40
0.534073799470835
40
0.554331460363407
40
0.564460290809694
40
0.57458912125598
40
0.594846782148552
40
0.615104443041125
40
0.617636650652696
40
0.618269702555589
40
0.618586228507035
40
0.618902754458482
40
0.619535806361375
40
0.620168858264268
40
0.625233273487411
40
0.635362103933697
40
0.675877425718842
40
0.837938712859421
40
1
40
1
40
1
40
1
41
1
10
180.235634663167
20
11.5752480101252
30
0
41
1
10
180.234054009545
20
11.5757813255364
30
0
41
1
10
180.230177706725
20
11.5771621369283
30
0
41
1
10
180.225793781795
20
11.5789321331773
30
0
41
1
10
180.222714575921
20
11.5802868725821
30
0
41
1
10
180.221843374996
20
11.5806797948526
30
0
41
1
10
180.221495437923
20
11.5808381681464
30
0
41
1
10
180.221408483888
20
11.5808778283553
30
0
41
1
10
180.221338938831
20
11.5809095966388
30
0
41
1
10
180.221269405897
20
11.5809413916615
30
0
41
1
10
180.221078240382
20
11.5810289382528
30
0
41
1
10
180.220348973778
20
11.5813646100827
30
0
41
1
10
180.219103207032
20
11.5819496539303
30
0
41
1
10
180.217451829465
20
11.5827500838164
30
0
41
1
10
180.215810344996
20
11.583570762841
30
0
41
1
10
180.213635220952
20
11.5846918373464
30
0
41
1
10
180.210942290329
20
11.5861431919041
30
0
41
1
10
180.208285647861
20
11.5876604131362
30
0
41
1
10
180.206445918595
20
11.5887566200085
30
0
41
1
10
180.205400460457
20
11.5893927205106
30
0
41
1
10
180.204847142547
20
11.5897340722788
30
0
41
1
10
180.204522357505
20
11.5899359965888
30
0
41
1
10
180.204392505434
20
11.5900168666271
30
0
41
1
10
180.204262746388
20
11.5900978870544
30
0
41
1
10
180.204133080583
20
11.5901790577062
30
0
41
1
10
180.204003477009
20
11.5902603284528
30
0
41
1
10
180.203776834301
20
11.5904028148642
30
0
41
1
10
180.203453527352
20
11.590607116357
30
0
41
1
10
180.202937239956
20
11.5909355941178
30
0
41
1
10
180.202293771277
20
11.5913491760585
30
0
41
1
10
180.201268291235
20
11.5920172465201
30
0
41
1
10
180.200376385957
20
11.5926100917129
30
0
41
1
10
180.19967919522
20
11.5930812741187
30
0
41
1
10
180.199426064885
20
11.5932531982734
30
0
41
1
10
180.199046763811
20
11.5935116689452
30
0
41
1
10
180.196713834533
20
11.5951145713856
30
0
41
1
10
180.193497323746
20
11.5974579582496
30
0
41
1
10
180.189647648539
20
11.6004855076168
30
0
41
1
10
180.186816704401
20
11.6028265118505
30
0
41
1
10
180.184505976691
20
11.6048348436762
30
0
41
1
10
180.182914642701
20
11.6062702709505
30
0
41
1
10
180.182125615732
20
11.6069953096043
30
0
41
1
10
180.181732774276
20
11.6073596509688
30
0
41
1
10
180.181536773058
20
11.6075422760083
30
0
41
1
10
180.181424892437
20
11.6076467628256
30
0
41
1
10
180.181341042061
20
11.6077251927233
30
0
41
1
10
180.181257251831
20
11.6078036873646
30
0
41
1
10
180.181145611776
20
11.6079084331433
30
0
41
1
10
180.180950452499
20
11.6080919645026
30
0
41
1
10
180.180560978468
20
11.6084599307829
30
0
41
1
10
180.179785418504
20
11.6091994661946
30
0
41
1
10
180.178247930939
20
11.6106928572597
30
0
41
1
10
180.176090926785
20
11.6128666671101
30
0
41
1
10
180.173567034968
20
11.6155382024139
30
0
41
1
10
180.170289813468
20
11.6191819781493
30
0
41
1
10
180.167834856384
20
11.6221218490551
30
0
41
1
10
180.166123358008
20
11.6242834166162
30
0
41
1
10
180.165886568469
20
11.6245843646347
30
0
41
1
10
180.165697689408
20
11.6248255596026
30
0
41
1
10
180.165509179202
20
11.6250670450632
30
0
41
1
10
180.164992299629
20
11.625732326124
30
0
41
1
10
180.164154828082
20
11.6268274673188
30
0
41
1
10
180.163239267846
20
11.6280556718174
30
0
41
1
10
180.162606311608
20
11.6289212988014
30
0
41
1
10
180.162291827469
20
11.6293555718567
30
0
41
1
10
180.162112693383
20
11.6296041432785
30
0
41
1
10
180.162000972851
20
11.6297596731572
30
0
41
1
10
180.161599423069
20
11.630320046203
30
0
41
1
10
180.160891667043
20
11.6313206734123
30
0
41
1
10
180.159521745141
20
11.6333071878377
30
0
41
1
10
180.158167277984
20
11.6353507544295
30
0
41
1
10
180.156850565742
20
11.6374188806197
30
0
41
1
10
180.155559208572
20
11.6395030596778
30
0
41
1
10
180.153992899979
20
11.6421377822568
30
0
41
1
10
180.152716597385
20
11.6444093675327
30
0
41
1
10
180.152039231345
20
11.6456547765349
30
0
41
1
10
180.15193889531
20
11.6458400978812
30
0
41
1
10
180.151902448061
20
11.6459075084848
30
0
41
1
10
180.151866026539
20
11.6459749330942
30
0
41
1
10
180.151820547885
20
11.6460592400981
30
0
41
1
10
180.151638890707
20
11.6463966078776
30
0
41
1
10
180.151187645217
20
11.6472415974681
30
0
41
1
10
180.149626553979
20
11.6502305341235
30
0
41
1
10
180.14401581763
20
11.6618241134415
30
0
41
1
10
180.136862644377
20
11.6828265832073
30
0
41
1
10
180.134254669378
20
11.7023818378592
30
0
41
1
10
180.133913348166
20
11.7121933342513
30
0
0
SPLINE
5
1D5
100
AcDbEntity
8
1
62
256
6
ByLayer
370
-1
48
1
60
0
100
AcDbSpline
70
4
71
3
72
9
73
5
40
0
40
0
40
0
40
0
40
0.5
40
1
40
1
40
1
40
1
41
1
10
177.956931571705
20
24.4240342951359
30
0
41
1
10
177.97324919101
20
24.4804422791035
30
0
41
1
10
178.020924727986
20
24.5900788045734
30
0
41
1
10
178.094585841887
20
24.6818075364166
30
0
41
1
10
178.135607255293
20
24.7211864958233
30
0
0
SPLINE
5
1D6
100
AcDbEntity
8
1
62
256
6
ByLayer
370
-1
48
1
60
0
100
AcDbSpline
70
4
71
3
72
14
73
10
40
0
40
0
40
0
40
0
40
0.0318086637759093
40
0.315507725074467
40
0.599206786373025
40
0.882905847671583
40
0.953830612996223
40
0.989292995658542
40
1
40
1
40
1
40
1
41
1
10
179.889950759908
20
23.4950293435573
30
0
41
1
10
179.890045141118
20
23.4986725083233
30
0
41
1
10
179.890964095237
20
23.5349142340192
30
0
41
1
10
179.892060545332
20
23.6077134626696
30
0
41
1
10
179.891970762293
20
23.7186751265936
30
0
41
1
10
179.890661772336
20
23.8057851113856
30
0
41
1
10
179.889399441864
20
23.8597681706902
30
0
41
1
10
179.888979115005
20
23.8760234203521
30
0
41
1
10
179.888806993787
20
23.8824392507133
30
0
41
1
10
179.888766845249
20
23.8839273631352
30
0
0
SPLINE
5
1D7
100
AcDbEntity
8
1
62
256
6
ByLayer
370
-1
48
1
60
0
100
AcDbSpline
70
4
71
3
72
8
73
4
40
0
40
0
40
0
40
0
40
1
40
1
40
1
40
1
41
1
10
193.214803029159
20
24.5777442133581
30
0
41
1
10
193.213748370204
20
24.6080610590754
30
0
41
1
10
193.212556473728
20
24.6383734170831
30
0
41
1
10
193.211226856212
20
24.6686793603876
30
0
0
SPLINE
5
1D8
100
AcDbEntity
8
1
62
256
6
ByLayer
370
-1
48
1
60
0
100
AcDbSpline
70
4
71
3
72
15
73
11
40
0
40
0
40
0
40
0
40
0.0466427416045677
40
0.130083711367131
40
0.213524681129694
40
0.380406620654821
40
0.714170499705075
40
0.881052439230201
40
0.964493408992765
40
1
40
1
40
1
40
1
41
1
10
180.364784793209
20
10.2170560954891
30
0
41
1
10
180.364695838001
20
10.2224698155501
30
0
41
1
10
180.364443232824
20
10.2375780517843
30
0
41
1
10
180.363979279684
20
10.2624822878567
30
0
41
1
10
180.363162936472
20
10.3015797407963
30
0
41
1
10
180.361501104992
20
10.3703706997839
30
0
41
1
10
180.359072341993
20
10.4495545939908
30
0
41
1
10
180.356497533436
20
10.5188284848957
30
0
41
1
10
180.355130868077
20
10.5526641157386
30
0
41
1
10
180.354540373556
20
10.5667243270308
30
0
41
1
10
180.354363127811
20
10.5709204605722
30
0
0
SPLINE
5
1D9
100
AcDbEntity
8
1
62
256
6
ByLayer
370
-1
48
1
60
0
100
AcDbSpline
70
4
71
3
72
15
73
11
40
0
40
0
40
0
40
0
40
0.0466427416046267
40
0.130083711367183
40
0.21352468112974
40
0.380406620654853
40
0.714170499705079
40
0.881052439230192
40
0.964493408992748
40
1
40
1
40
1
40
1
41
1
10
178.423325251947
20
23.0081199949584
30
0
41
1
10
178.428817747834
20
23.0083090462287
30
0
41
1
10
178.444141471082
20
23.0088366374637
30
0
41
1
10
178.469353351588
20
23.009706312551
30
0
41
1
10
178.508845801417
20
23.0110716256928
30
0
41
1
10
178.578106250557
20
23.0134738589147
30
0
41
1
10
178.65731470338
20
23.0162390214317
30
0
41
1
10
178.726160069838
20
23.0186581190078
30
0
41
1
10
178.75967735058
20
23.0198396852731
30
0
41
1
10
178.773582689021
20
23.0203306786706
30
0
41
1
10
178.777731583875
20
23.0204772108828
30
0
0
SPLINE
5
1DA
100
AcDbEntity
8
1
62
256
6
ByLayer
370
-1
48
1
60
0
100
AcDbSpline
70
4
71
3
72
14
73
10
40
0
40
0
40
0
40
0
40
0.136649739226137
40
0.273299478452274
40
0.546598956904548
40
0.614923826517616
40
0.683248696130685
40
0.819898435356822
40
1
40
1
40
1
40
1
41
1
10
191.732511721423
20
12.1187724708354
30
0
41
1
10
191.732597051726
20
12.1163195967374
30
0
41
1
10
191.732647377972
20
12.1114096457709
30
0
41
1
10
191.732268187955
20
12.1015965611324
30
0
41
1
10
191.731308565491
20
12.093050072016
30
0
41
1
10
191.730040384088
20
12.0857973559368
30
0
41
1
10
191.729076847561
20
12.0809845003578
30
0
41
1
10
191.727471269668
20
12.0742563929848
30
0
41
1
10
191.725839445565
20
12.0688050194771
30
0
41
1
10
191.724812754803
20
12.0657387961757
30
0
0
SPLINE
5
1DB
100
AcDbEntity
8
1
62
256
6
ByLayer
370
-1
48
1
60
0
100
AcDbSpline
70
4
71
3
72
8
73
4
40
0
40
0
40
0
40
0
40
1
40
1
40
1
40
1
41
1
10
178.300597939658
20
10.5963074783955
30
0
41
1
10
178.301652598613
20
10.5659906326783
30
0
41
1
10
178.302844163857
20
10.5356782746706
30
0
41
1
10
178.304174033188
20
10.5053723313661
30
0
0
SPLINE
5
1DC
100
AcDbEntity
8
1
62
256
6
ByLayer
370
-1
48
1
60
0
100
AcDbSpline
70
4
71
3
72
10
73
6
40
0
40
0
40
0
40
0
40
0.5
40
0.5
40
1
40
1
40
1
40
1
41
1
10
182.454760041599
20
14.3541020942002
30
0
41
1
10
182.445730688858
20
14.405821154949
30
0
41
1
10
182.433182037045
20
14.4601672111432
30
0
41
1
10
182.401164103858
20
14.5739341338628
30
0
41
1
10
182.381462751573
20
14.6335224594266
30
0
41
1
10
182.36007741566
20
14.6912913428277
30
0
0
SPLINE
5
1DD
100
AcDbEntity
8
1
62
256
6
ByLayer
370
-1
48
1
60
0
100
AcDbSpline
70
4
71
3
72
14
73
10
40
0
40
0
40
0
40
0
40
0.136649739226135
40
0.273299478452269
40
0.546598956904539
40
0.614923826517606
40
0.683248696130673
40
0.819898435356808
40
1
40
1
40
1
40
1
41
1
10
191.18335656876
20
23.6065320570499
30
0
41
1
10
191.185800108932
20
23.6066177133008
30
0
41
1
10
191.190691376052
20
23.6066682317853
30
0
41
1
10
191.200467118941
20
23.6062875933241
30
0
41
1
10
191.208981086086
20
23.6053243052585
30
0
41
1
10
191.216206203391
20
23.604051279608
30
0
41
1
10
191.221000744602
20
23.6030840625283
30
0
41
1
10
191.227703249495
20
23.6014723515884
30
0
41
1
10
191.233133878881
20
23.5998342941827
30
0
41
1
10
191.236188434277
20
23.5988036816285
30
0
0
SPLINE
5
1DE
100
AcDbEntity
8
1
62
256
6
ByLayer
370
-1
48
1
60
0
100
AcDbSpline
70
4
71
3
72
12
73
8
40
0
40
0
40
0
40
0
40
0.0285608994399094
40
0.0933235061439154
40
0.222848719551928
40
0.481899146367952
40
1
40
1
40
1
40
1
41
1
10
191.664706820676
20
10.613165366821
30
0
41
1
10
191.664777019248
20
10.6088942339014
30
0
41
1
10
191.665003098143
20
10.5949452819221
30
0
41
1
10
191.665545095456
20
10.5616328625067
30
0
41
1
10
191.666645923494
20
10.4938688209292
30
0
41
1
10
191.66884870409
20
10.35833882346
30
0
41
1
10
191.670736448058
20
10.2421708721514
30
0
41
1
10
191.671995019168
20
10.1647254336429
30
0
0
SPLINE
5
1DF
100
AcDbEntity
8
1
62
256
6
ByLayer
370
-1
48
1
60
0
100
AcDbSpline
70
4
71
3
72
8
73
4
40
0
40
0
40
0
40
0
40
1
40
1
40
1
40
1
41
1
10
193.687477835103
20
10.835498797271
30
0
41
1
10
193.687481758981
20
10.7975195040586
30
0
41
1
10
193.683222299911
20
10.760028533111
30
0
41
1
10
193.674712048486
20
10.7230232700899
30
0
0
SPLINE
5
1E0
100
AcDbEntity
8
1
62
256
6
ByLayer
370
-1
48
1
60
0
100
AcDbSpline
70
4
71
3
72
8
73
4
40
0
40
0
40
0
40
0
40
1
40
1
40
1
40
1
41
1
10
193.68620145029
20
10.9955515715334
30
0
41
1
10
193.687052366347
20
10.9422057777945
30
0
41
1
10
193.687472323496
20
10.8888514061408
30
0
41
1
10
193.687477835687
20
10.8354987972683
30
0
0
SPLINE
5
1E1
100
AcDbEntity
8
1
62
256
6
ByLayer
370
-1
48
1
60
0
100
AcDbSpline
70
4
71
3
72
8
73
4
40
0
40
0
40
0
40
0
40
1
40
1
40
1
40
1
41
1
10
193.211226856212
20
24.6686793603876
30
0
41
1
10
193.210510958697
20
24.6849967969668
30
0
41
1
10
193.209715403965
20
24.7013109067584
30
0
41
1
10
193.208840395199
20
24.7176205318086
30
0
0
SPLINE
5
1E2
100
AcDbEntity
8
1
62
256
6
ByLayer
370
-1
48
1
60
0
100
AcDbSpline
70
4
71
3
72
20
73
16
40
0
40
0
40
0
40
0
40
0.0006369940731763
40
0.002297065511593
40
0.0039571369500096
40
0.0172377084573428
40
0.0437988514720092
40
0.150043423530675
40
0.362532567648006
40
0.468777139706672
40
0.521899425736005
40
0.575021711765337
40
0.787510855882669
40
0.893755427941334
40
1
40
1
40
1
40
1
41
1
10
192.188148427551
20
25.4420768089549
30
0
41
1
10
192.187926178027
20
25.4420743969163
30
0
41
1
10
192.187124018091
20
25.4420573272944
30
0
41
1
10
192.185743729138
20
25.4420019939258
30
0
41
1
10
192.179964386758
20
25.4418032627505
30
0
41
1
10
192.165491846372
20
25.4412911691565
30
0
41
1
10
192.114582130941
20
25.4395130709957
30
0
41
1
10
191.994195297087
20
25.4352969177282
30
0
41
1
10
191.845970416366
20
25.4301351465782
30
0
41
1
10
191.716215194919
20
25.4256307703677
30
0
41
1
10
191.642051524226
20
25.4230627213999
30
0
41
1
10
191.530821166061
20
25.419197479006
30
0
41
1
10
191.401096083724
20
25.4146498704373
30
0
41
1
10
191.252905742419
20
25.4094027156433
30
0
41
1
10
191.178832487074
20
25.4067588783388
30
0
41
1
10
191.141802942056
20
25.4054355456841
30
0
0
SPLINE
5
1E3
100
AcDbEntity
8
1
62
256
6
ByLayer
370
-1
48
1
60
0
100
AcDbSpline
70
4
71
3
72
16
73
12
40
0
40
0
40
0
40
0
40
0.0068174563922553
40
0.0525902990102892
40
0.144135984246357
40
0.235681669482425
40
0.418773039954561
40
0.601864410426697
40
0.784955780898832
40
0.968047151370968
40
1
40
1
40
1
40
1
41
1
10
180.354363127811
20
10.5709204605722
30
0
41
1
10
180.354332108605
20
10.5716548123578
30
0
41
1
10
180.354092593045
20
10.5773194303408
30
0
41
1
10
180.353432091072
20
10.5928407860833
30
0
41
1
10
180.35238635888
20
10.6174888271225
30
0
41
1
10
180.350714420439
20
10.6569267741846
30
0
41
1
10
180.348623196926
20
10.7062230280893
30
0
41
1
10
180.34611500879
20
10.7653799477495
30
0
41
1
10
180.343605526101
20
10.8245354301438
30
0
41
1
10
180.341783554054
20
10.8674103361402
30
0
41
1
10
180.340804984437
20
10.8905744157738
30
0
41
1
10
180.340658426713
20
10.8940150410172
30
0
0
SPLINE
5
1E4
100
AcDbEntity
8
1
62
256
6
ByLayer
370
-1
48
1
60
0
100
AcDbSpline
70
4
71
3
72
25
73
21
40
0
40
0
40
0
40
0
40
0.125
40
0.1875
40
0.25
40
0.265625
40
0.2734375
40
0.28125
40
0.3125
40
0.375
40
0.5
40
0.625
40
0.65625
40
0.6875
40
0.75
40
0.765625
40
0.78125
40
0.8125
40
0.875
40
1
40
1
40
1
40
1
41
1
10
178.418278699441
20
24.9213548122369
30
0
41
1
10
178.430480046525
20
24.9259784867521
30
0
41
1
10
178.449262454663
20
24.9319895173243
30
0
41
1
10
178.474964092168
20
24.9380518482743
30
0
41
1
10
178.489482784215
20
24.9407006268077
30
0
41
1
10
178.498710236504
20
24.942047753477
30
0
41
1
10
178.501698246067
20
24.942478423518
30
0
41
1
10
178.508250327392
20
24.9432467488577
30
0
41
1
10
178.521761505343
20
24.9448627090549
30
0
41
1
10
178.551455752051
20
24.948317987626
30
0
41
1
10
178.593584705782
20
24.9530724804611
30
0
41
1
10
178.63173780253
20
24.9571682802041
30
0
41
1
10
178.656956867527
20
24.9597969373803
30
0
41
1
10
178.67374044411
20
24.9615185756151
30
0
41
1
10
178.688422726184
20
24.9629796556577
30
0
41
1
10
178.701058031153
20
24.9641926563611
30
0
41
1
10
178.709493463545
20
24.9649915939966
30
0
41
1
10
178.724281080548
20
24.9663661555707
30
0
41
1
10
178.753927636607
20
24.9690371515788
30
0
41
1
10
178.779338586349
20
24.971247382012
30
0
41
1
10
178.796298066284
20
24.9726742281908
30
0
0
SPLINE
5
1E5
100
AcDbEntity
8
1
62
256
6
ByLayer
370
-1
48
1
60
0
100
AcDbSpline
70
4
71
3
72
25
73
21
40
0
40
0
40
0
40
0
40
0.125
40
0.1875
40
0.21875
40
0.234375
40
0.25
40
0.3125
40
0.34375
40
0.375
40
0.5
40
0.625
40
0.6875
40
0.71875
40
0.7265625
40
0.734375
40
0.75
40
0.8125
40
0.875
40
1
40
1
40
1
40
1
41
1
10
192.188148311476
20
25.4420875756044
30
0
41
1
10
192.205158077863
20
25.4418487609997
30
0
41
1
10
192.23064911207
20
25.4414187800689
30
0
41
1
10
192.260395473753
20
25.4408249915012
30
0
41
1
10
192.275235639822
20
25.4404866592997
30
0
41
1
10
192.283702012428
20
25.4402788728087
30
0
41
1
10
192.296384710298
20
25.4399513990438
30
0
41
1
10
192.311125373744
20
25.4395194680434
30
0
41
1
10
192.327978588166
20
25.4389743179376
30
0
41
1
10
192.353305366487
20
25.4381135384507
30
0
41
1
10
192.391633724045
20
25.4366927304158
30
0
41
1
10
192.43396973894
20
25.4348925950072
30
0
41
1
10
192.463818356705
20
25.4335198385517
30
0
41
1
10
192.477400619621
20
25.4328516586811
30
0
41
1
10
192.483989250977
20
25.432542815765
30
0
41
1
10
192.486988292724
20
25.4323224433912
30
0
41
1
10
192.496263878485
20
25.4316246449414
30
0
41
1
10
192.510889258993
20
25.4300015290701
30
0
41
1
10
192.536881090634
20
25.4257648809888
30
0
41
1
10
192.555989322552
20
25.421099345834
30
0
41
1
10
192.568455228612
20
25.417354700154
30
0
0
SPLINE
5
1E6
100
AcDbEntity
8
1
62
256
6
ByLayer
370
-1
48
1
60
0
100
AcDbSpline
70
4
71
3
72
20
73
16
40
0
40
0
40
0
40
0
40
0.0006369940731731
40
0.0022970655115898
40
0.0039571369500064
40
0.0172377084573397
40
0.0437988514720062
40
0.150043423530672
40
0.362532567648004
40
0.46877713970667
40
0.521899425736003
40
0.575021711765336
40
0.787510855882668
40
0.893755427941334
40
1
40
1
40
1
40
1
41
1
10
193.582860607189
20
11.1320146363825
30
0
41
1
10
193.58285822142
20
11.1322377520205
30
0
41
1
10
193.582841277958
20
11.1330430375156
30
0
41
1
10
193.582786255553
20
11.134428699735
30
0
41
1
10
193.582588671006
20
11.1402305101513
30
0
41
1
10
193.582079163659
20
11.1547589733024
30
0
41
1
10
193.580306885389
20
11.2058622056511
30
0
41
1
10
193.576079503606
20
11.3266815212255
30
0
41
1
10
193.570828887079
20
11.4753636950326
30
0
41
1
10
193.566183629179
20
11.6054559345254
30
0
41
1
10
193.563513437352
20
11.679790555834
30
0
41
1
10
193.559513102727
20
11.7912954230368
30
0
41
1
10
193.554858843633
20
11.9213916050753
30
0
41
1
10
193.549561002911
20
12.0700770865906
30
0
41
1
10
193.546914089918
20
12.1444201032712
30
0
41
1
10
193.54559626092
20
12.1815915648999
30
0
0
SPLINE
5
1E7
100
AcDbEntity
8
1
62
256
6
ByLayer
370
-1
48
1
60
0
100
AcDbSpline
70
4
71
3
72
8
73
4
40
0
40
0
40
0
40
0
40
1
40
1
40
1
40
1
41
1
10
178.495095491104
20
25.0567410416348
30
0
41
1
10
178.457354091721
20
25.0540910777182
30
0
41
1
10
178.420393739793
20
25.0472129595385
30
0
41
1
10
178.384211440682
20
25.0361113829525
30
0
0
SPLINE
5
1E8
100
AcDbEntity
8
1
62
256
6
ByLayer
370
-1
48
1
60
0
100
AcDbSpline
70
4
71
3
72
17
73
13
40
0
40
0
40
0
40
0
40
0.0032703186403181
40
0.0092094466333929
40
0.0210877026195425
40
0.0448442145918418
40
0.0923572385364403
40
0.282409334314834
40
0.662513525871622
40
0.852565621650016
40
0.947591669539213
40
1
40
1
40
1
40
1
41
1
10
179.883225179712
20
23.2390865901244
30
0
41
1
10
179.883232303099
20
23.2393668881805
30
0
41
1
10
179.883252917492
20
23.2401528270428
30
0
41
1
10
179.883301338427
20
23.2419448216178
30
0
41
1
10
179.88339371483
20
23.245496772313
30
0
41
1
10
179.883580634504
20
23.2525872581601
30
0
41
1
10
179.88416596817
20
23.2748848254791
30
0
41
1
10
179.885551137045
20
23.3275779246647
30
0
41
1
10
179.887254259195
20
23.3924414570049
30
0
41
1
10
179.888747537694
20
23.4491783463865
30
0
41
1
10
179.889500808589
20
23.4779910678042
30
0
41
1
10
179.889834696404
20
23.4905492307192
30
0
41
1
10
179.889950759908
20
23.4950293435572
30
0
0
SPLINE
5
1E9
100
AcDbEntity
8
1
62
256
6
ByLayer
370
-1
48
1
60
0
100
AcDbSpline
70
4
71
3
72
16
73
12
40
0
40
0
40
0
40
0
40
0.0319528420422265
40
0.215044192449589
40
0.398135542856951
40
0.581226893264313
40
0.764318243671675
40
0.855863918875356
40
0.947409594079037
40
0.993182431680878
40
1
40
1
40
1
40
1
41
1
10
179.491733740243
20
11.6886740355845
30
0
41
1
10
179.488333073642
20
11.6885538863147
30
0
41
1
10
179.46542988212
20
11.6877449788353
30
0
41
1
10
179.423048658574
20
11.6862477556903
30
0
41
1
10
179.364569485743
20
11.684181993806
30
0
41
1
10
179.306088289554
20
11.6821161953173
30
0
41
1
10
179.257355860806
20
11.6803947308948
30
0
41
1
10
179.2183679612
20
11.6790175273833
30
0
41
1
10
179.194002469858
20
11.6781568065212
30
0
41
1
10
179.178659585726
20
11.6776147702689
30
0
41
1
10
179.173059051429
20
11.6774169583849
30
0
41
1
10
179.172332972203
20
11.6773913141124
30
0
0
SPLINE
5
1EA
100
AcDbEntity
8
1
62
256
6
ByLayer
370
-1
48
1
60
0
100
AcDbSpline
70
4
71
3
72
9
73
5
40
0
40
0
40
0
40
0
40
0.375000000000754
40
1
40
1
40
1
40
1
41
1
10
191.139088786643
20
25.5053746283861
30
0
41
1
10
191.13942805607
20
25.4928822430484
30
0
41
1
10
191.140332774541
20
25.459569215481
30
0
41
1
10
191.141237493012
20
25.4262561879137
30
0
41
1
10
191.141802942056
20
25.4054355456841
30
0
0
SPLINE
5
1EB
100
AcDbEntity
8
1
62
256
6
ByLayer
370
-1
48
1
60
0
100
AcDbSpline
70
4
71
3
72
12
73
8
40
0
40
0
40
0
40
0
40
0.448044053330175
40
0.448044053330175
40
0.724021472165484
40
0.724021472165484
40
1
40
1
40
1
40
1
41
1
10
193.645917559186
20
12.1850815145701
30
0
41
1
10
193.651370653009
20
12.0283288474435
30
0
41
1
10
193.65675735841
20
11.8715725888025
30
0
41
1
10
193.665521397412
20
11.6182641335927
30
0
41
1
10
193.668890879761
20
11.5217111953235
30
0
41
1
10
193.675664769025
20
11.3286086298579
30
0
41
1
10
193.679071279495
20
11.2320584523963
30
0
41
1
10
193.682430117067
20
11.1355047024491
30
0
0
SPLINE
5
1EC
100
AcDbEntity
8
1
62
256
6
ByLayer
370
-1
48
1
60
0
100
AcDbSpline
70
4
71
3
72
15
73
11
40
0
40
0
40
0
40
0
40
0.424997863749039
40
0.849995727498078
40
0.956245193435338
40
0.982807559919653
40
0.99608874316181
40
0.99774889106708
40
0.99940903897235
40
1
40
1
40
1
40
1
41
1
10
178.362881652152
20
11.6493742401868
30
0
41
1
10
178.368054242268
20
11.5006848314104
30
0
41
1
10
178.378396627518
20
11.2033090278293
30
0
41
1
10
178.390044739302
20
10.8687472635007
30
0
41
1
10
178.39682240789
20
10.6736046968927
30
0
41
1
10
178.39860812921
20
10.622484444268
30
0
41
1
10
178.399106303845
20
10.6079715272868
30
0
41
1
10
178.399313886105
20
10.6021573647556
30
0
41
1
10
178.399353917516
20
10.6007900690838
30
0
41
1
10
178.399392111101
20
10.6000043484863
30
0
41
1
10
178.399404144711
20
10.5997980200853
30
0
0
SPLINE
5
1ED
100
AcDbEntity
8
1
62
256
6
ByLayer
370
-1
48
1
60
0
100
AcDbSpline
70
4
71
3
72
8
73
4
40
0
40
0
40
0
40
0
40
1
40
1
40
1
40
1
41
1
10
178.304174033188
20
10.5053723313661
30
0
41
1
10
178.304890066285
20
10.4890548947869
30
0
41
1
10
178.30568574999
20
10.4727407849953
30
0
41
1
10
178.306560641457
20
10.4564311599451
30
0
0
SPLINE
5
1EE
100
AcDbEntity
8
1
62
256
6
ByLayer
370
-1
48
1
60
0
100
AcDbSpline
70
4
71
3
72
14
73
10
40
0
40
0
40
0
40
0
40
0.136649739226082
40
0.273299478452165
40
0.54659895690433
40
0.614923826517371
40
0.683248696130412
40
0.819898435356495
40
1
40
1
40
1
40
1
41
1
10
180.288466528683
20
11.5675196347038
30
0
41
1
10
180.286022988511
20
11.5674339784528
30
0
41
1
10
180.281131721391
20
11.5673834599684
30
0
41
1
10
180.271355978502
20
11.5677640984296
30
0
41
1
10
180.262842011357
20
11.5687273864951
30
0
41
1
10
180.255616894052
20
11.5700004121457
30
0
41
1
10
180.250822352842
20
11.5709676292254
30
0
41
1
10
180.244119847948
20
11.5725793401653
30
0
41
1
10
180.238689218563
20
11.574217397571
30
0
41
1
10
180.235634663167
20
11.5752480101252
30
0
0
SPLINE
5
1EF
100
AcDbEntity
8
1
62
256
6
ByLayer
370
-1
48
1
60
0
100
AcDbSpline
70
4
71
3
72
8
73
4
40
0
40
0
40
0
40
0
40
1
40
1
40
1
40
1
41
1
10
193.682430117066
20
11.1355047024491
30
0
41
1
10
193.683484756255
20
11.1051878542102
30
0
41
1
10
193.684403482388
20
11.0748659489908
30
0
41
1
10
193.685182272658
20
11.0445406782831
30
0
0
SPLINE
5
1F0
100
AcDbEntity
8
1
62
256
6
ByLayer
370
-1
48
1
60
0
100
AcDbSpline
70
4
71
3
72
14
73
10
40
0
40
0
40
0
40
0
40
0.0107070020616989
40
0.0461693850894484
40
0.117094151144948
40
0.400793215366944
40
0.68449227958894
40
0.968191343810936
40
1
40
1
40
1
40
1
41
1
10
179.097131768044
20
23.0317599222506
30
0
41
1
10
179.098602597696
20
23.0318118882696
30
0
41
1
10
179.104942941592
20
23.0320359339908
30
0
41
1
10
179.120991178022
20
23.0326035798811
30
0
41
1
10
179.174153188113
20
23.0344887098032
30
0
41
1
10
179.259210312733
20
23.0375306575679
30
0
41
1
10
179.365979387177
20
23.0414055239577
30
0
41
1
10
179.434872614426
20
23.0439477291447
30
0
41
1
10
179.468796706489
20
23.0452133182502
30
0
41
1
10
179.472204888235
20
23.0453405403497
30
0
0
SPLINE
5
1F1
100
AcDbEntity
8
1
62
256
6
ByLayer
370
-1
48
1
60
0
100
AcDbSpline
70
4
71
3
72
9
73
5
40
0
40
0
40
0
40
0
40
0.624999999996733
40
1
40
1
40
1
40
1
41
1
10
178.399394210032
20
10.5997974280658
30
0
41
1
10
178.378811653704
20
10.5990703552178
30
0
41
1
10
178.345879563579
20
10.5979070386611
30
0
41
1
10
178.312947473454
20
10.5967437221043
30
0
41
1
10
178.300597939657
20
10.5963074783955
30
0
0
SPLINE
5
1F2
100
AcDbEntity
8
1
62
256
6
ByLayer
370
-1
48
1
60
0
100
AcDbSpline
70
4
71
3
72
15
73
11
40
0
40
0
40
0
40
0
40
0.250244249035839
40
0.500488498071677
40
0.750732747107516
40
0.875854871625435
40
0.938415933884395
40
0.969696465013875
40
0.985336730578615
40
1
40
1
40
1
40
1
41
1
10
178.450397015765
20
10.2204558764422
30
0
41
1
10
178.44094401168
20
10.217532159395
30
0
41
1
10
178.422038003509
20
10.2116847253005
30
0
41
1
10
178.393684477886
20
10.2029152711179
30
0
41
1
10
178.370030021143
20
10.1955991906636
30
0
41
1
10
178.353528413737
20
10.1904954130239
30
0
41
1
10
178.345195310547
20
10.1879180698181
30
0
41
1
10
178.341152208183
20
10.1866675797941
30
0
41
1
10
178.338661809458
20
10.1858973250537
30
0
41
1
10
178.338068600742
20
10.1857138516923
30
0
41
1
10
178.336949302668
20
10.1853676642971
30
0
0
SPLINE
5
1F3
100
AcDbEntity
8
1
62
256
6
ByLayer
370
-1
48
1
60
0
100
AcDbSpline
70
4
71
3
72
8
73
4
40
0
40
0
40
0
40
0
40
1
40
1
40
1
40
1
41
1
10
193.020305467345
20
10.1173106501189
30
0
41
1
10
193.058047514726
20
10.1199606140355
30
0
41
1
10
193.095009288517
20
10.1268387322152
30
0
41
1
10
193.131189528135
20
10.1379403088012
30
0
0
SPLINE
5
1F4
100
AcDbEntity
8
1
62
256
6
ByLayer
370
-1
48
1
60
0
100
AcDbSpline
70
4
71
3
72
8
73
4
40
0
40
0
40
0
40
0
40
1
40
1
40
1
40
1
41
1
10
179.031865375167
20
9.62695837585093
30
0
41
1
10
178.994027393016
20
9.62695121310128
30
0
41
1
10
178.956682408038
20
9.63123027680774
30
0
41
1
10
178.919817510722
20
9.63977258379663
30
0
0
SPLINE
5
1F5
100
AcDbEntity
8
1
62
256
6
ByLayer
370
-1
48
1
60
0
100
AcDbSpline
70
4
71
3
72
17
73
13
40
0
40
0
40
0
40
0
40
0.0524083454184018
40
0.14743440120074
40
0.337486512765416
40
0.717590735894769
40
0.907642847459445
40
0.955155875350615
40
0.978912389296199
40
0.990790646268991
40
0.996729774755388
40
1
40
1
40
1
40
1
41
1
10
179.472204888235
20
23.0453405403497
30
0
41
1
10
179.476396037047
20
23.0454969893864
30
0
41
1
10
179.48813565418
20
23.0459355301575
30
0
41
1
10
179.51508312342
20
23.0469416923167
30
0
41
1
10
179.568137001055
20
23.0489229858431
30
0
41
1
10
179.628794682294
20
23.0511880876116
30
0
41
1
10
179.678067933113
20
23.0530281377313
30
0
41
1
10
179.698920687578
20
23.0538068184725
30
0
41
1
10
179.705549478334
20
23.0540543888154
30
0
41
1
10
179.70887375515
20
23.0541784806887
30
0
41
1
10
179.71054566807
20
23.0542409812463
30
0
41
1
10
179.711281020062
20
23.0542684378689
30
0
41
1
10
179.711543580852
20
23.0542782323281
30
0
0
SPLINE
5
1F6
100
AcDbEntity
8
1
62
256
6
ByLayer
370
-1
48
1
60
0
100
AcDbSpline
70
4
71
3
72
15
73
11
40
0
40
0
40
0
40
0
40
0.250139710793309
40
0.500351579587093
40
0.750563448380876
40
0.875669382777768
40
0.938222349976214
40
0.969498833575437
40
0.985137075375048
40
1
40
1
40
1
40
1
41
1
10
192.863965560949
20
25.2374838811356
30
0
41
1
10
192.871952531221
20
25.2460138803321
30
0
41
1
10
192.88792877532
20
25.2630763388988
30
0
41
1
10
192.911889597415
20
25.2886662417374
30
0
41
1
10
192.931881571857
20
25.3100174575466
30
0
41
1
10
192.945827572951
20
25.3249116382031
30
0
41
1
10
192.952871031288
20
25.3324339767011
30
0
41
1
10
192.956287073771
20
25.3360822736955
30
0
41
1
10
192.958400545039
20
25.3383394385038
30
0
41
1
10
192.95896297896
20
25.3389401119419
30
0
41
1
10
192.959834234325
20
25.3398706033939
30
0
0
SPLINE
5
1F7
100
AcDbEntity
8
1
62
256
6
ByLayer
370
-1
48
1
60
0
100
AcDbSpline
70
4
71
3
72
8
73
4
40
0
40
0
40
0
40
0
40
1
40
1
40
1
40
1
41
1
10
177.829200743835
20
24.1785001202203
30
0
41
1
10
177.828349432104
20
24.2318459139592
30
0
41
1
10
177.82793834977
20
24.2852002856129
30
0
41
1
10
177.827923814344
20
24.3385528944854
30
0
0
SPLINE
5
1F8
100
AcDbEntity
8
1
62
256
6
ByLayer
370
-1
48
1
60
0
100
AcDbSpline
70
4
71
3
72
8
73
4
40
0
40
0
40
0
40
0
40
1
40
1
40
1
40
1
41
1
10
177.832970851751
20
24.0385469893046
30
0
41
1
10
177.831916245028
20
24.0688638375435
30
0
41
1
10
177.830995086673
20
24.0991857427629
30
0
41
1
10
177.830217895582
20
24.1295110134706
30
0
0
SPLINE
5
1F9
100
AcDbEntity
8
1
62
256
6
ByLayer
370
-1
48
1
60
0
100
AcDbSpline
70
4
71
3
72
8
73
4
40
0
40
0
40
0
40
0
40
1
40
1
40
1
40
1
41
1
10
179.240111047819
20
9.62926196326052
30
0
41
1
10
179.223845768793
20
9.62884147461864
30
0
41
1
10
179.207578449724
20
9.62850146270407
30
0
41
1
10
179.191309372354
20
9.62823990931341
30
0
0
SPLINE
5
1FA
100
AcDbEntity
8
1
62
256
6
ByLayer
370
-1
48
1
60
0
100
AcDbSpline
70
4
71
3
72
15
73
11
40
0
40
0
40
0
40
0
40
0.0355064919379293
40
0.118947470229784
40
0.285829426813494
40
0.619593339980913
40
0.786475296564623
40
0.869916274856477
40
0.953357253148332
40
1
40
1
40
1
40
1
41
1
10
192.361943576546
20
23.4966603776413
30
0
41
1
10
192.366155009779
20
23.4968069078255
30
0
41
1
10
192.38026316086
20
23.4972978839824
30
0
41
1
10
192.41415953706
20
23.4984794654968
30
0
41
1
10
192.483334790499
20
23.5008985529185
30
0
41
1
10
192.561891466864
20
23.5036637194871
30
0
41
1
10
192.629689397171
20
23.5060659527873
30
0
41
1
10
192.668094294548
20
23.5074312658064
30
0
41
1
10
192.692501062609
20
23.508300933642
30
0
41
1
10
192.707279064027
20
23.5088285308158
30
0
41
1
10
192.712572883452
20
23.5090175840295
30
0
0
SPLINE
5
1FB
100
AcDbEntity
8
1
62
256
6
ByLayer
370
-1
48
1
60
0
100
AcDbSpline
70
4
71
3
72
8
73
4
40
0
40
0
40
0
40
0
40
1
40
1
40
1
40
1
41
1
10
192.483536274855
20
25.5470933159028
30
0
41
1
10
192.521367833775
20
25.5471004786524
30
0
41
1
10
192.558719461766
20
25.5428214149459
30
0
41
1
10
192.595583458096
20
25.5342791079571
30
0
0
SPLINE
5
1FC
100
AcDbEntity
8
1
62
256
6
ByLayer
370
-1
48
1
60
0
100
AcDbSpline
70
4
71
3
72
15
73
11
40
0
40
0
40
0
40
0
40
0.250244249035879
40
0.500488498071758
40
0.750732747107637
40
0.875854871625577
40
0.938415933884546
40
0.969696465014031
40
0.985336730578774
40
1
40
1
40
1
40
1
41
1
10
178.418278699441
20
24.9213548122369
30
0
41
1
10
178.415439761211
20
24.9309178597966
30
0
41
1
10
178.409761884751
20
24.9500439549158
30
0
41
1
10
178.401246717814
20
24.9787275470917
30
0
41
1
10
178.394142781229
20
25.0026573680028
30
0
41
1
10
178.38918699747
20
25.0193510724597
30
0
41
1
10
178.386684389304
20
25.027781182233
30
0
41
1
10
178.385470159651
20
25.0318713508023
30
0
41
1
10
178.384722239933
20
25.0343907405371
30
0
41
1
10
178.384544086736
20
25.0349908548615
30
0
41
1
10
178.384207937712
20
25.0361231828097
30
0
0
SPLINE
5
1FD
100
AcDbEntity
8
1
62
256
6
ByLayer
370
-1
48
1
60
0
100
AcDbSpline
70
4
71
3
72
17
73
13
40
0
40
0
40
0
40
0
40
0.0144631560764699
40
0.0301057427840747
40
0.0613909161992843
40
0.123961263029704
40
0.249101956690542
40
0.499383344012219
40
0.749664731333895
40
0.999946118655572
40
0.999946118655572
40
1
40
1
40
1
40
1
41
1
10
177.832947758539
20
24.0385461797914
30
0
41
1
10
177.83403850272
20
24.0385844149137
30
0
41
1
10
177.834472519348
20
24.0385996290025
30
0
41
1
10
177.836648470278
20
24.0386759051371
30
0
41
1
10
177.840198432319
20
24.0388003460786
30
0
41
1
10
177.847511117212
20
24.0390566861133
30
0
41
1
10
177.861994646457
20
24.0395643940816
30
0
41
1
10
177.882754971929
20
24.0402921298764
30
0
41
1
10
177.907639939991
20
24.0411644515573
30
0
41
1
10
177.924233070711
20
24.0417461098356
30
0
41
1
10
177.932527317805
20
24.04203685771
30
0
41
1
10
177.932537312666
20
24.0420372080714
30
0
41
1
10
177.932547307527
20
24.0420375584328
30
0
0
SPLINE
5
1FE
100
AcDbEntity
8
1
62
256
6
ByLayer
370
-1
48
1
60
0
100
AcDbSpline
70
4
71
3
72
9
73
5
40
0
40
0
40
0
40
0
40
0.624999999998418
40
1
40
1
40
1
40
1
41
1
10
193.114481730895
20
24.5742542636879
30
0
41
1
10
193.135382001366
20
24.5749813365359
30
0
41
1
10
193.168822434121
20
24.5761446530926
30
0
41
1
10
193.202262866877
20
24.5773079696494
30
0
41
1
10
193.21480302916
20
24.5777442133582
30
0
0
SPLINE
5
1FF
100
AcDbEntity
8
1
62
256
6
ByLayer
370
-1
48
1
60
0
100
AcDbSpline
70
4
71
3
72
14
73
10
40
0
40
0
40
0
40
0
40
0.136649739226102
40
0.273299478452204
40
0.546598956904409
40
0.61492382651746
40
0.683248696130511
40
0.819898435356613
40
1
40
1
40
1
40
1
41
1
10
179.739311376021
20
23.0552792209183
30
0
41
1
10
179.739226045718
20
23.0577320950163
30
0
41
1
10
179.739175719471
20
23.0626420459828
30
0
41
1
10
179.739554909488
20
23.0724551306213
30
0
41
1
10
179.740514531952
20
23.0810016197378
30
0
41
1
10
179.741782713355
20
23.0882543358169
30
0
41
1
10
179.742746249882
20
23.0930671913959
30
0
41
1
10
179.744351827775
20
23.0997952987689
30
0
41
1
10
179.745983651878
20
23.1052466722767
30
0
41
1
10
179.74701034264
20
23.108312895578
30
0
0
SPLINE
5
200
100
AcDbEntity
8
1
62
256
6
ByLayer
370
-1
48
1
60
0
100
AcDbSpline
70
4
71
3
72
8
73
4
40
0
40
0
40
0
40
0
40
1
40
1
40
1
40
1
41
1
10
193.481038758428
20
10.3573854255216
30
0
41
1
10
193.576148949279
20
10.459774666083
30
0
41
1
10
193.643335693427
20
10.5866198528593
30
0
41
1
10
193.674712048602
20
10.7230232700632
30
0
0
SPLINE
5
201
100
AcDbEntity
8
1
62
256
6
ByLayer
370
-1
48
1
60
0
100
AcDbSpline
70
4
71
3
72
8
73
4
40
0
40
0
40
0
40
0
40
1
40
1
40
1
40
1
41
1
10
178.702994759821
20
25.0690235174059
30
0
41
1
10
178.686739483806
20
25.0683048172285
30
0
41
1
10
178.670487518614
20
25.067506158874
30
0
41
1
10
178.654239897961
20
25.0666278665903
30
0
0
SPLINE
5
202
100
AcDbEntity
8
1
62
256
6
ByLayer
370
-1
48
1
60
0
100
AcDbSpline
70
4
71
3
72
8
73
4
40
0
40
0
40
0
40
0
40
1
40
1
40
1
40
1
41
1
10
178.316409804955
20
10.2966788865606
30
0
41
1
10
178.319050008958
20
10.2587929959261
30
0
41
1
10
178.325902664753
20
10.2216907478108
30
0
41
1
10
178.336960966742
20
10.1853712718755
30
0
0
SPLINE
5
203
100
AcDbEntity
8
1
62
256
6
ByLayer
370
-1
48
1
60
0
100
AcDbSpline
70
4
71
3
72
15
73
11
40
0
40
0
40
0
40
0
40
0.250244249035885
40
0.500488498071771
40
0.750732747107656
40
0.875854871625599
40
0.938415933884571
40
0.969696465014056
40
0.985336730578799
40
1
40
1
40
1
40
1
41
1
10
193.095354592786
20
10.2526968795167
30
0
41
1
10
193.098340837399
20
10.2431338319571
30
0
41
1
10
193.104313326623
20
10.2240077368379
30
0
41
1
10
193.11327032721
20
10.195324144662
30
0
41
1
10
193.120742871744
20
10.1713943237509
30
0
41
1
10
193.125955800435
20
10.154700619294
30
0
41
1
10
193.128588263542
20
10.1462705095207
30
0
41
1
10
193.129865496953
20
10.1421803409514
30
0
41
1
10
193.130652224612
20
10.1396609512166
30
0
41
1
10
193.130839621795
20
10.1390608368922
30
0
41
1
10
193.131193212866
20
10.137928508944
30
0
0
SPLINE
5
204
100
AcDbEntity
8
1
62
256
6
ByLayer
370
-1
48
1
60
0
100
AcDbSpline
70
4
71
3
72
9
73
5
40
0
40
0
40
0
40
0
40
0.5
40
1
40
1
40
1
40
1
41
1
10
178.135607255293
20
24.7211864958233
30
0
41
1
10
178.171807436665
20
24.7651121481383
30
0
41
1
10
178.257725568336
20
24.8454892410188
30
0
41
1
10
178.363351364851
20
24.9010328892033
30
0
41
1
10
178.418278699441
20
24.9213548122369
30
0
0
SPLINE
5
205
100
AcDbEntity
8
1
62
256
6
ByLayer
370
-1
48
1
60
0
100
AcDbSpline
70
4
71
3
72
9
73
5
40
0
40
0
40
0
40
0
40
0.375000000000579
40
1
40
1
40
1
40
1
41
1
10
180.376312182174
20
9.66867706336757
30
0
41
1
10
180.375782284261
20
9.68116944870533
30
0
41
1
10
180.37436922316
20
9.71448247627268
30
0
41
1
10
180.372956162059
20
9.74779550384002
30
0
41
1
10
180.372072998871
20
9.76861614606958
30
0
0
SPLINE
5
206
100
AcDbEntity
8
1
62
256
6
ByLayer
370
-1
48
1
60
0
100
AcDbSpline
70
4
71
3
72
16
73
12
40
0
40
0
40
0
40
0
40
0.0068174563922598
40
0.0525902990102936
40
0.144135984246361
40
0.235681669482428
40
0.418773039954563
40
0.601864410426698
40
0.784955780898833
40
0.968047151370968
40
1
40
1
40
1
40
1
41
1
10
191.179914012127
20
24.6031312311815
30
0
41
1
10
191.179934086013
20
24.6023968793959
30
0
41
1
10
191.180088690616
20
24.5967322614129
30
0
41
1
10
191.180508098933
20
24.5812109056704
30
0
41
1
10
191.181177273197
20
24.5565628646312
30
0
41
1
10
191.182249260322
20
24.5171249175691
30
0
41
1
10
191.183587861675
20
24.4678286636644
30
0
41
1
10
191.185195561824
20
24.4086717440042
30
0
41
1
10
191.186801867423
20
24.3495162616099
30
0
41
1
10
191.18796295001
20
24.3066413556135
30
0
41
1
10
191.188596039089
20
24.28347727598
30
0
41
1
10
191.188688865519
20
24.2800366507365
30
0
0
SPLINE
5
207
100
AcDbEntity
8
1
62
256
6
ByLayer
370
-1
48
1
60
0
100
AcDbSpline
70
4
71
3
72
12
73
8
40
0
40
0
40
0
40
0
40
0.448044053330177
40
0.448044053330177
40
0.724021472165486
40
0.724021472165486
40
1
40
1
40
1
40
1
41
1
10
177.869483409632
20
22.9889701771836
30
0
41
1
10
177.864030315808
20
23.1457228443102
30
0
41
1
10
177.858752369557
20
23.3024791029512
30
0
41
1
10
177.850066860981
20
23.5557875581609
30
0
41
1
10
177.846680030053
20
23.6523404964302
30
0
41
1
10
177.839814148476
20
23.8454430618958
30
0
41
1
10
177.836329585953
20
23.9419932393575
30
0
41
1
10
177.83297085175
20
24.0385469893045
30
0
0
SPLINE
5
208
100
AcDbEntity
8
1
62
256
6
ByLayer
370
-1
48
1
60
0
100
AcDbSpline
70
4
71
3
72
17
73
13
40
0
40
0
40
0
40
0
40
0.0524083454183988
40
0.147434401200737
40
0.337486512765412
40
0.717590735894763
40
0.907642847459439
40
0.955155875350608
40
0.978912389296192
40
0.990790646268984
40
0.99672977475538
40
1
40
1
40
1
40
1
41
1
10
192.032452353882
20
12.128711151404
30
0
41
1
10
192.027717370587
20
12.1285547023673
30
0
41
1
10
192.014436233742
20
12.1281161615962
30
0
41
1
10
191.983977556266
20
12.127109999437
30
0
41
1
10
191.923989588882
20
12.1251287059105
30
0
41
1
10
191.855412868636
20
12.1228636041421
30
0
41
1
10
191.799702855901
20
12.1210235540224
30
0
41
1
10
191.776128317548
20
12.1202448732812
30
0
41
1
10
191.768632089491
20
12.1199973029383
30
0
41
1
10
191.764876358156
20
12.119873211065
30
0
41
1
10
191.762982328802
20
12.1198107105074
30
0
41
1
10
191.762151155072
20
12.1197832538848
30
0
41
1
10
191.761854897227
20
12.1197734594256
30
0
0
SPLINE
5
209
100
AcDbEntity
8
1
62
256
6
ByLayer
370
-1
48
1
60
0
100
AcDbSpline
70
4
71
3
72
25
73
21
40
0
40
0
40
0
40
0
40
0.125
40
0.1875
40
0.25
40
0.265625
40
0.2734375
40
0.28125
40
0.3125
40
0.375
40
0.5
40
0.625
40
0.65625
40
0.6875
40
0.75
40
0.765625
40
0.78125
40
0.8125
40
0.875
40
1
40
1
40
1
40
1
41
1
10
178.450397015765
20
10.2204558764422
30
0
41
1
10
178.445788980125
20
10.2327057937626
30
0
41
1
10
178.439800471325
20
10.2515603010072
30
0
41
1
10
178.433765723033
20
10.277355583691
30
0
41
1
10
178.431131365523
20
10.2919253765778
30
0
41
1
10
178.429792782245
20
10.3011846460148
30
0
41
1
10
178.429364972433
20
10.3041828432237
30
0
41
1
10
178.428601996053
20
10.3107575179207
30
0
41
1
10
178.426997235834
20
10.3243152363224
30
0
41
1
10
178.42356616498
20
10.3541118086453
30
0
41
1
10
178.418845490362
20
10.3963859021274
30
0
41
1
10
178.414779492592
20
10.4346704669848
30
0
41
1
10
178.412170294386
20
10.459976372457
30
0
41
1
10
178.410461510042
20
10.4768177329634
30
0
41
1
10
178.409011507578
20
10.4915505601644
30
0
41
1
10
178.407807861944
20
10.504229372607
30
0
41
1
10
178.407015126298
20
10.512693853113
30
0
41
1
10
178.405651333639
20
10.527532396962
30
0
41
1
10
178.403001592653
20
10.5572810646062
30
0
41
1
10
178.400809282049
20
10.5827795344898
30
0
41
1
10
178.399394210032
20
10.5997974280658
30
0
0
SPLINE
5
20A
100
AcDbEntity
8
1
62
256
6
ByLayer
370
-1
48
1
60
0
100
AcDbSpline
70
4
71
3
72
17
73
13
40
0
40
0
40
0
40
0
40
0.0144631560763516
40
0.0301057427839883
40
0.0613909161992616
40
0.123961263029808
40
0.249101956690902
40
0.499383344013089
40
0.749664731335275
40
0.999946118657462
40
0.999946118657462
40
1
40
1
40
1
40
1
41
1
10
192.184670835685
20
25.5420498397299
30
0
41
1
10
192.184708925311
20
25.5409549290836
30
0
41
1
10
192.184724081506
20
25.5405192545829
30
0
41
1
10
192.184800067387
20
25.5383349918738
30
0
41
1
10
192.184924034793
20
25.5347714695541
30
0
41
1
10
192.185179399377
20
25.5274308513934
30
0
41
1
10
192.185685175363
20
25.5128919974196
30
0
41
1
10
192.186410141903
20
25.4920523708771
30
0
41
1
10
192.187279144137
20
25.4670723462798
30
0
41
1
10
192.18785858903
20
25.4504158324962
30
0
41
1
10
192.188148231183
20
25.4420898836824
30
0
41
1
10
192.188148578886
20
25.4420798887285
30
0
41
1
10
192.188148926589
20
25.4420698937746
30
0
0
SPLINE
5
20B
100
AcDbEntity
8
1
62
256
6
ByLayer
370
-1
48
1
60
0
100
AcDbSpline
70
4
71
3
72
8
73
4
40
0
40
0
40
0
40
0
40
1
40
1
40
1
40
1
41
1
10
178.336960966742
20
10.1853712718754
30
0
41
1
10
178.377732476507
20
10.0514930291903
30
0
41
1
10
178.453567591562
20
9.9296570435543
30
0
41
1
10
178.555571028079
20
9.83418567385235
30
0
0
SPLINE
5
20C
100
AcDbEntity
8
1
62
256
6
ByLayer
370
-1
48
1
60
0
100
AcDbSpline
70
4
71
3
72
15
73
11
40
0
40
0
40
0
40
0
40
0.424997863749039
40
0.849995727498078
40
0.956245193435337
40
0.982807559919652
40
0.99608874316181
40
0.99774889106708
40
0.999409038972349
40
1
40
1
40
1
40
1
41
1
10
193.150994288775
20
23.5246774515669
30
0
41
1
10
193.145821698659
20
23.6733668603433
30
0
41
1
10
193.13547935487
20
23.9707426639244
30
0
41
1
10
193.123831097973
20
24.3053044282529
30
0
41
1
10
193.117053597819
20
24.500446994861
30
0
41
1
10
193.11526776313
20
24.5515672474857
30
0
41
1
10
193.114769691742
20
24.5660801644669
30
0
41
1
10
193.114562027492
20
24.5718943269982
30
0
41
1
10
193.114522112217
20
24.5732616226699
30
0
41
1
10
193.114483751213
20
24.5740473432674
30
0
41
1
10
193.114471642791
20
24.5742536716684
30
0
0
SPLINE
5
20D
100
AcDbEntity
8
1
62
256
6
ByLayer
370
-1
48
1
60
0
100
AcDbSpline
70
4
71
3
72
91
73
87
40
0
40
0
40
0
40
0
40
0.0276322771566405
40
0.0681475989417805
40
0.0782764293880655
40
0.083340844611208
40
0.0839738965141008
40
0.0846069484169936
40
0.08492347436844
40
0.0852400003198864
40
0.0858730522227792
40
0.0884052598343504
40
0.0985340902806355
40
0.108662920726921
40
0.118791751173205
40
0.12892058161949
40
0.14917824251206
40
0.16943590340463
40
0.179564733850915
40
0.184629149074058
40
0.1896935642972
40
0.190326616200093
40
0.190959668102986
40
0.192225771908772
40
0.192858823811664
40
0.193491875714557
40
0.194757979520343
40
0.197290187131914
40
0.199822394743485
40
0.204886809966628
40
0.20995122518977
40
0.220080055636055
40
0.222612263247627
40
0.223878367053412
40
0.225144470859198
40
0.23020888608234
40
0.27072420786748
40
0.29098186876005
40
0.31123952965262
40
0.33149719054519
40
0.341626020991475
40
0.346690436214618
40
0.349222643826189
40
0.350488747631975
40
0.351121799534868
40
0.35175485143776
40
0.352387903340653
40
0.353020955243546
40
0.354287059049332
40
0.356819266660903
40
0.361883681884045
40
0.37201251233033
40
0.3922701732229
40
0.41252783411547
40
0.43278549500804
40
0.47330081679318
40
0.475833024404752
40
0.478365232016323
40
0.479631335822108
40
0.480897439627894
40
0.483429647239465
40
0.49355847768575
40
0.503687308132035
40
0.508751723355178
40
0.511283930966749
40
0.512550034772535
40
0.51381613857832
40
0.514449190481213
40
0.523944969024605
40
0.53407379947089
40
0.55433146036346
40
0.564460290809745
40
0.57458912125603
40
0.5948467821486
40
0.61510444304117
40
0.617636650652741
40
0.618269702555634
40
0.618586228507081
40
0.618902754458527
40
0.61953580636142
40
0.620168858264313
40
0.625233273487455
40
0.63536210393374
40
0.67587742571888
40
0.83793871285944
40
1
40
1
40
1
40
1
41
1
10
191.724812754803
20
12.0657387961757
30
0
41
1
10
191.724281468818
20
12.0641521047135
30
0
41
1
10
191.72290591183
20
12.0602609950467
30
0
41
1
10
191.721142650951
20
12.0558603242358
30
0
41
1
10
191.719793066739
20
12.0527693562952
30
0
41
1
10
191.719401639656
20
12.0518948275247
30
0
41
1
10
191.719243869021
20
12.051545561388
30
0
41
1
10
191.719204359731
20
12.051458275203
30
0
41
1
10
191.719172712335
20
12.0513884644949
30
0
41
1
10
191.719141038302
20
12.0513186659569
30
0
41
1
10
191.719053824852
20
12.0511267702208
30
0
41
1
10
191.718719430355
20
12.0503947179372
30
0
41
1
10
191.718136612776
20
12.0491441925641
30
0
41
1
10
191.717339228767
20
12.047486507003
30
0
41
1
10
191.716521672674
20
12.0458387523304
30
0
41
1
10
191.715404864196
20
12.0436553196659
30
0
41
1
10
191.71395903248
20
12.0409521024848
30
0
41
1
10
191.712447584733
20
12.0382853120743
30
0
41
1
10
191.711355549259
20
12.0364385553412
30
0
41
1
10
191.710721869311
20
12.0353891037234
30
0
41
1
10
191.710381816489
20
12.0348336722289
30
0
41
1
10
191.710180660562
20
12.0345076465609
30
0
41
1
10
191.710100098259
20
12.0343772984759
30
0
41
1
10
191.710019386139
20
12.0342470437717
30
0
41
1
10
191.709938524366
20
12.034116882664
30
0
41
1
10
191.709857562879
20
12.0339867840257
30
0
41
1
10
191.709715618671
20
12.0337592755795
30
0
41
1
10
191.709512094607
20
12.0334347336505
30
0
41
1
10
191.709184866804
20
12.0329164741203
30
0
41
1
10
191.708772858667
20
12.0322705474951
30
0
41
1
10
191.708107330415
20
12.0312411502862
30
0
41
1
10
191.707516741177
20
12.0303458380754
30
0
41
1
10
191.707047351763
20
12.0296459841823
30
0
41
1
10
191.706876081832
20
12.0293918869306
30
0
41
1
10
191.706618594719
20
12.0290111369883
30
0
41
1
10
191.705021791806
20
12.0266692962998
30
0
41
1
10
191.702687322237
20
12.0234404989641
30
0
41
1
10
191.699671293609
20
12.019576118623
30
0
41
1
10
191.697339197603
20
12.0167343607384
30
0
41
1
10
191.695338508086
20
12.0144148064234
30
0
41
1
10
191.693908543046
20
12.0128173937963
30
0
41
1
10
191.693186263383
20
12.0120253528728
30
0
41
1
10
191.692823308447
20
12.0116310108263
30
0
41
1
10
191.692641378351
20
12.0114342609153
30
0
41
1
10
191.692537289138
20
12.0113219529281
30
0
41
1
10
191.69245915769
20
12.0112377822581
30
0
41
1
10
191.692380961744
20
12.0111536719626
30
0
41
1
10
191.692276614555
20
12.0110416054608
30
0
41
1
10
191.692093781588
20
12.0108457007066
30
0
41
1
10
191.69172721553
20
12.0104547389488
30
0
41
1
10
191.690990494274
20
12.009676216471
30
0
41
1
10
191.689502786013
20
12.0081328559535
30
0
41
1
10
191.687337248165
20
12.005967612394
30
0
41
1
10
191.68467587886
20
12.0034340797206
30
0
41
1
10
191.681045968791
20
12.0001443397672
30
0
41
1
10
191.678117284982
20
11.9976800051453
30
0
41
1
10
191.675963942838
20
11.9959619691241
30
0
41
1
10
191.675664140017
20
11.9957242750876
30
0
41
1
10
191.675423862869
20
11.9955346745386
30
0
41
1
10
191.675183296334
20
11.9953454442542
30
0
41
1
10
191.674520546868
20
11.9948265902856
30
0
41
1
10
191.673429573016
20
11.9939859197331
30
0
41
1
10
191.672206042207
20
11.9930668622059
30
0
41
1
10
191.671343709195
20
11.9924314881781
30
0
41
1
10
191.670911088679
20
11.9921158027604
30
0
41
1
10
191.670663463147
20
11.9919359844114
30
0
41
1
10
191.670508525106
20
11.9918238371247
30
0
41
1
10
191.669950284449
20
11.9914207534884
30
0
41
1
10
191.668953464928
20
11.9907102939493
30
0
41
1
10
191.66697450979
20
11.9893351391687
30
0
41
1
10
191.664938719586
20
11.9879754981665
30
0
41
1
10
191.662878463241
20
11.9866537562981
30
0
41
1
10
191.660802215113
20
11.985357466353
30
0
41
1
10
191.658177518449
20
11.9837851747162
30
0
41
1
10
191.655914577241
20
11.9825039968533
30
0
41
1
10
191.654673907396
20
11.9818240433846
30
0
41
1
10
191.654489291253
20
11.9817233240825
30
0
41
1
10
191.654422137167
20
11.981686737611
30
0
41
1
10
191.654354969129
20
11.9816501769646
30
0
41
1
10
191.654270982939
20
11.9816045245895
30
0
41
1
10
191.653934898945
20
11.9814221735109
30
0
41
1
10
191.653093124795
20
11.9809692043358
30
0
41
1
10
191.650115561946
20
11.9794021499832
30
0
41
1
10
191.638566099698
20
11.9737699815325
30
0
41
1
10
191.61764355067
20
11.9665894843206
30
0
41
1
10
191.598162709666
20
11.963971547281
30
0
41
1
10
191.58838854898
20
11.9636289222771
30
0
0
SPLINE
5
20E
100
AcDbEntity
8
1
62
256
6
ByLayer
370
-1
48
1
60
0
100
AcDbSpline
70
4
71
3
72
8
73
4
40
0
40
0
40
0
40
0
40
1
40
1
40
1
40
1
41
1
10
178.034362210389
20
24.8166662662321
30
0
41
1
10
177.939257900369
20
24.7142770256707
30
0
41
1
10
177.872073053036
20
24.5874318388944
30
0
41
1
10
177.840688920218
20
24.4510284216905
30
0
0
SPLINE
5
20F
100
AcDbEntity
8
1
62
256
6
ByLayer
370
-1
48
1
60
0
100
AcDbSpline
70
4
71
3
72
8
73
4
40
0
40
0
40
0
40
0
40
1
40
1
40
1
40
1
41
1
10
192.861161138694
20
10.1074238251633
30
0
41
1
10
192.914233666241
20
10.110292770035
30
0
41
1
10
192.967284935274
20
10.113587945428
30
0
41
1
10
193.020305467347
20
10.1173106501191
30
0
0
SPLINE
5
210
100
AcDbEntity
8
1
62
256
6
ByLayer
370
-1
48
1
60
0
100
AcDbSpline
70
4
71
3
72
12
73
8
40
0
40
0
40
0
40
0
40
0.518100853439288
40
0.777151280158932
40
0.906676493518754
40
0.971439100198665
40
1
40
1
40
1
40
1
41
1
10
191.141802942056
20
25.4054355456841
30
0
41
1
10
191.145932697029
20
25.3279901071756
30
0
41
1
10
191.152127446917
20
25.2118222095333
30
0
41
1
10
191.159354222631
20
25.0762920777933
30
0
41
1
10
191.162968201606
20
25.0085282379785
30
0
41
1
10
191.164743830766
20
24.9752155050152
30
0
41
1
10
191.165488307371
20
24.9612666853801
30
0
41
1
10
191.165715291551
20
24.9569955962646
30
0
0
SPLINE
5
211
100
AcDbEntity
8
1
62
256
6
ByLayer
370
-1
48
1
60
0
100
AcDbSpline
70
4
71
3
72
9
73
5
40
0
40
0
40
0
40
0
40
0.375000000003611
40
1
40
1
40
1
40
1
41
1
10
177.869483409631
20
22.9889701771836
30
0
41
1
10
177.881832943428
20
22.9894064208924
30
0
41
1
10
177.914765033553
20
22.9905697374491
30
0
41
1
10
177.947697123678
20
22.9917330540059
30
0
41
1
10
177.968279680006
20
22.9924601268538
30
0
0
SPLINE
5
212
100
AcDbEntity
8
1
62
256
6
ByLayer
370
-1
48
1
60
0
100
AcDbSpline
70
4
71
3
72
15
73
11
40
0
40
0
40
0
40
0
40
0.250139710793396
40
0.500351579587134
40
0.750563448380871
40
0.875669382777739
40
0.938222349976174
40
0.969498833575391
40
0.985137075375
40
1
40
1
40
1
40
1
41
1
10
178.135599955839
20
24.7211933796188
30
0
41
1
10
178.127165301915
20
24.7291477325543
30
0
41
1
10
178.110293561392
20
24.7450587325743
30
0
41
1
10
178.084989693313
20
24.7689217030241
30
0
41
1
10
178.063877133738
20
24.7888320338736
30
0
41
1
10
178.049149434893
20
24.8027210820314
30
0
41
1
10
178.041711178397
20
24.8097357761638
30
0
41
1
10
178.038103660759
20
24.8131378681498
30
0
41
1
10
178.035871725729
20
24.8152427083855
30
0
41
1
10
178.035277766403
20
24.8158028454284
30
0
41
1
10
178.034357675651
20
24.8166705427448
30
0
0
SPLINE
5
213
100
AcDbEntity
8
1
62
256
6
ByLayer
370
-1
48
1
60
0
100
AcDbSpline
70
4
71
3
72
15
73
11
40
0
40
0
40
0
40
0
40
0.0355064919379351
40
0.118947470229781
40
0.285829426813473
40
0.619593339980858
40
0.78647529656455
40
0.869916274856396
40
0.953357253148242
40
1
40
1
40
1
40
1
41
1
10
179.172332972203
20
11.6773913141124
30
0
41
1
10
179.168184189166
20
11.6772447839281
30
0
41
1
10
179.154279908023
20
11.6767538077713
30
0
41
1
10
179.120761662087
20
11.6755722262569
30
0
41
1
10
179.051916929203
20
11.6731531388352
30
0
41
1
10
178.972708223244
20
11.6703879722665
30
0
41
1
10
178.903447771844
20
11.6679857389664
30
0
41
1
10
178.863955325567
20
11.6666204259473
30
0
41
1
10
178.838743571499
20
11.6657507581117
30
0
41
1
10
178.823419744411
20
11.6652231609379
30
0
41
1
10
178.817927214518
20
11.6650341077242
30
0
0
SPLINE
5
214
100
AcDbEntity
8
1
62
256
6
ByLayer
370
-1
48
1
60
0
100
AcDbSpline
70
4
71
3
72
12
73
8
40
0
40
0
40
0
40
0
40
0.448044053330179
40
0.448044053330179
40
0.724021472165492
40
0.724021472165492
40
1
40
1
40
1
40
1
41
1
10
191.139088786643
20
25.5053746283861
30
0
41
1
10
191.295244962546
20
25.5108485521421
30
0
41
1
10
191.451459095872
20
25.5162012465861
30
0
41
1
10
191.703842901147
20
25.5249593475939
30
0
41
1
10
191.800019752046
20
25.5283504082419
30
0
41
1
10
191.992341507795
20
25.5351963445167
30
0
41
1
10
192.088485256655
20
25.538655042403
30
0
41
1
10
192.184671642118
20
25.5420266583072
30
0
0
SPLINE
5
215
100
AcDbEntity
8
1
62
256
6
ByLayer
370
-1
48
1
60
0
100
AcDbSpline
70
4
71
3
72
25
73
21
40
0
40
0
40
0
40
0
40
0.125
40
0.1875
40
0.25
40
0.265625
40
0.2734375
40
0.28125
40
0.3125
40
0.375
40
0.5
40
0.625
40
0.65625
40
0.6875
40
0.75
40
0.765625
40
0.78125
40
0.8125
40
0.875
40
1
40
1
40
1
40
1
41
1
10
193.095354592786
20
10.2526968795167
30
0
41
1
10
193.083149334497
20
10.2480732050015
30
0
41
1
10
193.064366222331
20
10.2420621744293
30
0
41
1
10
193.038673612145
20
10.2359998434794
30
0
41
1
10
193.024163603339
20
10.233351064946
30
0
41
1
10
193.014942985386
20
10.2320039382767
30
0
41
1
10
193.011957418622
20
10.2315732682357
30
0
41
1
10
193.005410187797
20
10.230804942896
30
0
41
1
10
192.991909111368
20
10.2291889826988
30
0
41
1
10
192.962236983338
20
10.2257337041277
30
0
41
1
10
192.920139481481
20
10.2209792112926
30
0
41
1
10
192.88201481717
20
10.2168834115496
30
0
41
1
10
192.856814664444
20
10.2142547543734
30
0
41
1
10
192.840043692937
20
10.2125331161386
30
0
41
1
10
192.82537244632
20
10.2110720360959
30
0
41
1
10
192.812746619821
20
10.2098590353925
30
0
41
1
10
192.804317511009
20
10.2090600977572
30
0
41
1
10
192.789540970593
20
10.207685536183
30
0
41
1
10
192.759916596686
20
10.2050145401749
30
0
41
1
10
192.734524665414
20
10.2028043097417
30
0
41
1
10
192.717577874643
20
10.2013774635629
30
0
0
SPLINE
5
216
100
AcDbEntity
8
1
62
256
6
ByLayer
370
-1
48
1
60
0
100
AcDbSpline
70
4
71
3
72
8
73
4
40
0
40
0
40
0
40
0
40
1
40
1
40
1
40
1
41
1
10
193.131189528135
20
10.1379403088011
30
0
41
1
10
193.264557293691
20
10.1788685930422
30
0
41
1
10
193.385927747111
20
10.2549953027171
30
0
41
1
10
193.48103875894
20
10.3573854250498
30
0
0
SPLINE
5
217
100
AcDbEntity
8
1
62
256
6
ByLayer
370
-1
48
1
60
0
100
AcDbSpline
70
4
71
3
72
17
73
13
40
0
40
0
40
0
40
0
40
0.052408345418354
40
0.14743440120069
40
0.33748651276536
40
0.717590735894702
40
0.907642847459373
40
0.955155875350541
40
0.978912389296125
40
0.990790646268917
40
0.996729774755313
40
1
40
1
40
1
40
1
41
1
10
180.314784461908
20
11.2829130606415
30
0
41
1
10
180.314356690966
20
11.2873931748823
30
0
41
1
10
180.313149059119
20
11.2999513394796
30
0
41
1
10
180.310391121592
20
11.3287640539144
30
0
41
1
10
180.304950322612
20
11.385500877166
30
0
41
1
10
180.298734320736
20
11.4503649051176
30
0
41
1
10
180.293682891604
20
11.5030570464004
30
0
41
1
10
180.291546282035
20
11.5253555453302
30
0
41
1
10
180.290865935121
20
11.5324450323749
30
0
41
1
10
180.290526588195
20
11.5359985586907
30
0
41
1
10
180.290353267254
20
11.5377883404882
30
0
41
1
10
180.290278004244
20
11.5385745952859
30
0
41
1
10
180.290251398527
20
11.5388550719017
30
0
0
SPLINE
5
218
100
AcDbEntity
8
1
62
256
6
ByLayer
370
-1
48
1
60
0
100
AcDbSpline
70
4
71
3
72
9
73
5
40
0
40
0
40
0
40
0
40
0.5
40
1
40
1
40
1
40
1
41
1
10
193.378284012936
20
10.4528651959304
30
0
41
1
10
193.341989671211
20
10.4089395436154
30
0
41
1
10
193.255931953643
20
10.3285624507349
30
0
41
1
10
193.150273964523
20
10.2730188025504
30
0
41
1
10
193.095354592786
20
10.2526968795167
30
0
0
SPLINE
5
219
100
AcDbEntity
8
1
62
256
6
ByLayer
370
-1
48
1
60
0
100
AcDbSpline
70
4
71
3
72
8
73
4
40
0
40
0
40
0
40
0
40
1
40
1
40
1
40
1
41
1
10
191.18335656876
20
23.6065320570499
30
0
41
1
10
191.183002606018
20
23.6167069423099
30
0
41
1
10
191.182928589705
20
23.6268586304429
30
0
41
1
10
191.183147597845
20
23.6351934085041
30
0
0
SPLINE
5
21A
100
AcDbEntity
8
1
62
256
6
ByLayer
370
-1
48
1
60
0
100
AcDbSpline
70
4
71
3
72
15
73
11
40
0
40
0
40
0
40
0
40
0.0466427416044887
40
0.130083711367052
40
0.213524681129615
40
0.380406620654741
40
0.714170499704993
40
0.881052439230119
40
0.964493408992682
40
1
40
1
40
1
40
1
41
1
10
193.107174832812
20
12.1659316967953
30
0
41
1
10
193.101881090256
20
12.165742645525
30
0
41
1
10
193.087103323836
20
12.16521505429
30
0
41
1
10
193.062696268472
20
12.1643453792028
30
0
41
1
10
193.024291367646
20
12.1629800660609
30
0
41
1
10
192.956493439545
20
12.160577832839
30
0
41
1
10
192.877936741202
20
12.157812670322
30
0
41
1
10
192.808761541989
20
12.1553935727459
30
0
41
1
10
192.774865070627
20
12.1542120064806
30
0
41
1
10
192.760756993181
20
12.153721013083
30
0
41
1
10
192.756545556062
20
12.1535744808709
30
0
0
SPLINE
5
21B
100
AcDbEntity
8
1
62
256
6
ByLayer
370
-1
48
1
60
0
100
AcDbSpline
70
4
71
3
72
14
73
10
40
0
40
0
40
0
40
0
40
0.0318086637759376
40
0.315507725074485
40
0.599206786373032
40
0.88290584767158
40
0.953830612996217
40
0.989292995658535
40
1
40
1
40
1
40
1
41
1
10
191.637850381753
20
23.4717970380717
30
0
41
1
10
191.641700802385
20
23.4719242601887
30
0
41
1
10
191.679984344493
20
23.4731898491377
30
0
41
1
10
191.75613553142
20
23.4757320542206
30
0
41
1
10
191.870445291324
20
23.4796069209089
30
0
41
1
10
191.958945178537
20
23.4826488686083
30
0
41
1
10
192.013338442013
20
23.4845339985787
30
0
41
1
10
192.029676994446
20
23.4851016444052
30
0
41
1
10
192.036119482589
20
23.4853256901383
30
0
41
1
10
192.037613552041
20
23.4853776561692
30
0
0
SPLINE
5
21C
100
AcDbEntity
8
1
62
256
6
ByLayer
370
-1
48
1
60
0
100
AcDbSpline
70
4
71
3
72
16
73
12
40
0
40
0
40
0
40
0
40
0.0068174563922344
40
0.0525902990102718
40
0.144135984246347
40
0.235681669482421
40
0.418773039954571
40
0.60186441042672
40
0.78495578089887
40
0.96804715137102
40
1
40
1
40
1
40
1
41
1
10
178.777731583875
20
23.0204772108828
30
0
41
1
10
178.778457668571
20
23.0205028550122
30
0
41
1
10
178.784058275494
20
23.0207006678311
30
0
41
1
10
178.799400020963
20
23.0212426855172
30
0
41
1
10
178.823765989801
20
23.0221034140767
30
0
41
1
10
178.86275388791
20
23.0234806175353
30
0
41
1
10
178.911486243606
20
23.0252020806547
30
0
41
1
10
178.969967809333
20
23.02726788581
30
0
41
1
10
179.028446598712
20
23.0293336407749
30
0
41
1
10
179.070827908017
20
23.0308308654841
30
0
41
1
10
179.093731101065
20
23.0316397729695
30
0
41
1
10
179.097131768044
20
23.0317599222506
30
0
0
SPLINE
5
21D
100
AcDbEntity
8
1
62
256
6
ByLayer
370
-1
48
1
60
0
100
AcDbSpline
70
4
71
3
72
8
73
4
40
0
40
0
40
0
40
0
40
1
40
1
40
1
40
1
41
1
10
177.827923814918
20
24.3385528944827
30
0
41
1
10
177.82791346781
20
24.3765321876951
30
0
41
1
10
177.832179569894
20
24.4140231586427
30
0
41
1
10
177.840688920332
20
24.4510284216638
30
0
0
SPLINE
5
21E
100
AcDbEntity
8
1
62
256
6
ByLayer
370
-1
48
1
60
0
100
AcDbSpline
70
4
71
3
72
17
73
13
40
0
40
0
40
0
40
0
40
0.0032703186402814
40
0.0092094466333557
40
0.0210877026195044
40
0.0448442145918018
40
0.0923572385363966
40
0.282409334314776
40
0.662513525871534
40
0.852565621649913
40
0.947591669539103
40
1
40
1
40
1
40
1
41
1
10
191.36725228039
20
23.462859320176
30
0
41
1
10
191.367548386192
20
23.4628691083998
30
0
41
1
10
191.368379289863
20
23.4628965539897
30
0
41
1
10
191.370275225995
20
23.4629591318191
30
0
41
1
10
191.374029601702
20
23.4630831686706
30
0
41
1
10
191.381526688793
20
23.4633307738924
30
0
41
1
10
191.40510042602
20
23.464109422101
30
0
41
1
10
191.460811262426
20
23.4659495056715
30
0
41
1
10
191.529387556724
20
23.4682145901328
30
0
41
1
10
191.589375580018
20
23.4701958859685
30
0
41
1
10
191.619834264879
20
23.4712020483716
30
0
41
1
10
191.63311539994
20
23.471640589084
30
0
41
1
10
191.637850381753
20
23.4717970380717
30
0
0
SPLINE
5
21F
100
AcDbEntity
8
1
62
256
6
ByLayer
370
-1
48
1
60
0
100
AcDbSpline
70
4
71
3
72
8
73
4
40
0
40
0
40
0
40
0
40
1
40
1
40
1
40
1
41
1
10
177.830217895591
20
24.1295110134709
30
0
41
1
10
177.829799437554
20
24.1458388553829
30
0
41
1
10
177.829461362477
20
24.1621689584136
30
0
41
1
10
177.829200743811
20
24.1785001202199
30
0
0
SPLINE
5
220
100
AcDbEntity
8
1
62
256
6
ByLayer
370
-1
48
1
60
0
100
AcDbSpline
70
4
71
3
72
17
73
13
40
0
40
0
40
0
40
0
40
0.0524083454183352
40
0.147434401200673
40
0.337486512765348
40
0.717590735894697
40
0.907642847459372
40
0.955155875350541
40
0.978912389296125
40
0.990790646268917
40
0.996729774755314
40
1
40
1
40
1
40
1
41
1
10
191.189872780208
20
23.8911386311121
30
0
41
1
10
191.189756716668
20
23.8866585168714
30
0
41
1
10
191.189422828803
20
23.874100352274
30
0
41
1
10
191.188669558093
20
23.8452876378393
30
0
41
1
10
191.187176267326
20
23.7885508145877
30
0
41
1
10
191.185473230194
20
23.7236867866361
30
0
41
1
10
191.184087897409
20
23.6709946453533
30
0
41
1
10
191.183502723092
20
23.6486961464235
30
0
41
1
10
191.183315632704
20
23.6416066593788
30
0
41
1
10
191.183223525111
20
23.638053133063
30
0
41
1
10
191.183174729618
20
23.6362633512655
30
0
41
1
10
191.183154170891
20
23.6354770964678
30
0
41
1
10
191.183147079552
20
23.635196619852
30
0
0
SPLINE
5
221
100
AcDbEntity
8
1
62
256
6
ByLayer
370
-1
48
1
60
0
100
AcDbSpline
70
4
71
3
72
8
73
4
40
0
40
0
40
0
40
0
40
1
40
1
40
1
40
1
41
1
10
178.555571028541
20
9.83418567435831
30
0
41
1
10
178.657573587545
20
9.73871512967654
30
0
41
1
10
178.783937038498
20
9.67127269511136
30
0
41
1
10
178.919817510696
20
9.63977258368087
30
0
0
SPLINE
5
222
100
AcDbEntity
8
1
62
256
6
ByLayer
370
-1
48
1
60
0
100
AcDbSpline
70
4
71
3
72
15
73
11
40
0
40
0
40
0
40
0
40
0.424997863749033
40
0.849995727498066
40
0.956245193435324
40
0.982807559919639
40
0.996088743161796
40
0.997748891067066
40
0.999409038972335
40
1
40
1
40
1
40
1
41
1
10
191.671995019168
20
10.1647254336429
30
0
41
1
10
191.820118619853
20
10.1699177822127
30
0
41
1
10
192.116362839452
20
10.1802996528849
30
0
41
1
10
192.449651422704
20
10.1919923313975
30
0
41
1
10
192.644051497148
20
10.1987958050396
30
0
41
1
10
192.694977165093
20
10.2005884044259
30
0
41
1
10
192.709434907667
20
10.2010884301861
30
0
41
1
10
192.71522690456
20
10.2012968465287
30
0
41
1
10
192.716589055327
20
10.2013369725629
30
0
41
1
10
192.717371702311
20
10.2013753960702
30
0
41
1
10
192.717577208163
20
10.2013875131958
30
0
0
SPLINE
5
223
100
AcDbEntity
8
1
62
256
6
ByLayer
370
-1
48
1
60
0
100
AcDbSpline
70
4
71
3
72
8
73
4
40
0
40
0
40
0
40
0
40
1
40
1
40
1
40
1
41
1
10
179.330729326699
20
9.63202503344732
30
0
41
1
10
179.300527859453
20
9.63096638200366
30
0
41
1
10
179.270320122127
20
9.63004292572941
30
0
41
1
10
179.240111047819
20
9.62926196325051
30
0
0
SPLINE
5
224
100
AcDbEntity
8
1
62
256
6
ByLayer
370
-1
48
1
60
0
100
AcDbSpline
70
4
71
3
72
14
73
10
40
0
40
0
40
0
40
0
40
0.0107070020616643
40
0.0461693850894149
40
0.117094151144916
40
0.400793215366922
40
0.684492279588927
40
0.968191343810933
40
1
40
1
40
1
40
1
41
1
10
192.432215524188
20
12.1422917695031
30
0
41
1
10
192.430721455102
20
12.1422398034841
30
0
41
1
10
192.424278967304
20
12.1420157577629
30
0
41
1
10
192.407940413035
20
12.1414481118727
30
0
41
1
10
192.353547150951
20
12.1395629819506
30
0
41
1
10
192.26504726184
20
12.1365210341858
30
0
41
1
10
192.150737510731
20
12.132646167796
30
0
41
1
10
192.074586320826
20
12.130103962609
30
0
41
1
10
192.036302773983
20
12.1288383735035
30
0
41
1
10
192.032452353882
20
12.128711151404
30
0
0
SPLINE
5
225
100
AcDbEntity
8
1
62
256
6
ByLayer
370
-1
48
1
60
0
100
AcDbSpline
70
4
71
3
72
14
73
10
40
0
40
0
40
0
40
0
40
0.0318086637759114
40
0.315507725074471
40
0.59920678637303
40
0.882905847671589
40
0.953830612996229
40
0.989292995658549
40
1
40
1
40
1
40
1
41
1
10
191.614706482204
20
11.6790223481964
30
0
41
1
10
191.61505433941
20
11.6753791834304
30
0
41
1
10
191.618494839531
20
11.6391374577345
30
0
41
1
10
191.624656352077
20
11.5663382290841
30
0
41
1
10
191.632286812338
20
11.4553765651601
30
0
41
1
10
191.637038566721
20
11.3682665803681
30
0
41
1
10
191.639532149213
20
11.3142835210635
30
0
41
1
10
191.64024279388
20
11.2980282714016
30
0
41
1
10
191.640517059004
20
11.2916124410404
30
0
41
1
10
191.640580447035
20
11.2901243286185
30
0
0
SPLINE
5
226
100
AcDbEntity
8
1
62
256
6
ByLayer
370
-1
48
1
60
0
100
AcDbSpline
70
4
71
3
72
8
73
4
40
0
40
0
40
0
40
0
40
1
40
1
40
1
40
1
41
1
10
193.685182272648
20
11.0445406782829
30
0
41
1
10
193.685601591722
20
11.0282128363708
30
0
41
1
10
193.685940952778
20
11.0118827333401
30
0
41
1
10
193.686201450314
20
10.9955515715338
30
0
0
SPLINE
5
227
100
AcDbEntity
8
1
62
256
6
ByLayer
370
-1
48
1
60
0
100
AcDbSpline
70
4
71
3
72
91
73
87
40
0
40
0
40
0
40
0
40
0.0276322771566356
40
0.0681475989417758
40
0.0782764293880608
40
0.0833408446112033
40
0.0839738965140961
40
0.084606948416989
40
0.0849234743684354
40
0.0852400003198818
40
0.0858730522227746
40
0.0884052598343459
40
0.0985340902806309
40
0.108662920726916
40
0.118791751173201
40
0.128920581619486
40
0.149178242512056
40
0.169435903404626
40
0.179564733850911
40
0.184629149074054
40
0.189693564297196
40
0.190326616200089
40
0.190959668102982
40
0.192225771908768
40
0.19285882381166
40
0.193491875714553
40
0.194757979520339
40
0.19729018713191
40
0.199822394743481
40
0.204886809966624
40
0.209951225189766
40
0.220080055636052
40
0.222612263247623
40
0.223878367053408
40
0.225144470859194
40
0.230208886082337
40
0.270724207867477
40
0.290981868760047
40
0.311239529652617
40
0.331497190545187
40
0.341626020991472
40
0.346690436214614
40
0.349222643826186
40
0.350488747631971
40
0.351121799534864
40
0.351754851437757
40
0.35238790334065
40
0.353020955243543
40
0.354287059049328
40
0.3568192666609
40
0.361883681884042
40
0.372012512330327
40
0.392270173222897
40
0.412527834115467
40
0.432785495008037
40
0.473300816793178
40
0.475833024404749
40
0.47836523201632
40
0.479631335822106
40
0.480897439627891
40
0.483429647239463
40
0.493558477685748
40
0.503687308132033
40
0.508751723355175
40
0.511283930966747
40
0.512550034772532
40
0.513816138578318
40
0.514449190481211
40
0.523944969024603
40
0.534073799470888
40
0.554331460363458
40
0.564460290809743
40
0.574589121256028
40
0.594846782148598
40
0.615104443041168
40
0.617636650652739
40
0.618269702555632
40
0.618586228507079
40
0.618902754458525
40
0.619535806361418
40
0.620168858264311
40
0.625233273487453
40
0.635362103933738
40
0.675877425718879
40
0.837938712859439
40
1
40
1
40
1
40
1
41
1
10
191.236188434277
20
23.5988036816285
30
0
41
1
10
191.237769087899
20
23.5982703662173
30
0
41
1
10
191.241645390719
20
23.5968895548254
30
0
41
1
10
191.246029315648
20
23.5951195585764
30
0
41
1
10
191.249108521523
20
23.5937648191716
30
0
41
1
10
191.249979722447
20
23.5933718969011
30
0
41
1
10
191.250327659521
20
23.5932135236073
30
0
41
1
10
191.250414613556
20
23.5931738633984
30
0
41
1
10
191.250484158613
20
23.5931420951149
30
0
41
1
10
191.250553691546
20
23.5931103000922
30
0
41
1
10
191.250744857061
20
23.5930227535009
30
0
41
1
10
191.251474123665
20
23.592687081671
30
0
41
1
10
191.252719890411
20
23.5921020378234
30
0
41
1
10
191.254371267979
20
23.5913016079373
30
0
41
1
10
191.256012752447
20
23.5904809289127
30
0
41
1
10
191.258187876491
20
23.5893598544073
30
0
41
1
10
191.260880807115
20
23.5879084998496
30
0
41
1
10
191.263537449582
20
23.5863912786176
30
0
41
1
10
191.265377178849
20
23.5852950717452
30
0
41
1
10
191.266422636986
20
23.5846589712431
30
0
41
1
10
191.266975954896
20
23.5843176194749
30
0
41
1
10
191.267300739938
20
23.5841156951649
30
0
41
1
10
191.267430592009
20
23.5840348251266
30
0
41
1
10
191.267560351055
20
23.5839538046993
30
0
41
1
10
191.26769001686
20
23.5838726340474
30
0
41
1
10
191.267819620434
20
23.5837913633009
30
0
41
1
10
191.268046263142
20
23.5836488768895
30
0
41
1
10
191.268369570091
20
23.5834445753967
30
0
41
1
10
191.268885857487
20
23.5831160976359
30
0
41
1
10
191.269529326166
20
23.5827025156952
30
0
41
1
10
191.270554806208
20
23.5820344452336
30
0
41
1
10
191.271446711486
20
23.5814416000408
30
0
41
1
10
191.272143902224
20
23.580970417635
30
0
41
1
10
191.272397032559
20
23.5807984934803
30
0
41
1
10
191.272776333632
20
23.5805400228084
30
0
41
1
10
191.27510926291
20
23.5789371203681
30
0
41
1
10
191.278325773697
20
23.5765937335041
30
0
41
1
10
191.282175448904
20
23.5735661841369
30
0
41
1
10
191.285006393042
20
23.5712251799032
30
0
41
1
10
191.287317120753
20
23.5692168480775
30
0
41
1
10
191.288908454743
20
23.5677814208032
30
0
41
1
10
191.289697481711
20
23.5670563821494
30
0
41
1
10
191.290090323167
20
23.5666920407849
30
0
41
1
10
191.290286324385
20
23.5665094157454
30
0
41
1
10
191.290398205007
20
23.5664049289281
30
0
41
1
10
191.290482055382
20
23.5663264990304
30
0
41
1
10
191.290565845612
20
23.5662480043891
30
0
41
1
10
191.290677485667
20
23.5661432586104
30
0
41
1
10
191.290872644945
20
23.5659597272511
30
0
41
1
10
191.291262118975
20
23.5655917609709
30
0
41
1
10
191.29203767894
20
23.5648522255591
30
0
41
1
10
191.293575166504
20
23.563358834494
30
0
41
1
10
191.295732170659
20
23.5611850246436
30
0
41
1
10
191.298256062475
20
23.5585134893398
30
0
41
1
10
191.301533283975
20
23.5548697136044
30
0
41
1
10
191.30398824106
20
23.5519298426986
30
0
41
1
10
191.305699739435
20
23.5497682751375
30
0
41
1
10
191.305936528974
20
23.549467327119
30
0
41
1
10
191.306125408036
20
23.5492261321512
30
0
41
1
10
191.306313918242
20
23.5489846466905
30
0
41
1
10
191.306830797814
20
23.5483193656296
30
0
41
1
10
191.307668269362
20
23.5472242244349
30
0
41
1
10
191.308583829597
20
23.5459960199363
30
0
41
1
10
191.309216785835
20
23.5451303929523
30
0
41
1
10
191.309531269975
20
23.544696119897
30
0
41
1
10
191.30971040406
20
23.5444475484752
30
0
41
1
10
191.309822124593
20
23.5442920185965
30
0
41
1
10
191.310223674374
20
23.5437316455506
30
0
41
1
10
191.3109314304
20
23.5427310183414
30
0
41
1
10
191.312301352302
20
23.540744503916
30
0
41
1
10
191.31365581946
20
23.5387009373241
30
0
41
1
10
191.314972531701
20
23.5366328111339
30
0
41
1
10
191.316263888872
20
23.5345486320759
30
0
41
1
10
191.317830197464
20
23.5319139094969
30
0
41
1
10
191.319106500058
20
23.529642324221
30
0
41
1
10
191.319783866099
20
23.5283969152188
30
0
41
1
10
191.319884202133
20
23.5282115938725
30
0
41
1
10
191.319920649382
20
23.5281441832689
30
0
41
1
10
191.319957070905
20
23.5280767586596
30
0
41
1
10
191.320002549558
20
23.5279924516556
30
0
41
1
10
191.320184206736
20
23.5276550838761
30
0
41
1
10
191.320635452227
20
23.5268100942855
30
0
41
1
10
191.322196543464
20
23.5238211576302
30
0
41
1
10
191.327807279814
20
23.5122275783122
30
0
41
1
10
191.334960453066
20
23.4912251085464
30
0
41
1
10
191.337568428065
20
23.4716698538944
30
0
41
1
10
191.337909749277
20
23.4618583575024
30
0
0
SPLINE
5
228
100
AcDbEntity
8
1
62
256
6
ByLayer
370
-1
48
1
60
0
100
AcDbSpline
70
4
71
3
72
17
73
13
40
0
40
0
40
0
40
0
40
0.0144631560762758
40
0.0301057427838837
40
0.0613909161990995
40
0.123961263029531
40
0.249101956690394
40
0.49938334401212
40
0.749664731333846
40
0.999946118655572
40
0.999946118655572
40
1
40
1
40
1
40
1
41
1
10
193.682453210277
20
11.1355055119623
30
0
41
1
10
193.681362466097
20
11.13546727684
30
0
41
1
10
193.680928449469
20
11.1354520627512
30
0
41
1
10
193.678752498539
20
11.1353757866166
30
0
41
1
10
193.675202536498
20
11.1352513456751
30
0
41
1
10
193.667889851605
20
11.1349950056404
30
0
41
1
10
193.65340632236
20
11.1344872976721
30
0
41
1
10
193.632645996888
20
11.1337595618773
30
0
41
1
10
193.607761028826
20
11.1328872401964
30
0
41
1
10
193.591167898106
20
11.1323055819181
30
0
41
1
10
193.582873651012
20
11.1320148340437
30
0
41
1
10
193.582863656151
20
11.1320144836822
30
0
41
1
10
193.58285366129
20
11.1320141333206
30
0
0
SPLINE
5
229
100
AcDbEntity
8
1
62
256
6
ByLayer
370
-1
48
1
60
0
100
AcDbSpline
70
4
71
3
72
9
73
5
40
0
40
0
40
0
40
0
40
0.5
40
1
40
1
40
1
40
1
41
1
10
178.946472092691
20
9.75669699159968
30
0
41
1
10
178.890195891167
20
9.77316012506282
30
0
41
1
10
178.780800556489
20
9.82119445645901
30
0
41
1
10
178.689244755603
20
9.8953137411763
30
0
41
1
10
178.649932619303
20
9.936575192585
30
0
0
SPLINE
5
22A
100
AcDbEntity
8
1
62
256
6
ByLayer
370
-1
48
1
60
0
100
AcDbSpline
70
4
71
3
72
25
73
21
40
0
40
0
40
0
40
0
40
0.125
40
0.1875
40
0.25
40
0.265625
40
0.2734375
40
0.28125
40
0.3125
40
0.375
40
0.5
40
0.625
40
0.65625
40
0.6875
40
0.75
40
0.765625
40
0.78125
40
0.8125
40
0.875
40
1
40
1
40
1
40
1
41
1
10
193.063236276462
20
24.9535958153115
30
0
41
1
10
193.067840400898
20
24.9413458979911
30
0
41
1
10
193.07382820567
20
24.9224913907464
30
0
41
1
10
193.079871981279
20
24.8966961080627
30
0
41
1
10
193.082515022031
20
24.8821263151759
30
0
41
1
10
193.083860439645
20
24.8728670457389
30
0
41
1
10
193.084290692256
20
24.86986884853
30
0
41
1
10
193.085058519136
20
24.863294173833
30
0
41
1
10
193.086673380878
20
24.8497364554313
30
0
41
1
10
193.09012657041
20
24.8199398831084
30
0
41
1
10
193.094878696901
20
24.7776657896262
30
0
41
1
10
193.098973127108
20
24.7393812247689
30
0
41
1
10
193.101601237586
20
24.7140753192966
30
0
41
1
10
193.103322627005
20
24.6972339587903
30
0
41
1
10
193.104783664925
20
24.6825011315893
30
0
41
1
10
193.10599678903
20
24.6698223191467
30
0
41
1
10
193.106795848257
20
24.6613578386406
30
0
41
1
10
193.108170717502
20
24.6465192947916
30
0
41
1
10
193.11084264064
20
24.6167706271475
30
0
41
1
10
193.113053969715
20
24.5912721572639
30
0
41
1
10
193.114481730895
20
24.5742542636879
30
0
0
SPLINE
5
22B
100
AcDbEntity
8
1
62
256
6
ByLayer
370
-1
48
1
60
0
100
AcDbSpline
70
4
71
3
72
9
73
5
40
0
40
0
40
0
40
0
40
0.624999999999558
40
1
40
1
40
1
40
1
41
1
10
178.796298066284
20
24.9726742281908
30
0
41
1
10
178.79573261724
20
24.9934948704204
30
0
41
1
10
178.794827898769
20
25.0268078979877
30
0
41
1
10
178.793923180298
20
25.0601209255551
30
0
41
1
10
178.793583910871
20
25.0726133108928
30
0
0
SPLINE
5
22C
100
AcDbEntity
8
1
62
256
6
ByLayer
370
-1
48
1
60
0
100
AcDbSpline
70
4
71
3
72
8
73
4
40
0
40
0
40
0
40
0
40
1
40
1
40
1
40
1
41
1
10
178.654239897961
20
25.0666278665903
30
0
41
1
10
178.601166987258
20
25.0637589217187
30
0
41
1
10
178.54811511286
20
25.0604637463257
30
0
41
1
10
178.495095491102
20
25.0567410416346
30
0
0
SPLINE
5
22D
100
AcDbEntity
8
1
62
256
6
ByLayer
370
-1
48
1
60
0
100
AcDbSpline
70
4
71
3
72
12
73
8
40
0
40
0
40
0
40
0
40
0.518100853439319
40
0.777151280158978
40
0.906676493518808
40
0.971439100198723
40
1
40
1
40
1
40
1
41
1
10
177.968279680006
20
22.9924601268538
30
0
41
1
10
178.046866007172
20
22.9951645811602
30
0
41
1
10
178.164745365267
20
22.9992212535361
30
0
41
1
10
178.302271732957
20
23.0039540700257
30
0
41
1
10
178.371034329183
20
23.0063204354558
30
0
41
1
10
178.404837046763
20
23.0074837417247
30
0
41
1
10
178.418992013594
20
23.0079708452399
30
0
41
1
10
178.423325251947
20
23.0081199949584
30
0
0
SPLINE
5
22E
100
AcDbEntity
8
1
62
256
6
ByLayer
370
-1
48
1
60
0
100
AcDbSpline
70
4
71
3
72
8
73
4
40
0
40
0
40
0
40
0
40
1
40
1
40
1
40
1
41
1
10
192.275289120421
20
25.5447897284932
30
0
41
1
10
192.291555260483
20
25.5452102171351
30
0
41
1
10
192.307823865531
20
25.5455502290496
30
0
41
1
10
192.324092821771
20
25.5458117824403
30
0
0
SPLINE
5
22F
100
AcDbEntity
8
1
62
256
6
ByLayer
370
-1
48
1
60
0
100
AcDbSpline
70
4
71
3
72
9
73
5
40
0
40
0
40
0
40
0
40
0.624999999999913
40
1
40
1
40
1
40
1
41
1
10
192.717577874643
20
10.2013774635629
30
0
41
1
10
192.718461037831
20
10.1805568213333
30
0
41
1
10
192.719874098932
20
10.147243793766
30
0
41
1
10
192.721287160033
20
10.1139307661987
30
0
41
1
10
192.721817057946
20
10.1014383808609
30
0
0
SPLINE
5
230
100
AcDbEntity
8
1
62
256
6
ByLayer
370
-1
48
1
60
0
100
AcDbSpline
70
4
71
3
72
15
73
11
40
0
40
0
40
0
40
0
40
0.250244249035859
40
0.500488498071717
40
0.750732747107576
40
0.875854871625506
40
0.93841593388447
40
0.969696465013953
40
0.985336730578694
40
1
40
1
40
1
40
1
41
1
10
193.063236276462
20
24.9535958153115
30
0
41
1
10
193.07283658693
20
24.9565195323587
30
0
41
1
10
193.092037207866
20
24.9623669664532
30
0
41
1
10
193.120832567138
20
24.9711364206358
30
0
41
1
10
193.14485563183
20
24.9784525010902
30
0
41
1
10
193.161614384168
20
24.9835562787298
30
0
41
1
10
193.170077342299
20
24.9861336219356
30
0
41
1
10
193.174183448421
20
24.9873841119596
30
0
41
1
10
193.176712655088
20
24.9881543667
30
0
41
1
10
193.177315107789
20
24.9883378400614
30
0
41
1
10
193.178451847911
20
24.9886840274566
30
0
0
SPLINE
5
231
100
AcDbEntity
8
1
62
256
6
ByLayer
370
-1
48
1
60
0
100
AcDbSpline
70
4
71
3
72
8
73
4
40
0
40
0
40
0
40
0
40
1
40
1
40
1
40
1
41
1
10
179.191309372353
20
9.62823990933768
30
0
41
1
10
179.138166377628
20
9.62738554432693
30
0
41
1
10
179.085019472874
20
9.62696843736728
30
0
41
1
10
179.031865375169
20
9.62695837526968
30
0
0
SPLINE
5
232
100
AcDbEntity
8
1
62
256
6
ByLayer
370
-1
48
1
60
0
100
AcDbSpline
70
4
71
3
72
11
73
7
40
0
40
0
40
0
40
0
40
0.486341096000151
40
0.729511644000227
40
0.972682192000303
40
1
40
1
40
1
40
1
41
1
10
180.133913348166
20
11.7121933342513
30
0
41
1
10
180.128983709625
20
11.7120205299074
30
0
41
1
10
180.121686601942
20
11.7117613402139
30
0
41
1
10
180.112790146726
20
11.7114384617491
30
0
41
1
10
180.108489378626
20
11.7112797297658
30
0
41
1
10
180.106360488737
20
11.7112003594548
30
0
41
1
10
180.106146386966
20
11.7111923715777
30
0
0
SPLINE
5
233
100
AcDbEntity
8
1
62
256
6
ByLayer
370
-1
48
1
60
0
100
AcDbSpline
70
4
71
3
72
8
73
4
40
0
40
0
40
0
40
0
40
1
40
1
40
1
40
1
41
1
10
193.198991153494
20
24.8773728051931
30
0
41
1
10
193.196351597489
20
24.9152586958276
30
0
41
1
10
193.189500363557
20
24.9523609439429
30
0
41
1
10
193.178440002075
20
24.9886804198783
30
0
0
SPLINE
5
234
100
AcDbEntity
8
1
62
256
6
ByLayer
370
-1
48
1
60
0
100
AcDbSpline
70
4
71
3
72
9
73
5
40
0
40
0
40
0
40
0
40
0.5
40
1
40
1
40
1
40
1
41
1
10
192.863958648926
20
25.2374764991687
30
0
41
1
10
192.907670070696
20
25.2010907789689
30
0
41
1
10
192.987671511523
20
25.1147743944475
30
0
41
1
10
193.042987703055
20
25.0087289667613
30
0
41
1
10
193.063236276462
20
24.9535958153115
30
0
0
SPLINE
5
235
100
AcDbEntity
8
1
62
256
6
ByLayer
370
-1
48
1
60
0
100
AcDbSpline
70
4
71
3
72
15
73
11
40
0
40
0
40
0
40
0
40
0.0355064919379698
40
0.118947470229818
40
0.285829426813514
40
0.619593339980907
40
0.786475296564604
40
0.869916274856452
40
0.9533572531483
40
1
40
1
40
1
40
1
41
1
10
179.879991686171
20
24.2070222329325
30
0
41
1
10
179.879877038676
20
24.2112183084017
30
0
41
1
10
179.879489865801
20
24.2252780259838
30
0
41
1
10
179.878501845693
20
24.2591140935045
30
0
41
1
10
179.876257223906
20
24.3283876936282
30
0
41
1
10
179.873176564835
20
24.4075717038558
30
0
41
1
10
179.870052212211
20
24.476362665085
30
0
41
1
10
179.86814832017
20
24.5154601145107
30
0
41
1
10
179.86687946868
20
24.540364142922
30
0
41
1
10
179.866080966338
20
24.5554725492228
30
0
41
1
10
179.865793277295
20
24.5608863249327
30
0
0
SPLINE
5
236
100
AcDbEntity
8
1
62
256
6
ByLayer
370
-1
48
1
60
0
100
AcDbSpline
70
4
71
3
72
20
73
16
40
0
40
0
40
0
40
0
40
0.0006369940732067
40
0.0022970655116233
40
0.0039571369500399
40
0.0172377084573727
40
0.0437988514720383
40
0.150043423530701
40
0.362532567648025
40
0.468777139706688
40
0.521899425736019
40
0.57502171176535
40
0.787510855882675
40
0.893755427941338
40
1
40
1
40
1
40
1
41
1
10
179.327252541509
20
9.73197488279877
30
0
41
1
10
179.327474825216
20
9.73197729483738
30
0
41
1
10
179.328277107561
20
9.7319943644593
30
0
41
1
10
179.329657597322
20
9.7320496978279
30
0
41
1
10
179.335437720494
20
9.73224842900325
30
0
41
1
10
179.349911536032
20
9.73276052259718
30
0
41
1
10
179.400819358844
20
9.73453862075797
30
0
41
1
10
179.521151648195
20
9.73875477402549
30
0
41
1
10
179.669159553967
20
9.74391654517552
30
0
41
1
10
179.798598731012
20
9.74842092138601
30
0
41
1
10
179.872538571583
20
9.75098897035377
30
0
41
1
10
179.983469328457
20
9.75485421274772
30
0
41
1
10
180.112946499697
20
9.75940182131643
30
0
41
1
10
180.26099553513
20
9.76464897611041
30
0
41
1
10
180.335042517899
20
9.76729281341491
30
0
41
1
10
180.372072998871
20
9.76861614606958
30
0
0
SPLINE
5
237
100
AcDbEntity
8
1
62
256
6
ByLayer
370
-1
48
1
60
0
100
AcDbSpline
70
4
71
3
72
8
73
4
40
0
40
0
40
0
40
0
40
1
40
1
40
1
40
1
41
1
10
192.959829940276
20
25.3398660173954
30
0
41
1
10
192.857833262103
20
25.4353365620772
30
0
41
1
10
192.731471707966
20
25.5027789966423
30
0
41
1
10
192.595583458124
20
25.5342791080728
30
0
0
SPLINE
5
238
100
AcDbEntity
8
1
62
256
6
ByLayer
370
-1
48
1
60
0
100
AcDbSpline
70
4
71
3
72
8
73
4
40
0
40
0
40
0
40
0
40
1
40
1
40
1
40
1
41
1
10
192.184671642118
20
25.5420266583064
30
0
41
1
10
192.214873141829
20
25.54308530975
30
0
41
1
10
192.245078446934
20
25.5440087660243
30
0
41
1
10
192.275289120421
20
25.5447897285032
30
0
0
SPLINE
5
239
100
AcDbEntity
8
1
62
256
6
ByLayer
370
-1
48
1
60
0
100
AcDbSpline
70
4
71
3
72
20
73
16
40
0
40
0
40
0
40
0
40
0.0006369940731744
40
0.0022970655115911
40
0.0039571369500077
40
0.017237708457341
40
0.0437988514720074
40
0.150043423530673
40
0.362532567648005
40
0.468777139706671
40
0.521899425736004
40
0.575021711765337
40
0.787510855882668
40
0.893755427941334
40
1
40
1
40
1
40
1
41
1
10
177.932540361871
20
24.0420370553712
30
0
41
1
10
177.932542781823
20
24.0418139397331
30
0
41
1
10
177.932559847694
20
24.0410086542381
30
0
41
1
10
177.932615070907
20
24.0396229920187
30
0
41
1
10
177.932813436246
20
24.0338211816023
30
0
41
1
10
177.933324218745
20
24.0192927184513
30
0
41
1
10
177.935094604396
20
23.9681894861025
30
0
41
1
10
177.939267441676
20
23.8473701705282
30
0
41
1
10
177.944301083254
20
23.6986879967211
30
0
41
1
10
177.948630296752
20
23.5685957572283
30
0
41
1
10
177.951076658457
20
23.4942611359197
30
0
41
1
10
177.954777391791
20
23.3827562687169
30
0
41
1
10
177.959183739788
20
23.2526600866784
30
0
41
1
10
177.964340274638
20
23.1039746051631
30
0
41
1
10
177.966960915055
20
23.0296315884825
30
0
41
1
10
177.968279680006
20
22.9924601268538
30
0
0
SPLINE
5
23A
100
AcDbEntity
8
1
62
256
6
ByLayer
370
-1
48
1
60
0
100
AcDbSpline
70
4
71
3
72
9
73
5
40
0
40
0
40
0
40
0
40
0.5
40
1
40
1
40
1
40
1
41
1
10
192.568455228612
20
25.417354700154
30
0
41
1
10
192.624565696205
20
25.4008915666909
30
0
41
1
10
192.733609012307
20
25.3528572352947
30
0
41
1
10
192.824812564072
20
25.2787379505774
30
0
41
1
10
192.863958648926
20
25.2374764991687
30
0
0
SPLINE
5
23B
100
AcDbEntity
8
1
62
256
6
ByLayer
370
-1
48
1
60
0
100
AcDbSpline
70
4
71
3
72
12
73
8
40
0
40
0
40
0
40
0
40
0.518100853439262
40
0.777151280158893
40
0.906676493518708
40
0.971439100198616
40
1
40
1
40
1
40
1
41
1
10
193.54559626092
20
12.1815915648999
30
0
41
1
10
193.469881117619
20
12.1788871105935
30
0
41
1
10
193.356308788274
20
12.1748304382176
30
0
41
1
10
193.223806358623
20
12.1700976217279
30
0
41
1
10
193.157556998957
20
12.1677312562979
30
0
41
1
10
193.124987780622
20
12.1665679500289
30
0
41
1
10
193.111351267123
20
12.1660808465138
30
0
41
1
10
193.107174832812
20
12.1659316967953
30
0
0
SPLINE
5
23C
100
AcDbEntity
8
1
62
256
6
ByLayer
370
-1
48
1
60
0
100
AcDbSpline
70
4
71
3
72
8
73
4
40
0
40
0
40
0
40
0
40
1
40
1
40
1
40
1
41
1
10
191.732511721423
20
12.1187724708354
30
0
41
1
10
191.742647888172
20
12.1191277856582
30
0
41
1
10
191.753040085518
20
12.1194822904194
30
0
41
1
10
191.761852104677
20
12.1197733472828
30
0
0
SPLINE
5
23D
100
AcDbEntity
8
1
62
256
6
ByLayer
370
-1
48
1
60
0
100
AcDbSpline
70
4
71
3
72
17
73
13
40
0
40
0
40
0
40
0
40
0.0032703186403094
40
0.0092094466333843
40
0.021087702619534
40
0.0448442145918335
40
0.0923572385364325
40
0.282409334314828
40
0.66251352587162
40
0.852565621650016
40
0.947591669539214
40
1
40
1
40
1
40
1
41
1
10
191.590173487645
20
11.9349651016293
30
0
41
1
10
191.590200112986
20
11.9346848035731
30
0
41
1
10
191.590275409681
20
11.9338988647108
30
0
41
1
10
191.59044851002
20
11.9321068701359
30
0
41
1
10
191.590788016131
20
11.9285549194407
30
0
41
1
10
191.591468261823
20
11.9214644335936
30
0
41
1
10
191.593604965924
20
11.8991668662746
30
0
41
1
10
191.598656297792
20
11.846473767089
30
0
41
1
10
191.604872350204
20
11.7816102347488
30
0
41
1
10
191.610313141517
20
11.7248733453672
30
0
41
1
10
191.613071079715
20
11.6960606239495
30
0
41
1
10
191.614278711395
20
11.6835024610345
30
0
41
1
10
191.614706482204
20
11.6790223481965
30
0
0
SPLINE
5
23E
100
AcDbEntity
8
1
62
256
6
ByLayer
370
-1
48
1
60
0
100
AcDbSpline
70
4
71
3
72
14
73
10
40
0
40
0
40
0
40
0
40
0.0318086637759044
40
0.315507725074446
40
0.599206786372987
40
0.882905847671528
40
0.953830612996163
40
0.989292995658481
40
1
40
1
40
1
40
1
41
1
10
179.866806860359
20
11.702254653682
30
0
41
1
10
179.863398678143
20
11.702127431565
30
0
41
1
10
179.829474590275
20
11.700861842616
30
0
41
1
10
179.760581365989
20
11.6983196375331
30
0
41
1
10
179.653812283308
20
11.6944447708448
30
0
41
1
10
179.56875516052
20
11.6914028231454
30
0
41
1
10
179.515593149064
20
11.689517693175
30
0
41
1
10
179.499544914438
20
11.6889500473485
30
0
41
1
10
179.493204570202
20
11.6887260016154
30
0
41
1
10
179.491733740243
20
11.6886740355845
30
0
0
SPLINE
5
23F
100
AcDbEntity
8
1
62
256
6
ByLayer
370
-1
48
1
60
0
100
AcDbSpline
70
4
71
3
72
12
73
8
40
0
40
0
40
0
40
0
40
0.518100853439294
40
0.77715128015894
40
0.906676493518764
40
0.971439100198675
40
1
40
1
40
1
40
1
41
1
10
180.372072998871
20
9.76861614606958
30
0
41
1
10
180.370814427761
20
9.84606158457808
30
0
41
1
10
180.368926706624
20
9.96222948222044
30
0
41
1
10
180.366723868949
20
10.0977596139605
30
0
41
1
10
180.365623126535
20
10.1655234537752
30
0
41
1
10
180.365080996619
20
10.1988361867385
30
0
41
1
10
180.364854973346
20
10.2127850063736
30
0
41
1
10
180.364784793209
20
10.2170560954891
30
0
0
SPLINE
5
240
100
AcDbEntity
8
1
62
256
6
ByLayer
370
-1
48
1
60
0
100
AcDbSpline
70
4
71
3
72
16
73
12
40
0
40
0
40
0
40
0
40
0.0068174563921656
40
0.0525902990102041
40
0.144135984246281
40
0.235681669482358
40
0.418773039954512
40
0.601864410426666
40
0.78495578089882
40
0.968047151370974
40
1
40
1
40
1
40
1
41
1
10
192.756545556062
20
12.1535744808709
30
0
41
1
10
192.755808526047
20
12.1535488367415
30
0
41
1
10
192.750123008167
20
12.1533510239226
30
0
41
1
10
192.734540169041
20
12.1528090062365
30
0
41
1
10
192.709797642276
20
12.151948277677
30
0
41
1
10
192.670209792851
20
12.1505710742184
30
0
41
1
10
192.620724814995
20
12.148849611099
30
0
41
1
10
192.561342761281
20
12.1467838059437
30
0
41
1
10
192.501960794811
20
12.1447180509788
30
0
41
1
10
192.458918596047
20
12.1432208262696
30
0
41
1
10
192.435669922461
20
12.1424119187842
30
0
41
1
10
192.432215524188
20
12.1422917695031
30
0
0
SPLINE
5
241
100
AcDbEntity
8
1
62
256
6
ByLayer
370
-1
48
1
60
0
100
AcDbSpline
70
4
71
3
72
8
73
4
40
0
40
0
40
0
40
0
40
1
40
1
40
1
40
1
41
1
10
193.208840395199
20
24.7176205318086
30
0
41
1
10
193.20598217595
20
24.7708959800987
30
0
41
1
10
193.202699237012
20
24.8241502001998
30
0
41
1
10
193.198991153494
20
24.8773728051955
30
0
0
SPLINE
5
242
100
AcDbEntity
8
1
62
256
6
ByLayer
370
-1
48
1
60
0
100
AcDbSpline
70
4
71
3
72
25
73
21
40
0
40
0
40
0
40
0
40
0.125
40
0.1875
40
0.21875
40
0.234375
40
0.25
40
0.3125
40
0.34375
40
0.375
40
0.5
40
0.625
40
0.6875
40
0.71875
40
0.7265625
40
0.734375
40
0.75
40
0.8125
40
0.875
40
1
40
1
40
1
40
1
41
1
10
177.932529636071
20
24.0420369389748
30
0
41
1
10
177.932766228131
20
24.0591129987071
30
0
41
1
10
177.933192403013
20
24.0847035826528
30
0
41
1
10
177.933781430926
20
24.1145660812695
30
0
41
1
10
177.934116966672
20
24.1294644491257
30
0
41
1
10
177.934322993434
20
24.1379641346395
30
0
41
1
10
177.934647636743
20
24.1506968687261
30
0
41
1
10
177.935075643443
20
24.1654961284958
30
0
41
1
10
177.935616156132
20
24.1824162922046
30
0
41
1
10
177.936470166519
20
24.2078433216244
30
0
41
1
10
177.937882881594
20
24.2463207838987
30
0
41
1
10
177.939671264597
20
24.2888234365657
30
0
41
1
10
177.941036970723
20
24.3187879047556
30
0
41
1
10
177.941699684792
20
24.3324249840514
30
0
41
1
10
177.942008407335
20
24.3390377240122
30
0
41
1
10
177.942218164845
20
24.3420580352362
30
0
41
1
10
177.942894113968
20
24.3513883195376
30
0
41
1
10
177.944475405122
20
24.3661053510656
30
0
41
1
10
177.948633272261
20
24.3922593658458
30
0
41
1
10
177.953233197887
20
24.4114886266659
30
0
41
1
10
177.956931571705
20
24.4240342951359
30
0
0
SPLINE
5
243
100
AcDbEntity
8
1
62
256
6
ByLayer
370
-1
48
1
60
0
100
AcDbSpline
70
4
71
3
72
11
73
7
40
0
40
0
40
0
40
0
40
0.486341095999784
40
0.729511643999677
40
0.972682191999569
40
1
40
1
40
1
40
1
41
1
10
191.58838854898
20
11.9636289222771
30
0
41
1
10
191.588560695751
20
11.9586804533173
30
0
41
1
10
191.588915769384
20
11.9512582316052
30
0
41
1
10
191.589551809546
20
11.9420122021083
30
0
41
1
10
191.589937361727
20
11.9374667128289
30
0
41
1
10
191.590151759499
20
11.9351938445
30
0
41
1
10
191.590173487645
20
11.9349651016293
30
0
0
SPLINE
5
244
100
AcDbEntity
8
1
62
256
6
ByLayer
370
-1
48
1
60
0
100
AcDbSpline
70
4
71
3
72
8
73
4
40
0
40
0
40
0
40
0
40
1
40
1
40
1
40
1
41
1
10
192.721817057946
20
10.1014383808609
30
0
41
1
10
192.752018538912
20
10.102497068442
30
0
41
1
10
192.78221538363
20
10.1036933515204
30
0
41
1
10
192.812406129578
20
10.1050281743477
30
0
0
SPLINE
5
245
100
AcDbEntity
8
1
62
256
6
ByLayer
370
-1
48
1
60
0
100
AcDbSpline
70
4
71
3
72
8
73
4
40
0
40
0
40
0
40
0
40
1
40
1
40
1
40
1
41
1
10
179.739311376021
20
23.0552792209183
30
0
41
1
10
179.729175209271
20
23.0549239060955
30
0
41
1
10
179.719341290827
20
23.0545694013343
30
0
41
1
10
179.711547186557
20
23.0542783444708
30
0
0
SPLINE
5
246
100
AcDbEntity
8
1
62
256
6
ByLayer
370
-1
48
1
60
0
100
AcDbSpline
70
4
71
3
72
8
73
4
40
0
40
0
40
0
40
0
40
1
40
1
40
1
40
1
41
1
10
192.812406129578
20
10.1050281743477
30
0
41
1
10
192.828661541176
20
10.1057468745252
30
0
41
1
10
192.844913635341
20
10.1065455328796
30
0
41
1
10
192.861161138694
20
10.1074238251634
30
0
0
SPLINE
5
247
100
AcDbEntity
8
1
62
256
6
ByLayer
370
-1
48
1
60
0
100
AcDbSpline
70
4
71
3
72
9
73
5
40
0
40
0
40
0
40
0
40
0.5
40
1
40
1
40
1
40
1
41
1
10
178.649932619303
20
9.936575192585
30
0
41
1
10
178.60612703718
20
9.97296091278477
30
0
41
1
10
178.525986010456
20
10.0592772973062
30
0
41
1
10
178.47063762632
20
10.1653227249924
30
0
41
1
10
178.450397015765
20
10.2204558764422
30
0
0
SPLINE
5
248
100
AcDbEntity
8
1
62
256
6
ByLayer
370
-1
48
1
60
0
100
AcDbSpline
70
4
71
3
72
17
73
13
40
0
40
0
40
0
40
0
40
0.0144631560763671
40
0.0301057427840055
40
0.0613909161992823
40
0.123961263029836
40
0.249101956690943
40
0.499383344013157
40
0.749664731335372
40
0.999946118657586
40
0.999946118657586
40
1
40
1
40
1
40
1
41
1
10
179.330730133132
20
9.63200185202385
30
0
41
1
10
179.330692043506
20
9.63309676267011
30
0
41
1
10
179.330676887311
20
9.63353243717077
30
0
41
1
10
179.33060090143
20
9.63571669987988
30
0
41
1
10
179.330476934024
20
9.6392802221996
30
0
41
1
10
179.330221569441
20
9.64662084036024
30
0
41
1
10
179.329715793454
20
9.66115969433409
30
0
41
1
10
179.328990826914
20
9.68199932087663
30
0
41
1
10
179.32812182468
20
9.70697934547388
30
0
41
1
10
179.327542379788
20
9.72363585925751
30
0
41
1
10
179.327252737634
20
9.73196180807133
30
0
41
1
10
179.327252389931
20
9.7319718030252
30
0
41
1
10
179.327252042227
20
9.7319817979791
30
0
0
SPLINE
5
249
100
AcDbEntity
8
1
62
256
6
ByLayer
370
-1
48
1
60
0
100
AcDbSpline
70
4
71
3
72
8
73
4
40
0
40
0
40
0
40
0
40
1
40
1
40
1
40
1
41
1
10
180.288466528683
20
11.5675196347038
30
0
41
1
10
180.288820491426
20
11.5573447494438
30
0
41
1
10
180.28945278664
20
11.5471930613108
30
0
41
1
10
180.290251693389
20
11.5388582832497
30
0
0
SPLINE
5
24A
100
AcDbEntity
8
1
62
256
6
ByLayer
370
-1
48
1
60
0
100
AcDbSpline
70
4
71
3
72
12
73
8
40
0
40
0
40
0
40
0
40
0.448044053330183
40
0.448044053330183
40
0.724021472165477
40
0.724021472165477
40
1
40
1
40
1
40
1
41
1
10
180.376312182174
20
9.66867706336757
30
0
41
1
10
180.220156006271
20
9.66320313961162
30
0
41
1
10
180.064050632095
20
9.65785044516755
30
0
41
1
10
179.811745357246
20
9.64909234415975
30
0
41
1
10
179.715551157768
20
9.64570128351178
30
0
41
1
10
179.523137409706
20
9.63885534723693
30
0
41
1
10
179.426915608792
20
9.63539664935067
30
0
41
1
10
179.330729326699
20
9.6320250334465
30
0
0
SPLINE
5
24B
100
AcDbEntity
8
1
62
256
6
ByLayer
370
-1
48
1
60
0
100
AcDbSpline
70
4
71
3
72
91
73
87
40
0
40
0
40
0
40
0
40
0.0276322771565669
40
0.0681475989417099
40
0.0782764293879957
40
0.0833408446111386
40
0.0839738965140314
40
0.0846069484169243
40
0.0849234743683707
40
0.0852400003198172
40
0.08587305222271
40
0.0884052598342815
40
0.0985340902805672
40
0.108662920726853
40
0.118791751173139
40
0.128920581619424
40
0.149178242511996
40
0.169435903404568
40
0.179564733850853
40
0.184629149073996
40
0.189693564297139
40
0.190326616200032
40
0.190959668102925
40
0.192225771908711
40
0.192858823811603
40
0.193491875714496
40
0.194757979520282
40
0.197290187131853
40
0.199822394743425
40
0.204886809966568
40
0.209951225189711
40
0.220080055635996
40
0.222612263247568
40
0.223878367053354
40
0.225144470859139
40
0.230208886082282
40
0.270724207867425
40
0.290981868759997
40
0.311239529652568
40
0.33149719054514
40
0.341626020991426
40
0.346690436214568
40
0.34922264382614
40
0.350488747631926
40
0.351121799534818
40
0.351754851437711
40
0.352387903340604
40
0.353020955243497
40
0.354287059049283
40
0.356819266660854
40
0.361883681883997
40
0.372012512330283
40
0.392270173222854
40
0.412527834115426
40
0.432785495007997
40
0.473300816793141
40
0.475833024404712
40
0.478365232016283
40
0.479631335822069
40
0.480897439627855
40
0.483429647239426
40
0.493558477685712
40
0.503687308131998
40
0.508751723355141
40
0.511283930966712
40
0.512550034772498
40
0.513816138578283
40
0.514449190481176
40
0.523944969024569
40
0.534073799470855
40
0.554331460363427
40
0.564460290809712
40
0.574589121255998
40
0.59484678214857
40
0.615104443041141
40
0.617636650652713
40
0.618269702555605
40
0.618586228507052
40
0.618902754458498
40
0.619535806361391
40
0.620168858264284
40
0.625233273487427
40
0.635362103933713
40
0.675877425718856
40
0.837938712859428
40
1
40
1
40
1
40
1
41
1
10
179.74701034264
20
23.108312895578
30
0
41
1
10
179.747541628625
20
23.1098995870403
30
0
41
1
10
179.748917185613
20
23.113790696707
30
0
41
1
10
179.750680446492
20
23.1181913675179
30
0
41
1
10
179.752030030704
20
23.1212823354585
30
0
41
1
10
179.752421457787
20
23.122156864229
30
0
41
1
10
179.752579228423
20
23.1225061303657
30
0
41
1
10
179.752618737713
20
23.1225934165507
30
0
41
1
10
179.752650385108
20
23.1226632272588
30
0
41
1
10
179.752682059141
20
23.1227330257968
30
0
41
1
10
179.752769272591
20
23.1229249215329
30
0
41
1
10
179.753103667088
20
23.1236569738165
30
0
41
1
10
179.753686484667
20
23.1249074991896
30
0
41
1
10
179.754483868676
20
23.1265651847507
30
0
41
1
10
179.755301424769
20
23.1282129394233
30
0
41
1
10
179.756418233248
20
23.1303963720879
30
0
41
1
10
179.757864064963
20
23.1330995892688
30
0
41
1
10
179.75937551271
20
23.1357663796794
30
0
41
1
10
179.760467548185
20
23.1376131364125
30
0
41
1
10
179.761101228132
20
23.1386625880302
30
0
41
1
10
179.761441280954
20
23.1392180195248
30
0
41
1
10
179.761642436881
20
23.1395440451928
30
0
41
1
10
179.761722999184
20
23.1396743932778
30
0
41
1
10
179.761803711305
20
23.139804647982
30
0
41
1
10
179.761884573078
20
23.1399348090897
30
0
41
1
10
179.761965534564
20
23.140064907728
30
0
41
1
10
179.762107478772
20
23.1402924161742
30
0
41
1
10
179.762311002836
20
23.1406169581032
30
0
41
1
10
179.76263823064
20
23.1411352176334
30
0
41
1
10
179.763050238776
20
23.1417811442586
30
0
41
1
10
179.763715767028
20
23.1428105414675
30
0
41
1
10
179.764306356266
20
23.1437058536783
30
0
41
1
10
179.76477574568
20
23.1444057075715
30
0
41
1
10
179.764947015612
20
23.1446598048231
30
0
41
1
10
179.765204502725
20
23.1450405547654
30
0
41
1
10
179.766801305637
20
23.1473823954539
30
0
41
1
10
179.769135775207
20
23.1506111927896
30
0
41
1
10
179.772151803835
20
23.1544755731307
30
0
41
1
10
179.77448389984
20
23.1573173310153
30
0
41
1
10
179.776484589357
20
23.1596368853303
30
0
41
1
10
179.777914554397
20
23.1612342979574
30
0
41
1
10
179.77863683406
20
23.1620263388809
30
0
41
1
10
179.778999788996
20
23.1624206809274
30
0
41
1
10
179.779181719092
20
23.1626174308384
30
0
41
1
10
179.779285808305
20
23.1627297388256
30
0
41
1
10
179.779363939753
20
23.1628139094956
30
0
41
1
10
179.779442135699
20
23.1628980197911
30
0
41
1
10
179.779546482888
20
23.1630100862929
30
0
41
1
10
179.779729315855
20
23.1632059910471
30
0
41
1
10
179.780095881913
20
23.1635969528048
30
0
41
1
10
179.780832603169
20
23.1643754752828
30
0
41
1
10
179.78232031143
20
23.1659188358002
30
0
41
1
10
179.784485849278
20
23.1680840793597
30
0
41
1
10
179.787147218583
20
23.1706176120331
30
0
41
1
10
179.790777128652
20
23.1739073519865
30
0
41
1
10
179.793705812462
20
23.1763716866083
30
0
41
1
10
179.795859154605
20
23.1780897226296
30
0
41
1
10
179.796158957426
20
23.1783274166661
30
0
41
1
10
179.796399234574
20
23.1785170172151
30
0
41
1
10
179.79663980111
20
23.1787062474994
30
0
41
1
10
179.797302550575
20
23.179225101468
30
0
41
1
10
179.798393524427
20
23.1800657720206
30
0
41
1
10
179.799617055237
20
23.1809848295478
30
0
41
1
10
179.800479388249
20
23.1816202035756
30
0
41
1
10
179.800912008764
20
23.1819358889933
30
0
41
1
10
179.801159634296
20
23.1821157073422
30
0
41
1
10
179.801314572337
20
23.182227854629
30
0
41
1
10
179.801872812994
20
23.1826309382653
30
0
41
1
10
179.802869632515
20
23.1833413978044
30
0
41
1
10
179.804848587653
20
23.184716552585
30
0
41
1
10
179.806884377857
20
23.1860761935872
30
0
41
1
10
179.808944634203
20
23.1873979354556
30
0
41
1
10
179.81102088233
20
23.1886942254007
30
0
41
1
10
179.813645578995
20
23.1902665170375
30
0
41
1
10
179.815908520203
20
23.1915476949004
30
0
41
1
10
179.817149190048
20
23.1922276483691
30
0
41
1
10
179.81733380619
20
23.1923283676712
30
0
41
1
10
179.817400960276
20
23.1923649541427
30
0
41
1
10
179.817468128314
20
23.1924015147891
30
0
41
1
10
179.817552114505
20
23.1924471671642
30
0
41
1
10
179.817888198498
20
23.1926295182429
30
0
41
1
10
179.818729972648
20
23.1930824874179
30
0
41
1
10
179.821707535497
20
23.1946495417705
30
0
41
1
10
179.833256997746
20
23.2002817102212
30
0
41
1
10
179.854179546773
20
23.2074622074331
30
0
41
1
10
179.873660387777
20
23.2100801444727
30
0
41
1
10
179.883434548463
20
23.2104227694765
30
0
0
SPLINE
5
24C
100
AcDbEntity
8
1
62
256
6
ByLayer
370
-1
48
1
60
0
100
AcDbSpline
70
4
71
3
72
12
73
8
40
0
40
0
40
0
40
0
40
0.0285608994398946
40
0.0933235061439017
40
0.222848719551916
40
0.481899146367944
40
1
40
1
40
1
40
1
41
1
10
192.712572883452
20
23.5090175840295
30
0
41
1
10
192.716749378311
20
23.5091667352776
30
0
41
1
10
192.730386074668
20
23.5096538434144
30
0
41
1
10
192.762954858954
20
23.510817138734
30
0
41
1
10
192.829204498219
20
23.5131835112097
30
0
41
1
10
192.961706741703
20
23.5179163230105
30
0
41
1
10
193.075279145473
20
23.5219729972605
30
0
41
1
10
193.150994288775
20
23.5246774515669
30
0
0
SPLINE
5
24D
100
AcDbEntity
8
1
62
256
6
ByLayer
370
-1
48
1
60
0
100
AcDbSpline
70
4
71
3
72
9
73
5
40
0
40
0
40
0
40
0
40
0.37500000000208
40
1
40
1
40
1
40
1
41
1
10
193.645917559186
20
12.1850815145701
30
0
41
1
10
193.633377396902
20
12.1846452708614
30
0
41
1
10
193.599936964147
20
12.1834819543046
30
0
41
1
10
193.566496531392
20
12.1823186377478
30
0
41
1
10
193.54559626092
20
12.1815915648999
30
0
0
SPLINE
5
24E
100
AcDbEntity
8
1
62
256
6
ByLayer
370
-1
48
1
60
0
100
AcDbSpline
70
4
71
3
72
15
73
11
40
0
40
0
40
0
40
0
40
0.250139710793447
40
0.500351579587176
40
0.750563448380905
40
0.87566938277777
40
0.938222349976202
40
0.969498833575418
40
0.985137075375026
40
1
40
1
40
1
40
1
41
1
10
178.649925816125
20
9.93656781061813
30
0
41
1
10
178.642064617954
20
9.9280378114216
30
0
41
1
10
178.626339954331
20
9.91097535285493
30
0
41
1
10
178.602756447141
20
9.88538545001629
30
0
41
1
10
178.583079289524
20
9.86403423420714
30
0
41
1
10
178.569352898345
20
9.84914005355063
30
0
41
1
10
178.562420354475
20
9.84161771505262
30
0
41
1
10
178.55905810496
20
9.83796941805824
30
0
41
1
10
178.556977914862
20
9.83571225324991
30
0
41
1
10
178.556424337678
20
9.83511157981175
30
0
41
1
10
178.555566802111
20
9.8341810883598
30
0
0
SPLINE
5
24F
100
AcDbEntity
8
1
62
256
6
ByLayer
370
-1
48
1
60
0
100
AcDbSpline
70
4
71
3
72
15
73
11
40
0
40
0
40
0
40
0
40
0.0466427416045549
40
0.13008371136712
40
0.213524681129685
40
0.380406620654814
40
0.714170499705074
40
0.881052439230203
40
0.964493408992768
40
1
40
1
40
1
40
1
41
1
10
191.165715291551
20
24.9569955962646
30
0
41
1
10
191.166003000089
20
24.9515818762036
30
0
41
1
10
191.166801562094
20
24.9364736399694
30
0
41
1
10
191.168070340376
20
24.911569403897
30
0
41
1
10
191.169974232591
20
24.8724719509574
30
0
41
1
10
191.17309858511
20
24.8036809919698
30
0
41
1
10
191.176179102588
20
24.7244970977629
30
0
41
1
10
191.17842407839
20
24.655223206858
30
0
41
1
10
191.179411553129
20
24.6213875760151
30
0
41
1
10
191.179799308646
20
24.6073273647229
30
0
41
1
10
191.179914012127
20
24.6031312311815
30
0
0
SPLINE
5
250
100
AcDbEntity
8
1
62
256
6
ByLayer
370
-1
48
1
60
0
100
AcDbSpline
70
4
71
3
72
12
73
8
40
0
40
0
40
0
40
0
40
0.0285608994398307
40
0.093323506143842
40
0.222848719551865
40
0.48189914636791
40
1
40
1
40
1
40
1
41
1
10
178.817927214518
20
11.6650341077242
30
0
41
1
10
178.813593949438
20
11.6648849564761
30
0
41
1
10
178.799438901784
20
11.6643978483394
30
0
41
1
10
178.765636374865
20
11.6632345530197
30
0
41
1
10
178.696873656249
20
11.660868180544
30
0
41
1
10
178.55934736991
20
11.6561353687431
30
0
41
1
10
178.441467979317
20
11.6520786944932
30
0
41
1
10
178.362881652152
20
11.6493742401868
30
0
0
SPLINE
5
251
100
AcDbEntity
8
1
62
256
6
ByLayer
370
-1
48
1
60
0
100
AcDbSpline
70
4
71
3
72
16
73
12
40
0
40
0
40
0
40
0
40
0.0319528420423128
40
0.215044192449664
40
0.398135542857016
40
0.581226893264368
40
0.764318243671719
40
0.855863918875395
40
0.947409594079071
40
0.993182431680909
40
1
40
1
40
1
40
1
41
1
10
191.640580447035
20
11.2901243286185
30
0
41
1
10
191.640727004805
20
11.2866837036955
30
0
41
1
10
191.64170557577
20
11.2635196242353
30
0
41
1
10
191.643527587394
20
11.2206447630337
30
0
41
1
10
191.646036890917
20
11.1614890824919
30
0
41
1
10
191.648545251771
20
11.1023323537382
30
0
41
1
10
191.650636440703
20
11.0530360625171
30
0
41
1
10
191.652308379209
20
11.0135981139404
30
0
41
1
10
191.653354361641
20
10.9889502933279
30
0
41
1
10
191.654014273092
20
10.9734284059166
30
0
41
1
10
191.654253833679
20
10.9677638147045
30
0
41
1
10
191.654284862578
20
10.9670294588212
30
0
0
SPLINE
5
252
100
AcDbEntity
8
1
62
256
6
ByLayer
370
-1
48
1
60
0
100
AcDbSpline
70
4
71
3
72
9
73
5
40
0
40
0
40
0
40
0
40
0.5
40
1
40
1
40
1
40
1
41
1
10
193.557995749597
20
10.7500173966178
30
0
41
1
10
193.541512396361
20
10.6936094126502
30
0
41
1
10
193.493484840811
20
10.5839728871803
30
0
41
1
10
193.419471477788
20
10.4922441553371
30
0
41
1
10
193.378284012936
20
10.4528651959304
30
0
0
SPLINE
5
253
100
AcDbEntity
8
1
62
256
6
ByLayer
370
-1
48
1
60
0
100
AcDbSpline
70
4
71
3
72
15
73
11
40
0
40
0
40
0
40
0
40
0.250227978747941
40
0.50046792337245
40
0.750707867996959
40
0.875827840309213
40
0.93838782646534
40
0.969667819543404
40
0.985307816082436
40
1
40
1
40
1
40
1
41
1
10
178.946471774051
20
9.7566955938382
30
0
41
1
10
178.944250665101
20
9.74695235911085
30
0
41
1
10
178.939808341008
20
9.72746542382578
30
0
41
1
10
178.933146090928
20
9.6982404430687
30
0
41
1
10
178.927587896144
20
9.67385857002455
30
0
41
1
10
178.923710438749
20
9.65684950906177
30
0
41
1
10
178.921752371769
20
9.64826014823845
30
0
41
1
10
178.920802345703
20
9.64409271333972
30
0
41
1
10
178.92021688829
20
9.64152451469215
30
0
41
1
10
178.920077508317
20
9.64091310308433
30
0
41
1
10
178.919813198178
20
9.63975366616518
30
0
0
SPLINE
5
254
100
AcDbEntity
8
1
62
256
6
ByLayer
370
-1
48
1
60
0
100
AcDbSpline
70
4
71
3
72
10
73
6
40
0
40
0
40
0
40
0
40
0.499999999999999
40
0.499999999999999
40
1
40
1
40
1
40
1
41
1
10
192.896876120423
20
-1.8349250212643
30
0
41
1
10
192.908422947279
20
-1.86659049445629
30
0
41
1
10
192.920635743453
20
-1.89876682575448
30
0
41
1
10
192.945053288452
20
-1.96081382174765
30
0
41
1
10
192.95727081116
20
-1.99076461002633
30
0
41
1
10
192.969495258926
20
-2.01986643843966
30
0
0
SPLINE
5
255
100
AcDbEntity
8
1
62
256
6
ByLayer
370
-1
48
1
60
0
100
AcDbSpline
70
4
71
3
72
14
73
10
40
0
40
0
40
0
40
0
40
0.25
40
0.25
40
0.5
40
0.5
40
0.75
40
0.75
40
1
40
1
40
1
40
1
41
1
10
193.900049096012
20
-12.5785328724145
30
0
41
1
10
193.897281137902
20
-12.6576489786942
30
0
41
1
10
193.882713837581
20
-12.7359519877999
30
0
41
1
10
193.83119258203
20
-12.8853050583108
30
0
41
1
10
193.79419199395
20
-12.9562200044312
30
0
41
1
10
193.701264791078
20
-13.0838724085601
30
0
41
1
10
193.645050680333
20
-13.1409604300647
30
0
41
1
10
193.518789999873
20
-13.2359061520724
30
0
41
1
10
193.448681698663
20
-13.2739414785785
30
0
41
1
10
193.374152549057
20
-13.3010172744309
30
0
0
SPLINE
5
256
100
AcDbEntity
8
1
62
256
6
ByLayer
370
-1
48
1
60
0
100
AcDbSpline
70
4
71
3
72
18
73
14
40
0
40
0
40
0
40
0
40
0.250000000000025
40
0.250000000000025
40
0.50000000000005
40
0.50000000000005
40
0.625000000000037
40
0.625000000000037
40
0.750000000000025
40
0.750000000000025
40
0.875000000000012
40
0.875000000000012
40
1
40
1
40
1
40
1
41
1
10
193.207139996545
20
-13.0948082198504
30
0
41
1
10
193.158425015239
20
-13.097470452953
30
0
41
1
10
193.107413048504
20
-13.10115431538
30
0
41
1
10
192.999756497896
20
-13.111705931922
30
0
41
1
10
192.943134615907
20
-13.1185215703893
30
0
41
1
10
192.850454474956
20
-13.133015333645
30
0
41
1
10
192.818248468085
20
-13.1385701050909
30
0
41
1
10
192.749923466035
20
-13.1518364790013
30
0
41
1
10
192.713441382183
20
-13.1596250137987
30
0
41
1
10
192.635993148827
20
-13.1782716614454
30
0
41
1
10
192.595536950914
20
-13.1889909928655
30
0
41
1
10
192.509432623396
20
-13.2146142031355
30
0
41
1
10
192.465531230155
20
-13.2290257549517
30
0
41
1
10
192.420905685098
20
-13.2452378297459
30
0
0
SPLINE
5
257
100
AcDbEntity
8
1
62
256
6
ByLayer
370
-1
48
1
60
0
100
AcDbSpline
70
4
71
3
72
10
73
6
40
0
40
0
40
0
40
0
40
0.5
40
0.5
40
1
40
1
40
1
40
1
41
1
10
193.003372849133
20
-2.35739682986136
30
0
41
1
10
193.001571208069
20
-2.32308359117639
30
0
41
1
10
193.000361652596
20
-2.28993945747408
30
0
41
1
10
192.998947781894
20
-2.22563609123543
30
0
41
1
10
192.998748269643
20
-2.19418773287407
30
0
41
1
10
192.99896371591
20
-2.16443837227996
30
0
0
SPLINE
5
258
100
AcDbEntity
8
1
62
256
6
ByLayer
370
-1
48
1
60
0
100
AcDbSpline
70
4
71
3
72
10
73
6
40
0
40
0
40
0
40
0
40
0.825424594716541
40
0.825424594716541
40
1
40
1
40
1
40
1
41
1
10
192.239256729067
20
-9.04502826892249
30
0
41
1
10
192.180480459567
20
-8.91379420082976
30
0
41
1
10
192.127927735899
20
-8.7802490712449
30
0
41
1
10
192.071764642501
20
-8.61567275372477
30
0
41
1
10
192.062237375892
20
-8.58683249946208
30
0
41
1
10
192.052991524763
20
-8.55789893923591
30
0
0
SPLINE
5
259
100
AcDbEntity
8
1
62
256
6
ByLayer
370
-1
48
1
60
0
100
AcDbSpline
70
4
71
3
72
10
73
6
40
0
40
0
40
0
40
0
40
0.5
40
0.5
40
1
40
1
40
1
40
1
41
1
10
192.359214855558
20
-9.40818311379169
30
0
41
1
10
192.361517845313
20
-9.34277085472644
30
0
41
1
10
192.356368239887
20
-9.27842882480729
30
0
41
1
10
192.331809297203
20
-9.15179255794243
30
0
41
1
10
192.312117594501
20
-9.08901827779235
30
0
41
1
10
192.285440625196
20
-9.02922822464691
30
0
0
SPLINE
5
25A
100
AcDbEntity
8
1
62
256
6
ByLayer
370
-1
48
1
60
0
100
AcDbSpline
70
4
71
3
72
14
73
10
40
0
40
0
40
0
40
0
40
0.080630246154435
40
0.080630246154435
40
0.387086830769623
40
0.387086830769623
40
0.693543415384812
40
0.693543415384812
40
1
40
1
40
1
40
1
41
1
10
191.804402676284
20
0.773968821569383
30
0
41
1
10
191.824538839737
20
0.768761539680696
30
0
41
1
10
191.844474830704
20
0.762769836803017
30
0
41
1
10
191.93897539507
20
0.730292150826386
30
0
41
1
10
192.010022859032
20
0.693360576301984
30
0
41
1
10
192.137913805556
20
0.600606701394554
30
0
41
1
10
192.195108506708
20
0.544497441297835
30
0
41
1
10
192.290231652557
20
0.418472262458579
30
0
41
1
10
192.328338055185
20
0.348494727362663
30
0
41
1
10
192.355464447227
20
0.274104589644338
30
0
0
SPLINE
5
25B
100
AcDbEntity
8
1
62
256
6
ByLayer
370
-1
48
1
60
0
100
AcDbSpline
70
4
71
3
72
18
73
14
40
0
40
0
40
0
40
0
40
0.25
40
0.25
40
0.5
40
0.5
40
0.625
40
0.625
40
0.75
40
0.75
40
0.875
40
0.875
40
1
40
1
40
1
40
1
41
1
10
192.234122725114
20
0.192497208448032
30
0
41
1
10
192.24159284348
20
0.148667042388382
30
0
41
1
10
192.250026716047
20
0.102484502521833
30
0
41
1
10
192.269720906462
20
0.0041345933199466
30
0
41
1
10
192.280943024462
20
-0.0479961294251154
30
0
41
1
10
192.301589457938
20
-0.134389242770226
30
0
41
1
10
192.309117681723
20
-0.164575768262779
30
0
41
1
10
192.326100115559
20
-0.229088946147726
30
0
41
1
10
192.335648962698
20
-0.263760481742253
30
0
41
1
10
192.357361802783
20
-0.338038564917071
30
0
41
1
10
192.369371907614
20
-0.377150931721502
30
0
41
1
10
192.396850299546
20
-0.46129072838923
30
0
41
1
10
192.411779900443
20
-0.504620034317327
30
0
41
1
10
192.428022270532
20
-0.549162343736754
30
0
0
SPLINE
5
25C
100
AcDbEntity
8
1
62
256
6
ByLayer
370
-1
48
1
60
0
100
AcDbSpline
70
4
71
3
72
22
73
18
40
0
40
0
40
0
40
0
40
0.0894769562355501
40
0.0894769562355501
40
0.180529260611982
40
0.180529260611982
40
0.271581564988415
40
0.271581564988415
40
0.362633869364847
40
0.362633869364847
40
0.45368617374128
40
0.45368617374128
40
0.635790782494187
40
0.635790782494187
40
0.817895391247093
40
0.817895391247093
40
1
40
1
40
1
40
1
41
1
10
191.779286135366
20
0.692596036317525
30
0
41
1
10
191.800324143764
20
0.68690950372573
30
0
41
1
10
191.822278933118
20
0.679917361210698
30
0
41
1
10
191.868722827897
20
0.662255890543548
30
0
41
1
10
191.892978957268
20
0.651564572678524
30
0
41
1
10
191.942834367467
20
0.625280920271678
30
0
41
1
10
191.968007078495
20
0.609838933218811
30
0
41
1
10
192.016350050622
20
0.574814611702891
30
0
41
1
10
192.038532258823
20
0.555951622577453
30
0
41
1
10
192.077941548777
20
0.517532037712812
30
0
41
1
10
192.094692863495
20
0.498561954714177
30
0
41
1
10
192.139140548261
20
0.442127665054471
30
0
41
1
10
192.159675491993
20
0.407267919981763
30
0
41
1
10
192.19261388994
20
0.340395112020246
30
0
41
1
10
192.204420000671
20
0.309090836547909
30
0
41
1
10
192.222838711928
20
0.249073084516596
30
0
41
1
10
192.229375690306
20
0.220349956394301
30
0
41
1
10
192.234122725115
20
0.192497208446952
30
0
0
SPLINE
5
25D
100
AcDbEntity
8
1
62
256
6
ByLayer
370
-1
48
1
60
0
100
AcDbSpline
70
4
71
3
72
10
73
6
40
0
40
0
40
0
40
0
40
0.5
40
0.5
40
1
40
1
40
1
40
1
41
1
10
192.309116394523
20
-9.40182966871836
30
0
41
1
10
192.311237310285
20
-9.34029576442836
30
0
41
1
10
192.306348190819
20
-9.27970721022234
30
0
41
1
10
192.283070160783
20
-9.16035063883106
30
0
41
1
10
192.26443145426
20
-9.1012377158367
30
0
41
1
10
192.239256729067
20
-9.04502826892249
30
0
0
SPLINE
5
25E
100
AcDbEntity
8
1
62
256
6
ByLayer
370
-1
48
1
60
0
100
AcDbSpline
70
4
71
3
72
10
73
6
40
0
40
0
40
0
40
0
40
0.310983025413771
40
0.310983025413771
40
1
40
1
40
1
40
1
41
1
10
192.243054424833
20
-11.3264675509873
30
0
41
1
10
192.249878948477
20
-11.1269568431861
30
0
41
1
10
192.25670929086
20
-10.9274463335533
30
0
41
1
10
192.278696098975
20
-10.2858992151112
30
0
41
1
10
192.293880620664
20
-9.84386356128906
30
0
41
1
10
192.309116394523
20
-9.40182966871836
30
0
0
SPLINE
5
25F
100
AcDbEntity
8
1
62
256
6
ByLayer
370
-1
48
1
60
0
100
AcDbSpline
70
4
71
3
72
8
73
4
40
0
40
0
40
0
40
0
40
1
40
1
40
1
40
1
41
1
10
192.285440625196
20
-9.02922822464691
30
0
41
1
10
192.185964297948
20
-8.80614385632066
30
0
41
1
10
192.105128898868
20
-8.57782010272194
30
0
41
1
10
192.042470287746
20
-8.34438676674685
30
0
0
SPLINE
5
260
100
AcDbEntity
8
1
62
256
6
ByLayer
370
-1
48
1
60
0
100
AcDbSpline
70
4
71
3
72
10
73
6
40
0
40
0
40
0
40
0
40
0.411501615198251
40
0.411501615198251
40
1
40
1
40
1
40
1
41
1
10
192.216915874657
20
-11.5827854214797
30
0
41
1
10
192.235512738223
20
-11.5517953334376
30
0
41
1
10
192.250956257636
20
-11.5188051559217
30
0
41
1
10
192.279510132679
20
-11.4363612202586
30
0
41
1
10
192.289245459114
20
-11.384732748446
30
0
41
1
10
192.291078224377
20
-11.3327058677396
30
0
0
SPLINE
5
261
100
AcDbEntity
8
1
62
256
6
ByLayer
370
-1
48
1
60
0
100
AcDbSpline
70
4
71
3
72
8
73
4
40
0
40
0
40
0
40
0
40
1
40
1
40
1
40
1
41
1
10
192.215718926971
20
-11.4691912012305
30
0
41
1
10
192.232012053792
20
-11.4235339281709
30
0
41
1
10
192.241383652155
20
-11.3753115519618
30
0
41
1
10
192.243054424833
20
-11.3264675509873
30
0
0
SPLINE
5
262
100
AcDbEntity
8
1
62
256
6
ByLayer
370
-1
48
1
60
0
100
AcDbSpline
70
4
71
3
72
10
73
6
40
0
40
0
40
0
40
0
40
0.5
40
0.5
40
1
40
1
40
1
40
1
41
1
10
192.969495258926
20
-2.01986643843958
30
0
41
1
10
192.978776594975
20
-2.0419618209325
30
0
41
1
10
192.986715793809
20
-2.0666937562572
30
0
41
1
10
192.99691305306
20
-2.11670894440047
30
0
41
1
10
192.999127687973
20
-2.14179669893599
30
0
41
1
10
192.99896371591
20
-2.16443837227948
30
0
0
SPLINE
5
263
100
AcDbEntity
8
1
62
256
6
ByLayer
370
-1
48
1
60
0
100
AcDbSpline
70
4
71
3
72
8
73
4
40
0
40
0
40
0
40
0
40
1
40
1
40
1
40
1
41
1
10
193.219159193423
20
-2.09445113340908
30
0
41
1
10
193.236197611057
20
-2.14117648605981
30
0
41
1
10
193.246020430052
20
-2.18936713067268
30
0
41
1
10
193.248627650407
20
-2.23902306724887
30
0
0
SPLINE
5
264
100
AcDbEntity
8
1
62
256
6
ByLayer
370
-1
48
1
60
0
100
AcDbSpline
70
4
71
3
72
26
73
22
40
0
40
0
40
0
40
0
40
0.125000000000017
40
0.125000000000017
40
0.250000000000033
40
0.250000000000033
40
0.375000000000051
40
0.375000000000051
40
0.437500000000058
40
0.437500000000058
40
0.500000000000065
40
0.500000000000065
40
0.562500000000072
40
0.562500000000072
40
0.625000000000079
40
0.625000000000079
40
0.750000000000053
40
0.750000000000053
40
0.875000000000027
40
0.875000000000027
40
1
40
1
40
1
40
1
41
1
10
193.733036543499
20
-12.3723238178349
30
0
41
1
10
193.738081825135
20
-12.4061794606994
30
0
41
1
10
193.741675098876
20
-12.4412763332906
30
0
41
1
10
193.744547880058
20
-12.5151273276679
30
0
41
1
10
193.743907802399
20
-12.5538141391353
30
0
41
1
10
193.735083241764
20
-12.6375437799232
30
0
41
1
10
193.727064744669
20
-12.6824200935747
30
0
41
1
10
193.703305289628
20
-12.7555710297983
30
0
41
1
10
193.693451501215
20
-12.7806378253522
30
0
41
1
10
193.668345469428
20
-12.8316246935912
30
0
41
1
10
193.653224118104
20
-12.8570992925365
30
0
41
1
10
193.618138496138
20
-12.905356236582
30
0
41
1
10
193.59889526607
20
-12.9271527220546
30
0
41
1
10
193.559180930843
20
-12.965267830616
30
0
41
1
10
193.539327425263
20
-12.9811415089648
30
0
41
1
10
193.479778410688
20
-13.0225026358394
30
0
41
1
10
193.442369271321
20
-13.0405196590538
30
0
41
1
10
193.370018194947
20
-13.0680533011774
30
0
41
1
10
193.335820763686
20
-13.0770080204466
30
0
41
1
10
193.269868957876
20
-13.0895813367279
30
0
41
1
10
193.23809689718
20
-13.0931164510481
30
0
41
1
10
193.207139996544
20
-13.0948082198514
30
0
0
SPLINE
5
265
100
AcDbEntity
8
1
62
256
6
ByLayer
370
-1
48
1
60
0
100
AcDbSpline
70
4
71
3
72
18
73
14
40
0
40
0
40
0
40
0
40
0.125000000000001
40
0.125000000000001
40
0.250000000000002
40
0.250000000000002
40
0.375000000000004
40
0.375000000000004
40
0.500000000000005
40
0.500000000000005
40
0.750000000000002
40
0.750000000000002
40
1
40
1
40
1
40
1
41
1
10
193.674486205877
20
-11.5230504942733
30
0
41
1
10
193.672848913085
20
-11.5698489736234
30
0
41
1
10
193.672205476524
20
-11.6170328635365
30
0
41
1
10
193.672653089567
20
-11.7077653312786
30
0
41
1
10
193.673724768985
20
-11.751527324175
30
0
41
1
10
193.676931319611
20
-11.8336726417749
30
0
41
1
10
193.679087620539
20
-11.8728765377566
30
0
41
1
10
193.684074793588
20
-11.9474892683229
30
0
41
1
10
193.686882214031
20
-11.9826298115563
30
0
41
1
10
193.695926663941
20
-12.0837576104449
30
0
41
1
10
193.702772247768
20
-12.1455451274126
30
0
41
1
10
193.717331534239
20
-12.2631291235264
30
0
41
1
10
193.72507566369
20
-12.3189034692562
30
0
41
1
10
193.733036543499
20
-12.372323817835
30
0
0
SPLINE
5
266
100
AcDbEntity
8
1
62
256
6
ByLayer
370
-1
48
1
60
0
100
AcDbSpline
70
4
71
3
72
10
73
6
40
0
40
0
40
0
40
0
40
0.414631168620573
40
0.414631168620573
40
1
40
1
40
1
40
1
41
1
10
192.291078224377
20
-11.3327058677396
30
0
41
1
10
192.30051718826
20
-11.0667205184946
30
0
41
1
10
192.309948528799
20
-10.8007338521557
30
0
41
1
10
192.33267232567
20
-10.1592281866698
30
0
41
1
10
192.345955478025
20
-9.78370761143967
30
0
41
1
10
192.359214855558
20
-9.40818311379169
30
0
0
SPLINE
5
267
100
AcDbEntity
8
SK1
62
256
6
ByLayer
370
-1
48
1
60
0
100
AcDbSpline
70
4
71
3
72
8
73
4
40
0
40
0
40
0
40
0
40
1
40
1
40
1
40
1
41
1
10
-66.6
20
-9.10261500888609
30
0
41
1
10
-66.9484012097206
20
-8.83881772536392
30
0
41
1
10
-67.2932836983816
20
-8.56864972916986
30
0
41
1
10
-67.6338144512153
20
-8.2906028309236
30
0
0
SPLINE
5
268
100
AcDbEntity
8
SK1
62
256
6
ByLayer
370
-1
48
1
60
0
100
AcDbSpline
70
4
71
3
72
8
73
4
40
0
40
0
40
0
40
0
40
1
40
1
40
1
40
1
41
1
10
-70
20
6.62311105146222
30
0
41
1
10
-69.7055026821388
20
7.46777015601646
30
0
41
1
10
-69.3687115489839
20
8.29265478028327
30
0
41
1
10
-69
20
9.10261500888626
30
0
0
SPLINE
5
269
100
AcDbEntity
8
SK1
62
256
6
ByLayer
370
-1
48
1
60
0
100
AcDbSpline
70
4
71
3
72
20
73
16
40
0
40
0
40
0
40
0
40
0.249999999999997
40
0.249999999999997
40
0.374999999999998
40
0.374999999999998
40
0.499999999999998
40
0.499999999999998
40
0.624999999999999
40
0.624999999999999
40
0.749999999999999
40
0.749999999999999
40
0.875
40
0.875
40
1
40
1
40
1
40
1
41
1
10
-68.5162227297303
20
8.87304222606696
30
0
41
1
10
-68.4805102229812
20
8.77417123253394
30
0
41
1
10
-68.4382573152345
20
8.67693148618665
30
0
41
1
10
-68.3621710721186
20
8.53985159931514
30
0
41
1
10
-68.3346894685715
20
8.49562896904695
30
0
41
1
10
-68.2739659602408
20
8.41118058772861
30
0
41
1
10
-68.2407881315988
20
8.37091037639976
30
0
41
1
10
-68.1654488761744
20
8.29660337023134
30
0
41
1
10
-68.123541484252
20
8.2629600402953
30
0
41
1
10
-68.0305243323762
20
8.21104725205689
30
0
41
1
10
-67.9795833203366
20
8.19319188549028
30
0
41
1
10
-67.872813969243
20
8.18306085753042
30
0
41
1
10
-67.8196144054522
20
8.19122791676685
30
0
41
1
10
-67.7199392264586
20
8.22879859450236
30
0
41
1
10
-67.6749143258214
20
8.2570443562262
30
0
41
1
10
-67.6338144512151
20
8.29060283092346
30
0
0
SPLINE
5
26A
100
AcDbEntity
8
SK1
62
256
6
ByLayer
370
-1
48
1
60
0
100
AcDbSpline
70
4
71
3
72
8
73
4
40
0
40
0
40
0
40
0
40
1
40
1
40
1
40
1
41
1
10
-67.6338144512152
20
8.29060283092377
30
0
41
1
10
-67.2932836983815
20
8.56864972917003
30
0
41
1
10
-66.9484012097206
20
8.83881772536409
30
0
41
1
10
-66.6
20
9.10261500888626
30
0
0
SPLINE
5
26B
100
AcDbEntity
8
SK1
62
256
6
ByLayer
370
-1
48
1
60
0
100
AcDbSpline
70
4
71
3
72
8
73
4
40
0
40
0
40
0
40
0
40
1
40
1
40
1
40
1
41
1
10
-68.6
20
9.10261500888626
30
0
41
1
10
-68.571834450002
20
9.02620926996562
30
0
41
1
10
-68.5439066952102
20
8.94968599658984
30
0
41
1
10
-68.516222729729
20
8.87304222606744
30
0
0
SPLINE
5
26C
100
AcDbEntity
8
SK1
62
256
6
ByLayer
370
-1
48
1
60
0
100
AcDbSpline
70
4
71
3
72
20
73
16
40
0
40
0
40
0
40
0
40
0.125000000000019
40
0.125000000000019
40
0.187500000000028
40
0.187500000000028
40
0.250000000000038
40
0.250000000000038
40
0.375000000000024
40
0.375000000000024
40
0.50000000000001
40
0.50000000000001
40
0.750000000000005
40
0.750000000000005
40
1
40
1
40
1
40
1
41
1
10
-67.6338144512151
20
-8.29060283092329
30
0
41
1
10
-67.6746000935235
20
-8.25730093016261
30
0
41
1
10
-67.7199836490945
20
-8.22876323292448
30
0
41
1
10
-67.7948550962205
20
-8.20056981372309
30
0
41
1
10
-67.8205420829085
20
-8.19379354056497
30
0
41
1
10
-67.8728129362724
20
-8.18630243082055
30
0
41
1
10
-67.8998340844743
20
-8.1856286499503
30
0
41
1
10
-67.9787783127119
20
-8.19310764466417
30
0
41
1
10
-68.0301252704948
20
-8.21095104743222
30
0
41
1
10
-68.1222359195847
20
-8.26210721442101
30
0
41
1
10
-68.1643255549633
20
-8.29567338223035
30
0
41
1
10
-68.2768770736766
20
-8.40615789436035
30
0
41
1
10
-68.3371994967397
20
-8.49473748926303
30
0
41
1
10
-68.4387470357031
20
-8.67793923211124
30
0
41
1
10
-68.4804562077026
20
-8.77402168984949
30
0
41
1
10
-68.5162227297291
20
-8.87304222606727
30
0
0
SPLINE
5
26D
100
AcDbEntity
8
SK1
62
256
6
ByLayer
370
-1
48
1
60
0
100
AcDbSpline
70
4
71
3
72
8
73
4
40
0
40
0
40
0
40
0
40
1
40
1
40
1
40
1
41
1
10
-68.5162227297291
20
-8.87304222606727
30
0
41
1
10
-68.5439066952102
20
-8.94968599658964
30
0
41
1
10
-68.571834450002
20
-9.02620926996545
30
0
41
1
10
-68.6
20
-9.10261500888612
30
0
0
SPLINE
5
26E
100
AcDbEntity
8
SK1
62
256
6
ByLayer
370
-1
48
1
60
0
100
AcDbSpline
70
4
71
3
72
8
73
4
40
0
40
0
40
0
40
0
40
1
40
1
40
1
40
1
41
1
10
-69
20
-9.10261500888609
30
0
41
1
10
-69.3687115489839
20
-8.2926547802831
30
0
41
1
10
-69.7055026821388
20
-7.46777015601629
30
0
41
1
10
-70
20
-6.62311105146205
30
0
0
SPLINE
5
26F
100
AcDbEntity
8
SK1
62
256
6
ByLayer
370
-1
48
1
60
0
100
AcDbSpline
70
4
71
3
72
72
73
68
40
0
40
0
40
0
40
0
40
0.0156250000000003
40
0.0156250000000003
40
0.0312500000000005
40
0.0312500000000005
40
0.0468750000000008
40
0.0468750000000008
40
0.062500000000001
40
0.062500000000001
40
0.0937500000000014
40
0.0937500000000014
40
0.109375000000002
40
0.109375000000002
40
0.125000000000002
40
0.125000000000002
40
0.156250000000002
40
0.156250000000002
40
0.187500000000002
40
0.187500000000002
40
0.218750000000001
40
0.218750000000001
40
0.250000000000001
40
0.250000000000001
40
0.312500000000001
40
0.312500000000001
40
0.375000000000002
40
0.375000000000002
40
0.406250000000002
40
0.406250000000002
40
0.437500000000002
40
0.437500000000002
40
0.500000000000002
40
0.500000000000002
40
0.562500000000002
40
0.562500000000002
40
0.625000000000002
40
0.625000000000002
40
0.687500000000002
40
0.687500000000002
40
0.718750000000002
40
0.718750000000002
40
0.750000000000002
40
0.750000000000002
40
0.812500000000002
40
0.812500000000002
40
0.843750000000001
40
0.843750000000001
40
0.859375000000001
40
0.859375000000001
40
0.875000000000001
40
0.875000000000001
40
0.906250000000001
40
0.906250000000001
40
0.921875000000001
40
0.921875000000001
40
0.937500000000001
40
0.937500000000001
40
0.953125000000001
40
0.953125000000001
40
0.96875
40
0.96875
40
0.9765625
40
0.9765625
40
0.984375
40
0.984375
40
1
40
1
40
1
40
1
41
1
10
-6.5
20
-9.10261500888618
30
0
41
1
10
-6.38914660019725
20
-9.10261500888618
30
0
41
1
10
-6.27612961385466
20
-9.09015098385046
30
0
41
1
10
-6.05985917895461
20
-9.04281130004992
30
0
41
1
10
-5.95475985097423
20
-9.00792576349431
30
0
41
1
10
-5.75343258145492
20
-8.91941414226187
30
0
41
1
10
-5.65919810333844
20
-8.86684398682266
30
0
41
1
10
-5.48088894318994
20
-8.74834825662376
30
0
41
1
10
-5.39640443529882
20
-8.68198569080923
30
0
41
1
10
-5.15892238475899
20
-8.4684605676342
30
0
41
1
10
-5.02365441240056
20
-8.30974008062717
30
0
41
1
10
-4.84296399719619
20
-8.05482884459988
30
0
41
1
10
-4.78642322072847
20
-7.96675301550394
30
0
41
1
10
-4.68042079967142
20
-7.78654390286022
30
0
41
1
10
-4.63122526195846
20
-7.69491452027412
30
0
41
1
10
-4.49299887645103
20
-7.41608134345648
30
0
41
1
10
-4.41323038468988
20
-7.22496300624556
30
0
41
1
10
-4.27152687943763
20
-6.8343560263894
30
0
41
1
10
-4.20965906429049
20
-6.6348461887967
30
0
41
1
10
-4.09961007502051
20
-6.2286775881141
30
0
41
1
10
-4.05150917072524
20
-6.02203194443632
30
0
41
1
10
-3.96692144189856
20
-5.6074574550413
30
0
41
1
10
-3.93025488815388
20
-5.39884469275898
30
0
41
1
10
-3.83321097175369
20
-4.76942146087168
30
0
41
1
10
-3.78559277520367
20
-4.34504706257979
30
0
41
1
10
-3.7112361899147
20
-3.48808137992401
30
0
41
1
10
-3.68460707386046
20
-3.05547999795235
30
0
41
1
10
-3.65470782442822
20
-2.40091890566339
30
0
41
1
10
-3.64643900603767
20
-2.18145148399697
30
0
41
1
10
-3.63274891948819
20
-1.74230735687166
30
0
41
1
10
-3.62733252136272
20
-1.52296705685933
30
0
41
1
10
-3.61463310465442
20
-0.865617065631682
30
0
41
1
10
-3.61080933488054
20
-0.428275684574771
30
0
41
1
10
-3.61090950897167
20
0.444684991040077
30
0
41
1
10
-3.61483745040269
20
0.88030412472645
30
0
41
1
10
-3.63179619285316
20
1.74979970758309
30
0
41
1
10
-3.64481102904037
20
2.18367646184913
30
0
41
1
10
-3.68431141261161
20
3.04958358359085
30
0
41
1
10
-3.71074384326306
20
3.48161507013518
30
0
41
1
10
-3.76673696017031
20
4.12812283873399
30
0
41
1
10
-3.78821526595235
20
4.34375014492497
30
0
41
1
10
-3.83787895821774
20
4.77101649951717
30
0
41
1
10
-3.86607610819138
20
4.9829568382882
30
0
41
1
10
-3.96342969061479
20
5.61325776204001
30
0
41
1
10
-4.04484226281082
20
6.02618785295124
30
0
41
1
10
-4.20877761048993
20
6.63176810724454
30
0
41
1
10
-4.27047938114893
20
6.83131020667685
30
0
41
1
10
-4.37747378301123
20
7.1264778598424
30
0
41
1
10
-4.41562361112287
20
7.22427655673613
30
0
41
1
10
-4.49679279030673
20
7.41629459142595
30
0
41
1
10
-4.5398877733324
20
7.51074836914336
30
0
41
1
10
-4.67791145216944
20
7.78892537172752
30
0
41
1
10
-4.78135481362554
20
7.96756739375849
30
0
41
1
10
-4.96130737226687
20
8.22195198147358
30
0
41
1
10
-5.02546297402537
20
8.30446540137604
30
0
41
1
10
-5.16438164479459
20
8.46391044858186
30
0
41
1
10
-5.23841496286948
20
8.53994273964545
30
0
41
1
10
-5.39629023089529
20
8.68187427767452
30
0
41
1
10
-5.4804954947721
20
8.74813957968226
30
0
41
1
10
-5.66096910628903
20
8.86796771603022
30
0
41
1
10
-5.75541196182655
20
8.92033547523616
30
0
41
1
10
-5.90448373735469
20
8.98579651940287
30
0
41
1
10
-5.95541416893875
20
9.00542573092372
30
0
41
1
10
-6.06002939197239
20
9.03984379515771
30
0
41
1
10
-6.1141052041134
20
9.05470732343474
30
0
41
1
10
-6.277583542549
20
9.09042477028081
30
0
41
1
10
-6.38802552881097
20
9.10261500888618
30
0
41
1
10
-6.5
20
9.10261500888618
30
0
0
LINE
5
45
100
AcDbEntity
8
80
62
256
6
ByLayer
370
-1
48
1
60
0
100
AcDbLine
10
0
20
0
30
0
11
-7
21
0
31
0
39
0
210
0
220
0
230
1
0
LINE
5
46
100
AcDbEntity
8
81
62
256
6
ByLayer
370
-1
48
1
60
0
100
AcDbLine
10
194
20
0
30
0
11
201
21
0
31
0
39
0
210
0
220
0
230
1
0
LINE
5
47
100
AcDbEntity
8
SK1
62
256
6
ByLayer
370
-1
48
1
60
0
100
AcDbLine
10
-2
20
19.996
30
0
11
-66.6
21
19.996
31
0
39
0
210
0
220
0
230
1
0
LINE
5
49
100
AcDbEntity
8
SK1
62
256
6
ByLayer
370
-1
48
1
60
0
100
AcDbLine
10
-66.6
20
-19.996
30
0
11
-2
21
-19.996
31
0
39
0
210
0
220
0
230
1
0
LINE
5
4A
100
AcDbEntity
8
SK1
62
256
6
ByLayer
370
-1
48
1
60
0
100
AcDbLine
10
-2
20
-19.996
30
0
11
-1.552821
21
-19.787477
31
0
39
0
210
0
220
0
230
1
0
LINE
5
4B
100
AcDbEntity
8
SK1
62
256
6
ByLayer
370
-1
48
1
60
0
100
AcDbLine
10
-1.552821
20
19.787477
30
0
11
-2
21
19.996
31
0
39
0
210
0
220
0
230
1
0
LINE
5
4C
100
AcDbEntity
8
SK1
62
256
6
ByLayer
370
-1
48
1
60
0
100
AcDbLine
10
-0.15
20
19.75
30
0
11
-1.383773
21
19.75
31
0
39
0
210
0
220
0
230
1
0
LINE
5
4D
100
AcDbEntity
8
SK1
62
256
6
ByLayer
370
-1
48
1
60
0
100
AcDbLine
10
-1.383773
20
-19.75
30
0
11
-0.15
21
-19.75
31
0
39
0
210
0
220
0
230
1
0
LINE
5
4E
100
AcDbEntity
8
SK1
62
256
6
ByLayer
370
-1
48
1
60
0
100
AcDbLine
10
-69
20
19.996
30
0
11
-70
21
18.996
31
0
39
0
210
0
220
0
230
1
0
LINE
5
4F
100
AcDbEntity
8
SK1
62
256
6
ByLayer
370
-1
48
1
60
0
100
AcDbLine
10
-70
20
-18.996
30
0
11
-69
21
-19.996
31
0
39
0
210
0
220
0
230
1
0
LINE
5
50
100
AcDbEntity
8
SK1
62
256
6
ByLayer
370
-1
48
1
60
0
100
AcDbLine
10
-68.6
20
-19.996
30
0
11
-68.516223
21
-19.892544
31
0
39
0
210
0
220
0
230
1
0
LINE
5
51
100
AcDbEntity
8
SK1
62
256
6
ByLayer
370
-1
48
1
60
0
100
AcDbLine
10
-68.516223
20
19.892544
30
0
11
-68.6
21
19.996
31
0
39
0
210
0
220
0
230
1
0
LINE
5
52
100
AcDbEntity
8
SK1
62
256
6
ByLayer
370
-1
48
1
60
0
100
AcDbLine
10
-66.6
20
19.996
30
0
11
-67.633814
21
19.639667
31
0
39
0
210
0
220
0
230
1
0
LINE
5
53
100
AcDbEntity
8
SK1
62
256
6
ByLayer
370
-1
48
1
60
0
100
AcDbLine
10
-67.633814
20
-19.639667
30
0
11
-66.6
21
-19.996
31
0
39
0
210
0
220
0
230
1
0
LINE
5
54
100
AcDbEntity
8
SK1
62
256
6
ByLayer
370
-1
48
1
60
0
100
AcDbLine
10
-68.6
20
19.996
30
0
11
-69
21
19.996
31
0
39
0
210
0
220
0
230
1
0
LINE
5
55
100
AcDbEntity
8
SK1
62
256
6
ByLayer
370
-1
48
1
60
0
100
AcDbLine
10
-69
20
-19.996
30
0
11
-68.6
21
-19.996
31
0
39
0
210
0
220
0
230
1
0
LINE
5
56
100
AcDbEntity
8
1
62
256
6
ByLayer
370
-1
48
1
60
0
100
AcDbLine
10
5
20
31.25
30
0
11
0.2
21
31.25
31
0
39
0
210
0
220
0
230
1
0
LINE
5
58
100
AcDbEntity
8
1
62
256
6
ByLayer
370
-1
48
1
60
0
100
AcDbLine
10
0.2
20
-31.25
30
0
11
5
21
-31.25
31
0
39
0
210
0
220
0
230
1
0
LINE
5
59
100
AcDbEntity
8
1
62
256
6
ByLayer
370
-1
48
1
60
0
100
AcDbLine
10
0.2
20
31.25
30
0
11
0
21
31.05
31
0
39
0
210
0
220
0
230
1
0
LINE
5
5A
100
AcDbEntity
8
1
62
256
6
ByLayer
370
-1
48
1
60
0
100
AcDbLine
10
0
20
-31.05
30
0
11
0.2
21
-31.25
31
0
39
0
210
0
220
0
230
1
0
LINE
5
5B
100
AcDbEntity
8
1
62
256
6
ByLayer
370
-1
48
1
60
0
100
AcDbLine
10
97.27192
20
24.8
30
0
11
36
21
24.8
31
0
39
0
210
0
220
0
230
1
0
LINE
5
5C
100
AcDbEntity
8
1
62
256
6
ByLayer
370
-1
48
1
60
0
100
AcDbLine
10
36
20
-24.8
30
0
11
83.953712
21
-24.8
31
0
39
0
210
0
220
0
230
1
0
LINE
5
5D
100
AcDbEntity
8
SK4
62
256
6
ByLayer
370
-1
48
0.05
60
0
100
AcDbLine
10
194
20
0
30
0
11
-70
21
0
31
0
39
0
210
0
220
0
230
1
0
LINE
5
5F
100
AcDbEntity
8
4
62
256
6
ByLayer
370
-1
48
0.05
60
0
100
AcDbLine
10
194
20
0
30
0
11
0
21
0
31
0
39
0
210
0
220
0
230
1
0
LINE
5
61
100
AcDbEntity
8
1
62
256
6
ByLayer
370
-1
48
1
60
0
100
AcDbLine
10
174.656084
20
-24.771697
30
0
11
191.778259
21
-24.771697
31
0
39
0
210
0
220
0
230
1
0
LINE
5
62
100
AcDbEntity
8
1
62
256
6
ByLayer
370
-1
48
1
60
0
100
AcDbLine
10
192.232352
20
-13.760177
30
0
11
192.749407
21
-13.822635
31
0
39
0
210
0
220
0
230
1
0
LINE
5
63
100
AcDbEntity
8
1
62
256
6
ByLayer
370
-1
48
1
60
0
100
AcDbLine
10
189.195404
20
4.02999
30
0
11
191.80562
21
9.805821
31
0
39
0
210
0
220
0
230
1
0
LINE
5
64
100
AcDbEntity
8
1
62
256
6
ByLayer
370
-1
48
1
60
0
100
AcDbLine
10
180.689937
20
9.46536
30
0
11
191.254187
21
9.835681
31
0
39
0
210
0
220
0
230
1
0
LINE
5
65
100
AcDbEntity
8
1
62
256
6
ByLayer
370
-1
48
1
60
0
100
AcDbLine
10
171.936585
20
14.9
30
0
11
173.903974
21
14.9
31
0
39
0
210
0
220
0
230
1
0
LINE
5
66
100
AcDbEntity
8
1
62
256
6
ByLayer
370
-1
48
1
60
0
100
AcDbLine
10
177.815364
20
17.160943
30
0
11
177.83066
21
17.160943
31
0
39
0
210
0
220
0
230
1
0
LINE
5
67
100
AcDbEntity
8
1
62
256
6
ByLayer
370
-1
48
1
60
0
100
AcDbLine
10
191.731875
20
0.772823
30
0
11
191.743899
21
0.772404
31
0
39
0
210
0
220
0
230
1
0
LINE
5
68
100
AcDbEntity
8
1
62
256
6
ByLayer
370
-1
48
1
60
0
100
AcDbLine
10
0.2
20
31.25
30
0
11
0.2
21
-31.25
31
0
39
0
210
0
220
0
230
1
0
LINE
5
69
100
AcDbEntity
8
1
62
256
6
ByLayer
370
-1
48
1
60
0
100
AcDbLine
10
191.636663
20
-0.538588
30
0
11
192.256321
21
-12.340308
31
0
39
0
210
0
220
0
230
1
0
LINE
5
6A
100
AcDbEntity
8
1
62
256
6
ByLayer
370
-1
48
1
60
0
100
AcDbLine
10
178.127545
20
9.634868
30
0
11
178.17565
21
9.634868
31
0
39
0
210
0
220
0
230
1
0
LINE
5
6B
100
AcDbEntity
8
1
62
256
6
ByLayer
370
-1
48
1
60
0
100
AcDbLine
10
177.23015
20
3.305537
30
0
11
178.921811
21
9.125205
31
0
39
0
210
0
220
0
230
1
0
LINE
5
6C
100
AcDbEntity
8
1
62
256
6
ByLayer
370
-1
48
1
60
0
100
AcDbLine
10
191.801344
20
0.741784
30
0
11
192.540712
21
10.09495
31
0
39
0
210
0
220
0
230
1
0
LINE
5
6D
100
AcDbEntity
8
1
62
256
6
ByLayer
370
-1
48
1
60
0
100
AcDbLine
10
192.256321
20
-12.340308
30
0
11
192.209344
21
-12.869943
31
0
39
0
210
0
220
0
230
1
0
LINE
5
6E
100
AcDbEntity
8
1
62
256
6
ByLayer
370
-1
48
1
60
0
100
AcDbLine
10
191.640472
20
0.025853
30
0
11
191.636663
21
-0.538588
31
0
39
0
210
0
220
0
230
1
0
LINE
5
6F
100
AcDbEntity
8
1
62
256
6
ByLayer
370
-1
48
1
60
0
100
AcDbLine
10
171.82398
20
14.801142
30
0
11
147.617507
21
18.572464
31
0
39
0
210
0
220
0
230
1
0
LINE
5
70
100
AcDbEntity
8
1
62
256
6
ByLayer
370
-1
48
1
60
0
100
AcDbLine
10
173.903974
20
24.786031
30
0
11
173.903974
21
14.9
31
0
39
0
210
0
220
0
230
1
0
LINE
5
71
100
AcDbEntity
8
1
62
256
6
ByLayer
370
-1
48
1
60
0
100
AcDbLine
10
191.636663
20
-0.538588
30
0
11
189.158362
21
0.565675
31
0
39
0
210
0
220
0
230
1
0
LINE
5
72
100
AcDbEntity
8
1
62
256
6
ByLayer
370
-1
48
1
60
0
100
AcDbLine
10
177.587377
20
24.790506
30
0
11
177.83066
21
17.160943
31
0
39
0
210
0
220
0
230
1
0
LINE
5
73
100
AcDbEntity
8
1
62
256
6
ByLayer
370
-1
48
1
60
0
100
AcDbLine
10
191.778259
20
-24.771697
30
0
11
192.749407
21
-13.822635
31
0
39
0
210
0
220
0
230
1
0
LINE
5
74
100
AcDbEntity
8
1
62
256
6
ByLayer
370
-1
48
1
60
0
100
AcDbLine
10
177.578098
20
11.100493
30
0
11
177.935437
21
11.100493
31
0
39
0
210
0
220
0
230
1
0
LINE
5
75
100
AcDbEntity
8
1
62
256
6
ByLayer
370
-1
48
1
60
0
100
AcDbLine
10
177.412956
20
15.8476
30
0
11
177.770295
21
15.8476
31
0
39
0
210
0
220
0
230
1
0
LINE
5
76
100
AcDbEntity
8
1
62
256
6
ByLayer
370
-1
48
1
60
0
100
AcDbLine
10
168.717972
20
6.089455
30
0
11
168.390315
21
4.962249
31
0
39
0
210
0
220
0
230
1
0
LINE
5
77
100
AcDbEntity
8
1
62
256
6
ByLayer
370
-1
48
1
60
0
100
AcDbLine
10
191.778178
20
0.679636
30
0
11
191.801344
21
0.741784
31
0
39
0
210
0
220
0
230
1
0
LINE
5
78
100
AcDbEntity
8
1
62
256
6
ByLayer
370
-1
48
1
60
0
100
AcDbLine
10
177.815364
20
17.160943
30
0
11
177.571947
21
24.794728
31
0
39
0
210
0
220
0
230
1
0
LINE
5
79
100
AcDbEntity
8
1
62
256
6
ByLayer
370
-1
48
1
60
0
100
AcDbLine
10
191.254187
20
9.835681
30
0
11
191.464917
21
9.835681
31
0
39
0
210
0
220
0
230
1
0
LINE
5
7A
100
AcDbEntity
8
1
62
256
6
ByLayer
370
-1
48
1
60
0
100
AcDbLine
10
191.80562
20
9.805821
30
0
11
191.254187
21
9.835681
31
0
39
0
210
0
220
0
230
1
0
LINE
5
7B
100
AcDbEntity
8
1
62
256
6
ByLayer
370
-1
48
1
60
0
100
AcDbLine
10
191.691982
20
0.682641
30
0
11
191.778178
21
0.679636
31
0
39
0
210
0
220
0
230
1
0
LINE
5
7C
100
AcDbEntity
8
1
62
256
6
ByLayer
370
-1
48
1
60
0
100
AcDbLine
10
177.412956
20
15.8476
30
0
11
177.578098
21
11.100493
31
0
39
0
210
0
220
0
230
1
0
LINE
5
7D
100
AcDbEntity
8
1
62
256
6
ByLayer
370
-1
48
1
60
0
100
AcDbLine
10
192.256321
20
-12.340308
30
0
11
190.208457
21
-11.427836
31
0
39
0
210
0
220
0
230
1
0
LINE
5
7E
100
AcDbEntity
8
1
62
256
6
ByLayer
370
-1
48
1
60
0
100
AcDbLine
10
192.123134
20
9.801058
30
0
11
191.80562
21
9.805821
31
0
39
0
210
0
220
0
230
1
0
LINE
5
7F
100
AcDbEntity
8
1
62
256
6
ByLayer
370
-1
48
1
60
0
100
AcDbLine
10
177.770295
20
15.8476
30
0
11
177.935437
21
11.100493
31
0
39
0
210
0
220
0
230
1
0
LINE
5
80
100
AcDbEntity
8
1
62
256
6
ByLayer
370
-1
48
1
60
0
100
AcDbLine
10
178.03604
20
17.357547
30
0
11
178.06539
21
17.357547
31
0
39
0
210
0
220
0
230
1
0
LINE
5
81
100
AcDbEntity
8
1
62
256
6
ByLayer
370
-1
48
1
60
0
100
AcDbLine
10
191.743899
20
0.772404
30
0
11
191.801344
21
0.741784
31
0
39
0
210
0
220
0
230
1
0
LINE
5
82
100
AcDbEntity
8
1
62
256
6
ByLayer
370
-1
48
1
60
0
100
AcDbLine
10
36
20
24.8
30
0
11
36
21
14.44748
31
0
39
0
210
0
220
0
230
1
0
LINE
5
83
100
AcDbEntity
8
1
62
256
6
ByLayer
370
-1
48
1
60
0
100
AcDbLine
10
36
20
-24.8
30
0
11
36
21
-17.568904
31
0
39
0
210
0
220
0
230
1
0
LINE
5
84
100
AcDbEntity
8
1
62
256
6
ByLayer
370
-1
48
1
60
0
100
AcDbLine
10
191.464991
20
9.835682
30
0
11
192.123134
21
9.801058
31
0
39
0
210
0
220
0
230
1
0
LINE
5
85
100
AcDbEntity
8
1
62
256
6
ByLayer
370
-1
48
1
60
0
100
AcDbLine
10
171.936585
20
24.757847
30
0
11
171.936585
21
14.9
31
0
39
0
210
0
220
0
230
1
0
LINE
5
86
100
AcDbEntity
8
1
62
256
6
ByLayer
370
-1
48
1
60
0
100
AcDbLine
10
5
20
31.25
30
0
11
5
21
-31.25
31
0
39
0
210
0
220
0
230
1
0
LINE
5
87
100
AcDbEntity
8
1
62
256
6
ByLayer
370
-1
48
1
60
0
100
AcDbLine
10
177.941572
20
24.766839
30
0
11
177.943797
21
24.697049
31
0
39
0
210
0
220
0
230
1
0
LINE
5
88
100
AcDbEntity
8
1
62
256
6
ByLayer
370
-1
48
1
60
0
100
AcDbLine
10
0
20
31.05
30
0
11
0
21
-31.05
31
0
39
0
210
0
220
0
230
1
0
LINE
5
89
100
AcDbEntity
8
1
62
256
6
ByLayer
370
-1
48
1
60
0
100
AcDbLine
10
177.96828
20
22.99246
30
0
11
178.362882
21
11.649374
31
0
39
0
210
0
220
0
230
1
0
LINE
5
8A
100
AcDbEntity
8
1
62
256
6
ByLayer
370
-1
48
1
60
0
100
AcDbLine
10
180.668446
20
21.121847
30
0
11
182.030873
21
19.84651
31
0
39
0
210
0
220
0
230
1
0
LINE
5
8B
100
AcDbEntity
8
1
62
256
6
ByLayer
370
-1
48
1
60
0
100
AcDbLine
10
191.588389
20
11.963629
30
0
11
180.288467
21
11.56752
31
0
39
0
210
0
220
0
230
1
0
LINE
5
8C
100
AcDbEntity
8
1
62
256
6
ByLayer
370
-1
48
1
60
0
100
AcDbLine
10
181.367516
20
22.111028
30
0
11
181.524664
21
21.529078
31
0
39
0
210
0
220
0
230
1
0
LINE
5
8D
100
AcDbEntity
8
1
62
256
6
ByLayer
370
-1
48
1
60
0
100
AcDbLine
10
192.756546
20
12.153574
30
0
11
192.361944
21
23.49666
31
0
39
0
210
0
220
0
230
1
0
LINE
5
8E
100
AcDbEntity
8
1
62
256
6
ByLayer
370
-1
48
1
60
0
100
AcDbLine
10
190.047768
20
22.730743
30
0
11
187.061005
21
22.626044
31
0
39
0
210
0
220
0
230
1
0
LINE
5
8F
100
AcDbEntity
8
1
62
256
6
ByLayer
370
-1
48
1
60
0
100
AcDbLine
10
191.141803
20
25.405436
30
0
11
179.841881
21
25.009326
31
0
39
0
210
0
220
0
230
1
0
LINE
5
90
100
AcDbEntity
8
1
62
256
6
ByLayer
370
-1
48
1
60
0
100
AcDbLine
10
191.732512
20
12.118772
30
0
11
191.33791
21
23.461858
31
0
39
0
210
0
220
0
230
1
0
LINE
5
91
100
AcDbEntity
8
1
62
256
6
ByLayer
370
-1
48
1
60
0
100
AcDbLine
10
179.09713
20
23.03176
30
0
11
179.491732
21
11.688674
31
0
39
0
210
0
220
0
230
1
0
LINE
5
92
100
AcDbEntity
8
1
62
256
6
ByLayer
370
-1
48
1
60
0
100
AcDbLine
10
182.235619
20
21.235483
30
0
11
182.816263
21
20.691955
31
0
39
0
210
0
220
0
230
1
0
LINE
5
93
100
AcDbEntity
8
1
62
256
6
ByLayer
370
-1
48
1
60
0
100
AcDbLine
10
190.860055
20
13.258698
30
0
11
190.755755
21
16.256871
31
0
39
0
210
0
220
0
230
1
0
LINE
5
94
100
AcDbEntity
8
1
62
256
6
ByLayer
370
-1
48
1
60
0
100
AcDbLine
10
191.664707
20
10.613164
30
0
11
180.364785
21
10.217055
31
0
39
0
210
0
220
0
230
1
0
LINE
5
95
100
AcDbEntity
8
1
62
256
6
ByLayer
370
-1
48
1
60
0
100
AcDbLine
10
192.432216
20
12.142292
30
0
11
192.037614
21
23.485378
31
0
39
0
210
0
220
0
230
1
0
LINE
5
96
100
AcDbEntity
8
1
62
256
6
ByLayer
370
-1
48
1
60
0
100
AcDbLine
10
178.793584
20
25.072613
30
0
11
191.139089
21
25.505375
31
0
39
0
210
0
220
0
230
1
0
LINE
5
97
100
AcDbEntity
8
1
62
256
6
ByLayer
370
-1
48
1
60
0
100
AcDbLine
10
182.235619
20
21.235483
30
0
11
182.241562
21
21.213475
31
0
39
0
210
0
220
0
230
1
0
LINE
5
98
100
AcDbEntity
8
1
62
256
6
ByLayer
370
-1
48
1
60
0
100
AcDbLine
10
181.653572
20
14.389014
30
0
11
182.128245
21
14.899983
31
0
39
0
210
0
220
0
230
1
0
LINE
5
99
100
AcDbEntity
8
1
62
256
6
ByLayer
370
-1
48
1
60
0
100
AcDbLine
10
178.300598
20
10.596307
30
0
11
177.869483
21
22.98897
31
0
39
0
210
0
220
0
230
1
0
LINE
5
9A
100
AcDbEntity
8
1
62
256
6
ByLayer
370
-1
48
1
60
0
100
AcDbLine
10
182.320033
20
14.209074
30
0
11
182.45476
21
14.354102
31
0
39
0
210
0
220
0
230
1
0
LINE
5
9B
100
AcDbEntity
8
1
62
256
6
ByLayer
370
-1
48
1
60
0
100
AcDbLine
10
181.869631
20
22.41488
30
0
11
183.232058
21
21.139543
31
0
39
0
210
0
220
0
230
1
0
LINE
5
9C
100
AcDbEntity
8
1
62
256
6
ByLayer
370
-1
48
1
60
0
100
AcDbLine
10
191.165716
20
24.956997
30
0
11
179.865794
21
24.560888
31
0
39
0
210
0
220
0
230
1
0
LINE
5
9D
100
AcDbEntity
8
1
62
256
6
ByLayer
370
-1
48
1
60
0
100
AcDbLine
10
192.032452
20
12.128711
30
0
11
191.63785
21
23.471797
31
0
39
0
210
0
220
0
230
1
0
LINE
5
9E
100
AcDbEntity
8
1
62
256
6
ByLayer
370
-1
48
1
60
0
100
AcDbLine
10
190.058099
20
22.546532
30
0
11
187.071335
21
22.441833
31
0
39
0
210
0
220
0
230
1
0
LINE
5
9F
100
AcDbEntity
8
1
62
256
6
ByLayer
370
-1
48
1
60
0
100
AcDbLine
10
187.407944
20
12.653069
30
0
11
190.394707
21
12.757768
31
0
39
0
210
0
220
0
230
1
0
LINE
5
A0
100
AcDbEntity
8
1
62
256
6
ByLayer
370
-1
48
1
60
0
100
AcDbLine
10
191.179914
20
24.603132
30
0
11
179.879991
21
24.207022
31
0
39
0
210
0
220
0
230
1
0
LINE
5
A1
100
AcDbEntity
8
1
62
256
6
ByLayer
370
-1
48
1
60
0
100
AcDbLine
10
182.320033
20
14.209074
30
0
11
182.468662
21
14.069946
31
0
39
0
210
0
220
0
230
1
0
LINE
5
A2
100
AcDbEntity
8
1
62
256
6
ByLayer
370
-1
48
1
60
0
100
AcDbLine
10
191.64058
20
11.290124
30
0
11
180.340658
21
10.894014
31
0
39
0
210
0
220
0
230
1
0
LINE
5
A3
100
AcDbEntity
8
1
62
256
6
ByLayer
370
-1
48
1
60
0
100
AcDbLine
10
190.651093
20
19.265445
30
0
11
190.546793
21
22.263617
31
0
39
0
210
0
220
0
230
1
0
LINE
5
A4
100
AcDbEntity
8
1
62
256
6
ByLayer
370
-1
48
1
60
0
100
AcDbLine
10
191.590174
20
11.934968
30
0
11
180.290252
21
11.538858
31
0
39
0
210
0
220
0
230
1
0
LINE
5
A5
100
AcDbEntity
8
1
62
256
6
ByLayer
370
-1
48
1
60
0
100
AcDbLine
10
190.392221
20
12.941979
30
0
11
187.405457
21
12.83728
31
0
39
0
210
0
220
0
230
1
0
LINE
5
A6
100
AcDbEntity
8
1
62
256
6
ByLayer
370
-1
48
1
60
0
100
AcDbLine
10
191.183357
20
23.606532
30
0
11
179.883435
21
23.210423
31
0
39
0
210
0
220
0
230
1
0
LINE
5
A7
100
AcDbEntity
8
1
62
256
6
ByLayer
370
-1
48
1
60
0
100
AcDbLine
10
191.189873
20
23.891138
30
0
11
179.889951
21
23.495029
31
0
39
0
210
0
220
0
230
1
0
LINE
5
A8
100
AcDbEntity
8
1
62
256
6
ByLayer
370
-1
48
1
60
0
100
AcDbLine
10
193.545596
20
12.181592
30
0
11
193.150994
21
23.524677
31
0
39
0
210
0
220
0
230
1
0
LINE
5
A9
100
AcDbEntity
8
1
62
256
6
ByLayer
370
-1
48
1
60
0
100
AcDbLine
10
193.107177
20
12.165932
30
0
11
192.712575
21
23.509018
31
0
39
0
210
0
220
0
230
1
0
LINE
5
AA
100
AcDbEntity
8
1
62
256
6
ByLayer
370
-1
48
1
60
0
100
AcDbLine
10
181.866024
20
20.837626
30
0
11
181.888308
21
20.833211
31
0
39
0
210
0
220
0
230
1
0
LINE
5
AB
100
AcDbEntity
8
1
62
256
6
ByLayer
370
-1
48
1
60
0
100
AcDbLine
10
190.576167
20
16.250438
30
0
11
190.680467
21
13.252266
31
0
39
0
210
0
220
0
230
1
0
LINE
5
AC
100
AcDbEntity
8
1
62
256
6
ByLayer
370
-1
48
1
60
0
100
AcDbLine
10
191.654285
20
10.967029
30
0
11
180.354363
21
10.57092
31
0
39
0
210
0
220
0
230
1
0
LINE
5
AD
100
AcDbEntity
8
1
62
256
6
ByLayer
370
-1
48
1
60
0
100
AcDbLine
10
179.711547
20
23.054278
30
0
11
180.106149
21
11.711192
31
0
39
0
210
0
220
0
230
1
0
LINE
5
AE
100
AcDbEntity
8
1
62
256
6
ByLayer
370
-1
48
1
60
0
100
AcDbLine
10
193.214803
20
24.577744
30
0
11
193.645918
21
12.185082
31
0
39
0
210
0
220
0
230
1
0
LINE
5
AF
100
AcDbEntity
8
1
62
256
6
ByLayer
370
-1
48
1
60
0
100
AcDbLine
10
178.777731
20
23.020477
30
0
11
179.172333
21
11.677391
31
0
39
0
210
0
220
0
230
1
0
LINE
5
B0
100
AcDbEntity
8
1
62
256
6
ByLayer
370
-1
48
1
60
0
100
AcDbLine
10
191.761852
20
12.119773
30
0
11
191.36725
21
23.462859
31
0
39
0
210
0
220
0
230
1
0
LINE
5
B1
100
AcDbEntity
8
1
62
256
6
ByLayer
370
-1
48
1
60
0
100
AcDbLine
10
191.183148
20
23.635193
30
0
11
179.883226
21
23.239084
31
0
39
0
210
0
220
0
230
1
0
LINE
5
B2
100
AcDbEntity
8
1
62
256
6
ByLayer
370
-1
48
1
60
0
100
AcDbLine
10
180.372073
20
9.768616
30
0
11
191.671995
21
10.164725
31
0
39
0
210
0
220
0
230
1
0
LINE
5
B3
100
AcDbEntity
8
1
62
256
6
ByLayer
370
-1
48
1
60
0
100
AcDbLine
10
180.935379
20
21.645848
30
0
11
181.524664
21
21.529078
31
0
39
0
210
0
220
0
230
1
0
LINE
5
B4
100
AcDbEntity
8
1
62
256
6
ByLayer
370
-1
48
1
60
0
100
AcDbLine
10
181.866024
20
20.837626
30
0
11
182.446668
21
20.294099
31
0
39
0
210
0
220
0
230
1
0
LINE
5
B5
100
AcDbEntity
8
1
62
256
6
ByLayer
370
-1
48
1
60
0
100
AcDbLine
10
179.739311
20
23.055279
30
0
11
180.133913
21
11.712193
31
0
39
0
210
0
220
0
230
1
0
LINE
5
B6
100
AcDbEntity
8
1
62
256
6
ByLayer
370
-1
48
1
60
0
100
AcDbLine
10
190.471505
20
19.259012
30
0
11
190.367205
21
22.257184
31
0
39
0
210
0
220
0
230
1
0
LINE
5
B7
100
AcDbEntity
8
1
62
256
6
ByLayer
370
-1
48
1
60
0
100
AcDbLine
10
178.423324
20
23.00812
30
0
11
178.817926
21
11.665034
31
0
39
0
210
0
220
0
230
1
0
LINE
5
B8
100
AcDbEntity
8
1
62
256
6
ByLayer
370
-1
48
1
60
0
100
AcDbLine
10
191.188688
20
24.280037
30
0
11
179.888766
21
23.883928
31
0
39
0
210
0
220
0
230
1
0
LINE
5
B9
100
AcDbEntity
8
1
62
256
6
ByLayer
370
-1
48
1
60
0
100
AcDbLine
10
191.614707
20
11.679023
30
0
11
180.314785
21
11.282914
31
0
39
0
210
0
220
0
230
1
0
LINE
5
BA
100
AcDbEntity
8
1
62
256
6
ByLayer
370
-1
48
1
60
0
100
AcDbLine
10
181.681296
20
13.970177
30
0
11
182.052867
21
13.622357
31
0
39
0
210
0
220
0
230
1
0
LINE
5
BB
100
AcDbEntity
8
1
62
256
6
ByLayer
370
-1
48
1
60
0
100
AcDbLine
10
181.653572
20
14.389014
30
0
11
181.653987
21
14.388626
31
0
39
0
210
0
220
0
230
1
0
LINE
5
BC
100
AcDbEntity
8
1
62
256
6
ByLayer
370
-1
48
1
60
0
100
AcDbLine
10
192.721817
20
10.101438
30
0
11
180.376312
21
9.668677
31
0
39
0
210
0
220
0
230
1
0
LINE
5
BD
100
AcDbEntity
8
1
62
256
6
ByLayer
370
-1
48
1
60
0
100
AcDbLine
10
179.472206
20
23.045341
30
0
11
179.866808
21
11.702255
31
0
39
0
210
0
220
0
230
1
0
LINE
5
BE
100
AcDbEntity
8
1
62
256
6
ByLayer
370
-1
48
1
60
0
100
AcDbLine
10
181.898971
20
14.167596
30
0
11
181.885375
21
14.180323
31
0
39
0
210
0
220
0
230
1
0
LINE
5
BF
100
AcDbEntity
8
1
62
256
6
ByLayer
370
-1
48
1
60
0
100
AcDbLine
10
193.374153
20
-13.301017
30
0
11
192.208092
21
-13.724637
31
0
39
0
210
0
220
0
230
1
0
LINE
5
C0
100
AcDbEntity
8
1
62
256
6
ByLayer
370
-1
48
1
60
0
100
AcDbLine
10
192.217396
20
-1.953572
30
0
11
192.896876
21
-1.834925
31
0
39
0
210
0
220
0
230
1
0
LINE
5
C1
100
AcDbEntity
8
1
62
256
6
ByLayer
370
-1
48
1
60
0
100
AcDbLine
10
193.019175
20
-9.445007
30
0
11
192.951839
21
-11.36966
31
0
39
0
210
0
220
0
230
1
0
LINE
5
C2
100
AcDbEntity
8
1
62
256
6
ByLayer
370
-1
48
1
60
0
100
AcDbLine
10
192.548934
20
-7.364656
30
0
11
193.271031
21
-7.455085
31
0
39
0
210
0
220
0
230
1
0
LINE
5
C3
100
AcDbEntity
8
1
62
256
6
ByLayer
370
-1
48
1
60
0
100
AcDbLine
10
192.420906
20
-13.245238
30
0
11
192.183481
21
-13.331492
31
0
39
0
210
0
220
0
230
1
0
LINE
5
C4
100
AcDbEntity
8
1
62
256
6
ByLayer
370
-1
48
1
60
0
100
AcDbLine
10
193.741822
20
-9.598398
30
0
11
193.674486
21
-11.52305
31
0
39
0
210
0
220
0
230
1
0
LINE
5
C5
100
AcDbEntity
8
1
62
256
6
ByLayer
370
-1
48
1
60
0
100
AcDbLine
10
192.281276
20
-2.266968
30
0
11
193.003373
21
-2.357397
31
0
39
0
210
0
220
0
230
1
0
LINE
5
C6
100
AcDbEntity
8
1
62
256
6
ByLayer
370
-1
48
1
60
0
100
AcDbLine
10
192.355464
20
0.274105
30
0
11
193.219159
21
-2.094451
31
0
39
0
210
0
220
0
230
1
0
LINE
5
C7
100
AcDbEntity
8
1
62
256
6
ByLayer
370
-1
48
1
60
0
100
AcDbLine
10
193.528525
20
-7.569818
30
0
11
193.271031
21
-7.455085
31
0
39
0
210
0
220
0
230
1
0
LINE
5
C8
100
AcDbEntity
8
1
62
256
6
ByLayer
370
-1
48
1
60
0
100
AcDbLine
10
192.969495
20
-2.019866
30
0
11
193.219159
21
-2.094451
31
0
39
0
210
0
220
0
230
1
0
LINE
5
C9
100
AcDbEntity
8
1
62
256
6
ByLayer
370
-1
48
1
60
0
100
AcDbLine
10
193.20714
20
-13.094808
30
0
11
193.374153
21
-13.301017
31
0
39
0
210
0
220
0
230
1
0
LINE
5
CA
100
AcDbEntity
8
1
62
256
6
ByLayer
370
-1
48
1
60
0
100
AcDbLine
10
193.784389
20
-8.632408
30
0
11
193.548886
21
-8.609004
31
0
39
0
210
0
220
0
230
1
0
LINE
5
CB
100
AcDbEntity
8
1
62
256
6
ByLayer
370
-1
48
1
60
0
100
AcDbLine
10
193.528525
20
-7.569818
30
0
11
193.248628
21
-2.239023
31
0
39
0
210
0
220
0
230
1
0
LINE
5
CC
100
AcDbEntity
8
1
62
256
6
ByLayer
370
-1
48
1
60
0
100
AcDbLine
10
192.428022
20
-0.549162
30
0
11
192.896876
21
-1.834925
31
0
39
0
210
0
220
0
230
1
0
LINE
5
CD
100
AcDbEntity
8
1
62
256
6
ByLayer
370
-1
48
1
60
0
100
AcDbLine
10
192.548934
20
-7.364656
30
0
11
192.281276
21
-2.266968
31
0
39
0
210
0
220
0
230
1
0
LINE
5
CE
100
AcDbEntity
8
1
62
256
6
ByLayer
370
-1
48
1
60
0
100
AcDbLine
10
191.748542
20
-0.66781
30
0
11
192.428022
21
-0.549162
31
0
39
0
210
0
220
0
230
1
0
LINE
5
CF
100
AcDbEntity
8
1
62
256
6
ByLayer
370
-1
48
1
60
0
100
AcDbLine
10
192.88846
20
-8.774691
30
0
11
193.548886
21
-8.609004
31
0
39
0
210
0
220
0
230
1
0
LINE
5
D0
100
AcDbEntity
8
1
62
256
6
ByLayer
370
-1
48
1
60
0
100
AcDbLine
10
193.999513
20
-9.735582
30
0
11
193.900049
21
-12.578533
31
0
39
0
210
0
220
0
230
1
0
LINE
5
D1
100
AcDbEntity
8
1
62
256
6
ByLayer
370
-1
48
1
60
0
100
AcDbLine
10
191.935488
20
-2.055987
30
0
11
191.679472
21
-1.3539
31
0
39
0
210
0
220
0
230
1
0
LINE
5
D2
100
AcDbEntity
8
1
62
256
6
ByLayer
370
-1
48
1
60
0
100
AcDbLine
10
192.951839
20
-11.36966
30
0
11
193.674486
21
-11.52305
31
0
39
0
210
0
220
0
230
1
0
LINE
5
D3
100
AcDbEntity
8
1
62
256
6
ByLayer
370
-1
48
1
60
0
100
AcDbLine
10
193.003373
20
-2.357397
30
0
11
193.271031
21
-7.455085
31
0
39
0
210
0
220
0
230
1
0
LINE
5
D4
100
AcDbEntity
8
1
62
256
6
ByLayer
370
-1
48
1
60
0
100
AcDbLine
10
192.652021
20
-11.35921
30
0
11
192.719357
21
-9.434557
31
0
39
0
210
0
220
0
230
1
0
LINE
5
D5
100
AcDbEntity
8
1
62
256
6
ByLayer
370
-1
48
1
60
0
100
AcDbLine
10
193.019175
20
-9.445007
30
0
11
193.741822
21
-9.598398
31
0
39
0
210
0
220
0
230
1
0
LINE
5
D6
100
AcDbEntity
8
1
62
256
6
ByLayer
370
-1
48
1
60
0
100
AcDbLine
10
192.998964
20
-2.164438
30
0
11
193.248628
21
-2.239023
31
0
39
0
210
0
220
0
230
1
0
LINE
5
D7
100
AcDbEntity
8
1
62
256
6
ByLayer
370
-1
48
1
60
0
100
AcDbLine
10
191.981687
20
-2.282639
30
0
11
192.249345
21
-7.380328
31
0
39
0
210
0
220
0
230
1
0
LINE
5
D8
100
AcDbEntity
8
1
62
256
6
ByLayer
370
-1
48
1
60
0
100
AcDbLine
10
191.748542
20
-0.66781
30
0
11
192.217396
21
-1.953572
31
0
39
0
210
0
220
0
230
1
0
LINE
5
D9
100
AcDbEntity
8
1
62
256
6
ByLayer
370
-1
48
1
60
0
100
AcDbLine
10
193.999513
20
-9.735582
30
0
11
193.741822
21
-9.598398
31
0
39
0
210
0
220
0
230
1
0
LINE
5
DA
100
AcDbEntity
8
1
62
256
6
ByLayer
370
-1
48
1
60
0
100
AcDbLine
10
192.230987
20
-12.625962
30
0
11
192.420906
21
-13.245238
31
0
39
0
210
0
220
0
230
1
0
LINE
5
DB
100
AcDbEntity
8
1
62
256
6
ByLayer
370
-1
48
1
60
0
100
AcDbLine
10
192.234123
20
0.192497
30
0
11
192.355464
21
0.274105
31
0
39
0
210
0
220
0
230
1
0
LINE
5
DC
100
AcDbEntity
8
1
62
256
6
ByLayer
370
-1
48
1
60
0
100
AcDbLine
10
193.733037
20
-12.372324
30
0
11
193.900049
21
-12.578533
31
0
39
0
210
0
220
0
230
1
0
LINE
5
DD
100
AcDbEntity
8
SK1
62
256
6
ByLayer
370
-1
48
1
60
0
100
AcDbLine
10
-1.383773
20
19.75
30
0
11
-1.383773
21
-19.75
31
0
39
0
210
0
220
0
230
1
0
LINE
5
DE
100
AcDbEntity
8
SK1
62
256
6
ByLayer
370
-1
48
1
60
0
100
AcDbLine
10
-6.5
20
9.102615
30
0
11
-6.5
21
-9.102615
31
0
39
0
210
0
220
0
230
1
0
LINE
5
DF
100
AcDbEntity
8
SK1
62
256
6
ByLayer
370
-1
48
1
60
0
100
AcDbLine
10
-6.5
20
-9.102615
30
0
11
-66.6
21
-9.102615
31
0
39
0
210
0
220
0
230
1
0
LINE
5
E0
100
AcDbEntity
8
SK1
62
256
6
ByLayer
370
-1
48
1
60
0
100
AcDbLine
10
-1.552821
20
19.787477
30
0
11
-1.552821
21
-19.787477
31
0
39
0
210
0
220
0
230
1
0
LINE
5
E1
100
AcDbEntity
8
SK1
62
256
6
ByLayer
370
-1
48
1
60
0
100
AcDbLine
10
-2
20
-19.996
30
0
11
-2
21
19.996
31
0
39
0
210
0
220
0
230
1
0
LINE
5
E2
100
AcDbEntity
8
SK1
62
256
6
ByLayer
370
-1
48
1
60
0
100
AcDbLine
10
-66.6
20
9.102615
30
0
11
-6.5
21
9.102615
31
0
39
0
210
0
220
0
230
1
0
LINE
5
E3
100
AcDbEntity
8
SK1
62
256
6
ByLayer
370
-1
48
1
60
0
100
AcDbLine
10
-70
20
-6.623111
30
0
11
-70
21
-18.996
31
0
39
0
210
0
220
0
230
1
0
LINE
5
E4
100
AcDbEntity
8
SK1
62
256
6
ByLayer
370
-1
48
1
60
0
100
AcDbLine
10
-70
20
18.996
30
0
11
-70
21
6.623111
31
0
39
0
210
0
220
0
230
1
0
LINE
5
E5
100
AcDbEntity
8
SK1
62
256
6
ByLayer
370
-1
48
1
60
0
100
AcDbLine
10
-68.6
20
-9.102615
30
0
11
-69
21
-9.102615
31
0
39
0
210
0
220
0
230
1
0
LINE
5
E6
100
AcDbEntity
8
SK1
62
256
6
ByLayer
370
-1
48
1
60
0
100
AcDbLine
10
-69
20
9.102615
30
0
11
-68.6
21
9.102615
31
0
39
0
210
0
220
0
230
1
0
LINE
5
E7
100
AcDbEntity
8
SK1
62
256
6
ByLayer
370
-1
48
1
60
0
100
AcDbLine
10
-68.6
20
-19.996
30
0
11
-68.6
21
-9.102615
31
0
39
0
210
0
220
0
230
1
0
LINE
5
E8
100
AcDbEntity
8
SK1
62
256
6
ByLayer
370
-1
48
1
60
0
100
AcDbLine
10
-68.6
20
9.102615
30
0
11
-68.6
21
19.996
31
0
39
0
210
0
220
0
230
1
0
LINE
5
E9
100
AcDbEntity
8
SK1
62
256
6
ByLayer
370
-1
48
1
60
0
100
AcDbLine
10
-66.6
20
9.102615
30
0
11
-66.6
21
19.996
31
0
39
0
210
0
220
0
230
1
0
LINE
5
EA
100
AcDbEntity
8
SK1
62
256
6
ByLayer
370
-1
48
1
60
0
100
AcDbLine
10
-66.6
20
-19.996
30
0
11
-66.6
21
-9.102615
31
0
39
0
210
0
220
0
230
1
0
LINE
5
EB
100
AcDbEntity
8
SK1
62
256
6
ByLayer
370
-1
48
1
60
0
100
AcDbLine
10
-69
20
-9.102615
30
0
11
-69
21
-19.996
31
0
39
0
210
0
220
0
230
1
0
LINE
5
EC
100
AcDbEntity
8
SK1
62
256
6
ByLayer
370
-1
48
1
60
0
100
AcDbLine
10
-69
20
19.996
30
0
11
-69
21
9.102615
31
0
39
0
210
0
220
0
230
1
0
LINE
5
ED
100
AcDbEntity
8
SK1
62
256
6
ByLayer
370
-1
48
1
60
0
100
AcDbLine
10
-70
20
6.623111
30
0
11
-70
21
-6.623111
31
0
39
0
210
0
220
0
230
1
0
LINE
5
EE
100
AcDbEntity
8
SK1
62
256
6
ByLayer
370
-1
48
1
60
0
100
AcDbLine
10
-0.15
20
19.75
30
0
11
-0.15
21
-19.75
31
0
39
0
210
0
220
0
230
1
0
LINE
5
EF
100
AcDbEntity
8
SK1
62
256
6
ByLayer
370
-1
48
1
60
0
100
AcDbLine
10
-68.516223
20
-8.873042
30
0
11
-68.516223
21
-19.892544
31
0
39
0
210
0
220
0
230
1
0
LINE
5
F0
100
AcDbEntity
8
SK1
62
256
6
ByLayer
370
-1
48
1
60
0
100
AcDbLine
10
-68.516223
20
19.892544
30
0
11
-68.516223
21
8.873042
31
0
39
0
210
0
220
0
230
1
0
LINE
5
F1
100
AcDbEntity
8
SK1
62
256
6
ByLayer
370
-1
48
1
60
0
100
AcDbLine
10
-67.633814
20
-8.290603
30
0
11
-67.633814
21
-19.639667
31
0
39
0
210
0
220
0
230
1
0
LINE
5
F2
100
AcDbEntity
8
SK1
62
256
6
ByLayer
370
-1
48
1
60
0
100
AcDbLine
10
-67.633814
20
19.639667
30
0
11
-67.633814
21
8.290603
31
0
39
0
210
0
220
0
230
1
0
MTEXT
5
270
100
AcDbEntity
8
SK6
62
256
6
ByLayer
370
-1
48
1
60
0
100
AcDbMText
10
0.79375
20
-80.79375
30
0
210
0
220
0
230
1
1
\W00.730;\fsimplex.shx,bigfont.shx;880-D5100L40-03 
40
3.175
41
0
44
1.084337
50
0
71
7
72
5
7
DEFAULT
0
DIMENSION
5
2A0
100
AcDbEntity
8
SK2
62
256
6
ByLayer
370
-3
48
1
60
0
100
AcDbDimension
2
DimnDraft3D1
10
194
20
-70.11955
30
0
11
62
21
-70.11955
31
0
70
32
71
5
72
1
41
1
210
0
220
0
230
1
3
Standard
100
AcDbAlignedDimension
13
-70
23
-21.5875
33
0
14
194
24
-27.0875
34
0
50
0
100
AcDbRotatedDimension
1001
ACAD
1000
DSTYLE
1002
{
1070
   279
1070
     0
1070
   172
1070
     1
1070
   173
1070
     1
1070
   340
1005
271
1070
   271
1070
     1
1070
   272
1070
     2
1070
    77
1070
     1
1070
    73
1070
     0
1070
   171
1070
     3
1070
   274
1070
     4
1070
   177
1070
   150
1070
   176
1070
     9
1070
   178
1070
    43
1070
    78
1070
     8
1070
    48
1040
-0.005
1070
    41
1041
4.175
1070
   147
1041
2.25
1070
    42
1041
1.5875
1070
    44
1041
3.175
1070
   140
1041
4.5
1070
   343
1005
0
1070
   344
1005
0
1002
}
0
DIMENSION
5
2AA
100
AcDbEntity
8
SK2
62
256
6
ByLayer
370
-3
48
1
60
0
100
AcDbDimension
2
DimnDraft3D2
10
0
20
-58.1508
30
0
11
-35
21
-58.1508
31
0
70
32
71
5
72
1
41
1
210
0
220
0
230
1
3
Standard
100
AcDbAlignedDimension
13
-70
23
-21.5875
33
0
14
0
24
-32.8375
34
0
50
0
100
AcDbRotatedDimension
1001
ACAD
1000
DSTYLE
1002
{
1070
   279
1070
     0
1070
   172
1070
     1
1070
   173
1070
     1
1070
   340
1005
271
1070
   271
1070
     1
1070
   272
1070
     2
1070
    77
1070
     1
1070
    73
1070
     0
1070
   171
1070
     3
1070
   274
1070
     4
1070
   177
1070
   150
1070
   176
1070
     9
1070
   178
1070
    43
1070
    78
1070
     8
1070
    48
1040
-0.005
1070
    41
1041
4.175
1070
   147
1041
2.25
1070
    42
1041
1.5875
1070
    44
1041
3.175
1070
   140
1041
4.5
1070
   343
1005
0
1070
   344
1005
0
1002
}
0
DIMENSION
5
2B5
100
AcDbEntity
8
2
62
256
6
ByLayer
370
-3
48
1
60
0
100
AcDbDimension
2
DimnDraft3D3
10
194
20
-58.1508
30
0
11
97
21
-58.1508
31
0
70
32
71
5
72
1
41
1
210
0
220
0
230
1
3
Standard
100
AcDbAlignedDimension
13
0
23
-32.8375
33
0
14
194
24
-27.0875
34
0
50
0
100
AcDbRotatedDimension
1001
ACAD
1000
DSTYLE
1002
{
1070
   279
1070
     0
1070
   172
1070
     1
1070
   173
1070
     1
1070
   340
1005
271
1070
   271
1070
     1
1070
   272
1070
     2
1070
    77
1070
     1
1070
    73
1070
     0
1070
   171
1070
     3
1070
   274
1070
     4
1070
   177
1070
   150
1070
   176
1070
     9
1070
   178
1070
    43
1070
    78
1070
     8
1070
    48
1040
-0.005
1070
    41
1041
4.175
1070
   147
1041
2.25
1070
    42
1041
1.5875
1070
    44
1041
3.175
1070
   140
1041
4.5
1070
   343
1005
0
1070
   344
1005
0
1002
}
0
DIMENSION
5
2BF
100
AcDbEntity
8
SK2
62
256
6
ByLayer
370
-3
48
1
60
0
100
AcDbDimension
2
DimnDraft3D4
10
194
20
-48.1508
30
0
11
115
21
-48.1508
31
0
70
32
71
5
72
1
41
1
210
0
220
0
230
1
3
Standard
100
AcDbAlignedDimension
13
36
23
-11.5875
33
0
14
194
24
-27.0875
34
0
50
0
100
AcDbRotatedDimension
1001
ACAD
1000
DSTYLE
1002
{
1070
   279
1070
     0
1070
   172
1070
     1
1070
   173
1070
     1
1070
   340
1005
271
1070
   271
1070
     1
1070
   272
1070
     2
1070
    77
1070
     1
1070
    73
1070
     0
1070
   171
1070
     3
1070
   274
1070
     4
1070
   177
1070
   150
1070
   176
1070
     9
1070
   178
1070
    43
1070
    78
1070
     8
1070
    48
1040
-0.005
1070
    41
1041
4.175
1070
   147
1041
2.25
1070
    42
1041
1.5875
1070
    44
1041
3.175
1070
   140
1041
4.5
1070
   343
1005
0
1070
   344
1005
0
1002
}
0
DIMENSION
5
2CA
100
AcDbEntity
8
SK2
62
256
6
ByLayer
370
-3
48
1
60
0
100
AcDbDimension
2
DimnDraft3D5
10
-81.9
20
-20
30
0
11
-82.1
21
3.884211
31
0
70
33
71
5
72
1
41
1
210
0
220
0
230
1
3
Standard
100
AcDbAlignedDimension
13
-71.5875
23
20
33
0
14
-71.5875
24
-20
34
0
1001
ACAD
1000
DSTYLE
1002
{
1070
   279
1070
     0
1070
    74
1070
     0
1070
   173
1070
     1
1070
   340
1005
271
1070
   271
1070
     2
1070
   272
1070
     2
1070
    77
1070
     1
1070
    73
1070
     0
1070
   171
1070
     3
1070
   274
1070
     4
1070
   177
1070
   150
1070
   176
1070
     9
1070
   178
1070
    43
1070
    78
1070
     8
1070
    48
1040
-0.005
1070
    41
1041
4.175
1070
   147
1041
2.25
1070
    42
1041
1.5875
1070
    44
1041
3.175
1070
   140
1041
4.5
1070
   343
1005
0
1070
   344
1005
0
1002
}
0
DIMENSION
5
2D5
100
AcDbEntity
8
SK2
62
256
6
ByLayer
370
-3
48
1
60
0
100
AcDbDimension
2
DimnDraft3D6
10
-91.9
20
31.25
30
0
11
-92.1
21
1.586842
31
0
70
33
71
5
72
1
41
1
210
0
220
0
230
1
3
Standard
100
AcDbAlignedDimension
13
-1.5875
23
-31.25
33
0
14
-1.5875
24
31.25
34
0
1001
ACAD
1000
DSTYLE
1002
{
1070
   279
1070
     0
1070
    74
1070
     0
1070
   173
1070
     1
1070
   340
1005
271
1070
   271
1070
     1
1070
   272
1070
     2
1070
    77
1070
     1
1070
    73
1070
     0
1070
   171
1070
     3
1070
   274
1070
     4
1070
   177
1070
   150
1070
   176
1070
     9
1070
   178
1070
    43
1070
    78
1070
     8
1070
    48
1040
-0.005
1070
    41
1041
4.175
1070
   147
1041
2.25
1070
    42
1041
1.5875
1070
    44
1041
3.175
1070
   140
1041
4.5
1070
   343
1005
0
1070
   344
1005
0
1002
}
0
DIMENSION
5
2E0
100
AcDbEntity
8
2
62
256
6
ByLayer
370
-3
48
1
60
0
100
AcDbDimension
2
DimnDraft3D7
10
224.15
20
-25.5
30
0
11
217.6
21
4.683553
31
0
70
33
71
5
72
1
41
1
210
0
220
0
230
1
3
Standard
100
AcDbAlignedDimension
13
195.5875
23
25.5
33
0
14
195.5875
24
-25.5
34
0
1001
ACAD
1000
DSTYLE
1002
{
1070
   279
1070
     0
1070
    74
1070
     0
1070
   173
1070
     1
1070
   340
1005
271
1070
   271
1070
     2
1070
   272
1070
     2
1070
    77
1070
     1
1070
    73
1070
     0
1070
   171
1070
     3
1070
   274
1070
     4
1070
   177
1070
   150
1070
   176
1070
     9
1070
   178
1070
    43
1070
    78
1070
     8
1070
    48
1040
-0.005
1070
    41
1041
4.175
1070
   147
1041
2.25
1070
    42
1041
1.5875
1070
    44
1041
3.175
1070
   140
1041
4.5
1070
   343
1005
0
1070
   344
1005
0
1002
}
0
ENDSEC
0
SECTION
2
OBJECTS
0
DICTIONARY
5
311
330
0
100
AcDbDictionary
280
0
281
1
3
ACAD_GROUP
350
312
3
ACAD_MLINESTYLE
350
313
0
DICTIONARY
5
312
330
0
100
AcDbDictionary
280
0
281
1
0
DICTIONARY
5
313
330
0
100
AcDbDictionary
280
0
281
1
3
Standard
350
18
0
MLINESTYLE
5
18
330
313
100
AcDbMlineStyle
2
Standard
70
0
3

62
256
51
90
52
90
71
2
49
-0.5
62
256
6
ByLayer
49
0.5
62
256
6
ByLayer
0
RASTERVARIABLES
5
2ff
330

100
AcDbRasterVariables
90
0
70
1
71
1
72
1
0
ENDSEC
0
EOF
