0
SECTION
2
HEADER
9
$ACADVER
1
AC1015
9
$DWGCODEPAGE
3
ANSI_1252
9
$HANDSEED
5
31a
9
$ANGBASE
50
0
9
$ANGDIR
70
0
9
$ATTMODE
70
1
9
$AUNITS
70
0
9
$AUPREC
70
0
9
$CECOLOR
62
256
9
$CELTSCALE
40
1
9
$CELTYPE
6
ByLayer
9
$CELWEIGHT
370
-1
9
$CLAYER
8
0
9
$CMLJUST
70
0
9
$CMLSCALE
40
1
9
$CMLSTYLE
2
Standard
9
$DIMSTYLE
2
Standard
9
$TEXTSIZE
40
0.2
9
$TEXTSTYLE
7
Standard
9
$LUNITS
70
2
9
$LUPREC
70
4
9
$EXTNAMES
290
1
9
$INSUNITS
70
4
9
$LTSCALE
40
1
9
$LWDISPLAY
290
0
9
$PDMODE
70
0
9
$PDSIZE
40
0
9
$PLINEGEN
70
0
0
ENDSEC
0
SECTION
2
CLASSES
0
CLASS
1
RASTERVARIABLES
2
AcDbRasterVariables
3
ISM
90
0
280
0
281
0
0
ENDSEC
0
SECTION
2
TABLES
0
TABLE
2
VPORT
5
310
100
AcDbSymbolTable
0
VPORT
5
1
100
AcDbSymbolTableRecord
100
AcDbViewportTableRecord
2
*Active
70
0
10
0
20
0
11
1
21
1
12
-1
22
1
13
0
23
0
14
0.5
24
0.5
15
10
25
10
16
0
26
0
36
1
17
0
27
0
37
0
0
ENDTAB
0
TABLE
2
LTYPE
5
311
100
AcDbSymbolTable
0
LTYPE
5
14
100
AcDbSymbolTableRecord
100
AcDbLinetypeTableRecord
70
0
2
ByBlock
3

72
65
73
0
40
0
0
LTYPE
5
15
100
AcDbSymbolTableRecord
100
AcDbLinetypeTableRecord
70
0
2
ByLayer
3

72
65
73
0
40
0
0
LTYPE
5
16
100
AcDbSymbolTableRecord
100
AcDbLinetypeTableRecord
70
0
2
CONTINUOUS
3
Solid line
72
65
73
0
40
0
0
LTYPE
5
3B
100
AcDbSymbolTableRecord
100
AcDbLinetypeTableRecord
70
0
2
DASHED
3
__ __ __ __ __ __ __ __ __
72
65
73
2
40
25.72
49
12.86
74
0
49
-12.86
74
0
0
LTYPE
5
3C
100
AcDbSymbolTableRecord
100
AcDbLinetypeTableRecord
70
0
2
HIDDEN
3
_ _ _ _ _ _ _ _ _ _ _ _ _ _ _
72
65
73
2
40
0.5
49
0.25
74
0
49
-0.25
74
0
0
LTYPE
5
3D
100
AcDbSymbolTableRecord
100
AcDbLinetypeTableRecord
70
0
2
PHANTOM
3
____ _ _ ____ _ _ _____ _ _ ____
72
65
73
6
40
50.5
49
18
74
0
49
-6.5
74
0
49
6.5
74
0
49
-6.5
74
0
49
6.5
74
0
49
-6.5
74
0
0
LTYPE
5
3E
100
AcDbSymbolTableRecord
100
AcDbLinetypeTableRecord
70
0
2
CENTER
3
____ _ ____ _ ____ _ ____
72
65
73
4
40
47.5
49
22
74
0
49
-8.5
74
0
49
8.5
74
0
49
-8.5
74
0
0
LTYPE
5
3F
100
AcDbSymbolTableRecord
100
AcDbLinetypeTableRecord
70
0
2
DOT
3
.........................
72
65
73
2
40
10
49
0
74
0
49
-10
74
0
0
LTYPE
5
40
100
AcDbSymbolTableRecord
100
AcDbLinetypeTableRecord
70
0
2
DASHDOT
3
_._._._._._._._._._._._._._._._.
72
65
73
4
40
70
49
31
74
0
49
-13
74
0
49
13
74
0
49
-13
74
0
0
ENDTAB
0
TABLE
2
LAYER
5
312
100
AcDbSymbolTable
0
LAYER
5
10
100
AcDbSymbolTableRecord
100
AcDbLayerTableRecord
2
0
70
0
62
7
6
CONTINUOUS
290
1
370
-3
390
0
0
LAYER
5
42
100
AcDbSymbolTableRecord
100
AcDbLayerTableRecord
2
81
70
0
62
-3
6
CONTINUOUS
290
1
370
-3
390
0
0
LAYER
5
44
100
AcDbSymbolTableRecord
100
AcDbLayerTableRecord
2
80
70
0
62
-6
6
CONTINUOUS
290
1
370
-3
390
0
0
LAYER
5
57
100
AcDbSymbolTableRecord
100
AcDbLayerTableRecord
2
1
70
0
62
4
6
CONTINUOUS
290
1
370
-3
390
0
0
LAYER
5
5F
100
AcDbSymbolTableRecord
100
AcDbLayerTableRecord
2
4
70
0
62
-2
6
CENTER
290
1
370
-3
390
0
0
LAYER
5
2A9
100
AcDbSymbolTableRecord
100
AcDbLayerTableRecord
2
2
70
0
62
7
6
CONTINUOUS
290
1
370
-3
390
0
0
LAYER
5
2fc
100
AcDbSymbolTableRecord
100
AcDbLayerTableRecord
2
SK1
70
0
62
4
6
CONTINUOUS
290
1
370
-3
390
0
0
LAYER
5
2fd
100
AcDbSymbolTableRecord
100
AcDbLayerTableRecord
2
SK4
70
0
62
2
6
CENTER
290
1
370
-3
390
0
0
LAYER
5
2fe
100
AcDbSymbolTableRecord
100
AcDbLayerTableRecord
2
SK6
70
0
62
5
6
CONTINUOUS
290
1
370
-3
390
0
0
LAYER
5
2ff
100
AcDbSymbolTableRecord
100
AcDbLayerTableRecord
2
SK2
70
0
62
7
6
CONTINUOUS
290
1
370
-3
390
0
0
ENDTAB
0
TABLE
2
STYLE
5
313
100
AcDbSymbolTable
0
STYLE
5
11
100
AcDbSymbolTableRecord
100
AcDbTextStyleTableRecord
2
Standard
3
txt
70
0
71
0
40
0
41
1
42
0
50
0
0
STYLE
5
26D
100
AcDbSymbolTableRecord
100
AcDbTextStyleTableRecord
2
DEFAULT
3
simplex.shx
70
0
71
0
40
0
41
1
42
0
50
0
0
STYLE
5
290
100
AcDbSymbolTableRecord
100
AcDbTextStyleTableRecord
2
DWGDirectTextStyle
3
SIMPLEX
70
0
71
0
40
0
41
1
42
0
50
0
0
ENDTAB
0
TABLE
2
DIMSTYLE
5
314
100
AcDbSymbolTable
100
AcDbDimStyleTable
0
DIMSTYLE
105
27
100
AcDbSymbolTableRecord
100
AcDbDimStyleTableRecord
2
Standard
70
0
3
<>
41
0.18
42
0.0625
44
0.18
140
0.18
147
0.09
73
0
74
0
77
1
271
2
275
0
278
52
280
0
340
11
0
ENDTAB
0
TABLE
2
VIEW
5
315
100
AcDbSymbolTable
0
ENDTAB
0
TABLE
2
UCS
5
316
100
AcDbSymbolTable
0
ENDTAB
0
TABLE
2
APPID
5
317
100
AcDbSymbolTable
0
APPID
5
12
100
AcDbSymbolTableRecord
100
AcDbRegAppTableRecord
2
ACAD
70
0
0
ENDTAB
0
TABLE
2
BLOCK_RECORD
5
318
100
AcDbSymbolTable
0
BLOCK_RECORD
5
1F
100
AcDbSymbolTableRecord
100
AcDbBlockTableRecord
2
*Model_Space
340
0
70
0
0
BLOCK_RECORD
5
1B
100
AcDbSymbolTableRecord
100
AcDbBlockTableRecord
2
*Paper_Space
340
0
70
0
0
BLOCK_RECORD
5
23
100
AcDbSymbolTableRecord
100
AcDbBlockTableRecord
2
*Paper_Space0
340
0
70
0
0
BLOCK_RECORD
5
292
100
AcDbSymbolTableRecord
100
AcDbBlockTableRecord
2
DimnDraft3D1
340
0
70
0
0
BLOCK_RECORD
5
29D
100
AcDbSymbolTableRecord
100
AcDbBlockTableRecord
2
DimnDraft3D2
340
0
70
0
0
BLOCK_RECORD
5
2A7
100
AcDbSymbolTableRecord
100
AcDbBlockTableRecord
2
DimnDraft3D3
340
0
70
0
0
BLOCK_RECORD
5
2B2
100
AcDbSymbolTableRecord
100
AcDbBlockTableRecord
2
DimnDraft3D4
340
0
70
0
0
BLOCK_RECORD
5
2BC
100
AcDbSymbolTableRecord
100
AcDbBlockTableRecord
2
DimnDraft3D5
340
0
70
0
0
BLOCK_RECORD
5
2C7
100
AcDbSymbolTableRecord
100
AcDbBlockTableRecord
2
DimnDraft3D6
340
0
70
0
0
BLOCK_RECORD
5
2D2
100
AcDbSymbolTableRecord
100
AcDbBlockTableRecord
2
DimnDraft3D7
340
0
70
0
0
ENDTAB
0
ENDSEC
0
SECTION
2
BLOCKS
0
BLOCK
5
20
100
AcDbEntity
8
0
100
AcDbBlockBegin
2
*Model_Space
70
0
10
0
20
0
30
0
3
*Model_Space
0
ENDBLK
5
21
100
AcDbEntity
8
0
100
AcDbBlockEnd
0
BLOCK
5
1C
100
AcDbEntity
8
0
100
AcDbBlockBegin
2
*Paper_Space
70
0
10
0
20
0
30
0
3
*Paper_Space
0
ENDBLK
5
1D
100
AcDbEntity
8
0
100
AcDbBlockEnd
0
BLOCK
5
24
100
AcDbEntity
8
0
100
AcDbBlockBegin
2
*Paper_Space0
70
0
10
0
20
0
30
0
3
*Paper_Space0
0
ENDBLK
5
25
100
AcDbEntity
8
0
100
AcDbBlockEnd
0
BLOCK
5
29A
100
AcDbEntity
8
0
100
AcDbBlockBegin
2
DimnDraft3D1
70
0
10
0
20
0
30
0
3
DimnDraft3D1
0
MTEXT
5
293
100
AcDbEntity
8
SK2
62
256
6
ByLayer
370
-1
48
1
60
0
100
AcDbMText
10
29.669737
20
-67.0258
30
0
210
0
220
0
230
1
1
\W01.000;\fsimplex.shx,bigfont.shx;(214) 
40
4.5
41
0
44
1.084337
50
0
71
7
72
5
7
DEFAULT
0
LINE
5
295
100
AcDbEntity
8
SK2
62
256
6
ByLayer
370
-1
48
1
60
0
100
AcDbLine
10
-70
20
-21.5875
30
0
11
-70
21
-73.29455
31
0
39
0
210
0
220
0
230
1
0
LINE
5
296
100
AcDbEntity
8
SK2
62
256
6
ByLayer
370
-1
48
1
60
0
100
AcDbLine
10
144
20
-27.0875
30
0
11
144
21
-73.29455
31
0
39
0
210
0
220
0
230
1
0
LINE
5
297
100
AcDbEntity
8
SK2
62
256
6
ByLayer
370
-1
48
1
60
0
100
AcDbLine
10
-70
20
-70.11955
30
0
11
144
21
-70.11955
31
0
39
0
210
0
220
0
230
1
0
SOLID
5
298
100
AcDbEntity
8
SK2
62
256
6
ByLayer
370
-1
48
1
60
0
100
AcDbTrace
10
-70
20
-70.11955
30
0
11
-65.825003
21
-69.193975
31
0
12
-65.824997
22
-71.045125
32
0
13
-70
23
-70.11955
33
0
39
0
210
0
220
0
230
1
0
SOLID
5
299
100
AcDbEntity
8
SK2
62
256
6
ByLayer
370
-1
48
1
60
0
100
AcDbTrace
10
144
20
-70.11955
30
0
11
139.825003
21
-71.045125
31
0
12
139.824997
22
-69.193975
32
0
13
144
23
-70.11955
33
0
39
0
210
0
220
0
230
1
0
ENDBLK
5
29B
100
AcDbEntity
8
0
100
AcDbBlockEnd
0
BLOCK
5
2A4
100
AcDbEntity
8
0
100
AcDbBlockBegin
2
DimnDraft3D2
70
0
10
0
20
0
30
0
3
DimnDraft3D2
0
MTEXT
5
29E
100
AcDbEntity
8
SK2
62
256
6
ByLayer
370
-1
48
1
60
0
100
AcDbMText
10
-36.503947
20
-57.0258
30
0
210
0
220
0
230
1
1
\W01.000;\fsimplex.shx,bigfont.shx;70 
40
4.5
41
0
44
1.084337
50
0
71
7
72
5
7
DEFAULT
0
LINE
5
29F
100
AcDbEntity
8
SK2
62
256
6
ByLayer
370
-1
48
1
60
0
100
AcDbLine
10
-70
20
-21.5875
30
0
11
-70
21
-61.3258
31
0
39
0
210
0
220
0
230
1
0
LINE
5
2A0
100
AcDbEntity
8
SK2
62
256
6
ByLayer
370
-1
48
1
60
0
100
AcDbLine
10
0
20
-32.8375
30
0
11
0
21
-61.3258
31
0
39
0
210
0
220
0
230
1
0
LINE
5
2A1
100
AcDbEntity
8
SK2
62
256
6
ByLayer
370
-1
48
1
60
0
100
AcDbLine
10
-70
20
-58.1508
30
0
11
0
21
-58.1508
31
0
39
0
210
0
220
0
230
1
0
SOLID
5
2A2
100
AcDbEntity
8
SK2
62
256
6
ByLayer
370
-1
48
1
60
0
100
AcDbTrace
10
-70
20
-58.1508
30
0
11
-65.825003
21
-57.225225
31
0
12
-65.824997
22
-59.076375
32
0
13
-70
23
-58.1508
33
0
39
0
210
0
220
0
230
1
0
SOLID
5
2A3
100
AcDbEntity
8
SK2
62
256
6
ByLayer
370
-1
48
1
60
0
100
AcDbTrace
10
0
20
-58.1508
30
0
11
-4.174997
21
-59.076375
31
0
12
-4.175003
22
-57.225225
32
0
13
0
23
-58.1508
33
0
39
0
210
0
220
0
230
1
0
ENDBLK
5
2A5
100
AcDbEntity
8
0
100
AcDbBlockEnd
0
BLOCK
5
2AF
100
AcDbEntity
8
0
100
AcDbBlockBegin
2
DimnDraft3D3
70
0
10
0
20
0
30
0
3
DimnDraft3D3
0
MTEXT
5
2A8
100
AcDbEntity
8
2
62
256
6
ByLayer
370
-1
48
1
60
0
100
AcDbMText
10
68.932895
20
-57.0258
30
0
210
0
220
0
230
1
1
\W01.000;\fsimplex.shx,bigfont.shx;144 
40
4.5
41
0
44
1.084337
50
0
71
7
72
5
7
DEFAULT
0
LINE
5
2AA
100
AcDbEntity
8
2
62
256
6
ByLayer
370
-1
48
1
60
0
100
AcDbLine
10
0
20
-32.8375
30
0
11
0
21
-61.3258
31
0
39
0
210
0
220
0
230
1
0
LINE
5
2AB
100
AcDbEntity
8
2
62
256
6
ByLayer
370
-1
48
1
60
0
100
AcDbLine
10
144
20
-27.0875
30
0
11
144
21
-61.3258
31
0
39
0
210
0
220
0
230
1
0
LINE
5
2AC
100
AcDbEntity
8
2
62
256
6
ByLayer
370
-1
48
1
60
0
100
AcDbLine
10
0
20
-58.1508
30
0
11
144
21
-58.1508
31
0
39
0
210
0
220
0
230
1
0
SOLID
5
2AD
100
AcDbEntity
8
2
62
256
6
ByLayer
370
-1
48
1
60
0
100
AcDbTrace
10
0
20
-58.1508
30
0
11
4.174997
21
-57.225225
31
0
12
4.175003
22
-59.076375
32
0
13
0
23
-58.1508
33
0
39
0
210
0
220
0
230
1
0
SOLID
5
2AE
100
AcDbEntity
8
2
62
256
6
ByLayer
370
-1
48
1
60
0
100
AcDbTrace
10
144
20
-58.1508
30
0
11
139.825003
21
-59.076375
31
0
12
139.824997
22
-57.225225
32
0
13
144
23
-58.1508
33
0
39
0
210
0
220
0
230
1
0
ENDBLK
5
2B0
100
AcDbEntity
8
0
100
AcDbBlockEnd
0
BLOCK
5
2B9
100
AcDbEntity
8
0
100
AcDbBlockBegin
2
DimnDraft3D4
70
0
10
0
20
0
30
0
3
DimnDraft3D4
0
MTEXT
5
2B3
100
AcDbEntity
8
SK2
62
256
6
ByLayer
370
-1
48
1
60
0
100
AcDbMText
10
87.406579
20
-47.0258
30
0
210
0
220
0
230
1
1
\W01.000;\fsimplex.shx,bigfont.shx;108 
40
4.5
41
0
44
1.084337
50
0
71
7
72
5
7
DEFAULT
0
LINE
5
2B4
100
AcDbEntity
8
SK2
62
256
6
ByLayer
370
-1
48
1
60
0
100
AcDbLine
10
36
20
-11.5875
30
0
11
36
21
-51.3258
31
0
39
0
210
0
220
0
230
1
0
LINE
5
2B5
100
AcDbEntity
8
SK2
62
256
6
ByLayer
370
-1
48
1
60
0
100
AcDbLine
10
144
20
-27.0875
30
0
11
144
21
-51.3258
31
0
39
0
210
0
220
0
230
1
0
LINE
5
2B6
100
AcDbEntity
8
SK2
62
256
6
ByLayer
370
-1
48
1
60
0
100
AcDbLine
10
36
20
-48.1508
30
0
11
144
21
-48.1508
31
0
39
0
210
0
220
0
230
1
0
SOLID
5
2B7
100
AcDbEntity
8
SK2
62
256
6
ByLayer
370
-1
48
1
60
0
100
AcDbTrace
10
36
20
-48.1508
30
0
11
40.174997
21
-47.225225
31
0
12
40.175003
22
-49.076375
32
0
13
36
23
-48.1508
33
0
39
0
210
0
220
0
230
1
0
SOLID
5
2B8
100
AcDbEntity
8
SK2
62
256
6
ByLayer
370
-1
48
1
60
0
100
AcDbTrace
10
144
20
-48.1508
30
0
11
139.825003
21
-49.076375
31
0
12
139.824997
22
-47.225225
32
0
13
144
23
-48.1508
33
0
39
0
210
0
220
0
230
1
0
ENDBLK
5
2BA
100
AcDbEntity
8
0
100
AcDbBlockEnd
0
BLOCK
5
2C4
100
AcDbEntity
8
0
100
AcDbBlockBegin
2
DimnDraft3D5
70
0
10
0
20
0
30
0
3
DimnDraft3D5
0
MTEXT
5
2BD
100
AcDbEntity
8
SK2
62
256
6
ByLayer
370
-1
48
1
60
0
100
AcDbMText
10
-80.975
20
5.009211
30
0
210
0
220
0
230
1
1
\W01.000;\fsimplex.shx,bigfont.shx;40 
40
4.5
41
0
44
1.084337
50
90
71
7
72
5
7
DEFAULT
0
MTEXT
5
2BE
100
AcDbEntity
8
SK2
62
256
6
ByLayer
370
-1
48
1
60
0
100
AcDbMText
10
-80.975
20
-8.490789
30
0
210
0
220
0
230
1
1
\W01.000;\fsimplex.shx,bigfont.shx;%%c 
40
4.5
41
0
44
1.084337
50
90
71
7
72
5
7
DEFAULT
0
LINE
5
2BF
100
AcDbEntity
8
SK2
62
256
6
ByLayer
370
-1
48
1
60
0
100
AcDbLine
10
-71.5875
20
20
30
0
11
-81.9
21
20
31
0
39
0
210
0
220
0
230
1
0
LINE
5
2C0
100
AcDbEntity
8
SK2
62
256
6
ByLayer
370
-1
48
1
60
0
100
AcDbLine
10
-71.5875
20
-20
30
0
11
-81.9
21
-20
31
0
39
0
210
0
220
0
230
1
0
LINE
5
2C1
100
AcDbEntity
8
SK2
62
256
6
ByLayer
370
-1
48
1
60
0
100
AcDbLine
10
-78.725
20
20
30
0
11
-78.725
21
-20
31
0
39
0
210
0
220
0
230
1
0
SOLID
5
2C2
100
AcDbEntity
8
SK2
62
256
6
ByLayer
370
-1
48
1
60
0
100
AcDbTrace
10
-78.725
20
20
30
0
11
-77.799425
21
15.825003
31
0
12
-79.650575
22
15.824997
32
0
13
-78.725
23
20
33
0
39
0
210
0
220
0
230
1
0
SOLID
5
2C3
100
AcDbEntity
8
SK2
62
256
6
ByLayer
370
-1
48
1
60
0
100
AcDbTrace
10
-78.725
20
-20
30
0
11
-79.650575
21
-15.825003
31
0
12
-77.799425
22
-15.824997
32
0
13
-78.725
23
-20
33
0
39
0
210
0
220
0
230
1
0
ENDBLK
5
2C5
100
AcDbEntity
8
0
100
AcDbBlockEnd
0
BLOCK
5
2CF
100
AcDbEntity
8
0
100
AcDbBlockBegin
2
DimnDraft3D6
70
0
10
0
20
0
30
0
3
DimnDraft3D6
0
MTEXT
5
2C8
100
AcDbEntity
8
SK2
62
256
6
ByLayer
370
-1
48
1
60
0
100
AcDbMText
10
-90.975
20
2.711842
30
0
210
0
220
0
230
1
1
\W01.000;\fsimplex.shx,bigfont.shx;62.5 
40
4.5
41
0
44
1.084337
50
90
71
7
72
5
7
DEFAULT
0
MTEXT
5
2C9
100
AcDbEntity
8
SK2
62
256
6
ByLayer
370
-1
48
1
60
0
100
AcDbMText
10
-90.975
20
-10.788158
30
0
210
0
220
0
230
1
1
\W01.000;\fsimplex.shx,bigfont.shx;%%c 
40
4.5
41
0
44
1.084337
50
90
71
7
72
5
7
DEFAULT
0
LINE
5
2CA
100
AcDbEntity
8
SK2
62
256
6
ByLayer
370
-1
48
1
60
0
100
AcDbLine
10
-1.5875
20
-31.25
30
0
11
-91.9
21
-31.25
31
0
39
0
210
0
220
0
230
1
0
LINE
5
2CB
100
AcDbEntity
8
SK2
62
256
6
ByLayer
370
-1
48
1
60
0
100
AcDbLine
10
-1.5875
20
31.25
30
0
11
-91.9
21
31.25
31
0
39
0
210
0
220
0
230
1
0
LINE
5
2CC
100
AcDbEntity
8
SK2
62
256
6
ByLayer
370
-1
48
1
60
0
100
AcDbLine
10
-88.725
20
-31.25
30
0
11
-88.725
21
31.25
31
0
39
0
210
0
220
0
230
1
0
SOLID
5
2CD
100
AcDbEntity
8
SK2
62
256
6
ByLayer
370
-1
48
1
60
0
100
AcDbTrace
10
-88.725
20
-31.25
30
0
11
-89.650575
21
-27.075003
31
0
12
-87.799425
22
-27.074997
32
0
13
-88.725
23
-31.25
33
0
39
0
210
0
220
0
230
1
0
SOLID
5
2CE
100
AcDbEntity
8
SK2
62
256
6
ByLayer
370
-1
48
1
60
0
100
AcDbTrace
10
-88.725
20
31.25
30
0
11
-87.799425
21
27.075003
31
0
12
-89.650575
22
27.074997
32
0
13
-88.725
23
31.25
33
0
39
0
210
0
220
0
230
1
0
ENDBLK
5
2D0
100
AcDbEntity
8
0
100
AcDbBlockEnd
0
BLOCK
5
2DA
100
AcDbEntity
8
0
100
AcDbBlockBegin
2
DimnDraft3D7
70
0
10
0
20
0
30
0
3
DimnDraft3D7
0
MTEXT
5
2D3
100
AcDbEntity
8
2
62
256
6
ByLayer
370
-1
48
1
60
0
100
AcDbMText
10
168.725
20
5.808553
30
0
210
0
220
0
230
1
1
\W01.000;\fsimplex.shx,bigfont.shx;51 
40
4.5
41
0
44
1.084337
50
90
71
7
72
5
7
DEFAULT
0
MTEXT
5
2D4
100
AcDbEntity
8
2
62
256
6
ByLayer
370
-1
48
1
60
0
100
AcDbMText
10
168.725
20
-7.691447
30
0
210
0
220
0
230
1
1
\W01.000;\fsimplex.shx,bigfont.shx;%%c 
40
4.5
41
0
44
1.084337
50
90
71
7
72
5
7
DEFAULT
0
LINE
5
2D5
100
AcDbEntity
8
2
62
256
6
ByLayer
370
-1
48
1
60
0
100
AcDbLine
10
145.5875
20
25.5
30
0
11
174.15
21
25.5
31
0
39
0
210
0
220
0
230
1
0
LINE
5
2D6
100
AcDbEntity
8
2
62
256
6
ByLayer
370
-1
48
1
60
0
100
AcDbLine
10
145.5875
20
-25.5
30
0
11
174.15
21
-25.5
31
0
39
0
210
0
220
0
230
1
0
LINE
5
2D7
100
AcDbEntity
8
2
62
256
6
ByLayer
370
-1
48
1
60
0
100
AcDbLine
10
170.975
20
25.5
30
0
11
170.975
21
-25.5
31
0
39
0
210
0
220
0
230
1
0
SOLID
5
2D8
100
AcDbEntity
8
2
62
256
6
ByLayer
370
-1
48
1
60
0
100
AcDbTrace
10
170.975
20
25.5
30
0
11
171.900575
21
21.325003
31
0
12
170.049425
22
21.324997
32
0
13
170.975
23
25.5
33
0
39
0
210
0
220
0
230
1
0
SOLID
5
2D9
100
AcDbEntity
8
2
62
256
6
ByLayer
370
-1
48
1
60
0
100
AcDbTrace
10
170.975
20
-25.5
30
0
11
170.049425
21
-21.325003
31
0
12
171.900575
22
-21.324997
32
0
13
170.975
23
-25.5
33
0
39
0
210
0
220
0
230
1
0
ENDBLK
5
2DB
100
AcDbEntity
8
0
100
AcDbBlockEnd
0
ENDSEC
0
SECTION
2
ENTITIES
0
ARC
5
F1
100
AcDbEntity
8
SK1
62
256
6
ByLayer
370
-1
48
1
60
0
100
AcDbCircle
39
0
10
1.383773
20
20.15
30
0
40
0.4
210
0
220
0
230
-1
100
AcDbArc
50
270
51
295
0
ARC
5
F2
100
AcDbEntity
8
SK1
62
256
6
ByLayer
370
-1
48
1
60
0
100
AcDbCircle
39
0
10
1.383773
20
-20.15
30
0
40
0.4
210
0
220
0
230
-1
100
AcDbArc
50
65
51
90
0
ARC
5
F3
100
AcDbEntity
8
SK1
62
256
6
ByLayer
370
-1
48
1
60
0
100
AcDbCircle
39
0
10
0.15
20
20.15
30
0
40
0.4
210
0
220
0
230
-1
100
AcDbArc
50
247.975687
51
270
0
ARC
5
F4
100
AcDbEntity
8
SK1
62
256
6
ByLayer
370
-1
48
1
60
0
100
AcDbCircle
39
0
10
0.15
20
-20.15
30
0
40
0.4
210
0
220
0
230
-1
100
AcDbArc
50
90
51
112.024313
0
ARC
5
F5
100
AcDbEntity
8
SK1
62
256
6
ByLayer
370
-1
48
1
60
0
100
AcDbCircle
39
0
10
67.894506
20
20.396
30
0
40
0.8
210
0
220
0
230
-1
100
AcDbArc
50
250.982048
51
321
0
ARC
5
F6
100
AcDbEntity
8
SK1
62
256
6
ByLayer
370
-1
48
1
60
0
100
AcDbCircle
39
0
10
67.894506
20
-20.396
30
0
40
0.8
210
0
220
0
230
-1
100
AcDbArc
50
39
51
109.017952
0
ELLIPSE
5
F7
100
AcDbEntity
8
1
62
256
6
ByLayer
370
-1
48
1
60
0
100
AcDbEllipse
10
135.820748
20
-5.84901
30
0
11
2.1
21
0
31
0
210
0
220
0
230
1
40
0.998135
41
0.076968821441188
42
3.05578791712358
0
ELLIPSE
5
F8
100
AcDbEntity
8
1
62
256
6
ByLayer
370
-1
48
1
60
0
100
AcDbEllipse
10
135.820748
20
-5.84901
30
0
11
2.1
21
0
31
0
210
0
220
0
230
1
40
0.998135
41
-3.14159250110336
42
-4.2373236548073E-16
0
ELLIPSE
5
F9
100
AcDbEntity
8
1
62
256
6
ByLayer
370
-1
48
1
60
0
100
AcDbEllipse
10
129.861029
20
15.920889
30
0
11
-2.25092568282431E-15
21
-2.1
31
0
210
0
220
0
230
1
40
0.996195
41
-2.12048111657724
42
-1.53588974175502
0
ELLIPSE
5
FA
100
AcDbEntity
8
1
62
256
6
ByLayer
370
-1
48
1
60
0
100
AcDbEllipse
10
18.8
20
-11.637352
30
0
11
12.5
21
0
31
0
210
0
220
0
230
1
40
0.996725
41
3.14157801559919
42
-2.4382248642345
0
ELLIPSE
5
FB
100
AcDbEntity
8
1
62
256
6
ByLayer
370
-1
48
1
60
0
100
AcDbEllipse
10
133.416719
20
1.7E-05
30
0
11
-283.465200008295
21
-3.21194330386885E-13
31
0
210
0
220
0
230
-1
40
0.087489
41
1.53723125157564
42
1.55017585435195
0
ELLIPSE
5
FC
100
AcDbEntity
8
1
62
256
6
ByLayer
370
-1
48
1
60
0
100
AcDbEllipse
10
143.933371
20
0
30
0
11
-2.03938946372194
21
-24.7986605982055
31
0
210
0
220
0
230
-1
40
0.126383
41
0.0373865448164418
42
1.08150697782645
0
ELLIPSE
5
FD
100
AcDbEntity
8
1
62
256
6
ByLayer
370
-1
48
1
60
0
100
AcDbEllipse
10
128.242623
20
29.634755
30
0
11
-2.14373874554696E-14
21
-20
31
0
210
0
220
0
230
1
40
0.996195
41
-0.26147518974242
42
-0.00336141707415299
0
ELLIPSE
5
FE
100
AcDbEntity
8
1
62
256
6
ByLayer
370
-1
48
1
60
0
100
AcDbEllipse
10
121.838729
20
14.9
30
0
11
1.17145334231588E-16
21
0.0999999999999664
31
0
210
0
220
0
230
1
40
0.978567
41
2.9902988835725
42
-1.5707963267949
0
ELLIPSE
5
FF
100
AcDbEntity
8
1
62
256
6
ByLayer
370
-1
48
1
60
0
100
AcDbEllipse
10
130.04262
20
11.173782
30
0
11
-1.83236116208177
21
-1.63166900512483
31
0
210
0
220
0
230
-1
40
0.721468
41
-1.3015258845927
42
-0.459180144134064
0
ELLIPSE
5
100
100
AcDbEntity
8
1
62
256
6
ByLayer
370
-1
48
1
60
0
100
AcDbEllipse
10
101.549652
20
17.55991
30
0
11
-29.0775656965523
21
15.3390625998928
31
0
210
0
220
0
230
-1
40
0.091996
41
-2.09009244381817
42
-1.3819004678103
0
ELLIPSE
5
101
100
AcDbEntity
8
1
62
256
6
ByLayer
370
-1
48
1
60
0
100
AcDbEllipse
10
129.503691
20
15.920889
30
0
11
2.46005201886418E-15
21
2.1
31
0
210
0
220
0
230
1
40
0.996195
41
0.939115740685914
42
1.60570291183478
0
ELLIPSE
5
102
100
AcDbEntity
8
1
62
256
6
ByLayer
370
-1
48
1
60
0
100
AcDbEllipse
10
128.323864
20
0.000732
30
0
11
-0.802960925600724
21
24.7991688778459
31
0
210
0
220
0
230
-1
40
0.087399
41
0.0234506151003942
42
0.0305020066065165
0
ELLIPSE
5
103
100
AcDbEntity
8
1
62
256
6
ByLayer
370
-1
48
1
60
0
100
AcDbEllipse
10
94.068763
20
18.775641
30
0
11
-1.67795645707761
21
-10.7700725219541
31
0
210
0
220
0
230
1
40
0.203578
41
1.44494852093275
42
1.47024479323382
0
ELLIPSE
5
104
100
AcDbEntity
8
1
62
256
6
ByLayer
370
-1
48
1
60
0
100
AcDbEllipse
10
142.122533
20
10.602188
30
0
11
-0.000791445723776034
21
0.801130856147925
31
0
210
0
220
0
230
-1
40
0.121743
41
2.24970359552352
42
-3.13964626635824
0
ELLIPSE
5
105
100
AcDbEntity
8
1
62
256
6
ByLayer
370
-1
48
1
60
0
100
AcDbEllipse
10
140.96757
20
-17.044733
30
0
11
-0.256908410640046
21
-3.10139654965246
31
0
210
0
220
0
230
-1
40
0.121465
41
0
42
6.28318530717959
0
ELLIPSE
5
106
100
AcDbEntity
8
1
62
256
6
ByLayer
370
-1
48
1
60
0
100
AcDbEllipse
10
131.839255
20
10.342068
30
0
11
-9.62592864310923
21
0.506372380719789
31
0
210
0
220
0
230
-1
40
0.00039
41
-3.13529116893975
42
-3.13417628849202
0
ELLIPSE
5
107
100
AcDbEntity
8
1
62
256
6
ByLayer
370
-1
48
1
60
0
100
AcDbEllipse
10
136.130761
20
17.309163
30
0
11
2.63577002021162E-15
21
2.25
31
0
210
0
220
0
230
1
40
0.996195
41
0.0349501263397862
42
1.57079643761665
0
ELLIPSE
5
108
100
AcDbEntity
8
1
62
256
6
ByLayer
370
-1
48
1
60
0
100
AcDbEllipse
10
136.130761
20
17.309163
30
0
11
2.63577002021162E-15
21
2.25
31
0
210
0
220
0
230
1
40
0.996195
41
1.57079643761666
42
1.87572723107153
0
ELLIPSE
5
109
100
AcDbEntity
8
1
62
256
6
ByLayer
370
-1
48
1
60
0
100
AcDbEllipse
10
128.398599
20
0
30
0
11
-0.875527635160174
21
24.7988397517559
31
0
210
0
220
0
230
-1
40
0.273976
41
0.0613918554661359
42
0.072317020600196
0
ELLIPSE
5
10A
100
AcDbEntity
8
1
62
256
6
ByLayer
370
-1
48
1
60
0
100
AcDbEllipse
10
128.312347
20
29.634755
30
0
11
2.24919041724725E-14
21
19.2
31
0
210
0
220
0
230
1
40
0.996195
41
2.78496437622927
42
3.10994225005361
0
ELLIPSE
5
10B
100
AcDbEntity
8
1
62
256
6
ByLayer
370
-1
48
1
60
0
100
AcDbEllipse
10
142.202339
20
0
30
0
11
-0.0191116026843762
21
24.7999998535391
31
0
210
0
220
0
230
-1
40
0.122756
41
-1.54789027386312
42
-1.40747834679294
0
ELLIPSE
5
10C
100
AcDbEntity
8
1
62
256
6
ByLayer
370
-1
48
1
60
0
100
AcDbEllipse
10
136.540393
20
17.309163
30
0
11
2.34290668463255E-15
21
2
31
0
210
0
220
0
230
1
40
0.996195
41
0.102985300926076
42
1.57079604872776
0
ELLIPSE
5
10D
100
AcDbEntity
8
1
62
256
6
ByLayer
370
-1
48
1
60
0
100
AcDbEllipse
10
136.540393
20
17.309163
30
0
11
2.34290668463255E-15
21
2
31
0
210
0
220
0
230
1
40
0.996195
41
1.57079654872776
42
3.03860729631731
0
ELLIPSE
5
10E
100
AcDbEntity
8
1
62
256
6
ByLayer
370
-1
48
1
60
0
100
AcDbEllipse
10
136.130761
20
17.309163
30
0
11
2.34290668463255E-15
21
2
31
0
210
0
220
0
230
1
40
0.996195
41
0
42
6.28318530717959
0
ELLIPSE
5
10F
100
AcDbEntity
8
1
62
256
6
ByLayer
370
-1
48
1
60
0
100
AcDbEllipse
10
135.930303
20
17.309163
30
0
11
2.63577002021162E-15
21
2.25
31
0
210
0
220
0
230
1
40
0.996195
41
-2.22542577446687
42
0
0
ELLIPSE
5
110
100
AcDbEntity
8
1
62
256
6
ByLayer
370
-1
48
1
60
0
100
AcDbEllipse
10
135.930303
20
17.309163
30
0
11
2.63577002021162E-15
21
2.25
31
0
210
0
220
0
230
1
40
0.996195
41
0
42
1.16248744141283
0
ELLIPSE
5
111
100
AcDbEntity
8
1
62
256
6
ByLayer
370
-1
48
1
60
0
100
AcDbEllipse
10
146.567794
20
0
30
0
11
-59.2201843788923
21
24.0187013263351
31
0
210
0
220
0
230
-1
40
0.104287
41
-1.11766828687351
42
-0.490748480000767
0
ELLIPSE
5
112
100
AcDbEntity
8
1
62
256
6
ByLayer
370
-1
48
1
60
0
100
AcDbEllipse
10
135.820748
20
-5.921889
30
0
11
-1.65
21
1.6675544408859E-15
31
0
210
0
220
0
230
1
40
0.998135
41
-3.11950312485273
42
-0.0221874378536125
0
ELLIPSE
5
113
100
AcDbEntity
8
1
62
256
6
ByLayer
370
-1
48
1
60
0
100
AcDbEllipse
10
123.244724
20
0
30
0
11
-112.989814532617
21
1.59030963892368
31
0
210
0
220
0
230
-1
40
0.219037
41
-1.58033530506178
42
-1.42352285736033
0
ELLIPSE
5
114
100
AcDbEntity
8
1
62
256
6
ByLayer
370
-1
48
1
60
0
100
AcDbEllipse
10
129.668833
20
11.173782
30
0
11
2.46005201886418E-15
21
2.1
31
0
210
0
220
0
230
1
40
0.996195
41
1.60570291183478
42
1.92552816401089
0
ELLIPSE
5
115
100
AcDbEntity
8
1
62
256
6
ByLayer
370
-1
48
1
60
0
100
AcDbEllipse
10
119.579342
20
14.801142
30
0
11
-1.67795645707761
21
-10.7700725219541
31
0
210
0
220
0
230
1
40
0.203578
41
0.627111843304233
42
1.60250271160661
0
ELLIPSE
5
116
100
AcDbEntity
8
1
62
256
6
ByLayer
370
-1
48
1
60
0
100
AcDbEllipse
10
135.820748
20
-5.84901
30
0
11
-1.65
21
1.6675544408859E-15
31
0
210
0
220
0
230
1
40
0.998135
41
3.14159250247964
42
0
0
ELLIPSE
5
117
100
AcDbEntity
8
1
62
256
6
ByLayer
370
-1
48
1
60
0
100
AcDbEllipse
10
135.820748
20
-5.84901
30
0
11
-1.65
21
1.6675544408859E-15
31
0
210
0
220
0
230
1
40
0.998135
41
0
42
1.17682109171009
0
ELLIPSE
5
118
100
AcDbEntity
8
1
62
256
6
ByLayer
370
-1
48
1
60
0
100
AcDbEllipse
10
135.820748
20
-5.84901
30
0
11
-1.65
21
1.6675544408859E-15
31
0
210
0
220
0
230
1
40
0.998135
41
2.11173944693049
42
3.14159250247965
0
ELLIPSE
5
119
100
AcDbEntity
8
1
62
256
6
ByLayer
370
-1
48
1
60
0
100
AcDbEllipse
10
128.804726
20
0
30
0
11
-117.84803589479
21
-1.33533572994248E-13
31
0
210
0
220
0
230
-1
40
0.210441
41
1.35126946534302
42
1.51248364855412
0
ELLIPSE
5
11A
100
AcDbEntity
8
1
62
256
6
ByLayer
370
-1
48
1
60
0
100
AcDbEllipse
10
128.601011
20
18.008089
30
0
11
-0.773306867873327
21
-0.824449217547898
31
0
210
0
220
0
230
-1
40
0.04503
41
-0.757084614063438
42
-0.704869725979393
0
ELLIPSE
5
11B
100
AcDbEntity
8
1
62
256
6
ByLayer
370
-1
48
1
60
0
100
AcDbEllipse
10
-41.206678
20
0
30
0
11
-441.058996667156
21
-23.9831037021104
31
0
210
0
220
0
230
-1
40
0.014313
41
-1.99139810890163
42
-1.96186034253736
0
ELLIPSE
5
11C
100
AcDbEntity
8
1
62
256
6
ByLayer
370
-1
48
1
60
0
100
AcDbEllipse
10
128.566765
20
15.875519
30
0
11
-0.799516360141551
21
-0.0278134835287853
31
0
210
0
220
0
230
1
40
0.003042
41
0.087213571465873
42
0.974050329556246
0
ELLIPSE
5
11D
100
AcDbEntity
8
1
62
256
6
ByLayer
370
-1
48
1
60
0
100
AcDbEllipse
10
142.310232
20
-12.88213
30
0
11
-0.0775054657239568
21
-0.878086631931123
31
0
210
0
220
0
230
-1
40
0.115224
41
0.0037084551559911
42
1.57450478195037
0
ELLIPSE
5
11E
100
AcDbEntity
8
1
62
256
6
ByLayer
370
-1
48
1
60
0
100
AcDbEllipse
10
130.026171
20
11.173782
30
0
11
-2.25092568282431E-15
21
-2.1
31
0
210
0
220
0
230
1
40
0.996195
41
-1.53588974175502
42
-0.158767832418391
0
ELLIPSE
5
11F
100
AcDbEntity
8
1
62
256
6
ByLayer
370
-1
48
1
60
0
100
AcDbEllipse
10
128.731907
20
11.128413
30
0
11
-0.799516360141551
21
-0.0278134835287853
31
0
210
0
220
0
230
1
40
0.003042
41
0.0872135714651397
42
0.974050329556216
0
ELLIPSE
5
120
100
AcDbEntity
8
1
62
256
6
ByLayer
370
-1
48
1
60
0
100
AcDbEllipse
10
135.820748
20
-6.349608
30
0
11
-2
21
2.02127811016473E-15
31
0
210
0
220
0
230
1
40
0.998135
41
-2.12106600584354
42
-1.02062521243922
0
ELLIPSE
5
121
100
AcDbEntity
8
1
62
256
6
ByLayer
370
-1
48
1
60
0
100
AcDbEllipse
10
141.738508
20
-0.026403
30
0
11
-0.00103544174261004
21
0.800514041997233
31
0
210
0
220
0
230
-1
40
0.122644
41
-1.50531329189641
42
0.0654830348951203
0
ELLIPSE
5
122
100
AcDbEntity
8
1
62
256
6
ByLayer
370
-1
48
1
60
0
100
AcDbEllipse
10
142.155631
20
0
30
0
11
-1.50482159649345
21
24.7993524705374
31
0
210
0
220
0
230
-1
40
0.119092
41
-2.04246617607077
42
-1.54075850763638
0
ELLIPSE
5
123
100
AcDbEntity
8
1
62
256
6
ByLayer
370
-1
48
1
60
0
100
AcDbEllipse
10
142.614458
20
-8.872202
30
0
11
0.365223319349419
21
0.163131624780091
31
0
210
0
220
0
230
1
40
0.055758
41
-2.71681212084315
42
-1.59569626835045
0
ELLIPSE
5
124
100
AcDbEntity
8
1
62
256
6
ByLayer
370
-1
48
1
60
0
100
AcDbEllipse
10
140.636065
20
-1.071963
30
0
11
1.18387341434896
21
0
31
0
210
0
220
0
230
1
40
0.998135
41
0.349065850399011
42
0.562842392296927
0
ELLIPSE
5
125
100
AcDbEntity
8
1
62
256
6
ByLayer
370
-1
48
1
60
0
100
AcDbEllipse
10
146.524413
20
-7.413103
30
0
11
-3.00000000000001
21
3.0319171652471E-15
31
0
210
0
220
0
230
1
40
0.998135
41
0.0523598775598167
42
0.419380376866296
0
ELLIPSE
5
126
100
AcDbEntity
8
1
62
256
6
ByLayer
370
-1
48
1
60
0
100
AcDbEllipse
10
141.501036
20
-9.648496
30
0
11
-2.49999999999999
21
2.5265976377059E-15
31
0
210
0
220
0
230
1
40
0.998135
41
3.1066860685499
42
-2.7222122767235
0
ELLIPSE
5
127
100
AcDbEntity
8
1
62
256
6
ByLayer
370
-1
48
1
60
0
100
AcDbEllipse
10
141.198888
20
-2.323588
30
0
11
1.08387341434895
21
0
31
0
210
0
220
0
230
1
40
0.998135
41
0.0523598775598164
42
0.349065850399046
0
ELLIPSE
5
128
100
AcDbEntity
8
1
62
256
6
ByLayer
370
-1
48
1
60
0
100
AcDbEllipse
10
141.768686
20
-11.328421
30
0
11
-0.883873414348952
21
8.93276992290047E-16
31
0
210
0
220
0
230
1
40
0.998135
41
2.13630974316582
42
3.10668606854994
0
ELLIPSE
5
129
100
AcDbEntity
8
1
62
256
6
ByLayer
370
-1
48
1
60
0
100
AcDbEllipse
10
141.501036
20
-9.520294
30
0
11
-2.24215242210385
21
2.26600680522567E-15
31
0
210
0
220
0
230
1
40
0.998135
41
3.10668606854989
42
-2.72221227672349
0
ELLIPSE
5
12A
100
AcDbEntity
8
1
62
256
6
ByLayer
370
-1
48
1
60
0
100
AcDbEllipse
10
146.524413
20
-7.156699
30
0
11
4.28093556580439
21
0
31
0
210
0
220
0
230
1
40
0.998135
41
-3.08923277602997
42
-2.7222122767235
0
ELLIPSE
5
12B
100
AcDbEntity
8
1
62
256
6
ByLayer
370
-1
48
1
60
0
100
AcDbEllipse
10
142.088928
20
-9.407082
30
0
11
0.29981059662464
21
-0.0106586186524087
31
0
210
0
220
0
230
1
40
0.062172
41
0.451113598197678
42
0.749081453625477
0
ELLIPSE
5
12C
100
AcDbEntity
8
1
62
256
6
ByLayer
370
-1
48
1
60
0
100
AcDbEllipse
10
136.064564
20
-6.756289
30
0
11
2.35
21
0
31
0
210
0
220
0
230
1
40
0.998135
41
1.43914375962751
42
2.37141152198152
0
ELLIPSE
5
12D
100
AcDbEntity
8
1
62
256
6
ByLayer
370
-1
48
1
60
0
100
AcDbEllipse
10
136.064564
20
-6.756289
30
0
11
2.35
21
0
31
0
210
0
220
0
230
1
40
0.998135
41
-3.14159257215789
42
-3.78654454259376E-16
0
ELLIPSE
5
12E
100
AcDbEntity
8
1
62
256
6
ByLayer
370
-1
48
1
60
0
100
AcDbEllipse
10
146.524413
20
-7.284901
30
0
11
-3.25784757789614
21
3.29250799772732E-15
31
0
210
0
220
0
230
1
40
0.998135
41
0.0523598775598178
42
0.419380376866286
0
ELLIPSE
5
12F
100
AcDbEntity
8
1
62
256
6
ByLayer
370
-1
48
1
60
0
100
AcDbEllipse
10
142.249345
20
-7.355908
30
0
11
0.399449767440438
21
0.020973394855864
31
0
210
0
220
0
230
1
40
0.060965
41
-2.26002761206164
42
-1.57399732007398
0
ELLIPSE
5
130
100
AcDbEntity
8
1
62
256
6
ByLayer
370
-1
48
1
60
0
100
AcDbEllipse
10
142.652021
20
-11.33479
30
0
11
0.399755420109682
21
-0.0139858533144044
31
0
210
0
220
0
230
1
40
0.061011
41
-2.69514959798633
42
-1.56866178537651
0
ELLIPSE
5
131
100
AcDbEntity
8
1
62
256
6
ByLayer
370
-1
48
1
60
0
100
AcDbEllipse
10
142.038678
20
-9.146998
30
0
11
0.274043758267672
21
0.122065632159629
31
0
210
0
220
0
230
1
40
0.058035
41
0.424839320317276
42
0.724171078306997
0
ELLIPSE
5
132
100
AcDbEntity
8
1
62
256
6
ByLayer
370
-1
48
1
60
0
100
AcDbEllipse
10
142.719357
20
-9.410138
30
0
11
0.399755420109682
21
-0.0139858533144044
31
0
210
0
220
0
230
1
40
0.061011
41
-2.69051241236504
42
-1.56866178537651
0
ELLIPSE
5
133
100
AcDbEntity
8
1
62
256
6
ByLayer
370
-1
48
1
60
0
100
AcDbEllipse
10
141.501036
20
-9.392092
30
0
11
-1.21906443419553
21
1.23203412785989E-15
31
0
210
0
220
0
230
1
40
0.998135
41
3.10668606854992
42
-2.72221227672347
0
ELLIPSE
5
134
100
AcDbEntity
8
1
62
256
6
ByLayer
370
-1
48
1
60
0
100
AcDbEllipse
10
141.981687
20
-2.25822
30
0
11
0.399449767440438
21
0.020973394855864
31
0
210
0
220
0
230
1
40
0.060965
41
-2.26004055362342
42
-1.5739973200739
0
ELLIPSE
5
135
100
AcDbEntity
8
1
62
256
6
ByLayer
370
-1
48
1
60
0
100
AcDbEllipse
10
141.198888
20
-2.323588
30
0
11
-0.783873414348954
21
7.92213086781812E-16
31
0
210
0
220
0
230
1
40
0.998135
41
-3.08923277602995
42
-2.79252680319092
0
ELLIPSE
5
136
100
AcDbEntity
8
1
62
256
6
ByLayer
370
-1
48
1
60
0
100
AcDbEllipse
10
136.064564
20
-6.85973
30
0
11
2.35
21
0
31
0
210
0
220
0
230
1
40
0.998135
41
1.21020019771931
42
2.43365406000298
0
ELLIPSE
5
137
100
AcDbEntity
8
1
62
256
6
ByLayer
370
-1
48
1
60
0
100
AcDbEllipse
10
136.064564
20
-6.85973
30
0
11
2.35
21
0
31
0
210
0
220
0
230
1
40
0.998135
41
-3.14159257215789
42
-3.78654454259376E-16
0
ELLIPSE
5
138
100
AcDbEntity
8
1
62
256
6
ByLayer
370
-1
48
1
60
0
100
AcDbEllipse
10
141.501036
20
-9.392092
30
0
11
1.51906443419564
21
0
31
0
210
0
220
0
230
1
40
0.998135
41
-0.0349065850399031
42
0.419380376866321
0
ELLIPSE
5
139
100
AcDbEntity
8
1
62
256
6
ByLayer
370
-1
48
1
60
0
100
AcDbEllipse
10
146.524413
20
-7.156699
30
0
11
-3.98093556580436
21
4.02328895856829E-15
31
0
210
0
220
0
230
1
40
0.998135
41
0.0523598775598148
42
0.419380376866291
0
ELLIPSE
5
13A
100
AcDbEntity
8
1
62
256
6
ByLayer
370
-1
48
1
60
0
100
AcDbEllipse
10
142.020086
20
-11.331726
30
0
11
0.299807269110745
21
-0.010751808608676
31
0
210
0
220
0
230
1
40
0.062833
41
0.446494925003049
42
0.735886306861261
0
ELLIPSE
5
13B
100
AcDbEntity
8
1
62
256
6
ByLayer
370
-1
48
1
60
0
100
AcDbEllipse
10
141.768686
20
-11.328421
30
0
11
1.18387341434896
21
0
31
0
210
0
220
0
230
1
40
0.998135
41
-1.15180100044598
42
-0.0349065850398898
0
ELLIPSE
5
13C
100
AcDbEntity
8
1
62
256
6
ByLayer
370
-1
48
1
60
0
100
AcDbEllipse
10
141.935488
20
-2.031568
30
0
11
0.375794833735044
21
0.137033729198511
31
0
210
0
220
0
230
1
40
0.057367
41
-2.20153972804385
42
-1.59171212435566
0
ELLIPSE
5
13D
100
AcDbEntity
8
1
62
256
6
ByLayer
370
-1
48
1
60
0
100
AcDbEllipse
10
140.381791
20
13.241796
30
0
11
3.51436002694886E-16
21
0.300000000000003
31
0
210
0
220
0
230
1
40
0.996195
41
-3.10668606854989
42
-1.53588974175502
0
ELLIPSE
5
13E
100
AcDbEntity
8
1
62
256
6
ByLayer
370
-1
48
1
60
0
100
AcDbEllipse
10
135.809267
20
17.587026
30
0
11
-3.30786649004912E-15
21
-3.0860724021715
31
0
210
0
220
0
230
1
40
0.996195
41
2.2155101975546
42
0
0
ELLIPSE
5
13F
100
AcDbEntity
8
1
62
256
6
ByLayer
370
-1
48
1
60
0
100
AcDbEllipse
10
135.809267
20
17.587026
30
0
11
-3.30786649004912E-15
21
-3.0860724021715
31
0
210
0
220
0
230
1
40
0.996195
41
0
42
0.92608266050835
0
ELLIPSE
5
140
100
AcDbEntity
8
1
62
256
6
ByLayer
370
-1
48
1
60
0
100
AcDbEllipse
10
131.311701
20
13.57232
30
0
11
3.58464722748779E-16
21
0.305999999999999
31
0
210
0
220
0
230
1
40
0.996195
41
-1.39399268715089
42
1.747599966439
0
ELLIPSE
5
141
100
AcDbEntity
8
1
62
256
6
ByLayer
370
-1
48
1
60
0
100
AcDbEllipse
10
136.962149
20
21.854332
30
0
11
0.113834701403356
21
0.383460116252537
31
0
210
0
220
0
230
1
40
0.083578
41
-2.02489549788579
42
-1.54599041301063
0
ELLIPSE
5
142
100
AcDbEntity
8
1
62
256
6
ByLayer
370
-1
48
1
60
0
100
AcDbEllipse
10
131.840955
20
14.180323
30
0
11
0.373651049327857
21
-0.347109339165905
31
0
210
0
220
0
230
1
40
0.05944
41
1.47029936263275
42
2.1503993843489
0
ELLIPSE
5
143
100
AcDbEntity
8
1
62
256
6
ByLayer
370
-1
48
1
60
0
100
AcDbEllipse
10
132.315628
20
14.691291
30
0
11
0.373651049327857
21
-0.347109339165905
31
0
210
0
220
0
230
1
40
0.05944
41
1.50689827555572
42
2.15039938434923
0
ELLIPSE
5
144
100
AcDbEntity
8
1
62
256
6
ByLayer
370
-1
48
1
60
0
100
AcDbEllipse
10
139.857988
20
19.143604
30
0
11
0.374905085817622
21
0.139449548683677
31
0
210
0
220
0
230
1
40
0.030486
41
-1.96792246060815
42
-1.48901737573342
0
ELLIPSE
5
145
100
AcDbEntity
8
1
62
256
6
ByLayer
370
-1
48
1
60
0
100
AcDbEllipse
10
137.391105
20
13.137097
30
0
11
-5.19131082315856E-16
21
-0.484323085911667
31
0
210
0
220
0
230
1
40
0.996195
41
-2.78424263309281
42
0.0349065850399259
0
ELLIPSE
5
146
100
AcDbEntity
8
1
62
256
6
ByLayer
370
-1
48
1
60
0
100
AcDbEllipse
10
132.260764
20
13.846152
30
0
11
-1.23908099492614E-15
21
-1.156
31
0
210
0
220
0
230
1
40
0.996195
41
0.920472169598879
42
3.0346021840255
0
ELLIPSE
5
147
100
AcDbEntity
8
1
62
256
6
ByLayer
370
-1
48
1
60
0
100
AcDbEllipse
10
130.840784
20
21.345641
30
0
11
0.099131498336372
21
0.500272871578687
31
0
210
0
220
0
230
1
40
0.085506
41
-1.55385457642578
42
-0.91035346763281
0
ELLIPSE
5
148
100
AcDbEntity
8
1
62
256
6
ByLayer
370
-1
48
1
60
0
100
AcDbEllipse
10
131.853638
20
14.19397
30
0
11
-0.0251697074551307
21
0.720773607011678
31
0
210
0
220
0
230
-1
40
0.061588
41
1.57294544216507
42
1.6095460953287
0
ELLIPSE
5
149
100
AcDbEntity
8
1
62
256
6
ByLayer
370
-1
48
1
60
0
100
AcDbEllipse
10
133.024161
20
20.915749
30
0
11
-3.27992028068685E-16
21
-0.306
31
0
210
0
220
0
230
1
40
0.996195
41
-0.750491578357538
42
2.39110107523224
0
ELLIPSE
5
14A
100
AcDbEntity
8
1
62
256
6
ByLayer
370
-1
48
1
60
0
100
AcDbEllipse
10
131.626174
20
22.191086
30
0
11
-0.956951143048301
21
1.59255145046569
31
0
210
0
220
0
230
-1
40
0.020508
41
1.58311883792679
42
2.22661994680417
0
ELLIPSE
5
14B
100
AcDbEntity
8
1
62
256
6
ByLayer
370
-1
48
1
60
0
100
AcDbEllipse
10
131.911784
20
21.133417
30
0
11
0.099131498336372
21
0.500272871578687
31
0
210
0
220
0
230
1
40
0.085506
41
-2.19735568521883
42
-1.55385457642578
0
ELLIPSE
5
14C
100
AcDbEntity
8
1
62
256
6
ByLayer
370
-1
48
1
60
0
100
AcDbEllipse
10
132.203211
20
20.070304
30
0
11
0.348527918949299
21
0.3723282016083
31
0
210
0
220
0
230
1
40
0.063742
41
-2.1547009679553
42
-0.867698750369056
0
ELLIPSE
5
14D
100
AcDbEntity
8
1
62
256
6
ByLayer
370
-1
48
1
60
0
100
AcDbEllipse
10
131.586834
20
14.360779
30
0
11
2.34993540468645E-15
21
2.006
31
0
210
0
220
0
230
1
40
0.996195
41
-2.42145532631402
42
-2.22112048399091
0
ELLIPSE
5
14E
100
AcDbEntity
8
1
62
256
6
ByLayer
370
-1
48
1
60
0
100
AcDbEllipse
10
131.626174
20
22.191086
30
0
11
0.348527918949299
21
0.3723282016083
31
0
210
0
220
0
230
1
40
0.063742
41
-1.51119985916242
42
-0.867698750369297
0
ELLIPSE
5
14F
100
AcDbEntity
8
1
62
256
6
ByLayer
370
-1
48
1
60
0
100
AcDbEllipse
10
135.735912
20
17.587026
30
0
11
4.99704147825015E-15
21
4.26567691408833
31
0
210
0
220
0
230
1
40
0.996195
41
-2.78424263309283
42
-1.85833317721211
0
ELLIPSE
5
150
100
AcDbEntity
8
1
62
256
6
ByLayer
370
-1
48
1
60
0
100
AcDbEllipse
10
131.889193
20
14.193971
30
0
11
3.5846472274878E-16
21
0.306
31
0
210
0
220
0
230
1
40
0.996195
41
0.881327184779148
42
2.39110107523225
0
ELLIPSE
5
151
100
AcDbEntity
8
1
62
256
6
ByLayer
370
-1
48
1
60
0
100
AcDbEllipse
10
140.377869
20
13.241796
30
0
11
-5.19131082315858E-16
21
-0.484323085911669
31
0
210
0
220
0
230
1
40
0.996195
41
0.0349065850399259
42
1.60570291183474
0
ELLIPSE
5
152
100
AcDbEntity
8
1
62
256
6
ByLayer
370
-1
48
1
60
0
100
AcDbEllipse
10
132.145266
20
13.721822
30
0
11
1.35420006371761E-15
21
1.156
31
0
210
0
220
0
230
1
40
0.996195
41
1.74759996643896
42
-2.42145532631402
0
ELLIPSE
5
153
100
AcDbEntity
8
1
62
256
6
ByLayer
370
-1
48
1
60
0
100
AcDbEllipse
10
131.276141
20
13.57232
30
0
11
0.502108561637825
21
0.0893699744321017
31
0
210
0
220
0
230
1
40
0.015329
41
-2.12838464107887
42
-0.841382423491976
0
ELLIPSE
5
154
100
AcDbEntity
8
1
62
256
6
ByLayer
370
-1
48
1
60
0
100
AcDbEllipse
10
140.436643
20
19.259012
30
0
11
-0.399758180070776
21
-0.0139067417643927
31
0
210
0
220
0
230
1
40
0.003042
41
1.65800989826097
42
2.13691498313456
0
ELLIPSE
5
155
100
AcDbEntity
8
1
62
256
6
ByLayer
370
-1
48
1
60
0
100
AcDbEllipse
10
137.255626
20
13.418145
30
0
11
0.14038589456198
21
-0.374555470668942
31
0
210
0
220
0
230
1
40
0.08165
41
1.54020296240859
42
2.01910804728369
0
ELLIPSE
5
156
100
AcDbEntity
8
1
62
256
6
ByLayer
370
-1
48
1
60
0
100
AcDbEllipse
10
135.993509
20
17.587026
30
0
11
-2.51889302601768E-15
21
-2.35
31
0
210
0
220
0
230
1
40
0.996195
41
3.09878844376697
42
0
0
ELLIPSE
5
157
100
AcDbEntity
8
1
62
256
6
ByLayer
370
-1
48
1
60
0
100
AcDbEllipse
10
135.993509
20
17.587026
30
0
11
-2.51889302601768E-15
21
-2.35
31
0
210
0
220
0
230
1
40
0.996195
41
0
42
0.0335758030814264
0
ELLIPSE
5
158
100
AcDbEntity
8
1
62
256
6
ByLayer
370
-1
48
1
60
0
100
AcDbEllipse
10
131.661733
20
22.191086
30
0
11
3.5846472274878E-16
21
0.306
31
0
210
0
220
0
230
1
40
0.996195
41
-0.75049157835767
42
1.83550459668067
0
ELLIPSE
5
159
100
AcDbEntity
8
1
62
256
6
ByLayer
370
-1
48
1
60
0
100
AcDbEllipse
10
132.260764
20
13.846152
30
0
11
-3.27992028068685E-16
21
-0.306
31
0
210
0
220
0
230
1
40
0.996195
41
-0.750491578357564
42
2.39110107523223
0
ELLIPSE
5
15A
100
AcDbEntity
8
1
62
256
6
ByLayer
370
-1
48
1
60
0
100
AcDbEllipse
10
132.899135
20
13.331524
30
0
11
-0.406468958660141
21
0.308030819311543
31
0
210
0
220
0
230
1
40
0.052768
41
-2.28381636720134
42
-0.996814149613839
0
ELLIPSE
5
15B
100
AcDbEntity
8
1
62
256
6
ByLayer
370
-1
48
1
60
0
100
AcDbEllipse
10
131.586834
20
14.360779
30
0
11
1.63300595918889E-15
21
1.394
31
0
210
0
220
0
230
1
40
0.996195
41
-2.42145532631403
42
-2.22112048399092
0
ELLIPSE
5
15C
100
AcDbEntity
8
1
62
256
6
ByLayer
370
-1
48
1
60
0
100
AcDbEllipse
10
132.260764
20
13.846152
30
0
11
-5.83096938788774E-16
21
-0.544
31
0
210
0
220
0
230
1
40
0.996195
41
0.920472169598871
42
2.77549784972786
0
ELLIPSE
5
15D
100
AcDbEntity
8
1
62
256
6
ByLayer
370
-1
48
1
60
0
100
AcDbEllipse
10
136.13247
20
17.587026
30
0
11
-2.51889302601768E-15
21
-2.35
31
0
210
0
220
0
230
1
40
0.996195
41
-3.1119438437377
42
-0.0296489603413535
0
ELLIPSE
5
15E
100
AcDbEntity
8
1
62
256
6
ByLayer
370
-1
48
1
60
0
100
AcDbEllipse
10
132.238771
20
20.070304
30
0
11
-3.27992028068685E-16
21
-0.306
31
0
210
0
220
0
230
1
40
0.996195
41
-0.750491578357564
42
2.39110107523223
0
ELLIPSE
5
15F
100
AcDbEntity
8
1
62
256
6
ByLayer
370
-1
48
1
60
0
100
AcDbEllipse
10
140.172829
20
19.248542
30
0
11
-3.21560811832046E-16
21
-0.300000000000001
31
0
210
0
220
0
230
1
40
0.996195
41
-1.21344630629795
42
1.60570291183477
0
ELLIPSE
5
160
100
AcDbEntity
8
1
62
256
6
ByLayer
370
-1
48
1
60
0
100
AcDbEllipse
10
130.876343
20
21.345641
30
0
11
3.5846472274878E-16
21
0.306
31
0
210
0
220
0
230
1
40
0.996195
41
-0.194895099805945
42
2.39110107523211
0
ELLIPSE
5
161
100
AcDbEntity
8
1
62
256
6
ByLayer
370
-1
48
1
60
0
100
AcDbEllipse
10
137.081765
20
22.142016
30
0
11
-3.21560811832046E-16
21
-0.300000000000001
31
0
210
0
220
0
230
1
40
0.996195
41
-3.10668606854988
42
-0.28753685041718
0
ELLIPSE
5
162
100
AcDbEntity
8
1
62
256
6
ByLayer
370
-1
48
1
60
0
100
AcDbEllipse
10
135.735912
20
17.587026
30
0
11
4.99704147825015E-15
21
4.26567691408833
31
0
210
0
220
0
230
1
40
0.996195
41
-1.21344630629792
42
-0.287536850417197
0
ELLIPSE
5
163
100
AcDbEntity
8
1
62
256
6
ByLayer
370
-1
48
1
60
0
100
AcDbEllipse
10
131.840955
20
14.180323
30
0
11
-0.37340082812668
21
0.346876892031236
31
0
210
0
220
0
230
1
40
0.05944
41
-1.63469437803416
42
-0.99208728782035
0
ELLIPSE
5
164
100
AcDbEntity
8
1
62
256
6
ByLayer
370
-1
48
1
60
0
100
AcDbEllipse
10
130.840784
20
21.345641
30
0
11
-1.65004005636009
21
0.846499039267229
31
0
210
0
220
0
230
-1
40
0.010943
41
1.5921236860219
42
2.23562479421632
0
ELLIPSE
5
165
100
AcDbEntity
8
1
62
256
6
ByLayer
370
-1
48
1
60
0
100
AcDbEllipse
10
140.332343
20
22.257184
30
0
11
0.399758180070776
21
0.0139067417643928
31
0
210
0
220
0
230
1
40
0.003042
41
-1.48358275532868
42
-1.00467767045482
0
ELLIPSE
5
166
100
AcDbEntity
8
1
62
256
6
ByLayer
370
-1
48
1
60
0
100
AcDbEllipse
10
140.273569
20
16.239968
30
0
11
-5.19131082315857E-16
21
-0.484323085911668
31
0
210
0
220
0
230
1
40
0.996195
41
1.60570291183474
42
-1.85833317721212
0
ELLIPSE
5
167
100
AcDbEntity
8
1
62
256
6
ByLayer
370
-1
48
1
60
0
100
AcDbEllipse
10
140.168907
20
19.248542
30
0
11
-5.19131082315857E-16
21
-0.484323085911668
31
0
210
0
220
0
230
1
40
0.996195
41
-1.21344630629796
42
1.60570291183474
0
ELLIPSE
5
168
100
AcDbEntity
8
1
62
256
6
ByLayer
370
-1
48
1
60
0
100
AcDbEllipse
10
132.145266
20
13.721822
30
0
11
6.37270618220054E-16
21
0.544
31
0
210
0
220
0
230
1
40
0.996195
41
1.74759996643892
42
-2.42145532631398
0
ELLIPSE
5
169
100
AcDbEntity
8
1
62
256
6
ByLayer
370
-1
48
1
60
0
100
AcDbEllipse
10
140.277491
20
16.239968
30
0
11
3.51436002694884E-16
21
0.300000000000001
31
0
210
0
220
0
230
1
40
0.996195
41
-1.53588974175502
42
1.28325947637766
0
ELLIPSE
5
16A
100
AcDbEntity
8
1
62
256
6
ByLayer
370
-1
48
1
60
0
100
AcDbEllipse
10
137.077843
20
22.142016
30
0
11
-5.19131082315856E-16
21
-0.484323085911667
31
0
210
0
220
0
230
1
40
0.996195
41
-3.10668606854999
42
-0.287536850417242
0
ELLIPSE
5
16B
100
AcDbEntity
8
1
62
256
6
ByLayer
370
-1
48
1
60
0
100
AcDbEllipse
10
132.351188
20
14.691291
30
0
11
3.5846472274878E-16
21
0.306
31
0
210
0
220
0
230
1
40
0.996195
41
-0.106990469564247
42
0.820304748434675
0
ELLIPSE
5
16C
100
AcDbEntity
8
1
62
256
6
ByLayer
370
-1
48
1
60
0
100
AcDbEllipse
10
132.988601
20
20.915749
30
0
11
0.348527918949299
21
0.3723282016083
31
0
210
0
220
0
230
1
40
0.063742
41
-2.1547009679558
42
-0.867698750368745
0
ELLIPSE
5
16D
100
AcDbEntity
8
1
62
256
6
ByLayer
370
-1
48
1
60
0
100
AcDbEllipse
10
135.739834
20
17.587026
30
0
11
-4.76981870884199E-15
21
-4.45
31
0
210
0
220
0
230
1
40
0.996195
41
0.357350020496975
42
1.28325947637769
0
ELLIPSE
5
16E
100
AcDbEntity
8
1
62
256
6
ByLayer
370
-1
48
1
60
0
100
AcDbEllipse
10
132.225205
20
13.846152
30
0
11
-0.348527918949299
21
-0.3723282016083
31
0
210
0
220
0
230
1
40
0.063742
41
0.98689168563449
42
2.27389390322023
0
ELLIPSE
5
16F
100
AcDbEntity
8
1
62
256
6
ByLayer
370
-1
48
1
60
0
100
AcDbEllipse
10
140.357358
20
12.941979
30
0
11
0.0140130575244565
21
-0.399754467415708
31
0
210
0
220
0
230
1
40
0.087103
41
1.08883794108392
42
1.56774302595899
0
ELLIPSE
5
170
100
AcDbEntity
8
1
62
256
6
ByLayer
370
-1
48
1
60
0
100
AcDbEllipse
10
140.645605
20
13.252266
30
0
11
0.399758180070776
21
0.0139067417643928
31
0
210
0
220
0
230
1
40
0.003042
41
-1.48358275532882
42
-1.00467767045314
0
ELLIPSE
5
171
100
AcDbEntity
8
1
62
256
6
ByLayer
370
-1
48
1
60
0
100
AcDbEllipse
10
137.370595
20
12.83728
30
0
11
0.0140130575244565
21
-0.399754467415708
31
0
210
0
220
0
230
1
40
0.087103
41
1.08883794108433
42
1.56774302595899
0
ELLIPSE
5
172
100
AcDbEntity
8
1
62
256
6
ByLayer
370
-1
48
1
60
0
100
AcDbEllipse
10
137.395027
20
13.137097
30
0
11
3.51436002694884E-16
21
0.300000000000001
31
0
210
0
220
0
230
1
40
0.996195
41
0.357350020496943
42
-3.10668606854988
0
ELLIPSE
5
173
100
AcDbEntity
8
1
62
256
6
ByLayer
370
-1
48
1
60
0
100
AcDbEllipse
10
132.668138
20
13.082864
30
0
11
-0.337063013710962
21
0.382738193531928
31
0
210
0
220
0
230
1
40
0.065516
41
-2.27193125321707
42
-0.984929035630775
0
ELLIPSE
5
174
100
AcDbEntity
8
1
62
256
6
ByLayer
370
-1
48
1
60
0
100
AcDbEllipse
10
135.832982
20
17.587026
30
0
11
-3.19627500372467E-15
21
-2.98196318032136
31
0
210
0
220
0
230
1
40
0.996195
41
0
42
6.28318530717959
0
ELLIPSE
5
175
100
AcDbEntity
8
1
62
256
6
ByLayer
370
-1
48
1
60
0
100
AcDbEllipse
10
140.023236
20
22.546532
30
0
11
-0.0140130575244566
21
0.399754467415708
31
0
210
0
220
0
230
1
40
0.087103
41
-1.5738496276308
42
-1.09494454275567
0
ELLIPSE
5
176
100
AcDbEntity
8
1
62
256
6
ByLayer
370
-1
48
1
60
0
100
AcDbEllipse
10
140.068529
20
22.246715
30
0
11
-3.21560811832048E-16
21
-0.300000000000003
31
0
210
0
220
0
230
1
40
0.996195
41
1.60570291183477
42
-3.10668606854988
0
ELLIPSE
5
177
100
AcDbEntity
8
1
62
256
6
ByLayer
370
-1
48
1
60
0
100
AcDbEllipse
10
131.947344
20
21.133417
30
0
11
-3.27992028068685E-16
21
-0.306
31
0
210
0
220
0
230
1
40
0.996195
41
-0.194895099806065
42
1.83550459668067
0
ELLIPSE
5
178
100
AcDbEntity
8
1
62
256
6
ByLayer
370
-1
48
1
60
0
100
AcDbEllipse
10
139.95604
20
16.325046
30
0
11
0.383695343937984
21
-0.113039298654548
31
0
210
0
220
0
230
1
40
0.024717
41
1.48709549701753
42
1.96600058189233
0
ELLIPSE
5
179
100
AcDbEntity
8
1
62
256
6
ByLayer
370
-1
48
1
60
0
100
AcDbEllipse
10
131.911784
20
21.133417
30
0
11
0.492364140378782
21
0.132956960212932
31
0
210
0
220
0
230
1
40
0.022802
41
-1.48655483674065
42
-0.843053727947559
0
ELLIPSE
5
17A
100
AcDbEntity
8
1
62
256
6
ByLayer
370
-1
48
1
60
0
100
AcDbEllipse
10
131.626174
20
22.191086
30
0
11
0.492364140378782
21
0.132956960212932
31
0
210
0
220
0
230
1
40
0.022802
41
-2.13005594553439
42
-1.48655483674059
0
ELLIPSE
5
17B
100
AcDbEntity
8
1
62
256
6
ByLayer
370
-1
48
1
60
0
100
AcDbEllipse
10
140.541305
20
16.250438
30
0
11
-0.399758180070776
21
-0.0139067417643927
31
0
210
0
220
0
230
1
40
0.003042
41
1.65800989826097
42
2.13691498313498
0
ELLIPSE
5
17C
100
AcDbEntity
8
1
62
256
6
ByLayer
370
-1
48
1
60
0
100
AcDbEllipse
10
137.036473
20
22.441833
30
0
11
-0.0140130575244566
21
0.399754467415708
31
0
210
0
220
0
230
1
40
0.087103
41
-1.5738496276308
42
-1.09494454275608
0
ELLIPSE
5
17D
100
AcDbEntity
8
1
62
256
6
ByLayer
370
-1
48
1
60
0
100
AcDbEllipse
10
131.911784
20
21.133417
30
0
11
-0.705563291368935
21
0.659061826725366
31
0
210
0
220
0
230
-1
40
0.031444
41
0.96094508782469
42
1.60444619683097
0
ELLIPSE
5
17E
100
AcDbEntity
8
1
62
256
6
ByLayer
370
-1
48
1
60
0
100
AcDbEllipse
10
140.064607
20
22.246715
30
0
11
-5.19131082315858E-16
21
-0.484323085911669
31
0
210
0
220
0
230
1
40
0.996195
41
1.60570291183474
42
-3.10668606854999
0
ELLIPSE
5
17F
100
AcDbEntity
8
1
62
256
6
ByLayer
370
-1
48
1
60
0
100
AcDbEllipse
10
135.739834
20
17.587026
30
0
11
5.21296737330743E-15
21
4.45
31
0
210
0
220
0
230
1
40
0.996195
41
-1.21344630629792
42
-0.287536850417209
0
ELLIPSE
5
180
100
AcDbEntity
8
1
62
256
6
ByLayer
370
-1
48
1
60
0
100
AcDbEllipse
10
131.853634
20
14.193971
30
0
11
0.348527918949299
21
0.3723282016083
31
0
210
0
220
0
230
1
40
0.063742
41
-2.1547009679555
42
-1.54779877208525
0
ELLIPSE
5
181
100
AcDbEntity
8
1
62
256
6
ByLayer
370
-1
48
1
60
0
100
AcDbEllipse
10
131.853634
20
14.193971
30
0
11
-0.719441079109824
21
-0.0251232539412875
31
0
210
0
220
0
230
-1
40
0.002159
41
-2.27604469503337
42
-1.63254358548212
0
ELLIPSE
5
182
100
AcDbEntity
8
1
62
256
6
ByLayer
370
-1
48
1
60
0
100
AcDbEllipse
10
132.315628
20
14.691291
30
0
11
-0.0546667450361371
21
-0.507061679667428
31
0
210
0
220
0
230
1
40
0.086657
41
1.58013866027565
42
2.22363976906916
0
ELLIPSE
5
183
100
AcDbEntity
8
1
62
256
6
ByLayer
370
-1
48
1
60
0
100
AcDbEllipse
10
130.840784
20
21.345641
30
0
11
0.348527918949299
21
0.3723282016083
31
0
210
0
220
0
230
1
40
0.063742
41
-2.1547009679558
42
-1.51119985916242
0
ELLIPSE
5
184
100
AcDbEntity
8
1
62
256
6
ByLayer
370
-1
48
1
60
0
100
AcDbEllipse
10
135.735912
20
17.587026
30
0
11
3.68413502519129E-15
21
3.14492681194351
31
0
210
0
220
0
230
1
40
0.996195
41
0
42
6.28318530717959
0
POINT
5
41
100
AcDbEntity
8
81
62
256
6
ByLayer
370
-1
48
1
60
0
100
AcDbPoint
10
144
20
0
30
0
39
0
210
0
220
0
230
1
50
360
0
POINT
5
43
100
AcDbEntity
8
80
62
256
6
ByLayer
370
-1
48
1
60
0
100
AcDbPoint
10
0
20
0
30
0
39
0
210
0
220
0
230
1
50
360
0
SPLINE
5
185
100
AcDbEntity
8
1
62
256
6
ByLayer
370
-1
48
1
60
0
100
AcDbSpline
70
4
71
3
72
24
73
20
40
0
40
0
40
0
40
0
40
0.0512219324959464
40
0.114795075180366
40
0.178268200557147
40
0.241581453348872
40
0.304701879023949
40
0.367626814561731
40
0.430381895458681
40
0.493015351539977
40
0.555590417373242
40
0.618167359708159
40
0.680802024190468
40
0.743557000804828
40
0.806479913224956
40
0.869596202215384
40
0.932903765868113
40
0.996370983435442
40
1
40
1
40
1
40
1
41
1
10
136.092432545585
20
19.927997001054
30
0
41
1
10
136.21489700971
20
19.925922870585
30
0
41
1
10
136.484252302965
20
19.8987145041216
30
0
41
1
10
136.890746458736
20
19.771163784351
30
0
41
1
10
137.291085512448
20
19.5566465070246
30
0
41
1
10
137.642891084607
20
19.2674024785289
30
0
41
1
10
137.932675989077
20
18.9157563728519
30
0
41
1
10
138.149770243256
20
18.5147479561541
30
0
41
1
10
138.286260266019
20
18.0796062674256
30
0
41
1
10
138.337330450512
20
17.6265786988251
30
0
41
1
10
138.301331580017
20
17.1724911072717
30
0
41
1
10
138.179802238617
20
16.7340898372813
30
0
41
1
10
137.977373077752
20
16.327530055747
30
0
41
1
10
137.701528948073
20
15.9674475987512
30
0
41
1
10
137.362342329633
20
15.6678762520947
30
0
41
1
10
136.972041480825
20
15.4367030042322
30
0
41
1
10
136.54514512327
20
15.2946497761661
30
0
41
1
10
136.237580290022
20
15.2314311526028
30
0
41
1
10
136.079255901979
20
15.2401396589781
30
0
41
1
10
136.070686963363
20
15.2406859612058
30
0
0
SPLINE
5
186
100
AcDbEntity
8
1
62
256
6
ByLayer
370
-1
48
1
60
0
100
AcDbSpline
70
4
71
3
72
14
73
10
40
0
40
0
40
0
40
0
40
0.049402137216365
40
0.218888154749391
40
0.388114921546149
40
0.557115196253169
40
0.725953621748333
40
0.894716831963236
40
1
40
1
40
1
40
1
41
1
10
134.319490404313
20
-5.2925060755291
30
0
41
1
10
134.349098277297
20
-5.25981481321315
30
0
41
1
10
134.484404517648
20
-5.11863067052323
30
0
41
1
10
134.755162859349
20
-4.89895688645768
30
0
41
1
10
135.158685723285
20
-4.68466758461037
30
0
41
1
10
135.595845077081
20
-4.55177612949012
30
0
41
1
10
136.050278537701
20
-4.50511362485213
30
0
41
1
10
136.448022192879
20
-4.54113030136605
30
0
41
1
10
136.686849838865
20
-4.60129406100961
30
0
41
1
10
136.776860487996
20
-4.62979866229549
30
0
0
SPLINE
5
187
100
AcDbEntity
8
1
62
256
6
ByLayer
370
-1
48
1
60
0
100
AcDbSpline
70
4
71
3
72
16
73
12
40
0
40
0
40
0
40
0
40
0.0784921926617309
40
0.157320559444097
40
0.235797420759835
40
0.314383325465933
40
0.437638610717262
40
0.560674587369135
40
0.706978997407148
40
0.853322102565046
40
1
40
1
40
1
40
1
41
1
10
36.0000000000001
20
24.8
30
0
41
1
10
35.1601845166659
20
24.8005605876524
30
0
41
1
10
33.4969964095577
20
24.9196055038333
30
0
41
1
10
31.0289768857161
20
25.4258835352094
30
0
41
1
10
28.6908208616082
20
26.3394114501728
30
0
41
1
10
25.9382332472985
20
27.4729311954686
30
0
41
1
10
22.6653502005748
20
28.5789190018685
30
0
41
1
10
18.6429761194302
20
29.6876759069083
30
0
41
1
10
14.3097077795036
20
30.5582557767403
30
0
41
1
10
9.67049060199761
20
31.1229490589922
30
0
41
1
10
6.56182904989177
20
31.2487527534936
30
0
41
1
10
5.00000000000003
20
31.25
30
0
0
SPLINE
5
188
100
AcDbEntity
8
1
62
256
6
ByLayer
370
-1
48
1
60
0
100
AcDbSpline
70
4
71
3
72
15
73
11
40
0
40
0
40
0
40
0
40
0.165347278232206
40
0.330318190542286
40
0.495222527308001
40
0.660293046022957
40
0.746895342908559
40
0.833605978452778
40
0.920394794979812
40
1
40
1
40
1
40
1
41
1
10
4.99999999999997
20
-31.25
30
0
41
1
10
6.49067021272029
20
-31.2489266579215
30
0
41
1
10
9.45858818480212
20
-31.1340906070727
30
0
41
1
10
13.8897368137135
20
-30.6195775533829
30
0
41
1
10
18.2652471564392
20
-29.7781296474223
30
0
41
1
10
21.888921032377
20
-28.8082972840588
30
0
41
1
10
24.7812725272524
20
-27.8586039385805
30
0
41
1
10
26.9835678654124
20
-27.0656913813364
30
0
41
1
10
29.0717181978704
20
-26.1530515004137
30
0
41
1
10
30.4862716733016
20
-25.6646532209083
30
0
41
1
10
31.1746969162126
20
-25.4620319531284
30
0
0
SPLINE
5
189
100
AcDbEntity
8
1
62
256
6
ByLayer
370
-1
48
1
60
0
100
AcDbSpline
70
4
71
3
72
8
73
4
40
0
40
0
40
0
40
0
40
1
40
1
40
1
40
1
41
1
10
33.8634900471907
20
-24.9383405681195
30
0
41
1
10
33.889224463356
20
-24.9368347579329
30
0
41
1
10
33.9149718041906
20
-24.9354248525972
30
0
41
1
10
33.9407325613334
20
-24.9340998040892
30
0
0
SPLINE
5
18A
100
AcDbEntity
8
1
62
256
6
ByLayer
370
-1
48
1
60
0
100
AcDbSpline
70
4
71
3
72
12
73
8
40
0
40
0
40
0
40
0
40
0.249999999999999
40
0.249999999999999
40
0.499999999999998
40
0.499999999999998
40
1
40
1
40
1
40
1
41
1
10
96.0817982177423
20
17.3546486843044
30
0
41
1
10
96.18233061899
20
17.4882137575665
30
0
41
1
10
96.2932893138296
20
17.6088862670221
30
0
41
1
10
96.5277637745805
20
17.8346392367832
30
0
41
1
10
96.6514302063634
20
17.9395351139607
30
0
41
1
10
97.0358353995232
20
18.237524252082
30
0
41
1
10
97.3106840322399
20
18.4146693533692
30
0
41
1
10
97.5920517640055
20
18.5764298275916
30
0
0
SPLINE
5
18B
100
AcDbEntity
8
1
62
256
6
ByLayer
370
-1
48
1
60
0
100
AcDbSpline
70
4
71
3
72
94
73
90
40
-0.0312500000000063
40
-0.0312500000000063
40
0
40
0
40
0.0312499999999983
40
0.0312499999999983
40
0.0468749999999975
40
0.0468749999999975
40
0.0624999999999967
40
0.0624999999999967
40
0.0937499999999931
40
0.0937499999999931
40
0.124999999999989
40
0.124999999999989
40
0.156249999999986
40
0.156249999999986
40
0.171874999999984
40
0.171874999999984
40
0.187499999999982
40
0.187499999999982
40
0.218749999999984
40
0.218749999999984
40
0.249999999999986
40
0.249999999999986
40
0.265624999999984
40
0.265624999999984
40
0.281249999999981
40
0.281249999999981
40
0.312499999999977
40
0.312499999999977
40
0.328124999999975
40
0.328124999999975
40
0.343749999999973
40
0.343749999999973
40
0.374999999999968
40
0.374999999999968
40
0.406249999999964
40
0.406249999999964
40
0.421874999999962
40
0.421874999999962
40
0.437499999999959
40
0.437499999999959
40
0.468749999999957
40
0.468749999999957
40
0.484374999999957
40
0.484374999999957
40
0.499999999999957
40
0.499999999999957
40
0.531249999999956
40
0.531249999999956
40
0.546874999999956
40
0.546874999999956
40
0.562499999999955
40
0.578124999999954
40
0.578124999999954
40
0.593749999999953
40
0.593749999999953
40
0.624999999999951
40
0.624999999999951
40
0.640624999999953
40
0.640624999999953
40
0.656249999999954
40
0.656249999999954
40
0.687499999999952
40
0.687499999999952
40
0.71874999999995
40
0.71874999999995
40
0.749999999999948
40
0.749999999999948
40
0.76562499999995
40
0.76562499999995
40
0.781249999999952
40
0.796874999999954
40
0.796874999999954
40
0.812499999999956
40
0.812499999999956
40
0.843749999999966
40
0.843749999999966
40
0.859374999999971
40
0.859374999999971
40
0.874999999999976
40
0.874999999999976
40
0.906249999999981
40
0.906249999999981
40
0.937499999999986
40
0.937499999999986
40
0.95312499999999
40
0.95312499999999
40
0.968749999999994
40
0.968749999999994
40
1
40
1
40
1.03125
40
1.03125
41
1
10
133.730740554382
20
-5.56223243512653
30
0
41
1
10
133.716511874986
20
-5.28644476026022
30
0
41
1
10
133.722552091964
20
-5.14979507594345
30
0
41
1
10
133.750850476089
20
-4.9466542765939
30
0
41
1
10
133.763511823141
20
-4.87924879776452
30
0
41
1
10
133.795480272726
20
-4.74507941133763
30
0
41
1
10
133.81492037903
20
-4.67799098386445
30
0
41
1
10
133.882341047657
20
-4.48160129576891
30
0
41
1
10
133.939394542205
20
-4.35630666005295
30
0
41
1
10
134.077726849477
20
-4.1170836013595
30
0
41
1
10
134.160130709905
20
-4.00211735358752
30
0
41
1
10
134.343736361966
20
-3.79336537773395
30
0
41
1
10
134.445125961411
20
-3.69866581465044
30
0
41
1
10
134.611892461157
20
-3.5715190379286
30
0
41
1
10
134.670301796153
20
-3.53144098244601
30
0
41
1
10
134.789906213588
20
-3.4579765428486
30
0
41
1
10
134.85118444808
20
-3.42446955367538
30
0
41
1
10
135.039356286589
20
-3.33344113771517
30
0
41
1
10
135.170597727984
20
-3.28530001280049
30
0
41
1
10
135.444901599935
20
-3.21550463914818
30
0
41
1
10
135.583262022518
20
-3.1950352399713
30
0
41
1
10
135.792545959634
20
-3.18516511773555
30
0
41
1
10
135.862600081769
20
-3.18537409241765
30
0
41
1
10
136.003309643428
20
-3.19297757607518
30
0
41
1
10
136.073918737408
20
-3.20042373236458
30
0
41
1
10
136.281783958443
20
-3.2330458116665
30
0
41
1
10
136.416764461164
20
-3.26844655308895
30
0
41
1
10
136.613848657935
20
-3.34196130192646
30
0
41
1
10
136.678992888759
20
-3.37008717531674
30
0
41
1
10
136.805040693045
20
-3.43226328548974
30
0
41
1
10
136.866057738444
20
-3.46630536748918
30
0
41
1
10
137.043252597731
20
-3.57703540956206
30
0
41
1
10
137.15383923088
20
-3.66244277533394
30
0
41
1
10
137.358135924638
20
-3.85588310827458
30
0
41
1
10
137.448885246108
20
-3.96103199607546
30
0
41
1
10
137.568766690701
20
-4.13068015809284
30
0
41
1
10
137.605999845637
20
-4.18923207515138
30
0
41
1
10
137.674919300383
20
-4.31039514759263
30
0
41
1
10
137.706501615758
20
-4.37291314872516
30
0
41
1
10
137.7910058656
20
-4.56251266449328
30
0
41
1
10
137.83453642556
20
-4.69289138899194
30
0
41
1
10
137.880996885043
20
-4.89425030169093
30
0
41
1
10
137.893360246638
20
-4.962701026649
30
0
41
1
10
137.911332004577
20
-5.09954684288041
30
0
41
1
10
137.916977940332
20
-5.16788535403182
30
0
41
1
10
137.924225260758
20
-5.37265014323791
30
0
41
1
10
137.91622431491
20
-5.50882623924457
30
0
41
1
10
137.884647306357
20
-5.712588958504
30
0
41
1
10
137.870854859862
20
-5.78009575631197
30
0
41
1
10
137.837284534879
20
-5.91232311862055
30
0
41
1
10
137.797643066337
20
-6.0423619854507
30
0
41
1
10
137.746006004245
20
-6.16809815490433
30
0
41
1
10
137.688271583701
20
-6.29166144998206
30
0
41
1
10
137.656209700131
20
-6.35260007458845
30
0
41
1
10
137.551482068082
20
-6.53031435470982
30
0
41
1
10
137.471344871517
20
-6.64059319173646
30
0
41
1
10
137.335813243348
20
-6.79396993101406
30
0
41
1
10
137.288063485877
20
-6.84307430880193
30
0
41
1
10
137.187211434534
20
-6.93710237414516
30
0
41
1
10
137.133848675736
20
-6.98218774316666
30
0
41
1
10
136.968970897522
20
-7.10806564721261
30
0
41
1
10
136.851885448844
20
-7.18050024194218
30
0
41
1
10
136.603070864444
20
-7.30210036302844
30
0
41
1
10
136.469777070029
20
-7.35145444093692
30
0
41
1
10
136.199664730697
20
-7.42109412840554
30
0
41
1
10
136.061907526368
20
-7.44216290241513
30
0
41
1
10
135.851082674427
20
-7.45249282640125
30
0
41
1
10
135.779914912786
20
-7.45230674100483
30
0
41
1
10
135.639658379659
20
-7.44472550452639
30
0
41
1
10
135.500629231109
20
-7.43002211131736
30
0
41
1
10
135.364000443116
20
-7.40137792923122
30
0
41
1
10
135.228579791651
20
-7.36570525172127
30
0
41
1
10
135.161114968997
20
-7.34419769347187
30
0
41
1
10
134.964536574091
20
-7.27033651372764
30
0
41
1
10
134.840437536842
20
-7.20871713327765
30
0
41
1
10
134.664239614695
20
-7.09844321011877
30
0
41
1
10
134.606904912135
20
-7.05846804680309
30
0
41
1
10
134.497077719275
20
-6.97350961813413
30
0
41
1
10
134.444718911642
20
-6.92868299428633
30
0
41
1
10
134.294977767145
20
-6.78742640358581
30
0
41
1
10
134.204861375176
20
-6.68428392226335
30
0
41
1
10
134.044093334893
20
-6.45982116977109
30
0
41
1
10
133.975666607468
20
-6.34154673959853
30
0
41
1
10
133.890434906219
20
-6.15620956773671
30
0
41
1
10
133.864918740497
20
-6.09305828017634
30
0
41
1
10
133.819755753518
20
-5.96395850160303
30
0
41
1
10
133.800061829724
20
-5.89775098879835
30
0
41
1
10
133.75083326122
20
-5.69784489835797
30
0
41
1
10
133.730740554382
20
-5.56223243512653
30
0
41
1
10
133.716511874986
20
-5.28644476026022
30
0
0
SPLINE
5
18C
100
AcDbEntity
8
1
62
256
6
ByLayer
370
-1
48
1
60
0
100
AcDbSpline
70
4
71
3
72
8
73
4
40
0
40
0
40
0
40
0
40
1
40
1
40
1
40
1
41
1
10
20.0863448182093
20
-21.6134884775358
30
0
41
1
10
20.0863448182093
20
-23.6792902413746
30
0
41
1
10
20.0863448182093
20
-25.7450920052135
30
0
41
1
10
20.0863448182093
20
-27.8108937690523
30
0
0
SPLINE
5
18D
100
AcDbEntity
8
1
62
256
6
ByLayer
370
-1
48
1
60
0
100
AcDbSpline
70
4
71
3
72
8
73
4
40
0
40
0
40
0
40
0
40
1
40
1
40
1
40
1
41
1
10
123.092178783844
20
10.314561009617
30
0
41
1
10
123.596848682826
20
10.1740580495392
30
0
41
1
10
124.085196264758
20
10.0599790847939
30
0
41
1
10
124.555664383892
20
9.96806550234575
30
0
0
SPLINE
5
18E
100
AcDbEntity
8
1
62
256
6
ByLayer
370
-1
48
1
60
0
100
AcDbSpline
70
4
71
3
72
12
73
8
40
0
40
0
40
0
40
0
40
0.25
40
0.25
40
0.5
40
0.5
40
1
40
1
40
1
40
1
41
1
10
127.830659620347
20
17.1609427711086
30
0
41
1
10
127.834854607
20
17.1609427711086
30
0
41
1
10
127.843025692772
20
17.1666197417305
30
0
41
1
10
127.866411976588
20
17.1874190871429
30
0
41
1
10
127.881845355247
20
17.2027612995095
30
0
41
1
10
127.935628903286
20
17.2574562990221
30
0
41
1
10
127.982099920437
20
17.3058140214068
30
0
41
1
10
128.036040497171
20
17.3575468883731
30
0
0
SPLINE
5
18F
100
AcDbEntity
8
1
62
256
6
ByLayer
370
-1
48
1
60
0
100
AcDbSpline
70
4
71
3
72
24
73
20
40
0
40
0
40
0
40
0
40
0.0026294310416355
40
0.0026294310416355
40
0.0932994827651233
40
0.0932994827651233
40
0.274639586212099
40
0.274639586212099
40
0.365309637935587
40
0.365309637935587
40
0.455979689659074
40
0.455979689659074
40
0.546649741382562
40
0.546649741382562
40
0.63731979310605
40
0.63731979310605
40
0.818659896553025
40
0.818659896553025
40
1
40
1
40
1
40
1
41
1
10
75.4609890049039
20
-18.7254880538053
30
0
41
1
10
75.424091639253
20
-18.7339404991796
30
0
41
1
10
75.3871935904674
20
-18.7423832508599
30
0
41
1
10
74.077924329515
20
-19.0416109348268
30
0
41
1
10
72.8059280289459
20
-19.3205496972192
30
0
41
1
10
68.9927455393343
20
-20.118975082565
30
0
41
1
10
66.453106596733
20
-20.6008250962544
30
0
41
1
10
62.6433685237446
20
-21.2439640309938
30
0
41
1
10
61.3733820142999
20
-21.4452177082352
30
0
41
1
10
58.8329318844778
20
-21.8201034283782
30
0
41
1
10
57.5624836460855
20
-21.9936014772073
30
0
41
1
10
55.0203260608429
20
-22.3134391572353
30
0
41
1
10
53.7482226416319
20
-22.4597289286796
30
0
41
1
10
51.206423128827
20
-22.7234818573575
30
0
41
1
10
49.9363495085572
20
-22.8408851122099
30
0
41
1
10
46.1274563445981
20
-23.1498505221992
30
0
41
1
10
43.5899988518271
20
-23.2982487940655
30
0
41
1
10
38.5140043771055
20
-23.4731273043984
30
0
41
1
10
35.9752055304164
20
-23.5010051165375
30
0
41
1
10
33.4330000207087
20
-23.4667177590026
30
0
0
SPLINE
5
190
100
AcDbEntity
8
1
62
256
6
ByLayer
370
-1
48
1
60
0
100
AcDbSpline
70
4
71
3
72
28
73
24
40
0
40
0
40
0
40
0
40
0.0312500000000002
40
0.0312500000000002
40
0.0625000000000004
40
0.0625000000000004
40
0.0937500000000006
40
0.0937500000000006
40
0.125000000000001
40
0.125000000000001
40
0.156250000000001
40
0.156250000000001
40
0.187500000000001
40
0.187500000000001
40
0.250000000000002
40
0.250000000000002
40
0.375000000000002
40
0.375000000000002
40
0.500000000000001
40
0.500000000000001
40
0.750000000000001
40
0.750000000000001
40
1
40
1
40
1
40
1
41
1
10
121.634814489384
20
11.6428326595733
30
0
41
1
10
121.609418717752
20
11.6335906991797
30
0
41
1
10
121.584514001437
20
11.6230555190488
30
0
41
1
10
121.536417244713
20
11.5975019331552
30
0
41
1
10
121.51327317905
20
11.5824949314535
30
0
41
1
10
121.472778483401
20
11.5458389405049
30
0
41
1
10
121.455934937091
20
11.5244219132973
30
0
41
1
10
121.434168775166
20
11.4752381409994
30
0
41
1
10
121.430058270335
20
11.4488463557125
30
0
41
1
10
121.432377597751
20
11.3973488829467
30
0
41
1
10
121.438524994483
20
11.3721179229776
30
0
41
1
10
121.455933155157
20
11.3244093645801
30
0
41
1
10
121.467169939843
20
11.3018108009629
30
0
41
1
10
121.505403816433
20
11.2363065131121
30
0
41
1
10
121.536447729778
20
11.1963128176252
30
0
41
1
10
121.635263470753
20
11.0838930635088
30
0
41
1
10
121.710095769216
20
11.0174194413956
30
0
41
1
10
121.866512995953
20
10.893354912935
30
0
41
1
10
121.947552857899
20
10.8368117298391
30
0
41
1
10
122.195901519743
20
10.6785792872215
30
0
41
1
10
122.368400137611
20
10.588219013947
30
0
41
1
10
122.723413896581
20
10.4319379849125
30
0
41
1
10
122.907246398449
20
10.3660472338096
30
0
41
1
10
123.092178783844
20
10.314561009617
30
0
0
SPLINE
5
191
100
AcDbEntity
8
1
62
256
6
ByLayer
370
-1
48
1
60
0
100
AcDbSpline
70
4
71
3
72
16
73
12
40
0
40
0
40
0
40
0
40
0.124999999999993
40
0.124999999999993
40
0.249999999999987
40
0.249999999999987
40
0.499999999999991
40
0.499999999999991
40
0.749999999999996
40
0.749999999999996
40
1
40
1
40
1
40
1
41
1
10
128.921811237116
20
9.12520454024263
30
0
41
1
10
128.860224498266
20
9.14043728343424
30
0
41
1
10
128.806284660947
20
9.15742643501846
30
0
41
1
10
128.707698924744
20
9.19349931315188
30
0
41
1
10
128.663162943056
20
9.21260884200728
30
0
41
1
10
128.539567830557
20
9.27214536391139
30
0
41
1
10
128.470247129882
20
9.31480894641058
30
0
41
1
10
128.348044307852
20
9.40317063557231
30
0
41
1
10
128.29581312498
20
9.44853310500494
30
0
41
1
10
128.203323409058
20
9.54071022746962
30
0
41
1
10
128.163148992178
20
9.5875380663941
30
0
41
1
10
128.127545110237
20
9.63486768390911
30
0
0
SPLINE
5
192
100
AcDbEntity
8
1
62
256
6
ByLayer
370
-1
48
1
60
0
100
AcDbSpline
70
4
71
3
72
12
73
8
40
0
40
0
40
0
40
0
40
0.25
40
0.25
40
0.5
40
0.5
40
1
40
1
40
1
40
1
41
1
10
127.587377083541
20
24.7905056046496
30
0
41
1
10
127.592680986703
20
24.7888444926567
30
0
41
1
10
127.60458683642
20
24.7870138127086
30
0
41
1
10
127.641086622905
20
24.7830810510886
30
0
41
1
10
127.66609811728
20
24.7809557101989
30
0
41
1
10
127.757242448564
20
24.7746149336033
30
0
41
1
10
127.841256471197
20
24.7702934129514
30
0
41
1
10
127.941571958466
20
24.7668386902872
30
0
0
SPLINE
5
193
100
AcDbEntity
8
1
62
256
6
ByLayer
370
-1
48
1
60
0
100
AcDbSpline
70
4
71
3
72
12
73
8
40
0
40
0
40
0
40
0
40
0.104898575173596
40
0.104898575173596
40
0.403265716782394
40
0.403265716782394
40
1
40
1
40
1
40
1
41
1
10
141.50461569309
20
10.0505799195156
30
0
41
1
10
141.503670153528
20
10.036367931719
30
0
41
1
10
141.502643644661
20
10.0227668773903
30
0
41
1
10
141.498450489464
20
9.97279837727237
30
0
41
1
10
141.494758955687
20
9.94053892961091
30
0
41
1
10
141.48296524652
20
9.86328792029943
30
0
41
1
10
141.473900017836
20
9.83576431804281
30
0
41
1
10
141.464991158386
20
9.83568166906863
30
0
0
SPLINE
5
194
100
AcDbEntity
8
1
62
256
6
ByLayer
370
-1
48
1
60
0
100
AcDbSpline
70
4
71
3
72
18
73
14
40
0
40
0
40
0
40
0
40
0.0540604833266961
40
0.0540604833266961
40
0.243248386661357
40
0.243248386661357
40
0.432436289996018
40
0.432436289996018
40
0.621624193330679
40
0.621624193330679
40
0.810812096665339
40
0.810812096665339
40
1
40
1
40
1
40
1
41
1
10
82.0955084951182
20
20.9842633199966
30
0
41
1
10
82.4747325227632
20
21.066119213534
30
0
41
1
10
82.8540252012918
20
21.146775254402
30
0
41
1
10
84.5610600965303
20
21.5041847525718
30
0
41
1
10
85.8906028363007
20
21.7672080004399
30
0
41
1
10
88.5483767539163
20
22.2608055679986
30
0
41
1
10
89.8767702954807
20
22.4914127825791
30
0
41
1
10
92.5321756355504
20
22.9210117741738
30
0
41
1
10
93.8589386041459
20
23.1202422381221
30
0
41
1
10
96.5106293832039
20
23.4871322677441
30
0
41
1
10
97.8362304082002
20
23.6541746981473
30
0
41
1
10
100.488655497224
20
23.9543476299391
30
0
41
1
10
101.814635995444
20
24.0880697844263
30
0
41
1
10
103.141210945907
20
24.2048147049817
30
0
0
SPLINE
5
195
100
AcDbEntity
8
1
62
256
6
ByLayer
370
-1
48
1
60
0
100
AcDbSpline
70
4
71
2
72
6
73
3
40
0
40
0
40
0
40
1
40
1
40
1
41
1
10
9.98634481820918
20
-20.2559597560972
30
0
41
1
10
9.9863448182092
20
-21.6378710209041
30
0
41
1
10
9.9863448182092
20
-23.019782285711
30
0
0
SPLINE
5
196
100
AcDbEntity
8
1
62
256
6
ByLayer
370
-1
48
1
60
0
100
AcDbSpline
70
4
71
3
72
22
73
18
40
0
40
0
40
0
40
0
40
0.25
40
0.25
40
0.3125
40
0.3125
40
0.375
40
0.375
40
0.5
40
0.5
40
0.625
40
0.625
40
0.6875
40
0.6875
40
0.75
40
0.75
40
1
40
1
40
1
40
1
41
1
10
9.98634481820923
20
-23.019782285711
30
0
41
1
10
10.7461453938438
20
-23.7286678931634
30
0
41
1
10
11.5281770616527
20
-24.3605506295455
30
0
41
1
10
12.5353781354526
20
-25.0569446121768
30
0
41
1
10
12.73831106029
20
-25.1915306012227
30
0
41
1
10
13.147247481787
20
-25.4513100264942
30
0
41
1
10
13.3533024454326
20
-25.576522650709
30
0
41
1
10
13.9741415230466
20
-25.9368726906217
30
0
41
1
10
14.3922609850949
20
-26.1571773252951
30
0
41
1
10
15.237598482092
20
-26.5584531129829
30
0
41
1
10
15.6648161352597
20
-26.7394232438614
30
0
41
1
10
16.3130781656847
20
-26.9814214971248
30
0
41
1
10
16.5305803948381
20
-27.0572273407785
30
0
41
1
10
16.9670374090334
20
-27.1986212359045
30
0
41
1
10
17.1860331470732
20
-27.2642346967196
30
0
41
1
10
18.2850965552726
20
-27.5670915903878
30
0
41
1
10
19.177339775794
20
-27.7289728101311
30
0
41
1
10
20.0863448182093
20
-27.8108937690523
30
0
0
SPLINE
5
197
100
AcDbEntity
8
1
62
256
6
ByLayer
370
-1
48
1
60
0
100
AcDbSpline
70
4
71
3
72
14
73
10
40
0
40
0
40
0
40
0
40
0.500000000000009
40
0.500000000000009
40
0.625000000000007
40
0.625000000000007
40
0.750000000000005
40
0.750000000000005
40
1
40
1
40
1
40
1
41
1
10
114.754854612858
20
7.62524446150738
30
0
41
1
10
115.414553680336
20
7.32038734620218
30
0
41
1
10
116.076288825886
20
7.03963003612677
30
0
41
1
10
116.905925446775
20
6.71789191656282
30
0
41
1
10
117.071977763403
20
6.65502375148671
30
0
41
1
10
117.404336937937
20
6.53230027007154
30
0
41
1
10
117.57104456061
20
6.47230604704532
30
0
41
1
10
118.06839514444
20
6.29807338615339
30
0
41
1
10
118.395439794585
20
6.18982127882254
30
0
41
1
10
118.717971833116
20
6.08945505597481
30
0
0
SPLINE
5
198
100
AcDbEntity
8
1
62
256
6
ByLayer
370
-1
48
1
60
0
100
AcDbSpline
70
4
71
3
72
24
73
20
40
0
40
0
40
0
40
0
40
0.328272438573901
40
0.328272438573901
40
0.410340548217374
40
0.410340548217374
40
0.492408657860847
40
0.492408657860847
40
0.656544877147794
40
0.656544877147794
40
0.738612986791277
40
0.738612986791277
40
0.82068109643476
40
0.82068109643476
40
0.902749206078244
40
0.902749206078244
40
0.984817315721727
40
0.984817315721727
40
1
40
1
40
1
40
1
41
1
10
134.972532865144
20
17.2358744952649
30
0
41
1
10
135.001304265016
20
16.9953514613493
30
0
41
1
10
135.069362632849
20
16.7565726152409
30
0
41
1
10
135.211760081688
20
16.4625938321411
30
0
41
1
10
135.243151647988
20
16.404159297461
30
0
41
1
10
135.311229962929
20
16.2895878314614
30
0
41
1
10
135.348009668413
20
16.2332482934837
30
0
41
1
10
135.46698909058
20
16.0673333189561
30
0
41
1
10
135.557712824646
20
15.960808814158
30
0
41
1
10
135.71420881529
20
15.8089393766842
30
0
41
1
10
135.769505104933
20
15.7599848847848
30
0
41
1
10
135.88525462163
20
15.6670066090976
30
0
41
1
10
135.945904907365
20
15.6227841583609
30
0
41
1
10
136.073164074201
20
15.539310566802
30
0
41
1
10
136.139769424627
20
15.5000562512941
30
0
41
1
10
136.279601492072
20
15.4271783442899
30
0
41
1
10
136.35257542803
20
15.3937578192468
30
0
41
1
10
136.440969644864
20
15.3588671421273
30
0
41
1
10
136.454839411932
20
15.3535482279527
30
0
41
1
10
136.46877983104
20
15.3483593857149
30
0
0
SPLINE
5
199
100
AcDbEntity
8
1
62
256
6
ByLayer
370
-1
48
1
60
0
100
AcDbSpline
70
4
71
3
72
24
73
20
40
0
40
0
40
0
40
0
40
0.0517177147695831
40
0.0517177147695831
40
0.124662505941152
40
0.124662505941152
40
0.197607297112721
40
0.197607297112721
40
0.27055208828429
40
0.27055208828429
40
0.416441670627432
40
0.416441670627432
40
0.562331252970574
40
0.562331252970574
40
0.708220835313716
40
0.708220835313716
40
0.854110417656858
40
0.854110417656858
40
1
40
1
40
1
40
1
41
1
10
136.180338798927
20
19.2890785387363
30
0
41
1
10
136.128719531235
20
19.2701711124114
30
0
41
1
10
136.078818809688
20
19.2493708165668
30
0
41
1
10
135.963985656901
20
19.1958099384024
30
0
41
1
10
135.900637550818
20
19.1614359208332
30
0
41
1
10
135.780567497258
20
19.0873013666271
30
0
41
1
10
135.723549662141
20
19.0472767579429
30
0
41
1
10
135.617443663942
20
18.9638132739476
30
0
41
1
10
135.568230335457
20
18.920361072327
30
0
41
1
10
135.430408452207
20
18.7854004915572
30
0
41
1
10
135.351502536962
20
18.6893329927726
30
0
41
1
10
135.215143974596
20
18.4862431645621
30
0
41
1
10
135.158949411051
20
18.3809121480504
30
0
41
1
10
135.067682013247
20
18.1652994609536
30
0
41
1
10
135.032432889762
20
18.0546668368703
30
0
41
1
10
134.981347725357
20
17.8277637937223
30
0
41
1
10
134.965539377294
20
17.7109106214479
30
0
41
1
10
134.954012984976
20
17.4751577459212
30
0
41
1
10
134.958147165208
20
17.3561360122228
30
0
41
1
10
134.972532865144
20
17.2358744952649
30
0
0
SPLINE
5
19A
100
AcDbEntity
8
1
62
256
6
ByLayer
370
-1
48
1
60
0
100
AcDbSpline
70
4
71
3
72
16
73
12
40
0
40
0
40
0
40
0
40
0.25
40
0.25
40
0.5
40
0.5
40
0.625
40
0.625
40
0.75
40
0.75
40
1
40
1
40
1
40
1
41
1
10
14.1823537120838
20
-21.4378822413275
30
0
41
1
10
13.8030031950082
20
-21.4771095494103
30
0
41
1
10
13.4310465569772
20
-21.4819739223291
30
0
41
1
10
12.6998866469326
20
-21.4238903941726
30
0
41
1
10
12.3406886553447
20
-21.360949867373
30
0
41
1
10
11.8105786028795
20
-21.2135408342496
30
0
41
1
10
11.6348508027424
20
-21.1553494859567
30
0
41
1
10
11.2885274887361
20
-21.0213926628882
30
0
41
1
10
11.1185291494254
20
-20.945917513476
30
0
41
1
10
10.6177133174087
20
-20.6941010266966
30
0
41
1
10
10.2960201384138
20
-20.492494770044
30
0
41
1
10
9.98634481820918
20
-20.2559597560972
30
0
0
SPLINE
5
19B
100
AcDbEntity
8
1
62
256
6
ByLayer
370
-1
48
1
60
0
100
AcDbSpline
70
4
71
3
72
16
73
12
40
0
40
0
40
0
40
0
40
0.15312566506934
40
0.15312566506934
40
0.435417110046243
40
0.435417110046243
40
0.717708555023146
40
0.717708555023146
40
0.858854277511573
40
0.858854277511573
40
1
40
1
40
1
40
1
41
1
10
131.212175012584
20
9.69004638369944
30
0
41
1
10
131.191043311714
20
9.67056311667062
30
0
41
1
10
131.170093355503
20
9.65211658710237
30
0
41
1
10
131.111352778254
20
9.60250540474777
30
0
41
1
10
131.074214074563
20
9.57371450674728
30
0
41
1
10
131.004682933474
20
9.52369051113058
30
0
41
1
10
130.972836530348
20
9.50288736441379
30
0
41
1
10
130.935669268225
20
9.48088532060015
30
0
41
1
10
130.92507475835
20
9.47510464357782
30
0
41
1
10
130.909034175935
20
9.46738134125434
30
0
41
1
10
130.903463364439
20
9.46536042429256
30
0
41
1
10
130.900667100648
20
9.46536042429256
30
0
0
SPLINE
5
19C
100
AcDbEntity
8
1
62
256
6
ByLayer
370
-1
48
1
60
0
100
AcDbSpline
70
4
71
3
72
34
73
30
40
0
40
0
40
0
40
0
40
0.0725504785666981
40
0.0725504785666981
40
0.145100957133396
40
0.145100957133396
40
0.217651435700094
40
0.217651435700094
40
0.290201914266792
40
0.290201914266792
40
0.36275239283349
40
0.36275239283349
40
0.435302871400189
40
0.435302871400189
40
0.507853349966887
40
0.507853349966887
40
0.580403828533585
40
0.580403828533585
40
0.652954307100283
40
0.652954307100283
40
0.725504785666981
40
0.725504785666981
40
0.798055264233679
40
0.798055264233679
40
0.870605742800377
40
0.870605742800377
40
0.943156221367075
40
0.943156221367075
40
1
40
1
40
1
40
1
41
1
10
14.1823536675509
20
-21.4378820990196
30
0
41
1
10
14.0548576341378
20
-21.0304598597791
30
0
41
1
10
13.9487051732229
20
-20.5777464864007
30
0
41
1
10
13.7820122134844
20
-19.5942110758641
30
0
41
1
10
13.7214738385326
20
-19.0634015701468
30
0
41
1
10
13.647681311362
20
-17.938324343823
30
0
41
1
10
13.63442809935
20
-17.3440709580728
30
0
41
1
10
13.6555729440158
20
-16.1085080956386
30
0
41
1
10
13.6899707312826
20
-15.4672143615327
30
0
41
1
10
13.8054692739892
20
-14.155271843769
30
0
41
1
10
13.8865685578368
20
-13.484639775859
30
0
41
1
10
14.0932326232209
20
-12.1325319368612
30
0
41
1
10
14.2187947716053
20
-11.4510733932764
30
0
41
1
10
14.5109196878479
20
-10.0961232745282
30
0
41
1
10
14.6774787336784
20
-9.422648963082
30
0
41
1
10
15.047000801973
20
-8.10225806321523
30
0
41
1
10
15.2499591162754
20
-7.4553582981853
30
0
41
1
10
15.6866781979303
20
-6.2059741570404
30
0
41
1
10
15.9204334009492
20
-5.60350569960335
30
0
41
1
10
16.4122944779168
20
-4.45961581498489
30
0
41
1
10
16.6703940849556
20
-3.91820896235592
30
0
41
1
10
17.203820021707
20
-2.91138881100105
30
0
41
1
10
17.4791395549226
20
-2.44598834039201
30
0
41
1
10
18.0394058762409
20
-1.60402978119825
30
0
41
1
10
18.3243455258674
20
-1.22748242019259
30
0
41
1
10
18.8959868653451
20
-0.573626538912066
30
0
41
1
10
19.1826812717886
20
-0.296326349558711
30
0
41
1
10
19.6885167376269
20
0.102915551364305
30
0
41
1
10
19.9088410213852
20
0.245490954969881
30
0
41
1
10
20.1254137306013
20
0.354122975246298
30
0
0
SPLINE
5
19D
100
AcDbEntity
8
1
62
256
6
ByLayer
370
-1
48
1
60
0
100
AcDbSpline
70
4
71
3
72
26
73
22
40
0
40
0
40
0
40
0
40
0.0904039332468246
40
0.0904039332468246
40
0.191470162886066
40
0.191470162886066
40
0.292536392525308
40
0.292536392525308
40
0.39360262216455
40
0.39360262216455
40
0.494668851803791
40
0.494668851803791
40
0.595735081443033
40
0.595735081443033
40
0.696801311082275
40
0.696801311082275
40
0.797867540721516
40
0.797867540721516
40
0.898933770360758
40
0.898933770360758
40
1
40
1
40
1
40
1
41
1
10
33.9492825438014
20
-3.75357235342037
30
0
41
1
10
33.7002159411295
20
-4.19023260850835
30
0
41
1
10
33.4622328142435
20
-4.67018898262674
30
0
41
1
10
32.9885156262851
20
-5.76482777529046
30
0
41
1
10
32.7563667089524
20
-6.38870162431868
30
0
41
1
10
32.3356902282753
20
-7.70757994508011
30
0
41
1
10
32.1471706935443
20
-8.40255924601223
30
0
41
1
10
31.820121288434
20
-9.84018047918144
30
0
41
1
10
31.6815976597948
20
-10.5827949744082
30
0
41
1
10
31.4592201682466
20
-12.0906089823886
30
0
41
1
10
31.3753705494135
20
-12.8557797185024
30
0
41
1
10
31.2651749174159
20
-14.3828658722239
30
0
41
1
10
31.2388310073357
20
-15.1447521453827
30
0
41
1
10
31.2445386692781
20
-16.6395389730456
30
0
41
1
10
31.2765901323699
20
-17.3724109995336
30
0
41
1
10
31.3980083338839
20
-18.7844178150669
30
0
41
1
10
31.487372755039
20
-19.4635256559533
30
0
41
1
10
31.7204010625375
20
-20.7450673503729
30
0
41
1
10
31.8640605015341
20
-21.347476745675
30
0
41
1
10
32.2008292786121
20
-22.4552741685593
30
0
41
1
10
32.3939321894593
20
-22.9606410538208
30
0
41
1
10
32.6085002765545
20
-23.408961827136
30
0
0
SPLINE
5
19E
100
AcDbEntity
8
1
62
256
6
ByLayer
370
-1
48
1
60
0
100
AcDbSpline
70
4
71
3
72
16
73
12
40
0
40
0
40
0
40
0
40
0.379867608126566
40
0.379867608126566
40
0.56980141218985
40
0.56980141218985
40
0.759735216253133
40
0.759735216253133
40
0.949669020316416
40
0.949669020316416
40
1
40
1
40
1
40
1
41
1
10
36
20
-24.7879778953205
30
0
41
1
10
41.1527810323948
20
-24.7226924722528
30
0
41
1
10
46.288059111886
20
-24.3906209876111
30
0
41
1
10
54.0036881706088
20
-23.513381091847
30
0
41
1
10
56.5778556262271
20
-23.1579883262486
30
0
41
1
10
61.7351354590926
20
-22.3263955584924
30
0
41
1
10
64.3107479357766
20
-21.8513581932153
30
0
41
1
10
69.4610941674867
20
-20.7897888186789
30
0
41
1
10
72.0358787824323
20
-20.2032894881468
30
0
41
1
10
75.2961714943701
20
-19.3962810957343
30
0
41
1
10
75.9793638834649
20
-19.2236058190716
30
0
41
1
10
76.6627620466557
20
-19.0474137387585
30
0
0
SPLINE
5
19F
100
AcDbEntity
8
1
62
256
6
ByLayer
370
-1
48
1
60
0
100
AcDbSpline
70
4
71
3
72
34
73
30
40
0
40
0
40
0
40
0
40
0.124999999999995
40
0.124999999999995
40
0.187499999999995
40
0.187499999999995
40
0.218749999999994
40
0.218749999999994
40
0.249999999999994
40
0.249999999999994
40
0.374999999999993
40
0.374999999999993
40
0.499999999999992
40
0.499999999999992
40
0.531249999999993
40
0.531249999999993
40
0.562499999999993
40
0.562499999999993
40
0.624999999999994
40
0.624999999999994
40
0.749999999999996
40
0.749999999999996
40
0.781249999999997
40
0.781249999999997
40
0.812499999999997
40
0.812499999999997
40
0.874999999999998
40
0.874999999999998
40
1
40
1
40
1
40
1
41
1
10
124.555664383892
20
9.96806550234575
30
0
41
1
10
124.910830717552
20
9.82260415910434
30
0
41
1
10
125.245706431306
20
9.68558396359333
30
0
41
1
10
125.714574317214
20
9.48748669851307
30
0
41
1
10
125.86526870726
20
9.42269387192295
30
0
41
1
10
126.082319213627
20
9.32669145235514
30
0
41
1
10
126.15316912192
20
9.29488817915089
30
0
41
1
10
126.291745023909
20
9.23156014389113
30
0
41
1
10
126.359599420549
20
9.19997245884363
30
0
41
1
10
126.688064093248
20
9.04370498243333
30
0
41
1
10
126.917956560448
20
8.92331562650784
30
0
41
1
10
127.309249011028
20
8.68422604496223
30
0
41
1
10
127.470693453068
20
8.56554144932701
30
0
41
1
10
127.625225001029
20
8.41417882435394
30
0
41
1
10
127.653754324551
20
8.38375791042091
30
0
41
1
10
127.705886855687
20
8.32252463423293
30
0
41
1
10
127.72945917922
20
8.29172532045231
30
0
41
1
10
127.79189506845
20
8.19966704162101
30
0
41
1
10
127.822799243969
20
8.1383957408554
30
0
41
1
10
127.883698552729
20
7.95421422409831
30
0
41
1
10
127.88204491958
20
7.83084467223955
30
0
41
1
10
127.825870840869
20
7.67508749406457
30
0
41
1
10
127.811917628474
20
7.64386609638404
30
0
41
1
10
127.778487775867
20
7.58129284129299
30
0
41
1
10
127.758955569731
20
7.54986570049837
30
0
41
1
10
127.692321224936
20
7.45598661494898
30
0
41
1
10
127.63744162643
20
7.39419307376622
30
0
41
1
10
127.442804925357
20
7.21159101405348
30
0
41
1
10
127.273196304793
20
7.09347134463818
30
0
41
1
10
127.0653709169
20
6.98116340142101
30
0
0
SPLINE
5
1A0
100
AcDbEntity
8
1
62
256
6
ByLayer
370
-1
48
1
60
0
100
AcDbSpline
70
4
71
4
72
13
73
8
40
0
40
0
40
0
40
0
40
0
40
0.196614989690367
40
0.196614989690367
40
0.196614989690367
40
1
40
1
40
1
40
1
40
1
41
0.990559219421767
10
37.336102873278
20
-5.56280974556099
30
0
41
0.994025229533296
10
37.0997446052374
20
-6.33103369741177
30
0
41
0.997479171569626
10
36.8606515629286
20
-7.15042449076845
30
0
41
1
10
36.6251306068846
20
-7.99605016408162
30
0
41
1
10
35.4800978337673
20
-12.2681111745516
30
0
41
0.957912077681027
10
34.3184995308688
20
-17.1772954883459
30
0
41
0.982052528506667
10
33.6412223846288
20
-21.2353968593497
30
0
41
0.99489779624405
10
33.4330000207088
20
-23.4667177590022
30
0
0
SPLINE
5
1A1
100
AcDbEntity
8
1
62
256
6
ByLayer
370
-1
48
1
60
0
100
AcDbSpline
70
4
71
2
72
6
73
3
40
0
40
0
40
0
40
1
40
1
40
1
41
1
10
28.4195399194933
20
-21.8937764407875
30
0
41
1
10
28.4195399194932
20
-24.1525175776178
30
0
41
1
10
28.4195399194932
20
-26.411258714448
30
0
0
SPLINE
5
1A2
100
AcDbEntity
8
1
62
256
6
ByLayer
370
-1
48
1
60
0
100
AcDbSpline
70
4
71
3
72
24
73
20
40
0
40
0
40
0
40
0
40
0.250000000000009
40
0.250000000000009
40
0.312500000000009
40
0.312500000000009
40
0.37500000000001
40
0.37500000000001
40
0.500000000000007
40
0.500000000000007
40
0.562500000000007
40
0.562500000000007
40
0.625000000000006
40
0.625000000000006
40
0.750000000000004
40
0.750000000000004
40
0.875000000000002
40
0.875000000000002
40
1
40
1
40
1
40
1
41
1
10
123.903974400099
20
14.8999999999993
30
0
41
1
10
123.903974400099
20
14.5438413260621
30
0
41
1
10
123.850803625779
20
14.1962163019241
30
0
41
1
10
123.718100846809
20
13.7723161079233
30
0
41
1
10
123.688292512416
20
13.6885362800458
30
0
41
1
10
123.622885942423
20
13.5246806459497
30
0
41
1
10
123.58720492618
20
13.4443339049625
30
0
41
1
10
123.471355754558
20
13.207969439799
30
0
41
1
10
123.382432864334
20
13.0566001880789
30
0
41
1
10
123.231096035365
20
12.8390784863621
30
0
41
1
10
123.177395413725
20
12.7678826442654
30
0
41
1
10
123.065453828848
20
12.6308050290862
30
0
41
1
10
123.007160609483
20
12.5647913958213
30
0
41
1
10
122.825468270543
20
12.3741579225227
30
0
41
1
10
122.695295196728
20
12.256903401556
30
0
41
1
10
122.416721471326
20
12.0422132012249
30
0
41
1
10
122.267150859704
20
11.9443203992811
30
0
41
1
10
121.958955303281
20
11.7750227306824
30
0
41
1
10
121.799528722515
20
11.7027750169445
30
0
41
1
10
121.634814489384
20
11.6428326595733
30
0
0
SPLINE
5
1A3
100
AcDbEntity
8
1
62
256
6
ByLayer
370
-1
48
1
60
0
100
AcDbSpline
70
4
71
3
72
24
73
20
40
0
40
0
40
0
40
0
40
0.0625
40
0.0625
40
0.125
40
0.125
40
0.25
40
0.25
40
0.375
40
0.375
40
0.5
40
0.5
40
0.625
40
0.625
40
0.75
40
0.75
40
0.875
40
0.875
40
1
40
1
40
1
40
1
41
1
10
128.175650138845
20
9.63486768390894
30
0
41
1
10
128.178162389209
20
9.63486768390894
30
0
41
1
10
128.178984168829
20
9.63642642856033
30
0
41
1
10
128.177351973236
20
9.6426241237954
30
0
41
1
10
128.174852844307
20
9.64732548782908
30
0
41
1
10
128.163031443159
20
9.66554892537582
30
0
41
1
10
128.149501823412
20
9.68312101931465
30
0
41
1
10
128.114675746933
20
9.72768220089836
30
0
41
1
10
128.093969994258
20
9.75395115988525
30
0
41
1
10
128.048710855642
20
9.81364580774635
30
0
41
1
10
128.023906784499
20
9.84741438555142
30
0
41
1
10
127.973185528066
20
9.92061422732456
30
0
41
1
10
127.947268119272
20
9.96000016011493
30
0
41
1
10
127.895299921795
20
10.0446892267195
30
0
41
1
10
127.869153574947
20
10.0902227051462
30
0
41
1
10
127.819141761854
20
10.1845642245361
30
0
41
1
10
127.795044769087
20
10.2337130537045
30
0
41
1
10
127.749032859274
20
10.3364005558511
30
0
41
1
10
127.726960170088
20
10.3904742094739
30
0
41
1
10
127.707072878914
20
10.4443706712179
30
0
0
SPLINE
5
1A4
100
AcDbEntity
8
1
62
256
6
ByLayer
370
-1
48
1
60
0
100
AcDbSpline
70
4
71
3
72
8
73
4
40
0
40
0
40
0
40
0
40
1
40
1
40
1
40
1
41
1
10
9.26664669377161
20
-19.6957459326676
30
0
41
1
10
8.96261022281109
20
-19.3898776160057
30
0
41
1
10
8.69083815500281
20
-19.0817322181336
30
0
41
1
10
8.44846770835474
20
-18.7778267996578
30
0
0
SPLINE
5
1A5
100
AcDbEntity
8
1
62
256
6
ByLayer
370
-1
48
1
60
0
100
AcDbSpline
70
4
71
3
72
18
73
14
40
0
40
0
40
0
40
0
40
0.25
40
0.25
40
0.375
40
0.375
40
0.4375
40
0.4375
40
0.5
40
0.5
40
0.75
40
0.75
40
1
40
1
40
1
40
1
41
1
10
20.0863448182093
20
-21.6134884775358
30
0
41
1
10
20.6074858855906
20
-21.4169050553149
30
0
41
1
10
21.1836401362196
20
-21.2597787902844
30
0
41
1
10
22.1217911707137
20
-21.109823286512
30
0
41
1
10
22.4468738678425
20
-21.0740214964731
30
0
41
1
10
22.9524233236783
20
-21.0438303204583
30
0
41
1
10
23.1239307469165
20
-21.0376769635253
30
0
41
1
10
23.4728669109169
20
-21.0334625540212
30
0
41
1
10
23.6503845163454
20
-21.0354267055847
30
0
41
1
10
24.5443596930088
20
-21.0654815328787
30
0
41
1
10
25.2858828820016
20
-21.1545086453062
30
0
41
1
10
26.8161906762386
20
-21.4455454391416
30
0
41
1
10
27.605048155478
20
-21.6473049690023
30
0
41
1
10
28.419539919688
20
-21.8937764407529
30
0
0
SPLINE
5
1A6
100
AcDbEntity
8
1
62
256
6
ByLayer
370
-1
48
1
60
0
100
AcDbSpline
70
4
71
3
72
8
73
4
40
0
40
0
40
0
40
0
40
1
40
1
40
1
40
1
41
1
10
33.4330000207103
20
-23.4667177590024
30
0
41
1
10
33.1559935163275
20
-23.4575844122161
30
0
41
1
10
32.8811962745059
20
-23.4384095647677
30
0
41
1
10
32.608500394084
20
-23.4089620727035
30
0
0
SPLINE
5
1A7
100
AcDbEntity
8
1
62
256
6
ByLayer
370
-1
48
1
60
0
100
AcDbSpline
70
4
71
3
72
16
73
12
40
0
40
0
40
0
40
0
40
0.250000000000001
40
0.250000000000001
40
0.500000000000002
40
0.500000000000002
40
0.625000000000002
40
0.625000000000002
40
0.750000000000002
40
0.750000000000002
40
1
40
1
40
1
40
1
41
1
10
103.141210945907
20
24.2048147049886
30
0
41
1
10
102.818709589478
20
23.6096950400143
30
0
41
1
10
102.463598455795
20
23.0415208348261
30
0
41
1
10
101.679126987479
20
21.9665245411063
30
0
41
1
10
101.249683324158
20
21.4597713070733
30
0
41
1
10
100.545489294225
20
20.7492430360001
30
0
41
1
10
100.3007894544
20
20.5206372479016
30
0
41
1
10
99.7916364421325
20
20.0797478509566
30
0
41
1
10
99.5297961269599
20
19.8697023807887
30
0
41
1
10
98.7273599939348
20
19.2694854510858
30
0
41
1
10
98.1688171842446
20
18.9080167061131
30
0
41
1
10
97.5920517640055
20
18.5764298275916
30
0
0
SPLINE
5
1A8
100
AcDbEntity
8
1
62
256
6
ByLayer
370
-1
48
1
60
0
100
AcDbSpline
70
4
71
3
72
8
73
4
40
0
40
0
40
0
40
0
40
1
40
1
40
1
40
1
41
1
10
127.0653709169
20
6.98116340142087
30
0
41
1
10
126.389074140101
20
6.61569554026727
30
0
41
1
10
125.686830886823
20
6.27727343473612
30
0
41
1
10
124.965060723208
20
5.97121856728904
30
0
0
SPLINE
5
1A9
100
AcDbEntity
8
1
62
256
6
ByLayer
370
-1
48
1
60
0
100
AcDbSpline
70
4
71
3
72
8
73
4
40
0
40
0
40
0
40
0
40
1
40
1
40
1
40
1
41
1
10
121.936585310102
20
24.7578473778694
30
0
41
1
10
122.616869749306
20
24.7662048608782
30
0
41
1
10
123.272287010698
20
24.7771447101803
30
0
41
1
10
123.903974400096
20
24.7860313040771
30
0
0
SPLINE
5
1AA
100
AcDbEntity
8
1
62
256
6
ByLayer
370
-1
48
1
60
0
100
AcDbSpline
70
4
71
3
72
8
73
4
40
0
40
0
40
0
40
0
40
1
40
1
40
1
40
1
41
1
10
95.9405737475225
20
17.1373582770679
30
0
41
1
10
95.982334772502
20
17.2126373706404
30
0
41
1
10
96.029667954222
20
17.2853895958929
30
0
41
1
10
96.0817982177423
20
17.3546486843047
30
0
0
SPLINE
5
1AB
100
AcDbEntity
8
1
62
256
6
ByLayer
370
-1
48
1
60
0
100
AcDbSpline
70
4
71
3
72
8
73
4
40
0
40
0
40
0
40
0
40
1
40
1
40
1
40
1
41
1
10
9.26664669376825
20
-19.6957459326642
30
0
41
1
10
9.48196299246837
20
-19.9123595304516
30
0
41
1
10
9.72077841254139
20
-20.0983278895099
30
0
41
1
10
9.98634553511462
20
-20.2559601816298
30
0
0
SPLINE
5
1AC
100
AcDbEntity
8
1
62
256
6
ByLayer
370
-1
48
1
60
0
100
AcDbSpline
70
4
71
3
72
8
73
4
40
0
40
0
40
0
40
0
40
1
40
1
40
1
40
1
41
1
10
36.0000000000001
20
-4.74930733580186
30
0
41
1
10
37.1612990727934
20
-5.34432882467033
30
0
41
1
10
38.3043864863914
20
-5.9664033001315
30
0
41
1
10
39.432994192588
20
-6.60744126142211
30
0
0
SPLINE
5
1AD
100
AcDbEntity
8
1
62
256
6
ByLayer
370
-1
48
1
60
0
100
AcDbSpline
70
4
71
3
72
32
73
28
40
0
40
0
40
0
40
0
40
0.125
40
0.125
40
0.249999999999999
40
0.249999999999999
40
0.312499999999999
40
0.312499999999999
40
0.374999999999999
40
0.374999999999999
40
0.499999999999999
40
0.499999999999999
40
0.624999999999998
40
0.624999999999998
40
0.687499999999998
40
0.687499999999998
40
0.749999999999998
40
0.749999999999998
40
0.812499999999998
40
0.812499999999998
40
0.843749999999998
40
0.843749999999998
40
0.874999999999998
40
0.874999999999998
40
0.937499999999999
40
0.937499999999999
40
1
40
1
40
1
40
1
41
1
10
39.432994192588
20
-6.60744126142231
30
0
41
1
10
42.2241620723
20
-7.69612580504628
30
0
41
1
10
45.0104894291682
20
-8.76187880032307
30
0
41
1
10
50.581129173507
20
-10.8301022389361
30
0
41
1
10
53.3647848289361
20
-11.8340623295308
30
0
41
1
10
57.5438923693746
20
-13.2811397334852
30
0
41
1
10
58.9373117062021
20
-13.7541633851352
30
0
41
1
10
61.7263623090603
20
-14.6784273732453
30
0
41
1
10
63.1227514995333
20
-15.1296809498996
30
0
41
1
10
67.3079957550599
20
-16.4439661733836
30
0
41
1
10
70.0948714560768
20
-17.2691805040712
30
0
41
1
10
75.6662832764146
20
-18.8106116566277
30
0
41
1
10
78.4506079696897
20
-19.5269945549362
30
0
41
1
10
82.6317112507505
20
-20.5087817837219
30
0
41
1
10
84.0262428839759
20
-20.8205174032644
30
0
41
1
10
86.8177875309905
20
-21.4117055665955
30
0
41
1
10
88.2130884936017
20
-21.6907858326271
30
0
41
1
10
91.0010134201235
20
-22.2147195498241
30
0
41
1
10
92.3937261453286
20
-22.4599467001832
30
0
41
1
10
94.4827822227256
20
-22.8007384227888
30
0
41
1
10
95.179096694922
20
-22.9098830520716
30
0
41
1
10
96.571101238007
20
-23.1197574334663
30
0
41
1
10
97.2668122539812
20
-23.2204442568587
30
0
41
1
10
99.3549031377955
20
-23.5081538753073
30
0
41
1
10
100.747680507628
20
-23.6814268830005
30
0
41
1
10
103.53295664683
20
-23.992211605511
30
0
41
1
10
104.925839878442
20
-24.1293663200291
30
0
41
1
10
106.319844243468
20
-24.2476819908069
30
0
0
SPLINE
5
1AE
100
AcDbEntity
8
1
62
256
6
ByLayer
370
-1
48
1
60
0
100
AcDbSpline
70
4
71
3
72
18
73
14
40
0
40
0
40
0
40
0
40
0.25
40
0.25
40
0.499999999999999
40
0.499999999999999
40
0.562499999999999
40
0.562499999999999
40
0.624999999999999
40
0.624999999999999
40
0.749999999999999
40
0.749999999999999
40
1
40
1
40
1
40
1
41
1
10
36
20
-4.74930733580186
30
0
41
1
10
34.825059698444
20
-4.14729641205093
30
0
41
1
10
33.6454007182997
20
-3.6160660908163
30
0
41
1
10
31.2939879725285
20
-2.67848203856141
30
0
41
1
10
30.122266649702
20
-2.27225417730611
30
0
41
1
10
28.6771086535338
20
-1.82672290168671
30
0
41
1
10
28.3873710793785
20
-1.73814979807355
30
0
41
1
10
27.8059310659513
20
-1.56163017395519
30
0
41
1
10
27.5143161790418
20
-1.47379834052521
30
0
41
1
10
26.6362264301975
20
-1.21185721744175
30
0
41
1
10
26.046640005795
20
-1.03934359746026
30
0
41
1
10
24.2645460951431
20
-0.531428260942732
30
0
41
1
10
23.0587165127033
20
-0.205654580431087
30
0
41
1
10
21.8329941925854
20
0.0985958370952176
30
0
0
SPLINE
5
1AF
100
AcDbEntity
8
1
62
256
6
ByLayer
370
-1
48
1
60
0
100
AcDbSpline
70
4
71
3
72
22
73
18
40
0
40
0
40
0
40
0
40
0.250000000000001
40
0.250000000000001
40
0.375000000000002
40
0.375000000000002
40
0.437500000000001
40
0.437500000000001
40
0.5
40
0.5
40
0.750000000000005
40
0.750000000000005
40
0.812500000000005
40
0.812500000000005
40
0.875000000000005
40
0.875000000000005
40
1
40
1
40
1
40
1
41
1
10
124.965060723208
20
5.97121856728941
30
0
41
1
10
124.641410584095
20
5.83398000379788
30
0
41
1
10
124.247858636337
20
5.72320219622179
30
0
41
1
10
123.571356057328
20
5.60678181100545
30
0
41
1
10
123.331313770796
20
5.57634952892428
30
0
41
1
10
122.950479445584
20
5.54527571919994
30
0
41
1
10
122.820482382776
20
5.53740159889338
30
0
41
1
10
122.556756786401
20
5.52692137094277
30
0
41
1
10
122.422727472411
20
5.52428920662447
30
0
41
1
10
121.742465984171
20
5.52455682713844
30
0
41
1
10
121.166273708324
20
5.56742413991782
30
0
41
1
10
120.41318469725
20
5.68359199372853
30
0
41
1
10
120.260924579533
20
5.70998783977251
30
0
41
1
10
119.955640836856
20
5.76886103035625
30
0
41
1
10
119.802317013779
20
5.80138109651008
30
0
41
1
10
119.340519151153
20
5.90838189198817
30
0
41
1
10
119.030227766264
20
5.99228657400138
30
0
41
1
10
118.717971833116
20
6.08945505597484
30
0
0
SPLINE
5
1B0
100
AcDbEntity
8
1
62
256
6
ByLayer
370
-1
48
1
60
0
100
AcDbSpline
70
4
71
3
72
8
73
4
40
0
40
0
40
0
40
0
40
1
40
1
40
1
40
1
41
1
10
14.1823538317614
20
-21.4378817505044
30
0
41
1
10
16.1637087111053
20
-21.4947303867506
30
0
41
1
10
18.13488812506
20
-21.5585900642781
30
0
41
1
10
20.0863448182093
20
-21.6134884775358
30
0
0
SPLINE
5
1B1
100
AcDbEntity
8
1
62
256
6
ByLayer
370
-1
48
1
60
0
100
AcDbSpline
70
4
71
3
72
16
73
12
40
0
40
0
40
0
40
0
40
0.25
40
0.25
40
0.375
40
0.375
40
0.499999999999999
40
0.499999999999999
40
0.75
40
0.75
40
1
40
1
40
1
40
1
41
1
10
20.0863448182093
20
-27.8108937690522
30
0
41
1
10
20.5425043036404
20
-27.9666311304587
30
0
41
1
10
21.0598334951937
20
-28.0472576229776
30
0
41
1
10
21.9409599156906
20
-28.0613692680529
30
0
41
1
10
22.2522487707809
20
-28.0481776532806
30
0
41
1
10
22.9132573933082
20
-27.9857452855394
30
0
41
1
10
23.2564346992464
20
-27.9371287570258
30
0
41
1
10
24.3233599754066
20
-27.7436007112224
30
0
41
1
10
25.0845445945011
20
-27.5514373720933
30
0
41
1
10
26.7113461967888
20
-27.0522798806375
30
0
41
1
10
27.5526474423418
20
-26.7528060125414
30
0
41
1
10
28.419539919688
20
-26.4112587144134
30
0
0
SPLINE
5
1B2
100
AcDbEntity
8
1
62
256
6
ByLayer
370
-1
48
1
60
0
100
AcDbSpline
70
4
71
3
72
24
73
20
40
0
40
0
40
0
40
0
40
0.0610514584971838
40
0.0610514584971838
40
0.217542882080986
40
0.217542882080986
40
0.295788593872887
40
0.295788593872887
40
0.374034305664788
40
0.374034305664788
40
0.530525729248591
40
0.530525729248591
40
0.608771441040492
40
0.608771441040492
40
0.687017152832394
40
0.687017152832394
40
0.843508576416197
40
0.843508576416197
40
1
40
1
40
1
40
1
41
1
10
47.488350319529
20
24.8000020215289
30
0
41
1
10
48.416121258459
20
24.8000214323396
30
0
41
1
10
49.3440177019717
20
24.791514312656
30
0
41
1
10
52.6512033509302
20
24.7309741427496
30
0
41
1
10
55.0317727347062
20
24.6317096329537
30
0
41
1
10
58.6072554947365
20
24.3998237867991
30
0
41
1
10
59.8001912349657
20
24.3086489365294
30
0
41
1
10
62.1837374738001
20
24.0990264226122
30
0
41
1
10
63.3747887129501
20
23.9805351105188
30
0
41
1
10
66.9467444644937
20
23.5845584084316
30
0
41
1
10
69.326495811651
20
23.2665397719028
30
0
41
1
10
72.8979890619342
20
22.7118242343895
30
0
41
1
10
74.0887963468604
20
22.5139845529264
30
0
41
1
10
76.4716939426844
20
22.093122382144
30
0
41
1
10
77.6642742791786
20
21.8700014712613
30
0
41
1
10
81.240595591147
20
21.1648265322022
30
0
41
1
10
83.6227486711329
20
20.6470290362692
30
0
41
1
10
88.3878496098219
20
19.5239309262082
30
0
41
1
10
90.7708102284367
20
18.9186757825625
30
0
41
1
10
93.1562544746816
20
18.2733971777205
30
0
0
SPLINE
5
1B3
100
AcDbEntity
8
1
62
256
6
ByLayer
370
-1
48
1
60
0
100
AcDbSpline
70
4
71
3
72
8
73
4
40
0
40
0
40
0
40
0
40
1
40
1
40
1
40
1
41
1
10
94.7035996368589
20
17.8127657542237
30
0
41
1
10
94.19408941074
20
17.957233832271
30
0
41
1
10
93.6780336961968
20
18.111174147476
30
0
41
1
10
93.1562544746816
20
18.2733971777205
30
0
0
SPLINE
5
1B4
100
AcDbEntity
8
1
62
256
6
ByLayer
370
-1
48
1
60
0
100
AcDbSpline
70
4
71
3
72
12
73
8
40
0
40
0
40
0
40
0
40
0.249999999999994
40
0.249999999999994
40
0.499999999999989
40
0.499999999999989
40
1
40
1
40
1
40
1
41
1
10
124.555664383892
20
9.96806550234575
30
0
41
1
10
124.850881087662
20
9.91359385297071
30
0
41
1
10
125.148925495731
20
9.8654658517128
30
0
41
1
10
125.745605637791
20
9.78287339121763
30
0
41
1
10
126.043764205738
20
9.74843573392531
30
0
41
1
10
126.937709911527
20
9.66534252450538
30
0
41
1
10
127.532968141188
20
9.63686685412921
30
0
41
1
10
128.127545110236
20
9.63486768390908
30
0
0
SPLINE
5
1B5
100
AcDbEntity
8
1
62
256
6
ByLayer
370
-1
48
1
60
0
100
AcDbSpline
70
4
71
3
72
8
73
4
40
0
40
0
40
0
40
0
40
1
40
1
40
1
40
1
41
1
10
123.974193935167
20
-24.7630015896102
30
0
41
1
10
124.203083662458
20
-24.7657448329009
30
0
41
1
10
124.430380466434
20
-24.7686871797602
30
0
41
1
10
124.656084067529
20
-24.7716974525483
30
0
0
SPLINE
5
1B6
100
AcDbEntity
8
1
62
256
6
ByLayer
370
-1
48
1
60
0
100
AcDbSpline
70
4
71
3
72
10
73
6
40
0
40
0
40
0
40
0
40
0.5
40
0.5
40
1
40
1
40
1
40
1
41
1
10
9.98634481820923
20
-23.0197822857111
30
0
41
1
10
9.62411377595336
20
-22.396989600904
30
0
41
1
10
9.32727073285801
20
-21.7293220558681
30
0
41
1
10
8.82512107125604
20
-20.3132788487764
30
0
41
1
10
8.6201189497217
20
-19.5648107134265
30
0
41
1
10
8.44846770835474
20
-18.7778267996578
30
0
0
SPLINE
5
1B7
100
AcDbEntity
8
1
62
256
6
ByLayer
370
-1
48
1
60
0
100
AcDbSpline
70
4
71
3
72
16
73
12
40
0
40
0
40
0
40
0
40
0.5
40
0.5
40
0.749999999999999
40
0.749999999999999
40
0.874999999999999
40
0.874999999999999
40
0.9375
40
0.9375
40
1
40
1
40
1
40
1
41
1
10
36
20
-24.7879778953205
30
0
41
1
10
34.7204444600259
20
-24.804189786383
30
0
41
1
10
33.4426692287316
20
-24.9377372302468
30
0
41
1
10
31.5429004028465
20
-25.3371454677259
30
0
41
1
10
30.9124639822731
20
-25.5035355357975
30
0
41
1
10
29.9729133914154
20
-25.8070117683473
30
0
41
1
10
29.6607481861272
20
-25.9171627597869
30
0
41
1
10
29.1942749651929
20
-26.0965030745318
30
0
41
1
10
29.0391319490062
20
-26.1593250575021
30
0
41
1
10
28.7292312251859
20
-26.2865037988837
30
0
41
1
10
28.5743556632189
20
-26.349322644186
30
0
41
1
10
28.4195399194932
20
-26.4112587144902
30
0
0
SPLINE
5
1B8
100
AcDbEntity
8
1
62
256
6
ByLayer
370
-1
48
1
60
0
100
AcDbSpline
70
4
71
3
72
16
73
12
40
0
40
0
40
0
40
0
40
0.25
40
0.25
40
0.5
40
0.5
40
0.625
40
0.625
40
0.75
40
0.75
40
1
40
1
40
1
40
1
41
1
10
127.23014993916
20
3.3055366593012
30
0
41
1
10
126.468616691188
20
3.25961875970901
30
0
41
1
10
125.71198693856
20
3.26027709135408
30
0
41
1
10
124.20826816938
20
3.35221602133976
30
0
41
1
10
123.461179228491
20
3.44349795798277
30
0
41
1
10
122.347888154965
20
3.64982117495145
30
0
41
1
10
121.978018827087
20
3.73019648987579
30
0
41
1
10
121.240818331001
20
3.9148301435992
30
0
41
1
10
120.87334312377
20
4.01921892017106
30
0
41
1
10
119.786849732646
20
4.36541420923973
30
0
41
1
10
119.079687742975
20
4.6410295614038
30
0
41
1
10
118.390315483967
20
4.96224883955657
30
0
0
SPLINE
5
1B9
100
AcDbEntity
8
1
62
256
6
ByLayer
370
-1
48
1
60
0
100
AcDbSpline
70
4
71
3
72
54
73
50
40
0
40
0
40
0
40
0
40
0.0625000000000001
40
0.0625000000000001
40
0.125
40
0.125
40
0.15625
40
0.15625
40
0.1875
40
0.1875
40
0.250000000000001
40
0.250000000000001
40
0.281250000000001
40
0.281250000000001
40
0.312500000000001
40
0.312500000000001
40
0.375000000000001
40
0.375000000000001
40
0.406250000000002
40
0.406250000000002
40
0.437500000000002
40
0.437500000000002
40
0.500000000000002
40
0.500000000000002
40
0.531250000000002
40
0.531250000000002
40
0.546875000000002
40
0.546875000000002
40
0.562500000000002
40
0.562500000000002
40
0.625000000000002
40
0.625000000000002
40
0.656250000000002
40
0.656250000000002
40
0.687500000000002
40
0.687500000000002
40
0.750000000000002
40
0.750000000000002
40
0.781250000000002
40
0.781250000000002
40
0.812500000000001
40
0.812500000000001
40
0.875000000000001
40
0.875000000000001
40
0.906250000000001
40
0.906250000000001
40
0.937500000000001
40
0.937500000000001
40
1
40
1
40
1
40
1
41
1
10
21.8329941925877
20
0.0985958371047388
30
0
41
1
10
21.2167420793887
20
0.238608665037617
30
0
41
1
10
20.5955221807498
20
0.330843514231077
30
0
41
1
10
19.3437621257948
20
0.422549897545338
30
0
41
1
10
18.7132209388365
20
0.422033462428743
30
0
41
1
10
17.7601465731933
20
0.349082548517316
30
0
41
1
10
17.4401163928967
20
0.312441737278391
30
0
41
1
10
16.8076782343248
20
0.215731985650365
30
0
41
1
10
16.4943172938233
20
0.155674854066035
30
0
41
1
10
15.5626341538449
20
-0.0590955327005247
30
0
41
1
10
14.9526661402131
20
-0.248195689770597
30
0
41
1
10
14.0545628807165
20
-0.602466716184637
30
0
41
1
10
13.758014306658
20
-0.732378436686702
30
0
41
1
10
13.1707233084284
20
-1.01683071150248
30
0
41
1
10
12.8833526458096
20
-1.16977762211565
30
0
41
1
10
12.0430914184539
20
-1.65826534926876
30
0
41
1
10
11.5103695724945
20
-2.0240220978329
30
0
41
1
10
10.7524789889351
20
-2.63310306083045
30
0
41
1
10
10.5067447857134
20
-2.84624952650896
30
0
41
1
10
10.0294637035458
20
-3.29341373069008
30
0
41
1
10
9.79733693746175
20
-3.5282339719233
30
0
41
1
10
9.13599009640492
20
-4.25070803883489
30
0
41
1
10
8.73712993018137
20
-4.76003397679784
30
0
41
1
10
8.20041639066125
20
-5.56418762809218
30
0
41
1
10
8.03182157600278
20
-5.83896389386561
30
0
41
1
10
7.79463103270874
20
-6.26132251487502
30
0
41
1
10
7.71818740888136
20
-6.40380966473802
30
0
41
1
10
7.57061651754574
20
-6.69222749082931
30
0
41
1
10
7.49967377362023
20
-6.83783127384652
30
0
41
1
10
7.16151982080069
20
-7.56739383430272
30
0
41
1
10
6.94114918599712
20
-8.1608520574691
30
0
41
1
10
6.68171064573198
20
-9.0641877596284
30
0
41
1
10
6.60713941553706
20
-9.36750316792771
30
0
41
1
10
6.48174687605876
20
-9.97840974980653
30
0
41
1
10
6.43082930861868
20
-10.2872566177176
30
0
41
1
10
6.31564639932674
20
-11.2055993724694
30
0
41
1
10
6.28772611928551
20
-11.8097897802434
30
0
41
1
10
6.31337529284988
20
-12.7041779003093
30
0
41
1
10
6.33323385774943
20
-13.0003182962336
30
0
41
1
10
6.39518378903918
20
-13.5885793380494
30
0
41
1
10
6.4375019822522
20
-13.881665329803
30
0
41
1
10
6.59534841611352
20
-14.7433159925277
30
0
41
1
10
6.74153778059119
20
-15.2968982771204
30
0
41
1
10
7.01691360072977
20
-16.0982495799156
30
0
41
1
10
7.11809915763078
20
-16.3605105618879
30
0
41
1
10
7.33884602599761
20
-16.8754937408266
30
0
41
1
10
7.45867220111154
20
-17.1287178782931
30
0
41
1
10
7.84374081659087
20
-17.8707797384487
30
0
41
1
10
8.1316919052808
20
-18.3372475690675
30
0
41
1
10
8.44846770835474
20
-18.7778267996578
30
0
0
SPLINE
5
1BA
100
AcDbEntity
8
1
62
256
6
ByLayer
370
-1
48
1
60
0
100
AcDbSpline
70
4
71
3
72
10
73
6
40
0
40
0
40
0
40
0
40
0.5
40
0.5
40
1
40
1
40
1
40
1
41
1
10
32.6085009006916
20
-23.4089601678501
30
0
41
1
10
31.9075382498894
20
-23.1821249310533
30
0
41
1
10
31.2072581632764
20
-22.944268649864
30
0
41
1
10
29.8101625333695
20
-22.4412328636348
30
0
41
1
10
29.1133183746799
20
-22.1761190769128
30
0
41
1
10
28.4195399194933
20
-21.8937764406938
30
0
0
SPLINE
5
1BB
100
AcDbEntity
8
1
62
256
6
ByLayer
370
-1
48
1
60
0
100
AcDbSpline
70
4
71
3
72
22
73
18
40
0
40
0
40
0
40
0
40
0.0894769562272064
40
0.0894769562272064
40
0.180529260604499
40
0.180529260604499
40
0.271581564981791
40
0.271581564981791
40
0.362633869359083
40
0.362633869359083
40
0.453686173736375
40
0.453686173736375
40
0.635790782490917
40
0.635790782490917
40
0.817895391245458
40
0.817895391245458
40
1
40
1
40
1
40
1
41
1
10
141.779286135373
20
0.692596036315848
30
0
41
1
10
141.800324143768
20
0.686909503724365
30
0
41
1
10
141.822278933121
20
0.679917361209874
30
0
41
1
10
141.868722827897
20
0.662255890543634
30
0
41
1
10
141.892978957268
20
0.651564572678581
30
0
41
1
10
141.942834367467
20
0.625280920271734
30
0
41
1
10
141.968007078495
20
0.609838933218839
30
0
41
1
10
142.016350050622
20
0.574814611702919
30
0
41
1
10
142.038532258823
20
0.55595162257751
30
0
41
1
10
142.077941548777
20
0.517532037712868
30
0
41
1
10
142.094692863495
20
0.498561954714262
30
0
41
1
10
142.139140548261
20
0.442127665054528
30
0
41
1
10
142.159675491993
20
0.40726791998182
30
0
41
1
10
142.19261388994
20
0.340395112020303
30
0
41
1
10
142.204420000671
20
0.309090836547966
30
0
41
1
10
142.222838711928
20
0.249073084516652
30
0
41
1
10
142.229375690306
20
0.220349956394358
30
0
41
1
10
142.234122725115
20
0.192497208447008
30
0
0
SPLINE
5
1BC
100
AcDbEntity
8
1
62
256
6
ByLayer
370
-1
48
1
60
0
100
AcDbSpline
70
4
71
3
72
10
73
6
40
0
40
0
40
0
40
0
40
0.414631168620573
40
0.414631168620573
40
1
40
1
40
1
40
1
41
1
10
142.291078224377
20
-11.3327058677395
30
0
41
1
10
142.30051718826
20
-11.0667205184945
30
0
41
1
10
142.309948528799
20
-10.8007338521556
30
0
41
1
10
142.33267232567
20
-10.1592281866698
30
0
41
1
10
142.345955478025
20
-9.78370761143961
30
0
41
1
10
142.359214855558
20
-9.40818311379164
30
0
0
SPLINE
5
1BD
100
AcDbEntity
8
1
62
256
6
ByLayer
370
-1
48
1
60
0
100
AcDbSpline
70
4
71
3
72
10
73
6
40
0
40
0
40
0
40
0
40
0.5
40
0.5
40
1
40
1
40
1
40
1
41
1
10
143.003372849133
20
-2.3573968298613
30
0
41
1
10
143.001571208069
20
-2.32308359117633
30
0
41
1
10
143.000361652596
20
-2.28993945747399
30
0
41
1
10
142.998947781894
20
-2.22563609123537
30
0
41
1
10
142.998748269643
20
-2.19418773287401
30
0
41
1
10
142.99896371591
20
-2.16443837227988
30
0
0
SPLINE
5
1BE
100
AcDbEntity
8
1
62
256
6
ByLayer
370
-1
48
1
60
0
100
AcDbSpline
70
4
71
3
72
10
73
6
40
0
40
0
40
0
40
0
40
0.310983025413771
40
0.310983025413771
40
1
40
1
40
1
40
1
41
1
10
142.243054424833
20
-11.3264675509872
30
0
41
1
10
142.249878948477
20
-11.126956843186
30
0
41
1
10
142.25670929086
20
-10.9274463335532
30
0
41
1
10
142.278696098975
20
-10.2858992151112
30
0
41
1
10
142.293880620664
20
-9.843863561289
30
0
41
1
10
142.309116394523
20
-9.40182966871831
30
0
0
SPLINE
5
1BF
100
AcDbEntity
8
1
62
256
6
ByLayer
370
-1
48
1
60
0
100
AcDbSpline
70
4
71
3
72
10
73
6
40
0
40
0
40
0
40
0
40
0.825424594715205
40
0.825424594715205
40
1
40
1
40
1
40
1
41
1
10
142.239256729067
20
-9.04502826892244
30
0
41
1
10
142.180480459567
20
-8.9137942008297
30
0
41
1
10
142.127927735899
20
-8.78024907124484
30
0
41
1
10
142.071764642501
20
-8.61567275372443
30
0
41
1
10
142.062237375892
20
-8.58683249946148
30
0
41
1
10
142.052991524762
20
-8.55789893923506
30
0
0
SPLINE
5
1C0
100
AcDbEntity
8
1
62
256
6
ByLayer
370
-1
48
1
60
0
100
AcDbSpline
70
4
71
3
72
10
73
6
40
0
40
0
40
0
40
0
40
0.5
40
0.5
40
1
40
1
40
1
40
1
41
1
10
142.309116394523
20
-9.40182966871831
30
0
41
1
10
142.311237310285
20
-9.3402957644283
30
0
41
1
10
142.306348190819
20
-9.27970721022228
30
0
41
1
10
142.283070160783
20
-9.16035063883101
30
0
41
1
10
142.26443145426
20
-9.10123771583662
30
0
41
1
10
142.239256729067
20
-9.04502826892244
30
0
0
SPLINE
5
1C1
100
AcDbEntity
8
1
62
256
6
ByLayer
370
-1
48
1
60
0
100
AcDbSpline
70
4
71
3
72
10
73
6
40
0
40
0
40
0
40
0
40
0.5
40
0.5
40
1
40
1
40
1
40
1
41
1
10
142.969495258926
20
-2.01986643843952
30
0
41
1
10
142.978776594975
20
-2.04196182093244
30
0
41
1
10
142.986715793809
20
-2.06669375625714
30
0
41
1
10
142.99691305306
20
-2.11670894440041
30
0
41
1
10
142.999127687973
20
-2.14179669893593
30
0
41
1
10
142.99896371591
20
-2.16443837227942
30
0
0
SPLINE
5
1C2
100
AcDbEntity
8
1
62
256
6
ByLayer
370
-1
48
1
60
0
100
AcDbSpline
70
4
71
3
72
18
73
14
40
0
40
0
40
0
40
0
40
0.125
40
0.125
40
0.25
40
0.25
40
0.375000000000001
40
0.375000000000001
40
0.500000000000001
40
0.500000000000001
40
0.75
40
0.75
40
1
40
1
40
1
40
1
41
1
10
143.674486205876
20
-11.5230504942732
30
0
41
1
10
143.672848913085
20
-11.5698489736234
30
0
41
1
10
143.672205476524
20
-11.6170328635364
30
0
41
1
10
143.672653089567
20
-11.7077653312786
30
0
41
1
10
143.673724768985
20
-11.751527324175
30
0
41
1
10
143.676931319611
20
-11.8336726417748
30
0
41
1
10
143.679087620539
20
-11.8728765377566
30
0
41
1
10
143.684074793588
20
-11.9474892683228
30
0
41
1
10
143.686882214031
20
-11.9826298115563
30
0
41
1
10
143.695926663941
20
-12.0837576104449
30
0
41
1
10
143.702772247768
20
-12.1455451274126
30
0
41
1
10
143.717331534239
20
-12.2631291235264
30
0
41
1
10
143.72507566369
20
-12.3189034692561
30
0
41
1
10
143.733036543499
20
-12.372323817835
30
0
0
SPLINE
5
1C3
100
AcDbEntity
8
1
62
256
6
ByLayer
370
-1
48
1
60
0
100
AcDbSpline
70
4
71
3
72
8
73
4
40
0
40
0
40
0
40
0
40
1
40
1
40
1
40
1
41
1
10
143.219159193423
20
-2.09445113340902
30
0
41
1
10
143.236197611057
20
-2.14117648605975
30
0
41
1
10
143.246020430051
20
-2.18936713067262
30
0
41
1
10
143.248627650407
20
-2.23902306724881
30
0
0
SPLINE
5
1C4
100
AcDbEntity
8
1
62
256
6
ByLayer
370
-1
48
1
60
0
100
AcDbSpline
70
4
71
3
72
10
73
6
40
0
40
0
40
0
40
0
40
0.411501615197602
40
0.411501615197602
40
1
40
1
40
1
40
1
41
1
10
142.216915874657
20
-11.5827854214794
30
0
41
1
10
142.235512738223
20
-11.5517953334374
30
0
41
1
10
142.250956257636
20
-11.5188051559216
30
0
41
1
10
142.279510132678
20
-11.4363612202586
30
0
41
1
10
142.289245459114
20
-11.3847327484459
30
0
41
1
10
142.291078224377
20
-11.3327058677395
30
0
0
SPLINE
5
1C5
100
AcDbEntity
8
1
62
256
6
ByLayer
370
-1
48
1
60
0
100
AcDbSpline
70
4
71
3
72
8
73
4
40
0
40
0
40
0
40
0
40
1
40
1
40
1
40
1
41
1
10
142.215718926972
20
-11.4691912012285
30
0
41
1
10
142.232012053792
20
-11.4235339281695
30
0
41
1
10
142.241383652155
20
-11.375311551961
30
0
41
1
10
142.243054424833
20
-11.3264675509872
30
0
0
SPLINE
5
1C6
100
AcDbEntity
8
1
62
256
6
ByLayer
370
-1
48
1
60
0
100
AcDbSpline
70
4
71
3
72
10
73
6
40
0
40
0
40
0
40
0
40
0.5
40
0.5
40
1
40
1
40
1
40
1
41
1
10
142.359214855558
20
-9.40818311379164
30
0
41
1
10
142.361517845313
20
-9.34277085472638
30
0
41
1
10
142.356368239887
20
-9.27842882480724
30
0
41
1
10
142.331809297203
20
-9.15179255794237
30
0
41
1
10
142.312117594501
20
-9.08901827779229
30
0
41
1
10
142.285440625196
20
-9.02922822464686
30
0
0
SPLINE
5
1C7
100
AcDbEntity
8
1
62
256
6
ByLayer
370
-1
48
1
60
0
100
AcDbSpline
70
4
71
3
72
18
73
14
40
0
40
0
40
0
40
0
40
0.249999999999974
40
0.249999999999974
40
0.499999999999948
40
0.499999999999948
40
0.624999999999961
40
0.624999999999961
40
0.749999999999974
40
0.749999999999974
40
0.874999999999987
40
0.874999999999987
40
1
40
1
40
1
40
1
41
1
10
143.207139996545
20
-13.0948082198504
30
0
41
1
10
143.158425015239
20
-13.097470452953
30
0
41
1
10
143.107413048504
20
-13.1011543153799
30
0
41
1
10
142.999756497896
20
-13.1117059319219
30
0
41
1
10
142.943134615907
20
-13.1185215703892
30
0
41
1
10
142.850454474956
20
-13.133015333645
30
0
41
1
10
142.818248468085
20
-13.1385701050908
30
0
41
1
10
142.749923466035
20
-13.1518364790012
30
0
41
1
10
142.713441382183
20
-13.1596250137987
30
0
41
1
10
142.635993148827
20
-13.1782716614453
30
0
41
1
10
142.595536950914
20
-13.1889909928654
30
0
41
1
10
142.509432623396
20
-13.2146142031354
30
0
41
1
10
142.465531230155
20
-13.2290257549517
30
0
41
1
10
142.420905685098
20
-13.2452378297458
30
0
0
SPLINE
5
1C8
100
AcDbEntity
8
1
62
256
6
ByLayer
370
-1
48
1
60
0
100
AcDbSpline
70
4
71
3
72
18
73
14
40
0
40
0
40
0
40
0
40
0.25
40
0.25
40
0.5
40
0.5
40
0.625
40
0.625
40
0.75
40
0.75
40
0.875
40
0.875
40
1
40
1
40
1
40
1
41
1
10
142.234122725115
20
0.19249720844806
30
0
41
1
10
142.24159284348
20
0.148667042388411
30
0
41
1
10
142.250026716047
20
0.102484502521861
30
0
41
1
10
142.269720906462
20
0.004134593319975
30
0
41
1
10
142.280943024462
20
-0.0479961294251154
30
0
41
1
10
142.301589457939
20
-0.134389242770226
30
0
41
1
10
142.309117681723
20
-0.164575768262779
30
0
41
1
10
142.326100115559
20
-0.229088946147726
30
0
41
1
10
142.335648962698
20
-0.263760481742224
30
0
41
1
10
142.357361802783
20
-0.338038564917042
30
0
41
1
10
142.369371907614
20
-0.377150931721502
30
0
41
1
10
142.396850299546
20
-0.461290728389201
30
0
41
1
10
142.411779900443
20
-0.50462003431727
30
0
41
1
10
142.428022270532
20
-0.549162343736725
30
0
0
SPLINE
5
1C9
100
AcDbEntity
8
1
62
256
6
ByLayer
370
-1
48
1
60
0
100
AcDbSpline
70
4
71
3
72
14
73
10
40
0
40
0
40
0
40
0
40
0.25
40
0.25
40
0.5
40
0.5
40
0.75
40
0.75
40
1
40
1
40
1
40
1
41
1
10
143.900049096012
20
-12.5785328724144
30
0
41
1
10
143.897281137902
20
-12.6576489786941
30
0
41
1
10
143.882713837581
20
-12.7359519877998
30
0
41
1
10
143.83119258203
20
-12.8853050583107
30
0
41
1
10
143.79419199395
20
-12.9562200044311
30
0
41
1
10
143.701264791078
20
-13.0838724085601
30
0
41
1
10
143.645050680333
20
-13.1409604300647
30
0
41
1
10
143.518789999873
20
-13.2359061520723
30
0
41
1
10
143.448681698663
20
-13.2739414785784
30
0
41
1
10
143.374152549057
20
-13.3010172744308
30
0
0
SPLINE
5
1CA
100
AcDbEntity
8
1
62
256
6
ByLayer
370
-1
48
1
60
0
100
AcDbSpline
70
4
71
3
72
14
73
10
40
0
40
0
40
0
40
0
40
0.0806302461521687
40
0.0806302461521687
40
0.387086830768113
40
0.387086830768113
40
0.693543415384056
40
0.693543415384056
40
1
40
1
40
1
40
1
41
1
10
141.804402676285
20
0.773968821568928
30
0
41
1
10
141.824538839738
20
0.768761539680355
30
0
41
1
10
141.844474830704
20
0.762769836802846
30
0
41
1
10
141.938975395069
20
0.730292150826443
30
0
41
1
10
142.010022859032
20
0.693360576302041
30
0
41
1
10
142.137913805556
20
0.600606701394611
30
0
41
1
10
142.195108506708
20
0.544497441297892
30
0
41
1
10
142.290231652557
20
0.418472262458636
30
0
41
1
10
142.328338055185
20
0.34849472736272
30
0
41
1
10
142.355464447227
20
0.274104589644423
30
0
0
SPLINE
5
1CB
100
AcDbEntity
8
1
62
256
6
ByLayer
370
-1
48
1
60
0
100
AcDbSpline
70
4
71
3
72
8
73
4
40
0
40
0
40
0
40
0
40
1
40
1
40
1
40
1
41
1
10
142.285440625196
20
-9.02922822464686
30
0
41
1
10
142.185964297948
20
-8.8061438563206
30
0
41
1
10
142.105128898868
20
-8.57782010272192
30
0
41
1
10
142.042470287746
20
-8.34438676674685
30
0
0
SPLINE
5
1CC
100
AcDbEntity
8
1
62
256
6
ByLayer
370
-1
48
1
60
0
100
AcDbSpline
70
4
71
3
72
10
73
6
40
0
40
0
40
0
40
0
40
0.5
40
0.5
40
1
40
1
40
1
40
1
41
1
10
142.896876120423
20
-1.83492502126424
30
0
41
1
10
142.908422947279
20
-1.86659049445623
30
0
41
1
10
142.920635743453
20
-1.89876682575439
30
0
41
1
10
142.945053288452
20
-1.96081382174756
30
0
41
1
10
142.95727081116
20
-1.99076461002622
30
0
41
1
10
142.969495258926
20
-2.01986643843958
30
0
0
SPLINE
5
1CD
100
AcDbEntity
8
1
62
256
6
ByLayer
370
-1
48
1
60
0
100
AcDbSpline
70
4
71
3
72
26
73
22
40
0
40
0
40
0
40
0
40
0.124999999999988
40
0.124999999999988
40
0.249999999999976
40
0.249999999999976
40
0.374999999999964
40
0.374999999999964
40
0.437499999999956
40
0.437499999999956
40
0.499999999999949
40
0.499999999999949
40
0.562499999999941
40
0.562499999999941
40
0.624999999999934
40
0.624999999999934
40
0.749999999999956
40
0.749999999999956
40
0.874999999999978
40
0.874999999999978
40
1
40
1
40
1
40
1
41
1
10
143.733036543499
20
-12.3723238178348
30
0
41
1
10
143.738081825135
20
-12.4061794606994
30
0
41
1
10
143.741675098876
20
-12.4412763332905
30
0
41
1
10
143.744547880058
20
-12.5151273276679
30
0
41
1
10
143.743907802399
20
-12.5538141391352
30
0
41
1
10
143.735083241764
20
-12.6375437799232
30
0
41
1
10
143.727064744669
20
-12.6824200935747
30
0
41
1
10
143.703305289628
20
-12.7555710297982
30
0
41
1
10
143.693451501215
20
-12.7806378253521
30
0
41
1
10
143.668345469428
20
-12.8316246935912
30
0
41
1
10
143.653224118104
20
-12.8570992925364
30
0
41
1
10
143.618138496138
20
-12.9053562365819
30
0
41
1
10
143.59889526607
20
-12.9271527220545
30
0
41
1
10
143.559180930843
20
-12.9652678306159
30
0
41
1
10
143.539327425263
20
-12.9811415089648
30
0
41
1
10
143.479778410688
20
-13.0225026358393
30
0
41
1
10
143.442369271321
20
-13.0405196590537
30
0
41
1
10
143.370018194946
20
-13.0680533011774
30
0
41
1
10
143.335820763686
20
-13.0770080204466
30
0
41
1
10
143.269868957876
20
-13.0895813367278
30
0
41
1
10
143.23809689718
20
-13.093116451048
30
0
41
1
10
143.207139996544
20
-13.0948082198513
30
0
0
SPLINE
5
1CE
100
AcDbEntity
8
1
62
256
6
ByLayer
370
-1
48
1
60
0
100
AcDbSpline
70
4
71
3
72
8
73
4
40
0
40
0
40
0
40
0
40
1
40
1
40
1
40
1
41
1
10
130.288466528683
20
11.5675196347039
30
0
41
1
10
130.288820491426
20
11.5573447494439
30
0
41
1
10
130.28945278664
20
11.5471930613108
30
0
41
1
10
130.290251693389
20
11.5388582832497
30
0
0
SPLINE
5
1CF
100
AcDbEntity
8
1
62
256
6
ByLayer
370
-1
48
1
60
0
100
AcDbSpline
70
4
71
3
72
16
73
12
40
0
40
0
40
0
40
0
40
0.0319528420423194
40
0.215044192449671
40
0.398135542857023
40
0.581226893264375
40
0.764318243671726
40
0.855863918875402
40
0.947409594079078
40
0.993182431680916
40
1
40
1
40
1
40
1
41
1
10
141.640580447035
20
11.2901243286186
30
0
41
1
10
141.640727004805
20
11.2866837036955
30
0
41
1
10
141.64170557577
20
11.2635196242354
30
0
41
1
10
141.643527587394
20
11.2206447630338
30
0
41
1
10
141.646036890917
20
11.161489082492
30
0
41
1
10
141.648545251771
20
11.1023323537383
30
0
41
1
10
141.650636440703
20
11.0530360625172
30
0
41
1
10
141.652308379209
20
11.0135981139405
30
0
41
1
10
141.653354361641
20
10.9889502933279
30
0
41
1
10
141.654014273092
20
10.9734284059166
30
0
41
1
10
141.654253833679
20
10.9677638147045
30
0
41
1
10
141.654284862578
20
10.9670294588213
30
0
0
SPLINE
5
1D0
100
AcDbEntity
8
1
62
256
6
ByLayer
370
-1
48
1
60
0
100
AcDbSpline
70
4
71
3
72
20
73
16
40
0
40
0
40
0
40
0
40
0.0006369940731622
40
0.0022970655115788
40
0.0039571369499955
40
0.0172377084573289
40
0.0437988514719957
40
0.150043423530663
40
0.362532567647997
40
0.468777139706664
40
0.521899425735998
40
0.575021711765331
40
0.787510855882666
40
0.893755427941333
40
1
40
1
40
1
40
1
41
1
10
142.188148427551
20
25.442076808955
30
0
41
1
10
142.187926178027
20
25.4420743969164
30
0
41
1
10
142.187124018091
20
25.4420573272944
30
0
41
1
10
142.185743729138
20
25.4420019939258
30
0
41
1
10
142.179964386758
20
25.4418032627505
30
0
41
1
10
142.165491846372
20
25.4412911691566
30
0
41
1
10
142.114582130941
20
25.4395130709958
30
0
41
1
10
141.994195297087
20
25.4352969177283
30
0
41
1
10
141.845970416366
20
25.4301351465782
30
0
41
1
10
141.716215194919
20
25.4256307703677
30
0
41
1
10
141.642051524226
20
25.4230627214
30
0
41
1
10
141.530821166061
20
25.419197479006
30
0
41
1
10
141.401096083724
20
25.4146498704373
30
0
41
1
10
141.252905742419
20
25.4094027156433
30
0
41
1
10
141.178832487074
20
25.4067588783388
30
0
41
1
10
141.141802942056
20
25.4054355456842
30
0
0
SPLINE
5
1D1
100
AcDbEntity
8
1
62
256
6
ByLayer
370
-1
48
1
60
0
100
AcDbSpline
70
4
71
3
72
14
73
10
40
0
40
0
40
0
40
0
40
0.0107070020616564
40
0.046169385089406
40
0.117094151144905
40
0.400793215366902
40
0.684492279588899
40
0.968191343810897
40
1
40
1
40
1
40
1
41
1
10
141.188688865519
20
24.2800366507365
30
0
41
1
10
141.188729014074
20
24.2785485386519
30
0
41
1
10
141.188901135283
20
24.272132708635
30
0
41
1
10
141.18932146219
20
24.2558774571453
30
0
41
1
10
141.190583792627
20
24.2018943992251
30
0
41
1
10
141.191892782616
20
24.1147844125608
30
0
41
1
10
141.191982565637
20
24.0038227571855
30
0
41
1
10
141.190886115638
20
23.9310235255533
30
0
41
1
10
141.189967161405
20
23.8947817953752
30
0
41
1
10
141.189872780208
20
23.8911386311122
30
0
0
SPLINE
5
1D2
100
AcDbEntity
8
1
62
256
6
ByLayer
370
-1
48
1
60
0
100
AcDbSpline
70
4
71
3
72
91
73
87
40
0
40
0
40
0
40
0
40
0.0276322771566091
40
0.0681475989417504
40
0.0782764293880358
40
0.0833408446111784
40
0.0839738965140713
40
0.0846069484169641
40
0.0849234743684105
40
0.0852400003198569
40
0.0858730522227497
40
0.0884052598343211
40
0.0985340902806064
40
0.108662920726892
40
0.118791751173177
40
0.128920581619462
40
0.149178242512033
40
0.169435903404604
40
0.179564733850889
40
0.184629149074032
40
0.189693564297174
40
0.190326616200067
40
0.19095966810296
40
0.192225771908746
40
0.192858823811638
40
0.193491875714531
40
0.194757979520317
40
0.197290187131888
40
0.19982239474346
40
0.204886809966602
40
0.209951225189745
40
0.22008005563603
40
0.222612263247602
40
0.223878367053387
40
0.225144470859173
40
0.230208886082316
40
0.270724207867457
40
0.290981868760028
40
0.311239529652598
40
0.331497190545169
40
0.341626020991454
40
0.346690436214597
40
0.349222643826168
40
0.350488747631954
40
0.351121799534847
40
0.351754851437739
40
0.352387903340632
40
0.353020955243525
40
0.354287059049311
40
0.356819266660882
40
0.361883681884025
40
0.37201251233031
40
0.392270173222881
40
0.412527834115451
40
0.432785495008022
40
0.473300816793163
40
0.475833024404735
40
0.478365232016306
40
0.479631335822092
40
0.480897439627877
40
0.483429647239449
40
0.493558477685734
40
0.503687308132019
40
0.508751723355162
40
0.511283930966733
40
0.512550034772519
40
0.513816138578305
40
0.514449190481198
40
0.52394496902459
40
0.534073799470875
40
0.554331460363446
40
0.564460290809731
40
0.574589121256017
40
0.594846782148587
40
0.615104443041158
40
0.617636650652729
40
0.618269702555622
40
0.618586228507068
40
0.618902754458515
40
0.619535806361408
40
0.620168858264301
40
0.625233273487443
40
0.635362103933728
40
0.67587742571887
40
0.837938712859435
40
1
40
1
40
1
40
1
41
1
10
129.74701034264
20
23.108312895578
30
0
41
1
10
129.747541628625
20
23.1098995870403
30
0
41
1
10
129.748917185613
20
23.1137906967071
30
0
41
1
10
129.750680446492
20
23.118191367518
30
0
41
1
10
129.752030030704
20
23.1212823354586
30
0
41
1
10
129.752421457787
20
23.1221568642291
30
0
41
1
10
129.752579228423
20
23.1225061303657
30
0
41
1
10
129.752618737712
20
23.1225934165507
30
0
41
1
10
129.752650385108
20
23.1226632272588
30
0
41
1
10
129.752682059141
20
23.1227330257969
30
0
41
1
10
129.752769272591
20
23.122924921533
30
0
41
1
10
129.753103667088
20
23.1236569738165
30
0
41
1
10
129.753686484667
20
23.1249074991896
30
0
41
1
10
129.754483868676
20
23.1265651847508
30
0
41
1
10
129.755301424769
20
23.1282129394234
30
0
41
1
10
129.756418233248
20
23.1303963720879
30
0
41
1
10
129.757864064963
20
23.1330995892689
30
0
41
1
10
129.75937551271
20
23.1357663796794
30
0
41
1
10
129.760467548185
20
23.1376131364125
30
0
41
1
10
129.761101228132
20
23.1386625880303
30
0
41
1
10
129.761441280954
20
23.1392180195249
30
0
41
1
10
129.761642436881
20
23.1395440451928
30
0
41
1
10
129.761722999184
20
23.1396743932779
30
0
41
1
10
129.761803711305
20
23.139804647982
30
0
41
1
10
129.761884573078
20
23.1399348090898
30
0
41
1
10
129.761965534564
20
23.1400649077281
30
0
41
1
10
129.762107478772
20
23.1402924161743
30
0
41
1
10
129.762311002836
20
23.1406169581032
30
0
41
1
10
129.76263823064
20
23.1411352176335
30
0
41
1
10
129.763050238776
20
23.1417811442586
30
0
41
1
10
129.763715767028
20
23.1428105414676
30
0
41
1
10
129.764306356266
20
23.1437058536783
30
0
41
1
10
129.76477574568
20
23.1444057075715
30
0
41
1
10
129.764947015612
20
23.1446598048231
30
0
41
1
10
129.765204502725
20
23.1450405547654
30
0
41
1
10
129.766801305637
20
23.147382395454
30
0
41
1
10
129.769135775207
20
23.1506111927896
30
0
41
1
10
129.772151803835
20
23.1544755731308
30
0
41
1
10
129.77448389984
20
23.1573173310153
30
0
41
1
10
129.776484589357
20
23.1596368853303
30
0
41
1
10
129.777914554397
20
23.1612342979575
30
0
41
1
10
129.77863683406
20
23.162026338881
30
0
41
1
10
129.778999788996
20
23.1624206809275
30
0
41
1
10
129.779181719092
20
23.1626174308384
30
0
41
1
10
129.779285808305
20
23.1627297388257
30
0
41
1
10
129.779363939753
20
23.1628139094956
30
0
41
1
10
129.779442135699
20
23.1628980197912
30
0
41
1
10
129.779546482888
20
23.163010086293
30
0
41
1
10
129.779729315855
20
23.1632059910471
30
0
41
1
10
129.780095881913
20
23.1635969528049
30
0
41
1
10
129.780832603169
20
23.1643754752828
30
0
41
1
10
129.78232031143
20
23.1659188358003
30
0
41
1
10
129.784485849278
20
23.1680840793597
30
0
41
1
10
129.787147218583
20
23.1706176120332
30
0
41
1
10
129.790777128652
20
23.1739073519866
30
0
41
1
10
129.793705812462
20
23.1763716866084
30
0
41
1
10
129.795859154605
20
23.1780897226296
30
0
41
1
10
129.796158957426
20
23.1783274166662
30
0
41
1
10
129.796399234574
20
23.1785170172152
30
0
41
1
10
129.79663980111
20
23.1787062474995
30
0
41
1
10
129.797302550575
20
23.1792251014681
30
0
41
1
10
129.798393524427
20
23.1800657720206
30
0
41
1
10
129.799617055237
20
23.1809848295478
30
0
41
1
10
129.800479388249
20
23.1816202035757
30
0
41
1
10
129.800912008764
20
23.1819358889934
30
0
41
1
10
129.801159634297
20
23.1821157073423
30
0
41
1
10
129.801314572337
20
23.1822278546291
30
0
41
1
10
129.801872812994
20
23.1826309382653
30
0
41
1
10
129.802869632515
20
23.1833413978045
30
0
41
1
10
129.804848587653
20
23.1847165525851
30
0
41
1
10
129.806884377857
20
23.1860761935873
30
0
41
1
10
129.808944634203
20
23.1873979354556
30
0
41
1
10
129.81102088233
20
23.1886942254008
30
0
41
1
10
129.813645578995
20
23.1902665170375
30
0
41
1
10
129.815908520203
20
23.1915476949004
30
0
41
1
10
129.817149190048
20
23.1922276483691
30
0
41
1
10
129.81733380619
20
23.1923283676713
30
0
41
1
10
129.817400960276
20
23.1923649541428
30
0
41
1
10
129.817468128314
20
23.1924015147891
30
0
41
1
10
129.817552114505
20
23.1924471671643
30
0
41
1
10
129.817888198498
20
23.1926295182429
30
0
41
1
10
129.818729972648
20
23.1930824874179
30
0
41
1
10
129.821707535497
20
23.1946495417705
30
0
41
1
10
129.833256997746
20
23.2002817102212
30
0
41
1
10
129.854179546773
20
23.2074622074331
30
0
41
1
10
129.873660387777
20
23.2100801444727
30
0
41
1
10
129.883434548463
20
23.2104227694766
30
0
0
SPLINE
5
1D3
100
AcDbEntity
8
1
62
256
6
ByLayer
370
-1
48
1
60
0
100
AcDbSpline
70
4
71
3
72
8
73
4
40
0
40
0
40
0
40
0
40
1
40
1
40
1
40
1
41
1
10
128.495095491104
20
25.0567410416348
30
0
41
1
10
128.457354091721
20
25.0540910777183
30
0
41
1
10
128.420393739793
20
25.0472129595385
30
0
41
1
10
128.384211440682
20
25.0361113829526
30
0
0
SPLINE
5
1D4
100
AcDbEntity
8
1
62
256
6
ByLayer
370
-1
48
1
60
0
100
AcDbSpline
70
4
71
3
72
12
73
8
40
0
40
0
40
0
40
0
40
0.51810085343932
40
0.77715128015898
40
0.90667649351881
40
0.971439100198725
40
1
40
1
40
1
40
1
41
1
10
143.54559626092
20
12.1815915648999
30
0
41
1
10
143.469881117619
20
12.1788871105936
30
0
41
1
10
143.356308788274
20
12.1748304382177
30
0
41
1
10
143.223806358623
20
12.170097621728
30
0
41
1
10
143.157556998957
20
12.1677312562979
30
0
41
1
10
143.124987780622
20
12.166567950029
30
0
41
1
10
143.111351267123
20
12.1660808465138
30
0
41
1
10
143.107174832812
20
12.1659316967954
30
0
0
SPLINE
5
1D5
100
AcDbEntity
8
1
62
256
6
ByLayer
370
-1
48
1
60
0
100
AcDbSpline
70
4
71
3
72
9
73
5
40
0
40
0
40
0
40
0
40
0.624999999998245
40
1
40
1
40
1
40
1
41
1
10
143.114481730895
20
24.574254263688
30
0
41
1
10
143.135382001366
20
24.5749813365359
30
0
41
1
10
143.168822434121
20
24.5761446530927
30
0
41
1
10
143.202262866877
20
24.5773079696494
30
0
41
1
10
143.21480302916
20
24.5777442133582
30
0
0
SPLINE
5
1D6
100
AcDbEntity
8
1
62
256
6
ByLayer
370
-1
48
1
60
0
100
AcDbSpline
70
4
71
3
72
8
73
4
40
0
40
0
40
0
40
0
40
1
40
1
40
1
40
1
41
1
10
128.306560641457
20
10.4564311599452
30
0
41
1
10
128.309418477548
20
10.403155711655
30
0
41
1
10
128.312700811122
20
10.349901491554
30
0
41
1
10
128.316409804955
20
10.2966788865583
30
0
0
SPLINE
5
1D7
100
AcDbEntity
8
1
62
256
6
ByLayer
370
-1
48
1
60
0
100
AcDbSpline
70
4
71
3
72
8
73
4
40
0
40
0
40
0
40
0
40
1
40
1
40
1
40
1
41
1
10
143.178440002075
20
24.9886804198783
30
0
41
1
10
143.137666432315
20
25.1225586625635
30
0
41
1
10
143.061827498247
20
25.2443946481995
30
0
41
1
10
142.959829940754
20
25.3398660179014
30
0
0
SPLINE
5
1D8
100
AcDbEntity
8
1
62
256
6
ByLayer
370
-1
48
1
60
0
100
AcDbSpline
70
4
71
3
72
8
73
4
40
0
40
0
40
0
40
0
40
1
40
1
40
1
40
1
41
1
10
143.682430117066
20
11.1355047024492
30
0
41
1
10
143.683484756254
20
11.1051878542103
30
0
41
1
10
143.684403482388
20
11.0748659489908
30
0
41
1
10
143.685182272658
20
11.0445406782832
30
0
0
SPLINE
5
1D9
100
AcDbEntity
8
1
62
256
6
ByLayer
370
-1
48
1
60
0
100
AcDbSpline
70
4
71
3
72
12
73
8
40
0
40
0
40
0
40
0
40
0.518100853439292
40
0.777151280158938
40
0.906676493518761
40
0.971439100198672
40
1
40
1
40
1
40
1
41
1
10
141.141802942056
20
25.4054355456842
30
0
41
1
10
141.145932697029
20
25.3279901071757
30
0
41
1
10
141.152127446917
20
25.2118222095333
30
0
41
1
10
141.159354222631
20
25.0762920777933
30
0
41
1
10
141.162968201606
20
25.0085282379786
30
0
41
1
10
141.164743830766
20
24.9752155050153
30
0
41
1
10
141.165488307371
20
24.9612666853802
30
0
41
1
10
141.165715291551
20
24.9569955962646
30
0
0
SPLINE
5
1DA
100
AcDbEntity
8
1
62
256
6
ByLayer
370
-1
48
1
60
0
100
AcDbSpline
70
4
71
3
72
12
73
8
40
0
40
0
40
0
40
0
40
0.0285608994398888
40
0.0933235061438962
40
0.222848719551911
40
0.481899146367941
40
1
40
1
40
1
40
1
41
1
10
142.712572883452
20
23.5090175840295
30
0
41
1
10
142.716749378311
20
23.5091667352777
30
0
41
1
10
142.730386074668
20
23.5096538434144
30
0
41
1
10
142.762954858954
20
23.510817138734
30
0
41
1
10
142.829204498219
20
23.5131835112098
30
0
41
1
10
142.961706741703
20
23.5179163230106
30
0
41
1
10
143.075279145473
20
23.5219729972606
30
0
41
1
10
143.150994288775
20
23.5246774515669
30
0
0
SPLINE
5
1DB
100
AcDbEntity
8
1
62
256
6
ByLayer
370
-1
48
1
60
0
100
AcDbSpline
70
4
71
3
72
8
73
4
40
0
40
0
40
0
40
0
40
1
40
1
40
1
40
1
41
1
10
143.198991153494
20
24.8773728051932
30
0
41
1
10
143.196351597489
20
24.9152586958276
30
0
41
1
10
143.189500363557
20
24.9523609439429
30
0
41
1
10
143.178440002075
20
24.9886804198783
30
0
0
SPLINE
5
1DC
100
AcDbEntity
8
1
62
256
6
ByLayer
370
-1
48
1
60
0
100
AcDbSpline
70
4
71
3
72
15
73
11
40
0
40
0
40
0
40
0
40
0.42499786374903
40
0.849995727498059
40
0.956245193435317
40
0.982807559919631
40
0.996088743161788
40
0.997748891067058
40
0.999409038972327
40
1
40
1
40
1
40
1
41
1
10
141.671995019168
20
10.164725433643
30
0
41
1
10
141.820118619853
20
10.1699177822127
30
0
41
1
10
142.116362839452
20
10.1802996528849
30
0
41
1
10
142.449651422704
20
10.1919923313976
30
0
41
1
10
142.644051497148
20
10.1987958050397
30
0
41
1
10
142.694977165093
20
10.2005884044259
30
0
41
1
10
142.709434907667
20
10.2010884301862
30
0
41
1
10
142.71522690456
20
10.2012968465288
30
0
41
1
10
142.716589055327
20
10.201336972563
30
0
41
1
10
142.717371702311
20
10.2013753960703
30
0
41
1
10
142.717577208163
20
10.2013875131959
30
0
0
SPLINE
5
1DD
100
AcDbEntity
8
1
62
256
6
ByLayer
370
-1
48
1
60
0
100
AcDbSpline
70
4
71
3
72
25
73
21
40
0
40
0
40
0
40
0
40
0.125
40
0.1875
40
0.25
40
0.265625
40
0.2734375
40
0.28125
40
0.3125
40
0.375
40
0.5
40
0.625
40
0.65625
40
0.6875
40
0.75
40
0.765625
40
0.78125
40
0.8125
40
0.875
40
1
40
1
40
1
40
1
41
1
10
143.063236276462
20
24.9535958153116
30
0
41
1
10
143.067840400897
20
24.9413458979911
30
0
41
1
10
143.07382820567
20
24.9224913907465
30
0
41
1
10
143.079871981279
20
24.8966961080627
30
0
41
1
10
143.082515022031
20
24.8821263151759
30
0
41
1
10
143.083860439645
20
24.872867045739
30
0
41
1
10
143.084290692256
20
24.86986884853
30
0
41
1
10
143.085058519135
20
24.8632941738331
30
0
41
1
10
143.086673380878
20
24.8497364554313
30
0
41
1
10
143.09012657041
20
24.8199398831085
30
0
41
1
10
143.094878696901
20
24.7776657896263
30
0
41
1
10
143.098973127108
20
24.739381224769
30
0
41
1
10
143.101601237586
20
24.7140753192967
30
0
41
1
10
143.103322627005
20
24.6972339587903
30
0
41
1
10
143.104783664925
20
24.6825011315893
30
0
41
1
10
143.10599678903
20
24.6698223191468
30
0
41
1
10
143.106795848257
20
24.6613578386407
30
0
41
1
10
143.108170717502
20
24.6465192947917
30
0
41
1
10
143.11084264064
20
24.6167706271476
30
0
41
1
10
143.113053969715
20
24.591272157264
30
0
41
1
10
143.114481730895
20
24.574254263688
30
0
0
SPLINE
5
1DE
100
AcDbEntity
8
1
62
256
6
ByLayer
370
-1
48
1
60
0
100
AcDbSpline
70
4
71
3
72
15
73
11
40
0
40
0
40
0
40
0
40
0.0466427416046268
40
0.130083711367179
40
0.213524681129732
40
0.380406620654836
40
0.714170499705046
40
0.881052439230151
40
0.964493408992703
40
1
40
1
40
1
40
1
41
1
10
143.107174832812
20
12.1659316967954
30
0
41
1
10
143.101881090256
20
12.165742645525
30
0
41
1
10
143.087103323836
20
12.1652150542901
30
0
41
1
10
143.062696268472
20
12.1643453792028
30
0
41
1
10
143.024291367646
20
12.162980066061
30
0
41
1
10
142.956493439545
20
12.1605778328391
30
0
41
1
10
142.877936741202
20
12.157812670322
30
0
41
1
10
142.808761541989
20
12.1553935727459
30
0
41
1
10
142.774865070626
20
12.1542120064806
30
0
41
1
10
142.760756993181
20
12.1537210130831
30
0
41
1
10
142.756545556062
20
12.153574480871
30
0
0
SPLINE
5
1DF
100
AcDbEntity
8
1
62
256
6
ByLayer
370
-1
48
1
60
0
100
AcDbSpline
70
4
71
3
72
9
73
5
40
0
40
0
40
0
40
0
40
0.5
40
1
40
1
40
1
40
1
41
1
10
128.649932619303
20
9.93657519258505
30
0
41
1
10
128.60612703718
20
9.97296091278483
30
0
41
1
10
128.525986010456
20
10.0592772973063
30
0
41
1
10
128.47063762632
20
10.1653227249925
30
0
41
1
10
128.450397015765
20
10.2204558764423
30
0
0
SPLINE
5
1E0
100
AcDbEntity
8
1
62
256
6
ByLayer
370
-1
48
1
60
0
100
AcDbSpline
70
4
71
3
72
12
73
8
40
0
40
0
40
0
40
0
40
0.448044053330175
40
0.448044053330175
40
0.724021472165484
40
0.724021472165484
40
1
40
1
40
1
40
1
41
1
10
143.645917559186
20
12.1850815145702
30
0
41
1
10
143.651370653009
20
12.0283288474435
30
0
41
1
10
143.656757358409
20
11.8715725888026
30
0
41
1
10
143.665521397412
20
11.6182641335928
30
0
41
1
10
143.668890879761
20
11.5217111953235
30
0
41
1
10
143.675664769025
20
11.328608629858
30
0
41
1
10
143.679071279495
20
11.2320584523963
30
0
41
1
10
143.682430117067
20
11.1355047024492
30
0
0
SPLINE
5
1E1
100
AcDbEntity
8
1
62
256
6
ByLayer
370
-1
48
1
60
0
100
AcDbSpline
70
4
71
3
72
8
73
4
40
0
40
0
40
0
40
0
40
1
40
1
40
1
40
1
41
1
10
128.384211440682
20
25.0361113829527
30
0
41
1
10
128.250841615132
20
24.9951830987116
30
0
41
1
10
128.129467342697
20
24.9190563890367
30
0
41
1
10
128.034362209893
20
24.8166662667039
30
0
0
SPLINE
5
1E2
100
AcDbEntity
8
1
62
256
6
ByLayer
370
-1
48
1
60
0
100
AcDbSpline
70
4
71
3
72
15
73
11
40
0
40
0
40
0
40
0
40
0.0466427416045641
40
0.130083711367128
40
0.213524681129693
40
0.380406620654821
40
0.714170499705078
40
0.881052439230207
40
0.964493408992771
40
1
40
1
40
1
40
1
41
1
10
141.165715291551
20
24.9569955962646
30
0
41
1
10
141.166003000089
20
24.9515818762037
30
0
41
1
10
141.166801562094
20
24.9364736399694
30
0
41
1
10
141.168070340376
20
24.9115694038971
30
0
41
1
10
141.169974232591
20
24.8724719509575
30
0
41
1
10
141.17309858511
20
24.8036809919699
30
0
41
1
10
141.176179102588
20
24.724497097763
30
0
41
1
10
141.17842407839
20
24.6552232068581
30
0
41
1
10
141.179411553129
20
24.6213875760152
30
0
41
1
10
141.179799308646
20
24.6073273647229
30
0
41
1
10
141.179914012127
20
24.6031312311816
30
0
0
SPLINE
5
1E3
100
AcDbEntity
8
1
62
256
6
ByLayer
370
-1
48
1
60
0
100
AcDbSpline
70
4
71
3
72
25
73
21
40
0
40
0
40
0
40
0
40
0.125
40
0.1875
40
0.25
40
0.265625
40
0.2734375
40
0.28125
40
0.3125
40
0.375
40
0.5
40
0.625
40
0.65625
40
0.6875
40
0.75
40
0.765625
40
0.78125
40
0.8125
40
0.875
40
1
40
1
40
1
40
1
41
1
10
128.418278699441
20
24.921354812237
30
0
41
1
10
128.430480046525
20
24.9259784867522
30
0
41
1
10
128.449262454663
20
24.9319895173244
30
0
41
1
10
128.474964092168
20
24.9380518482743
30
0
41
1
10
128.489482784215
20
24.9407006268077
30
0
41
1
10
128.498710236504
20
24.9420477534771
30
0
41
1
10
128.501698246067
20
24.942478423518
30
0
41
1
10
128.508250327391
20
24.9432467488577
30
0
41
1
10
128.521761505343
20
24.9448627090549
30
0
41
1
10
128.551455752051
20
24.9483179876261
30
0
41
1
10
128.593584705782
20
24.9530724804612
30
0
41
1
10
128.63173780253
20
24.9571682802041
30
0
41
1
10
128.656956867527
20
24.9597969373804
30
0
41
1
10
128.67374044411
20
24.9615185756151
30
0
41
1
10
128.688422726184
20
24.9629796556578
30
0
41
1
10
128.701058031153
20
24.9641926563612
30
0
41
1
10
128.709493463545
20
24.9649915939966
30
0
41
1
10
128.724281080548
20
24.9663661555707
30
0
41
1
10
128.753927636607
20
24.9690371515788
30
0
41
1
10
128.779338586349
20
24.971247382012
30
0
41
1
10
128.796298066284
20
24.9726742281909
30
0
0
SPLINE
5
1E4
100
AcDbEntity
8
1
62
256
6
ByLayer
370
-1
48
1
60
0
100
AcDbSpline
70
4
71
3
72
9
73
5
40
0
40
0
40
0
40
0
40
0.5
40
1
40
1
40
1
40
1
41
1
10
142.863958648926
20
25.2374764991688
30
0
41
1
10
142.907670070696
20
25.201090778969
30
0
41
1
10
142.987671511523
20
25.1147743944476
30
0
41
1
10
143.042987703055
20
25.0087289667613
30
0
41
1
10
143.063236276462
20
24.9535958153116
30
0
0
SPLINE
5
1E5
100
AcDbEntity
8
1
62
256
6
ByLayer
370
-1
48
1
60
0
100
AcDbSpline
70
4
71
3
72
8
73
4
40
0
40
0
40
0
40
0
40
1
40
1
40
1
40
1
41
1
10
142.721817057946
20
10.101438380861
30
0
41
1
10
142.752018538912
20
10.102497068442
30
0
41
1
10
142.78221538363
20
10.1036933515205
30
0
41
1
10
142.812406129578
20
10.1050281743478
30
0
0
SPLINE
5
1E6
100
AcDbEntity
8
1
62
256
6
ByLayer
370
-1
48
1
60
0
100
AcDbSpline
70
4
71
3
72
9
73
5
40
0
40
0
40
0
40
0
40
0.624999999999555
40
1
40
1
40
1
40
1
41
1
10
128.796298066284
20
24.9726742281909
30
0
41
1
10
128.79573261724
20
24.9934948704204
30
0
41
1
10
128.794827898769
20
25.0268078979878
30
0
41
1
10
128.793923180298
20
25.0601209255551
30
0
41
1
10
128.793583910871
20
25.0726133108929
30
0
0
SPLINE
5
1E7
100
AcDbEntity
8
1
62
256
6
ByLayer
370
-1
48
1
60
0
100
AcDbSpline
70
4
71
3
72
16
73
12
40
0
40
0
40
0
40
0
40
0.0068174563922515
40
0.0525902990102862
40
0.144135984246355
40
0.235681669482425
40
0.418773039954563
40
0.601864410426702
40
0.784955780898841
40
0.968047151370979
40
1
40
1
40
1
40
1
41
1
10
130.354363127811
20
10.5709204605722
30
0
41
1
10
130.354332108605
20
10.5716548123579
30
0
41
1
10
130.354092593045
20
10.5773194303409
30
0
41
1
10
130.353432091072
20
10.5928407860833
30
0
41
1
10
130.35238635888
20
10.6174888271225
30
0
41
1
10
130.350714420439
20
10.6569267741846
30
0
41
1
10
130.348623196926
20
10.7062230280894
30
0
41
1
10
130.346115008789
20
10.7653799477495
30
0
41
1
10
130.343605526101
20
10.8245354301439
30
0
41
1
10
130.341783554054
20
10.8674103361402
30
0
41
1
10
130.340804984437
20
10.8905744157738
30
0
41
1
10
130.340658426713
20
10.8940150410173
30
0
0
SPLINE
5
1E8
100
AcDbEntity
8
1
62
256
6
ByLayer
370
-1
48
1
60
0
100
AcDbSpline
70
4
71
3
72
15
73
11
40
0
40
0
40
0
40
0
40
0.250139710793248
40
0.500351579587008
40
0.750563448380767
40
0.875669382777647
40
0.938222349976087
40
0.969498833575307
40
0.985137075374916
40
1
40
1
40
1
40
1
41
1
10
143.378291421235
20
10.452858312135
30
0
41
1
10
143.38685184726
20
10.4449039591995
30
0
41
1
10
143.403975168258
20
10.4289929591794
30
0
41
1
10
143.429656351243
20
10.4051299887296
30
0
41
1
10
143.451083727643
20
10.3852196578802
30
0
41
1
10
143.466031036402
20
10.3713306097223
30
0
41
1
10
143.473580207365
20
10.3643159155899
30
0
41
1
10
143.477241517972
20
10.3609138236039
30
0
41
1
10
143.479506734172
20
10.3588089833683
30
0
41
1
10
143.480109550235
20
10.3582488463254
30
0
41
1
10
143.481043360785
20
10.3573811490089
30
0
0
SPLINE
5
1E9
100
AcDbEntity
8
1
62
256
6
ByLayer
370
-1
48
1
60
0
100
AcDbSpline
70
4
71
3
72
17
73
13
40
0
40
0
40
0
40
0
40
0.0144631560763725
40
0.0301057427840091
40
0.0613909161992824
40
0.123961263029829
40
0.249101956690922
40
0.499383344013109
40
0.749664731335295
40
0.999946118657482
40
0.999946118657482
40
1
40
1
40
1
40
1
41
1
10
142.184670835685
20
25.5420498397299
30
0
41
1
10
142.184708925312
20
25.5409549290836
30
0
41
1
10
142.184724081506
20
25.540519254583
30
0
41
1
10
142.184800067387
20
25.5383349918739
30
0
41
1
10
142.184924034793
20
25.5347714695542
30
0
41
1
10
142.185179399377
20
25.5274308513935
30
0
41
1
10
142.185685175363
20
25.5128919974197
30
0
41
1
10
142.186410141903
20
25.4920523708771
30
0
41
1
10
142.187279144137
20
25.4670723462799
30
0
41
1
10
142.18785858903
20
25.4504158324962
30
0
41
1
10
142.188148231183
20
25.4420898836824
30
0
41
1
10
142.188148578886
20
25.4420798887285
30
0
41
1
10
142.18814892659
20
25.4420698937746
30
0
0
SPLINE
5
1EA
100
AcDbEntity
8
1
62
256
6
ByLayer
370
-1
48
1
60
0
100
AcDbSpline
70
4
71
3
72
14
73
10
40
0
40
0
40
0
40
0
40
0.0318086637758829
40
0.315507725074449
40
0.599206786373014
40
0.88290584767158
40
0.953830612996221
40
0.989292995658542
40
1
40
1
40
1
40
1
41
1
10
141.637850381753
20
23.4717970380717
30
0
41
1
10
141.641700802385
20
23.4719242601888
30
0
41
1
10
141.679984344493
20
23.4731898491378
30
0
41
1
10
141.75613553142
20
23.4757320542207
30
0
41
1
10
141.870445291324
20
23.479606920909
30
0
41
1
10
141.958945178537
20
23.4826488686083
30
0
41
1
10
142.013338442013
20
23.4845339985787
30
0
41
1
10
142.029676994446
20
23.4851016444052
30
0
41
1
10
142.036119482589
20
23.4853256901384
30
0
41
1
10
142.037613552041
20
23.4853776561692
30
0
0
SPLINE
5
1EB
100
AcDbEntity
8
1
62
256
6
ByLayer
370
-1
48
1
60
0
100
AcDbSpline
70
4
71
3
72
8
73
4
40
0
40
0
40
0
40
0
40
1
40
1
40
1
40
1
41
1
10
128.034362210389
20
24.8166662662321
30
0
41
1
10
127.939257900369
20
24.7142770256707
30
0
41
1
10
127.872073053036
20
24.5874318388944
30
0
41
1
10
127.840688920218
20
24.4510284216906
30
0
0
SPLINE
5
1EC
100
AcDbEntity
8
1
62
256
6
ByLayer
370
-1
48
1
60
0
100
AcDbSpline
70
4
71
3
72
17
73
13
40
0
40
0
40
0
40
0
40
0.0524083454182896
40
0.147434401200635
40
0.337486512765325
40
0.717590735894705
40
0.907642847459395
40
0.955155875350567
40
0.978912389296153
40
0.990790646268947
40
0.996729774755343
40
1
40
1
40
1
40
1
41
1
10
129.472204888235
20
23.0453405403497
30
0
41
1
10
129.476396037047
20
23.0454969893864
30
0
41
1
10
129.48813565418
20
23.0459355301576
30
0
41
1
10
129.51508312342
20
23.0469416923168
30
0
41
1
10
129.568137001055
20
23.0489229858432
30
0
41
1
10
129.628794682294
20
23.0511880876116
30
0
41
1
10
129.678067933113
20
23.0530281377314
30
0
41
1
10
129.698920687579
20
23.0538068184725
30
0
41
1
10
129.705549478334
20
23.0540543888154
30
0
41
1
10
129.708873755149
20
23.0541784806888
30
0
41
1
10
129.71054566807
20
23.0542409812464
30
0
41
1
10
129.711281020062
20
23.0542684378689
30
0
41
1
10
129.711543580852
20
23.0542782323282
30
0
0
SPLINE
5
1ED
100
AcDbEntity
8
1
62
256
6
ByLayer
370
-1
48
1
60
0
100
AcDbSpline
70
4
71
3
72
25
73
21
40
0
40
0
40
0
40
0
40
0.125
40
0.1875
40
0.25
40
0.265625
40
0.2734375
40
0.28125
40
0.3125
40
0.375
40
0.5
40
0.625
40
0.65625
40
0.6875
40
0.75
40
0.765625
40
0.78125
40
0.8125
40
0.875
40
1
40
1
40
1
40
1
41
1
10
143.095354592786
20
10.2526968795168
30
0
41
1
10
143.083149334497
20
10.2480732050016
30
0
41
1
10
143.064366222331
20
10.2420621744294
30
0
41
1
10
143.038673612145
20
10.2359998434795
30
0
41
1
10
143.024163603339
20
10.2333510649461
30
0
41
1
10
143.014942985386
20
10.2320039382768
30
0
41
1
10
143.011957418622
20
10.2315732682358
30
0
41
1
10
143.005410187797
20
10.230804942896
30
0
41
1
10
142.991909111368
20
10.2291889826988
30
0
41
1
10
142.962236983338
20
10.2257337041277
30
0
41
1
10
142.920139481481
20
10.2209792112926
30
0
41
1
10
142.88201481717
20
10.2168834115497
30
0
41
1
10
142.856814664444
20
10.2142547543734
30
0
41
1
10
142.840043692937
20
10.2125331161387
30
0
41
1
10
142.825372446319
20
10.211072036096
30
0
41
1
10
142.812746619821
20
10.2098590353926
30
0
41
1
10
142.804317511009
20
10.2090600977572
30
0
41
1
10
142.789540970593
20
10.2076855361831
30
0
41
1
10
142.759916596686
20
10.205014540175
30
0
41
1
10
142.734524665414
20
10.2028043097418
30
0
41
1
10
142.717577874643
20
10.2013774635629
30
0
0
SPLINE
5
1EE
100
AcDbEntity
8
1
62
256
6
ByLayer
370
-1
48
1
60
0
100
AcDbSpline
70
4
71
3
72
15
73
11
40
0
40
0
40
0
40
0
40
0.424997863749037
40
0.849995727498074
40
0.956245193435334
40
0.982807559919648
40
0.996088743161806
40
0.997748891067075
40
0.999409038972345
40
1
40
1
40
1
40
1
41
1
10
143.150994288775
20
23.5246774515669
30
0
41
1
10
143.145821698659
20
23.6733668603434
30
0
41
1
10
143.13547935487
20
23.9707426639244
30
0
41
1
10
143.123831097973
20
24.305304428253
30
0
41
1
10
143.117053597819
20
24.500446994861
30
0
41
1
10
143.11526776313
20
24.5515672474858
30
0
41
1
10
143.114769691742
20
24.5660801644669
30
0
41
1
10
143.114562027491
20
24.5718943269982
30
0
41
1
10
143.114522112217
20
24.57326162267
30
0
41
1
10
143.114483751213
20
24.5740473432675
30
0
41
1
10
143.114471642791
20
24.5742536716685
30
0
0
SPLINE
5
1EF
100
AcDbEntity
8
1
62
256
6
ByLayer
370
-1
48
1
60
0
100
AcDbSpline
70
4
71
3
72
17
73
13
40
0
40
0
40
0
40
0
40
0.0032703186403153
40
0.00920944663339
40
0.0210877026195396
40
0.0448442145918386
40
0.0923572385364368
40
0.282409334314829
40
0.662513525871614
40
0.852565621650007
40
0.947591669539203
40
1
40
1
40
1
40
1
41
1
10
129.883225179711
20
23.2390865901244
30
0
41
1
10
129.883232303099
20
23.2393668881806
30
0
41
1
10
129.883252917492
20
23.2401528270429
30
0
41
1
10
129.883301338427
20
23.2419448216178
30
0
41
1
10
129.88339371483
20
23.2454967723131
30
0
41
1
10
129.883580634504
20
23.2525872581601
30
0
41
1
10
129.88416596817
20
23.2748848254792
30
0
41
1
10
129.885551137045
20
23.3275779246647
30
0
41
1
10
129.887254259195
20
23.3924414570049
30
0
41
1
10
129.888747537694
20
23.4491783463865
30
0
41
1
10
129.889500808589
20
23.4779910678042
30
0
41
1
10
129.889834696404
20
23.4905492307192
30
0
41
1
10
129.889950759908
20
23.4950293435573
30
0
0
SPLINE
5
1F0
100
AcDbEntity
8
1
62
256
6
ByLayer
370
-1
48
1
60
0
100
AcDbSpline
70
4
71
3
72
16
73
12
40
0
40
0
40
0
40
0
40
0.0068174563922631
40
0.0525902990102966
40
0.144135984246364
40
0.235681669482431
40
0.418773039954565
40
0.601864410426699
40
0.784955780898833
40
0.968047151370968
40
1
40
1
40
1
40
1
41
1
10
141.179914012127
20
24.6031312311816
30
0
41
1
10
141.179934086013
20
24.6023968793959
30
0
41
1
10
141.180088690616
20
24.596732261413
30
0
41
1
10
141.180508098933
20
24.5812109056705
30
0
41
1
10
141.181177273196
20
24.5565628646313
30
0
41
1
10
141.182249260322
20
24.5171249175692
30
0
41
1
10
141.183587861675
20
24.4678286636644
30
0
41
1
10
141.185195561824
20
24.4086717440043
30
0
41
1
10
141.186801867423
20
24.3495162616099
30
0
41
1
10
141.18796295001
20
24.3066413556136
30
0
41
1
10
141.188596039089
20
24.28347727598
30
0
41
1
10
141.188688865519
20
24.2800366507365
30
0
0
SPLINE
5
1F1
100
AcDbEntity
8
1
62
256
6
ByLayer
370
-1
48
1
60
0
100
AcDbSpline
70
4
71
3
72
8
73
4
40
0
40
0
40
0
40
0
40
1
40
1
40
1
40
1
41
1
10
129.739311376021
20
23.0552792209184
30
0
41
1
10
129.729175209271
20
23.0549239060956
30
0
41
1
10
129.719341290827
20
23.0545694013344
30
0
41
1
10
129.711547186557
20
23.0542783444709
30
0
0
SPLINE
5
1F2
100
AcDbEntity
8
1
62
256
6
ByLayer
370
-1
48
1
60
0
100
AcDbSpline
70
4
71
3
72
12
73
8
40
0
40
0
40
0
40
0
40
0.448044053330179
40
0.448044053330179
40
0.724021472165492
40
0.724021472165492
40
1
40
1
40
1
40
1
41
1
10
141.139088786643
20
25.5053746283862
30
0
41
1
10
141.295244962546
20
25.5108485521421
30
0
41
1
10
141.451459095872
20
25.5162012465862
30
0
41
1
10
141.703842901147
20
25.524959347594
30
0
41
1
10
141.800019752046
20
25.528350408242
30
0
41
1
10
141.992341507795
20
25.5351963445168
30
0
41
1
10
142.088485256655
20
25.5386550424031
30
0
41
1
10
142.184671642118
20
25.5420266583073
30
0
0
SPLINE
5
1F3
100
AcDbEntity
8
1
62
256
6
ByLayer
370
-1
48
1
60
0
100
AcDbSpline
70
4
71
3
72
14
73
10
40
0
40
0
40
0
40
0
40
0.031808663775911
40
0.315507725074472
40
0.599206786373032
40
0.882905847671593
40
0.953830612996233
40
0.989292995658553
40
1
40
1
40
1
40
1
41
1
10
141.614706482204
20
11.6790223481964
30
0
41
1
10
141.61505433941
20
11.6753791834304
30
0
41
1
10
141.618494839531
20
11.6391374577346
30
0
41
1
10
141.624656352076
20
11.5663382290842
30
0
41
1
10
141.632286812338
20
11.4553765651601
30
0
41
1
10
141.637038566721
20
11.3682665803682
30
0
41
1
10
141.639532149213
20
11.3142835210635
30
0
41
1
10
141.64024279388
20
11.2980282714017
30
0
41
1
10
141.640517059004
20
11.2916124410405
30
0
41
1
10
141.640580447035
20
11.2901243286186
30
0
0
SPLINE
5
1F4
100
AcDbEntity
8
1
62
256
6
ByLayer
370
-1
48
1
60
0
100
AcDbSpline
70
4
71
3
72
12
73
8
40
0
40
0
40
0
40
0
40
0.518100853439291
40
0.777151280158937
40
0.90667649351876
40
0.971439100198672
40
1
40
1
40
1
40
1
41
1
10
130.372072998871
20
9.76861614606963
30
0
41
1
10
130.370814427761
20
9.84606158457814
30
0
41
1
10
130.368926706624
20
9.96222948222049
30
0
41
1
10
130.366723868949
20
10.0977596139605
30
0
41
1
10
130.365623126535
20
10.1655234537752
30
0
41
1
10
130.365080996619
20
10.1988361867386
30
0
41
1
10
130.364854973346
20
10.2127850063736
30
0
41
1
10
130.364784793208
20
10.2170560954892
30
0
0
SPLINE
5
1F5
100
AcDbEntity
8
1
62
256
6
ByLayer
370
-1
48
1
60
0
100
AcDbSpline
70
4
71
3
72
15
73
11
40
0
40
0
40
0
40
0
40
0.250139710793382
40
0.500351579587105
40
0.750563448380828
40
0.87566938277769
40
0.938222349976121
40
0.969498833575336
40
0.985137075374944
40
1
40
1
40
1
40
1
41
1
10
128.135599955839
20
24.7211933796188
30
0
41
1
10
128.127165301915
20
24.7291477325543
30
0
41
1
10
128.110293561392
20
24.7450587325744
30
0
41
1
10
128.084989693313
20
24.7689217030242
30
0
41
1
10
128.063877133738
20
24.7888320338736
30
0
41
1
10
128.049149434893
20
24.8027210820315
30
0
41
1
10
128.041711178397
20
24.8097357761639
30
0
41
1
10
128.038103660759
20
24.8131378681498
30
0
41
1
10
128.035871725729
20
24.8152427083855
30
0
41
1
10
128.035277766403
20
24.8158028454284
30
0
41
1
10
128.034357675651
20
24.8166705427449
30
0
0
SPLINE
5
1F6
100
AcDbEntity
8
1
62
256
6
ByLayer
370
-1
48
1
60
0
100
AcDbSpline
70
4
71
3
72
14
73
10
40
0
40
0
40
0
40
0
40
0.0318086637759054
40
0.315507725074467
40
0.599206786373029
40
0.882905847671591
40
0.953830612996231
40
0.989292995658551
40
1
40
1
40
1
40
1
41
1
10
129.889950759908
20
23.4950293435574
30
0
41
1
10
129.890045141118
20
23.4986725083233
30
0
41
1
10
129.890964095237
20
23.5349142340192
30
0
41
1
10
129.892060545332
20
23.6077134626697
30
0
41
1
10
129.891970762293
20
23.7186751265936
30
0
41
1
10
129.890661772336
20
23.8057851113857
30
0
41
1
10
129.889399441864
20
23.8597681706903
30
0
41
1
10
129.888979115005
20
23.8760234203522
30
0
41
1
10
129.888806993787
20
23.8824392507133
30
0
41
1
10
129.888766845249
20
23.8839273631352
30
0
0
SPLINE
5
1F7
100
AcDbEntity
8
1
62
256
6
ByLayer
370
-1
48
1
60
0
100
AcDbSpline
70
4
71
3
72
8
73
4
40
0
40
0
40
0
40
0
40
1
40
1
40
1
40
1
41
1
10
129.330729326699
20
9.63202503344738
30
0
41
1
10
129.300527859453
20
9.63096638200372
30
0
41
1
10
129.270320122127
20
9.63004292572947
30
0
41
1
10
129.240111047819
20
9.62926196325057
30
0
0
SPLINE
5
1F8
100
AcDbEntity
8
1
62
256
6
ByLayer
370
-1
48
1
60
0
100
AcDbSpline
70
4
71
3
72
17
73
13
40
0
40
0
40
0
40
0
40
0.0524083454183462
40
0.147434401200683
40
0.337486512765357
40
0.717590735894704
40
0.907642847459378
40
0.955155875350546
40
0.97891238929613
40
0.990790646268923
40
0.996729774755319
40
1
40
1
40
1
40
1
41
1
10
130.314784461908
20
11.2829130606416
30
0
41
1
10
130.314356690966
20
11.2873931748823
30
0
41
1
10
130.313149059119
20
11.2999513394797
30
0
41
1
10
130.310391121592
20
11.3287640539144
30
0
41
1
10
130.304950322612
20
11.385500877166
30
0
41
1
10
130.298734320736
20
11.4503649051176
30
0
41
1
10
130.293682891604
20
11.5030570464004
30
0
41
1
10
130.291546282035
20
11.5253555453302
30
0
41
1
10
130.290865935121
20
11.5324450323749
30
0
41
1
10
130.290526588195
20
11.5359985586908
30
0
41
1
10
130.290353267254
20
11.5377883404883
30
0
41
1
10
130.290278004244
20
11.538574595286
30
0
41
1
10
130.290251398527
20
11.5388550719017
30
0
0
SPLINE
5
1F9
100
AcDbEntity
8
1
62
256
6
ByLayer
370
-1
48
1
60
0
100
AcDbSpline
70
4
71
3
72
15
73
11
40
0
40
0
40
0
40
0
40
0.250244249035921
40
0.500488498071841
40
0.750732747107762
40
0.875854871625722
40
0.938415933884703
40
0.969696465014193
40
0.985336730578938
40
1
40
1
40
1
40
1
41
1
10
143.063236276462
20
24.9535958153116
30
0
41
1
10
143.07283658693
20
24.9565195323588
30
0
41
1
10
143.092037207865
20
24.9623669664532
30
0
41
1
10
143.120832567138
20
24.9711364206359
30
0
41
1
10
143.144855631831
20
24.9784525010902
30
0
41
1
10
143.161614384168
20
24.9835562787299
30
0
41
1
10
143.170077342299
20
24.9861336219357
30
0
41
1
10
143.174183448421
20
24.9873841119596
30
0
41
1
10
143.176712655088
20
24.9881543667001
30
0
41
1
10
143.177315107789
20
24.9883378400615
30
0
41
1
10
143.178451847911
20
24.9886840274567
30
0
0
SPLINE
5
1FA
100
AcDbEntity
8
1
62
256
6
ByLayer
370
-1
48
1
60
0
100
AcDbSpline
70
4
71
3
72
9
73
5
40
0
40
0
40
0
40
0
40
0.375000000003608
40
1
40
1
40
1
40
1
41
1
10
127.869483409631
20
22.9889701771836
30
0
41
1
10
127.881832943428
20
22.9894064208924
30
0
41
1
10
127.914765033553
20
22.9905697374492
30
0
41
1
10
127.947697123678
20
22.9917330540059
30
0
41
1
10
127.968279680006
20
22.9924601268539
30
0
0
SPLINE
5
1FB
100
AcDbEntity
8
1
62
256
6
ByLayer
370
-1
48
1
60
0
100
AcDbSpline
70
4
71
3
72
9
73
5
40
0
40
0
40
0
40
0
40
0.5
40
1
40
1
40
1
40
1
41
1
10
143.378284012936
20
10.4528651959304
30
0
41
1
10
143.34198967121
20
10.4089395436154
30
0
41
1
10
143.255931953643
20
10.3285624507349
30
0
41
1
10
143.150273964523
20
10.2730188025504
30
0
41
1
10
143.095354592786
20
10.2526968795168
30
0
0
SPLINE
5
1FC
100
AcDbEntity
8
1
62
256
6
ByLayer
370
-1
48
1
60
0
100
AcDbSpline
70
4
71
3
72
12
73
8
40
0
40
0
40
0
40
0
40
0.0285608994398875
40
0.093323506143895
40
0.22284871955191
40
0.48189914636794
40
1
40
1
40
1
40
1
41
1
10
128.817927214518
20
11.6650341077243
30
0
41
1
10
128.813593949438
20
11.6648849564761
30
0
41
1
10
128.799438901784
20
11.6643978483394
30
0
41
1
10
128.765636374865
20
11.6632345530198
30
0
41
1
10
128.696873656249
20
11.660868180544
30
0
41
1
10
128.55934736991
20
11.6561353687432
30
0
41
1
10
128.441467979317
20
11.6520786944932
30
0
41
1
10
128.362881652152
20
11.6493742401869
30
0
0
SPLINE
5
1FD
100
AcDbEntity
8
1
62
256
6
ByLayer
370
-1
48
1
60
0
100
AcDbSpline
70
4
71
3
72
8
73
4
40
0
40
0
40
0
40
0
40
1
40
1
40
1
40
1
41
1
10
142.812406129578
20
10.1050281743478
30
0
41
1
10
142.828661541176
20
10.1057468745252
30
0
41
1
10
142.844913635341
20
10.1065455328797
30
0
41
1
10
142.861161138694
20
10.1074238251634
30
0
0
SPLINE
5
1FE
100
AcDbEntity
8
1
62
256
6
ByLayer
370
-1
48
1
60
0
100
AcDbSpline
70
4
71
3
72
12
73
8
40
0
40
0
40
0
40
0
40
0.448044053330177
40
0.448044053330177
40
0.724021472165486
40
0.724021472165486
40
1
40
1
40
1
40
1
41
1
10
127.869483409632
20
22.9889701771836
30
0
41
1
10
127.864030315808
20
23.1457228443103
30
0
41
1
10
127.858752369557
20
23.3024791029512
30
0
41
1
10
127.850066860981
20
23.555787558161
30
0
41
1
10
127.846680030053
20
23.6523404964302
30
0
41
1
10
127.839814148476
20
23.8454430618958
30
0
41
1
10
127.836329585953
20
23.9419932393575
30
0
41
1
10
127.83297085175
20
24.0385469893046
30
0
0
SPLINE
5
1FF
100
AcDbEntity
8
1
62
256
6
ByLayer
370
-1
48
1
60
0
100
AcDbSpline
70
4
71
3
72
10
73
6
40
0
40
0
40
0
40
0
40
0.5
40
0.5
40
1
40
1
40
1
40
1
41
1
10
132.454760041598
20
14.3541020942002
30
0
41
1
10
132.445730688858
20
14.4058211549491
30
0
41
1
10
132.433182037045
20
14.4601672111433
30
0
41
1
10
132.401164103858
20
14.5739341338629
30
0
41
1
10
132.381462751573
20
14.6335224594267
30
0
41
1
10
132.36007741566
20
14.6912913428278
30
0
0
SPLINE
5
200
100
AcDbEntity
8
1
62
256
6
ByLayer
370
-1
48
1
60
0
100
AcDbSpline
70
4
71
3
72
8
73
4
40
0
40
0
40
0
40
0
40
1
40
1
40
1
40
1
41
1
10
127.829200743835
20
24.1785001202203
30
0
41
1
10
127.828349432104
20
24.2318459139593
30
0
41
1
10
127.82793834977
20
24.2852002856129
30
0
41
1
10
127.827923814344
20
24.3385528944855
30
0
0
SPLINE
5
201
100
AcDbEntity
8
1
62
256
6
ByLayer
370
-1
48
1
60
0
100
AcDbSpline
70
4
71
3
72
14
73
10
40
0
40
0
40
0
40
0
40
0.0107070020616656
40
0.0461693850894148
40
0.117094151144913
40
0.400793215366907
40
0.684492279588901
40
0.968191343810895
40
1
40
1
40
1
40
1
41
1
10
130.340658426713
20
10.8940150410173
30
0
41
1
10
130.340595038723
20
10.8955031531019
30
0
41
1
10
130.340320773613
20
10.9019189831189
30
0
41
1
10
130.339610128867
20
10.9181742346085
30
0
41
1
10
130.337116546437
20
10.9721572925287
30
0
41
1
10
130.332364791956
20
11.059267279193
30
0
41
1
10
130.32473433227
20
11.1702289345683
30
0
41
1
10
130.318572819614
20
11.2430281662005
30
0
41
1
10
130.315132319067
20
11.2792698963787
30
0
41
1
10
130.314784461908
20
11.2829130606416
30
0
0
SPLINE
5
202
100
AcDbEntity
8
1
62
256
6
ByLayer
370
-1
48
1
60
0
100
AcDbSpline
70
4
71
3
72
9
73
5
40
0
40
0
40
0
40
0
40
0.375000000002253
40
1
40
1
40
1
40
1
41
1
10
143.645917559186
20
12.1850815145702
30
0
41
1
10
143.633377396903
20
12.1846452708614
30
0
41
1
10
143.599936964147
20
12.1834819543047
30
0
41
1
10
143.566496531392
20
12.1823186377479
30
0
41
1
10
143.54559626092
20
12.1815915648999
30
0
0
SPLINE
5
203
100
AcDbEntity
8
1
62
256
6
ByLayer
370
-1
48
1
60
0
100
AcDbSpline
70
4
71
3
72
8
73
4
40
0
40
0
40
0
40
0
40
1
40
1
40
1
40
1
41
1
10
143.685182272648
20
11.0445406782829
30
0
41
1
10
143.685601591722
20
11.0282128363709
30
0
41
1
10
143.685940952778
20
11.0118827333401
30
0
41
1
10
143.686201450314
20
10.9955515715339
30
0
0
SPLINE
5
204
100
AcDbEntity
8
1
62
256
6
ByLayer
370
-1
48
1
60
0
100
AcDbSpline
70
4
71
3
72
17
73
13
40
0
40
0
40
0
40
0
40
0.0524083454183439
40
0.147434401200681
40
0.337486512765354
40
0.717590735894701
40
0.907642847459375
40
0.955155875350543
40
0.978912389296128
40
0.99079064626892
40
0.996729774755316
40
1
40
1
40
1
40
1
41
1
10
142.032452353882
20
12.1287111514041
30
0
41
1
10
142.027717370587
20
12.1285547023674
30
0
41
1
10
142.014436233741
20
12.1281161615963
30
0
41
1
10
141.983977556266
20
12.1271099994371
30
0
41
1
10
141.923989588882
20
12.1251287059106
30
0
41
1
10
141.855412868636
20
12.1228636041422
30
0
41
1
10
141.799702855901
20
12.1210235540224
30
0
41
1
10
141.776128317548
20
12.1202448732813
30
0
41
1
10
141.768632089491
20
12.1199973029384
30
0
41
1
10
141.764876358156
20
12.119873211065
30
0
41
1
10
141.762982328802
20
12.1198107105074
30
0
41
1
10
141.762151155072
20
12.1197832538849
30
0
41
1
10
141.761854897227
20
12.1197734594256
30
0
0
SPLINE
5
205
100
AcDbEntity
8
1
62
256
6
ByLayer
370
-1
48
1
60
0
100
AcDbSpline
70
4
71
3
72
15
73
11
40
0
40
0
40
0
40
0
40
0.42499786374904
40
0.849995727498081
40
0.956245193435341
40
0.982807559919656
40
0.996088743161813
40
0.997748891067083
40
0.999409038972352
40
1
40
1
40
1
40
1
41
1
10
129.841880921759
20
25.0093262581109
30
0
41
1
10
129.693757321074
20
25.0041339095411
30
0
41
1
10
129.397513142936
20
24.9937520388689
30
0
41
1
10
129.064224414571
20
24.9820593603563
30
0
41
1
10
128.869824508561
20
24.9752558867141
30
0
41
1
10
128.818898727247
20
24.9734632873279
30
0
41
1
10
128.80444108792
20
24.9729632615676
30
0
41
1
10
128.798649009037
20
24.972754845225
30
0
41
1
10
128.797286974406
20
24.9727147191908
30
0
41
1
10
128.796504160004
20
24.9726762956835
30
0
41
1
10
128.796298579338
20
24.9726641785579
30
0
0
SPLINE
5
206
100
AcDbEntity
8
1
62
256
6
ByLayer
370
-1
48
1
60
0
100
AcDbSpline
70
4
71
3
72
17
73
13
40
0
40
0
40
0
40
0
40
0.0032703186403299
40
0.0092094466334049
40
0.021087702619555
40
0.0448442145918551
40
0.0923572385364553
40
0.282409334314856
40
0.662513525871657
40
0.852565621650058
40
0.947591669539259
40
1
40
1
40
1
40
1
41
1
10
141.36725228039
20
23.462859320176
30
0
41
1
10
141.367548386192
20
23.4628691083998
30
0
41
1
10
141.368379289863
20
23.4628965539897
30
0
41
1
10
141.370275225995
20
23.4629591318192
30
0
41
1
10
141.374029601702
20
23.4630831686706
30
0
41
1
10
141.381526688793
20
23.4633307738925
30
0
41
1
10
141.405100426021
20
23.4641094221011
30
0
41
1
10
141.460811262426
20
23.4659495056715
30
0
41
1
10
141.529387556724
20
23.4682145901328
30
0
41
1
10
141.589375580018
20
23.4701958859686
30
0
41
1
10
141.619834264879
20
23.4712020483716
30
0
41
1
10
141.63311539994
20
23.471640589084
30
0
41
1
10
141.637850381753
20
23.4717970380717
30
0
0
SPLINE
5
207
100
AcDbEntity
8
1
62
256
6
ByLayer
370
-1
48
1
60
0
100
AcDbSpline
70
4
71
3
72
8
73
4
40
0
40
0
40
0
40
0
40
1
40
1
40
1
40
1
41
1
10
143.211226856212
20
24.6686793603876
30
0
41
1
10
143.210510958697
20
24.6849967969669
30
0
41
1
10
143.209715403965
20
24.7013109067584
30
0
41
1
10
143.208840395199
20
24.7176205318086
30
0
0
SPLINE
5
208
100
AcDbEntity
8
1
62
256
6
ByLayer
370
-1
48
1
60
0
100
AcDbSpline
70
4
71
3
72
17
73
13
40
0
40
0
40
0
40
0
40
0.003270318640325
40
0.0092094466333999
40
0.0210877026195499
40
0.0448442145918497
40
0.0923572385364494
40
0.282409334314848
40
0.662513525871646
40
0.852565621650045
40
0.947591669539244
40
1
40
1
40
1
40
1
41
1
10
130.106146386966
20
11.7111923715778
30
0
41
1
10
130.105884029893
20
11.7111825833539
30
0
41
1
10
130.105149037309
20
11.7111551377641
30
0
41
1
10
130.103474622452
20
11.7110925599346
30
0
41
1
10
130.100152129259
20
11.7109685230831
30
0
41
1
10
130.093522207534
20
11.7107209178613
30
0
41
1
10
130.072670508074
20
11.7099422696527
30
0
41
1
10
130.02339617241
20
11.7081021860823
30
0
41
1
10
129.962739052675
20
11.705837101621
30
0
41
1
10
129.909685099192
20
11.7038558057852
30
0
41
1
10
129.882737623425
20
11.7028496433822
30
0
41
1
10
129.870998007859
20
11.7024111026698
30
0
41
1
10
129.866806860359
20
11.7022546536821
30
0
0
SPLINE
5
209
100
AcDbEntity
8
1
62
256
6
ByLayer
370
-1
48
1
60
0
100
AcDbSpline
70
4
71
3
72
91
73
87
40
0
40
0
40
0
40
0
40
0.0276322771565253
40
0.0681475989416701
40
0.0782764293879563
40
0.0833408446110994
40
0.0839738965139923
40
0.0846069484168852
40
0.0849234743683316
40
0.085240000319778
40
0.0858730522226709
40
0.0884052598342425
40
0.0985340902805287
40
0.108662920726815
40
0.118791751173101
40
0.128920581619387
40
0.14917824251196
40
0.169435903404532
40
0.179564733850818
40
0.184629149073961
40
0.189693564297104
40
0.190326616199997
40
0.19095966810289
40
0.192225771908676
40
0.192858823811569
40
0.193491875714462
40
0.194757979520248
40
0.197290187131819
40
0.199822394743391
40
0.204886809966534
40
0.209951225189677
40
0.220080055635963
40
0.222612263247535
40
0.22387836705332
40
0.225144470859106
40
0.230208886082249
40
0.270724207867394
40
0.290981868759967
40
0.311239529652539
40
0.331497190545111
40
0.341626020991397
40
0.34669043621454
40
0.349222643826112
40
0.350488747631898
40
0.351121799534791
40
0.351754851437684
40
0.352387903340577
40
0.353020955243469
40
0.354287059049255
40
0.356819266660827
40
0.36188368188397
40
0.372012512330256
40
0.392270173222828
40
0.412527834115401
40
0.432785495007973
40
0.473300816793118
40
0.475833024404689
40
0.478365232016261
40
0.479631335822047
40
0.480897439627832
40
0.483429647239404
40
0.49355847768569
40
0.503687308131976
40
0.50875172335512
40
0.511283930966691
40
0.512550034772477
40
0.513816138578263
40
0.514449190481156
40
0.523944969024549
40
0.534073799470835
40
0.554331460363407
40
0.564460290809694
40
0.57458912125598
40
0.594846782148552
40
0.615104443041125
40
0.617636650652696
40
0.618269702555589
40
0.618586228507035
40
0.618902754458482
40
0.619535806361375
40
0.620168858264268
40
0.625233273487411
40
0.635362103933697
40
0.675877425718842
40
0.837938712859421
40
1
40
1
40
1
40
1
41
1
10
130.235634663167
20
11.5752480101253
30
0
41
1
10
130.234054009545
20
11.5757813255364
30
0
41
1
10
130.230177706725
20
11.5771621369283
30
0
41
1
10
130.225793781795
20
11.5789321331773
30
0
41
1
10
130.222714575921
20
11.5802868725822
30
0
41
1
10
130.221843374996
20
11.5806797948526
30
0
41
1
10
130.221495437922
20
11.5808381681465
30
0
41
1
10
130.221408483888
20
11.5808778283554
30
0
41
1
10
130.221338938831
20
11.5809095966388
30
0
41
1
10
130.221269405897
20
11.5809413916615
30
0
41
1
10
130.221078240382
20
11.5810289382528
30
0
41
1
10
130.220348973778
20
11.5813646100827
30
0
41
1
10
130.219103207032
20
11.5819496539304
30
0
41
1
10
130.217451829465
20
11.5827500838164
30
0
41
1
10
130.215810344996
20
11.583570762841
30
0
41
1
10
130.213635220952
20
11.5846918373464
30
0
41
1
10
130.210942290329
20
11.5861431919041
30
0
41
1
10
130.208285647861
20
11.5876604131362
30
0
41
1
10
130.206445918595
20
11.5887566200085
30
0
41
1
10
130.205400460457
20
11.5893927205106
30
0
41
1
10
130.204847142547
20
11.5897340722788
30
0
41
1
10
130.204522357505
20
11.5899359965889
30
0
41
1
10
130.204392505434
20
11.5900168666272
30
0
41
1
10
130.204262746388
20
11.5900978870545
30
0
41
1
10
130.204133080583
20
11.5901790577063
30
0
41
1
10
130.204003477009
20
11.5902603284529
30
0
41
1
10
130.203776834301
20
11.5904028148642
30
0
41
1
10
130.203453527352
20
11.590607116357
30
0
41
1
10
130.202937239956
20
11.5909355941178
30
0
41
1
10
130.202293771277
20
11.5913491760586
30
0
41
1
10
130.201268291235
20
11.5920172465202
30
0
41
1
10
130.200376385957
20
11.592610091713
30
0
41
1
10
130.19967919522
20
11.5930812741187
30
0
41
1
10
130.199426064885
20
11.5932531982735
30
0
41
1
10
130.199046763811
20
11.5935116689453
30
0
41
1
10
130.196713834533
20
11.5951145713857
30
0
41
1
10
130.193497323746
20
11.5974579582497
30
0
41
1
10
130.189647648539
20
11.6004855076168
30
0
41
1
10
130.186816704401
20
11.6028265118505
30
0
41
1
10
130.184505976691
20
11.6048348436763
30
0
41
1
10
130.182914642701
20
11.6062702709506
30
0
41
1
10
130.182125615732
20
11.6069953096043
30
0
41
1
10
130.181732774276
20
11.6073596509688
30
0
41
1
10
130.181536773058
20
11.6075422760084
30
0
41
1
10
130.181424892437
20
11.6076467628257
30
0
41
1
10
130.181341042061
20
11.6077251927233
30
0
41
1
10
130.181257251831
20
11.6078036873646
30
0
41
1
10
130.181145611776
20
11.6079084331434
30
0
41
1
10
130.180950452499
20
11.6080919645027
30
0
41
1
10
130.180560978468
20
11.6084599307829
30
0
41
1
10
130.179785418504
20
11.6091994661946
30
0
41
1
10
130.178247930939
20
11.6106928572597
30
0
41
1
10
130.176090926785
20
11.6128666671101
30
0
41
1
10
130.173567034968
20
11.615538202414
30
0
41
1
10
130.170289813468
20
11.6191819781494
30
0
41
1
10
130.167834856384
20
11.6221218490551
30
0
41
1
10
130.166123358008
20
11.6242834166163
30
0
41
1
10
130.165886568469
20
11.6245843646347
30
0
41
1
10
130.165697689408
20
11.6248255596026
30
0
41
1
10
130.165509179202
20
11.6250670450632
30
0
41
1
10
130.164992299629
20
11.6257323261241
30
0
41
1
10
130.164154828082
20
11.6268274673188
30
0
41
1
10
130.163239267846
20
11.6280556718175
30
0
41
1
10
130.162606311608
20
11.6289212988015
30
0
41
1
10
130.162291827469
20
11.6293555718568
30
0
41
1
10
130.162112693383
20
11.6296041432786
30
0
41
1
10
130.162000972851
20
11.6297596731573
30
0
41
1
10
130.161599423069
20
11.6303200462031
30
0
41
1
10
130.160891667043
20
11.6313206734124
30
0
41
1
10
130.159521745141
20
11.6333071878377
30
0
41
1
10
130.158167277984
20
11.6353507544296
30
0
41
1
10
130.156850565742
20
11.6374188806198
30
0
41
1
10
130.155559208572
20
11.6395030596778
30
0
41
1
10
130.153992899979
20
11.6421377822569
30
0
41
1
10
130.152716597385
20
11.6444093675328
30
0
41
1
10
130.152039231345
20
11.6456547765349
30
0
41
1
10
130.15193889531
20
11.6458400978812
30
0
41
1
10
130.151902448061
20
11.6459075084849
30
0
41
1
10
130.151866026539
20
11.6459749330942
30
0
41
1
10
130.151820547885
20
11.6460592400982
30
0
41
1
10
130.151638890707
20
11.6463966078776
30
0
41
1
10
130.151187645217
20
11.6472415974682
30
0
41
1
10
130.149626553979
20
11.6502305341235
30
0
41
1
10
130.14401581763
20
11.6618241134416
30
0
41
1
10
130.136862644377
20
11.6828265832074
30
0
41
1
10
130.134254669378
20
11.7023818378593
30
0
41
1
10
130.133913348166
20
11.7121933342514
30
0
0
SPLINE
5
20A
100
AcDbEntity
8
1
62
256
6
ByLayer
370
-1
48
1
60
0
100
AcDbSpline
70
4
71
3
72
15
73
11
40
0
40
0
40
0
40
0
40
0.250244249035893
40
0.500488498071785
40
0.750732747107678
40
0.875854871625624
40
0.938415933884597
40
0.969696465014084
40
0.985336730578827
40
1
40
1
40
1
40
1
41
1
10
143.095354592786
20
10.2526968795168
30
0
41
1
10
143.098340837399
20
10.2431338319572
30
0
41
1
10
143.104313326623
20
10.2240077368379
30
0
41
1
10
143.11327032721
20
10.195324144662
30
0
41
1
10
143.120742871744
20
10.171394323751
30
0
41
1
10
143.125955800435
20
10.1547006192941
30
0
41
1
10
143.128588263542
20
10.1462705095207
30
0
41
1
10
143.129865496953
20
10.1421803409514
30
0
41
1
10
143.130652224612
20
10.1396609512166
30
0
41
1
10
143.130839621795
20
10.1390608368922
30
0
41
1
10
143.131193212866
20
10.1379285089441
30
0
0
SPLINE
5
20B
100
AcDbEntity
8
1
62
256
6
ByLayer
370
-1
48
1
60
0
100
AcDbSpline
70
4
71
3
72
15
73
11
40
0
40
0
40
0
40
0
40
0.0355064919379708
40
0.11894747022982
40
0.285829426813518
40
0.619593339980915
40
0.786475296564613
40
0.869916274856462
40
0.953357253148311
40
1
40
1
40
1
40
1
41
1
10
129.879991686171
20
24.2070222329326
30
0
41
1
10
129.879877038676
20
24.2112183084017
30
0
41
1
10
129.879489865801
20
24.2252780259839
30
0
41
1
10
129.878501845693
20
24.2591140935045
30
0
41
1
10
129.876257223906
20
24.3283876936282
30
0
41
1
10
129.873176564835
20
24.4075717038558
30
0
41
1
10
129.870052212211
20
24.476362665085
30
0
41
1
10
129.86814832017
20
24.5154601145108
30
0
41
1
10
129.86687946868
20
24.540364142922
30
0
41
1
10
129.866080966338
20
24.5554725492229
30
0
41
1
10
129.865793277295
20
24.5608863249327
30
0
0
SPLINE
5
20C
100
AcDbEntity
8
1
62
256
6
ByLayer
370
-1
48
1
60
0
100
AcDbSpline
70
4
71
3
72
12
73
8
40
0
40
0
40
0
40
0
40
0.518100853439319
40
0.777151280158979
40
0.906676493518809
40
0.971439100198724
40
1
40
1
40
1
40
1
41
1
10
127.968279680006
20
22.9924601268539
30
0
41
1
10
128.046866007172
20
22.9951645811602
30
0
41
1
10
128.164745365266
20
22.9992212535361
30
0
41
1
10
128.302271732957
20
23.0039540700258
30
0
41
1
10
128.371034329183
20
23.0063204354559
30
0
41
1
10
128.404837046762
20
23.0074837417248
30
0
41
1
10
128.418992013594
20
23.0079708452399
30
0
41
1
10
128.423325251947
20
23.0081199949584
30
0
0
SPLINE
5
20D
100
AcDbEntity
8
1
62
256
6
ByLayer
370
-1
48
1
60
0
100
AcDbSpline
70
4
71
3
72
8
73
4
40
0
40
0
40
0
40
0
40
1
40
1
40
1
40
1
41
1
10
127.827923814918
20
24.3385528944828
30
0
41
1
10
127.82791346781
20
24.3765321876952
30
0
41
1
10
127.832179569894
20
24.4140231586427
30
0
41
1
10
127.840688920332
20
24.4510284216639
30
0
0
SPLINE
5
20E
100
AcDbEntity
8
1
62
256
6
ByLayer
370
-1
48
1
60
0
100
AcDbSpline
70
4
71
3
72
8
73
4
40
0
40
0
40
0
40
0
40
1
40
1
40
1
40
1
41
1
10
128.336960966742
20
10.1853712718755
30
0
41
1
10
128.377732476507
20
10.0514930291903
30
0
41
1
10
128.453567591562
20
9.92965704355436
30
0
41
1
10
128.555571028079
20
9.8341856738524
30
0
0
SPLINE
5
20F
100
AcDbEntity
8
1
62
256
6
ByLayer
370
-1
48
1
60
0
100
AcDbSpline
70
4
71
3
72
15
73
11
40
0
40
0
40
0
40
0
40
0.250227978748069
40
0.500467923372551
40
0.750707867997034
40
0.875827840309276
40
0.938387826465396
40
0.969667819543457
40
0.985307816082487
40
1
40
1
40
1
40
1
41
1
10
128.946471774051
20
9.75669559383826
30
0
41
1
10
128.944250665101
20
9.74695235911091
30
0
41
1
10
128.939808341008
20
9.72746542382583
30
0
41
1
10
128.933146090928
20
9.69824044306876
30
0
41
1
10
128.927587896144
20
9.67385857002461
30
0
41
1
10
128.923710438749
20
9.65684950906183
30
0
41
1
10
128.921752371769
20
9.64826014823851
30
0
41
1
10
128.920802345703
20
9.64409271333975
30
0
41
1
10
128.92021688829
20
9.64152451469221
30
0
41
1
10
128.920077508317
20
9.64091310308439
30
0
41
1
10
128.919813198178
20
9.63975366616523
30
0
0
SPLINE
5
210
100
AcDbEntity
8
1
62
256
6
ByLayer
370
-1
48
1
60
0
100
AcDbSpline
70
4
71
3
72
16
73
12
40
0
40
0
40
0
40
0
40
0.006817456392183
40
0.0525902990102202
40
0.144135984246295
40
0.235681669482369
40
0.418773039954518
40
0.601864410426667
40
0.784955780898816
40
0.968047151370965
40
1
40
1
40
1
40
1
41
1
10
142.756545556062
20
12.153574480871
30
0
41
1
10
142.755808526047
20
12.1535488367415
30
0
41
1
10
142.750123008167
20
12.1533510239227
30
0
41
1
10
142.734540169041
20
12.1528090062366
30
0
41
1
10
142.709797642276
20
12.151948277677
30
0
41
1
10
142.670209792851
20
12.1505710742184
30
0
41
1
10
142.620724814995
20
12.1488496110991
30
0
41
1
10
142.561342761281
20
12.1467838059438
30
0
41
1
10
142.501960794811
20
12.1447180509789
30
0
41
1
10
142.458918596047
20
12.1432208262696
30
0
41
1
10
142.435669922461
20
12.1424119187842
30
0
41
1
10
142.432215524188
20
12.1422917695032
30
0
0
SPLINE
5
211
100
AcDbEntity
8
1
62
256
6
ByLayer
370
-1
48
1
60
0
100
AcDbSpline
70
4
71
3
72
16
73
12
40
0
40
0
40
0
40
0
40
0.0319528420423095
40
0.215044192449676
40
0.398135542857042
40
0.581226893264408
40
0.764318243671774
40
0.855863918875457
40
0.94740959407914
40
0.993182431680982
40
1
40
1
40
1
40
1
41
1
10
129.491733740243
20
11.6886740355846
30
0
41
1
10
129.488333073642
20
11.6885538863147
30
0
41
1
10
129.46542988212
20
11.6877449788354
30
0
41
1
10
129.423048658574
20
11.6862477556904
30
0
41
1
10
129.364569485743
20
11.6841819938061
30
0
41
1
10
129.306088289554
20
11.6821161953174
30
0
41
1
10
129.257355860806
20
11.6803947308949
30
0
41
1
10
129.2183679612
20
11.6790175273834
30
0
41
1
10
129.194002469858
20
11.6781568065213
30
0
41
1
10
129.178659585726
20
11.6776147702689
30
0
41
1
10
129.173059051429
20
11.6774169583849
30
0
41
1
10
129.172332972203
20
11.6773913141124
30
0
0
SPLINE
5
212
100
AcDbEntity
8
1
62
256
6
ByLayer
370
-1
48
1
60
0
100
AcDbSpline
70
4
71
3
72
8
73
4
40
0
40
0
40
0
40
0
40
1
40
1
40
1
40
1
41
1
10
141.732511721422
20
12.1187724708354
30
0
41
1
10
141.742647888172
20
12.1191277856582
30
0
41
1
10
141.753040085518
20
12.1194822904195
30
0
41
1
10
141.761852104677
20
12.1197733472829
30
0
0
SPLINE
5
213
100
AcDbEntity
8
1
62
256
6
ByLayer
370
-1
48
1
60
0
100
AcDbSpline
70
4
71
3
72
8
73
4
40
0
40
0
40
0
40
0
40
1
40
1
40
1
40
1
41
1
10
127.832970851751
20
24.0385469893046
30
0
41
1
10
127.831916245028
20
24.0688638375435
30
0
41
1
10
127.830995086673
20
24.099185742763
30
0
41
1
10
127.830217895581
20
24.1295110134707
30
0
0
SPLINE
5
214
100
AcDbEntity
8
1
62
256
6
ByLayer
370
-1
48
1
60
0
100
AcDbSpline
70
4
71
3
72
8
73
4
40
0
40
0
40
0
40
0
40
1
40
1
40
1
40
1
41
1
10
128.304174033188
20
10.5053723313662
30
0
41
1
10
128.304890066285
20
10.489054894787
30
0
41
1
10
128.30568574999
20
10.4727407849954
30
0
41
1
10
128.306560641457
20
10.4564311599452
30
0
0
SPLINE
5
215
100
AcDbEntity
8
1
62
256
6
ByLayer
370
-1
48
1
60
0
100
AcDbSpline
70
4
71
3
72
14
73
10
40
0
40
0
40
0
40
0
40
0.136649739226137
40
0.273299478452274
40
0.546598956904548
40
0.614923826517617
40
0.683248696130685
40
0.819898435356822
40
1
40
1
40
1
40
1
41
1
10
141.732511721423
20
12.1187724708354
30
0
41
1
10
141.732597051726
20
12.1163195967374
30
0
41
1
10
141.732647377972
20
12.111409645771
30
0
41
1
10
141.732268187955
20
12.1015965611325
30
0
41
1
10
141.731308565491
20
12.093050072016
30
0
41
1
10
141.730040384088
20
12.0857973559368
30
0
41
1
10
141.729076847561
20
12.0809845003579
30
0
41
1
10
141.727471269668
20
12.0742563929848
30
0
41
1
10
141.725839445565
20
12.0688050194771
30
0
41
1
10
141.724812754803
20
12.0657387961758
30
0
0
SPLINE
5
216
100
AcDbEntity
8
1
62
256
6
ByLayer
370
-1
48
1
60
0
100
AcDbSpline
70
4
71
3
72
8
73
4
40
0
40
0
40
0
40
0
40
1
40
1
40
1
40
1
41
1
10
142.959829940276
20
25.3398660173955
30
0
41
1
10
142.857833262103
20
25.4353365620772
30
0
41
1
10
142.731471707966
20
25.5027789966424
30
0
41
1
10
142.595583458124
20
25.5342791080729
30
0
0
SPLINE
5
217
100
AcDbEntity
8
1
62
256
6
ByLayer
370
-1
48
1
60
0
100
AcDbSpline
70
4
71
3
72
25
73
21
40
0
40
0
40
0
40
0
40
0.125
40
0.1875
40
0.25
40
0.265625
40
0.2734375
40
0.28125
40
0.3125
40
0.375
40
0.5
40
0.625
40
0.65625
40
0.6875
40
0.75
40
0.765625
40
0.78125
40
0.8125
40
0.875
40
1
40
1
40
1
40
1
41
1
10
128.450397015765
20
10.2204558764423
30
0
41
1
10
128.445788980125
20
10.2327057937626
30
0
41
1
10
128.439800471325
20
10.2515603010073
30
0
41
1
10
128.433765723033
20
10.2773555836911
30
0
41
1
10
128.431131365523
20
10.2919253765778
30
0
41
1
10
128.429792782245
20
10.3011846460148
30
0
41
1
10
128.429364972433
20
10.3041828432238
30
0
41
1
10
128.428601996053
20
10.3107575179207
30
0
41
1
10
128.426997235834
20
10.3243152363225
30
0
41
1
10
128.42356616498
20
10.3541118086453
30
0
41
1
10
128.418845490362
20
10.3963859021275
30
0
41
1
10
128.414779492592
20
10.4346704669848
30
0
41
1
10
128.412170294386
20
10.4599763724571
30
0
41
1
10
128.410461510042
20
10.4768177329634
30
0
41
1
10
128.409011507578
20
10.4915505601645
30
0
41
1
10
128.407807861944
20
10.504229372607
30
0
41
1
10
128.407015126298
20
10.5126938531131
30
0
41
1
10
128.405651333639
20
10.5275323969621
30
0
41
1
10
128.403001592653
20
10.5572810646063
30
0
41
1
10
128.400809282049
20
10.5827795344898
30
0
41
1
10
128.399394210032
20
10.5997974280659
30
0
0
SPLINE
5
218
100
AcDbEntity
8
1
62
256
6
ByLayer
370
-1
48
1
60
0
100
AcDbSpline
70
4
71
3
72
15
73
11
40
0
40
0
40
0
40
0
40
0.0355064919379895
40
0.118947470229839
40
0.285829426813539
40
0.619593339980939
40
0.786475296564639
40
0.869916274856489
40
0.953357253148339
40
1
40
1
40
1
40
1
41
1
10
142.361943576545
20
23.4966603776414
30
0
41
1
10
142.366155009779
20
23.4968069078256
30
0
41
1
10
142.38026316086
20
23.4972978839824
30
0
41
1
10
142.41415953706
20
23.4984794654968
30
0
41
1
10
142.483334790499
20
23.5008985529186
30
0
41
1
10
142.561891466864
20
23.5036637194872
30
0
41
1
10
142.62968939717
20
23.5060659527874
30
0
41
1
10
142.668094294548
20
23.5074312658065
30
0
41
1
10
142.692501062609
20
23.5083009336421
30
0
41
1
10
142.707279064027
20
23.5088285308159
30
0
41
1
10
142.712572883452
20
23.5090175840295
30
0
0
SPLINE
5
219
100
AcDbEntity
8
1
62
256
6
ByLayer
370
-1
48
1
60
0
100
AcDbSpline
70
4
71
3
72
8
73
4
40
0
40
0
40
0
40
0
40
1
40
1
40
1
40
1
41
1
10
143.131189528135
20
10.1379403088012
30
0
41
1
10
143.264557293691
20
10.1788685930422
30
0
41
1
10
143.385927747111
20
10.2549953027171
30
0
41
1
10
143.48103875894
20
10.3573854250499
30
0
0
SPLINE
5
21A
100
AcDbEntity
8
1
62
256
6
ByLayer
370
-1
48
1
60
0
100
AcDbSpline
70
4
71
3
72
14
73
10
40
0
40
0
40
0
40
0
40
0.0107070020616563
40
0.0461693850894059
40
0.117094151144905
40
0.400793215366901
40
0.684492279588897
40
0.968191343810894
40
1
40
1
40
1
40
1
41
1
10
142.432215524188
20
12.1422917695032
30
0
41
1
10
142.430721455102
20
12.1422398034841
30
0
41
1
10
142.424278967304
20
12.142015757763
30
0
41
1
10
142.407940413035
20
12.1414481118727
30
0
41
1
10
142.353547150951
20
12.1395629819506
30
0
41
1
10
142.26504726184
20
12.1365210341859
30
0
41
1
10
142.150737510731
20
12.1326461677961
30
0
41
1
10
142.074586320826
20
12.1301039626091
30
0
41
1
10
142.036302773983
20
12.1288383735036
30
0
41
1
10
142.032452353882
20
12.1287111514041
30
0
0
SPLINE
5
21B
100
AcDbEntity
8
1
62
256
6
ByLayer
370
-1
48
1
60
0
100
AcDbSpline
70
4
71
3
72
12
73
8
40
0
40
0
40
0
40
0
40
0.448044053330183
40
0.448044053330183
40
0.724021472165477
40
0.724021472165477
40
1
40
1
40
1
40
1
41
1
10
130.376312182174
20
9.66867706336762
30
0
41
1
10
130.220156006271
20
9.66320313961168
30
0
41
1
10
130.064050632095
20
9.65785044516761
30
0
41
1
10
129.811745357246
20
9.64909234415981
30
0
41
1
10
129.715551157767
20
9.64570128351184
30
0
41
1
10
129.523137409706
20
9.63885534723698
30
0
41
1
10
129.426915608792
20
9.63539664935075
30
0
41
1
10
129.330729326699
20
9.63202503344655
30
0
0
SPLINE
5
21C
100
AcDbEntity
8
1
62
256
6
ByLayer
370
-1
48
1
60
0
100
AcDbSpline
70
4
71
3
72
15
73
11
40
0
40
0
40
0
40
0
40
0.250244249035877
40
0.500488498071754
40
0.750732747107631
40
0.875854871625569
40
0.938415933884538
40
0.969696465014023
40
0.985336730578765
40
1
40
1
40
1
40
1
41
1
10
128.450397015765
20
10.2204558764423
30
0
41
1
10
128.44094401168
20
10.217532159395
30
0
41
1
10
128.422038003509
20
10.2116847253006
30
0
41
1
10
128.393684477886
20
10.2029152711179
30
0
41
1
10
128.370030021143
20
10.1955991906636
30
0
41
1
10
128.353528413737
20
10.1904954130239
30
0
41
1
10
128.345195310547
20
10.1879180698181
30
0
41
1
10
128.341152208183
20
10.1866675797942
30
0
41
1
10
128.338661809458
20
10.1858973250537
30
0
41
1
10
128.338068600742
20
10.1857138516924
30
0
41
1
10
128.336949302668
20
10.1853676642971
30
0
0
SPLINE
5
21D
100
AcDbEntity
8
1
62
256
6
ByLayer
370
-1
48
1
60
0
100
AcDbSpline
70
4
71
3
72
25
73
21
40
0
40
0
40
0
40
0
40
0.125
40
0.1875
40
0.21875
40
0.234375
40
0.25
40
0.3125
40
0.34375
40
0.375
40
0.5
40
0.625
40
0.6875
40
0.71875
40
0.7265625
40
0.734375
40
0.75
40
0.8125
40
0.875
40
1
40
1
40
1
40
1
41
1
10
127.932529636071
20
24.0420369389749
30
0
41
1
10
127.932766228131
20
24.0591129987071
30
0
41
1
10
127.933192403013
20
24.0847035826528
30
0
41
1
10
127.933781430926
20
24.1145660812695
30
0
41
1
10
127.934116966672
20
24.1294644491258
30
0
41
1
10
127.934322993434
20
24.1379641346395
30
0
41
1
10
127.934647636743
20
24.1506968687262
30
0
41
1
10
127.935075643443
20
24.1654961284958
30
0
41
1
10
127.935616156132
20
24.1824162922047
30
0
41
1
10
127.936470166519
20
24.2078433216244
30
0
41
1
10
127.937882881594
20
24.2463207838988
30
0
41
1
10
127.939671264597
20
24.2888234365657
30
0
41
1
10
127.941036970723
20
24.3187879047556
30
0
41
1
10
127.941699684792
20
24.3324249840514
30
0
41
1
10
127.942008407335
20
24.3390377240122
30
0
41
1
10
127.942218164845
20
24.3420580352362
30
0
41
1
10
127.942894113968
20
24.3513883195376
30
0
41
1
10
127.944475405122
20
24.3661053510657
30
0
41
1
10
127.948633272261
20
24.3922593658459
30
0
41
1
10
127.953233197887
20
24.4114886266659
30
0
41
1
10
127.956931571705
20
24.424034295136
30
0
0
SPLINE
5
21E
100
AcDbEntity
8
1
62
256
6
ByLayer
370
-1
48
1
60
0
100
AcDbSpline
70
4
71
3
72
11
73
7
40
0
40
0
40
0
40
0
40
0.486341095999814
40
0.729511643999721
40
0.972682191999628
40
1
40
1
40
1
40
1
41
1
10
129.883434548463
20
23.2104227694766
30
0
41
1
10
129.883262401692
20
23.2153712384365
30
0
41
1
10
129.883101068528
20
23.2227934601486
30
0
41
1
10
129.883093809061
20
23.2320394896454
30
0
41
1
10
129.883163105321
20
23.2365849789249
30
0
41
1
10
129.883219366527
20
23.2388578472537
30
0
41
1
10
129.883225179711
20
23.2390865901244
30
0
0
SPLINE
5
21F
100
AcDbEntity
8
1
62
256
6
ByLayer
370
-1
48
1
60
0
100
AcDbSpline
70
4
71
3
72
15
73
11
40
0
40
0
40
0
40
0
40
0.0466427416046267
40
0.130083711367181
40
0.213524681129735
40
0.380406620654844
40
0.714170499705062
40
0.88105243923017
40
0.964493408992725
40
1
40
1
40
1
40
1
41
1
10
128.423325251947
20
23.0081199949584
30
0
41
1
10
128.428817747834
20
23.0083090462288
30
0
41
1
10
128.444141471082
20
23.0088366374638
30
0
41
1
10
128.469353351588
20
23.009706312551
30
0
41
1
10
128.508845801417
20
23.0110716256928
30
0
41
1
10
128.578106250557
20
23.0134738589148
30
0
41
1
10
128.65731470338
20
23.0162390214318
30
0
41
1
10
128.726160069838
20
23.0186581190079
30
0
41
1
10
128.75967735058
20
23.0198396852732
30
0
41
1
10
128.773582689021
20
23.0203306786707
30
0
41
1
10
128.777731583875
20
23.0204772108829
30
0
0
SPLINE
5
220
100
AcDbEntity
8
1
62
256
6
ByLayer
370
-1
48
1
60
0
100
AcDbSpline
70
4
71
3
72
8
73
4
40
0
40
0
40
0
40
0
40
1
40
1
40
1
40
1
41
1
10
142.184671642118
20
25.5420266583064
30
0
41
1
10
142.214873141829
20
25.5430853097501
30
0
41
1
10
142.245078446934
20
25.5440087660244
30
0
41
1
10
142.275289120421
20
25.5447897285033
30
0
0
SPLINE
5
221
100
AcDbEntity
8
1
62
256
6
ByLayer
370
-1
48
1
60
0
100
AcDbSpline
70
4
71
3
72
9
73
5
40
0
40
0
40
0
40
0
40
0.5
40
1
40
1
40
1
40
1
41
1
10
128.135607255293
20
24.7211864958234
30
0
41
1
10
128.171807436665
20
24.7651121481384
30
0
41
1
10
128.257725568336
20
24.8454892410189
30
0
41
1
10
128.363351364851
20
24.9010328892034
30
0
41
1
10
128.418278699441
20
24.921354812237
30
0
0
SPLINE
5
222
100
AcDbEntity
8
1
62
256
6
ByLayer
370
-1
48
1
60
0
100
AcDbSpline
70
4
71
3
72
15
73
11
40
0
40
0
40
0
40
0
40
0.250139710793552
40
0.500351579587252
40
0.750563448380952
40
0.875669382777803
40
0.938222349976228
40
0.96949883357544
40
0.985137075375046
40
1
40
1
40
1
40
1
41
1
10
128.649925816125
20
9.93656781061821
30
0
41
1
10
128.642064617954
20
9.92803781142166
30
0
41
1
10
128.626339954331
20
9.91097535285499
30
0
41
1
10
128.602756447141
20
9.88538545001634
30
0
41
1
10
128.583079289524
20
9.8640342342072
30
0
41
1
10
128.569352898345
20
9.84914005355068
30
0
41
1
10
128.562420354475
20
9.84161771505268
30
0
41
1
10
128.55905810496
20
9.83796941805829
30
0
41
1
10
128.556977914862
20
9.83571225324997
30
0
41
1
10
128.556424337678
20
9.83511157981181
30
0
41
1
10
128.555566802111
20
9.83418108835988
30
0
0
SPLINE
5
223
100
AcDbEntity
8
1
62
256
6
ByLayer
370
-1
48
1
60
0
100
AcDbSpline
70
4
71
3
72
8
73
4
40
0
40
0
40
0
40
0
40
1
40
1
40
1
40
1
41
1
10
129.191309372353
20
9.62823990933774
30
0
41
1
10
129.138166377628
20
9.62738554432698
30
0
41
1
10
129.085019472874
20
9.62696843736737
30
0
41
1
10
129.031865375169
20
9.62695837526974
30
0
0
SPLINE
5
224
100
AcDbEntity
8
1
62
256
6
ByLayer
370
-1
48
1
60
0
100
AcDbSpline
70
4
71
3
72
91
73
87
40
0
40
0
40
0
40
0
40
0.0276322771566405
40
0.0681475989417805
40
0.0782764293880655
40
0.083340844611208
40
0.0839738965141008
40
0.0846069484169936
40
0.08492347436844
40
0.0852400003198864
40
0.0858730522227792
40
0.0884052598343505
40
0.0985340902806355
40
0.108662920726921
40
0.118791751173206
40
0.12892058161949
40
0.14917824251206
40
0.16943590340463
40
0.179564733850916
40
0.184629149074058
40
0.1896935642972
40
0.190326616200093
40
0.190959668102986
40
0.192225771908772
40
0.192858823811664
40
0.193491875714557
40
0.194757979520343
40
0.197290187131914
40
0.199822394743486
40
0.204886809966628
40
0.20995122518977
40
0.220080055636056
40
0.222612263247627
40
0.223878367053412
40
0.225144470859198
40
0.23020888608234
40
0.27072420786748
40
0.29098186876005
40
0.31123952965262
40
0.33149719054519
40
0.341626020991475
40
0.346690436214618
40
0.349222643826189
40
0.350488747631975
40
0.351121799534868
40
0.35175485143776
40
0.352387903340653
40
0.353020955243546
40
0.354287059049332
40
0.356819266660903
40
0.361883681884045
40
0.37201251233033
40
0.3922701732229
40
0.41252783411547
40
0.43278549500804
40
0.47330081679318
40
0.475833024404752
40
0.478365232016323
40
0.479631335822108
40
0.480897439627894
40
0.483429647239465
40
0.49355847768575
40
0.503687308132035
40
0.508751723355178
40
0.511283930966749
40
0.512550034772535
40
0.51381613857832
40
0.514449190481213
40
0.523944969024605
40
0.53407379947089
40
0.55433146036346
40
0.564460290809745
40
0.57458912125603
40
0.5948467821486
40
0.61510444304117
40
0.617636650652742
40
0.618269702555634
40
0.618586228507081
40
0.618902754458527
40
0.61953580636142
40
0.620168858264313
40
0.625233273487455
40
0.63536210393374
40
0.67587742571888
40
0.83793871285944
40
1
40
1
40
1
40
1
41
1
10
141.724812754803
20
12.0657387961758
30
0
41
1
10
141.724281468818
20
12.0641521047135
30
0
41
1
10
141.72290591183
20
12.0602609950467
30
0
41
1
10
141.721142650951
20
12.0558603242358
30
0
41
1
10
141.719793066739
20
12.0527693562952
30
0
41
1
10
141.719401639656
20
12.0518948275247
30
0
41
1
10
141.719243869021
20
12.0515455613881
30
0
41
1
10
141.719204359731
20
12.0514582752031
30
0
41
1
10
141.719172712335
20
12.051388464495
30
0
41
1
10
141.719141038302
20
12.051318665957
30
0
41
1
10
141.719053824852
20
12.0511267702208
30
0
41
1
10
141.718719430355
20
12.0503947179373
30
0
41
1
10
141.718136612776
20
12.0491441925642
30
0
41
1
10
141.717339228767
20
12.047486507003
30
0
41
1
10
141.716521672674
20
12.0458387523304
30
0
41
1
10
141.715404864196
20
12.0436553196659
30
0
41
1
10
141.71395903248
20
12.0409521024849
30
0
41
1
10
141.712447584733
20
12.0382853120744
30
0
41
1
10
141.711355549259
20
12.0364385553413
30
0
41
1
10
141.710721869311
20
12.0353891037235
30
0
41
1
10
141.710381816489
20
12.0348336722289
30
0
41
1
10
141.710180660562
20
12.034507646561
30
0
41
1
10
141.710100098259
20
12.0343772984759
30
0
41
1
10
141.710019386139
20
12.0342470437718
30
0
41
1
10
141.709938524366
20
12.034116882664
30
0
41
1
10
141.709857562879
20
12.0339867840258
30
0
41
1
10
141.709715618671
20
12.0337592755795
30
0
41
1
10
141.709512094607
20
12.0334347336506
30
0
41
1
10
141.709184866804
20
12.0329164741204
30
0
41
1
10
141.708772858667
20
12.0322705474952
30
0
41
1
10
141.708107330415
20
12.0312411502862
30
0
41
1
10
141.707516741177
20
12.0303458380754
30
0
41
1
10
141.707047351763
20
12.0296459841823
30
0
41
1
10
141.706876081831
20
12.0293918869307
30
0
41
1
10
141.706618594719
20
12.0290111369884
30
0
41
1
10
141.705021791806
20
12.0266692962998
30
0
41
1
10
141.702687322236
20
12.0234404989642
30
0
41
1
10
141.699671293609
20
12.019576118623
30
0
41
1
10
141.697339197603
20
12.0167343607385
30
0
41
1
10
141.695338508086
20
12.0144148064235
30
0
41
1
10
141.693908543046
20
12.0128173937963
30
0
41
1
10
141.693186263383
20
12.0120253528729
30
0
41
1
10
141.692823308447
20
12.0116310108264
30
0
41
1
10
141.692641378351
20
12.0114342609154
30
0
41
1
10
141.692537289138
20
12.0113219529281
30
0
41
1
10
141.69245915769
20
12.0112377822582
30
0
41
1
10
141.692380961744
20
12.0111536719627
30
0
41
1
10
141.692276614555
20
12.0110416054609
30
0
41
1
10
141.692093781588
20
12.0108457007067
30
0
41
1
10
141.69172721553
20
12.0104547389489
30
0
41
1
10
141.690990494274
20
12.009676216471
30
0
41
1
10
141.689502786013
20
12.0081328559536
30
0
41
1
10
141.687337248165
20
12.0059676123941
30
0
41
1
10
141.68467587886
20
12.0034340797207
30
0
41
1
10
141.681045968791
20
12.0001443397672
30
0
41
1
10
141.678117284982
20
11.9976800051454
30
0
41
1
10
141.675963942838
20
11.9959619691242
30
0
41
1
10
141.675664140017
20
11.9957242750876
30
0
41
1
10
141.675423862869
20
11.9955346745386
30
0
41
1
10
141.675183296334
20
11.9953454442543
30
0
41
1
10
141.674520546868
20
11.9948265902857
30
0
41
1
10
141.673429573016
20
11.9939859197332
30
0
41
1
10
141.672206042207
20
11.993066862206
30
0
41
1
10
141.671343709195
20
11.9924314881781
30
0
41
1
10
141.670911088679
20
11.9921158027605
30
0
41
1
10
141.670663463147
20
11.9919359844115
30
0
41
1
10
141.670508525106
20
11.9918238371248
30
0
41
1
10
141.669950284449
20
11.9914207534885
30
0
41
1
10
141.668953464928
20
11.9907102939493
30
0
41
1
10
141.66697450979
20
11.9893351391687
30
0
41
1
10
141.664938719586
20
11.9879754981665
30
0
41
1
10
141.662878463241
20
11.9866537562981
30
0
41
1
10
141.660802215113
20
11.985357466353
30
0
41
1
10
141.658177518449
20
11.9837851747163
30
0
41
1
10
141.655914577241
20
11.9825039968533
30
0
41
1
10
141.654673907396
20
11.9818240433847
30
0
41
1
10
141.654489291253
20
11.9817233240825
30
0
41
1
10
141.654422137167
20
11.981686737611
30
0
41
1
10
141.654354969129
20
11.9816501769647
30
0
41
1
10
141.654270982939
20
11.9816045245896
30
0
41
1
10
141.653934898945
20
11.9814221735109
30
0
41
1
10
141.653093124795
20
11.9809692043359
30
0
41
1
10
141.650115561946
20
11.9794021499833
30
0
41
1
10
141.638566099698
20
11.9737699815326
30
0
41
1
10
141.61764355067
20
11.9665894843207
30
0
41
1
10
141.598162709666
20
11.9639715472811
30
0
41
1
10
141.58838854898
20
11.9636289222772
30
0
0
SPLINE
5
225
100
AcDbEntity
8
1
62
256
6
ByLayer
370
-1
48
1
60
0
100
AcDbSpline
70
4
71
3
72
15
73
11
40
0
40
0
40
0
40
0
40
0.250227978748098
40
0.500467923372561
40
0.750707867997022
40
0.875827840309254
40
0.938387826465369
40
0.969667819543427
40
0.985307816082456
40
1
40
1
40
1
40
1
41
1
10
127.956930182094
20
24.4240346178346
30
0
41
1
10
127.947243757686
20
24.4262840208118
30
0
41
1
10
127.927870445755
20
24.4307829343117
30
0
41
1
10
127.898815868414
20
24.4375300527547
30
0
41
1
10
127.874576159859
20
24.4431590516807
30
0
41
1
10
127.857666274397
20
24.4470859028179
30
0
41
1
10
127.849126995948
20
24.4490689130141
30
0
41
1
10
127.844983860301
20
24.4500310411708
30
0
41
1
10
127.842430636165
20
24.4506239565471
30
0
41
1
10
127.841822789542
20
24.450765112039
30
0
41
1
10
127.840670113004
20
24.4510327891432
30
0
0
SPLINE
5
226
100
AcDbEntity
8
1
62
256
6
ByLayer
370
-1
48
1
60
0
100
AcDbSpline
70
4
71
3
72
20
73
16
40
0
40
0
40
0
40
0
40
0.0006369940731737
40
0.0022970655115903
40
0.003957136950007
40
0.0172377084573402
40
0.0437988514720067
40
0.150043423530673
40
0.362532567648005
40
0.468777139706671
40
0.521899425736003
40
0.575021711765336
40
0.787510855882668
40
0.893755427941334
40
1
40
1
40
1
40
1
41
1
10
143.582860607189
20
11.1320146363826
30
0
41
1
10
143.58285822142
20
11.1322377520206
30
0
41
1
10
143.582841277958
20
11.1330430375157
30
0
41
1
10
143.582786255553
20
11.1344286997351
30
0
41
1
10
143.582588671006
20
11.1402305101514
30
0
41
1
10
143.582079163659
20
11.1547589733024
30
0
41
1
10
143.580306885389
20
11.2058622056512
30
0
41
1
10
143.576079503606
20
11.3266815212256
30
0
41
1
10
143.570828887079
20
11.4753636950327
30
0
41
1
10
143.566183629179
20
11.6054559345255
30
0
41
1
10
143.563513437352
20
11.679790555834
30
0
41
1
10
143.559513102727
20
11.7912954230369
30
0
41
1
10
143.554858843633
20
11.9213916050754
30
0
41
1
10
143.549561002911
20
12.0700770865907
30
0
41
1
10
143.546914089918
20
12.1444201032712
30
0
41
1
10
143.54559626092
20
12.1815915648999
30
0
0
SPLINE
5
227
100
AcDbEntity
8
1
62
256
6
ByLayer
370
-1
48
1
60
0
100
AcDbSpline
70
4
71
3
72
25
73
21
40
0
40
0
40
0
40
0
40
0.125
40
0.1875
40
0.21875
40
0.234375
40
0.25
40
0.3125
40
0.34375
40
0.375
40
0.5
40
0.625
40
0.6875
40
0.71875
40
0.7265625
40
0.734375
40
0.75
40
0.8125
40
0.875
40
1
40
1
40
1
40
1
41
1
10
142.188148311476
20
25.4420875756044
30
0
41
1
10
142.205158077863
20
25.4418487609997
30
0
41
1
10
142.23064911207
20
25.441418780069
30
0
41
1
10
142.260395473753
20
25.4408249915012
30
0
41
1
10
142.275235639822
20
25.4404866592997
30
0
41
1
10
142.283702012428
20
25.4402788728088
30
0
41
1
10
142.296384710298
20
25.4399513990439
30
0
41
1
10
142.311125373744
20
25.4395194680434
30
0
41
1
10
142.327978588166
20
25.4389743179376
30
0
41
1
10
142.353305366487
20
25.4381135384508
30
0
41
1
10
142.391633724045
20
25.4366927304159
30
0
41
1
10
142.43396973894
20
25.4348925950073
30
0
41
1
10
142.463818356705
20
25.4335198385518
30
0
41
1
10
142.477400619621
20
25.4328516586812
30
0
41
1
10
142.483989250977
20
25.432542815765
30
0
41
1
10
142.486988292724
20
25.4323224433912
30
0
41
1
10
142.496263878485
20
25.4316246449415
30
0
41
1
10
142.510889258993
20
25.4300015290702
30
0
41
1
10
142.536881090634
20
25.4257648809889
30
0
41
1
10
142.555989322552
20
25.421099345834
30
0
41
1
10
142.568455228611
20
25.4173547001541
30
0
0
SPLINE
5
228
100
AcDbEntity
8
1
62
256
6
ByLayer
370
-1
48
1
60
0
100
AcDbSpline
70
4
71
3
72
15
73
11
40
0
40
0
40
0
40
0
40
0.250227978748046
40
0.500467923372533
40
0.75070786799702
40
0.875827840309264
40
0.938387826465385
40
0.969667819543446
40
0.985307816082477
40
1
40
1
40
1
40
1
41
1
10
142.568455552913
20
25.4173560979155
30
0
41
1
10
142.570716130603
20
25.4270993326429
30
0
41
1
10
142.575237394061
20
25.446586267928
30
0
41
1
10
142.582018031222
20
25.4758112486851
30
0
41
1
10
142.587674994209
20
25.5001931217292
30
0
41
1
10
142.591621353381
20
25.517202182692
30
0
41
1
10
142.593614214888
20
25.5257915435153
30
0
41
1
10
142.594581122759
20
25.529958978414
30
0
41
1
10
142.595176983654
20
25.5325271770616
30
0
41
1
10
142.595318840386
20
25.5331385886694
30
0
41
1
10
142.595587847272
20
25.5342980255886
30
0
0
SPLINE
5
229
100
AcDbEntity
8
1
62
256
6
ByLayer
370
-1
48
1
60
0
100
AcDbSpline
70
4
71
3
72
15
73
11
40
0
40
0
40
0
40
0
40
0.424997863749038
40
0.849995727498075
40
0.956245193435335
40
0.982807559919649
40
0.996088743161807
40
0.997748891067077
40
0.999409038972346
40
1
40
1
40
1
40
1
41
1
10
128.362881652152
20
11.6493742401869
30
0
41
1
10
128.368054242268
20
11.5006848314105
30
0
41
1
10
128.378396627518
20
11.2033090278294
30
0
41
1
10
128.390044739302
20
10.8687472635008
30
0
41
1
10
128.39682240789
20
10.6736046968928
30
0
41
1
10
128.39860812921
20
10.622484444268
30
0
41
1
10
128.399106303845
20
10.6079715272869
30
0
41
1
10
128.399313886105
20
10.6021573647556
30
0
41
1
10
128.399353917516
20
10.6007900690839
30
0
41
1
10
128.399392111101
20
10.6000043484863
30
0
41
1
10
128.399404144711
20
10.5997980200853
30
0
0
SPLINE
5
22A
100
AcDbEntity
8
1
62
256
6
ByLayer
370
-1
48
1
60
0
100
AcDbSpline
70
4
71
3
72
15
73
11
40
0
40
0
40
0
40
0
40
0.0355064919379707
40
0.11894747022982
40
0.285829426813517
40
0.619593339980913
40
0.786475296564611
40
0.86991627485646
40
0.953357253148309
40
1
40
1
40
1
40
1
41
1
10
141.654284862578
20
10.9670294588213
30
0
41
1
10
141.654462160269
20
10.9628333833521
30
0
41
1
10
141.655053203082
20
10.9487736657699
30
0
41
1
10
141.656419353454
20
10.9149375982493
30
0
41
1
10
141.658994495795
20
10.8456639981256
30
0
41
1
10
141.661423125274
20
10.766479987898
30
0
41
1
10
141.663084956804
20
10.6976890266688
30
0
41
1
10
141.663901299945
20
10.658591577243
30
0
41
1
10
141.664365165428
20
10.6336875488318
30
0
41
1
10
141.664617842101
20
10.6185791425309
30
0
41
1
10
141.664706820676
20
10.6131653668211
30
0
0
SPLINE
5
22B
100
AcDbEntity
8
1
62
256
6
ByLayer
370
-1
48
1
60
0
100
AcDbSpline
70
4
71
3
72
8
73
4
40
0
40
0
40
0
40
0
40
1
40
1
40
1
40
1
41
1
10
143.687477835103
20
10.835498797271
30
0
41
1
10
143.687481758981
20
10.7975195040586
30
0
41
1
10
143.683222299911
20
10.7600285331111
30
0
41
1
10
143.674712048486
20
10.7230232700899
30
0
0
SPLINE
5
22C
100
AcDbEntity
8
1
62
256
6
ByLayer
370
-1
48
1
60
0
100
AcDbSpline
70
4
71
3
72
14
73
10
40
0
40
0
40
0
40
0
40
0.136649739226126
40
0.273299478452251
40
0.546598956904502
40
0.614923826517565
40
0.683248696130628
40
0.819898435356753
40
1
40
1
40
1
40
1
41
1
10
141.18335656876
20
23.6065320570499
30
0
41
1
10
141.185800108932
20
23.6066177133009
30
0
41
1
10
141.190691376052
20
23.6066682317853
30
0
41
1
10
141.200467118941
20
23.6062875933241
30
0
41
1
10
141.208981086086
20
23.6053243052586
30
0
41
1
10
141.216206203391
20
23.604051279608
30
0
41
1
10
141.221000744602
20
23.6030840625284
30
0
41
1
10
141.227703249495
20
23.6014723515885
30
0
41
1
10
141.233133878881
20
23.5998342941828
30
0
41
1
10
141.236188434276
20
23.5988036816286
30
0
0
SPLINE
5
22D
100
AcDbEntity
8
1
62
256
6
ByLayer
370
-1
48
1
60
0
100
AcDbSpline
70
4
71
3
72
11
73
7
40
0
40
0
40
0
40
0
40
0.48634109599982
40
0.729511643999729
40
0.972682191999639
40
1
40
1
40
1
40
1
41
1
10
141.58838854898
20
11.9636289222772
30
0
41
1
10
141.588560695751
20
11.9586804533173
30
0
41
1
10
141.588915769384
20
11.9512582316053
30
0
41
1
10
141.589551809546
20
11.9420122021083
30
0
41
1
10
141.589937361727
20
11.9374667128289
30
0
41
1
10
141.5901517595
20
11.9351938445001
30
0
41
1
10
141.590173487645
20
11.9349651016294
30
0
0
SPLINE
5
22E
100
AcDbEntity
8
1
62
256
6
ByLayer
370
-1
48
1
60
0
100
AcDbSpline
70
4
71
3
72
8
73
4
40
0
40
0
40
0
40
0
40
1
40
1
40
1
40
1
41
1
10
129.240111047819
20
9.62926196326057
30
0
41
1
10
129.223845768793
20
9.6288414746187
30
0
41
1
10
129.207578449724
20
9.62850146270412
30
0
41
1
10
129.191309372354
20
9.62823990931346
30
0
0
SPLINE
5
22F
100
AcDbEntity
8
1
62
256
6
ByLayer
370
-1
48
1
60
0
100
AcDbSpline
70
4
71
3
72
20
73
16
40
0
40
0
40
0
40
0
40
0.0006369940731812
40
0.0022970655115979
40
0.0039571369500145
40
0.0172377084573477
40
0.0437988514720139
40
0.150043423530679
40
0.362532567648009
40
0.468777139706675
40
0.521899425736007
40
0.57502171176534
40
0.78751085588267
40
0.893755427941335
40
1
40
1
40
1
40
1
41
1
10
129.327252541509
20
9.73197488279882
30
0
41
1
10
129.327474825216
20
9.73197729483744
30
0
41
1
10
129.328277107561
20
9.73199436445935
30
0
41
1
10
129.329657597322
20
9.73204969782796
30
0
41
1
10
129.335437720494
20
9.73224842900331
30
0
41
1
10
129.349911536032
20
9.73276052259726
30
0
41
1
10
129.400819358844
20
9.73453862075803
30
0
41
1
10
129.521151648195
20
9.73875477402555
30
0
41
1
10
129.669159553967
20
9.74391654517558
30
0
41
1
10
129.798598731012
20
9.74842092138607
30
0
41
1
10
129.872538571583
20
9.75098897035383
30
0
41
1
10
129.983469328457
20
9.75485421274777
30
0
41
1
10
130.112946499697
20
9.75940182131646
30
0
41
1
10
130.26099553513
20
9.76464897611046
30
0
41
1
10
130.335042517899
20
9.76729281341497
30
0
41
1
10
130.372072998871
20
9.76861614606963
30
0
0
SPLINE
5
230
100
AcDbEntity
8
1
62
256
6
ByLayer
370
-1
48
1
60
0
100
AcDbSpline
70
4
71
3
72
15
73
11
40
0
40
0
40
0
40
0
40
0.0355064919380284
40
0.118947470229871
40
0.285829426813556
40
0.619593339980927
40
0.786475296564612
40
0.869916274856454
40
0.953357253148297
40
1
40
1
40
1
40
1
41
1
10
129.172332972203
20
11.6773913141124
30
0
41
1
10
129.168184189166
20
11.6772447839282
30
0
41
1
10
129.154279908023
20
11.6767538077714
30
0
41
1
10
129.120761662087
20
11.675572226257
30
0
41
1
10
129.051916929203
20
11.6731531388352
30
0
41
1
10
128.972708223244
20
11.6703879722666
30
0
41
1
10
128.903447771844
20
11.6679857389664
30
0
41
1
10
128.863955325567
20
11.6666204259473
30
0
41
1
10
128.838743571499
20
11.6657507581118
30
0
41
1
10
128.823419744411
20
11.6652231609379
30
0
41
1
10
128.817927214518
20
11.6650341077243
30
0
0
SPLINE
5
231
100
AcDbEntity
8
1
62
256
6
ByLayer
370
-1
48
1
60
0
100
AcDbSpline
70
4
71
3
72
17
73
13
40
0
40
0
40
0
40
0
40
0.0524083454183484
40
0.147434401200685
40
0.337486512765359
40
0.717590735894707
40
0.907642847459381
40
0.955155875350549
40
0.978912389296133
40
0.990790646268926
40
0.996729774755322
40
1
40
1
40
1
40
1
41
1
10
141.189872780208
20
23.8911386311122
30
0
41
1
10
141.189756716668
20
23.8866585168715
30
0
41
1
10
141.189422828803
20
23.8741003522741
30
0
41
1
10
141.188669558093
20
23.8452876378394
30
0
41
1
10
141.187176267326
20
23.7885508145878
30
0
41
1
10
141.185473230194
20
23.7236867866362
30
0
41
1
10
141.184087897409
20
23.6709946453534
30
0
41
1
10
141.183502723092
20
23.6486961464236
30
0
41
1
10
141.183315632704
20
23.6416066593789
30
0
41
1
10
141.183223525111
20
23.638053133063
30
0
41
1
10
141.183174729618
20
23.6362633512655
30
0
41
1
10
141.183154170891
20
23.6354770964679
30
0
41
1
10
141.183147079552
20
23.6351966198521
30
0
0
SPLINE
5
232
100
AcDbEntity
8
1
62
256
6
ByLayer
370
-1
48
1
60
0
100
AcDbSpline
70
4
71
3
72
11
73
7
40
0
40
0
40
0
40
0
40
0.486341095999862
40
0.729511643999793
40
0.972682191999724
40
1
40
1
40
1
40
1
41
1
10
130.133913348166
20
11.7121933342514
30
0
41
1
10
130.128983709625
20
11.7120205299075
30
0
41
1
10
130.121686601942
20
11.711761340214
30
0
41
1
10
130.112790146726
20
11.7114384617492
30
0
41
1
10
130.108489378626
20
11.7112797297658
30
0
41
1
10
130.106360488737
20
11.7112003594548
30
0
41
1
10
130.106146386966
20
11.7111923715778
30
0
0
SPLINE
5
233
100
AcDbEntity
8
1
62
256
6
ByLayer
370
-1
48
1
60
0
100
AcDbSpline
70
4
71
3
72
8
73
4
40
0
40
0
40
0
40
0
40
1
40
1
40
1
40
1
41
1
10
128.300597939658
20
10.5963074783956
30
0
41
1
10
128.301652598613
20
10.5659906326783
30
0
41
1
10
128.302844163857
20
10.5356782746706
30
0
41
1
10
128.304174033188
20
10.5053723313662
30
0
0
SPLINE
5
234
100
AcDbEntity
8
1
62
256
6
ByLayer
370
-1
48
1
60
0
100
AcDbSpline
70
4
71
3
72
14
73
10
40
0
40
0
40
0
40
0
40
0.136649739226122
40
0.273299478452244
40
0.546598956904489
40
0.61492382651755
40
0.683248696130611
40
0.819898435356733
40
1
40
1
40
1
40
1
41
1
10
129.739311376021
20
23.0552792209184
30
0
41
1
10
129.739226045718
20
23.0577320950164
30
0
41
1
10
129.739175719471
20
23.0626420459828
30
0
41
1
10
129.739554909488
20
23.0724551306213
30
0
41
1
10
129.740514531952
20
23.0810016197378
30
0
41
1
10
129.741782713355
20
23.0882543358169
30
0
41
1
10
129.742746249882
20
23.0930671913959
30
0
41
1
10
129.744351827775
20
23.099795298769
30
0
41
1
10
129.745983651878
20
23.1052466722767
30
0
41
1
10
129.74701034264
20
23.108312895578
30
0
0
SPLINE
5
235
100
AcDbEntity
8
1
62
256
6
ByLayer
370
-1
48
1
60
0
100
AcDbSpline
70
4
71
3
72
8
73
4
40
0
40
0
40
0
40
0
40
1
40
1
40
1
40
1
41
1
10
143.214803029159
20
24.5777442133582
30
0
41
1
10
143.213748370204
20
24.6080610590755
30
0
41
1
10
143.212556473728
20
24.6383734170832
30
0
41
1
10
143.211226856212
20
24.6686793603876
30
0
0
SPLINE
5
236
100
AcDbEntity
8
1
62
256
6
ByLayer
370
-1
48
1
60
0
100
AcDbSpline
70
4
71
3
72
17
73
13
40
0
40
0
40
0
40
0
40
0.0144631560763465
40
0.0301057427839489
40
0.0613909161991536
40
0.123961263029563
40
0.249101956690382
40
0.49938334401202
40
0.749664731333658
40
0.999946118655295
40
0.999946118655295
40
1
40
1
40
1
40
1
41
1
10
127.83294775854
20
24.0385461797915
30
0
41
1
10
127.83403850272
20
24.0385844149138
30
0
41
1
10
127.834472519348
20
24.0385996290026
30
0
41
1
10
127.836648470278
20
24.0386759051372
30
0
41
1
10
127.840198432319
20
24.0388003460787
30
0
41
1
10
127.847511117212
20
24.0390566861134
30
0
41
1
10
127.861994646457
20
24.0395643940817
30
0
41
1
10
127.882754971929
20
24.0402921298765
30
0
41
1
10
127.907639939991
20
24.0411644515573
30
0
41
1
10
127.924233070711
20
24.0417461098357
30
0
41
1
10
127.932527317805
20
24.04203685771
30
0
41
1
10
127.932537312666
20
24.0420372080715
30
0
41
1
10
127.932547307527
20
24.0420375584329
30
0
0
SPLINE
5
237
100
AcDbEntity
8
1
62
256
6
ByLayer
370
-1
48
1
60
0
100
AcDbSpline
70
4
71
3
72
16
73
12
40
0
40
0
40
0
40
0
40
0.0319528420423062
40
0.215044192449664
40
0.398135542857022
40
0.58122689326438
40
0.764318243671738
40
0.855863918875417
40
0.947409594079096
40
0.993182431680936
40
1
40
1
40
1
40
1
41
1
10
142.037613552041
20
23.4853776561692
30
0
41
1
10
142.041067950052
20
23.485497805439
30
0
41
1
10
142.064316624819
20
23.4863067129184
30
0
41
1
10
142.107358820094
20
23.4878039360634
30
0
41
1
10
142.166740797899
20
23.4898696979477
30
0
41
1
10
142.226122840791
20
23.4919354964364
30
0
41
1
10
142.275607819943
20
23.4936569608589
30
0
41
1
10
142.315195670888
20
23.4950341643704
30
0
41
1
10
142.339938235975
20
23.4958948852325
30
0
41
1
10
142.355520995729
20
23.4964369214849
30
0
41
1
10
142.361206532897
20
23.4966347333689
30
0
41
1
10
142.361943576545
20
23.4966603776414
30
0
0
SPLINE
5
238
100
AcDbEntity
8
1
62
256
6
ByLayer
370
-1
48
1
60
0
100
AcDbSpline
70
4
71
3
72
16
73
12
40
0
40
0
40
0
40
0
40
0.0319528420423172
40
0.215044192449669
40
0.398135542857022
40
0.581226893264374
40
0.764318243671726
40
0.855863918875402
40
0.947409594079078
40
0.993182431680916
40
1
40
1
40
1
40
1
41
1
10
129.888766845249
20
23.8839273631352
30
0
41
1
10
129.888674018888
20
23.8873679880583
30
0
41
1
10
129.888040931168
20
23.9105320675185
30
0
41
1
10
129.886879891275
20
23.95340692872
30
0
41
1
10
129.885273392725
20
24.0125626092618
30
0
41
1
10
129.883665878575
20
24.0717193380155
30
0
41
1
10
129.882327240046
20
24.1210156292366
30
0
41
1
10
129.881255252879
20
24.1604535778133
30
0
41
1
10
129.880586344192
20
24.1851013984259
30
0
41
1
10
129.880166308362
20
24.2006232858371
30
0
41
1
10
129.880011750648
20
24.2062878770492
30
0
41
1
10
129.879991686171
20
24.2070222329326
30
0
0
SPLINE
5
239
100
AcDbEntity
8
1
62
256
6
ByLayer
370
-1
48
1
60
0
100
AcDbSpline
70
4
71
3
72
14
73
10
40
0
40
0
40
0
40
0
40
0.136649739226082
40
0.273299478452165
40
0.54659895690433
40
0.614923826517371
40
0.683248696130412
40
0.819898435356495
40
1
40
1
40
1
40
1
41
1
10
130.288466528683
20
11.5675196347039
30
0
41
1
10
130.286022988511
20
11.5674339784529
30
0
41
1
10
130.281131721391
20
11.5673834599685
30
0
41
1
10
130.271355978502
20
11.5677640984297
30
0
41
1
10
130.262842011357
20
11.5687273864952
30
0
41
1
10
130.255616894052
20
11.5700004121458
30
0
41
1
10
130.250822352842
20
11.5709676292254
30
0
41
1
10
130.244119847948
20
11.5725793401654
30
0
41
1
10
130.238689218563
20
11.574217397571
30
0
41
1
10
130.235634663167
20
11.5752480101253
30
0
0
SPLINE
5
23A
100
AcDbEntity
8
1
62
256
6
ByLayer
370
-1
48
1
60
0
100
AcDbSpline
70
4
71
3
72
9
73
5
40
0
40
0
40
0
40
0
40
0.5
40
1
40
1
40
1
40
1
41
1
10
128.946472092691
20
9.75669699159974
30
0
41
1
10
128.890195891167
20
9.77316012506287
30
0
41
1
10
128.780800556489
20
9.82119445645907
30
0
41
1
10
128.689244755603
20
9.89531374117635
30
0
41
1
10
128.649932619303
20
9.93657519258505
30
0
0
SPLINE
5
23B
100
AcDbEntity
8
1
62
256
6
ByLayer
370
-1
48
1
60
0
100
AcDbSpline
70
4
71
3
72
8
73
4
40
0
40
0
40
0
40
0
40
1
40
1
40
1
40
1
41
1
10
143.020305467345
20
10.117310650119
30
0
41
1
10
143.058047514726
20
10.1199606140355
30
0
41
1
10
143.095009288517
20
10.1268387322153
30
0
41
1
10
143.131189528135
20
10.1379403088013
30
0
0
SPLINE
5
23C
100
AcDbEntity
8
1
62
256
6
ByLayer
370
-1
48
1
60
0
100
AcDbSpline
70
4
71
3
72
8
73
4
40
0
40
0
40
0
40
0
40
1
40
1
40
1
40
1
41
1
10
128.702994759821
20
25.069023517406
30
0
41
1
10
128.686739483806
20
25.0683048172286
30
0
41
1
10
128.670487518614
20
25.0675061588741
30
0
41
1
10
128.654239897961
20
25.0666278665903
30
0
0
SPLINE
5
23D
100
AcDbEntity
8
1
62
256
6
ByLayer
370
-1
48
1
60
0
100
AcDbSpline
70
4
71
3
72
8
73
4
40
0
40
0
40
0
40
0
40
1
40
1
40
1
40
1
41
1
10
127.830217895591
20
24.1295110134709
30
0
41
1
10
127.829799437554
20
24.1458388553829
30
0
41
1
10
127.829461362477
20
24.1621689584137
30
0
41
1
10
127.829200743811
20
24.17850012022
30
0
0
SPLINE
5
23E
100
AcDbEntity
8
1
62
256
6
ByLayer
370
-1
48
1
60
0
100
AcDbSpline
70
4
71
3
72
9
73
5
40
0
40
0
40
0
40
0
40
0.5
40
1
40
1
40
1
40
1
41
1
10
142.568455228611
20
25.4173547001541
30
0
41
1
10
142.624565696205
20
25.4008915666909
30
0
41
1
10
142.733609012307
20
25.3528572352947
30
0
41
1
10
142.824812564072
20
25.2787379505774
30
0
41
1
10
142.863958648926
20
25.2374764991688
30
0
0
SPLINE
5
23F
100
AcDbEntity
8
1
62
256
6
ByLayer
370
-1
48
1
60
0
100
AcDbSpline
70
4
71
3
72
15
73
11
40
0
40
0
40
0
40
0
40
0.250227978748281
40
0.500467923372697
40
0.750707867997112
40
0.87582784030932
40
0.938387826465424
40
0.969667819543476
40
0.985307816082502
40
1
40
1
40
1
40
1
41
1
10
143.557997144871
20
10.7500170739192
30
0
41
1
10
143.567723038018
20
10.747767670942
30
0
41
1
10
143.587175289313
20
10.7432687574421
30
0
41
1
10
143.616348253736
20
10.7365216389991
30
0
41
1
10
143.640686730494
20
10.7308926400731
30
0
41
1
10
143.657665517733
20
10.7269657889359
30
0
41
1
10
143.666239590708
20
10.7249827787397
30
0
41
1
10
143.670399608162
20
10.724020650583
30
0
41
1
10
143.672963235779
20
10.7234277352067
30
0
41
1
10
143.673573559161
20
10.7232865797148
30
0
41
1
10
143.674730932446
20
10.7230189026106
30
0
0
SPLINE
5
240
100
AcDbEntity
8
1
62
256
6
ByLayer
370
-1
48
1
60
0
100
AcDbSpline
70
4
71
3
72
9
73
5
40
0
40
0
40
0
40
0
40
0.624999999996735
40
1
40
1
40
1
40
1
41
1
10
128.399394210032
20
10.5997974280659
30
0
41
1
10
128.378811653704
20
10.5990703552179
30
0
41
1
10
128.345879563579
20
10.5979070386611
30
0
41
1
10
128.312947473454
20
10.5967437221044
30
0
41
1
10
128.300597939657
20
10.5963074783956
30
0
0
SPLINE
5
241
100
AcDbEntity
8
1
62
256
6
ByLayer
370
-1
48
1
60
0
100
AcDbSpline
70
4
71
3
72
16
73
12
40
0
40
0
40
0
40
0
40
0.0068174563922077
40
0.052590299010245
40
0.14413598424632
40
0.235681669482394
40
0.418773039954544
40
0.601864410426693
40
0.784955780898842
40
0.968047151370992
40
1
40
1
40
1
40
1
41
1
10
128.777731583875
20
23.0204772108829
30
0
41
1
10
128.778457668571
20
23.0205028550123
30
0
41
1
10
128.784058275494
20
23.0207006678311
30
0
41
1
10
128.799400020963
20
23.0212426855172
30
0
41
1
10
128.823765989801
20
23.0221034140767
30
0
41
1
10
128.86275388791
20
23.0234806175353
30
0
41
1
10
128.911486243606
20
23.0252020806548
30
0
41
1
10
128.969967809333
20
23.0272678858101
30
0
41
1
10
129.028446598712
20
23.0293336407749
30
0
41
1
10
129.070827908017
20
23.0308308654842
30
0
41
1
10
129.093731101065
20
23.0316397729696
30
0
41
1
10
129.097131768044
20
23.0317599222506
30
0
0
SPLINE
5
242
100
AcDbEntity
8
1
62
256
6
ByLayer
370
-1
48
1
60
0
100
AcDbSpline
70
4
71
3
72
15
73
11
40
0
40
0
40
0
40
0
40
0.250139710793316
40
0.500351579587106
40
0.750563448380896
40
0.875669382777791
40
0.938222349976239
40
0.969498833575463
40
0.985137075375075
40
1
40
1
40
1
40
1
41
1
10
142.863965560949
20
25.2374838811356
30
0
41
1
10
142.871952531221
20
25.2460138803322
30
0
41
1
10
142.88792877532
20
25.2630763388988
30
0
41
1
10
142.911889597415
20
25.2886662417374
30
0
41
1
10
142.931881571857
20
25.3100174575466
30
0
41
1
10
142.945827572951
20
25.3249116382031
30
0
41
1
10
142.952871031288
20
25.3324339767011
30
0
41
1
10
142.956287073771
20
25.3360822736955
30
0
41
1
10
142.958400545039
20
25.3383394385038
30
0
41
1
10
142.95896297896
20
25.338940111942
30
0
41
1
10
142.959834234325
20
25.3398706033939
30
0
0
SPLINE
5
243
100
AcDbEntity
8
1
62
256
6
ByLayer
370
-1
48
1
60
0
100
AcDbSpline
70
4
71
3
72
8
73
4
40
0
40
0
40
0
40
0
40
1
40
1
40
1
40
1
41
1
10
128.654239897961
20
25.0666278665904
30
0
41
1
10
128.601166987258
20
25.0637589217187
30
0
41
1
10
128.54811511286
20
25.0604637463257
30
0
41
1
10
128.495095491102
20
25.0567410416346
30
0
0
SPLINE
5
244
100
AcDbEntity
8
1
62
256
6
ByLayer
370
-1
48
1
60
0
100
AcDbSpline
70
4
71
3
72
9
73
5
40
0
40
0
40
0
40
0
40
0.62499999999992
40
1
40
1
40
1
40
1
41
1
10
142.717577874643
20
10.2013774635629
30
0
41
1
10
142.718461037831
20
10.1805568213333
30
0
41
1
10
142.719874098932
20
10.147243793766
30
0
41
1
10
142.721287160033
20
10.1139307661987
30
0
41
1
10
142.721817057946
20
10.101438380861
30
0
0
SPLINE
5
245
100
AcDbEntity
8
1
62
256
6
ByLayer
370
-1
48
1
60
0
100
AcDbSpline
70
4
71
3
72
12
73
8
40
0
40
0
40
0
40
0
40
0.0285608994399085
40
0.0933235061439146
40
0.222848719551927
40
0.481899146367951
40
1
40
1
40
1
40
1
41
1
10
141.664706820676
20
10.6131653668211
30
0
41
1
10
141.664777019248
20
10.6088942339015
30
0
41
1
10
141.665003098143
20
10.5949452819222
30
0
41
1
10
141.665545095456
20
10.5616328625067
30
0
41
1
10
141.666645923494
20
10.4938688209293
30
0
41
1
10
141.66884870409
20
10.3583388234601
30
0
41
1
10
141.670736448058
20
10.2421708721515
30
0
41
1
10
141.671995019168
20
10.164725433643
30
0
0
SPLINE
5
246
100
AcDbEntity
8
1
62
256
6
ByLayer
370
-1
48
1
60
0
100
AcDbSpline
70
4
71
3
72
8
73
4
40
0
40
0
40
0
40
0
40
1
40
1
40
1
40
1
41
1
10
142.275289120421
20
25.5447897284932
30
0
41
1
10
142.291555260483
20
25.5452102171351
30
0
41
1
10
142.307823865531
20
25.5455502290497
30
0
41
1
10
142.324092821771
20
25.5458117824403
30
0
0
SPLINE
5
247
100
AcDbEntity
8
1
62
256
6
ByLayer
370
-1
48
1
60
0
100
AcDbSpline
70
4
71
3
72
20
73
16
40
0
40
0
40
0
40
0
40
0.0006369940731739
40
0.0022970655115905
40
0.0039571369500072
40
0.0172377084573404
40
0.0437988514720069
40
0.150043423530673
40
0.362532567648005
40
0.468777139706671
40
0.521899425736003
40
0.575021711765336
40
0.787510855882668
40
0.893755427941334
40
1
40
1
40
1
40
1
41
1
10
127.932540361871
20
24.0420370553712
30
0
41
1
10
127.932542781823
20
24.0418139397332
30
0
41
1
10
127.932559847694
20
24.0410086542381
30
0
41
1
10
127.932615070906
20
24.0396229920187
30
0
41
1
10
127.932813436246
20
24.0338211816024
30
0
41
1
10
127.933324218745
20
24.0192927184513
30
0
41
1
10
127.935094604396
20
23.9681894861026
30
0
41
1
10
127.939267441676
20
23.8473701705282
30
0
41
1
10
127.944301083254
20
23.6986879967211
30
0
41
1
10
127.948630296752
20
23.5685957572283
30
0
41
1
10
127.951076658457
20
23.4942611359198
30
0
41
1
10
127.954777391791
20
23.382756268717
30
0
41
1
10
127.959183739788
20
23.2526600866784
30
0
41
1
10
127.964340274638
20
23.1039746051631
30
0
41
1
10
127.966960915055
20
23.0296315884826
30
0
41
1
10
127.968279680006
20
22.9924601268539
30
0
0
SPLINE
5
248
100
AcDbEntity
8
1
62
256
6
ByLayer
370
-1
48
1
60
0
100
AcDbSpline
70
4
71
3
72
8
73
4
40
0
40
0
40
0
40
0
40
1
40
1
40
1
40
1
41
1
10
142.861161138694
20
10.1074238251634
30
0
41
1
10
142.91423366624
20
10.1102927700351
30
0
41
1
10
142.967284935274
20
10.113587945428
30
0
41
1
10
143.020305467347
20
10.1173106501191
30
0
0
SPLINE
5
249
100
AcDbEntity
8
1
62
256
6
ByLayer
370
-1
48
1
60
0
100
AcDbSpline
70
4
71
3
72
9
73
5
40
0
40
0
40
0
40
0
40
0.375000000000758
40
1
40
1
40
1
40
1
41
1
10
141.139088786643
20
25.5053746283862
30
0
41
1
10
141.13942805607
20
25.4928822430484
30
0
41
1
10
141.140332774541
20
25.4595692154811
30
0
41
1
10
141.141237493012
20
25.4262561879137
30
0
41
1
10
141.141802942056
20
25.4054355456842
30
0
0
SPLINE
5
24A
100
AcDbEntity
8
1
62
256
6
ByLayer
370
-1
48
1
60
0
100
AcDbSpline
70
4
71
3
72
8
73
4
40
0
40
0
40
0
40
0
40
1
40
1
40
1
40
1
41
1
10
142.324092821771
20
25.5458117824161
30
0
41
1
10
142.377235420823
20
25.5466661474268
30
0
41
1
10
142.430391200392
20
25.5470832543865
30
0
41
1
10
142.483536274863
20
25.5470933164841
30
0
0
SPLINE
5
24B
100
AcDbEntity
8
1
62
256
6
ByLayer
370
-1
48
1
60
0
100
AcDbSpline
70
4
71
3
72
8
73
4
40
0
40
0
40
0
40
0
40
1
40
1
40
1
40
1
41
1
10
128.793583910871
20
25.0726133108928
30
0
41
1
10
128.763382429905
20
25.0715546233118
30
0
41
1
10
128.733185253955
20
25.0703583402334
30
0
41
1
10
128.702994759821
20
25.069023517406
30
0
0
SPLINE
5
24C
100
AcDbEntity
8
1
62
256
6
ByLayer
370
-1
48
1
60
0
100
AcDbSpline
70
4
71
3
72
25
73
21
40
0
40
0
40
0
40
0
40
0.125
40
0.1875
40
0.21875
40
0.234375
40
0.25
40
0.3125
40
0.34375
40
0.375
40
0.5
40
0.625
40
0.6875
40
0.71875
40
0.7265625
40
0.734375
40
0.75
40
0.8125
40
0.875
40
1
40
1
40
1
40
1
41
1
10
143.582871332746
20
11.1320147527789
30
0
41
1
10
143.582632113121
20
11.1149386930467
30
0
41
1
10
143.582201598556
20
11.089348109101
30
0
41
1
10
143.581607568423
20
11.0594856104842
30
0
41
1
10
143.581269014678
20
11.044587242628
30
0
41
1
10
143.581061049839
20
11.0360875571143
30
0
41
1
10
143.580733237892
20
11.0233548230276
30
0
41
1
10
143.580300669847
20
11.008555563258
30
0
41
1
10
143.579755031245
20
10.9916353995491
30
0
41
1
10
143.57889403371
20
10.9662083701294
30
0
41
1
10
143.577475945922
20
10.927730907855
30
0
41
1
10
143.575677758226
20
10.8852282551881
30
0
41
1
10
143.574308398946
20
10.8552637869982
30
0
41
1
10
143.573639838526
20
10.8416267077024
30
0
41
1
10
143.573333225718
20
10.8350139677416
30
0
41
1
10
143.573103915646
20
10.8319936565176
30
0
41
1
10
143.572389578538
20
10.8226633722162
30
0
41
1
10
143.570736990841
20
10.8079463406881
30
0
41
1
10
143.566453805268
20
10.781792325908
30
0
41
1
10
143.561758168123
20
10.7625630650879
30
0
41
1
10
143.557995749597
20
10.7500173966179
30
0
0
SPLINE
5
24D
100
AcDbEntity
8
1
62
256
6
ByLayer
370
-1
48
1
60
0
100
AcDbSpline
70
4
71
3
72
8
73
4
40
0
40
0
40
0
40
0
40
1
40
1
40
1
40
1
41
1
10
143.68620145029
20
10.9955515715335
30
0
41
1
10
143.687052366347
20
10.9422057777945
30
0
41
1
10
143.687472323496
20
10.8888514061408
30
0
41
1
10
143.687477835687
20
10.8354987972683
30
0
0
SPLINE
5
24E
100
AcDbEntity
8
1
62
256
6
ByLayer
370
-1
48
1
60
0
100
AcDbSpline
70
4
71
3
72
25
73
21
40
0
40
0
40
0
40
0
40
0.125
40
0.1875
40
0.21875
40
0.234375
40
0.25
40
0.3125
40
0.34375
40
0.375
40
0.5
40
0.625
40
0.6875
40
0.71875
40
0.7265625
40
0.734375
40
0.75
40
0.8125
40
0.875
40
1
40
1
40
1
40
1
41
1
10
129.327252657341
20
9.73196411614941
30
0
41
1
10
129.310240263389
20
9.73220293075411
30
0
41
1
10
129.2847448895
20
9.73263291168485
30
0
41
1
10
129.254993525596
20
9.73322670025254
30
0
41
1
10
129.240150341528
20
9.73356503245407
30
0
41
1
10
129.231682030845
20
9.73377281894503
30
0
41
1
10
129.218996164336
20
9.73410029270991
30
0
41
1
10
129.204250939546
20
9.73453222371037
30
0
41
1
10
129.187392599212
20
9.73507737381618
30
0
41
1
10
129.162058833741
20
9.73593815330304
30
0
41
1
10
129.123725103472
20
9.73735896133792
30
0
41
1
10
129.081379283883
20
9.73915909674653
30
0
41
1
10
129.051527012964
20
9.74053185320199
30
0
41
1
10
129.037938903697
20
9.7412000330726
30
0
41
1
10
129.031352382076
20
9.74150887598879
30
0
41
1
10
129.028333787767
20
9.74172924836256
30
0
41
1
10
129.019019814022
20
9.74242704681234
30
0
41
1
10
129.00432313697
20
9.74405016268364
30
0
41
1
10
128.978205986895
20
9.74828681076497
30
0
41
1
10
128.959002043459
20
9.75295234591977
30
0
41
1
10
128.946472092691
20
9.75669699159974
30
0
0
SPLINE
5
24F
100
AcDbEntity
8
1
62
256
6
ByLayer
370
-1
48
1
60
0
100
AcDbSpline
70
4
71
3
72
8
73
4
40
0
40
0
40
0
40
0
40
1
40
1
40
1
40
1
41
1
10
143.481038758428
20
10.3573854255217
30
0
41
1
10
143.576148949279
20
10.4597746660831
30
0
41
1
10
143.643335693428
20
10.5866198528594
30
0
41
1
10
143.674712048602
20
10.7230232700632
30
0
0
SPLINE
5
250
100
AcDbEntity
8
1
62
256
6
ByLayer
370
-1
48
1
60
0
100
AcDbSpline
70
4
71
3
72
17
73
13
40
0
40
0
40
0
40
0
40
0.0144631560763686
40
0.030105742784007
40
0.0613909161992837
40
0.123961263029837
40
0.249101956690944
40
0.499383344013158
40
0.749664731335372
40
0.999946118657586
40
0.999946118657586
40
1
40
1
40
1
40
1
41
1
10
129.330730133132
20
9.6320018520239
30
0
41
1
10
129.330692043506
20
9.63309676267016
30
0
41
1
10
129.330676887311
20
9.63353243717083
30
0
41
1
10
129.33060090143
20
9.63571669987994
30
0
41
1
10
129.330476934024
20
9.63928022219966
30
0
41
1
10
129.330221569441
20
9.6466208403603
30
0
41
1
10
129.329715793454
20
9.66115969433415
30
0
41
1
10
129.328990826914
20
9.68199932087668
30
0
41
1
10
129.32812182468
20
9.70697934547394
30
0
41
1
10
129.327542379788
20
9.72363585925757
30
0
41
1
10
129.327252737634
20
9.73196180807139
30
0
41
1
10
129.327252389931
20
9.73197180302529
30
0
41
1
10
129.327252042228
20
9.73198179797919
30
0
0
SPLINE
5
251
100
AcDbEntity
8
1
62
256
6
ByLayer
370
-1
48
1
60
0
100
AcDbSpline
70
4
71
3
72
12
73
8
40
0
40
0
40
0
40
0
40
0.0285608994399156
40
0.0933235061439213
40
0.222848719551933
40
0.481899146367955
40
1
40
1
40
1
40
1
41
1
10
129.865793277295
20
24.5608863249328
30
0
41
1
10
129.865566308501
20
24.5651574578523
30
0
41
1
10
129.86482187831
20
24.5791064098317
30
0
41
1
10
129.863046138363
20
24.6124188292471
30
0
41
1
10
129.859432230974
20
24.6801828708245
30
0
41
1
10
129.852205407523
20
24.8157128682937
30
0
41
1
10
129.846010676732
20
24.9318808196023
30
0
41
1
10
129.841880921759
20
25.0093262581109
30
0
0
SPLINE
5
252
100
AcDbEntity
8
1
62
256
6
ByLayer
370
-1
48
1
60
0
100
AcDbSpline
70
4
71
3
72
91
73
87
40
0
40
0
40
0
40
0
40
0.0276322771566163
40
0.0681475989417573
40
0.0782764293880426
40
0.0833408446111852
40
0.083973896514078
40
0.0846069484169708
40
0.0849234743684173
40
0.0852400003198637
40
0.0858730522227565
40
0.0884052598343278
40
0.0985340902806131
40
0.108662920726898
40
0.118791751173184
40
0.128920581619469
40
0.149178242512039
40
0.16943590340461
40
0.179564733850895
40
0.184629149074038
40
0.18969356429718
40
0.190326616200073
40
0.190959668102966
40
0.192225771908752
40
0.192858823811644
40
0.193491875714537
40
0.194757979520323
40
0.197290187131894
40
0.199822394743465
40
0.204886809966608
40
0.209951225189751
40
0.220080055636036
40
0.222612263247607
40
0.223878367053393
40
0.225144470859179
40
0.230208886082321
40
0.270724207867462
40
0.290981868760033
40
0.311239529652603
40
0.331497190545174
40
0.341626020991459
40
0.346690436214602
40
0.349222643826173
40
0.350488747631959
40
0.351121799534851
40
0.351754851437744
40
0.352387903340637
40
0.35302095524353
40
0.354287059049316
40
0.356819266660887
40
0.361883681884029
40
0.372012512330315
40
0.392270173222885
40
0.412527834115456
40
0.432785495008026
40
0.473300816793167
40
0.475833024404739
40
0.47836523201631
40
0.479631335822095
40
0.480897439627881
40
0.483429647239452
40
0.493558477685738
40
0.503687308132023
40
0.508751723355166
40
0.511283930966737
40
0.512550034772522
40
0.513816138578308
40
0.514449190481201
40
0.523944969024593
40
0.534073799470879
40
0.554331460363449
40
0.564460290809734
40
0.57458912125602
40
0.59484678214859
40
0.615104443041161
40
0.617636650652732
40
0.618269702555625
40
0.618586228507071
40
0.618902754458518
40
0.61953580636141
40
0.620168858264303
40
0.625233273487446
40
0.635362103933731
40
0.675877425718872
40
0.837938712859436
40
1
40
1
40
1
40
1
41
1
10
141.236188434276
20
23.5988036816286
30
0
41
1
10
141.237769087899
20
23.5982703662174
30
0
41
1
10
141.241645390718
20
23.5968895548254
30
0
41
1
10
141.246029315648
20
23.5951195585765
30
0
41
1
10
141.249108521523
20
23.5937648191716
30
0
41
1
10
141.249979722447
20
23.5933718969012
30
0
41
1
10
141.250327659521
20
23.5932135236073
30
0
41
1
10
141.250414613555
20
23.5931738633984
30
0
41
1
10
141.250484158613
20
23.593142095115
30
0
41
1
10
141.250553691546
20
23.5931103000923
30
0
41
1
10
141.250744857061
20
23.593022753501
30
0
41
1
10
141.251474123665
20
23.5926870816711
30
0
41
1
10
141.252719890411
20
23.5921020378234
30
0
41
1
10
141.254371267979
20
23.5913016079374
30
0
41
1
10
141.256012752447
20
23.5904809289128
30
0
41
1
10
141.258187876491
20
23.5893598544074
30
0
41
1
10
141.260880807115
20
23.5879084998497
30
0
41
1
10
141.263537449582
20
23.5863912786176
30
0
41
1
10
141.265377178849
20
23.5852950717453
30
0
41
1
10
141.266422636986
20
23.5846589712432
30
0
41
1
10
141.266975954896
20
23.584317619475
30
0
41
1
10
141.267300739938
20
23.5841156951649
30
0
41
1
10
141.267430592009
20
23.5840348251267
30
0
41
1
10
141.267560351055
20
23.5839538046993
30
0
41
1
10
141.26769001686
20
23.5838726340475
30
0
41
1
10
141.267819620434
20
23.5837913633009
30
0
41
1
10
141.268046263142
20
23.5836488768896
30
0
41
1
10
141.268369570091
20
23.5834445753968
30
0
41
1
10
141.268885857487
20
23.583116097636
30
0
41
1
10
141.269529326166
20
23.5827025156952
30
0
41
1
10
141.270554806208
20
23.5820344452336
30
0
41
1
10
141.271446711486
20
23.5814416000408
30
0
41
1
10
141.272143902224
20
23.5809704176351
30
0
41
1
10
141.272397032559
20
23.5807984934804
30
0
41
1
10
141.272776333632
20
23.5805400228085
30
0
41
1
10
141.27510926291
20
23.5789371203681
30
0
41
1
10
141.278325773697
20
23.5765937335041
30
0
41
1
10
141.282175448904
20
23.573566184137
30
0
41
1
10
141.285006393042
20
23.5712251799033
30
0
41
1
10
141.287317120753
20
23.5692168480776
30
0
41
1
10
141.288908454743
20
23.5677814208032
30
0
41
1
10
141.289697481711
20
23.5670563821494
30
0
41
1
10
141.290090323167
20
23.566692040785
30
0
41
1
10
141.290286324385
20
23.5665094157454
30
0
41
1
10
141.290398205007
20
23.5664049289282
30
0
41
1
10
141.290482055382
20
23.5663264990304
30
0
41
1
10
141.290565845612
20
23.5662480043891
30
0
41
1
10
141.290677485667
20
23.5661432586104
30
0
41
1
10
141.290872644945
20
23.5659597272511
30
0
41
1
10
141.291262118975
20
23.5655917609709
30
0
41
1
10
141.29203767894
20
23.5648522255592
30
0
41
1
10
141.293575166504
20
23.5633588344941
30
0
41
1
10
141.295732170659
20
23.5611850246437
30
0
41
1
10
141.298256062475
20
23.5585134893398
30
0
41
1
10
141.301533283975
20
23.5548697136044
30
0
41
1
10
141.30398824106
20
23.5519298426987
30
0
41
1
10
141.305699739435
20
23.5497682751375
30
0
41
1
10
141.305936528974
20
23.5494673271191
30
0
41
1
10
141.306125408036
20
23.5492261321512
30
0
41
1
10
141.306313918242
20
23.5489846466906
30
0
41
1
10
141.306830797814
20
23.5483193656297
30
0
41
1
10
141.307668269361
20
23.547224224435
30
0
41
1
10
141.308583829597
20
23.5459960199363
30
0
41
1
10
141.309216785835
20
23.5451303929524
30
0
41
1
10
141.309531269975
20
23.5446961198971
30
0
41
1
10
141.30971040406
20
23.5444475484753
30
0
41
1
10
141.309822124593
20
23.5442920185966
30
0
41
1
10
141.310223674374
20
23.5437316455507
30
0
41
1
10
141.3109314304
20
23.5427310183414
30
0
41
1
10
141.312301352302
20
23.5407445039161
30
0
41
1
10
141.313655819459
20
23.5387009373242
30
0
41
1
10
141.314972531701
20
23.536632811134
30
0
41
1
10
141.316263888872
20
23.5345486320759
30
0
41
1
10
141.317830197464
20
23.5319139094969
30
0
41
1
10
141.319106500058
20
23.529642324221
30
0
41
1
10
141.319783866099
20
23.5283969152189
30
0
41
1
10
141.319884202133
20
23.5282115938726
30
0
41
1
10
141.319920649382
20
23.5281441832689
30
0
41
1
10
141.319957070905
20
23.5280767586596
30
0
41
1
10
141.320002549558
20
23.5279924516556
30
0
41
1
10
141.320184206736
20
23.5276550838762
30
0
41
1
10
141.320635452227
20
23.5268100942856
30
0
41
1
10
141.322196543464
20
23.5238211576303
30
0
41
1
10
141.327807279814
20
23.5122275783122
30
0
41
1
10
141.334960453066
20
23.4912251085464
30
0
41
1
10
141.337568428065
20
23.4716698538945
30
0
41
1
10
141.337909749277
20
23.4618583575025
30
0
0
SPLINE
5
253
100
AcDbEntity
8
1
62
256
6
ByLayer
370
-1
48
1
60
0
100
AcDbSpline
70
4
71
3
72
14
73
10
40
0
40
0
40
0
40
0
40
0.0318086637759561
40
0.315507725074501
40
0.599206786373045
40
0.88290584767159
40
0.953830612996226
40
0.989292995658544
40
1
40
1
40
1
40
1
41
1
10
129.866806860359
20
11.7022546536821
30
0
41
1
10
129.863398678143
20
11.702127431565
30
0
41
1
10
129.829474590275
20
11.700861842616
30
0
41
1
10
129.760581365989
20
11.6983196375332
30
0
41
1
10
129.653812283308
20
11.6944447708449
30
0
41
1
10
129.56875516052
20
11.6914028231455
30
0
41
1
10
129.515593149064
20
11.6895176931751
30
0
41
1
10
129.499544914438
20
11.6889500473486
30
0
41
1
10
129.493204570202
20
11.6887260016154
30
0
41
1
10
129.491733740243
20
11.6886740355846
30
0
0
SPLINE
5
254
100
AcDbEntity
8
1
62
256
6
ByLayer
370
-1
48
1
60
0
100
AcDbSpline
70
4
71
3
72
15
73
11
40
0
40
0
40
0
40
0
40
0.250244249035882
40
0.500488498071763
40
0.750732747107645
40
0.875854871625586
40
0.938415933884556
40
0.969696465014041
40
0.985336730578784
40
1
40
1
40
1
40
1
41
1
10
128.418278699441
20
24.921354812237
30
0
41
1
10
128.415439761211
20
24.9309178597966
30
0
41
1
10
128.409761884751
20
24.9500439549159
30
0
41
1
10
128.401246717814
20
24.9787275470918
30
0
41
1
10
128.394142781229
20
25.0026573680028
30
0
41
1
10
128.38918699747
20
25.0193510724597
30
0
41
1
10
128.386684389304
20
25.0277811822331
30
0
41
1
10
128.385470159651
20
25.0318713508024
30
0
41
1
10
128.384722239933
20
25.0343907405371
30
0
41
1
10
128.384544086736
20
25.0349908548616
30
0
41
1
10
128.384207937712
20
25.0361231828097
30
0
0
SPLINE
5
255
100
AcDbEntity
8
1
62
256
6
ByLayer
370
-1
48
1
60
0
100
AcDbSpline
70
4
71
3
72
8
73
4
40
0
40
0
40
0
40
0
40
1
40
1
40
1
40
1
41
1
10
128.316409804955
20
10.2966788865606
30
0
41
1
10
128.319050008958
20
10.2587929959262
30
0
41
1
10
128.325902664753
20
10.2216907478109
30
0
41
1
10
128.336960966742
20
10.1853712718755
30
0
0
SPLINE
5
256
100
AcDbEntity
8
1
62
256
6
ByLayer
370
-1
48
1
60
0
100
AcDbSpline
70
4
71
3
72
8
73
4
40
0
40
0
40
0
40
0
40
1
40
1
40
1
40
1
41
1
10
142.483536274855
20
25.5470933159028
30
0
41
1
10
142.521367833775
20
25.5471004786525
30
0
41
1
10
142.558719461766
20
25.542821414946
30
0
41
1
10
142.595583458096
20
25.5342791079571
30
0
0
SPLINE
5
257
100
AcDbEntity
8
1
62
256
6
ByLayer
370
-1
48
1
60
0
100
AcDbSpline
70
4
71
3
72
8
73
4
40
0
40
0
40
0
40
0
40
1
40
1
40
1
40
1
41
1
10
129.031865375167
20
9.62695837585099
30
0
41
1
10
128.994027393016
20
9.62695121310136
30
0
41
1
10
128.956682408038
20
9.6312302768078
30
0
41
1
10
128.919817510722
20
9.63977258379666
30
0
0
SPLINE
5
258
100
AcDbEntity
8
1
62
256
6
ByLayer
370
-1
48
1
60
0
100
AcDbSpline
70
4
71
3
72
9
73
5
40
0
40
0
40
0
40
0
40
0.5
40
1
40
1
40
1
40
1
41
1
10
127.956931571705
20
24.424034295136
30
0
41
1
10
127.97324919101
20
24.4804422791035
30
0
41
1
10
128.020924727986
20
24.5900788045735
30
0
41
1
10
128.094585841887
20
24.6818075364166
30
0
41
1
10
128.135607255293
20
24.7211864958234
30
0
0
SPLINE
5
259
100
AcDbEntity
8
1
62
256
6
ByLayer
370
-1
48
1
60
0
100
AcDbSpline
70
4
71
3
72
11
73
7
40
0
40
0
40
0
40
0
40
0.486341095999886
40
0.729511643999829
40
0.972682191999772
40
1
40
1
40
1
40
1
41
1
10
141.337909749277
20
23.4618583575025
30
0
41
1
10
141.342839387819
20
23.4620311618463
30
0
41
1
10
141.350330235971
20
23.4622903515398
30
0
41
1
10
141.359855471881
20
23.4626132300046
30
0
41
1
10
141.364611088422
20
23.462771961988
30
0
41
1
10
141.36701063729
20
23.462851332299
30
0
41
1
10
141.36725228039
20
23.462859320176
30
0
0
SPLINE
5
25A
100
AcDbEntity
8
1
62
256
6
ByLayer
370
-1
48
1
60
0
100
AcDbSpline
70
4
71
3
72
9
73
5
40
0
40
0
40
0
40
0
40
0.5
40
1
40
1
40
1
40
1
41
1
10
143.557995749597
20
10.7500173966179
30
0
41
1
10
143.541512396361
20
10.6936094126503
30
0
41
1
10
143.493484840811
20
10.5839728871803
30
0
41
1
10
143.419471477788
20
10.4922441553372
30
0
41
1
10
143.378284012936
20
10.4528651959304
30
0
0
SPLINE
5
25B
100
AcDbEntity
8
1
62
256
6
ByLayer
370
-1
48
1
60
0
100
AcDbSpline
70
4
71
3
72
8
73
4
40
0
40
0
40
0
40
0
40
1
40
1
40
1
40
1
41
1
10
128.555571028541
20
9.83418567435837
30
0
41
1
10
128.657573587545
20
9.73871512967659
30
0
41
1
10
128.783937038498
20
9.67127269511141
30
0
41
1
10
128.919817510696
20
9.63977258368092
30
0
0
SPLINE
5
25C
100
AcDbEntity
8
1
62
256
6
ByLayer
370
-1
48
1
60
0
100
AcDbSpline
70
4
71
3
72
8
73
4
40
0
40
0
40
0
40
0
40
1
40
1
40
1
40
1
41
1
10
143.208840395199
20
24.7176205318086
30
0
41
1
10
143.20598217595
20
24.7708959800987
30
0
41
1
10
143.202699237012
20
24.8241502001998
30
0
41
1
10
143.198991153494
20
24.8773728051955
30
0
0
SPLINE
5
25D
100
AcDbEntity
8
1
62
256
6
ByLayer
370
-1
48
1
60
0
100
AcDbSpline
70
4
71
3
72
9
73
5
40
0
40
0
40
0
40
0
40
0.375000000000578
40
1
40
1
40
1
40
1
41
1
10
130.376312182174
20
9.66867706336762
30
0
41
1
10
130.375782284261
20
9.68116944870539
30
0
41
1
10
130.37436922316
20
9.71448247627274
30
0
41
1
10
130.372956162059
20
9.74779550384008
30
0
41
1
10
130.372072998871
20
9.76861614606963
30
0
0
SPLINE
5
25E
100
AcDbEntity
8
1
62
256
6
ByLayer
370
-1
48
1
60
0
100
AcDbSpline
70
4
71
3
72
15
73
11
40
0
40
0
40
0
40
0
40
0.0466427416045625
40
0.130083711367126
40
0.21352468112969
40
0.380406620654817
40
0.714170499705071
40
0.881052439230197
40
0.964493408992761
40
1
40
1
40
1
40
1
41
1
10
130.364784793208
20
10.2170560954892
30
0
41
1
10
130.364695838001
20
10.2224698155501
30
0
41
1
10
130.364443232824
20
10.2375780517844
30
0
41
1
10
130.363979279684
20
10.2624822878567
30
0
41
1
10
130.363162936472
20
10.3015797407963
30
0
41
1
10
130.361501104992
20
10.370370699784
30
0
41
1
10
130.359072341993
20
10.4495545939909
30
0
41
1
10
130.356497533436
20
10.5188284848957
30
0
41
1
10
130.355130868077
20
10.5526641157387
30
0
41
1
10
130.354540373556
20
10.5667243270309
30
0
41
1
10
130.354363127811
20
10.5709204605722
30
0
0
SPLINE
5
25F
100
AcDbEntity
8
1
62
256
6
ByLayer
370
-1
48
1
60
0
100
AcDbSpline
70
4
71
3
72
17
73
13
40
0
40
0
40
0
40
0
40
0.0032703186403164
40
0.0092094466333912
40
0.0210877026195409
40
0.0448442145918402
40
0.0923572385364389
40
0.282409334314834
40
0.662513525871623
40
0.852565621650018
40
0.947591669539215
40
1
40
1
40
1
40
1
41
1
10
141.590173487645
20
11.9349651016294
30
0
41
1
10
141.590200112986
20
11.9346848035732
30
0
41
1
10
141.590275409681
20
11.9338988647109
30
0
41
1
10
141.59044851002
20
11.932106870136
30
0
41
1
10
141.590788016131
20
11.9285549194408
30
0
41
1
10
141.591468261823
20
11.9214644335937
30
0
41
1
10
141.593604965924
20
11.8991668662746
30
0
41
1
10
141.598656297792
20
11.8464737670891
30
0
41
1
10
141.604872350204
20
11.7816102347489
30
0
41
1
10
141.610313141517
20
11.7248733453673
30
0
41
1
10
141.613071079715
20
11.6960606239496
30
0
41
1
10
141.614278711395
20
11.6835024610346
30
0
41
1
10
141.614706482204
20
11.6790223481965
30
0
0
SPLINE
5
260
100
AcDbEntity
8
1
62
256
6
ByLayer
370
-1
48
1
60
0
100
AcDbSpline
70
4
71
3
72
17
73
13
40
0
40
0
40
0
40
0
40
0.0144631560762548
40
0.0301057427838674
40
0.0613909161990926
40
0.123961263029543
40
0.249101956690444
40
0.499383344012246
40
0.749664731334047
40
0.999946118655849
40
0.999946118655849
40
1
40
1
40
1
40
1
41
1
10
143.682453210277
20
11.1355055119623
30
0
41
1
10
143.681362466097
20
11.13546727684
30
0
41
1
10
143.680928449469
20
11.1354520627512
30
0
41
1
10
143.678752498539
20
11.1353757866166
30
0
41
1
10
143.675202536498
20
11.1352513456751
30
0
41
1
10
143.667889851605
20
11.1349950056404
30
0
41
1
10
143.65340632236
20
11.1344872976721
30
0
41
1
10
143.632645996888
20
11.1337595618773
30
0
41
1
10
143.607761028826
20
11.1328872401965
30
0
41
1
10
143.591167898107
20
11.1323055819181
30
0
41
1
10
143.582873651012
20
11.1320148340438
30
0
41
1
10
143.582863656151
20
11.1320144836823
30
0
41
1
10
143.58285366129
20
11.1320141333207
30
0
0
SPLINE
5
261
100
AcDbEntity
8
1
62
256
6
ByLayer
370
-1
48
1
60
0
100
AcDbSpline
70
4
71
3
72
14
73
10
40
0
40
0
40
0
40
0
40
0.0107070020616766
40
0.0461693850894238
40
0.117094151144918
40
0.400793215366896
40
0.684492279588874
40
0.968191343810851
40
1
40
1
40
1
40
1
41
1
10
129.097131768044
20
23.0317599222506
30
0
41
1
10
129.098602597696
20
23.0318118882697
30
0
41
1
10
129.104942941592
20
23.0320359339908
30
0
41
1
10
129.120991178022
20
23.0326035798811
30
0
41
1
10
129.174153188113
20
23.0344887098032
30
0
41
1
10
129.259210312733
20
23.0375306575679
30
0
41
1
10
129.365979387177
20
23.0414055239577
30
0
41
1
10
129.434872614426
20
23.0439477291447
30
0
41
1
10
129.468796706489
20
23.0452133182503
30
0
41
1
10
129.472204888235
20
23.0453405403497
30
0
0
SPLINE
5
262
100
AcDbEntity
8
1
62
256
6
ByLayer
370
-1
48
1
60
0
100
AcDbSpline
70
4
71
3
72
8
73
4
40
0
40
0
40
0
40
0
40
1
40
1
40
1
40
1
41
1
10
141.18335656876
20
23.6065320570499
30
0
41
1
10
141.183002606018
20
23.61670694231
30
0
41
1
10
141.182928589705
20
23.626858630443
30
0
41
1
10
141.183147597845
20
23.6351934085041
30
0
0
SPLINE
5
263
100
AcDbEntity
8
SK1
62
256
6
ByLayer
370
-1
48
1
60
0
100
AcDbSpline
70
4
71
3
72
20
73
16
40
0
40
0
40
0
40
0
40
0.249999999999997
40
0.249999999999997
40
0.374999999999998
40
0.374999999999998
40
0.499999999999998
40
0.499999999999998
40
0.624999999999999
40
0.624999999999999
40
0.749999999999999
40
0.749999999999999
40
0.875
40
0.875
40
1
40
1
40
1
40
1
41
1
10
-68.5162227297303
20
8.87304222606699
30
0
41
1
10
-68.4805102229812
20
8.77417123253394
30
0
41
1
10
-68.4382573152345
20
8.67693148618665
30
0
41
1
10
-68.3621710721186
20
8.53985159931514
30
0
41
1
10
-68.3346894685715
20
8.49562896904695
30
0
41
1
10
-68.2739659602408
20
8.41118058772861
30
0
41
1
10
-68.2407881315988
20
8.37091037639976
30
0
41
1
10
-68.1654488761744
20
8.29660337023134
30
0
41
1
10
-68.123541484252
20
8.2629600402953
30
0
41
1
10
-68.0305243323762
20
8.21104725205689
30
0
41
1
10
-67.9795833203366
20
8.19319188549028
30
0
41
1
10
-67.872813969243
20
8.18306085753042
30
0
41
1
10
-67.8196144054522
20
8.19122791676685
30
0
41
1
10
-67.7199392264586
20
8.22879859450236
30
0
41
1
10
-67.6749143258214
20
8.2570443562262
30
0
41
1
10
-67.6338144512151
20
8.29060283092346
30
0
0
SPLINE
5
264
100
AcDbEntity
8
SK1
62
256
6
ByLayer
370
-1
48
1
60
0
100
AcDbSpline
70
4
71
3
72
8
73
4
40
0
40
0
40
0
40
0
40
1
40
1
40
1
40
1
41
1
10
-68.5162227297291
20
-8.87304222606727
30
0
41
1
10
-68.5439066952102
20
-8.94968599658964
30
0
41
1
10
-68.571834450002
20
-9.02620926996545
30
0
41
1
10
-68.6
20
-9.10261500888612
30
0
0
SPLINE
5
265
100
AcDbEntity
8
SK1
62
256
6
ByLayer
370
-1
48
1
60
0
100
AcDbSpline
70
4
71
3
72
8
73
4
40
0
40
0
40
0
40
0
40
1
40
1
40
1
40
1
41
1
10
-67.6338144512152
20
8.29060283092377
30
0
41
1
10
-67.2932836983815
20
8.56864972917003
30
0
41
1
10
-66.9484012097206
20
8.83881772536409
30
0
41
1
10
-66.6
20
9.10261500888626
30
0
0
SPLINE
5
266
100
AcDbEntity
8
SK1
62
256
6
ByLayer
370
-1
48
1
60
0
100
AcDbSpline
70
4
71
3
72
8
73
4
40
0
40
0
40
0
40
0
40
1
40
1
40
1
40
1
41
1
10
-66.6
20
-9.10261500888609
30
0
41
1
10
-66.9484012097206
20
-8.8388177253639
30
0
41
1
10
-67.2932836983816
20
-8.56864972916986
30
0
41
1
10
-67.6338144512153
20
-8.2906028309236
30
0
0
SPLINE
5
267
100
AcDbEntity
8
SK1
62
256
6
ByLayer
370
-1
48
1
60
0
100
AcDbSpline
70
4
71
3
72
20
73
16
40
0
40
0
40
0
40
0
40
0.125000000000019
40
0.125000000000019
40
0.187500000000028
40
0.187500000000028
40
0.250000000000038
40
0.250000000000038
40
0.375000000000024
40
0.375000000000024
40
0.50000000000001
40
0.50000000000001
40
0.750000000000005
40
0.750000000000005
40
1
40
1
40
1
40
1
41
1
10
-67.6338144512151
20
-8.29060283092329
30
0
41
1
10
-67.6746000935235
20
-8.25730093016261
30
0
41
1
10
-67.7199836490945
20
-8.22876323292448
30
0
41
1
10
-67.7948550962205
20
-8.20056981372309
30
0
41
1
10
-67.8205420829085
20
-8.19379354056497
30
0
41
1
10
-67.8728129362724
20
-8.18630243082055
30
0
41
1
10
-67.8998340844743
20
-8.1856286499503
30
0
41
1
10
-67.9787783127119
20
-8.19310764466417
30
0
41
1
10
-68.0301252704948
20
-8.21095104743222
30
0
41
1
10
-68.1222359195847
20
-8.26210721442101
30
0
41
1
10
-68.1643255549633
20
-8.29567338223035
30
0
41
1
10
-68.2768770736766
20
-8.40615789436035
30
0
41
1
10
-68.3371994967397
20
-8.49473748926303
30
0
41
1
10
-68.4387470357031
20
-8.67793923211124
30
0
41
1
10
-68.4804562077026
20
-8.77402168984949
30
0
41
1
10
-68.5162227297291
20
-8.87304222606727
30
0
0
SPLINE
5
268
100
AcDbEntity
8
SK1
62
256
6
ByLayer
370
-1
48
1
60
0
100
AcDbSpline
70
4
71
3
72
8
73
4
40
0
40
0
40
0
40
0
40
1
40
1
40
1
40
1
41
1
10
-68.6
20
9.10261500888626
30
0
41
1
10
-68.571834450002
20
9.02620926996562
30
0
41
1
10
-68.5439066952102
20
8.94968599658984
30
0
41
1
10
-68.516222729729
20
8.87304222606744
30
0
0
SPLINE
5
269
100
AcDbEntity
8
SK1
62
256
6
ByLayer
370
-1
48
1
60
0
100
AcDbSpline
70
4
71
3
72
72
73
68
40
0
40
0
40
0
40
0
40
0.0156250000000003
40
0.0156250000000003
40
0.0312500000000005
40
0.0312500000000005
40
0.0468750000000008
40
0.0468750000000008
40
0.062500000000001
40
0.062500000000001
40
0.0937500000000014
40
0.0937500000000014
40
0.109375000000002
40
0.109375000000002
40
0.125000000000002
40
0.125000000000002
40
0.156250000000002
40
0.156250000000002
40
0.187500000000002
40
0.187500000000002
40
0.218750000000001
40
0.218750000000001
40
0.250000000000001
40
0.250000000000001
40
0.312500000000001
40
0.312500000000001
40
0.375000000000002
40
0.375000000000002
40
0.406250000000002
40
0.406250000000002
40
0.437500000000002
40
0.437500000000002
40
0.500000000000002
40
0.500000000000002
40
0.562500000000002
40
0.562500000000002
40
0.625000000000002
40
0.625000000000002
40
0.687500000000002
40
0.687500000000002
40
0.718750000000002
40
0.718750000000002
40
0.750000000000002
40
0.750000000000002
40
0.812500000000002
40
0.812500000000002
40
0.843750000000001
40
0.843750000000001
40
0.859375000000001
40
0.859375000000001
40
0.875000000000001
40
0.875000000000001
40
0.906250000000001
40
0.906250000000001
40
0.921875000000001
40
0.921875000000001
40
0.937500000000001
40
0.937500000000001
40
0.953125000000001
40
0.953125000000001
40
0.96875
40
0.96875
40
0.9765625
40
0.9765625
40
0.984375
40
0.984375
40
1
40
1
40
1
40
1
41
1
10
-6.5
20
-9.10261500888618
30
0
41
1
10
-6.38914660019725
20
-9.1026150088862
30
0
41
1
10
-6.27612961385466
20
-9.09015098385046
30
0
41
1
10
-6.05985917895461
20
-9.04281130004992
30
0
41
1
10
-5.95475985097423
20
-9.00792576349431
30
0
41
1
10
-5.75343258145492
20
-8.91941414226187
30
0
41
1
10
-5.65919810333844
20
-8.86684398682266
30
0
41
1
10
-5.48088894318994
20
-8.74834825662376
30
0
41
1
10
-5.39640443529882
20
-8.68198569080923
30
0
41
1
10
-5.15892238475899
20
-8.4684605676342
30
0
41
1
10
-5.02365441240056
20
-8.30974008062717
30
0
41
1
10
-4.84296399719619
20
-8.05482884459988
30
0
41
1
10
-4.78642322072847
20
-7.96675301550394
30
0
41
1
10
-4.68042079967142
20
-7.78654390286022
30
0
41
1
10
-4.63122526195846
20
-7.69491452027412
30
0
41
1
10
-4.49299887645103
20
-7.41608134345648
30
0
41
1
10
-4.41323038468988
20
-7.22496300624556
30
0
41
1
10
-4.27152687943763
20
-6.8343560263894
30
0
41
1
10
-4.20965906429049
20
-6.6348461887967
30
0
41
1
10
-4.09961007502051
20
-6.2286775881141
30
0
41
1
10
-4.05150917072524
20
-6.02203194443632
30
0
41
1
10
-3.96692144189856
20
-5.6074574550413
30
0
41
1
10
-3.93025488815388
20
-5.39884469275898
30
0
41
1
10
-3.83321097175369
20
-4.76942146087168
30
0
41
1
10
-3.78559277520367
20
-4.34504706257979
30
0
41
1
10
-3.7112361899147
20
-3.48808137992401
30
0
41
1
10
-3.68460707386046
20
-3.05547999795235
30
0
41
1
10
-3.65470782442822
20
-2.40091890566339
30
0
41
1
10
-3.64643900603767
20
-2.18145148399697
30
0
41
1
10
-3.63274891948819
20
-1.74230735687166
30
0
41
1
10
-3.62733252136272
20
-1.52296705685933
30
0
41
1
10
-3.61463310465442
20
-0.865617065631682
30
0
41
1
10
-3.61080933488054
20
-0.428275684574771
30
0
41
1
10
-3.61090950897167
20
0.444684991040077
30
0
41
1
10
-3.61483745040269
20
0.88030412472645
30
0
41
1
10
-3.63179619285316
20
1.74979970758309
30
0
41
1
10
-3.64481102904037
20
2.18367646184913
30
0
41
1
10
-3.68431141261161
20
3.04958358359085
30
0
41
1
10
-3.71074384326306
20
3.48161507013518
30
0
41
1
10
-3.76673696017031
20
4.12812283873399
30
0
41
1
10
-3.78821526595235
20
4.34375014492497
30
0
41
1
10
-3.83787895821774
20
4.77101649951717
30
0
41
1
10
-3.86607610819138
20
4.9829568382882
30
0
41
1
10
-3.96342969061479
20
5.61325776204001
30
0
41
1
10
-4.04484226281082
20
6.02618785295124
30
0
41
1
10
-4.20877761048993
20
6.63176810724454
30
0
41
1
10
-4.27047938114893
20
6.83131020667685
30
0
41
1
10
-4.37747378301123
20
7.12647785984242
30
0
41
1
10
-4.41562361112287
20
7.22427655673613
30
0
41
1
10
-4.49679279030673
20
7.41629459142595
30
0
41
1
10
-4.5398877733324
20
7.51074836914336
30
0
41
1
10
-4.67791145216944
20
7.78892537172752
30
0
41
1
10
-4.78135481362554
20
7.96756739375849
30
0
41
1
10
-4.96130737226687
20
8.22195198147358
30
0
41
1
10
-5.02546297402537
20
8.30446540137604
30
0
41
1
10
-5.16438164479459
20
8.46391044858186
30
0
41
1
10
-5.23841496286948
20
8.53994273964545
30
0
41
1
10
-5.39629023089529
20
8.68187427767452
30
0
41
1
10
-5.4804954947721
20
8.74813957968226
30
0
41
1
10
-5.66096910628903
20
8.86796771603022
30
0
41
1
10
-5.75541196182655
20
8.92033547523616
30
0
41
1
10
-5.90448373735469
20
8.98579651940287
30
0
41
1
10
-5.95541416893875
20
9.00542573092372
30
0
41
1
10
-6.06002939197239
20
9.03984379515771
30
0
41
1
10
-6.1141052041134
20
9.05470732343474
30
0
41
1
10
-6.277583542549
20
9.09042477028081
30
0
41
1
10
-6.38802552881097
20
9.10261500888618
30
0
41
1
10
-6.5
20
9.1026150088862
30
0
0
SPLINE
5
26A
100
AcDbEntity
8
SK1
62
256
6
ByLayer
370
-1
48
1
60
0
100
AcDbSpline
70
4
71
3
72
8
73
4
40
0
40
0
40
0
40
0
40
1
40
1
40
1
40
1
41
1
10
-69
20
-9.10261500888609
30
0
41
1
10
-69.3687115489839
20
-8.2926547802831
30
0
41
1
10
-69.7055026821388
20
-7.46777015601629
30
0
41
1
10
-70
20
-6.62311105146205
30
0
0
SPLINE
5
26B
100
AcDbEntity
8
SK1
62
256
6
ByLayer
370
-1
48
1
60
0
100
AcDbSpline
70
4
71
3
72
8
73
4
40
0
40
0
40
0
40
0
40
1
40
1
40
1
40
1
41
1
10
-70
20
6.62311105146222
30
0
41
1
10
-69.7055026821388
20
7.46777015601646
30
0
41
1
10
-69.3687115489839
20
8.29265478028327
30
0
41
1
10
-69
20
9.10261500888626
30
0
0
LINE
5
45
100
AcDbEntity
8
80
62
256
6
ByLayer
370
-1
48
1
60
0
100
AcDbLine
10
0
20
0
30
0
11
-7
21
0
31
0
39
0
210
0
220
0
230
1
0
LINE
5
46
100
AcDbEntity
8
81
62
256
6
ByLayer
370
-1
48
1
60
0
100
AcDbLine
10
144
20
0
30
0
11
151
21
0
31
0
39
0
210
0
220
0
230
1
0
LINE
5
47
100
AcDbEntity
8
SK1
62
256
6
ByLayer
370
-1
48
1
60
0
100
AcDbLine
10
-2
20
19.996
30
0
11
-66.6
21
19.996
31
0
39
0
210
0
220
0
230
1
0
LINE
5
49
100
AcDbEntity
8
SK1
62
256
6
ByLayer
370
-1
48
1
60
0
100
AcDbLine
10
-66.6
20
-19.996
30
0
11
-2
21
-19.996
31
0
39
0
210
0
220
0
230
1
0
LINE
5
4A
100
AcDbEntity
8
SK1
62
256
6
ByLayer
370
-1
48
1
60
0
100
AcDbLine
10
-2
20
-19.996
30
0
11
-1.552821
21
-19.787477
31
0
39
0
210
0
220
0
230
1
0
LINE
5
4B
100
AcDbEntity
8
SK1
62
256
6
ByLayer
370
-1
48
1
60
0
100
AcDbLine
10
-1.552821
20
19.787477
30
0
11
-2
21
19.996
31
0
39
0
210
0
220
0
230
1
0
LINE
5
4C
100
AcDbEntity
8
SK1
62
256
6
ByLayer
370
-1
48
1
60
0
100
AcDbLine
10
-0.15
20
19.75
30
0
11
-1.383773
21
19.75
31
0
39
0
210
0
220
0
230
1
0
LINE
5
4D
100
AcDbEntity
8
SK1
62
256
6
ByLayer
370
-1
48
1
60
0
100
AcDbLine
10
-1.383773
20
-19.75
30
0
11
-0.15
21
-19.75
31
0
39
0
210
0
220
0
230
1
0
LINE
5
4E
100
AcDbEntity
8
SK1
62
256
6
ByLayer
370
-1
48
1
60
0
100
AcDbLine
10
-68.6
20
-19.996
30
0
11
-68.516223
21
-19.892544
31
0
39
0
210
0
220
0
230
1
0
LINE
5
4F
100
AcDbEntity
8
SK1
62
256
6
ByLayer
370
-1
48
1
60
0
100
AcDbLine
10
-68.516223
20
19.892544
30
0
11
-68.6
21
19.996
31
0
39
0
210
0
220
0
230
1
0
LINE
5
50
100
AcDbEntity
8
SK1
62
256
6
ByLayer
370
-1
48
1
60
0
100
AcDbLine
10
-69
20
19.996
30
0
11
-70
21
18.996
31
0
39
0
210
0
220
0
230
1
0
LINE
5
51
100
AcDbEntity
8
SK1
62
256
6
ByLayer
370
-1
48
1
60
0
100
AcDbLine
10
-70
20
-18.996
30
0
11
-69
21
-19.996
31
0
39
0
210
0
220
0
230
1
0
LINE
5
52
100
AcDbEntity
8
SK1
62
256
6
ByLayer
370
-1
48
1
60
0
100
AcDbLine
10
-68.6
20
19.996
30
0
11
-69
21
19.996
31
0
39
0
210
0
220
0
230
1
0
LINE
5
53
100
AcDbEntity
8
SK1
62
256
6
ByLayer
370
-1
48
1
60
0
100
AcDbLine
10
-69
20
-19.996
30
0
11
-68.6
21
-19.996
31
0
39
0
210
0
220
0
230
1
0
LINE
5
54
100
AcDbEntity
8
SK1
62
256
6
ByLayer
370
-1
48
1
60
0
100
AcDbLine
10
-66.6
20
19.996
30
0
11
-67.633814
21
19.639667
31
0
39
0
210
0
220
0
230
1
0
LINE
5
55
100
AcDbEntity
8
SK1
62
256
6
ByLayer
370
-1
48
1
60
0
100
AcDbLine
10
-67.633814
20
-19.639667
30
0
11
-66.6
21
-19.996
31
0
39
0
210
0
220
0
230
1
0
LINE
5
56
100
AcDbEntity
8
1
62
256
6
ByLayer
370
-1
48
1
60
0
100
AcDbLine
10
5
20
31.25
30
0
11
0.2
21
31.25
31
0
39
0
210
0
220
0
230
1
0
LINE
5
58
100
AcDbEntity
8
1
62
256
6
ByLayer
370
-1
48
1
60
0
100
AcDbLine
10
0.2
20
-31.25
30
0
11
5
21
-31.25
31
0
39
0
210
0
220
0
230
1
0
LINE
5
59
100
AcDbEntity
8
1
62
256
6
ByLayer
370
-1
48
1
60
0
100
AcDbLine
10
0.2
20
31.25
30
0
11
0
21
31.05
31
0
39
0
210
0
220
0
230
1
0
LINE
5
5A
100
AcDbEntity
8
1
62
256
6
ByLayer
370
-1
48
1
60
0
100
AcDbLine
10
0
20
-31.05
30
0
11
0.2
21
-31.25
31
0
39
0
210
0
220
0
230
1
0
LINE
5
5B
100
AcDbEntity
8
1
62
256
6
ByLayer
370
-1
48
1
60
0
100
AcDbLine
10
47.491546
20
24.8
30
0
11
36
21
24.8
31
0
39
0
210
0
220
0
230
1
0
LINE
5
5C
100
AcDbEntity
8
SK4
62
256
6
ByLayer
370
-1
48
0.05
60
0
100
AcDbLine
10
144
20
0
30
0
11
-70
21
0
31
0
39
0
210
0
220
0
230
1
0
LINE
5
5E
100
AcDbEntity
8
4
62
256
6
ByLayer
370
-1
48
0.05
60
0
100
AcDbLine
10
144
20
0
30
0
11
0
21
0
31
0
39
0
210
0
220
0
230
1
0
LINE
5
60
100
AcDbEntity
8
1
62
256
6
ByLayer
370
-1
48
1
60
0
100
AcDbLine
10
141.80562
20
9.805821
30
0
11
141.254187
21
9.835681
31
0
39
0
210
0
220
0
230
1
0
LINE
5
61
100
AcDbEntity
8
1
62
256
6
ByLayer
370
-1
48
1
60
0
100
AcDbLine
10
127.815364
20
17.160943
30
0
11
127.571947
21
24.794728
31
0
39
0
210
0
220
0
230
1
0
LINE
5
62
100
AcDbEntity
8
1
62
256
6
ByLayer
370
-1
48
1
60
0
100
AcDbLine
10
5
20
31.25
30
0
11
5
21
-31.25
31
0
39
0
210
0
220
0
230
1
0
LINE
5
63
100
AcDbEntity
8
1
62
256
6
ByLayer
370
-1
48
1
60
0
100
AcDbLine
10
127.770295
20
15.8476
30
0
11
127.935437
21
11.100493
31
0
39
0
210
0
220
0
230
1
0
LINE
5
64
100
AcDbEntity
8
1
62
256
6
ByLayer
370
-1
48
1
60
0
100
AcDbLine
10
141.731875
20
0.772823
30
0
11
141.743899
21
0.772404
31
0
39
0
210
0
220
0
230
1
0
LINE
5
65
100
AcDbEntity
8
1
62
256
6
ByLayer
370
-1
48
1
60
0
100
AcDbLine
10
127.578098
20
11.100493
30
0
11
127.935437
21
11.100493
31
0
39
0
210
0
220
0
230
1
0
LINE
5
66
100
AcDbEntity
8
1
62
256
6
ByLayer
370
-1
48
1
60
0
100
AcDbLine
10
127.587377
20
24.790506
30
0
11
127.83066
21
17.160943
31
0
39
0
210
0
220
0
230
1
0
LINE
5
67
100
AcDbEntity
8
1
62
256
6
ByLayer
370
-1
48
1
60
0
100
AcDbLine
10
141.801344
20
0.741784
30
0
11
142.540712
21
10.09495
31
0
39
0
210
0
220
0
230
1
0
LINE
5
68
100
AcDbEntity
8
1
62
256
6
ByLayer
370
-1
48
1
60
0
100
AcDbLine
10
127.941572
20
24.766839
30
0
11
127.943797
21
24.697049
31
0
39
0
210
0
220
0
230
1
0
LINE
5
69
100
AcDbEntity
8
1
62
256
6
ByLayer
370
-1
48
1
60
0
100
AcDbLine
10
127.23015
20
3.305537
30
0
11
128.921811
21
9.125205
31
0
39
0
210
0
220
0
230
1
0
LINE
5
6A
100
AcDbEntity
8
1
62
256
6
ByLayer
370
-1
48
1
60
0
100
AcDbLine
10
142.256321
20
-12.340308
30
0
11
142.209344
21
-12.869943
31
0
39
0
210
0
220
0
230
1
0
LINE
5
6B
100
AcDbEntity
8
1
62
256
6
ByLayer
370
-1
48
1
60
0
100
AcDbLine
10
121.936585
20
14.9
30
0
11
123.903974
21
14.9
31
0
39
0
210
0
220
0
230
1
0
LINE
5
6C
100
AcDbEntity
8
1
62
256
6
ByLayer
370
-1
48
1
60
0
100
AcDbLine
10
141.636663
20
-0.538588
30
0
11
142.256321
21
-12.340308
31
0
39
0
210
0
220
0
230
1
0
LINE
5
6D
100
AcDbEntity
8
1
62
256
6
ByLayer
370
-1
48
1
60
0
100
AcDbLine
10
123.903974
20
24.786031
30
0
11
123.903974
21
14.9
31
0
39
0
210
0
220
0
230
1
0
LINE
5
6E
100
AcDbEntity
8
1
62
256
6
ByLayer
370
-1
48
1
60
0
100
AcDbLine
10
141.778259
20
-24.771697
30
0
11
142.749407
21
-13.822635
31
0
39
0
210
0
220
0
230
1
0
LINE
5
6F
100
AcDbEntity
8
1
62
256
6
ByLayer
370
-1
48
1
60
0
100
AcDbLine
10
141.640472
20
0.025853
30
0
11
141.636663
21
-0.538588
31
0
39
0
210
0
220
0
230
1
0
LINE
5
70
100
AcDbEntity
8
1
62
256
6
ByLayer
370
-1
48
1
60
0
100
AcDbLine
10
121.936585
20
24.757847
30
0
11
121.936585
21
14.9
31
0
39
0
210
0
220
0
230
1
0
LINE
5
71
100
AcDbEntity
8
1
62
256
6
ByLayer
370
-1
48
1
60
0
100
AcDbLine
10
141.691982
20
0.682641
30
0
11
141.778178
21
0.679636
31
0
39
0
210
0
220
0
230
1
0
LINE
5
72
100
AcDbEntity
8
1
62
256
6
ByLayer
370
-1
48
1
60
0
100
AcDbLine
10
141.743899
20
0.772404
30
0
11
141.801344
21
0.741784
31
0
39
0
210
0
220
0
230
1
0
LINE
5
73
100
AcDbEntity
8
1
62
256
6
ByLayer
370
-1
48
1
60
0
100
AcDbLine
10
128.03604
20
17.357547
30
0
11
128.06539
21
17.357547
31
0
39
0
210
0
220
0
230
1
0
LINE
5
74
100
AcDbEntity
8
1
62
256
6
ByLayer
370
-1
48
1
60
0
100
AcDbLine
10
0.2
20
31.25
30
0
11
0.2
21
-31.25
31
0
39
0
210
0
220
0
230
1
0
LINE
5
75
100
AcDbEntity
8
1
62
256
6
ByLayer
370
-1
48
1
60
0
100
AcDbLine
10
0
20
31.05
30
0
11
0
21
-31.05
31
0
39
0
210
0
220
0
230
1
0
LINE
5
76
100
AcDbEntity
8
1
62
256
6
ByLayer
370
-1
48
1
60
0
100
AcDbLine
10
141.778178
20
0.679636
30
0
11
141.801344
21
0.741784
31
0
39
0
210
0
220
0
230
1
0
LINE
5
77
100
AcDbEntity
8
1
62
256
6
ByLayer
370
-1
48
1
60
0
100
AcDbLine
10
128.127545
20
9.634868
30
0
11
128.17565
21
9.634868
31
0
39
0
210
0
220
0
230
1
0
LINE
5
78
100
AcDbEntity
8
1
62
256
6
ByLayer
370
-1
48
1
60
0
100
AcDbLine
10
36
20
24.8
30
0
11
36
21
-4.749307
31
0
39
0
210
0
220
0
230
1
0
LINE
5
79
100
AcDbEntity
8
1
62
256
6
ByLayer
370
-1
48
1
60
0
100
AcDbLine
10
139.195404
20
4.02999
30
0
11
141.80562
21
9.805821
31
0
39
0
210
0
220
0
230
1
0
LINE
5
7A
100
AcDbEntity
8
1
62
256
6
ByLayer
370
-1
48
1
60
0
100
AcDbLine
10
118.717972
20
6.089455
30
0
11
118.390315
21
4.962249
31
0
39
0
210
0
220
0
230
1
0
LINE
5
7B
100
AcDbEntity
8
1
62
256
6
ByLayer
370
-1
48
1
60
0
100
AcDbLine
10
142.256321
20
-12.340308
30
0
11
140.208457
21
-11.427836
31
0
39
0
210
0
220
0
230
1
0
LINE
5
7C
100
AcDbEntity
8
1
62
256
6
ByLayer
370
-1
48
1
60
0
100
AcDbLine
10
142.232352
20
-13.760177
30
0
11
142.749407
21
-13.822635
31
0
39
0
210
0
220
0
230
1
0
LINE
5
7D
100
AcDbEntity
8
1
62
256
6
ByLayer
370
-1
48
1
60
0
100
AcDbLine
10
141.464991
20
9.835682
30
0
11
142.123134
21
9.801058
31
0
39
0
210
0
220
0
230
1
0
LINE
5
7E
100
AcDbEntity
8
1
62
256
6
ByLayer
370
-1
48
1
60
0
100
AcDbLine
10
121.82398
20
14.801142
30
0
11
97.592052
21
18.57643
31
0
39
0
210
0
220
0
230
1
0
LINE
5
7F
100
AcDbEntity
8
1
62
256
6
ByLayer
370
-1
48
1
60
0
100
AcDbLine
10
127.412956
20
15.8476
30
0
11
127.770295
21
15.8476
31
0
39
0
210
0
220
0
230
1
0
LINE
5
80
100
AcDbEntity
8
1
62
256
6
ByLayer
370
-1
48
1
60
0
100
AcDbLine
10
124.656084
20
-24.771697
30
0
11
141.778259
21
-24.771697
31
0
39
0
210
0
220
0
230
1
0
LINE
5
81
100
AcDbEntity
8
1
62
256
6
ByLayer
370
-1
48
1
60
0
100
AcDbLine
10
141.254187
20
9.835681
30
0
11
141.464917
21
9.835681
31
0
39
0
210
0
220
0
230
1
0
LINE
5
82
100
AcDbEntity
8
1
62
256
6
ByLayer
370
-1
48
1
60
0
100
AcDbLine
10
142.123134
20
9.801058
30
0
11
141.80562
21
9.805821
31
0
39
0
210
0
220
0
230
1
0
LINE
5
83
100
AcDbEntity
8
1
62
256
6
ByLayer
370
-1
48
1
60
0
100
AcDbLine
10
127.412956
20
15.8476
30
0
11
127.578098
21
11.100493
31
0
39
0
210
0
220
0
230
1
0
LINE
5
84
100
AcDbEntity
8
1
62
256
6
ByLayer
370
-1
48
1
60
0
100
AcDbLine
10
127.815364
20
17.160943
30
0
11
127.83066
21
17.160943
31
0
39
0
210
0
220
0
230
1
0
LINE
5
85
100
AcDbEntity
8
1
62
256
6
ByLayer
370
-1
48
1
60
0
100
AcDbLine
10
141.636663
20
-0.538588
30
0
11
139.158362
21
0.565675
31
0
39
0
210
0
220
0
230
1
0
LINE
5
86
100
AcDbEntity
8
1
62
256
6
ByLayer
370
-1
48
1
60
0
100
AcDbLine
10
130.689937
20
9.46536
30
0
11
141.254187
21
9.835681
31
0
39
0
210
0
220
0
230
1
0
LINE
5
87
100
AcDbEntity
8
1
62
256
6
ByLayer
370
-1
48
1
60
0
100
AcDbLine
10
142.548934
20
-7.364656
30
0
11
142.281276
21
-2.266968
31
0
39
0
210
0
220
0
230
1
0
LINE
5
88
100
AcDbEntity
8
1
62
256
6
ByLayer
370
-1
48
1
60
0
100
AcDbLine
10
142.355464
20
0.274105
30
0
11
143.219159
21
-2.094451
31
0
39
0
210
0
220
0
230
1
0
LINE
5
89
100
AcDbEntity
8
1
62
256
6
ByLayer
370
-1
48
1
60
0
100
AcDbLine
10
143.999513
20
-9.735582
30
0
11
143.900049
21
-12.578533
31
0
39
0
210
0
220
0
230
1
0
LINE
5
8A
100
AcDbEntity
8
1
62
256
6
ByLayer
370
-1
48
1
60
0
100
AcDbLine
10
142.281276
20
-2.266968
30
0
11
143.003373
21
-2.357397
31
0
39
0
210
0
220
0
230
1
0
LINE
5
8B
100
AcDbEntity
8
1
62
256
6
ByLayer
370
-1
48
1
60
0
100
AcDbLine
10
142.548934
20
-7.364656
30
0
11
143.271031
21
-7.455085
31
0
39
0
210
0
220
0
230
1
0
LINE
5
8C
100
AcDbEntity
8
1
62
256
6
ByLayer
370
-1
48
1
60
0
100
AcDbLine
10
142.217396
20
-1.953572
30
0
11
142.896876
21
-1.834925
31
0
39
0
210
0
220
0
230
1
0
LINE
5
8D
100
AcDbEntity
8
1
62
256
6
ByLayer
370
-1
48
1
60
0
100
AcDbLine
10
142.420906
20
-13.245238
30
0
11
142.183481
21
-13.331492
31
0
39
0
210
0
220
0
230
1
0
LINE
5
8E
100
AcDbEntity
8
1
62
256
6
ByLayer
370
-1
48
1
60
0
100
AcDbLine
10
141.748542
20
-0.66781
30
0
11
142.428022
21
-0.549162
31
0
39
0
210
0
220
0
230
1
0
LINE
5
8F
100
AcDbEntity
8
1
62
256
6
ByLayer
370
-1
48
1
60
0
100
AcDbLine
10
141.748542
20
-0.66781
30
0
11
142.217396
21
-1.953572
31
0
39
0
210
0
220
0
230
1
0
LINE
5
90
100
AcDbEntity
8
1
62
256
6
ByLayer
370
-1
48
1
60
0
100
AcDbLine
10
143.003373
20
-2.357397
30
0
11
143.271031
21
-7.455085
31
0
39
0
210
0
220
0
230
1
0
LINE
5
91
100
AcDbEntity
8
1
62
256
6
ByLayer
370
-1
48
1
60
0
100
AcDbLine
10
143.741822
20
-9.598398
30
0
11
143.674486
21
-11.52305
31
0
39
0
210
0
220
0
230
1
0
LINE
5
92
100
AcDbEntity
8
1
62
256
6
ByLayer
370
-1
48
1
60
0
100
AcDbLine
10
143.528525
20
-7.569818
30
0
11
143.271031
21
-7.455085
31
0
39
0
210
0
220
0
230
1
0
LINE
5
93
100
AcDbEntity
8
1
62
256
6
ByLayer
370
-1
48
1
60
0
100
AcDbLine
10
143.999513
20
-9.735582
30
0
11
143.741822
21
-9.598398
31
0
39
0
210
0
220
0
230
1
0
LINE
5
94
100
AcDbEntity
8
1
62
256
6
ByLayer
370
-1
48
1
60
0
100
AcDbLine
10
142.428022
20
-0.549162
30
0
11
142.896876
21
-1.834925
31
0
39
0
210
0
220
0
230
1
0
LINE
5
95
100
AcDbEntity
8
1
62
256
6
ByLayer
370
-1
48
1
60
0
100
AcDbLine
10
143.528525
20
-7.569818
30
0
11
143.248628
21
-2.239023
31
0
39
0
210
0
220
0
230
1
0
LINE
5
96
100
AcDbEntity
8
1
62
256
6
ByLayer
370
-1
48
1
60
0
100
AcDbLine
10
142.951839
20
-11.36966
30
0
11
143.674486
21
-11.52305
31
0
39
0
210
0
220
0
230
1
0
LINE
5
97
100
AcDbEntity
8
1
62
256
6
ByLayer
370
-1
48
1
60
0
100
AcDbLine
10
143.20714
20
-13.094808
30
0
11
143.374153
21
-13.301017
31
0
39
0
210
0
220
0
230
1
0
LINE
5
98
100
AcDbEntity
8
1
62
256
6
ByLayer
370
-1
48
1
60
0
100
AcDbLine
10
143.019175
20
-9.445007
30
0
11
142.951839
21
-11.36966
31
0
39
0
210
0
220
0
230
1
0
LINE
5
99
100
AcDbEntity
8
1
62
256
6
ByLayer
370
-1
48
1
60
0
100
AcDbLine
10
142.652021
20
-11.35921
30
0
11
142.719357
21
-9.434557
31
0
39
0
210
0
220
0
230
1
0
LINE
5
9A
100
AcDbEntity
8
1
62
256
6
ByLayer
370
-1
48
1
60
0
100
AcDbLine
10
143.019175
20
-9.445007
30
0
11
143.741822
21
-9.598398
31
0
39
0
210
0
220
0
230
1
0
LINE
5
9B
100
AcDbEntity
8
1
62
256
6
ByLayer
370
-1
48
1
60
0
100
AcDbLine
10
141.981687
20
-2.282639
30
0
11
142.249345
21
-7.380328
31
0
39
0
210
0
220
0
230
1
0
LINE
5
9C
100
AcDbEntity
8
1
62
256
6
ByLayer
370
-1
48
1
60
0
100
AcDbLine
10
143.784389
20
-8.632408
30
0
11
143.548886
21
-8.609004
31
0
39
0
210
0
220
0
230
1
0
LINE
5
9D
100
AcDbEntity
8
1
62
256
6
ByLayer
370
-1
48
1
60
0
100
AcDbLine
10
142.969495
20
-2.019866
30
0
11
143.219159
21
-2.094451
31
0
39
0
210
0
220
0
230
1
0
LINE
5
9E
100
AcDbEntity
8
1
62
256
6
ByLayer
370
-1
48
1
60
0
100
AcDbLine
10
142.234123
20
0.192497
30
0
11
142.355464
21
0.274105
31
0
39
0
210
0
220
0
230
1
0
LINE
5
9F
100
AcDbEntity
8
1
62
256
6
ByLayer
370
-1
48
1
60
0
100
AcDbLine
10
143.374153
20
-13.301017
30
0
11
142.208092
21
-13.724637
31
0
39
0
210
0
220
0
230
1
0
LINE
5
A0
100
AcDbEntity
8
1
62
256
6
ByLayer
370
-1
48
1
60
0
100
AcDbLine
10
142.998964
20
-2.164438
30
0
11
143.248628
21
-2.239023
31
0
39
0
210
0
220
0
230
1
0
LINE
5
A1
100
AcDbEntity
8
1
62
256
6
ByLayer
370
-1
48
1
60
0
100
AcDbLine
10
141.935488
20
-2.055987
30
0
11
141.679472
21
-1.3539
31
0
39
0
210
0
220
0
230
1
0
LINE
5
A2
100
AcDbEntity
8
1
62
256
6
ByLayer
370
-1
48
1
60
0
100
AcDbLine
10
142.88846
20
-8.774691
30
0
11
143.548886
21
-8.609004
31
0
39
0
210
0
220
0
230
1
0
LINE
5
A3
100
AcDbEntity
8
1
62
256
6
ByLayer
370
-1
48
1
60
0
100
AcDbLine
10
143.733037
20
-12.372324
30
0
11
143.900049
21
-12.578533
31
0
39
0
210
0
220
0
230
1
0
LINE
5
A4
100
AcDbEntity
8
1
62
256
6
ByLayer
370
-1
48
1
60
0
100
AcDbLine
10
142.230987
20
-12.625962
30
0
11
142.420906
21
-13.245238
31
0
39
0
210
0
220
0
230
1
0
LINE
5
A5
100
AcDbEntity
8
1
62
256
6
ByLayer
370
-1
48
1
60
0
100
AcDbLine
10
131.367516
20
22.111028
30
0
11
131.524664
21
21.529078
31
0
39
0
210
0
220
0
230
1
0
LINE
5
A6
100
AcDbEntity
8
1
62
256
6
ByLayer
370
-1
48
1
60
0
100
AcDbLine
10
130.668446
20
21.121847
30
0
11
132.030873
21
19.84651
31
0
39
0
210
0
220
0
230
1
0
LINE
5
A7
100
AcDbEntity
8
1
62
256
6
ByLayer
370
-1
48
1
60
0
100
AcDbLine
10
142.032452
20
12.128711
30
0
11
141.63785
21
23.471797
31
0
39
0
210
0
220
0
230
1
0
LINE
5
A8
100
AcDbEntity
8
1
62
256
6
ByLayer
370
-1
48
1
60
0
100
AcDbLine
10
130.372073
20
9.768616
30
0
11
141.671995
21
10.164725
31
0
39
0
210
0
220
0
230
1
0
LINE
5
A9
100
AcDbEntity
8
1
62
256
6
ByLayer
370
-1
48
1
60
0
100
AcDbLine
10
132.235619
20
21.235483
30
0
11
132.816263
21
20.691955
31
0
39
0
210
0
220
0
230
1
0
LINE
5
AA
100
AcDbEntity
8
1
62
256
6
ByLayer
370
-1
48
1
60
0
100
AcDbLine
10
132.320033
20
14.209074
30
0
11
132.468662
21
14.069946
31
0
39
0
210
0
220
0
230
1
0
LINE
5
AB
100
AcDbEntity
8
1
62
256
6
ByLayer
370
-1
48
1
60
0
100
AcDbLine
10
131.869631
20
22.41488
30
0
11
133.232058
21
21.139543
31
0
39
0
210
0
220
0
230
1
0
LINE
5
AC
100
AcDbEntity
8
1
62
256
6
ByLayer
370
-1
48
1
60
0
100
AcDbLine
10
141.590174
20
11.934968
30
0
11
130.290252
21
11.538858
31
0
39
0
210
0
220
0
230
1
0
LINE
5
AD
100
AcDbEntity
8
1
62
256
6
ByLayer
370
-1
48
1
60
0
100
AcDbLine
10
131.898971
20
14.167596
30
0
11
131.885375
21
14.180323
31
0
39
0
210
0
220
0
230
1
0
LINE
5
AE
100
AcDbEntity
8
1
62
256
6
ByLayer
370
-1
48
1
60
0
100
AcDbLine
10
141.654285
20
10.967029
30
0
11
130.354363
21
10.57092
31
0
39
0
210
0
220
0
230
1
0
LINE
5
AF
100
AcDbEntity
8
1
62
256
6
ByLayer
370
-1
48
1
60
0
100
AcDbLine
10
141.761852
20
12.119773
30
0
11
141.36725
21
23.462859
31
0
39
0
210
0
220
0
230
1
0
LINE
5
B0
100
AcDbEntity
8
1
62
256
6
ByLayer
370
-1
48
1
60
0
100
AcDbLine
10
141.614707
20
11.679023
30
0
11
130.314785
21
11.282914
31
0
39
0
210
0
220
0
230
1
0
LINE
5
B1
100
AcDbEntity
8
1
62
256
6
ByLayer
370
-1
48
1
60
0
100
AcDbLine
10
143.545596
20
12.181592
30
0
11
143.150994
21
23.524677
31
0
39
0
210
0
220
0
230
1
0
LINE
5
B2
100
AcDbEntity
8
1
62
256
6
ByLayer
370
-1
48
1
60
0
100
AcDbLine
10
129.472206
20
23.045341
30
0
11
129.866808
21
11.702255
31
0
39
0
210
0
220
0
230
1
0
LINE
5
B3
100
AcDbEntity
8
1
62
256
6
ByLayer
370
-1
48
1
60
0
100
AcDbLine
10
131.653572
20
14.389014
30
0
11
132.128245
21
14.899983
31
0
39
0
210
0
220
0
230
1
0
LINE
5
B4
100
AcDbEntity
8
1
62
256
6
ByLayer
370
-1
48
1
60
0
100
AcDbLine
10
130.935379
20
21.645848
30
0
11
131.524664
21
21.529078
31
0
39
0
210
0
220
0
230
1
0
LINE
5
B5
100
AcDbEntity
8
1
62
256
6
ByLayer
370
-1
48
1
60
0
100
AcDbLine
10
128.793584
20
25.072613
30
0
11
141.139089
21
25.505375
31
0
39
0
210
0
220
0
230
1
0
LINE
5
B6
100
AcDbEntity
8
1
62
256
6
ByLayer
370
-1
48
1
60
0
100
AcDbLine
10
143.107177
20
12.165932
30
0
11
142.712575
21
23.509018
31
0
39
0
210
0
220
0
230
1
0
LINE
5
B7
100
AcDbEntity
8
1
62
256
6
ByLayer
370
-1
48
1
60
0
100
AcDbLine
10
141.188688
20
24.280037
30
0
11
129.888766
21
23.883928
31
0
39
0
210
0
220
0
230
1
0
LINE
5
B8
100
AcDbEntity
8
1
62
256
6
ByLayer
370
-1
48
1
60
0
100
AcDbLine
10
140.392221
20
12.941979
30
0
11
137.405457
21
12.83728
31
0
39
0
210
0
220
0
230
1
0
LINE
5
B9
100
AcDbEntity
8
1
62
256
6
ByLayer
370
-1
48
1
60
0
100
AcDbLine
10
128.423324
20
23.00812
30
0
11
128.817926
21
11.665034
31
0
39
0
210
0
220
0
230
1
0
LINE
5
BA
100
AcDbEntity
8
1
62
256
6
ByLayer
370
-1
48
1
60
0
100
AcDbLine
10
141.588389
20
11.963629
30
0
11
130.288467
21
11.56752
31
0
39
0
210
0
220
0
230
1
0
LINE
5
BB
100
AcDbEntity
8
1
62
256
6
ByLayer
370
-1
48
1
60
0
100
AcDbLine
10
131.653572
20
14.389014
30
0
11
131.653987
21
14.388626
31
0
39
0
210
0
220
0
230
1
0
LINE
5
BC
100
AcDbEntity
8
1
62
256
6
ByLayer
370
-1
48
1
60
0
100
AcDbLine
10
140.576167
20
16.250438
30
0
11
140.680467
21
13.252266
31
0
39
0
210
0
220
0
230
1
0
LINE
5
BD
100
AcDbEntity
8
1
62
256
6
ByLayer
370
-1
48
1
60
0
100
AcDbLine
10
141.183357
20
23.606532
30
0
11
129.883435
21
23.210423
31
0
39
0
210
0
220
0
230
1
0
LINE
5
BE
100
AcDbEntity
8
1
62
256
6
ByLayer
370
-1
48
1
60
0
100
AcDbLine
10
140.860055
20
13.258698
30
0
11
140.755755
21
16.256871
31
0
39
0
210
0
220
0
230
1
0
LINE
5
BF
100
AcDbEntity
8
1
62
256
6
ByLayer
370
-1
48
1
60
0
100
AcDbLine
10
129.09713
20
23.03176
30
0
11
129.491732
21
11.688674
31
0
39
0
210
0
220
0
230
1
0
LINE
5
C0
100
AcDbEntity
8
1
62
256
6
ByLayer
370
-1
48
1
60
0
100
AcDbLine
10
142.432216
20
12.142292
30
0
11
142.037614
21
23.485378
31
0
39
0
210
0
220
0
230
1
0
LINE
5
C1
100
AcDbEntity
8
1
62
256
6
ByLayer
370
-1
48
1
60
0
100
AcDbLine
10
141.165716
20
24.956997
30
0
11
129.865794
21
24.560888
31
0
39
0
210
0
220
0
230
1
0
LINE
5
C2
100
AcDbEntity
8
1
62
256
6
ByLayer
370
-1
48
1
60
0
100
AcDbLine
10
128.777731
20
23.020477
30
0
11
129.172333
21
11.677391
31
0
39
0
210
0
220
0
230
1
0
LINE
5
C3
100
AcDbEntity
8
1
62
256
6
ByLayer
370
-1
48
1
60
0
100
AcDbLine
10
140.471505
20
19.259012
30
0
11
140.367205
21
22.257184
31
0
39
0
210
0
220
0
230
1
0
LINE
5
C4
100
AcDbEntity
8
1
62
256
6
ByLayer
370
-1
48
1
60
0
100
AcDbLine
10
132.235619
20
21.235483
30
0
11
132.241562
21
21.213475
31
0
39
0
210
0
220
0
230
1
0
LINE
5
C5
100
AcDbEntity
8
1
62
256
6
ByLayer
370
-1
48
1
60
0
100
AcDbLine
10
127.96828
20
22.99246
30
0
11
128.362882
21
11.649374
31
0
39
0
210
0
220
0
230
1
0
LINE
5
C6
100
AcDbEntity
8
1
62
256
6
ByLayer
370
-1
48
1
60
0
100
AcDbLine
10
141.64058
20
11.290124
30
0
11
130.340658
21
10.894014
31
0
39
0
210
0
220
0
230
1
0
LINE
5
C7
100
AcDbEntity
8
1
62
256
6
ByLayer
370
-1
48
1
60
0
100
AcDbLine
10
131.866024
20
20.837626
30
0
11
132.446668
21
20.294099
31
0
39
0
210
0
220
0
230
1
0
LINE
5
C8
100
AcDbEntity
8
1
62
256
6
ByLayer
370
-1
48
1
60
0
100
AcDbLine
10
142.756546
20
12.153574
30
0
11
142.361944
21
23.49666
31
0
39
0
210
0
220
0
230
1
0
LINE
5
C9
100
AcDbEntity
8
1
62
256
6
ByLayer
370
-1
48
1
60
0
100
AcDbLine
10
140.651093
20
19.265445
30
0
11
140.546793
21
22.263617
31
0
39
0
210
0
220
0
230
1
0
LINE
5
CA
100
AcDbEntity
8
1
62
256
6
ByLayer
370
-1
48
1
60
0
100
AcDbLine
10
141.664707
20
10.613164
30
0
11
130.364785
21
10.217055
31
0
39
0
210
0
220
0
230
1
0
LINE
5
CB
100
AcDbEntity
8
1
62
256
6
ByLayer
370
-1
48
1
60
0
100
AcDbLine
10
137.407944
20
12.653069
30
0
11
140.394707
21
12.757768
31
0
39
0
210
0
220
0
230
1
0
LINE
5
CC
100
AcDbEntity
8
1
62
256
6
ByLayer
370
-1
48
1
60
0
100
AcDbLine
10
131.866024
20
20.837626
30
0
11
131.888308
21
20.833211
31
0
39
0
210
0
220
0
230
1
0
LINE
5
CD
100
AcDbEntity
8
1
62
256
6
ByLayer
370
-1
48
1
60
0
100
AcDbLine
10
129.711547
20
23.054278
30
0
11
130.106149
21
11.711192
31
0
39
0
210
0
220
0
230
1
0
LINE
5
CE
100
AcDbEntity
8
1
62
256
6
ByLayer
370
-1
48
1
60
0
100
AcDbLine
10
141.189873
20
23.891138
30
0
11
129.889951
21
23.495029
31
0
39
0
210
0
220
0
230
1
0
LINE
5
CF
100
AcDbEntity
8
1
62
256
6
ByLayer
370
-1
48
1
60
0
100
AcDbLine
10
141.141803
20
25.405436
30
0
11
129.841881
21
25.009326
31
0
39
0
210
0
220
0
230
1
0
LINE
5
D0
100
AcDbEntity
8
1
62
256
6
ByLayer
370
-1
48
1
60
0
100
AcDbLine
10
141.732512
20
12.118772
30
0
11
141.33791
21
23.461858
31
0
39
0
210
0
220
0
230
1
0
LINE
5
D1
100
AcDbEntity
8
1
62
256
6
ByLayer
370
-1
48
1
60
0
100
AcDbLine
10
140.058099
20
22.546532
30
0
11
137.071335
21
22.441833
31
0
39
0
210
0
220
0
230
1
0
LINE
5
D2
100
AcDbEntity
8
1
62
256
6
ByLayer
370
-1
48
1
60
0
100
AcDbLine
10
128.300598
20
10.596307
30
0
11
127.869483
21
22.98897
31
0
39
0
210
0
220
0
230
1
0
LINE
5
D3
100
AcDbEntity
8
1
62
256
6
ByLayer
370
-1
48
1
60
0
100
AcDbLine
10
142.721817
20
10.101438
30
0
11
130.376312
21
9.668677
31
0
39
0
210
0
220
0
230
1
0
LINE
5
D4
100
AcDbEntity
8
1
62
256
6
ByLayer
370
-1
48
1
60
0
100
AcDbLine
10
131.681296
20
13.970177
30
0
11
132.052867
21
13.622357
31
0
39
0
210
0
220
0
230
1
0
LINE
5
D5
100
AcDbEntity
8
1
62
256
6
ByLayer
370
-1
48
1
60
0
100
AcDbLine
10
141.183148
20
23.635193
30
0
11
129.883226
21
23.239084
31
0
39
0
210
0
220
0
230
1
0
LINE
5
D6
100
AcDbEntity
8
1
62
256
6
ByLayer
370
-1
48
1
60
0
100
AcDbLine
10
140.047768
20
22.730743
30
0
11
137.061005
21
22.626044
31
0
39
0
210
0
220
0
230
1
0
LINE
5
D7
100
AcDbEntity
8
1
62
256
6
ByLayer
370
-1
48
1
60
0
100
AcDbLine
10
129.739311
20
23.055279
30
0
11
130.133913
21
11.712193
31
0
39
0
210
0
220
0
230
1
0
LINE
5
D8
100
AcDbEntity
8
1
62
256
6
ByLayer
370
-1
48
1
60
0
100
AcDbLine
10
132.320033
20
14.209074
30
0
11
132.45476
21
14.354102
31
0
39
0
210
0
220
0
230
1
0
LINE
5
D9
100
AcDbEntity
8
1
62
256
6
ByLayer
370
-1
48
1
60
0
100
AcDbLine
10
141.179914
20
24.603132
30
0
11
129.879991
21
24.207022
31
0
39
0
210
0
220
0
230
1
0
LINE
5
DA
100
AcDbEntity
8
1
62
256
6
ByLayer
370
-1
48
1
60
0
100
AcDbLine
10
143.214803
20
24.577744
30
0
11
143.645918
21
12.185082
31
0
39
0
210
0
220
0
230
1
0
LINE
5
DB
100
AcDbEntity
8
SK1
62
256
6
ByLayer
370
-1
48
1
60
0
100
AcDbLine
10
-2
20
-19.996
30
0
11
-2
21
19.996
31
0
39
0
210
0
220
0
230
1
0
LINE
5
DC
100
AcDbEntity
8
SK1
62
256
6
ByLayer
370
-1
48
1
60
0
100
AcDbLine
10
-1.552821
20
19.787477
30
0
11
-1.552821
21
-19.787477
31
0
39
0
210
0
220
0
230
1
0
LINE
5
DD
100
AcDbEntity
8
SK1
62
256
6
ByLayer
370
-1
48
1
60
0
100
AcDbLine
10
-68.6
20
-9.102615
30
0
11
-69
21
-9.102615
31
0
39
0
210
0
220
0
230
1
0
LINE
5
DE
100
AcDbEntity
8
SK1
62
256
6
ByLayer
370
-1
48
1
60
0
100
AcDbLine
10
-1.383773
20
19.75
30
0
11
-1.383773
21
-19.75
31
0
39
0
210
0
220
0
230
1
0
LINE
5
DF
100
AcDbEntity
8
SK1
62
256
6
ByLayer
370
-1
48
1
60
0
100
AcDbLine
10
-68.516223
20
-8.873042
30
0
11
-68.516223
21
-19.892544
31
0
39
0
210
0
220
0
230
1
0
LINE
5
E0
100
AcDbEntity
8
SK1
62
256
6
ByLayer
370
-1
48
1
60
0
100
AcDbLine
10
-68.516223
20
19.892544
30
0
11
-68.516223
21
8.873042
31
0
39
0
210
0
220
0
230
1
0
LINE
5
E1
100
AcDbEntity
8
SK1
62
256
6
ByLayer
370
-1
48
1
60
0
100
AcDbLine
10
-70
20
-6.623111
30
0
11
-70
21
-18.996
31
0
39
0
210
0
220
0
230
1
0
LINE
5
E2
100
AcDbEntity
8
SK1
62
256
6
ByLayer
370
-1
48
1
60
0
100
AcDbLine
10
-70
20
18.996
30
0
11
-70
21
6.623111
31
0
39
0
210
0
220
0
230
1
0
LINE
5
E3
100
AcDbEntity
8
SK1
62
256
6
ByLayer
370
-1
48
1
60
0
100
AcDbLine
10
-66.6
20
9.102615
30
0
11
-66.6
21
19.996
31
0
39
0
210
0
220
0
230
1
0
LINE
5
E4
100
AcDbEntity
8
SK1
62
256
6
ByLayer
370
-1
48
1
60
0
100
AcDbLine
10
-66.6
20
-19.996
30
0
11
-66.6
21
-9.102615
31
0
39
0
210
0
220
0
230
1
0
LINE
5
E5
100
AcDbEntity
8
SK1
62
256
6
ByLayer
370
-1
48
1
60
0
100
AcDbLine
10
-68.6
20
-19.996
30
0
11
-68.6
21
-9.102615
31
0
39
0
210
0
220
0
230
1
0
LINE
5
E6
100
AcDbEntity
8
SK1
62
256
6
ByLayer
370
-1
48
1
60
0
100
AcDbLine
10
-68.6
20
9.102615
30
0
11
-68.6
21
19.996
31
0
39
0
210
0
220
0
230
1
0
LINE
5
E7
100
AcDbEntity
8
SK1
62
256
6
ByLayer
370
-1
48
1
60
0
100
AcDbLine
10
-6.5
20
-9.102615
30
0
11
-66.6
21
-9.102615
31
0
39
0
210
0
220
0
230
1
0
LINE
5
E8
100
AcDbEntity
8
SK1
62
256
6
ByLayer
370
-1
48
1
60
0
100
AcDbLine
10
-70
20
6.623111
30
0
11
-70
21
-6.623111
31
0
39
0
210
0
220
0
230
1
0
LINE
5
E9
100
AcDbEntity
8
SK1
62
256
6
ByLayer
370
-1
48
1
60
0
100
AcDbLine
10
-69
20
-9.102615
30
0
11
-69
21
-19.996
31
0
39
0
210
0
220
0
230
1
0
LINE
5
EA
100
AcDbEntity
8
SK1
62
256
6
ByLayer
370
-1
48
1
60
0
100
AcDbLine
10
-69
20
19.996
30
0
11
-69
21
9.102615
31
0
39
0
210
0
220
0
230
1
0
LINE
5
EB
100
AcDbEntity
8
SK1
62
256
6
ByLayer
370
-1
48
1
60
0
100
AcDbLine
10
-0.15
20
19.75
30
0
11
-0.15
21
-19.75
31
0
39
0
210
0
220
0
230
1
0
LINE
5
EC
100
AcDbEntity
8
SK1
62
256
6
ByLayer
370
-1
48
1
60
0
100
AcDbLine
10
-69
20
9.102615
30
0
11
-68.6
21
9.102615
31
0
39
0
210
0
220
0
230
1
0
LINE
5
ED
100
AcDbEntity
8
SK1
62
256
6
ByLayer
370
-1
48
1
60
0
100
AcDbLine
10
-67.633814
20
-8.290603
30
0
11
-67.633814
21
-19.639667
31
0
39
0
210
0
220
0
230
1
0
LINE
5
EE
100
AcDbEntity
8
SK1
62
256
6
ByLayer
370
-1
48
1
60
0
100
AcDbLine
10
-67.633814
20
19.639667
30
0
11
-67.633814
21
8.290603
31
0
39
0
210
0
220
0
230
1
0
LINE
5
EF
100
AcDbEntity
8
SK1
62
256
6
ByLayer
370
-1
48
1
60
0
100
AcDbLine
10
-66.6
20
9.102615
30
0
11
-6.5
21
9.102615
31
0
39
0
210
0
220
0
230
1
0
LINE
5
F0
100
AcDbEntity
8
SK1
62
256
6
ByLayer
370
-1
48
1
60
0
100
AcDbLine
10
-6.5
20
9.102615
30
0
11
-6.5
21
-9.102615
31
0
39
0
210
0
220
0
230
1
0
MTEXT
5
26C
100
AcDbEntity
8
SK6
62
256
6
ByLayer
370
-1
48
1
60
0
100
AcDbMText
10
0.79375
20
-80.79375
30
0
210
0
220
0
230
1
1
\W00.730;\fsimplex.shx,bigfont.shx;880-D5100L40-02 
40
3.175
41
0
44
1.084337
50
0
71
7
72
5
7
DEFAULT
0
DIMENSION
5
29C
100
AcDbEntity
8
SK2
62
256
6
ByLayer
370
-3
48
1
60
0
100
AcDbDimension
2
DimnDraft3D1
10
144
20
-70.11955
30
0
11
37
21
-70.11955
31
0
70
32
71
5
72
1
41
1
210
0
220
0
230
1
3
Standard
100
AcDbAlignedDimension
13
-70
23
-21.5875
33
0
14
144
24
-27.0875
34
0
50
0
100
AcDbRotatedDimension
1001
ACAD
1000
DSTYLE
1002
{
1070
   279
1070
     0
1070
   172
1070
     1
1070
   173
1070
     1
1070
   340
1005
26D
1070
   271
1070
     1
1070
   272
1070
     2
1070
    77
1070
     1
1070
    73
1070
     0
1070
   171
1070
     3
1070
   274
1070
     4
1070
   177
1070
   150
1070
   176
1070
     9
1070
   178
1070
    43
1070
    78
1070
     8
1070
    48
1040
-0.005
1070
    41
1041
4.175
1070
   147
1041
2.25
1070
    42
1041
1.5875
1070
    44
1041
3.175
1070
   140
1041
4.5
1070
   343
1005
0
1070
   344
1005
0
1002
}
0
DIMENSION
5
2A6
100
AcDbEntity
8
SK2
62
256
6
ByLayer
370
-3
48
1
60
0
100
AcDbDimension
2
DimnDraft3D2
10
0
20
-58.1508
30
0
11
-35
21
-58.1508
31
0
70
32
71
5
72
1
41
1
210
0
220
0
230
1
3
Standard
100
AcDbAlignedDimension
13
-70
23
-21.5875
33
0
14
0
24
-32.8375
34
0
50
0
100
AcDbRotatedDimension
1001
ACAD
1000
DSTYLE
1002
{
1070
   279
1070
     0
1070
   172
1070
     1
1070
   173
1070
     1
1070
   340
1005
26D
1070
   271
1070
     1
1070
   272
1070
     2
1070
    77
1070
     1
1070
    73
1070
     0
1070
   171
1070
     3
1070
   274
1070
     4
1070
   177
1070
   150
1070
   176
1070
     9
1070
   178
1070
    43
1070
    78
1070
     8
1070
    48
1040
-0.005
1070
    41
1041
4.175
1070
   147
1041
2.25
1070
    42
1041
1.5875
1070
    44
1041
3.175
1070
   140
1041
4.5
1070
   343
1005
0
1070
   344
1005
0
1002
}
0
DIMENSION
5
2B1
100
AcDbEntity
8
2
62
256
6
ByLayer
370
-3
48
1
60
0
100
AcDbDimension
2
DimnDraft3D3
10
144
20
-58.1508
30
0
11
72
21
-58.1508
31
0
70
32
71
5
72
1
41
1
210
0
220
0
230
1
3
Standard
100
AcDbAlignedDimension
13
0
23
-32.8375
33
0
14
144
24
-27.0875
34
0
50
0
100
AcDbRotatedDimension
1001
ACAD
1000
DSTYLE
1002
{
1070
   279
1070
     0
1070
   172
1070
     1
1070
   173
1070
     1
1070
   340
1005
26D
1070
   271
1070
     1
1070
   272
1070
     2
1070
    77
1070
     1
1070
    73
1070
     0
1070
   171
1070
     3
1070
   274
1070
     4
1070
   177
1070
   150
1070
   176
1070
     9
1070
   178
1070
    43
1070
    78
1070
     8
1070
    48
1040
-0.005
1070
    41
1041
4.175
1070
   147
1041
2.25
1070
    42
1041
1.5875
1070
    44
1041
3.175
1070
   140
1041
4.5
1070
   343
1005
0
1070
   344
1005
0
1002
}
0
DIMENSION
5
2BB
100
AcDbEntity
8
SK2
62
256
6
ByLayer
370
-3
48
1
60
0
100
AcDbDimension
2
DimnDraft3D4
10
144
20
-48.1508
30
0
11
90
21
-48.1508
31
0
70
32
71
5
72
1
41
1
210
0
220
0
230
1
3
Standard
100
AcDbAlignedDimension
13
36
23
-11.5875
33
0
14
144
24
-27.0875
34
0
50
0
100
AcDbRotatedDimension
1001
ACAD
1000
DSTYLE
1002
{
1070
   279
1070
     0
1070
   172
1070
     1
1070
   173
1070
     1
1070
   340
1005
26D
1070
   271
1070
     1
1070
   272
1070
     2
1070
    77
1070
     1
1070
    73
1070
     0
1070
   171
1070
     3
1070
   274
1070
     4
1070
   177
1070
   150
1070
   176
1070
     9
1070
   178
1070
    43
1070
    78
1070
     8
1070
    48
1040
-0.005
1070
    41
1041
4.175
1070
   147
1041
2.25
1070
    42
1041
1.5875
1070
    44
1041
3.175
1070
   140
1041
4.5
1070
   343
1005
0
1070
   344
1005
0
1002
}
0
DIMENSION
5
2C6
100
AcDbEntity
8
SK2
62
256
6
ByLayer
370
-3
48
1
60
0
100
AcDbDimension
2
DimnDraft3D5
10
-81.9
20
-20
30
0
11
-82.1
21
3.884211
31
0
70
33
71
5
72
1
41
1
210
0
220
0
230
1
3
Standard
100
AcDbAlignedDimension
13
-71.5875
23
20
33
0
14
-71.5875
24
-20
34
0
1001
ACAD
1000
DSTYLE
1002
{
1070
   279
1070
     0
1070
    74
1070
     0
1070
   173
1070
     1
1070
   340
1005
26D
1070
   271
1070
     2
1070
   272
1070
     2
1070
    77
1070
     1
1070
    73
1070
     0
1070
   171
1070
     3
1070
   274
1070
     4
1070
   177
1070
   150
1070
   176
1070
     9
1070
   178
1070
    43
1070
    78
1070
     8
1070
    48
1040
-0.005
1070
    41
1041
4.175
1070
   147
1041
2.25
1070
    42
1041
1.5875
1070
    44
1041
3.175
1070
   140
1041
4.5
1070
   343
1005
0
1070
   344
1005
0
1002
}
0
DIMENSION
5
2D1
100
AcDbEntity
8
SK2
62
256
6
ByLayer
370
-3
48
1
60
0
100
AcDbDimension
2
DimnDraft3D6
10
-91.9
20
31.25
30
0
11
-92.1
21
1.586842
31
0
70
33
71
5
72
1
41
1
210
0
220
0
230
1
3
Standard
100
AcDbAlignedDimension
13
-1.5875
23
-31.25
33
0
14
-1.5875
24
31.25
34
0
1001
ACAD
1000
DSTYLE
1002
{
1070
   279
1070
     0
1070
    74
1070
     0
1070
   173
1070
     1
1070
   340
1005
26D
1070
   271
1070
     1
1070
   272
1070
     2
1070
    77
1070
     1
1070
    73
1070
     0
1070
   171
1070
     3
1070
   274
1070
     4
1070
   177
1070
   150
1070
   176
1070
     9
1070
   178
1070
    43
1070
    78
1070
     8
1070
    48
1040
-0.005
1070
    41
1041
4.175
1070
   147
1041
2.25
1070
    42
1041
1.5875
1070
    44
1041
3.175
1070
   140
1041
4.5
1070
   343
1005
0
1070
   344
1005
0
1002
}
0
DIMENSION
5
2DC
100
AcDbEntity
8
2
62
256
6
ByLayer
370
-3
48
1
60
0
100
AcDbDimension
2
DimnDraft3D7
10
174.15
20
-25.5
30
0
11
167.6
21
4.683553
31
0
70
33
71
5
72
1
41
1
210
0
220
0
230
1
3
Standard
100
AcDbAlignedDimension
13
145.5875
23
25.5
33
0
14
145.5875
24
-25.5
34
0
1001
ACAD
1000
DSTYLE
1002
{
1070
   279
1070
     0
1070
    74
1070
     0
1070
   173
1070
     1
1070
   340
1005
26D
1070
   271
1070
     2
1070
   272
1070
     2
1070
    77
1070
     1
1070
    73
1070
     0
1070
   171
1070
     3
1070
   274
1070
     4
1070
   177
1070
   150
1070
   176
1070
     9
1070
   178
1070
    43
1070
    78
1070
     8
1070
    48
1040
-0.005
1070
    41
1041
4.175
1070
   147
1041
2.25
1070
    42
1041
1.5875
1070
    44
1041
3.175
1070
   140
1041
4.5
1070
   343
1005
0
1070
   344
1005
0
1002
}
0
ENDSEC
0
SECTION
2
OBJECTS
0
DICTIONARY
5
30d
330
0
100
AcDbDictionary
280
0
281
1
3
ACAD_GROUP
350
30e
3
ACAD_MLINESTYLE
350
30f
0
DICTIONARY
5
30e
330
0
100
AcDbDictionary
280
0
281
1
0
DICTIONARY
5
30f
330
0
100
AcDbDictionary
280
0
281
1
3
Standard
350
18
0
MLINESTYLE
5
18
330
30f
100
AcDbMlineStyle
2
Standard
70
0
3

62
256
51
90
52
90
71
2
49
-0.5
62
256
6
ByLayer
49
0.5
62
256
6
ByLayer
0
RASTERVARIABLES
5
2fb
330

100
AcDbRasterVariables
90
0
70
1
71
1
72
1
0
ENDSEC
0
EOF
