0
SECTION
2
HEADER
9
$ACADVER
1
AC1015
9
$DWGCODEPAGE
3
ANSI_1252
9
$HANDSEED
5
322
9
$ANGBASE
50
0
9
$ANGDIR
70
0
9
$ATTMODE
70
1
9
$AUNITS
70
0
9
$AUPREC
70
0
9
$CECOLOR
62
256
9
$CELTSCALE
40
1
9
$CELTYPE
6
ByLayer
9
$CELWEIGHT
370
-1
9
$CLAYER
8
0
9
$CMLJUST
70
0
9
$CMLSCALE
40
1
9
$CMLSTYLE
2
Standard
9
$DIMSTYLE
2
Standard
9
$TEXTSIZE
40
0.2
9
$TEXTSTYLE
7
Standard
9
$LUNITS
70
2
9
$LUPREC
70
4
9
$EXTNAMES
290
1
9
$INSUNITS
70
4
9
$LTSCALE
40
1
9
$LWDISPLAY
290
0
9
$PDMODE
70
0
9
$PDSIZE
40
0
9
$PLINEGEN
70
0
0
ENDSEC
0
SECTION
2
CLASSES
0
CLASS
1
RASTERVARIABLES
2
AcDbRasterVariables
3
ISM
90
0
280
0
281
0
0
ENDSEC
0
SECTION
2
TABLES
0
TABLE
2
VPORT
5
318
100
AcDbSymbolTable
0
VPORT
5
1
100
AcDbSymbolTableRecord
100
AcDbViewportTableRecord
2
*Active
70
0
10
0
20
0
11
1
21
1
12
-1
22
1
13
0
23
0
14
0.5
24
0.5
15
10
25
10
16
0
26
0
36
1
17
0
27
0
37
0
0
ENDTAB
0
TABLE
2
LTYPE
5
319
100
AcDbSymbolTable
0
LTYPE
5
14
100
AcDbSymbolTableRecord
100
AcDbLinetypeTableRecord
70
0
2
ByBlock
3

72
65
73
0
40
0
0
LTYPE
5
15
100
AcDbSymbolTableRecord
100
AcDbLinetypeTableRecord
70
0
2
ByLayer
3

72
65
73
0
40
0
0
LTYPE
5
16
100
AcDbSymbolTableRecord
100
AcDbLinetypeTableRecord
70
0
2
CONTINUOUS
3
Solid line
72
65
73
0
40
0
0
LTYPE
5
3B
100
AcDbSymbolTableRecord
100
AcDbLinetypeTableRecord
70
0
2
DASHED
3
__ __ __ __ __ __ __ __ __
72
65
73
2
40
25.72
49
12.86
74
0
49
-12.86
74
0
0
LTYPE
5
3C
100
AcDbSymbolTableRecord
100
AcDbLinetypeTableRecord
70
0
2
HIDDEN
3
_ _ _ _ _ _ _ _ _ _ _ _ _ _ _
72
65
73
2
40
0.5
49
0.25
74
0
49
-0.25
74
0
0
LTYPE
5
3D
100
AcDbSymbolTableRecord
100
AcDbLinetypeTableRecord
70
0
2
PHANTOM
3
____ _ _ ____ _ _ _____ _ _ ____
72
65
73
6
40
50.5
49
18
74
0
49
-6.5
74
0
49
6.5
74
0
49
-6.5
74
0
49
6.5
74
0
49
-6.5
74
0
0
LTYPE
5
3E
100
AcDbSymbolTableRecord
100
AcDbLinetypeTableRecord
70
0
2
CENTER
3
____ _ ____ _ ____ _ ____
72
65
73
4
40
47.5
49
22
74
0
49
-8.5
74
0
49
8.5
74
0
49
-8.5
74
0
0
LTYPE
5
3F
100
AcDbSymbolTableRecord
100
AcDbLinetypeTableRecord
70
0
2
DOT
3
.........................
72
65
73
2
40
10
49
0
74
0
49
-10
74
0
0
LTYPE
5
40
100
AcDbSymbolTableRecord
100
AcDbLinetypeTableRecord
70
0
2
DASHDOT
3
_._._._._._._._._._._._._._._._.
72
65
73
4
40
70
49
31
74
0
49
-13
74
0
49
13
74
0
49
-13
74
0
0
ENDTAB
0
TABLE
2
LAYER
5
31a
100
AcDbSymbolTable
0
LAYER
5
10
100
AcDbSymbolTableRecord
100
AcDbLayerTableRecord
2
0
70
0
62
7
6
CONTINUOUS
290
1
370
-3
390
0
0
LAYER
5
42
100
AcDbSymbolTableRecord
100
AcDbLayerTableRecord
2
81
70
0
62
-3
6
CONTINUOUS
290
1
370
-3
390
0
0
LAYER
5
44
100
AcDbSymbolTableRecord
100
AcDbLayerTableRecord
2
80
70
0
62
-6
6
CONTINUOUS
290
1
370
-3
390
0
0
LAYER
5
48
100
AcDbSymbolTableRecord
100
AcDbLayerTableRecord
2
1
70
0
62
4
6
CONTINUOUS
290
1
370
-3
390
0
0
LAYER
5
60
100
AcDbSymbolTableRecord
100
AcDbLayerTableRecord
2
4
70
0
62
-2
6
CENTER
290
1
370
-3
390
0
0
LAYER
5
2B1
100
AcDbSymbolTableRecord
100
AcDbLayerTableRecord
2
2
70
0
62
7
6
CONTINUOUS
290
1
370
-3
390
0
0
LAYER
5
304
100
AcDbSymbolTableRecord
100
AcDbLayerTableRecord
2
SK1
70
0
62
4
6
CONTINUOUS
290
1
370
-3
390
0
0
LAYER
5
305
100
AcDbSymbolTableRecord
100
AcDbLayerTableRecord
2
SK4
70
0
62
2
6
CENTER
290
1
370
-3
390
0
0
LAYER
5
306
100
AcDbSymbolTableRecord
100
AcDbLayerTableRecord
2
SK6
70
0
62
5
6
CONTINUOUS
290
1
370
-3
390
0
0
LAYER
5
307
100
AcDbSymbolTableRecord
100
AcDbLayerTableRecord
2
SK2
70
0
62
7
6
CONTINUOUS
290
1
370
-3
390
0
0
ENDTAB
0
TABLE
2
STYLE
5
31b
100
AcDbSymbolTable
0
STYLE
5
11
100
AcDbSymbolTableRecord
100
AcDbTextStyleTableRecord
2
Standard
3
txt
70
0
71
0
40
0
41
1
42
0
50
0
0
STYLE
5
275
100
AcDbSymbolTableRecord
100
AcDbTextStyleTableRecord
2
DEFAULT
3
simplex.shx
70
0
71
0
40
0
41
1
42
0
50
0
0
STYLE
5
298
100
AcDbSymbolTableRecord
100
AcDbTextStyleTableRecord
2
DWGDirectTextStyle
3
SIMPLEX
70
0
71
0
40
0
41
1
42
0
50
0
0
ENDTAB
0
TABLE
2
DIMSTYLE
5
31c
100
AcDbSymbolTable
100
AcDbDimStyleTable
0
DIMSTYLE
105
27
100
AcDbSymbolTableRecord
100
AcDbDimStyleTableRecord
2
Standard
70
0
3
<>
41
0.18
42
0.0625
44
0.18
140
0.18
147
0.09
73
0
74
0
77
1
271
2
275
0
278
52
280
0
340
11
0
ENDTAB
0
TABLE
2
VIEW
5
31d
100
AcDbSymbolTable
0
ENDTAB
0
TABLE
2
UCS
5
31e
100
AcDbSymbolTable
0
ENDTAB
0
TABLE
2
APPID
5
31f
100
AcDbSymbolTable
0
APPID
5
12
100
AcDbSymbolTableRecord
100
AcDbRegAppTableRecord
2
ACAD
70
0
0
ENDTAB
0
TABLE
2
BLOCK_RECORD
5
320
100
AcDbSymbolTable
0
BLOCK_RECORD
5
1F
100
AcDbSymbolTableRecord
100
AcDbBlockTableRecord
2
*Model_Space
340
0
70
0
0
BLOCK_RECORD
5
1B
100
AcDbSymbolTableRecord
100
AcDbBlockTableRecord
2
*Paper_Space
340
0
70
0
0
BLOCK_RECORD
5
23
100
AcDbSymbolTableRecord
100
AcDbBlockTableRecord
2
*Paper_Space0
340
0
70
0
0
BLOCK_RECORD
5
29A
100
AcDbSymbolTableRecord
100
AcDbBlockTableRecord
2
DimnDraft3D1
340
0
70
0
0
BLOCK_RECORD
5
2A5
100
AcDbSymbolTableRecord
100
AcDbBlockTableRecord
2
DimnDraft3D2
340
0
70
0
0
BLOCK_RECORD
5
2AF
100
AcDbSymbolTableRecord
100
AcDbBlockTableRecord
2
DimnDraft3D3
340
0
70
0
0
BLOCK_RECORD
5
2BA
100
AcDbSymbolTableRecord
100
AcDbBlockTableRecord
2
DimnDraft3D4
340
0
70
0
0
BLOCK_RECORD
5
2C4
100
AcDbSymbolTableRecord
100
AcDbBlockTableRecord
2
DimnDraft3D5
340
0
70
0
0
BLOCK_RECORD
5
2CF
100
AcDbSymbolTableRecord
100
AcDbBlockTableRecord
2
DimnDraft3D6
340
0
70
0
0
BLOCK_RECORD
5
2DA
100
AcDbSymbolTableRecord
100
AcDbBlockTableRecord
2
DimnDraft3D7
340
0
70
0
0
ENDTAB
0
ENDSEC
0
SECTION
2
BLOCKS
0
BLOCK
5
20
100
AcDbEntity
8
0
100
AcDbBlockBegin
2
*Model_Space
70
0
10
0
20
0
30
0
3
*Model_Space
0
ENDBLK
5
21
100
AcDbEntity
8
0
100
AcDbBlockEnd
0
BLOCK
5
1C
100
AcDbEntity
8
0
100
AcDbBlockBegin
2
*Paper_Space
70
0
10
0
20
0
30
0
3
*Paper_Space
0
ENDBLK
5
1D
100
AcDbEntity
8
0
100
AcDbBlockEnd
0
BLOCK
5
24
100
AcDbEntity
8
0
100
AcDbBlockBegin
2
*Paper_Space0
70
0
10
0
20
0
30
0
3
*Paper_Space0
0
ENDBLK
5
25
100
AcDbEntity
8
0
100
AcDbBlockEnd
0
BLOCK
5
2A2
100
AcDbEntity
8
0
100
AcDbBlockBegin
2
DimnDraft3D1
70
0
10
0
20
0
30
0
3
DimnDraft3D1
0
MTEXT
5
29B
100
AcDbEntity
8
SK2
62
256
6
ByLayer
370
-1
48
1
60
0
100
AcDbMText
10
25.844079
20
-67.0258
30
0
210
0
220
0
230
1
1
\W01.000;\fsimplex.shx,bigfont.shx;(207) 
40
4.5
41
0
44
1.084337
50
0
71
7
72
5
7
DEFAULT
0
LINE
5
29D
100
AcDbEntity
8
SK2
62
256
6
ByLayer
370
-1
48
1
60
0
100
AcDbLine
10
-70
20
-21.5875
30
0
11
-70
21
-73.29455
31
0
39
0
210
0
220
0
230
1
0
LINE
5
29E
100
AcDbEntity
8
SK2
62
256
6
ByLayer
370
-1
48
1
60
0
100
AcDbLine
10
137
20
-26.0875
30
0
11
137
21
-73.29455
31
0
39
0
210
0
220
0
230
1
0
LINE
5
29F
100
AcDbEntity
8
SK2
62
256
6
ByLayer
370
-1
48
1
60
0
100
AcDbLine
10
-70
20
-70.11955
30
0
11
137
21
-70.11955
31
0
39
0
210
0
220
0
230
1
0
SOLID
5
2A0
100
AcDbEntity
8
SK2
62
256
6
ByLayer
370
-1
48
1
60
0
100
AcDbTrace
10
-70
20
-70.11955
30
0
11
-65.825003
21
-69.193975
31
0
12
-65.824997
22
-71.045125
32
0
13
-70
23
-70.11955
33
0
39
0
210
0
220
0
230
1
0
SOLID
5
2A1
100
AcDbEntity
8
SK2
62
256
6
ByLayer
370
-1
48
1
60
0
100
AcDbTrace
10
137
20
-70.11955
30
0
11
132.825003
21
-71.045125
31
0
12
132.824997
22
-69.193975
32
0
13
137
23
-70.11955
33
0
39
0
210
0
220
0
230
1
0
ENDBLK
5
2A3
100
AcDbEntity
8
0
100
AcDbBlockEnd
0
BLOCK
5
2AC
100
AcDbEntity
8
0
100
AcDbBlockBegin
2
DimnDraft3D2
70
0
10
0
20
0
30
0
3
DimnDraft3D2
0
MTEXT
5
2A6
100
AcDbEntity
8
SK2
62
256
6
ByLayer
370
-1
48
1
60
0
100
AcDbMText
10
-36.503947
20
-57.0258
30
0
210
0
220
0
230
1
1
\W01.000;\fsimplex.shx,bigfont.shx;70 
40
4.5
41
0
44
1.084337
50
0
71
7
72
5
7
DEFAULT
0
LINE
5
2A7
100
AcDbEntity
8
SK2
62
256
6
ByLayer
370
-1
48
1
60
0
100
AcDbLine
10
-70
20
-21.5875
30
0
11
-70
21
-61.3258
31
0
39
0
210
0
220
0
230
1
0
LINE
5
2A8
100
AcDbEntity
8
SK2
62
256
6
ByLayer
370
-1
48
1
60
0
100
AcDbLine
10
0
20
-32.8375
30
0
11
0
21
-61.3258
31
0
39
0
210
0
220
0
230
1
0
LINE
5
2A9
100
AcDbEntity
8
SK2
62
256
6
ByLayer
370
-1
48
1
60
0
100
AcDbLine
10
-70
20
-58.1508
30
0
11
0
21
-58.1508
31
0
39
0
210
0
220
0
230
1
0
SOLID
5
2AA
100
AcDbEntity
8
SK2
62
256
6
ByLayer
370
-1
48
1
60
0
100
AcDbTrace
10
-70
20
-58.1508
30
0
11
-65.825003
21
-57.225225
31
0
12
-65.824997
22
-59.076375
32
0
13
-70
23
-58.1508
33
0
39
0
210
0
220
0
230
1
0
SOLID
5
2AB
100
AcDbEntity
8
SK2
62
256
6
ByLayer
370
-1
48
1
60
0
100
AcDbTrace
10
0
20
-58.1508
30
0
11
-4.174997
21
-59.076375
31
0
12
-4.175003
22
-57.225225
32
0
13
0
23
-58.1508
33
0
39
0
210
0
220
0
230
1
0
ENDBLK
5
2AD
100
AcDbEntity
8
0
100
AcDbBlockEnd
0
BLOCK
5
2B7
100
AcDbEntity
8
0
100
AcDbBlockBegin
2
DimnDraft3D3
70
0
10
0
20
0
30
0
3
DimnDraft3D3
0
MTEXT
5
2B0
100
AcDbEntity
8
2
62
256
6
ByLayer
370
-1
48
1
60
0
100
AcDbMText
10
65.906579
20
-57.0258
30
0
210
0
220
0
230
1
1
\W01.000;\fsimplex.shx,bigfont.shx;137 
40
4.5
41
0
44
1.084337
50
0
71
7
72
5
7
DEFAULT
0
LINE
5
2B2
100
AcDbEntity
8
2
62
256
6
ByLayer
370
-1
48
1
60
0
100
AcDbLine
10
0
20
-32.8375
30
0
11
0
21
-61.3258
31
0
39
0
210
0
220
0
230
1
0
LINE
5
2B3
100
AcDbEntity
8
2
62
256
6
ByLayer
370
-1
48
1
60
0
100
AcDbLine
10
137
20
-26.0875
30
0
11
137
21
-61.3258
31
0
39
0
210
0
220
0
230
1
0
LINE
5
2B4
100
AcDbEntity
8
2
62
256
6
ByLayer
370
-1
48
1
60
0
100
AcDbLine
10
0
20
-58.1508
30
0
11
137
21
-58.1508
31
0
39
0
210
0
220
0
230
1
0
SOLID
5
2B5
100
AcDbEntity
8
2
62
256
6
ByLayer
370
-1
48
1
60
0
100
AcDbTrace
10
0
20
-58.1508
30
0
11
4.174997
21
-57.225225
31
0
12
4.175003
22
-59.076375
32
0
13
0
23
-58.1508
33
0
39
0
210
0
220
0
230
1
0
SOLID
5
2B6
100
AcDbEntity
8
2
62
256
6
ByLayer
370
-1
48
1
60
0
100
AcDbTrace
10
137
20
-58.1508
30
0
11
132.825003
21
-59.076375
31
0
12
132.824997
22
-57.225225
32
0
13
137
23
-58.1508
33
0
39
0
210
0
220
0
230
1
0
ENDBLK
5
2B8
100
AcDbEntity
8
0
100
AcDbBlockEnd
0
BLOCK
5
2C1
100
AcDbEntity
8
0
100
AcDbBlockBegin
2
DimnDraft3D4
70
0
10
0
20
0
30
0
3
DimnDraft3D4
0
MTEXT
5
2BB
100
AcDbEntity
8
SK2
62
256
6
ByLayer
370
-1
48
1
60
0
100
AcDbMText
10
82.906579
20
-47.0258
30
0
210
0
220
0
230
1
1
\W01.000;\fsimplex.shx,bigfont.shx;103 
40
4.5
41
0
44
1.084337
50
0
71
7
72
5
7
DEFAULT
0
LINE
5
2BC
100
AcDbEntity
8
SK2
62
256
6
ByLayer
370
-1
48
1
60
0
100
AcDbLine
10
34
20
-11.5875
30
0
11
34
21
-51.3258
31
0
39
0
210
0
220
0
230
1
0
LINE
5
2BD
100
AcDbEntity
8
SK2
62
256
6
ByLayer
370
-1
48
1
60
0
100
AcDbLine
10
137
20
-26.0875
30
0
11
137
21
-51.3258
31
0
39
0
210
0
220
0
230
1
0
LINE
5
2BE
100
AcDbEntity
8
SK2
62
256
6
ByLayer
370
-1
48
1
60
0
100
AcDbLine
10
34
20
-48.1508
30
0
11
137
21
-48.1508
31
0
39
0
210
0
220
0
230
1
0
SOLID
5
2BF
100
AcDbEntity
8
SK2
62
256
6
ByLayer
370
-1
48
1
60
0
100
AcDbTrace
10
34
20
-48.1508
30
0
11
38.174997
21
-47.225225
31
0
12
38.175003
22
-49.076375
32
0
13
34
23
-48.1508
33
0
39
0
210
0
220
0
230
1
0
SOLID
5
2C0
100
AcDbEntity
8
SK2
62
256
6
ByLayer
370
-1
48
1
60
0
100
AcDbTrace
10
137
20
-48.1508
30
0
11
132.825003
21
-49.076375
31
0
12
132.824997
22
-47.225225
32
0
13
137
23
-48.1508
33
0
39
0
210
0
220
0
230
1
0
ENDBLK
5
2C2
100
AcDbEntity
8
0
100
AcDbBlockEnd
0
BLOCK
5
2CC
100
AcDbEntity
8
0
100
AcDbBlockBegin
2
DimnDraft3D5
70
0
10
0
20
0
30
0
3
DimnDraft3D5
0
MTEXT
5
2C5
100
AcDbEntity
8
SK2
62
256
6
ByLayer
370
-1
48
1
60
0
100
AcDbMText
10
-80.975
20
5.009211
30
0
210
0
220
0
230
1
1
\W01.000;\fsimplex.shx,bigfont.shx;40 
40
4.5
41
0
44
1.084337
50
90
71
7
72
5
7
DEFAULT
0
MTEXT
5
2C6
100
AcDbEntity
8
SK2
62
256
6
ByLayer
370
-1
48
1
60
0
100
AcDbMText
10
-80.975
20
-8.490789
30
0
210
0
220
0
230
1
1
\W01.000;\fsimplex.shx,bigfont.shx;%%c 
40
4.5
41
0
44
1.084337
50
90
71
7
72
5
7
DEFAULT
0
LINE
5
2C7
100
AcDbEntity
8
SK2
62
256
6
ByLayer
370
-1
48
1
60
0
100
AcDbLine
10
-71.5875
20
20
30
0
11
-81.9
21
20
31
0
39
0
210
0
220
0
230
1
0
LINE
5
2C8
100
AcDbEntity
8
SK2
62
256
6
ByLayer
370
-1
48
1
60
0
100
AcDbLine
10
-71.5875
20
-20
30
0
11
-81.9
21
-20
31
0
39
0
210
0
220
0
230
1
0
LINE
5
2C9
100
AcDbEntity
8
SK2
62
256
6
ByLayer
370
-1
48
1
60
0
100
AcDbLine
10
-78.725
20
20
30
0
11
-78.725
21
-20
31
0
39
0
210
0
220
0
230
1
0
SOLID
5
2CA
100
AcDbEntity
8
SK2
62
256
6
ByLayer
370
-1
48
1
60
0
100
AcDbTrace
10
-78.725
20
20
30
0
11
-77.799425
21
15.825003
31
0
12
-79.650575
22
15.824997
32
0
13
-78.725
23
20
33
0
39
0
210
0
220
0
230
1
0
SOLID
5
2CB
100
AcDbEntity
8
SK2
62
256
6
ByLayer
370
-1
48
1
60
0
100
AcDbTrace
10
-78.725
20
-20
30
0
11
-79.650575
21
-15.825003
31
0
12
-77.799425
22
-15.824997
32
0
13
-78.725
23
-20
33
0
39
0
210
0
220
0
230
1
0
ENDBLK
5
2CD
100
AcDbEntity
8
0
100
AcDbBlockEnd
0
BLOCK
5
2D7
100
AcDbEntity
8
0
100
AcDbBlockBegin
2
DimnDraft3D6
70
0
10
0
20
0
30
0
3
DimnDraft3D6
0
MTEXT
5
2D0
100
AcDbEntity
8
SK2
62
256
6
ByLayer
370
-1
48
1
60
0
100
AcDbMText
10
-90.975
20
2.711842
30
0
210
0
220
0
230
1
1
\W01.000;\fsimplex.shx,bigfont.shx;62.5 
40
4.5
41
0
44
1.084337
50
90
71
7
72
5
7
DEFAULT
0
MTEXT
5
2D1
100
AcDbEntity
8
SK2
62
256
6
ByLayer
370
-1
48
1
60
0
100
AcDbMText
10
-90.975
20
-10.788158
30
0
210
0
220
0
230
1
1
\W01.000;\fsimplex.shx,bigfont.shx;%%c 
40
4.5
41
0
44
1.084337
50
90
71
7
72
5
7
DEFAULT
0
LINE
5
2D2
100
AcDbEntity
8
SK2
62
256
6
ByLayer
370
-1
48
1
60
0
100
AcDbLine
10
-1.5875
20
-31.25
30
0
11
-91.9
21
-31.25
31
0
39
0
210
0
220
0
230
1
0
LINE
5
2D3
100
AcDbEntity
8
SK2
62
256
6
ByLayer
370
-1
48
1
60
0
100
AcDbLine
10
-1.5875
20
31.25
30
0
11
-91.9
21
31.25
31
0
39
0
210
0
220
0
230
1
0
LINE
5
2D4
100
AcDbEntity
8
SK2
62
256
6
ByLayer
370
-1
48
1
60
0
100
AcDbLine
10
-88.725
20
-31.25
30
0
11
-88.725
21
31.25
31
0
39
0
210
0
220
0
230
1
0
SOLID
5
2D5
100
AcDbEntity
8
SK2
62
256
6
ByLayer
370
-1
48
1
60
0
100
AcDbTrace
10
-88.725
20
-31.25
30
0
11
-89.650575
21
-27.075003
31
0
12
-87.799425
22
-27.074997
32
0
13
-88.725
23
-31.25
33
0
39
0
210
0
220
0
230
1
0
SOLID
5
2D6
100
AcDbEntity
8
SK2
62
256
6
ByLayer
370
-1
48
1
60
0
100
AcDbTrace
10
-88.725
20
31.25
30
0
11
-87.799425
21
27.075003
31
0
12
-89.650575
22
27.074997
32
0
13
-88.725
23
31.25
33
0
39
0
210
0
220
0
230
1
0
ENDBLK
5
2D8
100
AcDbEntity
8
0
100
AcDbBlockEnd
0
BLOCK
5
2E2
100
AcDbEntity
8
0
100
AcDbBlockBegin
2
DimnDraft3D7
70
0
10
0
20
0
30
0
3
DimnDraft3D7
0
MTEXT
5
2DB
100
AcDbEntity
8
2
62
256
6
ByLayer
370
-1
48
1
60
0
100
AcDbMText
10
161.725
20
5.009211
30
0
210
0
220
0
230
1
1
\W01.000;\fsimplex.shx,bigfont.shx;49 
40
4.5
41
0
44
1.084337
50
90
71
7
72
5
7
DEFAULT
0
MTEXT
5
2DC
100
AcDbEntity
8
2
62
256
6
ByLayer
370
-1
48
1
60
0
100
AcDbMText
10
161.725
20
-8.490789
30
0
210
0
220
0
230
1
1
\W01.000;\fsimplex.shx,bigfont.shx;%%c 
40
4.5
41
0
44
1.084337
50
90
71
7
72
5
7
DEFAULT
0
LINE
5
2DD
100
AcDbEntity
8
2
62
256
6
ByLayer
370
-1
48
1
60
0
100
AcDbLine
10
138.5875
20
24.5
30
0
11
167.15
21
24.5
31
0
39
0
210
0
220
0
230
1
0
LINE
5
2DE
100
AcDbEntity
8
2
62
256
6
ByLayer
370
-1
48
1
60
0
100
AcDbLine
10
138.5875
20
-24.5
30
0
11
167.15
21
-24.5
31
0
39
0
210
0
220
0
230
1
0
LINE
5
2DF
100
AcDbEntity
8
2
62
256
6
ByLayer
370
-1
48
1
60
0
100
AcDbLine
10
163.975
20
24.5
30
0
11
163.975
21
-24.5
31
0
39
0
210
0
220
0
230
1
0
SOLID
5
2E0
100
AcDbEntity
8
2
62
256
6
ByLayer
370
-1
48
1
60
0
100
AcDbTrace
10
163.975
20
24.5
30
0
11
164.900575
21
20.325003
31
0
12
163.049425
22
20.324997
32
0
13
163.975
23
24.5
33
0
39
0
210
0
220
0
230
1
0
SOLID
5
2E1
100
AcDbEntity
8
2
62
256
6
ByLayer
370
-1
48
1
60
0
100
AcDbTrace
10
163.975
20
-24.5
30
0
11
163.049425
21
-20.325003
31
0
12
164.900575
22
-20.324997
32
0
13
163.975
23
-24.5
33
0
39
0
210
0
220
0
230
1
0
ENDBLK
5
2E3
100
AcDbEntity
8
0
100
AcDbBlockEnd
0
ENDSEC
0
SECTION
2
ENTITIES
0
ARC
5
F4
100
AcDbEntity
8
SK1
62
256
6
ByLayer
370
-1
48
1
60
0
100
AcDbCircle
39
0
10
1.383773
20
20.15
30
0
40
0.4
210
0
220
0
230
-1
100
AcDbArc
50
270
51
295
0
ARC
5
F5
100
AcDbEntity
8
SK1
62
256
6
ByLayer
370
-1
48
1
60
0
100
AcDbCircle
39
0
10
1.383773
20
-20.15
30
0
40
0.4
210
0
220
0
230
-1
100
AcDbArc
50
65
51
90
0
ARC
5
F6
100
AcDbEntity
8
SK1
62
256
6
ByLayer
370
-1
48
1
60
0
100
AcDbCircle
39
0
10
0.15
20
20.15
30
0
40
0.4
210
0
220
0
230
-1
100
AcDbArc
50
247.975687
51
270
0
ARC
5
F7
100
AcDbEntity
8
SK1
62
256
6
ByLayer
370
-1
48
1
60
0
100
AcDbCircle
39
0
10
0.15
20
-20.15
30
0
40
0.4
210
0
220
0
230
-1
100
AcDbArc
50
90
51
112.024313
0
ARC
5
F8
100
AcDbEntity
8
SK1
62
256
6
ByLayer
370
-1
48
1
60
0
100
AcDbCircle
39
0
10
67.894506
20
20.396
30
0
40
0.8
210
0
220
0
230
-1
100
AcDbArc
50
250.982048
51
321
0
ARC
5
F9
100
AcDbEntity
8
SK1
62
256
6
ByLayer
370
-1
48
1
60
0
100
AcDbCircle
39
0
10
67.894506
20
-20.396
30
0
40
0.8
210
0
220
0
230
-1
100
AcDbArc
50
39
51
109.017952
0
ARC
5
FA
100
AcDbEntity
8
1
62
256
6
ByLayer
370
-1
48
1
60
0
100
AcDbCircle
39
0
10
-99.5
20
32.8
30
0
40
19.9999999985582
210
0
220
0
230
-1
100
AcDbArc
50
287.825669
51
299.22634
0
ELLIPSE
5
FB
100
AcDbEntity
8
1
62
256
6
ByLayer
370
-1
48
1
60
0
100
AcDbEllipse
10
121.617011
20
17.00797
30
0
11
-0.773306881341383
21
-0.824449232823544
31
0
210
0
220
0
230
-1
40
0.04503
41
-0.757084608657893
42
-0.704869721219778
0
ELLIPSE
5
FC
100
AcDbEntity
8
1
62
256
6
ByLayer
370
-1
48
1
60
0
100
AcDbEllipse
10
123.05862
20
10.173664
30
0
11
-1.83236116208161
21
-1.63166900511626
31
0
210
0
220
0
230
-1
40
0.721468
41
-1.3015258845962
42
-0.459180144136174
0
ELLIPSE
5
FD
100
AcDbEntity
8
1
62
256
6
ByLayer
370
-1
48
1
60
0
100
AcDbEllipse
10
122.053356
20
0
30
0
11
-120.896514868638
21
-1.36987803575903E-13
31
0
210
0
220
0
230
-1
40
0.196863
41
1.3673005652807
42
1.51873775536454
0
ELLIPSE
5
FE
100
AcDbEntity
8
1
62
256
6
ByLayer
370
-1
48
1
60
0
100
AcDbEllipse
10
16.979392
20
23.487264
30
0
11
-101.566284100433
21
9.05107207712975
31
0
210
0
220
0
230
-1
40
0.106892
41
-2.89964507003909
42
-2.81271381271343
0
ELLIPSE
5
FF
100
AcDbEntity
8
1
62
256
6
ByLayer
370
-1
48
1
60
0
100
AcDbEllipse
10
135.310232
20
-12.383062
30
0
11
-0.0775054657256825
21
-0.878086631940131
31
0
210
0
220
0
230
-1
40
0.115224
41
0.0037084551572469
42
1.57450478193985
0
ELLIPSE
5
100
100
AcDbEntity
8
1
62
256
6
ByLayer
370
-1
48
1
60
0
100
AcDbEllipse
10
133.982288
20
-16.397392
30
0
11
-0.254188079381204
21
-3.07971860622447
31
0
210
0
220
0
230
-1
40
0.122299
41
0
42
6.28318530717959
0
ELLIPSE
5
101
100
AcDbEntity
8
1
62
256
6
ByLayer
370
-1
48
1
60
0
100
AcDbEllipse
10
129.556393
20
16.309045
30
0
11
2.34290668463255E-15
21
2
31
0
210
0
220
0
230
1
40
0.996195
41
0.102985300926076
42
1.57079604872776
0
ELLIPSE
5
102
100
AcDbEntity
8
1
62
256
6
ByLayer
370
-1
48
1
60
0
100
AcDbEllipse
10
129.556393
20
16.309045
30
0
11
2.34290668463255E-15
21
2
31
0
210
0
220
0
230
1
40
0.996195
41
1.57079654872776
42
3.03860729631731
0
ELLIPSE
5
103
100
AcDbEntity
8
1
62
256
6
ByLayer
370
-1
48
1
60
0
100
AcDbEllipse
10
135.181835
20
0
30
0
11
-1.44414330630982
21
23.7993785806405
31
0
210
0
220
0
230
-1
40
0.119092
41
-2.04288635916079
42
-1.52108342627051
0
ELLIPSE
5
104
100
AcDbEntity
8
1
62
256
6
ByLayer
370
-1
48
1
60
0
100
AcDbEllipse
10
113.550362
20
14.800387
30
0
11
-0.976547917735117
21
-10.856166642253
31
0
210
0
220
0
230
1
40
0.192407
41
0.421037447711081
42
1.09459659560841
0
ELLIPSE
5
105
100
AcDbEntity
8
1
62
256
6
ByLayer
370
-1
48
1
60
0
100
AcDbEllipse
10
128.820748
20
-5.349943
30
0
11
-1.65
21
1.6675544408859E-15
31
0
210
0
220
0
230
1
40
0.998135
41
3.14159250247964
42
0
0
ELLIPSE
5
106
100
AcDbEntity
8
1
62
256
6
ByLayer
370
-1
48
1
60
0
100
AcDbEllipse
10
128.820748
20
-5.349943
30
0
11
-1.65
21
1.6675544408859E-15
31
0
210
0
220
0
230
1
40
0.998135
41
0
42
1.64148237894804
0
ELLIPSE
5
107
100
AcDbEntity
8
1
62
256
6
ByLayer
370
-1
48
1
60
0
100
AcDbEllipse
10
128.820748
20
-5.349943
30
0
11
-1.65
21
1.6675544408859E-15
31
0
210
0
220
0
230
1
40
0.998135
41
1.69361270235704
42
3.14159250247964
0
ELLIPSE
5
108
100
AcDbEntity
8
1
62
256
6
ByLayer
370
-1
48
1
60
0
100
AcDbEllipse
10
118.467206
20
0
30
0
11
-124.48847816151
21
1.50785089797866
31
0
210
0
220
0
230
-1
40
0.190798
41
-1.55683495978198
42
-1.41518842877779
0
ELLIPSE
5
109
100
AcDbEntity
8
1
62
256
6
ByLayer
370
-1
48
1
60
0
100
AcDbEllipse
10
121.328347
20
28.634636
30
0
11
2.24919041724725E-14
21
19.2
31
0
210
0
220
0
230
1
40
0.996195
41
2.74016692563109
42
3.10994225005361
0
ELLIPSE
5
10A
100
AcDbEntity
8
1
62
256
6
ByLayer
370
-1
48
1
60
0
100
AcDbEllipse
10
126.432719
20
7E-06
30
0
11
-272.035206353671
21
-3.08243008114818E-13
31
0
210
0
220
0
230
-1
40
0.087489
41
1.53746169629095
42
1.54930933368819
0
ELLIPSE
5
10B
100
AcDbEntity
8
1
62
256
6
ByLayer
370
-1
48
1
60
0
100
AcDbEllipse
10
128.946303
20
16.309045
30
0
11
2.63577002021162E-15
21
2.25
31
0
210
0
220
0
230
1
40
0.996195
41
-2.22542577446686
42
0
0
ELLIPSE
5
10C
100
AcDbEntity
8
1
62
256
6
ByLayer
370
-1
48
1
60
0
100
AcDbEllipse
10
128.946303
20
16.309045
30
0
11
2.63577002021162E-15
21
2.25
31
0
210
0
220
0
230
1
40
0.996195
41
0
42
1.16248744141283
0
ELLIPSE
5
10D
100
AcDbEntity
8
1
62
256
6
ByLayer
370
-1
48
1
60
0
100
AcDbEllipse
10
135.136932
20
9.602153
30
0
11
-0.000594210257808932
21
-0.801059018418529
31
0
210
0
220
0
230
-1
40
0.121846
41
-0.892094845332845
42
0.00174059992461351
0
ELLIPSE
5
10E
100
AcDbEntity
8
1
62
256
6
ByLayer
370
-1
48
1
60
0
100
AcDbEllipse
10
94.73318
20
16.470464
30
0
11
-24.3834237599536
21
12.8604334002806
31
0
210
0
220
0
230
-1
40
0.109904
41
-2.27488730605738
42
-1.57316650776279
0
ELLIPSE
5
10F
100
AcDbEntity
8
1
62
256
6
ByLayer
370
-1
48
1
60
0
100
AcDbEllipse
10
113.550362
20
14.800387
30
0
11
-0.976547917735117
21
-10.856166642253
31
0
210
0
220
0
230
1
40
0.192407
41
1.336629282088
42
1.58810227408907
0
ELLIPSE
5
110
100
AcDbEntity
8
1
62
256
6
ByLayer
370
-1
48
1
60
0
100
AcDbEllipse
10
123.042171
20
10.173664
30
0
11
-2.25092568282431E-15
21
-2.1
31
0
210
0
220
0
230
1
40
0.996195
41
-1.53588974175502
42
-0.158767832418394
0
ELLIPSE
5
111
100
AcDbEntity
8
1
62
256
6
ByLayer
370
-1
48
1
60
0
100
AcDbEllipse
10
129.146761
20
16.309045
30
0
11
2.34290668463255E-15
21
2
31
0
210
0
220
0
230
1
40
0.996195
41
0
42
6.28318530717959
0
ELLIPSE
5
112
100
AcDbEntity
8
1
62
256
6
ByLayer
370
-1
48
1
60
0
100
AcDbEllipse
10
128.820748
20
-5.422821
30
0
11
-1.65
21
1.6675544408859E-15
31
0
210
0
220
0
230
1
40
0.998135
41
-3.11950312485273
42
-0.0221874378536125
0
ELLIPSE
5
113
100
AcDbEntity
8
1
62
256
6
ByLayer
370
-1
48
1
60
0
100
AcDbEllipse
10
128.820748
20
-5.349943
30
0
11
2.1
21
0
31
0
210
0
220
0
230
1
40
0.998135
41
0.0698021928834449
42
3.06972851923068
0
ELLIPSE
5
114
100
AcDbEntity
8
1
62
256
6
ByLayer
370
-1
48
1
60
0
100
AcDbEllipse
10
128.820748
20
-5.349943
30
0
11
2.1
21
0
31
0
210
0
220
0
230
1
40
0.998135
41
-3.14159250110336
42
-4.2373236548073E-16
0
ELLIPSE
5
115
100
AcDbEntity
8
1
62
256
6
ByLayer
370
-1
48
1
60
0
100
AcDbEllipse
10
121.582765
20
14.875401
30
0
11
-0.799516360141551
21
-0.0278134835287843
31
0
210
0
220
0
230
1
40
0.003042
41
0.0872135714673366
42
0.974050329556305
0
ELLIPSE
5
116
100
AcDbEntity
8
1
62
256
6
ByLayer
370
-1
48
1
60
0
100
AcDbEllipse
10
122.877029
20
14.92077
30
0
11
-2.25092568282431E-15
21
-2.1
31
0
210
0
220
0
230
1
40
0.996195
41
-2.12048111657723
42
-1.53588974175502
0
ELLIPSE
5
117
100
AcDbEntity
8
1
62
256
6
ByLayer
370
-1
48
1
60
0
100
AcDbEllipse
10
135.199471
20
0
30
0
11
-0.0232976487174098
21
-23.7999994811255
31
0
210
0
220
0
230
-1
40
0.12285
41
1.61316260363147
42
1.70859575210629
0
ELLIPSE
5
118
100
AcDbEntity
8
1
62
256
6
ByLayer
370
-1
48
1
60
0
100
AcDbEllipse
10
115.664381
20
14.9
30
0
11
1.17145334231625E-16
21
0.0999999999999977
31
0
210
0
220
0
230
1
40
0.981168
41
3.05356145144721
42
-1.5707963267949
0
ELLIPSE
5
119
100
AcDbEntity
8
1
62
256
6
ByLayer
370
-1
48
1
60
0
100
AcDbEllipse
10
122.684833
20
10.173664
30
0
11
2.46005201886418E-15
21
2.1
31
0
210
0
220
0
230
1
40
0.996195
41
1.60570291183478
42
1.92552816401089
0
ELLIPSE
5
11A
100
AcDbEntity
8
1
62
256
6
ByLayer
370
-1
48
1
60
0
100
AcDbEllipse
10
136.889105
20
0
30
0
11
-1.95715601760231
21
-23.79871460633
31
0
210
0
220
0
230
-1
40
0.126383
41
0.0368273985977545
42
1.08108679473801
0
ELLIPSE
5
11B
100
AcDbEntity
8
1
62
256
6
ByLayer
370
-1
48
1
60
0
100
AcDbEllipse
10
129.146761
20
16.309045
30
0
11
2.63577002021162E-15
21
2.25
31
0
210
0
220
0
230
1
40
0.996195
41
0.0349501263397862
42
1.57079643761665
0
ELLIPSE
5
11C
100
AcDbEntity
8
1
62
256
6
ByLayer
370
-1
48
1
60
0
100
AcDbEllipse
10
129.146761
20
16.309045
30
0
11
2.63577002021162E-15
21
2.25
31
0
210
0
220
0
230
1
40
0.996195
41
1.87572723107153
42
-1.57079614170616
0
ELLIPSE
5
11D
100
AcDbEntity
8
1
62
256
6
ByLayer
370
-1
48
1
60
0
100
AcDbEllipse
10
129.146761
20
16.309045
30
0
11
2.63577002021162E-15
21
2.25
31
0
210
0
220
0
230
1
40
0.996195
41
1.57079643761666
42
1.87572723107153
0
ELLIPSE
5
11E
100
AcDbEntity
8
1
62
256
6
ByLayer
370
-1
48
1
60
0
100
AcDbEllipse
10
89.920703
20
16.925953
30
0
11
-0.976547917735117
21
-10.856166642253
31
0
210
0
220
0
230
1
40
0.192407
41
1.34997550351427
42
1.56506987656892
0
ELLIPSE
5
11F
100
AcDbEntity
8
1
62
256
6
ByLayer
370
-1
48
1
60
0
100
AcDbEllipse
10
121.258623
20
28.634636
30
0
11
-2.14373874554696E-14
21
-20
31
0
210
0
220
0
230
1
40
0.996195
41
-0.349112811535792
42
-0.00336141707415299
0
ELLIPSE
5
120
100
AcDbEntity
8
1
62
256
6
ByLayer
370
-1
48
1
60
0
100
AcDbEllipse
10
137.295994
20
0
30
0
11
-56.8322737186229
21
23.0502053051669
31
0
210
0
220
0
230
-1
40
0.104287
41
-1.1418832968424
42
-0.613443871393322
0
ELLIPSE
5
121
100
AcDbEntity
8
1
62
256
6
ByLayer
370
-1
48
1
60
0
100
AcDbEllipse
10
128.824359
20
9.133144
30
0
11
-5.6568248153174
21
0.297567093595046
31
0
210
0
220
0
230
-1
40
0.000509
41
-3.13337256514956
42
-3.13191822262766
0
ELLIPSE
5
122
100
AcDbEntity
8
1
62
256
6
ByLayer
370
-1
48
1
60
0
100
AcDbEllipse
10
134.739468
20
0.472631
30
0
11
-0.000363964193888913
21
-0.800465996395239
31
0
210
0
220
0
230
-1
40
0.122745
41
1.63606819693189
42
-3.07632078344802
0
ELLIPSE
5
123
100
AcDbEntity
8
1
62
256
6
ByLayer
370
-1
48
1
60
0
100
AcDbEllipse
10
128.820748
20
-5.850541
30
0
11
-2
21
2.02127811016473E-15
31
0
210
0
220
0
230
1
40
0.998135
41
-2.12106600584354
42
-1.02062521243922
0
ELLIPSE
5
124
100
AcDbEntity
8
1
62
256
6
ByLayer
370
-1
48
1
60
0
100
AcDbEllipse
10
-30.993346
20
0
30
0
11
-423.274364102403
21
-23.016043272595
31
0
210
0
220
0
230
-1
40
0.014313
41
-1.96609441317696
42
-1.93558330539622
0
ELLIPSE
5
125
100
AcDbEntity
8
1
62
256
6
ByLayer
370
-1
48
1
60
0
100
AcDbEllipse
10
16.5
20
-10.556344
30
0
11
11
21
0
31
0
210
0
220
0
230
1
40
0.994933
41
3.14155033039668
42
-1.87151891552102
0
ELLIPSE
5
126
100
AcDbEntity
8
1
62
256
6
ByLayer
370
-1
48
1
60
0
100
AcDbEllipse
10
121.307725
20
0.000892
30
0
11
-0.770577894210673
21
23.7990131472659
31
0
210
0
220
0
230
-1
40
0.087399
41
0.0243172512373445
42
0.0316651132750207
0
ELLIPSE
5
127
100
AcDbEntity
8
1
62
256
6
ByLayer
370
-1
48
1
60
0
100
AcDbEllipse
10
121.747907
20
10.128295
30
0
11
-0.799516360141551
21
-0.0278134835287843
31
0
210
0
220
0
230
1
40
0.003042
41
0.0872135714651397
42
0.974050329556216
0
ELLIPSE
5
128
100
AcDbEntity
8
1
62
256
6
ByLayer
370
-1
48
1
60
0
100
AcDbEllipse
10
113.785132
20
10.960943
30
0
11
-0.31359574849725
21
-0.735973984950861
31
0
210
0
220
0
230
1
40
0.080227
41
0.382238758111253
42
1.60496756452653
0
ELLIPSE
5
129
100
AcDbEntity
8
1
62
256
6
ByLayer
370
-1
48
1
60
0
100
AcDbEllipse
10
122.519691
20
14.92077
30
0
11
2.46005201886418E-15
21
2.1
31
0
210
0
220
0
230
1
40
0.996195
41
0.939115740685907
42
1.60570291183478
0
ELLIPSE
5
12A
100
AcDbEntity
8
1
62
256
6
ByLayer
370
-1
48
1
60
0
100
AcDbEllipse
10
125.254771
20
19.070186
30
0
11
-3.27992028068685E-16
21
-0.306
31
0
210
0
220
0
230
1
40
0.996195
41
-0.750491578357621
42
2.39110107523218
0
ELLIPSE
5
12B
100
AcDbEntity
8
1
62
256
6
ByLayer
370
-1
48
1
60
0
100
AcDbEllipse
10
124.905193
20
13.193852
30
0
11
3.5846472274878E-16
21
0.306
31
0
210
0
220
0
230
1
40
0.996195
41
0.881327184779039
42
2.39110107523218
0
ELLIPSE
5
12C
100
AcDbEntity
8
1
62
256
6
ByLayer
370
-1
48
1
60
0
100
AcDbEllipse
10
130.097765
20
21.141898
30
0
11
-3.21560811832046E-16
21
-0.300000000000001
31
0
210
0
220
0
230
1
40
0.996195
41
-3.10668606854998
42
-0.28753685041726
0
ELLIPSE
5
12D
100
AcDbEntity
8
1
62
256
6
ByLayer
370
-1
48
1
60
0
100
AcDbEllipse
10
133.188829
20
18.248424
30
0
11
-3.21560811832046E-16
21
-0.300000000000001
31
0
210
0
220
0
230
1
40
0.996195
41
-1.21344630629795
42
1.60570291183477
0
ELLIPSE
5
12E
100
AcDbEntity
8
1
62
256
6
ByLayer
370
-1
48
1
60
0
100
AcDbEllipse
10
124.869634
20
13.193852
30
0
11
0.348527918949306
21
0.372328201608294
31
0
210
0
220
0
230
1
40
0.063742
41
-2.15470096795533
42
-1.5477987720853
0
ELLIPSE
5
12F
100
AcDbEntity
8
1
62
256
6
ByLayer
370
-1
48
1
60
0
100
AcDbEllipse
10
123.856784
20
20.345523
30
0
11
0.348527918949306
21
0.372328201608293
31
0
210
0
220
0
230
1
40
0.063742
41
-2.15470096795575
42
-1.51119985916239
0
ELLIPSE
5
130
100
AcDbEntity
8
1
62
256
6
ByLayer
370
-1
48
1
60
0
100
AcDbEllipse
10
132.97204
20
15.324927
30
0
11
0.383695343937984
21
-0.113039298654548
31
0
210
0
220
0
230
1
40
0.024717
41
1.48709549701761
42
1.96600058189173
0
ELLIPSE
5
131
100
AcDbEntity
8
1
62
256
6
ByLayer
370
-1
48
1
60
0
100
AcDbEllipse
10
125.276764
20
12.846033
30
0
11
-3.27992028068685E-16
21
-0.306
31
0
210
0
220
0
230
1
40
0.996195
41
-0.750491578357617
42
2.3911010752323
0
ELLIPSE
5
132
100
AcDbEntity
8
1
62
256
6
ByLayer
370
-1
48
1
60
0
100
AcDbEllipse
10
125.241205
20
12.846033
30
0
11
-0.348527918949299
21
-0.3723282016083
31
0
210
0
220
0
230
1
40
0.063742
41
0.986891685633991
42
2.27389390322046
0
ELLIPSE
5
133
100
AcDbEntity
8
1
62
256
6
ByLayer
370
-1
48
1
60
0
100
AcDbEllipse
10
126.040161
20
19.915631
30
0
11
-3.27992028068685E-16
21
-0.306
31
0
210
0
220
0
230
1
40
0.996195
41
-0.750491578357547
42
2.39110107523217
0
ELLIPSE
5
134
100
AcDbEntity
8
1
62
256
6
ByLayer
370
-1
48
1
60
0
100
AcDbEllipse
10
133.084529
20
21.246596
30
0
11
-3.21560811832048E-16
21
-0.300000000000003
31
0
210
0
220
0
230
1
40
0.996195
41
1.60570291183477
42
-3.10668606854998
0
ELLIPSE
5
135
100
AcDbEntity
8
1
62
256
6
ByLayer
370
-1
48
1
60
0
100
AcDbEllipse
10
128.751912
20
16.586907
30
0
11
4.99704147825015E-15
21
4.26567691408833
31
0
210
0
220
0
230
1
40
0.996195
41
-1.21344630629793
42
-0.287536850417217
0
ELLIPSE
5
136
100
AcDbEntity
8
1
62
256
6
ByLayer
370
-1
48
1
60
0
100
AcDbEllipse
10
133.557305
20
15.25032
30
0
11
-0.399758180070776
21
-0.013906741764392
31
0
210
0
220
0
230
1
40
0.003042
41
1.65800989826111
42
2.13691498313666
0
ELLIPSE
5
137
100
AcDbEntity
8
1
62
256
6
ByLayer
370
-1
48
1
60
0
100
AcDbEllipse
10
123.892343
20
20.345523
30
0
11
3.5846472274878E-16
21
0.306
31
0
210
0
220
0
230
1
40
0.996195
41
-0.194895099806022
42
2.39110107523224
0
ELLIPSE
5
138
100
AcDbEntity
8
1
62
256
6
ByLayer
370
-1
48
1
60
0
100
AcDbEllipse
10
130.411027
20
12.136979
30
0
11
3.51436002694884E-16
21
0.300000000000001
31
0
210
0
220
0
230
1
40
0.996195
41
0.357350020497004
42
-3.10668606854988
0
ELLIPSE
5
139
100
AcDbEntity
8
1
62
256
6
ByLayer
370
-1
48
1
60
0
100
AcDbEllipse
10
125.161266
20
12.721703
30
0
11
1.35420006371761E-15
21
1.156
31
0
210
0
220
0
230
1
40
0.996195
41
1.74759996643895
42
-2.42145532631401
0
ELLIPSE
5
13A
100
AcDbEntity
8
1
62
256
6
ByLayer
370
-1
48
1
60
0
100
AcDbEllipse
10
125.331628
20
13.691173
30
0
11
0.373651049327857
21
-0.347109339165905
31
0
210
0
220
0
230
1
40
0.05944
41
1.50689827555577
42
2.15039938434867
0
ELLIPSE
5
13B
100
AcDbEntity
8
1
62
256
6
ByLayer
370
-1
48
1
60
0
100
AcDbEllipse
10
130.052473
20
21.441715
30
0
11
-0.0140130575244562
21
0.399754467415708
31
0
210
0
220
0
230
1
40
0.087103
41
-1.5738496276308
42
-1.09494454275608
0
ELLIPSE
5
13C
100
AcDbEntity
8
1
62
256
6
ByLayer
370
-1
48
1
60
0
100
AcDbEllipse
10
125.219211
20
19.070186
30
0
11
0.348527918949306
21
0.372328201608293
31
0
210
0
220
0
230
1
40
0.063742
41
-2.15470096795575
42
-0.867698750369077
0
ELLIPSE
5
13D
100
AcDbEntity
8
1
62
256
6
ByLayer
370
-1
48
1
60
0
100
AcDbEllipse
10
125.276764
20
12.846033
30
0
11
-5.83096938788774E-16
21
-0.544
31
0
210
0
220
0
230
1
40
0.996195
41
0.920472169598869
42
2.77549784972784
0
ELLIPSE
5
13E
100
AcDbEntity
8
1
62
256
6
ByLayer
370
-1
48
1
60
0
100
AcDbEllipse
10
125.367188
20
13.691173
30
0
11
3.5846472274878E-16
21
0.306
31
0
210
0
220
0
230
1
40
0.996195
41
-0.106990469564304
42
0.820304748434617
0
ELLIPSE
5
13F
100
AcDbEntity
8
1
62
256
6
ByLayer
370
-1
48
1
60
0
100
AcDbEllipse
10
133.661605
20
12.252147
30
0
11
0.399758180070776
21
0.0139067417643925
31
0
210
0
220
0
230
1
40
0.003042
41
-1.48358275532882
42
-1.004677670455
0
ELLIPSE
5
140
100
AcDbEntity
8
1
62
256
6
ByLayer
370
-1
48
1
60
0
100
AcDbEllipse
10
130.271626
20
12.418027
30
0
11
0.14038589456198
21
-0.374555470668942
31
0
210
0
220
0
230
1
40
0.08165
41
1.54020296240859
42
2.01910804728306
0
ELLIPSE
5
141
100
AcDbEntity
8
1
62
256
6
ByLayer
370
-1
48
1
60
0
100
AcDbEllipse
10
130.386595
20
11.837162
30
0
11
0.0140130575244561
21
-0.399754467415708
31
0
210
0
220
0
230
1
40
0.087103
41
1.08883794108392
42
1.56774302595899
0
ELLIPSE
5
142
100
AcDbEntity
8
1
62
256
6
ByLayer
370
-1
48
1
60
0
100
AcDbEllipse
10
133.289569
20
15.23985
30
0
11
-5.19131082315857E-16
21
-0.484323085911668
31
0
210
0
220
0
230
1
40
0.996195
41
1.60570291183474
42
-1.85833317721212
0
ELLIPSE
5
143
100
AcDbEntity
8
1
62
256
6
ByLayer
370
-1
48
1
60
0
100
AcDbEllipse
10
129.978149
20
20.854214
30
0
11
0.113834701403356
21
0.383460116252537
31
0
210
0
220
0
230
1
40
0.083578
41
-2.02489549788603
42
-1.54599041301063
0
ELLIPSE
5
144
100
AcDbEntity
8
1
62
256
6
ByLayer
370
-1
48
1
60
0
100
AcDbEllipse
10
133.348343
20
21.257066
30
0
11
0.399758180070776
21
0.0139067417643925
31
0
210
0
220
0
230
1
40
0.003042
41
-1.48358275532896
42
-1.00467767045482
0
ELLIPSE
5
145
100
AcDbEntity
8
1
62
256
6
ByLayer
370
-1
48
1
60
0
100
AcDbEllipse
10
124.963344
20
20.133299
30
0
11
-3.27992028068685E-16
21
-0.306
31
0
210
0
220
0
230
1
40
0.996195
41
-0.194895099806056
42
1.83550459668072
0
ELLIPSE
5
146
100
AcDbEntity
8
1
62
256
6
ByLayer
370
-1
48
1
60
0
100
AcDbEllipse
10
130.407105
20
12.136979
30
0
11
-5.19131082315856E-16
21
-0.484323085911667
31
0
210
0
220
0
230
1
40
0.996195
41
-2.78424263309281
42
0.0349065850398707
0
ELLIPSE
5
147
100
AcDbEntity
8
1
62
256
6
ByLayer
370
-1
48
1
60
0
100
AcDbEllipse
10
124.292141
20
12.572202
30
0
11
0.502108561637825
21
0.0893699744320993
31
0
210
0
220
0
230
1
40
0.015329
41
-2.12838464107858
42
-0.841382423491913
0
ELLIPSE
5
148
100
AcDbEntity
8
1
62
256
6
ByLayer
370
-1
48
1
60
0
100
AcDbEllipse
10
125.331628
20
13.691173
30
0
11
-0.0546667450361371
21
-0.507061679667428
31
0
210
0
220
0
230
1
40
0.086657
41
1.58013866027565
42
2.22363976906877
0
ELLIPSE
5
149
100
AcDbEntity
8
1
62
256
6
ByLayer
370
-1
48
1
60
0
100
AcDbEllipse
10
124.856955
20
13.180204
30
0
11
-0.37340082812668
21
0.346876892031236
31
0
210
0
220
0
230
1
40
0.05944
41
-1.63469437803416
42
-0.992087287820099
0
ELLIPSE
5
14A
100
AcDbEntity
8
1
62
256
6
ByLayer
370
-1
48
1
60
0
100
AcDbEllipse
10
133.373358
20
11.94186
30
0
11
0.0140130575244561
21
-0.399754467415708
31
0
210
0
220
0
230
1
40
0.087103
41
1.08883794108392
42
1.56774302595899
0
ELLIPSE
5
14B
100
AcDbEntity
8
1
62
256
6
ByLayer
370
-1
48
1
60
0
100
AcDbEllipse
10
129.009509
20
16.586907
30
0
11
-2.51889302601768E-15
21
-2.35
31
0
210
0
220
0
230
1
40
0.996195
41
3.09878844376697
42
0
0
ELLIPSE
5
14C
100
AcDbEntity
8
1
62
256
6
ByLayer
370
-1
48
1
60
0
100
AcDbEllipse
10
129.009509
20
16.586907
30
0
11
-2.51889302601768E-15
21
-2.35
31
0
210
0
220
0
230
1
40
0.996195
41
0
42
0.0335758030814264
0
ELLIPSE
5
14D
100
AcDbEntity
8
1
62
256
6
ByLayer
370
-1
48
1
60
0
100
AcDbEllipse
10
132.873988
20
18.143486
30
0
11
0.374905085817622
21
0.139449548683677
31
0
210
0
220
0
230
1
40
0.030486
41
-1.96792246060808
42
-1.48901737573335
0
ELLIPSE
5
14E
100
AcDbEntity
8
1
62
256
6
ByLayer
370
-1
48
1
60
0
100
AcDbEllipse
10
124.602834
20
13.360661
30
0
11
1.63300595918889E-15
21
1.394
31
0
210
0
220
0
230
1
40
0.996195
41
-2.42145532631402
42
-2.22112048399091
0
ELLIPSE
5
14F
100
AcDbEntity
8
1
62
256
6
ByLayer
370
-1
48
1
60
0
100
AcDbEllipse
10
126.004601
20
19.915631
30
0
11
0.348527918949306
21
0.372328201608293
31
0
210
0
220
0
230
1
40
0.063742
41
-2.15470096795575
42
-0.867698750369077
0
ELLIPSE
5
150
100
AcDbEntity
8
1
62
256
6
ByLayer
370
-1
48
1
60
0
100
AcDbEllipse
10
125.684138
20
12.082745
30
0
11
-0.337063013710962
21
0.382738193531928
31
0
210
0
220
0
230
1
40
0.065516
41
-2.27193125321763
42
-0.984929035630554
0
ELLIPSE
5
151
100
AcDbEntity
8
1
62
256
6
ByLayer
370
-1
48
1
60
0
100
AcDbEllipse
10
123.856784
20
20.345523
30
0
11
-1.65004005490564
21
0.846499038533201
31
0
210
0
220
0
230
-1
40
0.010943
41
1.59212368548718
42
2.23562479420177
0
ELLIPSE
5
152
100
AcDbEntity
8
1
62
256
6
ByLayer
370
-1
48
1
60
0
100
AcDbEllipse
10
133.452643
20
18.258894
30
0
11
-0.399758180070776
21
-0.013906741764392
31
0
210
0
220
0
230
1
40
0.003042
41
1.65800989826097
42
2.1369149831345
0
ELLIPSE
5
153
100
AcDbEntity
8
1
62
256
6
ByLayer
370
-1
48
1
60
0
100
AcDbEllipse
10
128.848982
20
16.586907
30
0
11
-3.19627500372467E-15
21
-2.98196318032136
31
0
210
0
220
0
230
1
40
0.996195
41
0
42
6.28318530717959
0
ELLIPSE
5
154
100
AcDbEntity
8
1
62
256
6
ByLayer
370
-1
48
1
60
0
100
AcDbEllipse
10
124.927784
20
20.133299
30
0
11
-0.705563291498058
21
0.659061826849846
31
0
210
0
220
0
230
-1
40
0.031444
41
0.960945087836555
42
1.60444619672803
0
ELLIPSE
5
155
100
AcDbEntity
8
1
62
256
6
ByLayer
370
-1
48
1
60
0
100
AcDbEllipse
10
128.825267
20
16.586907
30
0
11
-3.30786649004912E-15
21
-3.0860724021715
31
0
210
0
220
0
230
1
40
0.996195
41
2.2155101975546
42
0
0
ELLIPSE
5
156
100
AcDbEntity
8
1
62
256
6
ByLayer
370
-1
48
1
60
0
100
AcDbEllipse
10
128.825267
20
16.586907
30
0
11
-3.30786649004912E-15
21
-3.0860724021715
31
0
210
0
220
0
230
1
40
0.996195
41
0
42
0.926082660508351
0
ELLIPSE
5
157
100
AcDbEntity
8
1
62
256
6
ByLayer
370
-1
48
1
60
0
100
AcDbEllipse
10
124.869634
20
13.193852
30
0
11
-0.719441080274228
21
-0.0251232539803886
31
0
210
0
220
0
230
-1
40
0.002159
41
-2.27604469501293
42
-1.63254358641791
0
ELLIPSE
5
158
100
AcDbEntity
8
1
62
256
6
ByLayer
370
-1
48
1
60
0
100
AcDbEllipse
10
133.080607
20
21.246596
30
0
11
-5.19131082315858E-16
21
-0.484323085911669
31
0
210
0
220
0
230
1
40
0.996195
41
1.60570291183474
42
-3.10668606854993
0
ELLIPSE
5
159
100
AcDbEntity
8
1
62
256
6
ByLayer
370
-1
48
1
60
0
100
AcDbEllipse
10
129.14847
20
16.586907
30
0
11
-2.51889302601768E-15
21
-2.35
31
0
210
0
220
0
230
1
40
0.996195
41
-3.11194384373769
42
-0.0296489603413489
0
ELLIPSE
5
15A
100
AcDbEntity
8
1
62
256
6
ByLayer
370
-1
48
1
60
0
100
AcDbEllipse
10
133.393869
20
12.241677
30
0
11
-5.19131082315858E-16
21
-0.484323085911669
31
0
210
0
220
0
230
1
40
0.996195
41
0.034906585039867
42
1.60570291183474
0
ELLIPSE
5
15B
100
AcDbEntity
8
1
62
256
6
ByLayer
370
-1
48
1
60
0
100
AcDbEllipse
10
124.642174
20
21.190968
30
0
11
0.348527918949306
21
0.372328201608293
31
0
210
0
220
0
230
1
40
0.063742
41
-1.51119985916239
42
-0.867698750368766
0
ELLIPSE
5
15C
100
AcDbEntity
8
1
62
256
6
ByLayer
370
-1
48
1
60
0
100
AcDbEllipse
10
124.327701
20
12.572202
30
0
11
3.58464722748779E-16
21
0.305999999999999
31
0
210
0
220
0
230
1
40
0.996195
41
-1.39399268715084
42
1.747599966439
0
ELLIPSE
5
15D
100
AcDbEntity
8
1
62
256
6
ByLayer
370
-1
48
1
60
0
100
AcDbEllipse
10
124.927784
20
20.133299
30
0
11
0.0991314983363853
21
0.500272871578685
31
0
210
0
220
0
230
1
40
0.085506
41
-2.19735568521924
42
-1.55385457642578
0
ELLIPSE
5
15E
100
AcDbEntity
8
1
62
256
6
ByLayer
370
-1
48
1
60
0
100
AcDbEllipse
10
128.751912
20
16.586907
30
0
11
4.99704147825015E-15
21
4.26567691408833
31
0
210
0
220
0
230
1
40
0.996195
41
-2.78424263309282
42
-1.85833317721211
0
ELLIPSE
5
15F
100
AcDbEntity
8
1
62
256
6
ByLayer
370
-1
48
1
60
0
100
AcDbEllipse
10
123.856784
20
20.345523
30
0
11
0.0991314983363853
21
0.500272871578685
31
0
210
0
220
0
230
1
40
0.085506
41
-1.55385457642578
42
-0.9103534676326
0
ELLIPSE
5
160
100
AcDbEntity
8
1
62
256
6
ByLayer
370
-1
48
1
60
0
100
AcDbEllipse
10
130.093843
20
21.141898
30
0
11
-5.19131082315856E-16
21
-0.484323085911667
31
0
210
0
220
0
230
1
40
0.996195
41
-3.10668606854987
42
-0.287536850417242
0
ELLIPSE
5
161
100
AcDbEntity
8
1
62
256
6
ByLayer
370
-1
48
1
60
0
100
AcDbEllipse
10
133.039236
20
21.546413
30
0
11
-0.0140130575244562
21
0.399754467415708
31
0
210
0
220
0
230
1
40
0.087103
41
-1.5738496276308
42
-1.09494454275567
0
ELLIPSE
5
162
100
AcDbEntity
8
1
62
256
6
ByLayer
370
-1
48
1
60
0
100
AcDbEllipse
10
124.927784
20
20.133299
30
0
11
0.492364140378784
21
0.132956960212926
31
0
210
0
220
0
230
1
40
0.022802
41
-1.48655483674059
42
-0.843053727947168
0
ELLIPSE
5
163
100
AcDbEntity
8
1
62
256
6
ByLayer
370
-1
48
1
60
0
100
AcDbEllipse
10
124.869638
20
13.193851
30
0
11
-0.0251696973680415
21
0.720773667508816
31
0
210
0
220
0
230
-1
40
0.061588
41
1.57294516737092
42
1.60954581727764
0
ELLIPSE
5
164
100
AcDbEntity
8
1
62
256
6
ByLayer
370
-1
48
1
60
0
100
AcDbEllipse
10
124.642174
20
21.190968
30
0
11
-0.956951143243459
21
1.59255145078279
31
0
210
0
220
0
230
-1
40
0.020508
41
1.58311883802653
42
2.22661994677887
0
ELLIPSE
5
165
100
AcDbEntity
8
1
62
256
6
ByLayer
370
-1
48
1
60
0
100
AcDbEllipse
10
133.397791
20
12.241677
30
0
11
3.51436002694886E-16
21
0.300000000000003
31
0
210
0
220
0
230
1
40
0.996195
41
-3.10668606854989
42
-1.53588974175502
0
ELLIPSE
5
166
100
AcDbEntity
8
1
62
256
6
ByLayer
370
-1
48
1
60
0
100
AcDbEllipse
10
128.755834
20
16.586907
30
0
11
-4.76981870884199E-15
21
-4.45
31
0
210
0
220
0
230
1
40
0.996195
41
0.357350020496971
42
1.28325947637769
0
ELLIPSE
5
167
100
AcDbEntity
8
1
62
256
6
ByLayer
370
-1
48
1
60
0
100
AcDbEllipse
10
124.642174
20
21.190968
30
0
11
0.492364140378784
21
0.132956960212926
31
0
210
0
220
0
230
1
40
0.022802
41
-2.13005594553427
42
-1.48655483674062
0
ELLIPSE
5
168
100
AcDbEntity
8
1
62
256
6
ByLayer
370
-1
48
1
60
0
100
AcDbEllipse
10
124.856955
20
13.180204
30
0
11
0.373651049327857
21
-0.347109339165905
31
0
210
0
220
0
230
1
40
0.05944
41
1.47029936263272
42
2.15039938434918
0
ELLIPSE
5
169
100
AcDbEntity
8
1
62
256
6
ByLayer
370
-1
48
1
60
0
100
AcDbEllipse
10
133.184907
20
18.248424
30
0
11
-5.19131082315857E-16
21
-0.484323085911668
31
0
210
0
220
0
230
1
40
0.996195
41
-1.21344630629796
42
1.60570291183474
0
ELLIPSE
5
16A
100
AcDbEntity
8
1
62
256
6
ByLayer
370
-1
48
1
60
0
100
AcDbEllipse
10
124.602834
20
13.360661
30
0
11
2.34993540468645E-15
21
2.006
31
0
210
0
220
0
230
1
40
0.996195
41
-2.42145532631402
42
-2.2211204839909
0
ELLIPSE
5
16B
100
AcDbEntity
8
1
62
256
6
ByLayer
370
-1
48
1
60
0
100
AcDbEllipse
10
125.276764
20
12.846033
30
0
11
-1.23908099492614E-15
21
-1.156
31
0
210
0
220
0
230
1
40
0.996195
41
0.920472169598878
42
3.0346021840255
0
ELLIPSE
5
16C
100
AcDbEntity
8
1
62
256
6
ByLayer
370
-1
48
1
60
0
100
AcDbEllipse
10
124.677733
20
21.190968
30
0
11
3.5846472274878E-16
21
0.306
31
0
210
0
220
0
230
1
40
0.996195
41
-0.750491578357555
42
1.83550459668068
0
ELLIPSE
5
16D
100
AcDbEntity
8
1
62
256
6
ByLayer
370
-1
48
1
60
0
100
AcDbEllipse
10
128.755834
20
16.586907
30
0
11
5.21296737330743E-15
21
4.45
31
0
210
0
220
0
230
1
40
0.996195
41
-1.21344630629792
42
-0.287536850417202
0
ELLIPSE
5
16E
100
AcDbEntity
8
1
62
256
6
ByLayer
370
-1
48
1
60
0
100
AcDbEllipse
10
133.293491
20
15.23985
30
0
11
3.51436002694884E-16
21
0.300000000000001
31
0
210
0
220
0
230
1
40
0.996195
41
-1.53588974175502
42
1.28325947637766
0
ELLIPSE
5
16F
100
AcDbEntity
8
1
62
256
6
ByLayer
370
-1
48
1
60
0
100
AcDbEllipse
10
128.751912
20
16.586907
30
0
11
3.68413502519129E-15
21
3.14492681194351
31
0
210
0
220
0
230
1
40
0.996195
41
0
42
6.28318530717959
0
ELLIPSE
5
170
100
AcDbEntity
8
1
62
256
6
ByLayer
370
-1
48
1
60
0
100
AcDbEllipse
10
125.915135
20
12.331405
30
0
11
-0.406468958660141
21
0.308030819311543
31
0
210
0
220
0
230
1
40
0.052768
41
-2.28381636720034
42
-0.996814149614522
0
ELLIPSE
5
171
100
AcDbEntity
8
1
62
256
6
ByLayer
370
-1
48
1
60
0
100
AcDbEllipse
10
125.161266
20
12.721703
30
0
11
6.37270618220054E-16
21
0.544
31
0
210
0
220
0
230
1
40
0.996195
41
1.74759996643892
42
-2.42145532631402
0
ELLIPSE
5
172
100
AcDbEntity
8
1
62
256
6
ByLayer
370
-1
48
1
60
0
100
AcDbEllipse
10
135.088928
20
-8.907997
30
0
11
0.29981059662464
21
-0.0106586186524087
31
0
210
0
220
0
230
1
40
0.062172
41
0.451113598197637
42
0.749081453625477
0
ELLIPSE
5
173
100
AcDbEntity
8
1
62
256
6
ByLayer
370
-1
48
1
60
0
100
AcDbEllipse
10
134.935488
20
-1.5325
30
0
11
0.375794833735044
21
0.137033729198511
31
0
210
0
220
0
230
1
40
0.057367
41
-2.20153972804393
42
-1.59171212435573
0
ELLIPSE
5
174
100
AcDbEntity
8
1
62
256
6
ByLayer
370
-1
48
1
60
0
100
AcDbEllipse
10
139.524413
20
-6.657631
30
0
11
4.28093556580439
21
0
31
0
210
0
220
0
230
1
40
0.998135
41
-3.08923277602997
42
-2.7222122767235
0
ELLIPSE
5
175
100
AcDbEntity
8
1
62
256
6
ByLayer
370
-1
48
1
60
0
100
AcDbEllipse
10
134.501036
20
-8.893024
30
0
11
-1.21906443419553
21
1.23203412785989E-15
31
0
210
0
220
0
230
1
40
0.998135
41
3.10668606854992
42
-2.72221227672346
0
ELLIPSE
5
176
100
AcDbEntity
8
1
62
256
6
ByLayer
370
-1
48
1
60
0
100
AcDbEllipse
10
133.636065
20
-0.572896
30
0
11
1.18387341434896
21
0
31
0
210
0
220
0
230
1
40
0.998135
41
0.349065850399013
42
0.562582727638065
0
ELLIPSE
5
177
100
AcDbEntity
8
1
62
256
6
ByLayer
370
-1
48
1
60
0
100
AcDbEllipse
10
134.198888
20
-1.82452
30
0
11
1.08387341434895
21
0
31
0
210
0
220
0
230
1
40
0.998135
41
0.0523598775598168
42
0.34906585039904
0
ELLIPSE
5
178
100
AcDbEntity
8
1
62
256
6
ByLayer
370
-1
48
1
60
0
100
AcDbEllipse
10
139.524413
20
-6.657631
30
0
11
-3.98093556580436
21
4.02328895856829E-15
31
0
210
0
220
0
230
1
40
0.998135
41
0.0523598775598141
42
0.419380376866294
0
ELLIPSE
5
179
100
AcDbEntity
8
1
62
256
6
ByLayer
370
-1
48
1
60
0
100
AcDbEllipse
10
129.064564
20
-6.257222
30
0
11
2.35
21
0
31
0
210
0
220
0
230
1
40
0.998135
41
1.43914375962751
42
2.37141152198152
0
ELLIPSE
5
17A
100
AcDbEntity
8
1
62
256
6
ByLayer
370
-1
48
1
60
0
100
AcDbEllipse
10
129.064564
20
-6.257222
30
0
11
2.35
21
0
31
0
210
0
220
0
230
1
40
0.998135
41
-3.14159257215789
42
-3.78654454259376E-16
0
ELLIPSE
5
17B
100
AcDbEntity
8
1
62
256
6
ByLayer
370
-1
48
1
60
0
100
AcDbEllipse
10
134.501036
20
-9.021226
30
0
11
-2.24215242210385
21
2.26600680522567E-15
31
0
210
0
220
0
230
1
40
0.998135
41
3.10668606854989
42
-2.72221227672349
0
ELLIPSE
5
17C
100
AcDbEntity
8
1
62
256
6
ByLayer
370
-1
48
1
60
0
100
AcDbEllipse
10
134.768686
20
-10.829353
30
0
11
-0.883873414348952
21
8.93276992290047E-16
31
0
210
0
220
0
230
1
40
0.998135
41
2.13630974316582
42
3.10668606854993
0
ELLIPSE
5
17D
100
AcDbEntity
8
1
62
256
6
ByLayer
370
-1
48
1
60
0
100
AcDbEllipse
10
135.614458
20
-8.373134
30
0
11
0.365223319349419
21
0.163131624780091
31
0
210
0
220
0
230
1
40
0.055758
41
-2.7168121208428
42
-1.59569626835045
0
ELLIPSE
5
17E
100
AcDbEntity
8
1
62
256
6
ByLayer
370
-1
48
1
60
0
100
AcDbEllipse
10
135.038678
20
-8.647931
30
0
11
0.274043758267672
21
0.122065632159629
31
0
210
0
220
0
230
1
40
0.058035
41
0.42483932031885
42
0.724171078307415
0
ELLIPSE
5
17F
100
AcDbEntity
8
1
62
256
6
ByLayer
370
-1
48
1
60
0
100
AcDbEllipse
10
135.719357
20
-8.91107
30
0
11
0.399755420109682
21
-0.0139858533144044
31
0
210
0
220
0
230
1
40
0.061011
41
-2.69051241236504
42
-1.56866178537651
0
ELLIPSE
5
180
100
AcDbEntity
8
1
62
256
6
ByLayer
370
-1
48
1
60
0
100
AcDbEllipse
10
135.249345
20
-6.856841
30
0
11
0.399449767440438
21
0.020973394855864
31
0
210
0
220
0
230
1
40
0.060965
41
-2.26002761206156
42
-1.5739973200739
0
ELLIPSE
5
181
100
AcDbEntity
8
1
62
256
6
ByLayer
370
-1
48
1
60
0
100
AcDbEllipse
10
129.064564
20
-6.360662
30
0
11
2.35
21
0
31
0
210
0
220
0
230
1
40
0.998135
41
1.21020019771931
42
2.43365406000298
0
ELLIPSE
5
182
100
AcDbEntity
8
1
62
256
6
ByLayer
370
-1
48
1
60
0
100
AcDbEllipse
10
129.064564
20
-6.360662
30
0
11
2.35
21
0
31
0
210
0
220
0
230
1
40
0.998135
41
-3.14159257215789
42
-3.78654454259376E-16
0
ELLIPSE
5
183
100
AcDbEntity
8
1
62
256
6
ByLayer
370
-1
48
1
60
0
100
AcDbEllipse
10
134.198888
20
-1.82452
30
0
11
-0.783873414348954
21
7.92213086781812E-16
31
0
210
0
220
0
230
1
40
0.998135
41
-3.08923277602995
42
-2.79252680319094
0
ELLIPSE
5
184
100
AcDbEntity
8
1
62
256
6
ByLayer
370
-1
48
1
60
0
100
AcDbEllipse
10
135.652021
20
-10.835723
30
0
11
0.399755420109682
21
-0.0139858533144044
31
0
210
0
220
0
230
1
40
0.061011
41
-2.69514959798623
42
-1.56866178537651
0
ELLIPSE
5
185
100
AcDbEntity
8
1
62
256
6
ByLayer
370
-1
48
1
60
0
100
AcDbEllipse
10
134.501036
20
-9.149428
30
0
11
-2.49999999999999
21
2.5265976377059E-15
31
0
210
0
220
0
230
1
40
0.998135
41
3.1066860685499
42
-2.7222122767235
0
ELLIPSE
5
186
100
AcDbEntity
8
1
62
256
6
ByLayer
370
-1
48
1
60
0
100
AcDbEllipse
10
134.768686
20
-10.829353
30
0
11
1.18387341434896
21
0
31
0
210
0
220
0
230
1
40
0.998135
41
-1.15180100044598
42
-0.0349065850398913
0
ELLIPSE
5
187
100
AcDbEntity
8
1
62
256
6
ByLayer
370
-1
48
1
60
0
100
AcDbEllipse
10
134.501036
20
-8.893024
30
0
11
1.51906443419564
21
0
31
0
210
0
220
0
230
1
40
0.998135
41
-0.0349065850399031
42
0.419380376866321
0
ELLIPSE
5
188
100
AcDbEntity
8
1
62
256
6
ByLayer
370
-1
48
1
60
0
100
AcDbEllipse
10
135.020086
20
-10.83263
30
0
11
0.299807269110745
21
-0.010751808608676
31
0
210
0
220
0
230
1
40
0.062833
41
0.44649492500309
42
0.735886306861261
0
ELLIPSE
5
189
100
AcDbEntity
8
1
62
256
6
ByLayer
370
-1
48
1
60
0
100
AcDbEllipse
10
134.981687
20
-1.759152
30
0
11
0.399449767440438
21
0.020973394855864
31
0
210
0
220
0
230
1
40
0.060965
41
-2.26004055362343
42
-1.5739973200739
0
ELLIPSE
5
18A
100
AcDbEntity
8
1
62
256
6
ByLayer
370
-1
48
1
60
0
100
AcDbEllipse
10
139.524413
20
-6.914035
30
0
11
-3.00000000000001
21
3.0319171652471E-15
31
0
210
0
220
0
230
1
40
0.998135
41
0.0523598775598173
42
0.419380376866299
0
ELLIPSE
5
18B
100
AcDbEntity
8
1
62
256
6
ByLayer
370
-1
48
1
60
0
100
AcDbEllipse
10
139.524413
20
-6.785833
30
0
11
-3.25784757789614
21
3.29250799772732E-15
31
0
210
0
220
0
230
1
40
0.998135
41
0.0523598775598186
42
0.419380376866289
0
POINT
5
41
100
AcDbEntity
8
81
62
256
6
ByLayer
370
-1
48
1
60
0
100
AcDbPoint
10
137
20
0
30
0
39
0
210
0
220
0
230
1
50
360
0
POINT
5
43
100
AcDbEntity
8
80
62
256
6
ByLayer
370
-1
48
1
60
0
100
AcDbPoint
10
0
20
0
30
0
39
0
210
0
220
0
230
1
50
360
0
SPLINE
5
18C
100
AcDbEntity
8
1
62
256
6
ByLayer
370
-1
48
1
60
0
100
AcDbSpline
70
4
71
3
72
14
73
10
40
0
40
0
40
0
40
0
40
0.0494021372049776
40
0.218888154737962
40
0.388114921534689
40
0.557115196241673
40
0.72595362173679
40
0.894716831951667
40
1
40
1
40
1
40
1
41
1
10
127.319490404334
20
-4.79343867629555
30
0
41
1
10
127.349098277311
20
-4.76074741398753
30
0
41
1
10
127.484404517655
20
-4.61956327130585
30
0
41
1
10
127.755162859349
20
-4.39988948724672
30
0
41
1
10
128.158685723285
20
-4.18560018539941
30
0
41
1
10
128.595845077081
20
-4.05270873027916
30
0
41
1
10
129.050278537701
20
-4.00604622564114
30
0
41
1
10
129.44802219289
20
-4.04206290215603
30
0
41
1
10
129.686849838885
20
-4.10222666180374
30
0
41
1
10
129.776860488026
20
-4.13073126309394
30
0
0
SPLINE
5
18D
100
AcDbEntity
8
1
62
256
6
ByLayer
370
-1
48
1
60
0
100
AcDbSpline
70
4
71
3
72
18
73
14
40
0
40
0
40
0
40
0
40
0.0800134033157347
40
0.160638936339174
40
0.241142246180794
40
0.321161817960836
40
0.401320792380845
40
0.481286827715783
40
0.561104009438616
40
0.670689226765972
40
0.78023882700536
40
0.889935608096917
40
1
40
1
40
1
40
1
41
1
10
34
20
23.8
30
0
41
1
10
33.1879686029682
20
23.8004917147298
30
0
41
1
10
31.5740599777264
20
23.9080803080493
30
0
41
1
10
29.1849384572131
20
24.4021793069624
30
0
41
1
10
26.8766822030826
20
25.1959269353432
30
0
41
1
10
24.7412839429456
20
26.3565358296821
30
0
41
1
10
22.5670281526173
20
27.420999057354
30
0
41
1
10
20.3356409817327
20
28.3585211949676
30
0
41
1
10
17.7779211955258
20
29.2735866902235
30
0
41
1
10
14.8764328351421
20
30.0998315773601
30
0
41
1
10
11.6247958022085
20
30.7586305027482
30
0
41
1
10
8.32457511471245
20
31.16000308257
30
0
41
1
10
6.11217805896391
20
31.2494721537536
30
0
41
1
10
5.00000000000003
20
31.25
30
0
0
SPLINE
5
18E
100
AcDbEntity
8
1
62
256
6
ByLayer
370
-1
48
1
60
0
100
AcDbSpline
70
4
71
3
72
18
73
14
40
0
40
0
40
0
40
0
40
0.11205941009827
40
0.223742166056569
40
0.335279799088941
40
0.44686362746677
40
0.558651498255942
40
0.632030609170107
40
0.705584275024056
40
0.778906722433995
40
0.852793455411165
40
0.926679521837804
40
1
40
1
40
1
40
1
41
1
10
4.99999999999997
20
-31.25
30
0
41
1
10
6.13244468145783
20
-31.2494390666497
30
0
41
1
10
8.38482484988947
20
-31.1566916025405
30
0
41
1
10
11.7442038752987
20
-30.7407990825907
30
0
41
1
10
15.0525103137761
20
-30.0578879676264
30
0
41
1
10
18.2989687202581
20
-29.1175590483454
30
0
41
1
10
21.0990513829583
20
-28.058149747851
30
0
41
1
10
23.4838369189167
20
-26.9972693068096
30
0
41
1
10
25.4403213517151
20
-25.9477844592036
30
0
41
1
10
27.4474255902878
20
-24.9770052354685
30
0
41
1
10
29.5799311633099
20
-24.3054584886519
30
0
41
1
10
31.7770312714236
20
-23.8909132374706
30
0
41
1
10
33.2566868024642
20
-23.8003467297317
30
0
41
1
10
34
20
-23.8
30
0
0
SPLINE
5
18F
100
AcDbEntity
8
1
62
256
6
ByLayer
370
-1
48
1
60
0
100
AcDbSpline
70
4
71
3
72
24
73
20
40
0
40
0
40
0
40
0
40
0.0512219324958767
40
0.114795075180323
40
0.178268200557104
40
0.241581453348859
40
0.304701879023933
40
0.367626814561746
40
0.430381895458734
40
0.493015351540051
40
0.555590417373338
40
0.618167359708299
40
0.680802024190585
40
0.743557000805004
40
0.806479913225127
40
0.869596202215566
40
0.932903765868318
40
0.996370983435654
40
1
40
1
40
1
40
1
41
1
10
129.108432545587
20
18.9278786006394
30
0
41
1
10
129.230897009712
20
18.9258044701703
30
0
41
1
10
129.500252302966
20
18.8985961037067
30
0
41
1
10
129.906746458738
20
18.771045383936
30
0
41
1
10
130.307085512449
20
18.5565281066093
30
0
41
1
10
130.658891084608
20
18.2672840781135
30
0
41
1
10
130.948675989078
20
17.9156379724363
30
0
41
1
10
131.165770243257
20
17.5146295557383
30
0
41
1
10
131.302260266019
20
17.0794878670097
30
0
41
1
10
131.353330450512
20
16.626460298409
30
0
41
1
10
131.317331580017
20
16.1723727068556
30
0
41
1
10
131.195802238616
20
15.7339714368654
30
0
41
1
10
130.993373077751
20
15.3274116553311
30
0
41
1
10
130.717528948072
20
14.9673291983356
30
0
41
1
10
130.378342329632
20
14.6677578516793
30
0
41
1
10
129.988041480824
20
14.436584603817
30
0
41
1
10
129.561145123268
20
14.2945313757514
30
0
41
1
10
129.253580290023
20
14.2313127521881
30
0
41
1
10
129.095255901979
20
14.2400212585635
30
0
41
1
10
129.086686963363
20
14.2405675607912
30
0
0
SPLINE
5
190
100
AcDbEntity
8
1
62
256
6
ByLayer
370
-1
48
1
60
0
100
AcDbSpline
70
4
71
3
72
8
73
4
40
0
40
0
40
0
40
0
40
1
40
1
40
1
40
1
41
1
10
31.98713874263
20
-22.3857489144275
30
0
41
1
10
30.8725050492686
20
-22.0410759234162
30
0
41
1
10
29.7364447422047
20
-21.7150955653507
30
0
41
1
10
28.5765122482598
20
-21.4193292675241
30
0
0
SPLINE
5
191
100
AcDbEntity
8
1
62
256
6
ByLayer
370
-1
48
1
60
0
100
AcDbSpline
70
4
71
3
72
8
73
4
40
0
40
0
40
0
40
0
40
1
40
1
40
1
40
1
41
1
10
31.9871387426301
20
-21.4974540790971
30
0
41
1
10
30.8489522969516
20
-21.4685264839391
30
0
41
1
10
29.7119272037889
20
-21.4426142194029
30
0
41
1
10
28.5765122482189
20
-21.4193292675232
30
0
0
SPLINE
5
192
100
AcDbEntity
8
1
62
256
6
ByLayer
370
-1
48
1
60
0
100
AcDbSpline
70
4
71
3
72
18
73
14
40
0
40
0
40
0
40
0
40
0.0436343127386514
40
0.0436343127386514
40
0.203028593948876
40
0.203028593948876
40
0.362422875159101
40
0.362422875159101
40
0.68121143757955
40
0.68121143757955
40
0.840605718789775
40
0.840605718789775
40
1
40
1
40
1
40
1
41
1
10
74.0112343325493
20
19.586299232091
30
0
41
1
10
74.3545129870224
20
19.6650492062418
30
0
41
1
10
74.6978201149486
20
19.7428065879526
30
0
41
1
10
76.2953818648584
20
20.0999353558885
30
0
41
1
10
77.5500097960475
20
20.3670166784472
30
0
41
1
10
80.0609467878711
20
20.8733649896641
30
0
41
1
10
81.3178236634468
20
21.112746248067
30
0
41
1
10
85.0845252679667
20
21.7866340426863
30
0
41
1
10
87.5922678735643
20
22.1770958328198
30
0
41
1
10
91.3524466799758
20
22.6713251826697
30
0
41
1
10
92.6058388048717
20
22.8206384145305
30
0
41
1
10
95.1129142620939
20
23.0882256913218
30
0
41
1
10
96.3665319179823
20
23.2065178154409
30
0
41
1
10
97.6208724667288
20
23.3089129487535
30
0
0
SPLINE
5
193
100
AcDbEntity
8
1
62
256
6
ByLayer
370
-1
48
1
60
0
100
AcDbSpline
70
4
71
3
72
10
73
6
40
0
40
0
40
0
40
0
40
0.5
40
0.5
40
1
40
1
40
1
40
1
41
1
10
13.0307844860102
20
-20.9666398528216
30
0
41
1
10
13.5328486447953
20
-21.6986273670656
30
0
41
1
10
14.0684730351218
20
-22.3540859136601
30
0
41
1
10
15.2038105930431
20
-23.5188261878207
30
0
41
1
10
15.8035512024003
20
-24.0280689888558
30
0
41
1
10
16.4375427092761
20
-24.4622629776251
30
0
0
SPLINE
5
194
100
AcDbEntity
8
1
62
256
6
ByLayer
370
-1
48
1
60
0
100
AcDbSpline
70
4
71
3
72
8
73
4
40
0
40
0
40
0
40
0
40
1
40
1
40
1
40
1
41
1
10
28.5765122482598
20
-21.4193292675241
30
0
41
1
10
27.51532954194
20
-21.1790287308839
30
0
41
1
10
26.4577210971688
20
-20.9141110435691
30
0
41
1
10
25.4053388711683
20
-20.6173852109419
30
0
0
SPLINE
5
195
100
AcDbEntity
8
1
62
256
6
ByLayer
370
-1
48
1
60
0
100
AcDbSpline
70
4
71
3
72
12
73
8
40
0
40
0
40
0
40
0
40
0.25
40
0.25
40
0.5
40
0.5
40
1
40
1
40
1
40
1
41
1
10
120.603386033017
20
23.790106540507
30
0
41
1
10
120.608692343221
20
23.788375525898
30
0
41
1
10
120.620601186539
20
23.786467812627
30
0
41
1
10
120.657107065733
20
23.7823695762202
30
0
41
1
10
120.682121670918
20
23.7801548154953
30
0
41
1
10
120.773274485305
20
23.7735472295827
30
0
41
1
10
120.857292587725
20
23.7690438244215
30
0
41
1
10
120.957612669167
20
23.7654435650473
30
0
0
SPLINE
5
196
100
AcDbEntity
8
1
62
256
6
ByLayer
370
-1
48
1
60
0
100
AcDbSpline
70
4
71
3
72
68
73
64
40
0
40
0
40
0
40
0
40
0.0624999999999987
40
0.0624999999999987
40
0.093749999999998
40
0.093749999999998
40
0.109374999999998
40
0.109374999999998
40
0.124999999999998
40
0.124999999999998
40
0.187499999999997
40
0.187499999999997
40
0.218749999999997
40
0.218749999999997
40
0.234374999999997
40
0.234374999999997
40
0.249999999999997
40
0.249999999999997
40
0.312499999999997
40
0.312499999999997
40
0.328124999999997
40
0.328124999999997
40
0.343749999999997
40
0.343749999999997
40
0.374999999999997
40
0.374999999999997
40
0.406249999999997
40
0.406249999999997
40
0.421874999999997
40
0.421874999999997
40
0.437499999999997
40
0.437499999999997
40
0.499999999999997
40
0.499999999999997
40
0.531249999999997
40
0.531249999999997
40
0.562499999999997
40
0.562499999999997
40
0.624999999999997
40
0.624999999999997
40
0.640624999999998
40
0.640624999999998
40
0.656249999999998
40
0.656249999999998
40
0.687499999999998
40
0.687499999999998
40
0.718749999999998
40
0.718749999999998
40
0.749999999999999
40
0.749999999999999
40
0.812499999999999
40
0.812499999999999
40
0.843749999999999
40
0.843749999999999
40
0.859374999999999
40
0.859374999999999
40
0.874999999999999
40
0.874999999999999
40
0.9375
40
0.9375
40
0.96875
40
0.96875
40
1
40
1
40
1
40
1
41
1
10
18.9128612573698
20
-0.371197039967029
30
0
41
1
10
18.227716908504
20
-0.240761525688725
30
0
41
1
10
17.5357610844536
20
-0.175595461365816
30
0
41
1
10
16.4880411576051
20
-0.174451014122638
30
0
41
1
10
16.1371561919533
20
-0.190273979705381
30
0
41
1
10
15.6082872995866
20
-0.239146383518488
30
0
41
1
10
15.4315731902765
20
-0.259634103465515
30
0
41
1
10
15.0772718776569
20
-0.309238335878405
30
0
41
1
10
14.9003552318628
20
-0.338279854057618
30
0
41
1
10
14.0226683540551
20
-0.50358939272158
30
0
41
1
10
13.3368225417086
20
-0.700349617146372
30
0
41
1
10
12.3326303111096
20
-1.09334646090113
30
0
41
1
10
12.0020218846664
20
-1.24076470419143
30
0
41
1
10
11.5125737482281
20
-1.4877751267781
30
0
41
1
10
11.3505274801725
20
-1.57446301054051
30
0
41
1
10
11.0325727971177
20
-1.75442967053533
30
0
41
1
10
10.8761569449851
20
-1.84795485319245
30
0
41
1
10
10.106734314594
20
-2.33308927483614
30
0
41
1
10
9.53132155519498
20
-2.77670101093645
30
0
41
1
10
8.86356050463189
20
-3.40261247558146
30
0
41
1
10
8.73260747217145
20
-3.53139793195723
30
0
41
1
10
8.47603528179141
20
-3.79636749408792
30
0
41
1
10
8.35085426480697
20
-3.93213835538626
30
0
41
1
10
7.98786565014115
20
-4.34554766653002
30
0
41
1
10
7.76121022290133
20
-4.63066541330755
30
0
41
1
10
7.33786172549153
20
-5.21942616856884
30
0
41
1
10
7.1411699601754
20
-5.52307012390602
30
0
41
1
10
6.86874621157767
20
-5.99247328326146
30
0
41
1
10
6.78171413133322
20
-6.15126808350738
30
0
41
1
10
6.61531028069675
20
-6.47357101867325
30
0
41
1
10
6.53571354064499
20
-6.63759726715017
30
0
41
1
10
6.16078911965602
20
-7.46185361430079
30
0
41
1
10
5.9331840697474
20
-8.13457280670178
30
0
41
1
10
5.69402426457665
20
-9.16175526405661
30
0
41
1
10
5.63141870172942
20
-9.50764196929919
30
0
41
1
10
5.54123923490184
20
-10.2036015892658
30
0
41
1
10
5.51425566043028
20
-10.5487041216889
30
0
41
1
10
5.48448959514207
20
-11.5756547562461
30
0
41
1
10
5.53246970686695
20
-12.2492080076586
30
0
41
1
10
5.67423569955852
20
-13.0771647441748
30
0
41
1
10
5.70671461051347
20
-13.2419123587035
30
0
41
1
10
5.77914228066035
20
-13.5667886642328
30
0
41
1
10
5.81915611358482
20
-13.727325899083
30
0
41
1
10
5.95025932913885
20
-14.2033822393647
30
0
41
1
10
6.05238593396439
20
-14.5133572083133
30
0
41
1
10
6.28493401708056
20
-15.1190035945821
30
0
41
1
10
6.41535840665676
20
-15.4146736732216
30
0
41
1
10
6.70410904696797
20
-15.9918498149194
30
0
41
1
10
6.86314931085735
20
-16.2743248082768
30
0
41
1
10
7.37389952225311
20
-17.0873901926403
30
0
41
1
10
7.76021393385923
20
-17.587464639938
30
0
41
1
10
8.40460430278
20
-18.2783731381132
30
0
41
1
10
8.63029528260725
20
-18.4987467979882
30
0
41
1
10
8.98534774225413
20
-18.8143509613811
30
0
41
1
10
9.10668099312588
20
-18.9172248881583
30
0
41
1
10
9.35300583917754
20
-19.1164089659447
30
0
41
1
10
9.47815345605488
20
-19.2128755387718
30
0
41
1
10
10.1136705762513
20
-19.6798985216486
30
0
41
1
10
10.6531062431123
20
-20.0048964410697
30
0
41
1
10
11.509275599888
20
-20.4209549286786
30
0
41
1
10
11.8025535523723
20
-20.5476629361203
30
0
41
1
10
12.4056596733556
20
-20.7764517164654
30
0
41
1
10
12.7156727855418
20
-20.8784791198081
30
0
41
1
10
13.0307844860102
20
-20.9666398528216
30
0
0
SPLINE
5
197
100
AcDbEntity
8
1
62
256
6
ByLayer
370
-1
48
1
60
0
100
AcDbSpline
70
4
71
3
72
26
73
22
40
0
40
0
40
0
40
0
40
0.125
40
0.125
40
0.187499999999999
40
0.187499999999999
40
0.249999999999999
40
0.249999999999999
40
0.312499999999999
40
0.312499999999999
40
0.374999999999999
40
0.374999999999999
40
0.499999999999999
40
0.499999999999999
40
0.624999999999999
40
0.624999999999999
40
0.687499999999999
40
0.687499999999999
40
0.749999999999999
40
0.749999999999999
40
1
40
1
40
1
40
1
41
1
10
36.8128612573701
20
-6.98758564089118
30
0
41
1
10
39.4027855055031
20
-7.99015806111916
30
0
41
1
10
41.9886039853009
20
-8.96968331141309
30
0
41
1
10
45.8661217334891
20
-10.3934498940718
30
0
41
1
10
47.158379654539
20
-10.8605706649956
30
0
41
1
10
49.7425402559154
20
-11.7795383857887
30
0
41
1
10
51.0346595577715
20
-12.2309032868879
30
0
41
1
10
53.6197346786932
20
-13.1157334490609
30
0
41
1
10
54.9127771912315
20
-13.5490135735157
30
0
41
1
10
57.5007830723162
20
-14.3954071681856
30
0
41
1
10
58.7964761691227
20
-14.8087244145865
30
0
41
1
10
62.681224809416
20
-16.0149246459504
30
0
41
1
10
65.2675111843115
20
-16.7732787317412
30
0
41
1
10
70.4388169465281
20
-18.188657271893
30
0
41
1
10
73.0235135352959
20
-18.8462197746112
30
0
41
1
10
76.9036297541979
20
-19.7498082431086
30
0
41
1
10
78.1975431298879
20
-20.0371669610216
30
0
41
1
10
80.7875242321431
20
-20.5826384768277
30
0
41
1
10
82.0828653595692
20
-20.8405720124344
30
0
41
1
10
88.5523299574145
20
-22.0531097645393
30
0
41
1
10
93.7143262245432
20
-22.7770635644648
30
0
41
1
10
98.8896778616763
20
-23.2315134286963
30
0
0
SPLINE
5
198
100
AcDbEntity
8
1
62
256
6
ByLayer
370
-1
48
1
60
0
100
AcDbSpline
70
4
71
3
72
8
73
4
40
0
40
0
40
0
40
0
40
1
40
1
40
1
40
1
41
1
10
13.8226869537333
20
-21.0841593087219
30
0
41
1
10
13.6263166002207
20
-21.0710464114503
30
0
41
1
10
13.4327000055463
20
-21.0461662708166
30
0
41
1
10
13.241685106889
20
-21.0094575734115
30
0
0
SPLINE
5
199
100
AcDbEntity
8
1
62
256
6
ByLayer
370
-1
48
1
60
0
100
AcDbSpline
70
4
71
3
72
34
73
30
40
0
40
0
40
0
40
0
40
0.0739698626434935
40
0.0739698626434935
40
0.147939725286987
40
0.147939725286987
40
0.221909587930481
40
0.221909587930481
40
0.295879450573974
40
0.295879450573974
40
0.369849313217468
40
0.369849313217468
40
0.443819175860961
40
0.443819175860961
40
0.517789038504455
40
0.517789038504455
40
0.591758901147948
40
0.591758901147948
40
0.665728763791442
40
0.665728763791442
40
0.739698626434936
40
0.739698626434936
40
0.813668489078429
40
0.813668489078429
40
0.887638351721923
40
0.887638351721923
40
0.961608214365417
40
0.961608214365417
40
1
40
1
40
1
40
1
41
1
10
13.8226869400587
20
-21.084159299608
30
0
41
1
10
13.5690810025585
20
-20.915134467779
30
0
41
1
10
13.332025505867
20
-20.681055979838
30
0
41
1
10
12.8997296100904
20
-20.0913964721763
30
0
41
1
10
12.7044990380844
20
-19.7358288567716
30
0
41
1
10
12.3630493677261
20
-18.9162886522477
30
0
41
1
10
12.2168380313095
20
-18.452334693161
30
0
41
1
10
11.9788171192247
20
-17.4331141183379
30
0
41
1
10
11.8870129543189
20
-16.8778706718276
30
0
41
1
10
11.7611919495423
20
-15.6965283407055
30
0
41
1
10
11.7271779698722
20
-15.0704563107199
30
0
41
1
10
11.718193417886
20
-13.7705250774354
30
0
41
1
10
11.7432230498095
20
-13.096695424561
30
0
41
1
10
11.8514060343147
20
-11.7260781833685
30
0
41
1
10
11.9345569276486
20
-11.0293217523304
30
0
41
1
10
12.1559208700215
20
-9.63852620016604
30
0
41
1
10
12.2941288869493
20
-8.94451869501899
30
0
41
1
10
12.6205164529773
20
-7.58479610622624
30
0
41
1
10
12.8086885825378
20
-6.91911193220002
30
0
41
1
10
13.2280722828729
20
-5.64056853218432
30
0
41
1
10
13.459274320092
20
-5.0277383704248
30
0
41
1
10
13.9561997271962
20
-3.87748890473779
30
0
41
1
10
14.2219118008247
20
-3.34009574862424
30
0
41
1
10
14.7780670497166
20
-2.36052728906651
30
0
41
1
10
15.0684975822931
20
-1.91837425346478
30
0
41
1
10
15.6633881688063
20
-1.14558422052428
30
0
41
1
10
15.9678346995127
20
-0.81496479047911
30
0
41
1
10
16.4324297951852
20
-0.406702503193259
30
0
41
1
10
16.5915477480958
20
-0.283872392762788
30
0
41
1
10
16.750251009681
20
-0.178239136804933
30
0
0
SPLINE
5
19A
100
AcDbEntity
8
1
62
256
6
ByLayer
370
-1
48
1
60
0
100
AcDbSpline
70
4
71
3
72
8
73
4
40
0
40
0
40
0
40
0
40
1
40
1
40
1
40
1
41
1
10
13.8226871745612
20
-21.0841583775159
30
0
41
1
10
14.6974417792706
20
-21.0807349853639
30
0
41
1
10
15.5694259736537
20
-21.0765373755254
30
0
41
1
10
16.4375427092761
20
-21.0703348184468
30
0
0
SPLINE
5
19B
100
AcDbEntity
8
1
62
256
6
ByLayer
370
-1
48
1
60
0
100
AcDbSpline
70
4
71
3
72
8
73
4
40
0
40
0
40
0
40
0
40
1
40
1
40
1
40
1
41
1
10
34
20
-5.40227000585452
30
0
41
1
10
34.9504285267987
20
-5.91424735929098
30
0
41
1
10
35.8871931972491
20
-6.44448259242435
30
0
41
1
10
36.8128612573699
20
-6.98758564089096
30
0
0
SPLINE
5
19C
100
AcDbEntity
8
1
62
256
6
ByLayer
370
-1
48
1
60
0
100
AcDbSpline
70
4
71
3
72
10
73
6
40
0
40
0
40
0
40
0
40
0.5
40
0.5
40
1
40
1
40
1
40
1
41
1
10
109.440271426288
20
6.10280264357985
30
0
41
1
10
109.838914787494
20
5.9378777245374
30
0
41
1
10
110.233200690156
20
5.78471861348174
30
0
41
1
10
111.013435637559
20
5.50091118945647
30
0
41
1
10
111.399383971183
20
5.37026479661645
30
0
41
1
10
111.781031419858
20
5.25123145435077
30
0
0
SPLINE
5
19D
100
AcDbEntity
8
1
62
256
6
ByLayer
370
-1
48
1
60
0
100
AcDbSpline
70
4
71
3
72
23
73
19
40
0
40
0
40
0
40
0
40
0.250000000000002
40
0.250000000000002
40
0.375000000000003
40
0.375000000000003
40
0.437500000000003
40
0.437500000000003
40
0.500000000000003
40
0.562500000000003
40
0.562500000000003
40
0.578125000000003
40
0.578125000000003
40
0.593750000000003
40
0.625000000000003
40
0.750000000000002
40
0.750000000000002
40
1
40
1
40
1
40
1
41
1
10
34
20
-5.40227000585452
30
0
41
1
10
32.7545973269492
20
-4.73139581959776
30
0
41
1
10
31.4955232551506
20
-4.14339695048577
30
0
41
1
10
29.6016561026041
20
-3.37788826774897
30
0
41
1
10
28.9695676828957
20
-3.14203772228515
30
0
41
1
10
28.0229057335012
20
-2.81524881218405
30
0
41
1
10
27.7073167785989
20
-2.71071864945006
30
0
41
1
10
27.0783852802589
20
-2.51060360409573
30
0
41
1
10
26.4543306703957
20
-2.32025106615751
30
0
41
1
10
25.8410870057921
20
-2.14788194031169
30
0
41
1
10
25.4615332310294
20
-2.04528444874026
30
0
41
1
10
25.3858564412752
20
-2.02506594469153
30
0
41
1
10
25.2342275706976
20
-1.98450719834372
30
0
41
1
10
25.0064577450945
20
-1.92357544538342
30
0
41
1
10
24.1676811753054
20
-1.69925845437075
30
0
41
1
10
23.3940212524934
20
-1.49338604470455
30
0
41
1
10
21.5144389538222
20
-1.00157284575997
30
0
41
1
10
20.2310550441129
20
-0.67668856376909
30
0
41
1
10
18.9128612573677
20
-0.371197039976693
30
0
0
SPLINE
5
19E
100
AcDbEntity
8
1
62
256
6
ByLayer
370
-1
48
1
60
0
100
AcDbSpline
70
4
71
1
72
4
73
2
40
0
40
0
40
1
40
1
41
1
10
31.9871387426301
20
-22.3857489144275
30
0
41
1
10
31.9871387426301
20
-21.4974540790971
30
0
0
SPLINE
5
19F
100
AcDbEntity
8
1
62
256
6
ByLayer
370
-1
48
1
60
0
100
AcDbSpline
70
4
71
3
72
24
73
20
40
0
40
0
40
0
40
0
40
0.0625
40
0.0625
40
0.125
40
0.125
40
0.25
40
0.25
40
0.375
40
0.375
40
0.5
40
0.5
40
0.625
40
0.625
40
0.75
40
0.75
40
0.875
40
0.875
40
1
40
1
40
1
40
1
41
1
10
121.191650138845
20
8.63474928349441
30
0
41
1
10
121.194162389209
20
8.63474928349441
30
0
41
1
10
121.194984168829
20
8.63630802814581
30
0
41
1
10
121.193351973236
20
8.64250572338085
30
0
41
1
10
121.190852844307
20
8.64720708741456
30
0
41
1
10
121.179031443159
20
8.66543052496127
30
0
41
1
10
121.165501823412
20
8.68300261890013
30
0
41
1
10
121.130675746933
20
8.72756380048384
30
0
41
1
10
121.109969994259
20
8.75383275947073
30
0
41
1
10
121.064710855642
20
8.8135274073318
30
0
41
1
10
121.039906784499
20
8.84729598513687
30
0
41
1
10
120.989185528066
20
8.92049582691001
30
0
41
1
10
120.963268119272
20
8.95988175970038
30
0
41
1
10
120.911299921795
20
9.04457082630492
30
0
41
1
10
120.885153574947
20
9.09010430473168
30
0
41
1
10
120.835141761854
20
9.18444582412155
30
0
41
1
10
120.811044769087
20
9.23359465328997
30
0
41
1
10
120.765032859274
20
9.33628215543655
30
0
41
1
10
120.742960170088
20
9.39035580905937
30
0
41
1
10
120.723072878914
20
9.44425227080339
30
0
0
SPLINE
5
1A0
100
AcDbEntity
8
1
62
256
6
ByLayer
370
-1
48
1
60
0
100
AcDbSpline
70
4
71
3
72
16
73
12
40
0
40
0
40
0
40
0
40
0.125
40
0.125
40
0.249999999999999
40
0.249999999999999
40
0.5
40
0.5
40
0.75
40
0.75
40
1
40
1
40
1
40
1
41
1
10
121.937811237116
20
8.12508613982811
30
0
41
1
10
121.876224498266
20
8.14031888301972
30
0
41
1
10
121.822284660947
20
8.15730803460394
30
0
41
1
10
121.723698924744
20
8.19338091273735
30
0
41
1
10
121.679162943056
20
8.21249044159276
30
0
41
1
10
121.555567830557
20
8.27202696349687
30
0
41
1
10
121.486247129883
20
8.31469054599606
30
0
41
1
10
121.364044307852
20
8.40305223515779
30
0
41
1
10
121.31181312498
20
8.44841470459042
30
0
41
1
10
121.219323409059
20
8.5405918270551
30
0
41
1
10
121.179148992178
20
8.58741966597958
30
0
41
1
10
121.143545110237
20
8.63474928349459
30
0
0
SPLINE
5
1A1
100
AcDbEntity
8
1
62
256
6
ByLayer
370
-1
48
1
60
0
100
AcDbSpline
70
4
71
3
72
94
73
90
40
-0.031250000000008
40
-0.031250000000008
40
0
40
0
40
0.031249999999999
40
0.031249999999999
40
0.0468749999999986
40
0.0468749999999986
40
0.0624999999999982
40
0.0624999999999982
40
0.0937499999999994
40
0.0937499999999994
40
0.125000000000001
40
0.125000000000001
40
0.156250000000002
40
0.156250000000002
40
0.171875000000002
40
0.171875000000002
40
0.187500000000003
40
0.187500000000003
40
0.218749999999999
40
0.218749999999999
40
0.249999999999994
40
0.249999999999994
40
0.265624999999995
40
0.265624999999995
40
0.281249999999996
40
0.281249999999996
40
0.312499999999998
40
0.312499999999998
40
0.328124999999996
40
0.328124999999996
40
0.343749999999994
40
0.343749999999994
40
0.37499999999999
40
0.37499999999999
40
0.406249999999986
40
0.406249999999986
40
0.421874999999984
40
0.421874999999984
40
0.437499999999982
40
0.437499999999982
40
0.468749999999981
40
0.468749999999981
40
0.484374999999981
40
0.484374999999981
40
0.499999999999981
40
0.499999999999981
40
0.53124999999998
40
0.53124999999998
40
0.546874999999981
40
0.546874999999981
40
0.562499999999981
40
0.578124999999981
40
0.578124999999981
40
0.593749999999982
40
0.593749999999982
40
0.624999999999982
40
0.624999999999982
40
0.64062499999998
40
0.64062499999998
40
0.656249999999979
40
0.656249999999979
40
0.687499999999975
40
0.687499999999975
40
0.718749999999972
40
0.718749999999972
40
0.749999999999968
40
0.749999999999968
40
0.765624999999969
40
0.765624999999969
40
0.781249999999971
40
0.796874999999972
40
0.796874999999972
40
0.812499999999973
40
0.812499999999973
40
0.84374999999997
40
0.84374999999997
40
0.859374999999971
40
0.859374999999971
40
0.874999999999972
40
0.874999999999972
40
0.906249999999979
40
0.906249999999979
40
0.937499999999985
40
0.937499999999985
40
0.953124999999989
40
0.953124999999989
40
0.968749999999992
40
0.968749999999992
40
1
40
1
40
1.03125
40
1.03125
41
1
10
126.730750682161
20
-5.11806704263634
30
0
41
1
10
126.716501747208
20
-4.84206078786249
30
0
41
1
10
126.722569136165
20
-4.70531049408496
30
0
41
1
10
126.750960889756
20
-4.50203116363804
30
0
41
1
10
126.763662252775
20
-4.43458158811703
30
0
41
1
10
126.795729487028
20
-4.30032826361892
30
0
41
1
10
126.81522691045
20
-4.23320975606654
30
0
41
1
10
126.882812703581
20
-4.03680951517018
30
0
41
1
10
126.939994446558
20
-3.91152763335239
30
0
41
1
10
127.078616661251
20
-3.67236580886438
30
0
41
1
10
127.16116205661
20
-3.55749235017601
30
0
41
1
10
127.344921899883
20
-3.34905954845837
30
0
41
1
10
127.446384792638
20
-3.25451462796104
30
0
41
1
10
127.613261752038
20
-3.12759488493941
30
0
41
1
10
127.671689865592
20
-3.08760779016464
30
0
41
1
10
127.791212560569
20
-3.0143767250174
30
0
41
1
10
127.852450044381
20
-2.98097421176067
30
0
41
1
10
128.04050277265
20
-2.89022848793121
30
0
41
1
10
128.17183766968
20
-2.84219281836477
30
0
41
1
10
128.445660112817
20
-2.77272170454137
30
0
41
1
10
128.583812605502
20
-2.75233861074625
30
0
41
1
10
128.792835389114
20
-2.74252693590796
30
0
41
1
10
128.862810965745
20
-2.74274329338553
30
0
41
1
10
129.003381407834
20
-2.75034253141322
30
0
41
1
10
129.073855819796
20
-2.75776992637213
30
0
41
1
10
129.281390884686
20
-2.79029529918583
30
0
41
1
10
129.416213069313
20
-2.82558498052205
30
0
41
1
10
129.613141791879
20
-2.8989063729295
30
0
41
1
10
129.678241755593
20
-2.92696131678255
30
0
41
1
10
129.804178583275
20
-2.98896487813894
30
0
41
1
10
129.865156871851
20
-3.0229183639218
30
0
41
1
10
130.04227841474
20
-3.13338549214686
30
0
41
1
10
130.152885338843
20
-3.21863226038539
30
0
41
1
10
130.357258788424
20
-3.41176256128048
30
0
41
1
10
130.448083864721
20
-3.51678183406793
30
0
41
1
10
130.568106475684
20
-3.68629416441266
30
0
41
1
10
130.605391372168
20
-3.74481058508755
30
0
41
1
10
130.674419219897
20
-3.86592647436271
30
0
41
1
10
130.706060004817
20
-3.92843723491927
30
0
41
1
10
130.790724916808
20
-4.11803316085039
30
0
41
1
10
130.8343501231
20
-4.24844146782129
30
0
41
1
10
130.880915990065
20
-4.44989870912244
30
0
41
1
10
130.893308597653
20
-4.51839397166452
30
0
41
1
10
130.911319866253
20
-4.65532902367849
30
0
41
1
10
130.916976825213
20
-4.72371441850015
30
0
41
1
10
130.924230956145
20
-4.92862644749832
30
0
41
1
10
130.916200077102
20
-5.06490944487638
30
0
41
1
10
130.884517378389
20
-5.26884562164148
30
0
41
1
10
130.870687200606
20
-5.3363722376078
30
0
41
1
10
130.837027024327
20
-5.46865429329384
30
0
41
1
10
130.797283138184
20
-5.59874313260269
30
0
41
1
10
130.745518651082
20
-5.72451996868773
30
0
41
1
10
130.687643555049
20
-5.84811906326595
30
0
41
1
10
130.655488997738
20
-5.90909693638372
30
0
41
1
10
130.550611145005
20
-6.08668407553986
30
0
41
1
10
130.470370727797
20
-6.19687957219585
30
0
41
1
10
130.334672955464
20
-6.35012922136755
30
0
41
1
10
130.286865906541
20
-6.3991908788885
30
0
41
1
10
130.185893776021
20
-6.49313178101633
30
0
41
1
10
130.132512608653
20
-6.53813198461629
30
0
41
1
10
129.967679544425
20
-6.66371002331584
30
0
41
1
10
129.850622707733
20
-6.73598207981615
30
0
41
1
10
129.601843499035
20
-6.85730453054407
30
0
41
1
10
129.468656484101
20
-6.90649517766013
30
0
41
1
10
129.198929982686
20
-6.97587122811748
30
0
41
1
10
129.06133316478
20
-6.99686755166996
30
0
41
1
10
128.850689663881
20
-7.00713748291614
30
0
41
1
10
128.779650576483
20
-7.00693825078261
30
0
41
1
10
128.639646401618
20
-6.99936451278023
30
0
41
1
10
128.500835522713
20
-6.98469557105273
30
0
41
1
10
128.364361271195
20
-6.95612097811275
30
0
41
1
10
128.229064442512
20
-6.9205273150931
30
0
41
1
10
128.161662309568
20
-6.89906774425043
30
0
41
1
10
127.96532731227
20
-6.82540365893212
30
0
41
1
10
127.841313643803
20
-6.76393183756281
30
0
41
1
10
127.665156667399
20
-6.65385965115314
30
0
41
1
10
127.607816213997
20
-6.61394446805099
30
0
41
1
10
127.498002687621
20
-6.52913387101015
30
0
41
1
10
127.445637096826
20
-6.4843761828358
30
0
41
1
10
127.295843765956
20
-6.34330504835438
30
0
41
1
10
127.205650205531
20
-6.24025817901142
30
0
41
1
10
127.044680784986
20
-6.01589300039819
30
0
41
1
10
126.976162425798
20
-5.89766693650037
30
0
41
1
10
126.890779807813
20
-5.71231862494318
30
0
41
1
10
126.865213899524
20
-5.64915362064312
30
0
41
1
10
126.819957127093
20
-5.52000384536763
30
0
41
1
10
126.800219910554
20
-5.45376104600541
30
0
41
1
10
126.750887616938
20
-5.25375757337028
30
0
41
1
10
126.730750682161
20
-5.11806704263634
30
0
41
1
10
126.716501747208
20
-4.84206078786249
30
0
0
SPLINE
5
1A2
100
AcDbEntity
8
1
62
256
6
ByLayer
370
-1
48
1
60
0
100
AcDbSpline
70
4
71
3
72
16
73
12
40
0
40
0
40
0
40
0
40
0.249999999999998
40
0.249999999999998
40
0.499999999999995
40
0.499999999999995
40
0.624999999999997
40
0.624999999999997
40
0.749999999999998
40
0.749999999999998
40
1
40
1
40
1
40
1
41
1
10
120.317655317706
20
2.55141168283276
30
0
41
1
10
119.556273316069
20
2.50583560287197
30
0
41
1
10
118.799773864527
20
2.50649043094285
30
0
41
1
10
117.296269056967
20
2.59769492747293
30
0
41
1
10
116.549263820528
20
2.68824620418562
30
0
41
1
10
115.436053751478
20
2.89288560836218
30
0
41
1
10
115.066203933541
20
2.9726015032679
30
0
41
1
10
114.329024920311
20
3.15571015632975
30
0
41
1
10
113.961262864337
20
3.25930697201758
30
0
41
1
10
112.873460652647
20
3.60306590792206
30
0
41
1
10
112.165147032669
20
3.8768541531955
30
0
41
1
10
111.47434164545
20
4.19615463034833
30
0
0
SPLINE
5
1A3
100
AcDbEntity
8
1
62
256
6
ByLayer
370
-1
48
1
60
0
100
AcDbSpline
70
4
71
3
72
24
73
20
40
0
40
0
40
0
40
0
40
0.330906689241274
40
0.330906689241274
40
0.413633361551593
40
0.413633361551593
40
0.496360033861912
40
0.496360033861912
40
0.66181337848255
40
0.66181337848255
40
0.744540050792859
40
0.744540050792859
40
0.827266723103169
40
0.827266723103169
40
0.909993395413479
40
0.909993395413479
40
0.992720067723788
40
0.992720067723788
40
1
40
1
40
1
40
1
41
1
10
127.950977689464
20
16.2357560948504
30
0
41
1
10
127.979223834998
20
15.9936699899341
30
0
41
1
10
128.047244557128
20
15.7536383009558
30
0
41
1
10
128.189987647198
20
15.4585294571605
30
0
41
1
10
128.221509135056
20
15.3998177084681
30
0
41
1
10
128.289841634827
20
15.2848391015718
30
0
41
1
10
128.32675386355
20
15.2283478925794
30
0
41
1
10
128.446117964707
20
15.0621302085146
30
0
41
1
10
128.537084453081
20
14.9556066637623
30
0
41
1
10
128.693770946866
20
14.8040384716346
30
0
41
1
10
128.749123404532
20
14.7552143088029
30
0
41
1
10
128.864852085196
20
14.6626194711278
30
0
41
1
10
128.92543666164
20
14.6186395291201
30
0
41
1
10
129.052413384834
20
14.5357298682523
30
0
41
1
10
129.118802378161
20
14.4967971966538
30
0
41
1
10
129.257993906564
20
14.4246121249243
30
0
41
1
10
129.330627378048
20
14.3915215861241
30
0
41
1
10
129.411286224598
20
14.3598490832532
30
0
41
1
10
129.417825050907
20
14.3573163129917
30
0
41
1
10
129.42437891878
20
14.3548126960745
30
0
0
SPLINE
5
1A4
100
AcDbEntity
8
1
62
256
6
ByLayer
370
-1
48
1
60
0
100
AcDbSpline
70
4
71
3
72
24
73
20
40
0
40
0
40
0
40
0
40
0.0559357712536568
40
0.0559357712536568
40
0.13460779031585
40
0.13460779031585
40
0.213279809378043
40
0.213279809378043
40
0.37062384750243
40
0.37062384750243
40
0.449295866564623
40
0.449295866564623
40
0.527967885626817
40
0.527967885626817
40
0.685311923751212
40
0.685311923751212
40
0.842655961875606
40
0.842655961875606
40
1
40
1
40
1
40
1
41
1
10
128.966740309855
20
18.2033634732812
30
0
41
1
10
128.92040468441
20
18.1801297897859
30
0
41
1
10
128.875943389774
20
18.155423746149
30
0
41
1
10
128.772984388134
20
18.0927290147471
30
0
41
1
10
128.715989392679
20
18.0533055642605
30
0
41
1
10
128.608594133667
20
17.9699909564376
30
0
41
1
10
128.558807025009
20
17.9266105482546
30
0
41
1
10
128.419394499728
20
17.7918807261345
30
0
41
1
10
128.339599077027
20
17.6959880741234
30
0
41
1
10
128.236082441767
20
17.5440190856133
30
0
41
1
10
128.204234528816
20
17.4918222713808
30
0
41
1
10
128.146540269581
20
17.3862786053048
30
0
41
1
10
128.120577338353
20
17.3327908606386
30
0
41
1
10
128.050662920955
20
17.1702452149799
30
0
41
1
10
128.014619813279
20
17.0591150762065
30
0
41
1
10
127.962146737339
20
16.8313608696963
30
0
41
1
10
127.945716184858
20
16.7142284550497
30
0
41
1
10
127.933104908329
20
16.4766707229206
30
0
41
1
10
127.936854616697
20
16.3567991473085
30
0
41
1
10
127.950977689464
20
16.2357560948504
30
0
0
SPLINE
5
1A5
100
AcDbEntity
8
1
62
256
6
ByLayer
370
-1
48
1
60
0
100
AcDbSpline
70
4
71
3
72
24
73
20
40
0
40
0
40
0
40
0
40
0.0494781943749556
40
0.0494781943749556
40
0.185267023749962
40
0.185267023749962
40
0.321055853124969
40
0.321055853124969
40
0.388950267812472
40
0.388950267812472
40
0.456844682499975
40
0.456844682499975
40
0.592633511874981
40
0.592633511874981
40
0.660527926562485
40
0.660527926562485
40
0.728422341249988
40
0.728422341249988
40
1
40
1
40
1
40
1
41
1
10
38.4021477384214
20
23.7999856089346
30
0
41
1
10
39.2428369126806
20
23.7999710036488
30
0
41
1
10
40.0833221683399
20
23.7926097273565
30
0
41
1
10
43.2302134274611
20
23.7376676933841
30
0
41
1
10
45.5362192401498
20
23.6424332141578
30
0
41
1
10
50.1509159087651
20
23.3441447166251
30
0
41
1
10
52.4596028610692
20
23.1410998718361
30
0
41
1
10
55.9271652910137
20
22.7568448819102
30
0
41
1
10
57.0839389038859
20
22.615433462838
30
0
41
1
10
59.3952749634542
20
22.306775871919
30
0
41
1
10
60.5503601967903
20
22.139488851229
30
0
41
1
10
64.0148812619676
20
21.599668649221
30
0
41
1
10
66.3235968048468
20
21.1891496902577
30
0
41
1
10
69.7891183800906
20
20.5017548496825
30
0
41
1
10
70.9446972376998
20
20.2606952188242
30
0
41
1
10
73.2572644915241
20
19.7554970004991
30
0
41
1
10
74.413861391743
20
19.491429100102
30
0
41
1
10
80.19316736108
20
18.1176433520487
30
0
41
1
10
84.8115040911675
20
16.8466398622263
30
0
41
1
10
89.4420700257256
20
15.4354348532314
30
0
0
SPLINE
5
1A6
100
AcDbEntity
8
1
62
256
6
ByLayer
370
-1
48
1
60
0
100
AcDbSpline
70
4
71
3
72
16
73
12
40
0
40
0
40
0
40
0
40
0.499999999999997
40
0.499999999999997
40
0.562499999999997
40
0.562499999999997
40
0.624999999999997
40
0.624999999999997
40
0.749999999999996
40
0.749999999999996
40
1
40
1
40
1
40
1
41
1
10
97.6208724667279
20
23.3089129487729
30
0
41
1
10
97.0852432376005
20
21.9866309256129
30
0
41
1
10
96.4115873274848
20
20.7478172564021
30
0
41
1
10
95.4045264269308
20
19.5048484457414
30
0
41
1
10
95.2890227876179
20
19.3686885136142
30
0
41
1
10
95.053489457984
20
19.103546820851
30
0
41
1
10
94.9331788957779
20
18.974199426251
30
0
41
1
10
94.5647573767904
20
18.5956478428178
30
0
41
1
10
94.3091414978877
20
18.3559533750473
30
0
41
1
10
93.5139850102796
20
17.6727410002834
30
0
41
1
10
92.9459439375575
20
17.2653369207987
30
0
41
1
10
92.3470037129005
20
16.8970861211514
30
0
0
SPLINE
5
1A7
100
AcDbEntity
8
1
62
256
6
ByLayer
370
-1
48
1
60
0
100
AcDbSpline
70
4
71
3
72
24
73
20
40
0
40
0
40
0
40
0
40
0.157467986520825
40
0.157467986520825
40
0.314935973041651
40
0.314935973041651
40
0.472403959562476
40
0.472403959562476
40
0.551137952822889
40
0.551137952822889
40
0.629871946083302
40
0.629871946083302
40
0.787339932604128
40
0.787339932604128
40
0.86607392586454
40
0.86607392586454
40
0.944807919124953
40
0.944807919124953
40
1
40
1
40
1
40
1
41
1
10
34
20
-23.6466848614932
30
0
41
1
10
36.2151990877239
20
-23.7488165614987
30
0
41
1
10
38.4272932256592
20
-23.7997948822592
30
0
41
1
10
42.8504262585966
20
-23.8002038803751
30
0
41
1
10
45.0615060547958
20
-23.7497236075233
30
0
41
1
10
49.4858924584755
20
-23.5489957512793
30
0
41
1
10
51.6991884829144
20
-23.3987573939738
30
0
41
1
10
55.022968435896
20
-23.0994101725516
30
0
41
1
10
56.1320125887591
20
-22.9872340126515
30
0
41
1
10
58.3488486999962
20
-22.7386099944556
30
0
41
1
10
59.4566251516258
20
-22.6021628730049
30
0
41
1
10
62.7789058289197
20
-22.1570669777582
30
0
41
1
10
64.992372675813
20
-21.8126317318125
30
0
41
1
10
68.3140273926113
20
-21.2278002449473
30
0
41
1
10
69.421487057282
20
-21.0215030049015
30
0
41
1
10
71.637453730671
20
-20.5868545371866
30
0
41
1
10
72.7463693051082
20
-20.3584140837197
30
0
41
1
10
74.6320321729926
20
-19.9520900437852
30
0
41
1
10
75.4089201747959
20
-19.7795342044031
30
0
41
1
10
76.1856827617196
20
-19.6020188617514
30
0
0
SPLINE
5
1A8
100
AcDbEntity
8
1
62
256
6
ByLayer
370
-1
48
1
60
0
100
AcDbSpline
70
4
71
3
72
8
73
4
40
0
40
0
40
0
40
0
40
1
40
1
40
1
40
1
41
1
10
114.959120658391
20
9.6568753829236
30
0
41
1
10
115.61691678154
20
9.43257209682636
30
0
41
1
10
116.263673233658
20
9.25010423879485
30
0
41
1
10
116.896406576408
20
9.10452590019383
30
0
0
SPLINE
5
1A9
100
AcDbEntity
8
1
62
256
6
ByLayer
370
-1
48
1
60
0
100
AcDbSpline
70
4
71
3
72
22
73
18
40
0
40
0
40
0
40
0
40
0.0060053414926486
40
0.0583208498351407
40
0.110636358177633
40
0.162951866520125
40
0.267582883205109
40
0.319898391547601
40
0.372213899890094
40
0.424529408232586
40
0.476844916575078
40
0.581475933260063
40
0.633791441602555
40
0.686106949945047
40
0.738422458287539
40
0.790737966630031
40
1
40
1
40
1
40
1
41
1
10
70.8742949773628
20
-18.2721029775677
30
0
41
1
10
70.7964705546512
20
-18.2873258215016
30
0
41
1
10
70.0406779440932
20
-18.4346928616083
30
0
41
1
10
68.6068969333006
20
-18.7055639150607
30
0
41
1
10
66.5729123689532
20
-19.0673350832037
30
0
41
1
10
63.8613113384566
20
-19.5192059787714
30
0
41
1
10
61.149518076856
20
-19.92560987929
30
0
41
1
10
58.4370164012087
20
-20.2845262484541
30
0
41
1
10
56.4023053283117
20
-20.52905720359
30
0
41
1
10
54.3674719268675
20
-20.7487056532863
30
0
41
1
10
51.6548175151247
20
-21.0080499637027
30
0
41
1
10
48.9425348020615
20
-21.217951295888
30
0
41
1
10
46.2303275088667
20
-21.3781978071868
30
0
41
1
10
44.1961977786286
20
-21.4728479818247
30
0
41
1
10
42.1619169020135
20
-21.5420633936795
30
0
41
1
10
38.0934063714936
20
-21.6272638585813
30
0
41
1
10
34.7018667642247
20
-21.593091853866
30
0
41
1
10
31.9871387426301
20
-21.4974540790971
30
0
0
SPLINE
5
1AA
100
AcDbEntity
8
1
62
256
6
ByLayer
370
-1
48
1
60
0
100
AcDbSpline
70
4
71
3
72
24
73
20
40
0
40
0
40
0
40
0
40
0.0256628487852492
40
0.0256628487852492
40
0.106857611386479
40
0.106857611386479
40
0.188052373987709
40
0.188052373987709
40
0.350441899190163
40
0.350441899190163
40
0.512831424392616
40
0.512831424392616
40
0.67522094959507
40
0.67522094959507
40
0.756415712196303
40
0.756415712196303
40
0.837610474797535
40
0.837610474797535
40
1
40
1
40
1
40
1
41
1
10
90.9504309238658
20
14.7196843207125
30
0
41
1
10
90.9493073676537
20
14.7392085229895
30
0
41
1
10
90.9485216432043
20
14.7587397421987
30
0
41
1
10
90.9466480258556
20
14.839982231064
30
0
41
1
10
90.9484872848321
20
14.9018655384355
30
0
41
1
10
90.9584008570005
20
15.0259342293314
30
0
41
1
10
90.9665378800257
20
15.0884208177924
30
0
41
1
10
90.9996897999856
20
15.2738112872046
30
0
41
1
10
91.0331518729618
20
15.3944298836355
30
0
41
1
10
91.1206226771159
20
15.6303293107229
30
0
41
1
10
91.175084029623
20
15.7460165934122
30
0
41
1
10
91.3001007002994
20
15.964655608123
30
0
41
1
10
91.3709507679351
20
16.0686231813358
30
0
41
1
10
91.489536782077
20
16.2166765666413
30
0
41
1
10
91.5312745408287
20
16.2648320201603
30
0
41
1
10
91.6176274359997
20
16.3570190986945
30
0
41
1
10
91.6623578131962
20
16.4012148037936
30
0
41
1
10
91.8010998520167
20
16.5282447949738
30
0
41
1
10
91.8998015660251
20
16.6053532556212
30
0
41
1
10
92.0038830046477
20
16.6758939577253
30
0
0
SPLINE
5
1AB
100
AcDbEntity
8
1
62
256
6
ByLayer
370
-1
48
1
60
0
100
AcDbSpline
70
4
71
3
72
16
73
12
40
0
40
0
40
0
40
0
40
0.153125665071547
40
0.153125665071547
40
0.435417110047698
40
0.435417110047698
40
0.71770855502385
40
0.71770855502385
40
0.858854277511925
40
0.858854277511925
40
1
40
1
40
1
40
1
41
1
10
124.228175012585
20
8.68992798328588
30
0
41
1
10
124.207043311715
20
8.67044471625672
30
0
41
1
10
124.186093355503
20
8.65199818668816
30
0
41
1
10
124.127352778254
20
8.60238700433325
30
0
41
1
10
124.090214074564
20
8.57359610633276
30
0
41
1
10
124.020682933474
20
8.52357211071606
30
0
41
1
10
123.988836530348
20
8.50276896399927
30
0
41
1
10
123.951669268226
20
8.48076692018563
30
0
41
1
10
123.94107475835
20
8.4749862431633
30
0
41
1
10
123.925034175935
20
8.46726294083982
30
0
41
1
10
123.919463364439
20
8.46524202387803
30
0
41
1
10
123.916667100648
20
8.46524202387803
30
0
0
SPLINE
5
1AC
100
AcDbEntity
8
1
62
256
6
ByLayer
370
-1
48
1
60
0
100
AcDbSpline
70
4
71
3
72
12
73
8
40
0
40
0
40
0
40
0
40
0.25
40
0.25
40
0.5
40
0.5
40
1
40
1
40
1
40
1
41
1
10
120.846659620347
20
16.1608243706941
30
0
41
1
10
120.850854607
20
16.1608243706941
30
0
41
1
10
120.859025692773
20
16.166501341316
30
0
41
1
10
120.882411976588
20
16.1873006867284
30
0
41
1
10
120.897845355247
20
16.2026428990949
30
0
41
1
10
120.951628903286
20
16.2573378986076
30
0
41
1
10
120.998099920437
20
16.3056956209922
30
0
41
1
10
121.052040497171
20
16.3574284879586
30
0
0
SPLINE
5
1AD
100
AcDbEntity
8
1
62
256
6
ByLayer
370
-1
48
1
60
0
100
AcDbSpline
70
4
71
3
72
8
73
4
40
0
40
0
40
0
40
0
40
1
40
1
40
1
40
1
41
1
10
89.7347819077039
20
15.3460458460007
30
0
41
1
10
89.637352102445
20
15.375522555827
30
0
41
1
10
89.5397797100273
20
15.4053228978241
30
0
41
1
10
89.4420700257244
20
15.4354348532317
30
0
0
SPLINE
5
1AE
100
AcDbEntity
8
1
62
256
6
ByLayer
370
-1
48
1
60
0
100
AcDbSpline
70
4
71
2
72
6
73
3
40
0
40
0
40
0
40
1
40
1
40
1
41
1
10
25.4053388711683
20
-20.617385211289
30
0
41
1
10
25.4053388711683
20
-23.0558284965234
30
0
41
1
10
25.4053388711683
20
-25.4942717817578
30
0
0
SPLINE
5
1AF
100
AcDbEntity
8
1
62
256
6
ByLayer
370
-1
48
1
60
0
100
AcDbSpline
70
4
71
3
72
8
73
4
40
0
40
0
40
0
40
0
40
1
40
1
40
1
40
1
41
1
10
114.443370246962
20
9.84110513045431
30
0
41
1
10
114.614194832921
20
9.77728662444662
30
0
41
1
10
114.786097151956
20
9.71587503296669
30
0
41
1
10
114.959120658391
20
9.6568753829236
30
0
0
SPLINE
5
1B0
100
AcDbEntity
8
1
62
256
6
ByLayer
370
-1
48
1
60
0
100
AcDbSpline
70
4
71
3
72
12
73
8
40
0
40
0
40
0
40
0
40
0.104898575174485
40
0.104898575174485
40
0.403265716782993
40
0.403265716782993
40
1
40
1
40
1
40
1
41
1
10
134.52061569309
20
9.05046151910153
30
0
41
1
10
134.519670153528
20
9.03624953130475
30
0
41
1
10
134.518643644661
20
9.02264847697592
30
0
41
1
10
134.514450489464
20
8.97267997685785
30
0
41
1
10
134.510758955687
20
8.94042052919636
30
0
41
1
10
134.49896524652
20
8.86316951988491
30
0
41
1
10
134.489900017836
20
8.83564591762828
30
0
41
1
10
134.480991158386
20
8.83556326865411
30
0
0
SPLINE
5
1B1
100
AcDbEntity
8
1
62
256
6
ByLayer
370
-1
48
1
60
0
100
AcDbSpline
70
4
71
3
72
20
73
16
40
0
40
0
40
0
40
0
40
0.499999999999999
40
0.499999999999999
40
0.562499999999998
40
0.562499999999998
40
0.624999999999998
40
0.624999999999998
40
0.749999999999999
40
0.749999999999999
40
0.874999999999999
40
0.874999999999999
40
0.9375
40
0.9375
40
1
40
1
40
1
40
1
41
1
10
34
20
-23.6466848614932
30
0
41
1
10
32.5680034809949
20
-23.5806626968497
30
0
41
1
10
31.1177555211159
20
-23.6772875599144
30
0
41
1
10
29.4801699036896
20
-24.0160485027393
30
0
41
1
10
29.2981344026136
20
-24.0568959105605
30
0
41
1
10
28.9339547649535
20
-24.1451970756204
30
0
41
1
10
28.751496336842
20
-24.1927416032222
30
0
41
1
10
28.2066819257039
20
-24.3448346477633
30
0
41
1
10
27.8471799574373
20
-24.4586983583258
30
0
41
1
10
27.1358984476813
20
-24.7114346852363
30
0
41
1
10
26.7841182445231
20
-24.8503053677812
30
0
41
1
10
26.2624855632915
20
-25.0775388807374
30
0
41
1
10
26.0896145055908
20
-25.1564393897411
30
0
41
1
10
25.7459302376883
20
-25.3206011409758
30
0
41
1
10
25.575250656523
20
-25.4063418414049
30
0
41
1
10
25.4053388711683
20
-25.4942717819781
30
0
0
SPLINE
5
1B2
100
AcDbEntity
8
1
62
256
6
ByLayer
370
-1
48
1
60
0
100
AcDbSpline
70
4
71
3
72
10
73
6
40
0
40
0
40
0
40
0
40
0.5
40
0.5
40
1
40
1
40
1
40
1
41
1
10
113.516192014062
20
10.2686987120488
30
0
41
1
10
113.663626425457
20
10.1842849832496
30
0
41
1
10
113.815195490034
20
10.1076492148353
30
0
41
1
10
114.12470283306
20
9.96604726158984
30
0
41
1
10
114.282671963328
20
9.90114054234715
30
0
41
1
10
114.443370246962
20
9.84110513045431
30
0
0
SPLINE
5
1B3
100
AcDbEntity
8
1
62
256
6
ByLayer
370
-1
48
1
60
0
100
AcDbSpline
70
4
71
3
72
14
73
10
40
0
40
0
40
0
40
0
40
0.249999999999988
40
0.249999999999988
40
0.374999999999987
40
0.374999999999987
40
0.499999999999985
40
0.499999999999985
40
1
40
1
40
1
40
1
41
1
10
116.896406576408
20
9.10452590019381
30
0
41
1
10
117.244379605757
20
9.02792860917231
30
0
41
1
10
117.595302934841
20
8.96034868473544
30
0
41
1
10
118.126213443781
20
8.87281175048892
30
0
41
1
10
118.304184089201
20
8.84591025386246
30
0
41
1
10
118.659693360622
20
8.79704056589338
30
0
41
1
10
118.837383576611
20
8.77504039221779
30
0
41
1
10
119.725517923785
20
8.67707886202959
30
0
41
1
10
120.435014767496
20
8.63713160375752
30
0
41
1
10
121.143545110237
20
8.63474928349453
30
0
0
SPLINE
5
1B4
100
AcDbEntity
8
1
62
256
6
ByLayer
370
-1
48
1
60
0
100
AcDbSpline
70
4
71
3
72
8
73
4
40
0
40
0
40
0
40
0
40
1
40
1
40
1
40
1
41
1
10
16.437542709276
20
-21.0703348184468
30
0
41
1
10
16.437542709276
20
-22.2009775381729
30
0
41
1
10
16.437542709276
20
-23.331620257899
30
0
41
1
10
16.437542709276
20
-24.4622629776251
30
0
0
SPLINE
5
1B5
100
AcDbEntity
8
1
62
256
6
ByLayer
370
-1
48
1
60
0
100
AcDbSpline
70
4
71
3
72
8
73
4
40
0
40
0
40
0
40
0
40
1
40
1
40
1
40
1
41
1
10
13.0307844860102
20
-20.9666398528216
30
0
41
1
10
13.1008853187886
20
-20.981637390719
30
0
41
1
10
13.1711847998427
20
-20.9959090258551
30
0
41
1
10
13.2416851068992
20
-21.0094575734128
30
0
0
SPLINE
5
1B6
100
AcDbEntity
8
1
62
256
6
ByLayer
370
-1
48
1
60
0
100
AcDbSpline
70
4
71
3
72
8
73
4
40
0
40
0
40
0
40
0
40
1
40
1
40
1
40
1
41
1
10
119.909687414594
20
6.00586792544971
30
0
41
1
10
119.052601372083
20
5.60793422535554
30
0
41
1
10
118.154488446965
20
5.25658981422222
30
0
41
1
10
117.227419010872
20
4.96281781060986
30
0
0
SPLINE
5
1B7
100
AcDbEntity
8
1
62
256
6
ByLayer
370
-1
48
1
60
0
100
AcDbSpline
70
4
71
3
72
26
73
22
40
0
40
0
40
0
40
0
40
0.0585047679228318
40
0.0585047679228318
40
0.16311534926474
40
0.16311534926474
40
0.267725930606647
40
0.267725930606647
40
0.372336511948555
40
0.372336511948555
40
0.476947093290463
40
0.476947093290463
40
0.58155767463237
40
0.58155767463237
40
0.686168255974278
40
0.686168255974278
40
0.790778837316185
40
0.790778837316185
40
0.895389418658093
40
0.895389418658093
40
1
40
1
40
1
40
1
41
1
10
31.195211629483
20
-4.03398228728347
30
0
41
1
10
31.0655062918112
20
-4.32480925427743
30
0
41
1
10
30.9422318141542
20
-4.6308824839559
30
0
41
1
10
30.6186189055041
20
-5.5218055174
30
0
41
1
10
30.4341190178633
20
-6.13623455202892
30
0
41
1
10
30.1182762178515
20
-7.42764940623525
30
0
41
1
10
29.9869411153161
20
-8.10460329303547
30
0
41
1
10
29.7824777739286
20
-9.49505534224457
30
0
41
1
10
29.7093545908354
20
-10.2085191229865
30
0
41
1
10
29.6241281196173
20
-11.6445740747217
30
0
41
1
10
29.6120269388847
20
-12.3671297364265
30
0
41
1
10
29.6493125433293
20
-13.7936008042417
30
0
41
1
10
29.6986984065465
20
-14.4974809380439
30
0
41
1
10
29.8570632217851
20
-15.8595496387771
30
0
41
1
10
29.9660382579244
20
-16.5177045258752
30
0
41
1
10
30.2393964129194
20
-17.7630273232142
30
0
41
1
10
30.403772772456
20
-18.3501644403947
30
0
41
1
10
30.7816192666119
20
-19.4308842776227
30
0
41
1
10
30.995080058232
20
-19.9244402747425
30
0
41
1
10
31.4628944626773
20
-20.7990256945896
30
0
41
1
10
31.7172365078692
20
-21.1800334914689
30
0
41
1
10
31.9871387426317
20
-21.4974540790963
30
0
0
SPLINE
5
1B8
100
AcDbEntity
8
1
62
256
6
ByLayer
370
-1
48
1
60
0
100
AcDbSpline
70
4
71
3
72
36
73
32
40
0
40
0
40
0
40
0
40
0.125
40
0.125
40
0.250000000000001
40
0.250000000000001
40
0.281250000000001
40
0.281250000000001
40
0.3125
40
0.3125
40
0.375
40
0.375
40
0.5
40
0.5
40
0.5625
40
0.5625
40
0.59375
40
0.59375
40
0.625
40
0.625
40
0.749999999999999
40
0.749999999999999
40
0.8125
40
0.8125
40
0.84375
40
0.84375
40
0.875
40
0.875
40
0.9375
40
0.9375
40
1
40
1
40
1
40
1
41
1
10
16.437542709276
20
-24.462262977625
30
0
41
1
10
16.5834483233068
20
-24.7967718954841
30
0
41
1
10
16.7493851484034
20
-25.101767185162
30
0
41
1
10
17.1313899291717
20
-25.6501142290879
30
0
41
1
10
17.3473854534416
20
-25.8935114054119
30
0
41
1
10
17.6572992699379
20
-26.1558280162985
30
0
41
1
10
17.7212907661124
20
-26.2061855284305
30
0
41
1
10
17.8535670024817
20
-26.3025600819895
30
0
41
1
10
17.9217684981913
20
-26.3484989669768
30
0
41
1
10
18.1314481042513
20
-26.4786060914223
30
0
41
1
10
18.2784871598387
20
-26.5554404381191
30
0
41
1
10
18.7430677551384
20
-26.7560579265705
30
0
41
1
10
19.083930437626
20
-26.8501185512064
30
0
41
1
10
19.6507600391964
20
-26.9284877804453
30
0
41
1
10
19.8489898852561
20
-26.9441205608165
30
0
41
1
10
20.1617584308963
20
-26.9510055121519
30
0
41
1
10
20.2689281321053
20
-26.9505174834665
30
0
41
1
10
20.4863454119599
20
-26.9439313539506
30
0
41
1
10
20.5966992199268
20
-26.9378548920535
30
0
41
1
10
21.1567549574443
20
-26.8938227549648
30
0
41
1
10
21.6312423916831
20
-26.8151622436946
30
0
41
1
10
22.3846498949552
20
-26.6341715835951
30
0
41
1
10
22.6427462865661
20
-26.5632933455622
30
0
41
1
10
23.040738474291
20
-26.4409724215303
30
0
41
1
10
23.1755328743888
20
-26.397417879673
30
0
41
1
10
23.4472100535699
20
-26.305449396413
30
0
41
1
10
23.5838203187912
20
-26.2571392928783
30
0
41
1
10
23.9959280886695
20
-26.105431552419
30
0
41
1
10
24.2737017624455
20
-25.995269025697
30
0
41
1
10
24.8351384251103
20
-25.7576349814275
30
0
41
1
10
25.1187316615605
20
-25.6296354764508
30
0
41
1
10
25.4053388720512
20
-25.4942717815607
30
0
0
SPLINE
5
1B9
100
AcDbEntity
8
1
62
256
6
ByLayer
370
-1
48
1
60
0
100
AcDbSpline
70
4
71
3
72
20
73
16
40
0
40
0
40
0
40
0
40
0.249999999999986
40
0.249999999999986
40
0.37499999999998
40
0.37499999999998
40
0.43749999999998
40
0.43749999999998
40
0.499999999999979
40
0.499999999999979
40
0.749999999999992
40
0.749999999999992
40
0.874999999999996
40
0.874999999999996
40
1
40
1
40
1
40
1
41
1
10
117.227419010872
20
4.96281781060961
30
0
41
1
10
116.918070230702
20
4.86479062146128
30
0
41
1
10
116.556175146977
20
4.79195322678416
30
0
41
1
10
115.951038859116
20
4.72555599974288
30
0
41
1
10
115.738805054888
20
4.71062690072333
30
0
41
1
10
115.405772502962
20
4.70016619274639
30
0
41
1
10
115.292077067608
20
4.69867346062932
30
0
41
1
10
115.06098515273
20
4.69989168518637
30
0
41
1
10
114.94400159839
20
4.70259149809874
30
0
41
1
10
114.352463810614
20
4.72666536428861
30
0
41
1
10
113.858311177659
20
4.7795736884035
30
0
41
1
10
113.092946648281
20
4.9140976412225
30
0
41
1
10
112.833121742849
20
4.96832788493595
30
0
41
1
10
112.30905699212
20
5.09575486271837
30
0
41
1
10
112.045589748381
20
5.16871744259066
30
0
41
1
10
111.781031419858
20
5.25123145435077
30
0
0
SPLINE
5
1BA
100
AcDbEntity
8
1
62
256
6
ByLayer
370
-1
48
1
60
0
100
AcDbSpline
70
4
71
3
72
22
73
18
40
0
40
0
40
0
40
0
40
0.25
40
0.25
40
0.375
40
0.375
40
0.4375
40
0.4375
40
0.5
40
0.5
40
0.625
40
0.625
40
0.75
40
0.75
40
0.875
40
0.875
40
1
40
1
40
1
40
1
41
1
10
16.4375427092761
20
-21.0703348184468
30
0
41
1
10
16.8615414380501
20
-20.9217282170648
30
0
41
1
10
17.3798583119721
20
-20.7551503127749
30
0
41
1
10
18.2887471705766
20
-20.5421902081125
30
0
41
1
10
18.613661011671
20
-20.477135065137
30
0
41
1
10
19.1332653310745
20
-20.3946572617135
30
0
41
1
10
19.3118437254587
20
-20.3696701345074
30
0
41
1
10
19.6797043280993
20
-20.3255968819361
30
0
41
1
10
19.8693321376049
20
-20.3064841939462
30
0
41
1
10
20.4518975609982
20
-20.2593695265367
30
0
41
1
10
20.8556706214089
20
-20.2418373463002
30
0
41
1
10
21.6915280619393
20
-20.2367919233009
30
0
41
1
10
22.1236126422106
20
-20.2492646401834
30
0
41
1
10
23.0148102424099
20
-20.304444004209
30
0
41
1
10
23.4739215115952
20
-20.3471393198244
30
0
41
1
10
24.4191040609225
20
-20.4613478254546
30
0
41
1
10
24.9051706316356
20
-20.5328517879729
30
0
41
1
10
25.405338872051
20
-20.6173852110919
30
0
0
SPLINE
5
1BB
100
AcDbEntity
8
1
62
256
6
ByLayer
370
-1
48
1
60
0
100
AcDbSpline
70
4
71
3
72
8
73
4
40
0
40
0
40
0
40
0
40
1
40
1
40
1
40
1
41
1
10
116.441566070437
20
-23.7288211423374
30
0
41
1
10
117.242154116162
20
-23.7406512940091
30
0
41
1
10
118.016167821393
20
-23.7581224656321
30
0
41
1
10
118.763609580746
20
-23.7734705628319
30
0
0
SPLINE
5
1BC
100
AcDbEntity
8
1
62
256
6
ByLayer
370
-1
48
1
60
0
100
AcDbSpline
70
4
71
3
72
26
73
22
40
0
40
0
40
0
40
0
40
0.0625000000000013
40
0.0625000000000013
40
0.125000000000003
40
0.125000000000003
40
0.156250000000003
40
0.156250000000003
40
0.187500000000004
40
0.187500000000004
40
0.250000000000003
40
0.250000000000003
40
0.312500000000002
40
0.312500000000002
40
0.375000000000001
40
0.375000000000001
40
0.500000000000001
40
0.500000000000001
40
0.75
40
0.75
40
1
40
1
40
1
40
1
41
1
10
112.789754889949
20
11.4147791010637
30
0
41
1
10
112.751099958352
20
11.4063516936715
30
0
41
1
10
112.713202969208
20
11.3955502699412
30
0
41
1
10
112.640298614281
20
11.3648863479022
30
0
41
1
10
112.604819672654
20
11.3446726406496
30
0
41
1
10
112.562817582378
20
11.3032420492699
30
0
41
1
10
112.550840472478
20
11.2875844901877
30
0
41
1
10
112.533005217967
20
11.2534060765101
30
0
41
1
10
112.527306654934
20
11.2352639794291
30
0
41
1
10
112.519219003366
20
11.1793702796255
30
0
41
1
10
112.525766280345
20
11.1423746266872
30
0
41
1
10
112.549009084256
20
11.073623574124
30
0
41
1
10
112.565989114604
20
11.0409849109293
30
0
41
1
10
112.604338758535
20
10.9796056545739
30
0
41
1
10
112.625831684342
20
10.9507096302559
30
0
41
1
10
112.69445945491
20
10.8672539305494
30
0
41
1
10
112.745845158342
20
10.8157360826453
30
0
41
1
10
112.907387239316
20
10.6688778316505
30
0
41
1
10
113.023783987966
20
10.5819789259815
30
0
41
1
10
113.264331833412
20
10.4181155400646
30
0
41
1
10
113.388851932888
20
10.3416074107423
30
0
41
1
10
113.516192014061
20
10.268698712049
30
0
0
SPLINE
5
1BD
100
AcDbEntity
8
1
62
256
6
ByLayer
370
-1
48
1
60
0
100
AcDbSpline
70
4
71
3
72
36
73
32
40
0
40
0
40
0
40
0
40
0.125000000000002
40
0.125000000000002
40
0.156250000000001
40
0.156250000000001
40
0.187500000000001
40
0.187500000000001
40
0.250000000000002
40
0.250000000000002
40
0.375000000000004
40
0.375000000000004
40
0.437500000000004
40
0.437500000000004
40
0.500000000000004
40
0.500000000000004
40
0.625000000000004
40
0.625000000000004
40
0.656250000000003
40
0.656250000000003
40
0.687500000000003
40
0.687500000000003
40
0.750000000000002
40
0.750000000000002
40
0.875000000000001
40
0.875000000000001
40
0.906250000000001
40
0.906250000000001
40
0.937500000000001
40
0.937500000000001
40
1
40
1
40
1
40
1
41
1
10
116.896406576408
20
9.10452590019383
30
0
41
1
10
117.291068983449
20
8.94680791353233
30
0
41
1
10
117.668713247932
20
8.79885340501403
30
0
41
1
10
118.116022666836
20
8.62158235177841
30
0
41
1
10
118.204238631897
20
8.58650990682128
30
0
41
1
10
118.378053477106
20
8.517005285967
30
0
41
1
10
118.463796261931
20
8.48251387276042
30
0
41
1
10
118.714857124209
20
8.38063258816302
30
0
41
1
10
118.874566762877
20
8.3146169858131
30
0
41
1
10
119.329978682988
20
8.12050960633832
30
0
41
1
10
119.602147851838
20
7.99635862267178
30
0
41
1
10
119.957472698753
20
7.8111535472413
30
0
41
1
10
120.067051495345
20
7.74959014445633
30
0
41
1
10
120.266868263952
20
7.62563587763123
30
0
41
1
10
120.3573311924
20
7.56298044472766
30
0
41
1
10
120.591567665311
20
7.37628193392817
30
0
41
1
10
120.700683948678
20
7.25223426414635
30
0
41
1
10
120.774473322589
20
7.09375807741338
30
0
41
1
10
120.786081125638
20
7.06189931639031
30
0
41
1
10
120.802815567931
20
6.9977858540839
30
0
41
1
10
120.807938505506
20
6.96543309519129
30
0
41
1
10
120.813252205926
20
6.8686883939391
30
0
41
1
10
120.803527605821
20
6.80448603980497
30
0
41
1
10
120.735653912619
20
6.61258333492881
30
0
41
1
10
120.639049099392
20
6.48543840428493
30
0
41
1
10
120.453908111613
20
6.32918597231017
30
0
41
1
10
120.413649007606
20
6.29810875225448
30
0
41
1
10
120.327672458563
20
6.23703451345276
30
0
41
1
10
120.281852819286
20
6.20694717206015
30
0
41
1
10
120.136180153528
20
6.11813673223034
30
0
41
1
10
120.028128112167
20
6.06085837295291
30
0
41
1
10
119.909687414591
20
6.00586792544763
30
0
0
SPLINE
5
1BE
100
AcDbEntity
8
1
62
256
6
ByLayer
370
-1
48
1
60
0
100
AcDbSpline
70
4
71
3
72
8
73
4
40
0
40
0
40
0
40
0
40
1
40
1
40
1
40
1
41
1
10
92.0038830046479
20
16.6758939577251
30
0
41
1
10
92.1167342558879
20
16.7523783587974
30
0
41
1
10
92.2312257649663
20
16.8259015184931
30
0
41
1
10
92.3470037129005
20
16.8970861211514
30
0
0
SPLINE
5
1BF
100
AcDbEntity
8
1
62
256
6
ByLayer
370
-1
48
1
60
0
100
AcDbSpline
70
4
71
4
72
16
73
11
40
0
40
0
40
0
40
0
40
0
40
0.089848952363548
40
0.089848952363548
40
0.089848952363548
40
0.393232634909032
40
0.393232634909032
40
0.393232634909032
40
1
40
1
40
1
40
1
40
1
41
0.997283570684848
10
34.7451047357029
20
-5.93527573728302
30
0
41
0.998493017998331
10
34.6572796282138
20
-6.27159821670073
30
0
41
0.999442651979276
10
34.5701471627995
20
-6.61315999030513
30
0
41
1
10
34.4842145051294
20
-6.95748380899846
30
0
41
1
10
34.1156415738113
20
-8.4645010921046
30
0
41
0.993645449064674
10
33.809019586985
20
-9.79891107003426
30
0
41
0.987290898129348
10
33.5039412386606
20
-11.2330524686849
30
0
41
0.974581796258695
10
32.6447431371548
20
-15.6105907133373
30
0
41
0.974581796258695
10
32.1705307002855
20
-18.5168894825784
30
0
41
1
10
31.9871387426319
20
-20.4768745852685
30
0
41
1
10
31.9871387426301
20
-21.4974540790971
30
0
0
SPLINE
5
1C0
100
AcDbEntity
8
1
62
256
6
ByLayer
370
-1
48
1
60
0
100
AcDbSpline
70
4
71
3
72
22
73
18
40
0
40
0
40
0
40
0
40
0.20701853975224
40
0.20701853975224
40
0.27310032810622
40
0.27310032810622
40
0.3391821164602
40
0.3391821164602
40
0.47134569316816
40
0.47134569316816
40
0.60350926987612
40
0.60350926987612
40
0.73567284658408
40
0.73567284658408
40
0.86783642329204
40
0.86783642329204
40
1
40
1
40
1
40
1
41
1
10
75.3298653376445
20
-19.3871616300444
30
0
41
1
10
72.3415736798229
20
-19.9901260073613
30
0
41
1
10
69.3533878240286
20
-20.5203583563582
30
0
41
1
10
65.4060086978921
20
-21.1135160056763
30
0
41
1
10
64.4504411084816
20
-21.2488114392475
30
0
41
1
10
62.5380497025699
20
-21.5027083415044
30
0
41
1
10
61.5807847861927
20
-21.6213452825294
30
0
41
1
10
58.7100507593053
20
-21.9512254490288
30
0
41
1
10
56.7989279278189
20
-22.1359859068976
30
0
41
1
10
52.9798927743497
20
-22.4339978620617
30
0
41
1
10
51.0720094019526
20
-22.5473954086196
30
0
41
1
10
47.2570751398498
20
-22.7050317909379
30
0
41
1
10
45.3501180295814
20
-22.7490802979218
30
0
41
1
10
41.5357491431948
20
-22.7665717052747
30
0
41
1
10
39.6285657249186
20
-22.7393009897748
30
0
41
1
10
35.8108836766619
20
-22.6155287914963
30
0
41
1
10
33.9004774463162
20
-22.5186096699459
30
0
41
1
10
31.9871387426301
20
-22.3857489144275
30
0
0
SPLINE
5
1C1
100
AcDbEntity
8
1
62
256
6
ByLayer
370
-1
48
1
60
0
100
AcDbSpline
70
4
71
3
72
24
73
20
40
0
40
0
40
0
40
0
40
0.125000000000008
40
0.125000000000008
40
0.250000000000016
40
0.250000000000016
40
0.500000000000035
40
0.500000000000035
40
0.562500000000034
40
0.562500000000034
40
0.625000000000034
40
0.625000000000034
40
0.750000000000025
40
0.750000000000025
40
0.812500000000021
40
0.812500000000021
40
0.875000000000017
40
0.875000000000017
40
1
40
1
40
1
40
1
41
1
10
117.366204972961
20
14.8999999999994
30
0
41
1
10
117.366204972961
20
14.7448428091561
30
0
41
1
10
117.354171829842
20
14.5915269835805
30
0
41
1
10
117.306829716939
20
14.2884571033126
30
0
41
1
10
117.271397557782
20
14.138323242899
30
0
41
1
10
117.129494027893
20
13.6958702466428
30
0
41
1
10
116.992207477381
20
13.4227894236684
30
0
41
1
10
116.767163239467
20
13.1088396311676
30
0
41
1
10
116.719538529853
20
13.0476652673395
30
0
41
1
10
116.620492534291
20
12.9302400313228
30
0
41
1
10
116.568889093143
20
12.8737281001898
30
0
41
1
10
116.40793378695
20
12.7106924514702
30
0
41
1
10
116.292474591248
20
12.6106290502895
30
0
41
1
10
116.106759879162
20
12.4737838283046
30
0
41
1
10
116.042486446169
20
12.4302378078199
30
0
41
1
10
115.911738362161
20
12.34902806741
30
0
41
1
10
115.84511588515
20
12.311224539245
30
0
41
1
10
115.641585118124
20
12.2060340519786
30
0
41
1
10
115.501035538108
20
12.1468177214726
30
0
41
1
10
115.355569637687
20
12.098633038561
30
0
0
SPLINE
5
1C2
100
AcDbEntity
8
1
62
256
6
ByLayer
370
-1
48
1
60
0
100
AcDbSpline
70
4
71
3
72
8
73
4
40
0
40
0
40
0
40
0
40
1
40
1
40
1
40
1
41
1
10
115.762498098372
20
23.7677571539247
30
0
41
1
10
116.311896312493
20
23.7733926900732
30
0
41
1
10
116.846272644324
20
23.7805036309522
30
0
41
1
10
117.366204972957
20
23.786777976827
30
0
0
SPLINE
5
1C3
100
AcDbEntity
8
1
62
256
6
ByLayer
370
-1
48
1
60
0
100
AcDbSpline
70
4
71
3
72
12
73
8
40
0
40
0
40
0
40
0
40
0.448044053330177
40
0.448044053330177
40
0.724021472165485
40
0.724021472165485
40
1
40
1
40
1
40
1
41
1
10
120.885483409632
20
21.9888517767691
30
0
41
1
10
120.880030315808
20
22.1456044438958
30
0
41
1
10
120.874752369557
20
22.3023607025367
30
0
41
1
10
120.866066860981
20
22.5556691577465
30
0
41
1
10
120.862680030053
20
22.6522220960157
30
0
41
1
10
120.855814148476
20
22.8453246614813
30
0
41
1
10
120.852329585953
20
22.941874838943
30
0
41
1
10
120.84897085175
20
23.0384285888901
30
0
0
SPLINE
5
1C4
100
AcDbEntity
8
1
62
256
6
ByLayer
370
-1
48
1
60
0
100
AcDbSpline
70
4
71
3
72
12
73
8
40
0
40
0
40
0
40
0
40
0.448044053330183
40
0.448044053330183
40
0.72402147216549
40
0.72402147216549
40
1
40
1
40
1
40
1
41
1
10
123.392312182174
20
8.6685586629531
30
0
41
1
10
123.236156006271
20
8.66308473919716
30
0
41
1
10
123.080050632095
20
8.65773204475309
30
0
41
1
10
122.827745357246
20
8.64897394374529
30
0
41
1
10
122.731551157768
20
8.64558288309732
30
0
41
1
10
122.539137409706
20
8.63873694682246
30
0
41
1
10
122.442915608792
20
8.6352782489362
30
0
41
1
10
122.346729326699
20
8.631906633032
30
0
0
SPLINE
5
1C5
100
AcDbEntity
8
1
62
256
6
ByLayer
370
-1
48
1
60
0
100
AcDbSpline
70
4
71
3
72
8
73
4
40
0
40
0
40
0
40
0
40
1
40
1
40
1
40
1
41
1
10
136.036305467345
20
9.11719224970443
30
0
41
1
10
136.074047514726
20
9.11984221362096
30
0
41
1
10
136.111009288517
20
9.12672033180075
30
0
41
1
10
136.147189528135
20
9.13782190838671
30
0
0
SPLINE
5
1C6
100
AcDbEntity
8
1
62
256
6
ByLayer
370
-1
48
1
60
0
100
AcDbSpline
70
4
71
3
72
14
73
10
40
0
40
0
40
0
40
0
40
0.0107070020616476
40
0.0461693850893993
40
0.117094151144903
40
0.400793215366915
40
0.684492279588929
40
0.968191343810942
40
1
40
1
40
1
40
1
41
1
10
122.113131768044
20
22.0316415218361
30
0
41
1
10
122.114602597696
20
22.0316934878552
30
0
41
1
10
122.120942941592
20
22.0319175335763
30
0
41
1
10
122.136991178022
20
22.0324851794666
30
0
41
1
10
122.190153188113
20
22.0343703093887
30
0
41
1
10
122.275210312733
20
22.0374122571534
30
0
41
1
10
122.381979387177
20
22.0412871235432
30
0
41
1
10
122.450872614426
20
22.0438293287302
30
0
41
1
10
122.484796706489
20
22.0450949178357
30
0
41
1
10
122.488204888235
20
22.0452221399352
30
0
0
SPLINE
5
1C7
100
AcDbEntity
8
1
62
256
6
ByLayer
370
-1
48
1
60
0
100
AcDbSpline
70
4
71
3
72
15
73
11
40
0
40
0
40
0
40
0
40
0.250244249035855
40
0.500488498071711
40
0.750732747107566
40
0.875854871625494
40
0.938415933884458
40
0.96969646501394
40
0.985336730578681
40
1
40
1
40
1
40
1
41
1
10
136.079236276462
20
23.953477414897
30
0
41
1
10
136.08883658693
20
23.9564011319443
30
0
41
1
10
136.108037207865
20
23.9622485660387
30
0
41
1
10
136.136832567138
20
23.9710180202213
30
0
41
1
10
136.16085563183
20
23.9783341006756
30
0
41
1
10
136.177614384168
20
23.9834378783153
30
0
41
1
10
136.186077342299
20
23.9860152215211
30
0
41
1
10
136.190183448421
20
23.9872657115451
30
0
41
1
10
136.192712655088
20
23.9880359662856
30
0
41
1
10
136.193315107789
20
23.9882194396469
30
0
41
1
10
136.194451847911
20
23.9885656270421
30
0
0
SPLINE
5
1C8
100
AcDbEntity
8
1
62
256
6
ByLayer
370
-1
48
1
60
0
100
AcDbSpline
70
4
71
3
72
15
73
11
40
0
40
0
40
0
40
0
40
0.250244249035885
40
0.50048849807177
40
0.750732747107656
40
0.875854871625598
40
0.93841593388457
40
0.969696465014055
40
0.985336730578798
40
1
40
1
40
1
40
1
41
1
10
136.111354592786
20
9.25257847910228
30
0
41
1
10
136.114340837399
20
9.24301543154266
30
0
41
1
10
136.120313326623
20
9.22388933642338
30
0
41
1
10
136.12927032721
20
9.19520574424749
30
0
41
1
10
136.136742871744
20
9.17127592333645
30
0
41
1
10
136.141955800435
20
9.15458221887954
30
0
41
1
10
136.144588263542
20
9.14615210910617
30
0
41
1
10
136.145865496953
20
9.14206194053688
30
0
41
1
10
136.146652224612
20
9.13954255080213
30
0
41
1
10
136.146839621795
20
9.13894243647772
30
0
41
1
10
136.147193212867
20
9.13781010852958
30
0
0
SPLINE
5
1C9
100
AcDbEntity
8
1
62
256
6
ByLayer
370
-1
48
1
60
0
100
AcDbSpline
70
4
71
3
72
15
73
11
40
0
40
0
40
0
40
0
40
0.424997863749033
40
0.849995727498066
40
0.956245193435324
40
0.982807559919638
40
0.996088743161796
40
0.997748891067065
40
0.999409038972335
40
1
40
1
40
1
40
1
41
1
10
134.687995019168
20
9.16460703322841
30
0
41
1
10
134.836118619853
20
9.16979938179816
30
0
41
1
10
135.132362839452
20
9.18018125247036
30
0
41
1
10
135.465651422704
20
9.19187393098301
30
0
41
1
10
135.660051497148
20
9.19867740462519
30
0
41
1
10
135.710977165093
20
9.20047000401141
30
0
41
1
10
135.725434907667
20
9.20097002977164
30
0
41
1
10
135.73122690456
20
9.20117844611426
30
0
41
1
10
135.732589055327
20
9.20121857214843
30
0
41
1
10
135.733371702311
20
9.20125699565577
30
0
41
1
10
135.733577208163
20
9.20126911278132
30
0
0
SPLINE
5
1CA
100
AcDbEntity
8
1
62
256
6
ByLayer
370
-1
48
1
60
0
100
AcDbSpline
70
4
71
3
72
14
73
10
40
0
40
0
40
0
40
0
40
0.0107070020616628
40
0.0461693850894122
40
0.117094151144911
40
0.400793215366906
40
0.6844922795889
40
0.968191343810895
40
1
40
1
40
1
40
1
41
1
10
123.356658426713
20
9.89389664060278
30
0
41
1
10
123.356595038723
20
9.89538475268739
30
0
41
1
10
123.356320773613
20
9.90180058270434
30
0
41
1
10
123.355610128867
20
9.91805583419395
30
0
41
1
10
123.353116546437
20
9.97203889211417
30
0
41
1
10
123.348364791956
20
10.0591488787784
30
0
41
1
10
123.34073433227
20
10.1701105341538
30
0
41
1
10
123.334572819614
20
10.2429097657859
30
0
41
1
10
123.331132319067
20
10.2791514959641
30
0
41
1
10
123.330784461908
20
10.2827946602271
30
0
0
SPLINE
5
1CB
100
AcDbEntity
8
1
62
256
6
ByLayer
370
-1
48
1
60
0
100
AcDbSpline
70
4
71
3
72
10
73
6
40
0
40
0
40
0
40
0
40
0.5
40
0.5
40
1
40
1
40
1
40
1
41
1
10
125.470760041599
20
13.3539836937857
30
0
41
1
10
125.461730688858
20
13.4057027545346
30
0
41
1
10
125.449182037045
20
13.4600488107288
30
0
41
1
10
125.417164103858
20
13.5738157334484
30
0
41
1
10
125.397462751573
20
13.6334040590122
30
0
41
1
10
125.37607741566
20
13.6911729424133
30
0
0
SPLINE
5
1CC
100
AcDbEntity
8
1
62
256
6
ByLayer
370
-1
48
1
60
0
100
AcDbSpline
70
4
71
3
72
11
73
7
40
0
40
0
40
0
40
0
40
0.486341095999835
40
0.729511643999753
40
0.972682191999671
40
1
40
1
40
1
40
1
41
1
10
134.60438854898
20
10.9635105218627
30
0
41
1
10
134.604560695751
20
10.9585620529028
30
0
41
1
10
134.604915769384
20
10.9511398311907
30
0
41
1
10
134.605551809546
20
10.9418938016938
30
0
41
1
10
134.605937361727
20
10.9373483124144
30
0
41
1
10
134.6061517595
20
10.9350754440856
30
0
41
1
10
134.606173487645
20
10.9348467012148
30
0
0
SPLINE
5
1CD
100
AcDbEntity
8
1
62
256
6
ByLayer
370
-1
48
1
60
0
100
AcDbSpline
70
4
71
3
72
14
73
10
40
0
40
0
40
0
40
0
40
0.0318086637758821
40
0.315507725074461
40
0.59920678637304
40
0.882905847671619
40
0.953830612996263
40
0.989292995658586
40
1
40
1
40
1
40
1
41
1
10
134.653850381753
20
22.4716786376572
30
0
41
1
10
134.657700802385
20
22.4718058597742
30
0
41
1
10
134.695984344493
20
22.4730714487232
30
0
41
1
10
134.77213553142
20
22.4756136538061
30
0
41
1
10
134.886445291324
20
22.4794885204944
30
0
41
1
10
134.974945178537
20
22.4825304681938
30
0
41
1
10
135.029338442013
20
22.4844155981642
30
0
41
1
10
135.045676994446
20
22.4849832439907
30
0
41
1
10
135.052119482589
20
22.4852072897238
30
0
41
1
10
135.053613552041
20
22.4852592557547
30
0
0
SPLINE
5
1CE
100
AcDbEntity
8
1
62
256
6
ByLayer
370
-1
48
1
60
0
100
AcDbSpline
70
4
71
3
72
12
73
8
40
0
40
0
40
0
40
0
40
0.448044053330177
40
0.448044053330177
40
0.724021472165484
40
0.724021472165484
40
1
40
1
40
1
40
1
41
1
10
136.661917559186
20
11.1849631141556
30
0
41
1
10
136.667370653009
20
11.028210447029
30
0
41
1
10
136.67275735841
20
10.871454188388
30
0
41
1
10
136.681521397412
20
10.6181457331783
30
0
41
1
10
136.684890879761
20
10.521592794909
30
0
41
1
10
136.691664769025
20
10.3284902294434
30
0
41
1
10
136.695071279494
20
10.2319400519818
30
0
41
1
10
136.698430117067
20
10.1353863020347
30
0
0
SPLINE
5
1CF
100
AcDbEntity
8
1
62
256
6
ByLayer
370
-1
48
1
60
0
100
AcDbSpline
70
4
71
3
72
14
73
10
40
0
40
0
40
0
40
0
40
0.136649739226111
40
0.273299478452222
40
0.546598956904444
40
0.614923826517499
40
0.683248696130555
40
0.819898435356666
40
1
40
1
40
1
40
1
41
1
10
134.748511721423
20
11.1186540704209
30
0
41
1
10
134.748597051726
20
11.1162011963229
30
0
41
1
10
134.748647377972
20
11.1112912453564
30
0
41
1
10
134.748268187955
20
11.101478160718
30
0
41
1
10
134.747308565491
20
11.0929316716015
30
0
41
1
10
134.746040384088
20
11.0856789555223
30
0
41
1
10
134.745076847561
20
11.0808660999434
30
0
41
1
10
134.743471269668
20
11.0741379925703
30
0
41
1
10
134.741839445565
20
11.0686866190626
30
0
41
1
10
134.740812754803
20
11.0656203957612
30
0
0
SPLINE
5
1D0
100
AcDbEntity
8
1
62
256
6
ByLayer
370
-1
48
1
60
0
100
AcDbSpline
70
4
71
3
72
15
73
11
40
0
40
0
40
0
40
0
40
0.0355064919379779
40
0.118947470229819
40
0.2858294268135
40
0.619593339980863
40
0.786475296564545
40
0.869916274856385
40
0.953357253148226
40
1
40
1
40
1
40
1
41
1
10
122.188332972203
20
10.6772729136979
30
0
41
1
10
122.184184189166
20
10.6771263835137
30
0
41
1
10
122.170279908023
20
10.6766354073569
30
0
41
1
10
122.136761662087
20
10.6754538258425
30
0
41
1
10
122.067916929203
20
10.6730347384207
30
0
41
1
10
121.988708223244
20
10.6702695718521
30
0
41
1
10
121.919447771844
20
10.6678673385519
30
0
41
1
10
121.879955325567
20
10.6665020255328
30
0
41
1
10
121.854743571499
20
10.6656323576972
30
0
41
1
10
121.839419744411
20
10.6651047605234
30
0
41
1
10
121.833927214518
20
10.6649157073097
30
0
0
SPLINE
5
1D1
100
AcDbEntity
8
1
62
256
6
ByLayer
370
-1
48
1
60
0
100
AcDbSpline
70
4
71
3
72
14
73
10
40
0
40
0
40
0
40
0
40
0.136649739226133
40
0.273299478452267
40
0.546598956904534
40
0.6149238265176
40
0.683248696130667
40
0.819898435356801
40
1
40
1
40
1
40
1
41
1
10
134.19935656876
20
22.6064136566354
30
0
41
1
10
134.201800108932
20
22.6064993128864
30
0
41
1
10
134.206691376052
20
22.6065498313708
30
0
41
1
10
134.216467118941
20
22.6061691929096
30
0
41
1
10
134.224981086086
20
22.6052059048441
30
0
41
1
10
134.232206203391
20
22.6039328791935
30
0
41
1
10
134.237000744602
20
22.6029656621138
30
0
41
1
10
134.243703249495
20
22.6013539511739
30
0
41
1
10
134.249133878881
20
22.5997158937683
30
0
41
1
10
134.252188434276
20
22.598685281214
30
0
0
SPLINE
5
1D2
100
AcDbEntity
8
1
62
256
6
ByLayer
370
-1
48
1
60
0
100
AcDbSpline
70
4
71
3
72
8
73
4
40
0
40
0
40
0
40
0
40
1
40
1
40
1
40
1
41
1
10
136.497038758428
20
9.35726702510715
30
0
41
1
10
136.592148949279
20
9.45965626566854
30
0
41
1
10
136.659335693427
20
9.58650145244485
30
0
41
1
10
136.690712048602
20
9.72290486964866
30
0
0
SPLINE
5
1D3
100
AcDbEntity
8
1
62
256
6
ByLayer
370
-1
48
1
60
0
100
AcDbSpline
70
4
71
3
72
17
73
13
40
0
40
0
40
0
40
0
40
0.0144631560763518
40
0.0301057427839969
40
0.0613909161992871
40
0.123961263029867
40
0.249101956691028
40
0.49938334401335
40
0.749664731335671
40
0.999946118657993
40
0.999946118657993
40
1
40
1
40
1
40
1
41
1
10
135.200670835685
20
24.5419314393154
30
0
41
1
10
135.200708925311
20
24.5408365286691
30
0
41
1
10
135.200724081506
20
24.5404008541684
30
0
41
1
10
135.200800067387
20
24.5382165914593
30
0
41
1
10
135.200924034793
20
24.5346530691396
30
0
41
1
10
135.201179399377
20
24.527312450979
30
0
41
1
10
135.201685175363
20
24.5127735970051
30
0
41
1
10
135.202410141903
20
24.4919339704626
30
0
41
1
10
135.203279144137
20
24.4669539458654
30
0
41
1
10
135.20385858903
20
24.4502974320817
30
0
41
1
10
135.204148231183
20
24.4419714832679
30
0
41
1
10
135.204148578886
20
24.441961488314
30
0
41
1
10
135.204148926589
20
24.4419514933601
30
0
0
SPLINE
5
1D4
100
AcDbEntity
8
1
62
256
6
ByLayer
370
-1
48
1
60
0
100
AcDbSpline
70
4
71
3
72
15
73
11
40
0
40
0
40
0
40
0
40
0.250227978747756
40
0.500467923372348
40
0.75070786799694
40
0.875827840309236
40
0.938387826465385
40
0.969667819543458
40
0.985307816082496
40
1
40
1
40
1
40
1
41
1
10
135.584455552913
20
24.4172376975011
30
0
41
1
10
135.586716130603
20
24.4269809322284
30
0
41
1
10
135.591237394061
20
24.4464678675135
30
0
41
1
10
135.598018031222
20
24.4756928482705
30
0
41
1
10
135.603674994209
20
24.5000747213147
30
0
41
1
10
135.607621353381
20
24.5170837822774
30
0
41
1
10
135.609614214888
20
24.5256731431008
30
0
41
1
10
135.610581122759
20
24.5298405779995
30
0
41
1
10
135.611176983654
20
24.5324087766471
30
0
41
1
10
135.611318840386
20
24.5330201882549
30
0
41
1
10
135.611587847272
20
24.534179625174
30
0
0
SPLINE
5
1D5
100
AcDbEntity
8
1
62
256
6
ByLayer
370
-1
48
1
60
0
100
AcDbSpline
70
4
71
3
72
9
73
5
40
0
40
0
40
0
40
0
40
0.5
40
1
40
1
40
1
40
1
41
1
10
136.573995749597
20
9.74989899620331
30
0
41
1
10
136.557512396361
20
9.69349101223574
30
0
41
1
10
136.509484840811
20
9.58385448676577
30
0
41
1
10
136.435471477788
20
9.49212575492263
30
0
41
1
10
136.394284012937
20
9.45274679551591
30
0
0
SPLINE
5
1D6
100
AcDbEntity
8
1
62
256
6
ByLayer
370
-1
48
1
60
0
100
AcDbSpline
70
4
71
3
72
20
73
16
40
0
40
0
40
0
40
0
40
0.0006369940731729
40
0.0022970655115896
40
0.0039571369500062
40
0.0172377084573395
40
0.043798851472006
40
0.150043423530672
40
0.362532567648004
40
0.46877713970667
40
0.521899425736003
40
0.575021711765336
40
0.787510855882668
40
0.893755427941334
40
1
40
1
40
1
40
1
41
1
10
136.598860607189
20
10.131896235968
30
0
41
1
10
136.59885822142
20
10.1321193516061
30
0
41
1
10
136.598841277958
20
10.1329246371011
30
0
41
1
10
136.598786255554
20
10.1343102993205
30
0
41
1
10
136.598588671006
20
10.1401121097369
30
0
41
1
10
136.598079163659
20
10.1546405728879
30
0
41
1
10
136.596306885389
20
10.2057438052367
30
0
41
1
10
136.592079503606
20
10.326563120811
30
0
41
1
10
136.586828887079
20
10.4752452946181
30
0
41
1
10
136.582183629179
20
10.6053375341109
30
0
41
1
10
136.579513437352
20
10.6796721554195
30
0
41
1
10
136.575513102727
20
10.7911770226223
30
0
41
1
10
136.570858843633
20
10.9212732046608
30
0
41
1
10
136.565561002911
20
11.0699586861761
30
0
41
1
10
136.562914089918
20
11.1443017028567
30
0
41
1
10
136.561596260921
20
11.1814731644854
30
0
0
SPLINE
5
1D7
100
AcDbEntity
8
1
62
256
6
ByLayer
370
-1
48
1
60
0
100
AcDbSpline
70
4
71
3
72
20
73
16
40
0
40
0
40
0
40
0
40
0.0006369940731856
40
0.0022970655116022
40
0.0039571369500188
40
0.0172377084573519
40
0.0437988514720181
40
0.150043423530683
40
0.362532567648012
40
0.468777139706677
40
0.521899425736009
40
0.575021711765341
40
0.787510855882671
40
0.893755427941336
40
1
40
1
40
1
40
1
41
1
10
135.204148427551
20
24.4419584085404
30
0
41
1
10
135.203926178027
20
24.4419559965018
30
0
41
1
10
135.203124018091
20
24.4419389268799
30
0
41
1
10
135.201743729139
20
24.4418835935113
30
0
41
1
10
135.195964386758
20
24.441684862336
30
0
41
1
10
135.181491846372
20
24.441172768742
30
0
41
1
10
135.130582130941
20
24.4393946705812
30
0
41
1
10
135.010195297088
20
24.4351785173137
30
0
41
1
10
134.861970416365
20
24.4300167461637
30
0
41
1
10
134.732215194919
20
24.4255123699532
30
0
41
1
10
134.658051524226
20
24.4229443209854
30
0
41
1
10
134.546821166062
20
24.4190790785915
30
0
41
1
10
134.417096083724
20
24.4145314700228
30
0
41
1
10
134.268905742419
20
24.4092843152288
30
0
41
1
10
134.194832487074
20
24.4066404779243
30
0
41
1
10
134.157802942056
20
24.4053171452696
30
0
0
SPLINE
5
1D8
100
AcDbEntity
8
1
62
256
6
ByLayer
370
-1
48
1
60
0
100
AcDbSpline
70
4
71
3
72
8
73
4
40
0
40
0
40
0
40
0
40
1
40
1
40
1
40
1
41
1
10
134.19935656876
20
22.6064136566354
30
0
41
1
10
134.199002606018
20
22.6165885418954
30
0
41
1
10
134.198928589705
20
22.6267402300284
30
0
41
1
10
134.199147597845
20
22.6350750080896
30
0
0
SPLINE
5
1D9
100
AcDbEntity
8
1
62
256
6
ByLayer
370
-1
48
1
60
0
100
AcDbSpline
70
4
71
3
72
8
73
4
40
0
40
0
40
0
40
0
40
1
40
1
40
1
40
1
41
1
10
136.224840395199
20
23.7175021313941
30
0
41
1
10
136.22198217595
20
23.7707775796842
30
0
41
1
10
136.218699237012
20
23.8240317997853
30
0
41
1
10
136.214991153494
20
23.877254404781
30
0
0
SPLINE
5
1DA
100
AcDbEntity
8
1
62
256
6
ByLayer
370
-1
48
1
60
0
100
AcDbSpline
70
4
71
3
72
8
73
4
40
0
40
0
40
0
40
0
40
1
40
1
40
1
40
1
41
1
10
136.194440002075
20
23.9885620194638
30
0
41
1
10
136.153666432315
20
24.1224402621489
30
0
41
1
10
136.077827498247
20
24.2442762477849
30
0
41
1
10
135.975829940754
20
24.3397476174869
30
0
0
SPLINE
5
1DB
100
AcDbEntity
8
1
62
256
6
ByLayer
370
-1
48
1
60
0
100
AcDbSpline
70
4
71
3
72
17
73
13
40
0
40
0
40
0
40
0
40
0.0524083454183459
40
0.147434401200682
40
0.337486512765355
40
0.7175907358947
40
0.907642847459373
40
0.955155875350541
40
0.978912389296125
40
0.990790646268917
40
0.996729774755313
40
1
40
1
40
1
40
1
41
1
10
123.330784461908
20
10.2827946602271
30
0
41
1
10
123.330356690966
20
10.2872747744678
30
0
41
1
10
123.329149059119
20
10.2998329390652
30
0
41
1
10
123.326391121592
20
10.3286456534999
30
0
41
1
10
123.320950322612
20
10.3853824767515
30
0
41
1
10
123.314734320736
20
10.4502465047031
30
0
41
1
10
123.309682891604
20
10.5029386459859
30
0
41
1
10
123.307546282035
20
10.5252371449157
30
0
41
1
10
123.306865935121
20
10.5323266319604
30
0
41
1
10
123.306526588195
20
10.5358801582763
30
0
41
1
10
123.306353267254
20
10.5376699400737
30
0
41
1
10
123.306278004243
20
10.5384561948714
30
0
41
1
10
123.306251398527
20
10.5387366714872
30
0
0
SPLINE
5
1DC
100
AcDbEntity
8
1
62
256
6
ByLayer
370
-1
48
1
60
0
100
AcDbSpline
70
4
71
3
72
9
73
5
40
0
40
0
40
0
40
0
40
0.62500000000001
40
1
40
1
40
1
40
1
41
1
10
135.733577874643
20
9.20125906314837
30
0
41
1
10
135.734461037831
20
9.18043842091882
30
0
41
1
10
135.735874098932
20
9.1471253933515
30
0
41
1
10
135.737287160033
20
9.11381236578421
30
0
41
1
10
135.737817057946
20
9.10131998044648
30
0
0
SPLINE
5
1DD
100
AcDbEntity
8
1
62
256
6
ByLayer
370
-1
48
1
60
0
100
AcDbSpline
70
4
71
3
72
25
73
21
40
0
40
0
40
0
40
0
40
0.125
40
0.1875
40
0.25
40
0.265625
40
0.2734375
40
0.28125
40
0.3125
40
0.375
40
0.5
40
0.625
40
0.65625
40
0.6875
40
0.75
40
0.765625
40
0.78125
40
0.8125
40
0.875
40
1
40
1
40
1
40
1
41
1
10
136.079236276462
20
23.953477414897
30
0
41
1
10
136.083840400897
20
23.9412274975766
30
0
41
1
10
136.08982820567
20
23.922372990332
30
0
41
1
10
136.095871981279
20
23.8965777076482
30
0
41
1
10
136.098515022031
20
23.8820079147614
30
0
41
1
10
136.099860439645
20
23.8727486453244
30
0
41
1
10
136.100290692256
20
23.8697504481155
30
0
41
1
10
136.101058519136
20
23.8631757734185
30
0
41
1
10
136.102673380878
20
23.8496180550168
30
0
41
1
10
136.10612657041
20
23.819821482694
30
0
41
1
10
136.110878696901
20
23.7775473892118
30
0
41
1
10
136.114973127108
20
23.7392628243545
30
0
41
1
10
136.117601237586
20
23.7139569188822
30
0
41
1
10
136.119322627005
20
23.6971155583758
30
0
41
1
10
136.120783664925
20
23.6823827311748
30
0
41
1
10
136.12199678903
20
23.6697039187322
30
0
41
1
10
136.122795848257
20
23.6612394382262
30
0
41
1
10
136.124170717502
20
23.6464008943772
30
0
41
1
10
136.12684264064
20
23.616652226733
30
0
41
1
10
136.129053969715
20
23.5911537568495
30
0
41
1
10
136.130481730895
20
23.5741358632734
30
0
0
SPLINE
5
1DE
100
AcDbEntity
8
1
62
256
6
ByLayer
370
-1
48
1
60
0
100
AcDbSpline
70
4
71
3
72
25
73
21
40
0
40
0
40
0
40
0
40
0.125
40
0.1875
40
0.25
40
0.265625
40
0.2734375
40
0.28125
40
0.3125
40
0.375
40
0.5
40
0.625
40
0.65625
40
0.6875
40
0.75
40
0.765625
40
0.78125
40
0.8125
40
0.875
40
1
40
1
40
1
40
1
41
1
10
121.466397015765
20
9.22033747602774
30
0
41
1
10
121.461788980125
20
9.23258739334813
30
0
41
1
10
121.455800471325
20
9.25144190059277
30
0
41
1
10
121.449765723033
20
9.27723718327658
30
0
41
1
10
121.447131365523
20
9.29180697616331
30
0
41
1
10
121.445792782245
20
9.30106624560031
30
0
41
1
10
121.445364972433
20
9.30406444280928
30
0
41
1
10
121.444601996053
20
9.31063911750621
30
0
41
1
10
121.442997235834
20
9.32419683590797
30
0
41
1
10
121.43956616498
20
9.35399340823079
30
0
41
1
10
121.434845490362
20
9.39626750171297
30
0
41
1
10
121.430779492592
20
9.43455206657029
30
0
41
1
10
121.428170294386
20
9.45985797204258
30
0
41
1
10
121.426461510042
20
9.47669933254892
30
0
41
1
10
121.425011507578
20
9.49143215974996
30
0
41
1
10
121.423807861944
20
9.50411097219251
30
0
41
1
10
121.423015126298
20
9.51257545269857
30
0
41
1
10
121.421651333639
20
9.52741399654758
30
0
41
1
10
121.419001592653
20
9.55716266419174
30
0
41
1
10
121.416809282049
20
9.58266113407529
30
0
41
1
10
121.415394210032
20
9.59967902765135
30
0
0
SPLINE
5
1DF
100
AcDbEntity
8
1
62
256
6
ByLayer
370
-1
48
1
60
0
100
AcDbSpline
70
4
71
3
72
9
73
5
40
0
40
0
40
0
40
0
40
0.5
40
1
40
1
40
1
40
1
41
1
10
121.151607255293
20
23.7210680954088
30
0
41
1
10
121.187807436665
20
23.7649937477239
30
0
41
1
10
121.273725568336
20
23.8453708406044
30
0
41
1
10
121.379351364851
20
23.9009144887889
30
0
41
1
10
121.434278699441
20
23.9212364118225
30
0
0
SPLINE
5
1E0
100
AcDbEntity
8
1
62
256
6
ByLayer
370
-1
48
1
60
0
100
AcDbSpline
70
4
71
3
72
17
73
13
40
0
40
0
40
0
40
0
40
0.0524083454184061
40
0.147434401200734
40
0.33748651276539
40
0.717590735894703
40
0.907642847459359
40
0.955155875350523
40
0.978912389296105
40
0.990790646268896
40
0.996729774755291
40
1
40
1
40
1
40
1
41
1
10
122.488204888235
20
22.0452221399352
30
0
41
1
10
122.492396037047
20
22.0453785889719
30
0
41
1
10
122.50413565418
20
22.045817129743
30
0
41
1
10
122.53108312342
20
22.0468232919022
30
0
41
1
10
122.584137001055
20
22.0488045854287
30
0
41
1
10
122.644794682294
20
22.0510696871971
30
0
41
1
10
122.694067933113
20
22.0529097373169
30
0
41
1
10
122.714920687579
20
22.053688418058
30
0
41
1
10
122.721549478334
20
22.0539359884009
30
0
41
1
10
122.72487375515
20
22.0540600802743
30
0
41
1
10
122.72654566807
20
22.0541225808319
30
0
41
1
10
122.727281020062
20
22.0541500374544
30
0
41
1
10
122.727543580852
20
22.0541598319137
30
0
0
SPLINE
5
1E1
100
AcDbEntity
8
1
62
256
6
ByLayer
370
-1
48
1
60
0
100
AcDbSpline
70
4
71
3
72
16
73
12
40
0
40
0
40
0
40
0
40
0.0068174563922509
40
0.0525902990102854
40
0.144135984246354
40
0.235681669482424
40
0.418773039954562
40
0.6018644104267
40
0.784955780898838
40
0.968047151370977
40
1
40
1
40
1
40
1
41
1
10
135.772545556062
20
11.1534560804564
30
0
41
1
10
135.771808526047
20
11.153430436327
30
0
41
1
10
135.766123008167
20
11.1532326235081
30
0
41
1
10
135.750540169041
20
11.1526906058221
30
0
41
1
10
135.725797642276
20
11.1518298772625
30
0
41
1
10
135.686209792851
20
11.1504526738039
30
0
41
1
10
135.636724814995
20
11.1487312106845
30
0
41
1
10
135.577342761281
20
11.1466654055292
30
0
41
1
10
135.517960794811
20
11.1445996505643
30
0
41
1
10
135.474918596047
20
11.1431024258551
30
0
41
1
10
135.45166992246
20
11.1422935183697
30
0
41
1
10
135.448215524188
20
11.1421733690887
30
0
0
SPLINE
5
1E2
100
AcDbEntity
8
1
62
256
6
ByLayer
370
-1
48
1
60
0
100
AcDbSpline
70
4
71
3
72
20
73
16
40
0
40
0
40
0
40
0
40
0.0006369940731944
40
0.002297065511611
40
0.0039571369500277
40
0.0172377084573606
40
0.0437988514720266
40
0.15004342353069
40
0.362532567648018
40
0.468777139706681
40
0.521899425736013
40
0.575021711765345
40
0.787510855882673
40
0.893755427941336
40
1
40
1
40
1
40
1
41
1
10
122.343252541509
20
8.7318564823843
30
0
41
1
10
122.343474825216
20
8.73185889442291
30
0
41
1
10
122.344277107561
20
8.73187596404483
30
0
41
1
10
122.345657597322
20
8.73193129741344
30
0
41
1
10
122.351437720494
20
8.73213002858878
30
0
41
1
10
122.365911536032
20
8.73264212218271
30
0
41
1
10
122.416819358844
20
8.73442022034351
30
0
41
1
10
122.537151648195
20
8.73863637361103
30
0
41
1
10
122.685159553967
20
8.74379814476106
30
0
41
1
10
122.814598731012
20
8.74830252097155
30
0
41
1
10
122.888538571583
20
8.75087056993931
30
0
41
1
10
122.999469328457
20
8.75473581233325
30
0
41
1
10
123.128946499697
20
8.75928342090194
30
0
41
1
10
123.27699553513
20
8.76453057569594
30
0
41
1
10
123.351042517899
20
8.76717441300045
30
0
41
1
10
123.388072998871
20
8.76849774565511
30
0
0
SPLINE
5
1E3
100
AcDbEntity
8
1
62
256
6
ByLayer
370
-1
48
1
60
0
100
AcDbSpline
70
4
71
3
72
12
73
8
40
0
40
0
40
0
40
0
40
0.518100853439303
40
0.777151280158955
40
0.90667649351878
40
0.971439100198693
40
1
40
1
40
1
40
1
41
1
10
136.561596260921
20
11.1814731644854
30
0
41
1
10
136.485881117619
20
11.178768710179
30
0
41
1
10
136.372308788274
20
11.1747120378032
30
0
41
1
10
136.239806358623
20
11.1699792213135
30
0
41
1
10
136.173556998957
20
11.1676128558834
30
0
41
1
10
136.140987780622
20
11.1664495496145
30
0
41
1
10
136.127351267123
20
11.1659624460993
30
0
41
1
10
136.123174832813
20
11.1658132963808
30
0
0
SPLINE
5
1E4
100
AcDbEntity
8
1
62
256
6
ByLayer
370
-1
48
1
60
0
100
AcDbSpline
70
4
71
3
72
15
73
11
40
0
40
0
40
0
40
0
40
0.424997863749038
40
0.849995727498077
40
0.956245193435336
40
0.982807559919651
40
0.996088743161809
40
0.997748891067078
40
0.999409038972348
40
1
40
1
40
1
40
1
41
1
10
121.378881652152
20
10.6492558397723
30
0
41
1
10
121.384054242268
20
10.5005664309959
30
0
41
1
10
121.394396627518
20
10.2031906274148
30
0
41
1
10
121.406044739302
20
9.86862886308626
30
0
41
1
10
121.41282240789
20
9.67348629647827
30
0
41
1
10
121.41460812921
20
9.6223660438535
30
0
41
1
10
121.415106303845
20
9.60785312687239
30
0
41
1
10
121.415313886105
20
9.60203896434106
30
0
41
1
10
121.415353917516
20
9.60067166866935
30
0
41
1
10
121.415392111101
20
9.5998859480718
30
0
41
1
10
121.415404144711
20
9.59967961967081
30
0
0
SPLINE
5
1E5
100
AcDbEntity
8
1
62
256
6
ByLayer
370
-1
48
1
60
0
100
AcDbSpline
70
4
71
3
72
91
73
87
40
0
40
0
40
0
40
0
40
0.0276322771565856
40
0.0681475989417279
40
0.0782764293880134
40
0.0833408446111562
40
0.0839738965140491
40
0.0846069484169419
40
0.0849234743683883
40
0.0852400003198348
40
0.0858730522227276
40
0.088405259834299
40
0.0985340902805846
40
0.10866292072687
40
0.118791751173156
40
0.128920581619441
40
0.149178242512012
40
0.169435903404584
40
0.179564733850869
40
0.184629149074012
40
0.189693564297155
40
0.190326616200048
40
0.19095966810294
40
0.192225771908726
40
0.192858823811619
40
0.193491875714512
40
0.194757979520297
40
0.197290187131869
40
0.19982239474344
40
0.204886809966583
40
0.209951225189726
40
0.220080055636011
40
0.222612263247583
40
0.223878367053368
40
0.225144470859154
40
0.230208886082297
40
0.270724207867439
40
0.29098186876001
40
0.311239529652582
40
0.331497190545153
40
0.341626020991438
40
0.346690436214581
40
0.349222643826152
40
0.350488747631938
40
0.351121799534831
40
0.351754851437724
40
0.352387903340616
40
0.353020955243509
40
0.354287059049295
40
0.356819266660867
40
0.361883681884009
40
0.372012512330295
40
0.392270173222866
40
0.412527834115437
40
0.432785495008008
40
0.473300816793151
40
0.475833024404722
40
0.478365232016293
40
0.479631335822079
40
0.480897439627865
40
0.483429647239436
40
0.493558477685722
40
0.503687308132007
40
0.50875172335515
40
0.511283930966721
40
0.512550034772507
40
0.513816138578293
40
0.514449190481186
40
0.523944969024578
40
0.534073799470864
40
0.554331460363435
40
0.564460290809721
40
0.574589121256006
40
0.594846782148577
40
0.615104443041148
40
0.61763665065272
40
0.618269702555613
40
0.618586228507059
40
0.618902754458506
40
0.619535806361398
40
0.620168858264291
40
0.625233273487434
40
0.63536210393372
40
0.675877425718862
40
0.837938712859431
40
1
40
1
40
1
40
1
41
1
10
134.740812754803
20
11.0656203957612
30
0
41
1
10
134.740281468818
20
11.064033704299
30
0
41
1
10
134.73890591183
20
11.0601425946322
30
0
41
1
10
134.737142650951
20
11.0557419238213
30
0
41
1
10
134.735793066739
20
11.0526509558807
30
0
41
1
10
134.735401639656
20
11.0517764271102
30
0
41
1
10
134.735243869021
20
11.0514271609736
30
0
41
1
10
134.735204359731
20
11.0513398747885
30
0
41
1
10
134.735172712335
20
11.0512700640805
30
0
41
1
10
134.735141038302
20
11.0512002655424
30
0
41
1
10
134.735053824852
20
11.0510083698063
30
0
41
1
10
134.734719430355
20
11.0502763175227
30
0
41
1
10
134.734136612776
20
11.0490257921496
30
0
41
1
10
134.733339228767
20
11.0473681065885
30
0
41
1
10
134.732521672674
20
11.0457203519159
30
0
41
1
10
134.731404864196
20
11.0435369192514
30
0
41
1
10
134.72995903248
20
11.0408337020704
30
0
41
1
10
134.728447584733
20
11.0381669116598
30
0
41
1
10
134.727355549259
20
11.0363201549267
30
0
41
1
10
134.726721869311
20
11.035270703309
30
0
41
1
10
134.726381816489
20
11.0347152718144
30
0
41
1
10
134.726180660562
20
11.0343892461464
30
0
41
1
10
134.726100098259
20
11.0342588980614
30
0
41
1
10
134.726019386139
20
11.0341286433573
30
0
41
1
10
134.725938524366
20
11.0339984822495
30
0
41
1
10
134.725857562879
20
11.0338683836112
30
0
41
1
10
134.725715618671
20
11.033640875165
30
0
41
1
10
134.725512094607
20
11.033316333236
30
0
41
1
10
134.725184866804
20
11.0327980737058
30
0
41
1
10
134.724772858667
20
11.0321521470806
30
0
41
1
10
134.724107330415
20
11.0311227498717
30
0
41
1
10
134.723516741177
20
11.0302274376609
30
0
41
1
10
134.723047351763
20
11.0295275837678
30
0
41
1
10
134.722876081832
20
11.0292734865161
30
0
41
1
10
134.722618594719
20
11.0288927365738
30
0
41
1
10
134.721021791806
20
11.0265508958853
30
0
41
1
10
134.718687322236
20
11.0233220985496
30
0
41
1
10
134.715671293609
20
11.0194577182085
30
0
41
1
10
134.713339197603
20
11.016615960324
30
0
41
1
10
134.711338508086
20
11.014296406009
30
0
41
1
10
134.709908543046
20
11.0126989933818
30
0
41
1
10
134.709186263383
20
11.0119069524583
30
0
41
1
10
134.708823308448
20
11.0115126104118
30
0
41
1
10
134.708641378351
20
11.0113158605008
30
0
41
1
10
134.708537289138
20
11.0112035525136
30
0
41
1
10
134.70845915769
20
11.0111193818437
30
0
41
1
10
134.708380961744
20
11.0110352715481
30
0
41
1
10
134.708276614555
20
11.0109232050463
30
0
41
1
10
134.708093781588
20
11.0107273002922
30
0
41
1
10
134.70772721553
20
11.0103363385344
30
0
41
1
10
134.706990494274
20
11.0095578160565
30
0
41
1
10
134.705502786013
20
11.008014455539
30
0
41
1
10
134.703337248165
20
11.0058492119795
30
0
41
1
10
134.70067587886
20
11.0033156793061
30
0
41
1
10
134.697045968791
20
11.0000259393527
30
0
41
1
10
134.694117284982
20
10.9975616047309
30
0
41
1
10
134.691963942838
20
10.9958435687096
30
0
41
1
10
134.691664140018
20
10.9956058746731
30
0
41
1
10
134.691423862869
20
10.9954162741241
30
0
41
1
10
134.691183296334
20
10.9952270438398
30
0
41
1
10
134.690520546868
20
10.9947081898712
30
0
41
1
10
134.689429573016
20
10.9938675193186
30
0
41
1
10
134.688206042207
20
10.9929484617915
30
0
41
1
10
134.687343709195
20
10.9923130877636
30
0
41
1
10
134.686911088679
20
10.9919974023459
30
0
41
1
10
134.686663463147
20
10.991817583997
30
0
41
1
10
134.686508525106
20
10.9917054367102
30
0
41
1
10
134.685950284449
20
10.9913023530739
30
0
41
1
10
134.684953464928
20
10.9905918935348
30
0
41
1
10
134.68297450979
20
10.9892167387542
30
0
41
1
10
134.680938719586
20
10.987857097752
30
0
41
1
10
134.67887846324
20
10.9865353558836
30
0
41
1
10
134.676802215113
20
10.9852390659385
30
0
41
1
10
134.674177518449
20
10.9836667743018
30
0
41
1
10
134.671914577241
20
10.9823855964388
30
0
41
1
10
134.670673907396
20
10.9817056429701
30
0
41
1
10
134.670489291253
20
10.981604923668
30
0
41
1
10
134.670422137167
20
10.9815683371965
30
0
41
1
10
134.670354969129
20
10.9815317765501
30
0
41
1
10
134.670270982939
20
10.981486124175
30
0
41
1
10
134.669934898945
20
10.9813037730964
30
0
41
1
10
134.669093124795
20
10.9808508039214
30
0
41
1
10
134.666115561946
20
10.9792837495687
30
0
41
1
10
134.654566099698
20
10.973651581118
30
0
41
1
10
134.63364355067
20
10.9664710839062
30
0
41
1
10
134.614162709666
20
10.9638531468665
30
0
41
1
10
134.60438854898
20
10.9635105218627
30
0
0
SPLINE
5
1E6
100
AcDbEntity
8
1
62
256
6
ByLayer
370
-1
48
1
60
0
100
AcDbSpline
70
4
71
3
72
8
73
4
40
0
40
0
40
0
40
0
40
1
40
1
40
1
40
1
41
1
10
136.230803029159
20
23.5776258129437
30
0
41
1
10
136.229748370204
20
23.6079426586609
30
0
41
1
10
136.228556473728
20
23.6382550166686
30
0
41
1
10
136.227226856212
20
23.6685609599731
30
0
0
SPLINE
5
1E7
100
AcDbEntity
8
1
62
256
6
ByLayer
370
-1
48
1
60
0
100
AcDbSpline
70
4
71
3
72
91
73
87
40
0
40
0
40
0
40
0
40
0.027632277156633
40
0.0681475989417732
40
0.0782764293880583
40
0.0833408446112009
40
0.0839738965140937
40
0.0846069484169865
40
0.0849234743684329
40
0.0852400003198793
40
0.0858730522227721
40
0.0884052598343434
40
0.0985340902806285
40
0.108662920726913
40
0.118791751173199
40
0.128920581619484
40
0.149178242512054
40
0.169435903404624
40
0.179564733850909
40
0.184629149074052
40
0.189693564297194
40
0.190326616200087
40
0.19095966810298
40
0.192225771908765
40
0.192858823811658
40
0.193491875714551
40
0.194757979520337
40
0.197290187131908
40
0.199822394743479
40
0.204886809966622
40
0.209951225189764
40
0.220080055636049
40
0.222612263247621
40
0.223878367053406
40
0.225144470859192
40
0.230208886082334
40
0.270724207867475
40
0.290981868760045
40
0.311239529652615
40
0.331497190545185
40
0.34162602099147
40
0.346690436214613
40
0.349222643826184
40
0.35048874763197
40
0.351121799534863
40
0.351754851437755
40
0.352387903340648
40
0.353020955243541
40
0.354287059049327
40
0.356819266660898
40
0.36188368188404
40
0.372012512330326
40
0.392270173222896
40
0.412527834115466
40
0.432785495008036
40
0.473300816793176
40
0.475833024404748
40
0.478365232016319
40
0.479631335822104
40
0.48089743962789
40
0.483429647239461
40
0.493558477685746
40
0.503687308132031
40
0.508751723355174
40
0.511283930966745
40
0.512550034772531
40
0.513816138578317
40
0.514449190481209
40
0.523944969024602
40
0.534073799470887
40
0.554331460363457
40
0.564460290809742
40
0.574589121256027
40
0.594846782148597
40
0.615104443041167
40
0.617636650652739
40
0.618269702555631
40
0.618586228507078
40
0.618902754458524
40
0.619535806361417
40
0.62016885826431
40
0.625233273487452
40
0.635362103933737
40
0.675877425718878
40
0.837938712859439
40
1
40
1
40
1
40
1
41
1
10
134.252188434276
20
22.598685281214
30
0
41
1
10
134.253769087899
20
22.5981519658029
30
0
41
1
10
134.257645390718
20
22.5967711544109
30
0
41
1
10
134.262029315648
20
22.5950011581619
30
0
41
1
10
134.265108521523
20
22.5936464187571
30
0
41
1
10
134.265979722447
20
22.5932534964866
30
0
41
1
10
134.266327659521
20
22.5930951231928
30
0
41
1
10
134.266414613555
20
22.5930554629839
30
0
41
1
10
134.266484158613
20
22.5930236947004
30
0
41
1
10
134.266553691546
20
22.5929918996777
30
0
41
1
10
134.266744857061
20
22.5929043530865
30
0
41
1
10
134.267474123665
20
22.5925686812566
30
0
41
1
10
134.268719890411
20
22.5919836374089
30
0
41
1
10
134.270371267979
20
22.5911832075228
30
0
41
1
10
134.272012752447
20
22.5903625284983
30
0
41
1
10
134.274187876491
20
22.5892414539929
30
0
41
1
10
134.276880807115
20
22.5877900994351
30
0
41
1
10
134.279537449583
20
22.5862728782031
30
0
41
1
10
134.281377178849
20
22.5851766713307
30
0
41
1
10
134.282422636986
20
22.5845405708286
30
0
41
1
10
134.282975954896
20
22.5841992190604
30
0
41
1
10
134.283300739938
20
22.5839972947504
30
0
41
1
10
134.283430592009
20
22.5839164247121
30
0
41
1
10
134.283560351055
20
22.5838354042848
30
0
41
1
10
134.28369001686
20
22.583754233633
30
0
41
1
10
134.283819620434
20
22.5836729628864
30
0
41
1
10
134.284046263142
20
22.583530476475
30
0
41
1
10
134.284369570091
20
22.5833261749822
30
0
41
1
10
134.284885857487
20
22.5829976972215
30
0
41
1
10
134.285529326167
20
22.5825841152807
30
0
41
1
10
134.286554806208
20
22.5819160448191
30
0
41
1
10
134.287446711486
20
22.5813231996263
30
0
41
1
10
134.288143902224
20
22.5808520172206
30
0
41
1
10
134.288397032559
20
22.5806800930658
30
0
41
1
10
134.288776333632
20
22.580421622394
30
0
41
1
10
134.29110926291
20
22.5788187199536
30
0
41
1
10
134.294325773697
20
22.5764753330896
30
0
41
1
10
134.298175448904
20
22.5734477837224
30
0
41
1
10
134.301006393042
20
22.5711067794887
30
0
41
1
10
134.303317120753
20
22.569098447663
30
0
41
1
10
134.304908454743
20
22.5676630203887
30
0
41
1
10
134.305697481711
20
22.5669379817349
30
0
41
1
10
134.306090323167
20
22.5665736403705
30
0
41
1
10
134.306286324385
20
22.5663910153309
30
0
41
1
10
134.306398205007
20
22.5662865285136
30
0
41
1
10
134.306482055382
20
22.5662080986159
30
0
41
1
10
134.306565845612
20
22.5661296039746
30
0
41
1
10
134.306677485667
20
22.5660248581959
30
0
41
1
10
134.306872644945
20
22.5658413268366
30
0
41
1
10
134.307262118975
20
22.5654733605564
30
0
41
1
10
134.30803767894
20
22.5647338251446
30
0
41
1
10
134.309575166504
20
22.5632404340796
30
0
41
1
10
134.311732170659
20
22.5610666242291
30
0
41
1
10
134.314256062475
20
22.5583950889253
30
0
41
1
10
134.317533283975
20
22.5547513131899
30
0
41
1
10
134.319988241059
20
22.5518114422841
30
0
41
1
10
134.321699739435
20
22.549649874723
30
0
41
1
10
134.321936528974
20
22.5493489267045
30
0
41
1
10
134.322125408036
20
22.5491077317367
30
0
41
1
10
134.322313918242
20
22.548866246276
30
0
41
1
10
134.322830797814
20
22.5482009652152
30
0
41
1
10
134.323668269361
20
22.5471058240204
30
0
41
1
10
134.324583829597
20
22.5458776195218
30
0
41
1
10
134.325216785835
20
22.5450119925378
30
0
41
1
10
134.325531269975
20
22.5445777194825
30
0
41
1
10
134.32571040406
20
22.5443291480607
30
0
41
1
10
134.325822124593
20
22.544173618182
30
0
41
1
10
134.326223674374
20
22.5436132451362
30
0
41
1
10
134.3269314304
20
22.5426126179269
30
0
41
1
10
134.328301352302
20
22.5406261035015
30
0
41
1
10
134.32965581946
20
22.5385825369097
30
0
41
1
10
134.330972531701
20
22.5365144107195
30
0
41
1
10
134.332263888872
20
22.5344302316614
30
0
41
1
10
134.333830197464
20
22.5317955090824
30
0
41
1
10
134.335106500058
20
22.5295239238065
30
0
41
1
10
134.335783866099
20
22.5282785148043
30
0
41
1
10
134.335884202134
20
22.528093193458
30
0
41
1
10
134.335920649382
20
22.5280257828544
30
0
41
1
10
134.335957070904
20
22.5279583582451
30
0
41
1
10
134.336002549558
20
22.5278740512411
30
0
41
1
10
134.336184206736
20
22.5275366834617
30
0
41
1
10
134.336635452227
20
22.5266916938711
30
0
41
1
10
134.338196543465
20
22.5237027572157
30
0
41
1
10
134.343807279814
20
22.5121091778977
30
0
41
1
10
134.350960453066
20
22.4911067081319
30
0
41
1
10
134.353568428065
20
22.47155145348
30
0
41
1
10
134.353909749277
20
22.4617399570879
30
0
0
SPLINE
5
1E8
100
AcDbEntity
8
1
62
256
6
ByLayer
370
-1
48
1
60
0
100
AcDbSpline
70
4
71
3
72
16
73
12
40
0
40
0
40
0
40
0
40
0.0068174563922746
40
0.0525902990103071
40
0.144135984246372
40
0.235681669482437
40
0.418773039954567
40
0.601864410426696
40
0.784955780898826
40
0.968047151370956
40
1
40
1
40
1
40
1
41
1
10
121.793731583875
20
22.0203588104683
30
0
41
1
10
121.794457668571
20
22.0203844545978
30
0
41
1
10
121.800058275494
20
22.0205822674166
30
0
41
1
10
121.815400020963
20
22.0211242851027
30
0
41
1
10
121.839765989801
20
22.0219850136622
30
0
41
1
10
121.87875388791
20
22.0233622171208
30
0
41
1
10
121.927486243606
20
22.0250836802402
30
0
41
1
10
121.985967809333
20
22.0271494853955
30
0
41
1
10
122.044446598712
20
22.0292152403604
30
0
41
1
10
122.086827908017
20
22.0307124650697
30
0
41
1
10
122.109731101065
20
22.0315213725551
30
0
41
1
10
122.113131768044
20
22.0316415218361
30
0
0
SPLINE
5
1E9
100
AcDbEntity
8
1
62
256
6
ByLayer
370
-1
48
1
60
0
100
AcDbSpline
70
4
71
3
72
17
73
13
40
0
40
0
40
0
40
0
40
0.0032703186403196
40
0.0092094466333944
40
0.0210877026195439
40
0.044844214591843
40
0.0923572385364412
40
0.282409334314834
40
0.662513525871619
40
0.852565621650012
40
0.947591669539208
40
1
40
1
40
1
40
1
41
1
10
134.606173487645
20
10.9348467012148
30
0
41
1
10
134.606200112986
20
10.9345664031587
30
0
41
1
10
134.606275409681
20
10.9337804642963
30
0
41
1
10
134.60644851002
20
10.9319884697215
30
0
41
1
10
134.606788016131
20
10.9284365190262
30
0
41
1
10
134.607468261823
20
10.9213460331791
30
0
41
1
10
134.609604965924
20
10.8990484658601
30
0
41
1
10
134.614656297792
20
10.8463553666745
30
0
41
1
10
134.620872350204
20
10.7814918343343
30
0
41
1
10
134.626313141517
20
10.7247549449527
30
0
41
1
10
134.629071079715
20
10.695942223535
30
0
41
1
10
134.630278711395
20
10.6833840606201
30
0
41
1
10
134.630706482204
20
10.678903947782
30
0
0
SPLINE
5
1EA
100
AcDbEntity
8
1
62
256
6
ByLayer
370
-1
48
1
60
0
100
AcDbSpline
70
4
71
3
72
14
73
10
40
0
40
0
40
0
40
0
40
0.0318086637758766
40
0.315507725074444
40
0.599206786373011
40
0.882905847671578
40
0.953830612996219
40
0.98929299565854
40
1
40
1
40
1
40
1
41
1
10
122.882806860359
20
10.7021362532675
30
0
41
1
10
122.879398678143
20
10.7020090311505
30
0
41
1
10
122.845474590275
20
10.7007434422015
30
0
41
1
10
122.776581365989
20
10.6982012371186
30
0
41
1
10
122.669812283308
20
10.6943263704303
30
0
41
1
10
122.58475516052
20
10.691284422731
30
0
41
1
10
122.531593149064
20
10.6893992927605
30
0
41
1
10
122.515544914438
20
10.6888316469341
30
0
41
1
10
122.509204570202
20
10.6886076012009
30
0
41
1
10
122.507733740243
20
10.6885556351701
30
0
0
SPLINE
5
1EB
100
AcDbEntity
8
1
62
256
6
ByLayer
370
-1
48
1
60
0
100
AcDbSpline
70
4
71
3
72
9
73
5
40
0
40
0
40
0
40
0
40
0.5
40
1
40
1
40
1
40
1
41
1
10
136.394284012937
20
9.45274679551591
30
0
41
1
10
136.357989671211
20
9.4088211432009
30
0
41
1
10
136.271931953643
20
9.3284440503204
30
0
41
1
10
136.166273964523
20
9.27290040213592
30
0
41
1
10
136.111354592786
20
9.25257847910228
30
0
0
SPLINE
5
1EC
100
AcDbEntity
8
1
62
256
6
ByLayer
370
-1
48
1
60
0
100
AcDbSpline
70
4
71
3
72
8
73
4
40
0
40
0
40
0
40
0
40
1
40
1
40
1
40
1
41
1
10
122.207309372353
20
8.62812150892321
30
0
41
1
10
122.154166377628
20
8.62726714391246
30
0
41
1
10
122.101019472874
20
8.62685003695282
30
0
41
1
10
122.047865375169
20
8.62683997485522
30
0
0
SPLINE
5
1ED
100
AcDbEntity
8
1
62
256
6
ByLayer
370
-1
48
1
60
0
100
AcDbSpline
70
4
71
3
72
8
73
4
40
0
40
0
40
0
40
0
40
1
40
1
40
1
40
1
41
1
10
121.670239897961
20
24.0665094661759
30
0
41
1
10
121.617166987258
20
24.0636405213042
30
0
41
1
10
121.56411511286
20
24.0603453459112
30
0
41
1
10
121.511095491102
20
24.0566226412201
30
0
0
SPLINE
5
1EE
100
AcDbEntity
8
1
62
256
6
ByLayer
370
-1
48
1
60
0
100
AcDbSpline
70
4
71
3
72
8
73
4
40
0
40
0
40
0
40
0
40
1
40
1
40
1
40
1
41
1
10
121.322560641457
20
9.45631275953065
30
0
41
1
10
121.325418477548
20
9.40303731124052
30
0
41
1
10
121.328700811122
20
9.34978309113947
30
0
41
1
10
121.332409804955
20
9.29656048614376
30
0
0
SPLINE
5
1EF
100
AcDbEntity
8
1
62
256
6
ByLayer
370
-1
48
1
60
0
100
AcDbSpline
70
4
71
3
72
17
73
13
40
0
40
0
40
0
40
0
40
0.0032703186403367
40
0.0092094466334119
40
0.0210877026195621
40
0.0448442145918625
40
0.0923572385364635
40
0.282409334314867
40
0.662513525871674
40
0.852565621650078
40
0.94759166953928
40
1
40
1
40
1
40
1
41
1
10
134.38325228039
20
22.4627409197615
30
0
41
1
10
134.383548386192
20
22.4627507079853
30
0
41
1
10
134.384379289863
20
22.4627781535752
30
0
41
1
10
134.386275225995
20
22.4628407314046
30
0
41
1
10
134.390029601702
20
22.4629647682561
30
0
41
1
10
134.397526688793
20
22.463212373478
30
0
41
1
10
134.42110042602
20
22.4639910216865
30
0
41
1
10
134.476811262426
20
22.465831105257
30
0
41
1
10
134.545387556725
20
22.4680961897183
30
0
41
1
10
134.605375580018
20
22.470077485554
30
0
41
1
10
134.635834264879
20
22.4710836479571
30
0
41
1
10
134.649115399941
20
22.4715221886695
30
0
41
1
10
134.653850381753
20
22.4716786376572
30
0
0
SPLINE
5
1F0
100
AcDbEntity
8
1
62
256
6
ByLayer
370
-1
48
1
60
0
100
AcDbSpline
70
4
71
3
72
9
73
5
40
0
40
0
40
0
40
0
40
0.375000000000312
40
1
40
1
40
1
40
1
41
1
10
134.155088786643
20
24.5052562279716
30
0
41
1
10
134.15542805607
20
24.4927638426338
30
0
41
1
10
134.156332774541
20
24.4594508150665
30
0
41
1
10
134.157237493012
20
24.4261377874992
30
0
41
1
10
134.157802942056
20
24.4053171452696
30
0
0
SPLINE
5
1F1
100
AcDbEntity
8
1
62
256
6
ByLayer
370
-1
48
1
60
0
100
AcDbSpline
70
4
71
3
72
8
73
4
40
0
40
0
40
0
40
0
40
1
40
1
40
1
40
1
41
1
10
135.340092821771
20
24.5456933820015
30
0
41
1
10
135.393235420823
20
24.5465477470123
30
0
41
1
10
135.446391200392
20
24.546964853972
30
0
41
1
10
135.499536274863
20
24.5469749160695
30
0
0
SPLINE
5
1F2
100
AcDbEntity
8
1
62
256
6
ByLayer
370
-1
48
1
60
0
100
AcDbSpline
70
4
71
3
72
14
73
10
40
0
40
0
40
0
40
0
40
0.0107070020616631
40
0.0461693850894102
40
0.117094151144904
40
0.400793215366881
40
0.684492279588857
40
0.968191343810833
40
1
40
1
40
1
40
1
41
1
10
135.448215524188
20
11.1421733690887
30
0
41
1
10
135.446721455102
20
11.1421214030696
30
0
41
1
10
135.440278967304
20
11.1418973573484
30
0
41
1
10
135.423940413035
20
11.1413297114582
30
0
41
1
10
135.369547150951
20
11.1394445815361
30
0
41
1
10
135.28104726184
20
11.1364026337713
30
0
41
1
10
135.166737510731
20
11.1325277673816
30
0
41
1
10
135.090586320826
20
11.1299855621946
30
0
41
1
10
135.052302773983
20
11.128719973089
30
0
41
1
10
135.048452353882
20
11.1285927509896
30
0
0
SPLINE
5
1F3
100
AcDbEntity
8
1
62
256
6
ByLayer
370
-1
48
1
60
0
100
AcDbSpline
70
4
71
3
72
8
73
4
40
0
40
0
40
0
40
0
40
1
40
1
40
1
40
1
41
1
10
136.147189528135
20
9.1378219083866
30
0
41
1
10
136.280557293691
20
9.17875019262766
30
0
41
1
10
136.401927747111
20
9.25487690230261
30
0
41
1
10
136.49703875894
20
9.35726702463535
30
0
0
SPLINE
5
1F4
100
AcDbEntity
8
1
62
256
6
ByLayer
370
-1
48
1
60
0
100
AcDbSpline
70
4
71
3
72
25
73
21
40
0
40
0
40
0
40
0
40
0.125
40
0.1875
40
0.21875
40
0.234375
40
0.25
40
0.3125
40
0.34375
40
0.375
40
0.5
40
0.625
40
0.6875
40
0.71875
40
0.7265625
40
0.734375
40
0.75
40
0.8125
40
0.875
40
1
40
1
40
1
40
1
41
1
10
122.343252657341
20
8.73184571573489
30
0
41
1
10
122.326240263389
20
8.73208453033956
30
0
41
1
10
122.3007448895
20
8.73251451127032
30
0
41
1
10
122.270993525596
20
8.73310829983802
30
0
41
1
10
122.256150341528
20
8.73344663203955
30
0
41
1
10
122.247682030845
20
8.73365441853051
30
0
41
1
10
122.234996164337
20
8.73398189229539
30
0
41
1
10
122.220250939546
20
8.73441382329585
30
0
41
1
10
122.203392599212
20
8.73495897340166
30
0
41
1
10
122.178058833741
20
8.73581975288852
30
0
41
1
10
122.139725103472
20
8.7372405609234
30
0
41
1
10
122.097379283883
20
8.73904069633201
30
0
41
1
10
122.067527012964
20
8.74041345278746
30
0
41
1
10
122.053938903697
20
8.74108163265808
30
0
41
1
10
122.047352382076
20
8.74139047557426
30
0
41
1
10
122.044333787767
20
8.74161084794804
30
0
41
1
10
122.035019814022
20
8.74230864639782
30
0
41
1
10
122.02032313697
20
8.74393176226911
30
0
41
1
10
121.994205986895
20
8.74816841035042
30
0
41
1
10
121.975002043459
20
8.75283394550524
30
0
41
1
10
121.962472092691
20
8.75657859118522
30
0
0
SPLINE
5
1F5
100
AcDbEntity
8
1
62
256
6
ByLayer
370
-1
48
1
60
0
100
AcDbSpline
70
4
71
3
72
9
73
5
40
0
40
0
40
0
40
0
40
0.374999999998798
40
1
40
1
40
1
40
1
41
1
10
120.885483409632
20
21.9888517767691
30
0
41
1
10
120.897832943429
20
21.9892880204779
30
0
41
1
10
120.930765033553
20
21.9904513370346
30
0
41
1
10
120.963697123678
20
21.9916146535914
30
0
41
1
10
120.984279680006
20
21.9923417264393
30
0
0
SPLINE
5
1F6
100
AcDbEntity
8
1
62
256
6
ByLayer
370
-1
48
1
60
0
100
AcDbSpline
70
4
71
3
72
8
73
4
40
0
40
0
40
0
40
0
40
1
40
1
40
1
40
1
41
1
10
135.975829940276
20
24.3397476169809
30
0
41
1
10
135.873833262103
20
24.4352181616627
30
0
41
1
10
135.747471707966
20
24.5026605962279
30
0
41
1
10
135.611583458124
20
24.5341607076583
30
0
0
SPLINE
5
1F7
100
AcDbEntity
8
1
62
256
6
ByLayer
370
-1
48
1
60
0
100
AcDbSpline
70
4
71
3
72
8
73
4
40
0
40
0
40
0
40
0
40
1
40
1
40
1
40
1
41
1
10
121.809583910871
20
24.0724949104783
30
0
41
1
10
121.779382429905
20
24.0714362228973
30
0
41
1
10
121.749185253955
20
24.0702399398188
30
0
41
1
10
121.718994759821
20
24.0689051169915
30
0
0
SPLINE
5
1F8
100
AcDbEntity
8
1
62
256
6
ByLayer
370
-1
48
1
60
0
100
AcDbSpline
70
4
71
3
72
8
73
4
40
0
40
0
40
0
40
0
40
1
40
1
40
1
40
1
41
1
10
122.047865375167
20
8.62683997543647
30
0
41
1
10
122.010027393016
20
8.62683281268681
30
0
41
1
10
121.972682408038
20
8.63111187639328
30
0
41
1
10
121.935817510722
20
8.63965418338213
30
0
0
SPLINE
5
1F9
100
AcDbEntity
8
1
62
256
6
ByLayer
370
-1
48
1
60
0
100
AcDbSpline
70
4
71
3
72
25
73
21
40
0
40
0
40
0
40
0
40
0.125
40
0.1875
40
0.25
40
0.265625
40
0.2734375
40
0.28125
40
0.3125
40
0.375
40
0.5
40
0.625
40
0.65625
40
0.6875
40
0.75
40
0.765625
40
0.78125
40
0.8125
40
0.875
40
1
40
1
40
1
40
1
41
1
10
136.111354592786
20
9.25257847910228
30
0
41
1
10
136.099149334497
20
9.24795480458707
30
0
41
1
10
136.080366222331
20
9.24194377401486
30
0
41
1
10
136.054673612145
20
9.23588144306493
30
0
41
1
10
136.040163603339
20
9.23323266453156
30
0
41
1
10
136.030942985386
20
9.23188553786221
30
0
41
1
10
136.027957418622
20
9.23145486782124
30
0
41
1
10
136.021410187797
20
9.23068654248152
30
0
41
1
10
136.007909111368
20
9.22907058228432
30
0
41
1
10
135.978236983338
20
9.2256153037132
30
0
41
1
10
135.936139481481
20
9.22086081087807
30
0
41
1
10
135.89801481717
20
9.21676501113512
30
0
41
1
10
135.872814664444
20
9.21413635395891
30
0
41
1
10
135.856043692937
20
9.21241471572415
30
0
41
1
10
135.841372446319
20
9.21095363568148
30
0
41
1
10
135.828746619821
20
9.20974063497806
30
0
41
1
10
135.82031751101
20
9.20894169734265
30
0
41
1
10
135.805540970593
20
9.20756713576856
30
0
41
1
10
135.775916596686
20
9.20489613976042
30
0
41
1
10
135.750524665414
20
9.20268590932724
30
0
41
1
10
135.733577874643
20
9.20125906314837
30
0
0
SPLINE
5
1FA
100
AcDbEntity
8
1
62
256
6
ByLayer
370
-1
48
1
60
0
100
AcDbSpline
70
4
71
3
72
16
73
12
40
0
40
0
40
0
40
0
40
0.0068174563922457
40
0.0525902990102804
40
0.14413598424635
40
0.235681669482419
40
0.418773039954558
40
0.601864410426697
40
0.784955780898836
40
0.968047151370975
40
1
40
1
40
1
40
1
41
1
10
123.370363127811
20
9.57080206015772
30
0
41
1
10
123.370332108605
20
9.57153641194336
30
0
41
1
10
123.370092593045
20
9.57720102992633
30
0
41
1
10
123.369432091072
20
9.59272238566879
30
0
41
1
10
123.36838635888
20
9.61737042670802
30
0
41
1
10
123.366714420439
20
9.65680837377008
30
0
41
1
10
123.364623196926
20
9.70610462767488
30
0
41
1
10
123.36211500879
20
9.765261547335
30
0
41
1
10
123.359605526101
20
9.82441702972935
30
0
41
1
10
123.357783554054
20
9.86729193572572
30
0
41
1
10
123.356804984437
20
9.89045601535929
30
0
41
1
10
123.356658426713
20
9.89389664060278
30
0
0
SPLINE
5
1FB
100
AcDbEntity
8
1
62
256
6
ByLayer
370
-1
48
1
60
0
100
AcDbSpline
70
4
71
3
72
15
73
11
40
0
40
0
40
0
40
0
40
0.0466427416046025
40
0.130083711367164
40
0.213524681129726
40
0.38040662065485
40
0.714170499705097
40
0.881052439230221
40
0.964493408992783
40
1
40
1
40
1
40
1
41
1
10
121.439325251947
20
22.0080015945439
30
0
41
1
10
121.444817747834
20
22.0081906458143
30
0
41
1
10
121.460141471082
20
22.0087182370492
30
0
41
1
10
121.485353351588
20
22.0095879121365
30
0
41
1
10
121.524845801417
20
22.0109532252783
30
0
41
1
10
121.594106250557
20
22.0133554585002
30
0
41
1
10
121.67331470338
20
22.0161206210173
30
0
41
1
10
121.742160069838
20
22.0185397185934
30
0
41
1
10
121.77567735058
20
22.0197212848586
30
0
41
1
10
121.789582689021
20
22.0202122782562
30
0
41
1
10
121.793731583875
20
22.0203588104683
30
0
0
SPLINE
5
1FC
100
AcDbEntity
8
1
62
256
6
ByLayer
370
-1
48
1
60
0
100
AcDbSpline
70
4
71
3
72
8
73
4
40
0
40
0
40
0
40
0
40
1
40
1
40
1
40
1
41
1
10
121.400211440682
20
24.0359929825382
30
0
41
1
10
121.266841615132
20
23.9950646982971
30
0
41
1
10
121.145467342698
20
23.9189379886221
30
0
41
1
10
121.050362209893
20
23.8165478662894
30
0
0
SPLINE
5
1FD
100
AcDbEntity
8
1
62
256
6
ByLayer
370
-1
48
1
60
0
100
AcDbSpline
70
4
71
3
72
14
73
10
40
0
40
0
40
0
40
0
40
0.0318086637759054
40
0.315507725074466
40
0.599206786373027
40
0.882905847671588
40
0.953830612996228
40
0.989292995658548
40
1
40
1
40
1
40
1
41
1
10
134.630706482204
20
10.6789039477819
30
0
41
1
10
134.63105433941
20
10.6752607830159
30
0
41
1
10
134.634494839531
20
10.63901905732
30
0
41
1
10
134.640656352077
20
10.5662198286696
30
0
41
1
10
134.648286812339
20
10.4552581647456
30
0
41
1
10
134.653038566721
20
10.3681481799536
30
0
41
1
10
134.655532149213
20
10.314165120649
30
0
41
1
10
134.65624279388
20
10.2979098709871
30
0
41
1
10
134.656517059004
20
10.291494040626
30
0
41
1
10
134.656580447035
20
10.290005928204
30
0
0
SPLINE
5
1FE
100
AcDbEntity
8
1
62
256
6
ByLayer
370
-1
48
1
60
0
100
AcDbSpline
70
4
71
3
72
12
73
8
40
0
40
0
40
0
40
0
40
0.0285608994399165
40
0.0933235061439221
40
0.222848719551933
40
0.481899146367955
40
1
40
1
40
1
40
1
41
1
10
134.680706820676
20
9.61304696640653
30
0
41
1
10
134.680777019248
20
9.60877583348696
30
0
41
1
10
134.681003098143
20
9.59482688150763
30
0
41
1
10
134.681545095456
20
9.56151446209222
30
0
41
1
10
134.682645923494
20
9.49375042051474
30
0
41
1
10
134.68484870409
20
9.35822042304554
30
0
41
1
10
134.686736448058
20
9.24205247173694
30
0
41
1
10
134.687995019168
20
9.16460703322841
30
0
0
SPLINE
5
1FF
100
AcDbEntity
8
1
62
256
6
ByLayer
370
-1
48
1
60
0
100
AcDbSpline
70
4
71
3
72
16
73
12
40
0
40
0
40
0
40
0
40
0.0319528420423127
40
0.215044192449667
40
0.398135542857022
40
0.581226893264376
40
0.764318243671731
40
0.855863918875408
40
0.947409594079085
40
0.993182431680924
40
1
40
1
40
1
40
1
41
1
10
134.656580447035
20
10.290005928204
30
0
41
1
10
134.656727004805
20
10.286565303281
30
0
41
1
10
134.65770557577
20
10.2634012238208
30
0
41
1
10
134.659527587394
20
10.2205263626193
30
0
41
1
10
134.662036890917
20
10.1613706820774
30
0
41
1
10
134.664545251771
20
10.1022139533238
30
0
41
1
10
134.666636440703
20
10.0529176621026
30
0
41
1
10
134.668308379209
20
10.0134797135259
30
0
41
1
10
134.669354361641
20
9.9888318929134
30
0
41
1
10
134.670014273092
20
9.97331000550213
30
0
41
1
10
134.670253833679
20
9.96764541429002
30
0
41
1
10
134.670284862578
20
9.96691105840674
30
0
0
SPLINE
5
200
100
AcDbEntity
8
1
62
256
6
ByLayer
370
-1
48
1
60
0
100
AcDbSpline
70
4
71
3
72
17
73
13
40
0
40
0
40
0
40
0
40
0.0144631560763333
40
0.0301057427840062
40
0.0613909161993521
40
0.123961263030044
40
0.249101956691427
40
0.499383344014194
40
0.749664731336961
40
0.999946118659728
40
0.999946118659728
40
1
40
1
40
1
40
1
41
1
10
136.698453210278
20
10.1353871115478
30
0
41
1
10
136.697362466097
20
10.1353488764255
30
0
41
1
10
136.696928449469
20
10.1353336623367
30
0
41
1
10
136.694752498539
20
10.1352573862021
30
0
41
1
10
136.691202536498
20
10.1351329452606
30
0
41
1
10
136.683889851605
20
10.1348766052259
30
0
41
1
10
136.66940632236
20
10.1343688972576
30
0
41
1
10
136.648645996888
20
10.1336411614628
30
0
41
1
10
136.623761028826
20
10.132768839782
30
0
41
1
10
136.607167898106
20
10.1321871815036
30
0
41
1
10
136.598873651012
20
10.1318964336293
30
0
41
1
10
136.598863656151
20
10.1318960832678
30
0
41
1
10
136.59885366129
20
10.1318957329063
30
0
0
SPLINE
5
201
100
AcDbEntity
8
1
62
256
6
ByLayer
370
-1
48
1
60
0
100
AcDbSpline
70
4
71
3
72
14
73
10
40
0
40
0
40
0
40
0
40
0.136649739226124
40
0.273299478452248
40
0.546598956904496
40
0.614923826517558
40
0.68324869613062
40
0.819898435356744
40
1
40
1
40
1
40
1
41
1
10
122.755311376021
20
22.0551608205039
30
0
41
1
10
122.755226045718
20
22.0576136946019
30
0
41
1
10
122.755175719471
20
22.0625236455683
30
0
41
1
10
122.755554909488
20
22.0723367302068
30
0
41
1
10
122.756514531952
20
22.0808832193233
30
0
41
1
10
122.757782713355
20
22.0881359354024
30
0
41
1
10
122.758746249882
20
22.0929487909814
30
0
41
1
10
122.760351827775
20
22.0996768983545
30
0
41
1
10
122.761983651878
20
22.1051282718622
30
0
41
1
10
122.76301034264
20
22.1081944951635
30
0
0
SPLINE
5
202
100
AcDbEntity
8
1
62
256
6
ByLayer
370
-1
48
1
60
0
100
AcDbSpline
70
4
71
3
72
16
73
12
40
0
40
0
40
0
40
0
40
0.0068174563922528
40
0.0525902990102871
40
0.144135984246356
40
0.235681669482424
40
0.418773039954561
40
0.601864410426699
40
0.784955780898836
40
0.968047151370973
40
1
40
1
40
1
40
1
41
1
10
134.195914012127
20
23.603012830767
30
0
41
1
10
134.195934086013
20
23.6022784789814
30
0
41
1
10
134.196088690616
20
23.5966138609984
30
0
41
1
10
134.196508098933
20
23.5810925052559
30
0
41
1
10
134.197177273196
20
23.5564444642167
30
0
41
1
10
134.198249260322
20
23.5170065171547
30
0
41
1
10
134.199587861675
20
23.4677102632499
30
0
41
1
10
134.201195561824
20
23.4085533435897
30
0
41
1
10
134.202801867423
20
23.3493978611954
30
0
41
1
10
134.20396295001
20
23.306522955199
30
0
41
1
10
134.204596039089
20
23.2833588755655
30
0
41
1
10
134.204688865519
20
23.279918250322
30
0
0
SPLINE
5
203
100
AcDbEntity
8
1
62
256
6
ByLayer
370
-1
48
1
60
0
100
AcDbSpline
70
4
71
3
72
9
73
5
40
0
40
0
40
0
40
0
40
0.5
40
1
40
1
40
1
40
1
41
1
10
121.665932619303
20
8.93645679217053
30
0
41
1
10
121.62212703718
20
8.97284251237031
30
0
41
1
10
121.541986010456
20
9.05915889689174
30
0
41
1
10
121.48663762632
20
9.16520432457796
30
0
41
1
10
121.466397015765
20
9.22033747602774
30
0
0
SPLINE
5
204
100
AcDbEntity
8
1
62
256
6
ByLayer
370
-1
48
1
60
0
100
AcDbSpline
70
4
71
3
72
9
73
5
40
0
40
0
40
0
40
0
40
0.624999999999105
40
1
40
1
40
1
40
1
41
1
10
121.415394210032
20
9.59967902765135
30
0
41
1
10
121.394811653704
20
9.59895195480337
30
0
41
1
10
121.361879563579
20
9.59778863824661
30
0
41
1
10
121.328947473455
20
9.59662532168986
30
0
41
1
10
121.316597939658
20
9.59618907798108
30
0
0
SPLINE
5
205
100
AcDbEntity
8
1
62
256
6
ByLayer
370
-1
48
1
60
0
100
AcDbSpline
70
4
71
3
72
12
73
8
40
0
40
0
40
0
40
0
40
0.448044053330179
40
0.448044053330179
40
0.724021472165492
40
0.724021472165492
40
1
40
1
40
1
40
1
41
1
10
134.155088786643
20
24.5052562279716
30
0
41
1
10
134.311244962547
20
24.5107301517276
30
0
41
1
10
134.467459095872
20
24.5160828461717
30
0
41
1
10
134.719842901147
20
24.5248409471795
30
0
41
1
10
134.816019752046
20
24.5282320078275
30
0
41
1
10
135.008341507795
20
24.5350779441023
30
0
41
1
10
135.104485256655
20
24.5385366419885
30
0
41
1
10
135.200671642118
20
24.5419082578927
30
0
0
SPLINE
5
206
100
AcDbEntity
8
1
62
256
6
ByLayer
370
-1
48
1
60
0
100
AcDbSpline
70
4
71
3
72
15
73
11
40
0
40
0
40
0
40
0
40
0.424997863749038
40
0.849995727498076
40
0.956245193435335
40
0.98280755991965
40
0.996088743161807
40
0.997748891067077
40
0.999409038972347
40
1
40
1
40
1
40
1
41
1
10
136.166994288775
20
22.5245590511524
30
0
41
1
10
136.161821698659
20
22.6732484599288
30
0
41
1
10
136.15147935487
20
22.9706242635099
30
0
41
1
10
136.139831097973
20
23.3051860278385
30
0
41
1
10
136.133053597819
20
23.5003285944465
30
0
41
1
10
136.13126776313
20
23.5514488470712
30
0
41
1
10
136.130769691742
20
23.5659617640524
30
0
41
1
10
136.130562027491
20
23.5717759265837
30
0
41
1
10
136.130522112217
20
23.5731432222554
30
0
41
1
10
136.130483751213
20
23.5739289428529
30
0
41
1
10
136.130471642791
20
23.5741352712539
30
0
0
SPLINE
5
207
100
AcDbEntity
8
1
62
256
6
ByLayer
370
-1
48
1
60
0
100
AcDbSpline
70
4
71
3
72
15
73
11
40
0
40
0
40
0
40
0
40
0.0466427416045901
40
0.130083711367151
40
0.213524681129712
40
0.380406620654834
40
0.714170499705078
40
0.8810524392302
40
0.964493408992761
40
1
40
1
40
1
40
1
41
1
10
136.123174832813
20
11.1658132963808
30
0
41
1
10
136.117881090256
20
11.1656242451105
30
0
41
1
10
136.103103323836
20
11.1650966538755
30
0
41
1
10
136.078696268472
20
11.1642269787883
30
0
41
1
10
136.040291367646
20
11.1628616656464
30
0
41
1
10
135.972493439545
20
11.1604594324245
30
0
41
1
10
135.893936741202
20
11.1576942699075
30
0
41
1
10
135.824761541989
20
11.1552751723314
30
0
41
1
10
135.790865070626
20
11.1540936060661
30
0
41
1
10
135.776756993181
20
11.1536026126686
30
0
41
1
10
135.772545556062
20
11.1534560804564
30
0
0
SPLINE
5
208
100
AcDbEntity
8
1
62
256
6
ByLayer
370
-1
48
1
60
0
100
AcDbSpline
70
4
71
3
72
25
73
21
40
0
40
0
40
0
40
0
40
0.125
40
0.1875
40
0.25
40
0.265625
40
0.2734375
40
0.28125
40
0.3125
40
0.375
40
0.5
40
0.625
40
0.65625
40
0.6875
40
0.75
40
0.765625
40
0.78125
40
0.8125
40
0.875
40
1
40
1
40
1
40
1
41
1
10
121.434278699441
20
23.9212364118225
30
0
41
1
10
121.446480046525
20
23.9258600863377
30
0
41
1
10
121.465262454663
20
23.9318711169099
30
0
41
1
10
121.490964092168
20
23.9379334478598
30
0
41
1
10
121.505482784215
20
23.9405822263932
30
0
41
1
10
121.514710236504
20
23.9419293530625
30
0
41
1
10
121.517698246067
20
23.9423600231035
30
0
41
1
10
121.524250327391
20
23.9431283484432
30
0
41
1
10
121.537761505343
20
23.9447443086404
30
0
41
1
10
121.567455752051
20
23.9481995872116
30
0
41
1
10
121.609584705782
20
23.9529540800467
30
0
41
1
10
121.64773780253
20
23.9570498797896
30
0
41
1
10
121.672956867527
20
23.9596785369658
30
0
41
1
10
121.68974044411
20
23.9614001752006
30
0
41
1
10
121.704422726184
20
23.9628612552433
30
0
41
1
10
121.717058031153
20
23.9640742559467
30
0
41
1
10
121.725493463545
20
23.9648731935821
30
0
41
1
10
121.740281080548
20
23.9662477551562
30
0
41
1
10
121.769927636607
20
23.9689187511643
30
0
41
1
10
121.795338586349
20
23.9711289815975
30
0
41
1
10
121.812298066284
20
23.9725558277764
30
0
0
SPLINE
5
209
100
AcDbEntity
8
1
62
256
6
ByLayer
370
-1
48
1
60
0
100
AcDbSpline
70
4
71
3
72
20
73
16
40
0
40
0
40
0
40
0
40
0.0006369940731731
40
0.0022970655115898
40
0.0039571369500064
40
0.0172377084573397
40
0.0437988514720062
40
0.150043423530672
40
0.362532567648004
40
0.46877713970667
40
0.521899425736003
40
0.575021711765336
40
0.787510855882668
40
0.893755427941334
40
1
40
1
40
1
40
1
41
1
10
120.948540361871
20
23.0419186549567
30
0
41
1
10
120.948542781823
20
23.0416955393187
30
0
41
1
10
120.948559847694
20
23.0408902538236
30
0
41
1
10
120.948615070907
20
23.0395045916042
30
0
41
1
10
120.948813436246
20
23.0337027811879
30
0
41
1
10
120.949324218745
20
23.0191743180368
30
0
41
1
10
120.951094604396
20
22.9680710856881
30
0
41
1
10
120.955267441676
20
22.8472517701137
30
0
41
1
10
120.960301083254
20
22.6985695963066
30
0
41
1
10
120.964630296752
20
22.5684773568138
30
0
41
1
10
120.967076658457
20
22.4941427355053
30
0
41
1
10
120.970777391791
20
22.3826378683024
30
0
41
1
10
120.975183739788
20
22.2525416862639
30
0
41
1
10
120.980340274638
20
22.1038562047486
30
0
41
1
10
120.982960915055
20
22.0295131880681
30
0
41
1
10
120.984279680006
20
21.9923417264393
30
0
0
SPLINE
5
20A
100
AcDbEntity
8
1
62
256
6
ByLayer
370
-1
48
1
60
0
100
AcDbSpline
70
4
71
3
72
9
73
5
40
0
40
0
40
0
40
0
40
0.625000000003247
40
1
40
1
40
1
40
1
41
1
10
136.130481730895
20
23.5741358632734
30
0
41
1
10
136.151382001366
20
23.5748629361214
30
0
41
1
10
136.184822434121
20
23.5760262526781
30
0
41
1
10
136.218262866876
20
23.5771895692349
30
0
41
1
10
136.230803029159
20
23.5776258129436
30
0
0
SPLINE
5
20B
100
AcDbEntity
8
1
62
256
6
ByLayer
370
-1
48
1
60
0
100
AcDbSpline
70
4
71
3
72
8
73
4
40
0
40
0
40
0
40
0
40
1
40
1
40
1
40
1
41
1
10
121.352960966742
20
9.18525287146096
30
0
41
1
10
121.393732476507
20
9.05137462877582
30
0
41
1
10
121.469567591562
20
8.92953864313984
30
0
41
1
10
121.571571028079
20
8.83406727343788
30
0
0
SPLINE
5
20C
100
AcDbEntity
8
1
62
256
6
ByLayer
370
-1
48
1
60
0
100
AcDbSpline
70
4
71
3
72
15
73
11
40
0
40
0
40
0
40
0
40
0.035506491937958
40
0.118947470229808
40
0.285829426813507
40
0.619593339980907
40
0.786475296564606
40
0.869916274856456
40
0.953357253148306
40
1
40
1
40
1
40
1
41
1
10
122.895991686171
20
23.206903832518
30
0
41
1
10
122.895877038676
20
23.2110999079872
30
0
41
1
10
122.895489865801
20
23.2251596255694
30
0
41
1
10
122.894501845693
20
23.25899569309
30
0
41
1
10
122.892257223906
20
23.3282692932137
30
0
41
1
10
122.889176564835
20
23.4074533034413
30
0
41
1
10
122.886052212211
20
23.4762442646705
30
0
41
1
10
122.88414832017
20
23.5153417140963
30
0
41
1
10
122.88287946868
20
23.5402457425075
30
0
41
1
10
122.882080966337
20
23.5553541488084
30
0
41
1
10
122.881793277295
20
23.5607679245182
30
0
0
SPLINE
5
20D
100
AcDbEntity
8
1
62
256
6
ByLayer
370
-1
48
1
60
0
100
AcDbSpline
70
4
71
3
72
9
73
5
40
0
40
0
40
0
40
0
40
0.5
40
1
40
1
40
1
40
1
41
1
10
120.972931571706
20
23.4239158947214
30
0
41
1
10
120.98924919101
20
23.480323878689
30
0
41
1
10
121.036924727985
20
23.589960404159
30
0
41
1
10
121.110585841887
20
23.6816891360021
30
0
41
1
10
121.151607255293
20
23.7210680954088
30
0
0
SPLINE
5
20E
100
AcDbEntity
8
1
62
256
6
ByLayer
370
-1
48
1
60
0
100
AcDbSpline
70
4
71
3
72
91
73
87
40
0
40
0
40
0
40
0
40
0.0276322771564596
40
0.0681475989416071
40
0.078276429387894
40
0.0833408446110374
40
0.0839738965139303
40
0.0846069484168233
40
0.0849234743682697
40
0.0852400003197162
40
0.0858730522226091
40
0.0884052598341808
40
0.0985340902804677
40
0.108662920726755
40
0.118791751173041
40
0.128920581619328
40
0.149178242511902
40
0.169435903404476
40
0.179564733850763
40
0.184629149073906
40
0.18969356429705
40
0.190326616199943
40
0.190959668102835
40
0.192225771908621
40
0.192858823811514
40
0.193491875714407
40
0.194757979520193
40
0.197290187131765
40
0.199822394743336
40
0.20488680996648
40
0.209951225189623
40
0.22008005563591
40
0.222612263247482
40
0.223878367053268
40
0.225144470859054
40
0.230208886082197
40
0.270724207867345
40
0.290981868759918
40
0.311239529652492
40
0.331497190545066
40
0.341626020991353
40
0.346690436214496
40
0.349222643826068
40
0.350488747631854
40
0.351121799534747
40
0.35175485143764
40
0.352387903340533
40
0.353020955243426
40
0.354287059049211
40
0.356819266660783
40
0.361883681883927
40
0.372012512330213
40
0.392270173222787
40
0.412527834115361
40
0.432785495007935
40
0.473300816793082
40
0.475833024404654
40
0.478365232016226
40
0.479631335822012
40
0.480897439627797
40
0.483429647239369
40
0.493558477685656
40
0.503687308131943
40
0.508751723355086
40
0.511283930966658
40
0.512550034772444
40
0.51381613857823
40
0.514449190481123
40
0.523944969024517
40
0.534073799470804
40
0.554331460363377
40
0.564460290809664
40
0.574589121255951
40
0.594846782148525
40
0.615104443041099
40
0.61763665065267
40
0.618269702555563
40
0.61858622850701
40
0.618902754458456
40
0.619535806361349
40
0.620168858264242
40
0.625233273487385
40
0.635362103933672
40
0.67587742571882
40
0.83793871285941
40
1
40
1
40
1
40
1
41
1
10
123.251634663167
20
10.5751296097107
30
0
41
1
10
123.250054009545
20
10.5756629251219
30
0
41
1
10
123.246177706725
20
10.5770437365138
30
0
41
1
10
123.241793781795
20
10.5788137327628
30
0
41
1
10
123.238714575921
20
10.5801684721677
30
0
41
1
10
123.237843374996
20
10.5805613944381
30
0
41
1
10
123.237495437923
20
10.5807197677319
30
0
41
1
10
123.237408483888
20
10.5807594279408
30
0
41
1
10
123.237338938831
20
10.5807911962243
30
0
41
1
10
123.237269405897
20
10.580822991247
30
0
41
1
10
123.237078240382
20
10.5809105378383
30
0
41
1
10
123.236348973779
20
10.5812462096682
30
0
41
1
10
123.235103207032
20
10.5818312535158
30
0
41
1
10
123.233451829465
20
10.5826316834019
30
0
41
1
10
123.231810344996
20
10.5834523624265
30
0
41
1
10
123.229635220952
20
10.5845734369319
30
0
41
1
10
123.226942290329
20
10.5860247914896
30
0
41
1
10
123.224285647861
20
10.5875420127217
30
0
41
1
10
123.222445918595
20
10.588638219594
30
0
41
1
10
123.221400460457
20
10.5892743200961
30
0
41
1
10
123.220847142547
20
10.5896156718643
30
0
41
1
10
123.220522357505
20
10.5898175961744
30
0
41
1
10
123.220392505434
20
10.5898984662127
30
0
41
1
10
123.220262746388
20
10.5899794866399
30
0
41
1
10
123.220133080583
20
10.5900606572918
30
0
41
1
10
123.220003477009
20
10.5901419280383
30
0
41
1
10
123.219776834301
20
10.5902844144497
30
0
41
1
10
123.219453527352
20
10.5904887159425
30
0
41
1
10
123.218937239956
20
10.5908171937033
30
0
41
1
10
123.218293771277
20
10.591230775644
30
0
41
1
10
123.217268291235
20
10.5918988461056
30
0
41
1
10
123.216376385958
20
10.5924916912985
30
0
41
1
10
123.21567919522
20
10.5929628737042
30
0
41
1
10
123.215426064885
20
10.5931347978589
30
0
41
1
10
123.215046763811
20
10.5933932685308
30
0
41
1
10
123.212713834533
20
10.5949961709712
30
0
41
1
10
123.209497323746
20
10.5973395578352
30
0
41
1
10
123.205647648539
20
10.6003671072023
30
0
41
1
10
123.202816704401
20
10.602708111436
30
0
41
1
10
123.200505976691
20
10.6047164432617
30
0
41
1
10
123.198914642701
20
10.606151870536
30
0
41
1
10
123.198125615732
20
10.6068769091898
30
0
41
1
10
123.197732774276
20
10.6072412505543
30
0
41
1
10
123.197536773058
20
10.6074238755939
30
0
41
1
10
123.197424892437
20
10.6075283624111
30
0
41
1
10
123.197341042061
20
10.6076067923088
30
0
41
1
10
123.197257251831
20
10.6076852869501
30
0
41
1
10
123.197145611776
20
10.6077900327288
30
0
41
1
10
123.196950452499
20
10.6079735640882
30
0
41
1
10
123.196560978468
20
10.6083415303684
30
0
41
1
10
123.195785418504
20
10.6090810657801
30
0
41
1
10
123.194247930939
20
10.6105744568452
30
0
41
1
10
123.192090926785
20
10.6127482666956
30
0
41
1
10
123.189567034968
20
10.6154198019995
30
0
41
1
10
123.186289813468
20
10.6190635777348
30
0
41
1
10
123.183834856384
20
10.6220034486406
30
0
41
1
10
123.182123358008
20
10.6241650162017
30
0
41
1
10
123.181886568469
20
10.6244659642202
30
0
41
1
10
123.181697689408
20
10.6247071591881
30
0
41
1
10
123.181509179202
20
10.6249486446487
30
0
41
1
10
123.180992299629
20
10.6256139257096
30
0
41
1
10
123.180154828082
20
10.6267090669043
30
0
41
1
10
123.179239267846
20
10.6279372714029
30
0
41
1
10
123.178606311608
20
10.6288028983869
30
0
41
1
10
123.178291827469
20
10.6292371714422
30
0
41
1
10
123.178112693383
20
10.629485742864
30
0
41
1
10
123.17800097285
20
10.6296412727427
30
0
41
1
10
123.177599423069
20
10.6302016457886
30
0
41
1
10
123.176891667043
20
10.6312022729979
30
0
41
1
10
123.175521745142
20
10.6331887874232
30
0
41
1
10
123.174167277984
20
10.6352323540151
30
0
41
1
10
123.172850565742
20
10.6373004802053
30
0
41
1
10
123.171559208572
20
10.6393846592633
30
0
41
1
10
123.169992899979
20
10.6420193818424
30
0
41
1
10
123.168716597385
20
10.6442909671183
30
0
41
1
10
123.168039231345
20
10.6455363761204
30
0
41
1
10
123.16793889531
20
10.6457216974667
30
0
41
1
10
123.167902448061
20
10.6457891080703
30
0
41
1
10
123.167866026539
20
10.6458565326797
30
0
41
1
10
123.167820547885
20
10.6459408396837
30
0
41
1
10
123.167638890707
20
10.6462782074631
30
0
41
1
10
123.167187645217
20
10.6471231970537
30
0
41
1
10
123.165626553979
20
10.650112133709
30
0
41
1
10
123.16001581763
20
10.6617057130271
30
0
41
1
10
123.152862644377
20
10.6827081827928
30
0
41
1
10
123.150254669378
20
10.7022634374448
30
0
41
1
10
123.149913348166
20
10.7120749338369
30
0
0
SPLINE
5
20F
100
AcDbEntity
8
1
62
256
6
ByLayer
370
-1
48
1
60
0
100
AcDbSpline
70
4
71
3
72
16
73
12
40
0
40
0
40
0
40
0
40
0.0319528420423034
40
0.21504419244966
40
0.398135542857017
40
0.581226893264374
40
0.764318243671731
40
0.85586391887541
40
0.947409594079088
40
0.993182431680927
40
1
40
1
40
1
40
1
41
1
10
122.507733740243
20
10.6885556351701
30
0
41
1
10
122.504333073642
20
10.6884354859002
30
0
41
1
10
122.48142988212
20
10.6876265784209
30
0
41
1
10
122.439048658575
20
10.6861293552759
30
0
41
1
10
122.380569485743
20
10.6840635933916
30
0
41
1
10
122.322088289554
20
10.6819977949029
30
0
41
1
10
122.273355860806
20
10.6802763304803
30
0
41
1
10
122.2343679612
20
10.6788991269689
30
0
41
1
10
122.210002469858
20
10.6780384061068
30
0
41
1
10
122.194659585726
20
10.6774963698544
30
0
41
1
10
122.189059051429
20
10.6772985579704
30
0
41
1
10
122.188332972203
20
10.6772729136979
30
0
0
SPLINE
5
210
100
AcDbEntity
8
1
62
256
6
ByLayer
370
-1
48
1
60
0
100
AcDbSpline
70
4
71
3
72
91
73
87
40
0
40
0
40
0
40
0
40
0.0276322771566131
40
0.0681475989417542
40
0.0782764293880395
40
0.0833408446111822
40
0.083973896514075
40
0.0846069484169678
40
0.0849234743684142
40
0.0852400003198606
40
0.0858730522227535
40
0.0884052598343248
40
0.0985340902806101
40
0.108662920726895
40
0.118791751173181
40
0.128920581619466
40
0.149178242512037
40
0.169435903404607
40
0.179564733850892
40
0.184629149074035
40
0.189693564297178
40
0.19032661620007
40
0.190959668102963
40
0.192225771908749
40
0.192858823811642
40
0.193491875714535
40
0.19475797952032
40
0.197290187131892
40
0.199822394743463
40
0.204886809966605
40
0.209951225189748
40
0.220080055636033
40
0.222612263247605
40
0.22387836705339
40
0.225144470859176
40
0.230208886082319
40
0.27072420786746
40
0.290981868760031
40
0.311239529652601
40
0.331497190545172
40
0.341626020991457
40
0.346690436214599
40
0.349222643826171
40
0.350488747631956
40
0.351121799534849
40
0.351754851437742
40
0.352387903340635
40
0.353020955243528
40
0.354287059049313
40
0.356819266660885
40
0.361883681884027
40
0.372012512330313
40
0.392270173222883
40
0.412527834115454
40
0.432785495008024
40
0.473300816793165
40
0.475833024404737
40
0.478365232016308
40
0.479631335822094
40
0.480897439627879
40
0.483429647239451
40
0.493558477685736
40
0.503687308132021
40
0.508751723355164
40
0.511283930966735
40
0.512550034772521
40
0.513816138578307
40
0.514449190481199
40
0.523944969024592
40
0.534073799470877
40
0.554331460363448
40
0.564460290809733
40
0.574589121256018
40
0.594846782148589
40
0.615104443041159
40
0.617636650652731
40
0.618269702555624
40
0.61858622850707
40
0.618902754458516
40
0.619535806361409
40
0.620168858264302
40
0.625233273487445
40
0.63536210393373
40
0.675877425718871
40
0.837938712859435
40
1
40
1
40
1
40
1
41
1
10
122.76301034264
20
22.1081944951635
30
0
41
1
10
122.763541628625
20
22.1097811866258
30
0
41
1
10
122.764917185613
20
22.1136722962925
30
0
41
1
10
122.766680446492
20
22.1180729671034
30
0
41
1
10
122.768030030704
20
22.121163935044
30
0
41
1
10
122.768421457787
20
22.1220384638145
30
0
41
1
10
122.768579228423
20
22.1223877299512
30
0
41
1
10
122.768618737713
20
22.1224750161362
30
0
41
1
10
122.768650385108
20
22.1225448268443
30
0
41
1
10
122.768682059141
20
22.1226146253823
30
0
41
1
10
122.768769272591
20
22.1228065211184
30
0
41
1
10
122.769103667088
20
22.123538573402
30
0
41
1
10
122.769686484668
20
22.1247890987751
30
0
41
1
10
122.770483868676
20
22.1264467843363
30
0
41
1
10
122.771301424769
20
22.1280945390089
30
0
41
1
10
122.772418233248
20
22.1302779716734
30
0
41
1
10
122.773864064963
20
22.1329811888544
30
0
41
1
10
122.77537551271
20
22.1356479792649
30
0
41
1
10
122.776467548185
20
22.137494735998
30
0
41
1
10
122.777101228132
20
22.1385441876158
30
0
41
1
10
122.777441280954
20
22.1390996191104
30
0
41
1
10
122.777642436881
20
22.1394256447783
30
0
41
1
10
122.777722999184
20
22.1395559928634
30
0
41
1
10
122.777803711305
20
22.1396862475675
30
0
41
1
10
122.777884573078
20
22.1398164086752
30
0
41
1
10
122.777965534564
20
22.1399465073135
30
0
41
1
10
122.778107478772
20
22.1401740157597
30
0
41
1
10
122.778311002836
20
22.1404985576887
30
0
41
1
10
122.77863823064
20
22.1410168172189
30
0
41
1
10
122.779050238776
20
22.1416627438441
30
0
41
1
10
122.779715767028
20
22.1426921410531
30
0
41
1
10
122.780306356266
20
22.1435874532638
30
0
41
1
10
122.78077574568
20
22.144287307157
30
0
41
1
10
122.780947015612
20
22.1445414044086
30
0
41
1
10
122.781204502725
20
22.1449221543509
30
0
41
1
10
122.782801305637
20
22.1472639950394
30
0
41
1
10
122.785135775207
20
22.1504927923751
30
0
41
1
10
122.788151803835
20
22.1543571727163
30
0
41
1
10
122.79048389984
20
22.1571989306008
30
0
41
1
10
122.792484589357
20
22.1595184849158
30
0
41
1
10
122.793914554397
20
22.1611158975429
30
0
41
1
10
122.79463683406
20
22.1619079384664
30
0
41
1
10
122.794999788996
20
22.1623022805129
30
0
41
1
10
122.795181719092
20
22.1624990304239
30
0
41
1
10
122.795285808305
20
22.1626113384112
30
0
41
1
10
122.795363939754
20
22.1626955090811
30
0
41
1
10
122.795442135699
20
22.1627796193766
30
0
41
1
10
122.795546482888
20
22.1628916858784
30
0
41
1
10
122.795729315856
20
22.1630875906326
30
0
41
1
10
122.796095881913
20
22.1634785523904
30
0
41
1
10
122.796832603169
20
22.1642570748683
30
0
41
1
10
122.79832031143
20
22.1658004353857
30
0
41
1
10
122.800485849278
20
22.1679656789452
30
0
41
1
10
122.803147218584
20
22.1704992116187
30
0
41
1
10
122.806777128652
20
22.1737889515721
30
0
41
1
10
122.809705812462
20
22.1762532861939
30
0
41
1
10
122.811859154606
20
22.1779713222151
30
0
41
1
10
122.812158957426
20
22.1782090162516
30
0
41
1
10
122.812399234574
20
22.1783986168006
30
0
41
1
10
122.81263980111
20
22.178587847085
30
0
41
1
10
122.813302550575
20
22.1791067010536
30
0
41
1
10
122.814393524427
20
22.1799473716061
30
0
41
1
10
122.815617055237
20
22.1808664291333
30
0
41
1
10
122.816479388249
20
22.1815018031611
30
0
41
1
10
122.816912008764
20
22.1818174885788
30
0
41
1
10
122.817159634297
20
22.1819973069278
30
0
41
1
10
122.817314572337
20
22.1821094542145
30
0
41
1
10
122.817872812994
20
22.1825125378508
30
0
41
1
10
122.818869632515
20
22.18322299739
30
0
41
1
10
122.820848587653
20
22.1845981521705
30
0
41
1
10
122.822884377857
20
22.1859577931728
30
0
41
1
10
122.824944634203
20
22.1872795350411
30
0
41
1
10
122.82702088233
20
22.1885758249863
30
0
41
1
10
122.829645578995
20
22.190148116623
30
0
41
1
10
122.831908520203
20
22.1914292944859
30
0
41
1
10
122.833149190047
20
22.1921092479546
30
0
41
1
10
122.83333380619
20
22.1922099672567
30
0
41
1
10
122.833400960276
20
22.1922465537283
30
0
41
1
10
122.833468128314
20
22.1922831143746
30
0
41
1
10
122.833552114505
20
22.1923287667497
30
0
41
1
10
122.833888198498
20
22.1925111178284
30
0
41
1
10
122.834729972648
20
22.1929640870034
30
0
41
1
10
122.837707535497
20
22.194531141356
30
0
41
1
10
122.849256997746
20
22.2001633098067
30
0
41
1
10
122.870179546773
20
22.2073438070186
30
0
41
1
10
122.889660387777
20
22.2099617440582
30
0
41
1
10
122.899434548463
20
22.2103043690621
30
0
0
SPLINE
5
211
100
AcDbEntity
8
1
62
256
6
ByLayer
370
-1
48
1
60
0
100
AcDbSpline
70
4
71
3
72
8
73
4
40
0
40
0
40
0
40
0
40
1
40
1
40
1
40
1
41
1
10
121.511095491104
20
24.0566226412203
30
0
41
1
10
121.47335409172
20
24.0539726773038
30
0
41
1
10
121.436393739792
20
24.047094559124
30
0
41
1
10
121.400211440682
20
24.035992982538
30
0
0
SPLINE
5
212
100
AcDbEntity
8
1
62
256
6
ByLayer
370
-1
48
1
60
0
100
AcDbSpline
70
4
71
3
72
15
73
11
40
0
40
0
40
0
40
0
40
0.250227978747985
40
0.500467923372483
40
0.75070786799698
40
0.875827840309229
40
0.938387826465354
40
0.969667819543416
40
0.985307816082447
40
1
40
1
40
1
40
1
41
1
10
121.962471774051
20
8.75657719342374
30
0
41
1
10
121.960250665101
20
8.74683395869639
30
0
41
1
10
121.955808341007
20
8.72734702341131
30
0
41
1
10
121.949146090928
20
8.69812204265423
30
0
41
1
10
121.943587896144
20
8.67374016961008
30
0
41
1
10
121.939710438749
20
8.65673110864731
30
0
41
1
10
121.937752371769
20
8.64814174782398
30
0
41
1
10
121.936802345703
20
8.64397431292522
30
0
41
1
10
121.93621688829
20
8.64140611427769
30
0
41
1
10
121.936077508317
20
8.64079470266987
30
0
41
1
10
121.935813198178
20
8.63963526575071
30
0
0
SPLINE
5
213
100
AcDbEntity
8
1
62
256
6
ByLayer
370
-1
48
1
60
0
100
AcDbSpline
70
4
71
3
72
8
73
4
40
0
40
0
40
0
40
0
40
1
40
1
40
1
40
1
41
1
10
136.703477835103
20
9.83538039685649
30
0
41
1
10
136.703481758981
20
9.79740110364409
30
0
41
1
10
136.699222299911
20
9.75991013269655
30
0
41
1
10
136.690712048486
20
9.72290486967538
30
0
0
SPLINE
5
214
100
AcDbEntity
8
1
62
256
6
ByLayer
370
-1
48
1
60
0
100
AcDbSpline
70
4
71
3
72
8
73
4
40
0
40
0
40
0
40
0
40
1
40
1
40
1
40
1
41
1
10
136.227226856212
20
23.6685609599731
30
0
41
1
10
136.226510958697
20
23.6848783965523
30
0
41
1
10
136.225715403965
20
23.7011925063439
30
0
41
1
10
136.224840395199
20
23.7175021313941
30
0
0
SPLINE
5
215
100
AcDbEntity
8
1
62
256
6
ByLayer
370
-1
48
1
60
0
100
AcDbSpline
70
4
71
3
72
12
73
8
40
0
40
0
40
0
40
0
40
0.518100853439308
40
0.777151280158962
40
0.906676493518789
40
0.971439100198702
40
1
40
1
40
1
40
1
41
1
10
120.984279680006
20
21.9923417264393
30
0
41
1
10
121.062866007172
20
21.9950461807457
30
0
41
1
10
121.180745365267
20
21.9991028531216
30
0
41
1
10
121.318271732957
20
22.0038356696113
30
0
41
1
10
121.387034329184
20
22.0062020350413
30
0
41
1
10
121.420837046762
20
22.0073653413103
30
0
41
1
10
121.434992013594
20
22.0078524448254
30
0
41
1
10
121.439325251947
20
22.0080015945439
30
0
0
SPLINE
5
216
100
AcDbEntity
8
1
62
256
6
ByLayer
370
-1
48
1
60
0
100
AcDbSpline
70
4
71
3
72
8
73
4
40
0
40
0
40
0
40
0
40
1
40
1
40
1
40
1
41
1
10
121.316597939658
20
9.59618907798108
30
0
41
1
10
121.317652598613
20
9.56587223226381
30
0
41
1
10
121.318844163857
20
9.53555987425611
30
0
41
1
10
121.320174033187
20
9.50525393095165
30
0
0
SPLINE
5
217
100
AcDbEntity
8
1
62
256
6
ByLayer
370
-1
48
1
60
0
100
AcDbSpline
70
4
71
3
72
8
73
4
40
0
40
0
40
0
40
0
40
1
40
1
40
1
40
1
41
1
10
136.701182272648
20
10.0444222778684
30
0
41
1
10
136.701601591722
20
10.0280944359563
30
0
41
1
10
136.701940952778
20
10.0117643329256
30
0
41
1
10
136.702201450314
20
9.99543317111934
30
0
0
SPLINE
5
218
100
AcDbEntity
8
1
62
256
6
ByLayer
370
-1
48
1
60
0
100
AcDbSpline
70
4
71
3
72
16
73
12
40
0
40
0
40
0
40
0
40
0.0319528420423079
40
0.215044192449659
40
0.39813554285701
40
0.581226893264362
40
0.764318243671713
40
0.855863918875388
40
0.947409594079064
40
0.993182431680902
40
1
40
1
40
1
40
1
41
1
10
122.904766845249
20
22.8838089627207
30
0
41
1
10
122.904674018888
20
22.8872495876438
30
0
41
1
10
122.904040931168
20
22.9104136671039
30
0
41
1
10
122.902879891275
20
22.9532885283055
30
0
41
1
10
122.901273392725
20
23.0124442088473
30
0
41
1
10
122.899665878575
20
23.071600937601
30
0
41
1
10
122.898327240046
20
23.1208972288221
30
0
41
1
10
122.897255252879
20
23.1603351773988
30
0
41
1
10
122.896586344192
20
23.1849829980114
30
0
41
1
10
122.896166308362
20
23.2005048854226
30
0
41
1
10
122.896011750648
20
23.2061694766347
30
0
41
1
10
122.895991686171
20
23.206903832518
30
0
0
SPLINE
5
219
100
AcDbEntity
8
1
62
256
6
ByLayer
370
-1
48
1
60
0
100
AcDbSpline
70
4
71
3
72
15
73
11
40
0
40
0
40
0
40
0
40
0.250139710793381
40
0.500351579587119
40
0.750563448380858
40
0.875669382777727
40
0.938222349976162
40
0.969498833575379
40
0.985137075374988
40
1
40
1
40
1
40
1
41
1
10
121.151599955839
20
23.7210749792043
30
0
41
1
10
121.143165301915
20
23.7290293321398
30
0
41
1
10
121.126293561393
20
23.7449403321598
30
0
41
1
10
121.100989693312
20
23.7688033026097
30
0
41
1
10
121.079877133738
20
23.7887136334591
30
0
41
1
10
121.065149434893
20
23.802602681617
30
0
41
1
10
121.057711178397
20
23.8096173757494
30
0
41
1
10
121.054103660759
20
23.8130194677353
30
0
41
1
10
121.051871725729
20
23.815124307971
30
0
41
1
10
121.051277766403
20
23.8156844450139
30
0
41
1
10
121.050357675651
20
23.8165521423304
30
0
0
SPLINE
5
21A
100
AcDbEntity
8
1
62
256
6
ByLayer
370
-1
48
1
60
0
100
AcDbSpline
70
4
71
3
72
8
73
4
40
0
40
0
40
0
40
0
40
1
40
1
40
1
40
1
41
1
10
121.050362210389
20
23.8165478658176
30
0
41
1
10
120.955257900369
20
23.7141586252562
30
0
41
1
10
120.888073053036
20
23.5873134384799
30
0
41
1
10
120.856688920218
20
23.4509100212761
30
0
0
SPLINE
5
21B
100
AcDbEntity
8
1
62
256
6
ByLayer
370
-1
48
1
60
0
100
AcDbSpline
70
4
71
3
72
8
73
4
40
0
40
0
40
0
40
0
40
1
40
1
40
1
40
1
41
1
10
136.214991153494
20
23.8772544047786
30
0
41
1
10
136.212351597489
20
23.9151402954131
30
0
41
1
10
136.205500363557
20
23.9522425435284
30
0
41
1
10
136.194440002075
20
23.9885620194638
30
0
0
SPLINE
5
21C
100
AcDbEntity
8
1
62
256
6
ByLayer
370
-1
48
1
60
0
100
AcDbSpline
70
4
71
3
72
17
73
13
40
0
40
0
40
0
40
0
40
0.0144631560763436
40
0.0301057427839813
40
0.0613909161992567
40
0.123961263029808
40
0.249101956690909
40
0.499383344013112
40
0.749664731335315
40
0.999946118657518
40
0.999946118657518
40
1
40
1
40
1
40
1
41
1
10
120.84894775854
20
23.038427779377
30
0
41
1
10
120.85003850272
20
23.0384660144992
30
0
41
1
10
120.850472519348
20
23.0384812285881
30
0
41
1
10
120.852648470278
20
23.0385575047226
30
0
41
1
10
120.856198432319
20
23.0386819456641
30
0
41
1
10
120.863511117212
20
23.0389382856989
30
0
41
1
10
120.877994646457
20
23.0394459936672
30
0
41
1
10
120.898754971929
20
23.0401737294619
30
0
41
1
10
120.923639939991
20
23.0410460511428
30
0
41
1
10
120.940233070711
20
23.0416277094212
30
0
41
1
10
120.948527317805
20
23.0419184572955
30
0
41
1
10
120.948537312666
20
23.041918807657
30
0
41
1
10
120.948547307527
20
23.0419191580184
30
0
0
SPLINE
5
21D
100
AcDbEntity
8
1
62
256
6
ByLayer
370
-1
48
1
60
0
100
AcDbSpline
70
4
71
3
72
17
73
13
40
0
40
0
40
0
40
0
40
0.0032703186403886
40
0.0092094466334625
40
0.0210877026196103
40
0.044844214591906
40
0.0923572385364973
40
0.282409334314863
40
0.662513525871593
40
0.852565621649959
40
0.947591669539141
40
1
40
1
40
1
40
1
41
1
10
123.122146386966
20
10.7110739711632
30
0
41
1
10
123.121884029893
20
10.7110641829394
30
0
41
1
10
123.121149037309
20
10.7110367373496
30
0
41
1
10
123.119474622452
20
10.7109741595201
30
0
41
1
10
123.116152129258
20
10.7108501226686
30
0
41
1
10
123.109522207534
20
10.7106025174468
30
0
41
1
10
123.088670508074
20
10.7098238692382
30
0
41
1
10
123.03939617241
20
10.7079837856678
30
0
41
1
10
122.978739052675
20
10.7057187012065
30
0
41
1
10
122.925685099192
20
10.7037374053707
30
0
41
1
10
122.898737623425
20
10.7027312429676
30
0
41
1
10
122.886998007859
20
10.7022927022552
30
0
41
1
10
122.882806860359
20
10.7021362532675
30
0
0
SPLINE
5
21E
100
AcDbEntity
8
1
62
256
6
ByLayer
370
-1
48
1
60
0
100
AcDbSpline
70
4
71
3
72
14
73
10
40
0
40
0
40
0
40
0
40
0.136649739226051
40
0.273299478452103
40
0.546598956904205
40
0.614923826517231
40
0.683248696130256
40
0.819898435356307
40
1
40
1
40
1
40
1
41
1
10
123.304466528683
20
10.5674012342894
30
0
41
1
10
123.302022988512
20
10.5673155780384
30
0
41
1
10
123.297131721391
20
10.567265059554
30
0
41
1
10
123.287355978502
20
10.5676456980151
30
0
41
1
10
123.278842011357
20
10.5686089860807
30
0
41
1
10
123.271616894052
20
10.5698820117313
30
0
41
1
10
123.266822352842
20
10.5708492288109
30
0
41
1
10
123.260119847948
20
10.5724609397508
30
0
41
1
10
123.254689218563
20
10.5740989971565
30
0
41
1
10
123.251634663167
20
10.5751296097107
30
0
0
SPLINE
5
21F
100
AcDbEntity
8
1
62
256
6
ByLayer
370
-1
48
1
60
0
100
AcDbSpline
70
4
71
3
72
25
73
21
40
0
40
0
40
0
40
0
40
0.125
40
0.1875
40
0.21875
40
0.234375
40
0.25
40
0.3125
40
0.34375
40
0.375
40
0.5
40
0.625
40
0.6875
40
0.71875
40
0.7265625
40
0.734375
40
0.75
40
0.8125
40
0.875
40
1
40
1
40
1
40
1
41
1
10
136.598871332747
20
10.1318963523644
30
0
41
1
10
136.598632113121
20
10.1148202926321
30
0
41
1
10
136.598201598556
20
10.0892297086864
30
0
41
1
10
136.597607568423
20
10.0593672100697
30
0
41
1
10
136.597269014678
20
10.0444688422135
30
0
41
1
10
136.597061049839
20
10.0359691566998
30
0
41
1
10
136.596733237892
20
10.0232364226131
30
0
41
1
10
136.596300669847
20
10.0084371628434
30
0
41
1
10
136.595755031245
20
9.9915169991346
30
0
41
1
10
136.59489403371
20
9.96608996971483
30
0
41
1
10
136.593475945922
20
9.92761250744047
30
0
41
1
10
136.591677758226
20
9.88510985477353
30
0
41
1
10
136.590308398946
20
9.85514538658364
30
0
41
1
10
136.589639838526
20
9.84150830728785
30
0
41
1
10
136.589333225718
20
9.83489556732704
30
0
41
1
10
136.589103915646
20
9.83187525610305
30
0
41
1
10
136.588389578538
20
9.82254497180165
30
0
41
1
10
136.586736990841
20
9.80782794027357
30
0
41
1
10
136.582453805268
20
9.78167392549341
30
0
41
1
10
136.577758168123
20
9.76244466467332
30
0
41
1
10
136.573995749597
20
9.74989899620331
30
0
0
SPLINE
5
220
100
AcDbEntity
8
1
62
256
6
ByLayer
370
-1
48
1
60
0
100
AcDbSpline
70
4
71
3
72
12
73
8
40
0
40
0
40
0
40
0
40
0.518100853439295
40
0.777151280158943
40
0.906676493518767
40
0.971439100198679
40
1
40
1
40
1
40
1
41
1
10
134.157802942056
20
24.4053171452696
30
0
41
1
10
134.161932697029
20
24.3278717067611
30
0
41
1
10
134.168127446917
20
24.2117038091188
30
0
41
1
10
134.175354222631
20
24.0761736773788
30
0
41
1
10
134.178968201606
20
24.008409837564
30
0
41
1
10
134.180743830766
20
23.9750971046007
30
0
41
1
10
134.181488307371
20
23.9611482849657
30
0
41
1
10
134.181715291551
20
23.9568771958501
30
0
0
SPLINE
5
221
100
AcDbEntity
8
1
62
256
6
ByLayer
370
-1
48
1
60
0
100
AcDbSpline
70
4
71
3
72
15
73
11
40
0
40
0
40
0
40
0
40
0.250139710793392
40
0.500351579587132
40
0.750563448380872
40
0.875669382777742
40
0.938222349976177
40
0.969498833575394
40
0.985137075375003
40
1
40
1
40
1
40
1
41
1
10
121.665925816125
20
8.93644941020366
30
0
41
1
10
121.658064617954
20
8.92791941100714
30
0
41
1
10
121.642339954331
20
8.91085695244047
30
0
41
1
10
121.618756447141
20
8.88526704960182
30
0
41
1
10
121.599079289524
20
8.86391583379267
30
0
41
1
10
121.585352898344
20
8.84902165313616
30
0
41
1
10
121.578420354475
20
8.84149931463816
30
0
41
1
10
121.57505810496
20
8.83785101764377
30
0
41
1
10
121.572977914862
20
8.83559385283544
30
0
41
1
10
121.572424337678
20
8.83499317939729
30
0
41
1
10
121.571566802111
20
8.83406268794533
30
0
0
SPLINE
5
222
100
AcDbEntity
8
1
62
256
6
ByLayer
370
-1
48
1
60
0
100
AcDbSpline
70
4
71
3
72
8
73
4
40
0
40
0
40
0
40
0
40
1
40
1
40
1
40
1
41
1
10
135.877161138694
20
9.10730542474889
30
0
41
1
10
135.93023366624
20
9.11017436962052
30
0
41
1
10
135.983284935274
20
9.11346954501352
30
0
41
1
10
136.036305467347
20
9.11719224970463
30
0
0
SPLINE
5
223
100
AcDbEntity
8
1
62
256
6
ByLayer
370
-1
48
1
60
0
100
AcDbSpline
70
4
71
3
72
15
73
11
40
0
40
0
40
0
40
0
40
0.424997863749042
40
0.849995727498084
40
0.956245193435344
40
0.982807559919659
40
0.996088743161817
40
0.997748891067086
40
0.999409038972356
40
1
40
1
40
1
40
1
41
1
10
122.857880921759
20
24.0092078576963
30
0
41
1
10
122.709757321074
20
24.0040155091266
30
0
41
1
10
122.413513142936
20
23.9936336384544
30
0
41
1
10
122.080224414571
20
23.9819409599417
30
0
41
1
10
121.885824508561
20
23.9751374862996
30
0
41
1
10
121.834898727247
20
23.9733448869133
30
0
41
1
10
121.82044108792
20
23.9728448611531
30
0
41
1
10
121.814649009037
20
23.9726364448105
30
0
41
1
10
121.813286974406
20
23.9725963187763
30
0
41
1
10
121.812504160003
20
23.972557895269
30
0
41
1
10
121.812298579338
20
23.9725457781434
30
0
0
SPLINE
5
224
100
AcDbEntity
8
1
62
256
6
ByLayer
370
-1
48
1
60
0
100
AcDbSpline
70
4
71
3
72
15
73
11
40
0
40
0
40
0
40
0
40
0.0355064919379776
40
0.118947470229826
40
0.285829426813523
40
0.619593339980916
40
0.786475296564613
40
0.869916274856461
40
0.95335725314831
40
1
40
1
40
1
40
1
41
1
10
134.670284862578
20
9.96691105840674
30
0
41
1
10
134.670462160269
20
9.96271498293757
30
0
41
1
10
134.671053203082
20
9.9486552653554
30
0
41
1
10
134.672419353454
20
9.91481919783476
30
0
41
1
10
134.674994495795
20
9.84554559771104
30
0
41
1
10
134.677423125274
20
9.76636158748346
30
0
41
1
10
134.679084956804
20
9.69757062625425
30
0
41
1
10
134.679901299945
20
9.65847317682849
30
0
41
1
10
134.680365165428
20
9.63356914841725
30
0
41
1
10
134.680617842101
20
9.61846074211641
30
0
41
1
10
134.680706820676
20
9.61304696640653
30
0
0
SPLINE
5
225
100
AcDbEntity
8
1
62
256
6
ByLayer
370
-1
48
1
60
0
100
AcDbSpline
70
4
71
3
72
14
73
10
40
0
40
0
40
0
40
0
40
0.0107070020616606
40
0.0461693850894099
40
0.117094151144909
40
0.400793215366903
40
0.684492279588898
40
0.968191343810892
40
1
40
1
40
1
40
1
41
1
10
134.204688865519
20
23.279918250322
30
0
41
1
10
134.204729014074
20
23.2784301382374
30
0
41
1
10
134.204901135283
20
23.2720143082204
30
0
41
1
10
134.20532146219
20
23.2557590567308
30
0
41
1
10
134.206583792627
20
23.2017759988106
30
0
41
1
10
134.207892782616
20
23.1146660121463
30
0
41
1
10
134.207982565637
20
23.003704356771
30
0
41
1
10
134.206886115638
20
22.9309051251388
30
0
41
1
10
134.205967161405
20
22.8946633949606
30
0
41
1
10
134.205872780208
20
22.8910202306977
30
0
0
SPLINE
5
226
100
AcDbEntity
8
1
62
256
6
ByLayer
370
-1
48
1
60
0
100
AcDbSpline
70
4
71
3
72
8
73
4
40
0
40
0
40
0
40
0
40
1
40
1
40
1
40
1
41
1
10
122.256111047819
20
8.62914356284605
30
0
41
1
10
122.239845768793
20
8.62872307420417
30
0
41
1
10
122.223578449724
20
8.6283830622896
30
0
41
1
10
122.207309372354
20
8.62812150889894
30
0
0
SPLINE
5
227
100
AcDbEntity
8
1
62
256
6
ByLayer
370
-1
48
1
60
0
100
AcDbSpline
70
4
71
3
72
8
73
4
40
0
40
0
40
0
40
0
40
1
40
1
40
1
40
1
41
1
10
120.845200743835
20
23.1783817198058
30
0
41
1
10
120.844349432104
20
23.2317275135448
30
0
41
1
10
120.84393834977
20
23.2850818851984
30
0
41
1
10
120.843923814344
20
23.3384344940709
30
0
0
SPLINE
5
228
100
AcDbEntity
8
1
62
256
6
ByLayer
370
-1
48
1
60
0
100
AcDbSpline
70
4
71
3
72
8
73
4
40
0
40
0
40
0
40
0
40
1
40
1
40
1
40
1
41
1
10
121.332409804955
20
9.29656048614612
30
0
41
1
10
121.335050008957
20
9.25867459551168
30
0
41
1
10
121.341902664753
20
9.22157234739635
30
0
41
1
10
121.352960966742
20
9.18525287146099
30
0
0
SPLINE
5
229
100
AcDbEntity
8
1
62
256
6
ByLayer
370
-1
48
1
60
0
100
AcDbSpline
70
4
71
3
72
8
73
4
40
0
40
0
40
0
40
0
40
1
40
1
40
1
40
1
41
1
10
135.499536274855
20
24.5469749154883
30
0
41
1
10
135.537367833775
20
24.5469820782379
30
0
41
1
10
135.574719461766
20
24.5427030145315
30
0
41
1
10
135.611583458096
20
24.5341607075426
30
0
0
SPLINE
5
22A
100
AcDbEntity
8
1
62
256
6
ByLayer
370
-1
48
1
60
0
100
AcDbSpline
70
4
71
3
72
15
73
11
40
0
40
0
40
0
40
0
40
0.0355064919379177
40
0.118947470229772
40
0.285829426813479
40
0.619593339980895
40
0.786475296564603
40
0.869916274856457
40
0.953357253148311
40
1
40
1
40
1
40
1
41
1
10
135.377943576546
20
22.4965419772269
30
0
41
1
10
135.382155009779
20
22.4966885074111
30
0
41
1
10
135.39626316086
20
22.4971794835679
30
0
41
1
10
135.43015953706
20
22.4983610650823
30
0
41
1
10
135.499334790499
20
22.5007801525041
30
0
41
1
10
135.577891466864
20
22.5035453190727
30
0
41
1
10
135.645689397171
20
22.5059475523728
30
0
41
1
10
135.684094294548
20
22.5073128653919
30
0
41
1
10
135.708501062609
20
22.5081825332275
30
0
41
1
10
135.723279064027
20
22.5087101304013
30
0
41
1
10
135.728572883452
20
22.508899183615
30
0
0
SPLINE
5
22B
100
AcDbEntity
8
1
62
256
6
ByLayer
370
-1
48
1
60
0
100
AcDbSpline
70
4
71
3
72
8
73
4
40
0
40
0
40
0
40
0
40
1
40
1
40
1
40
1
41
1
10
120.848970851751
20
23.0384285888901
30
0
41
1
10
120.847916245028
20
23.068745437129
30
0
41
1
10
120.846995086673
20
23.0990673423485
30
0
41
1
10
120.846217895582
20
23.1293926130561
30
0
0
SPLINE
5
22C
100
AcDbEntity
8
1
62
256
6
ByLayer
370
-1
48
1
60
0
100
AcDbSpline
70
4
71
3
72
12
73
8
40
0
40
0
40
0
40
0
40
0.028560899439917
40
0.0933235061439225
40
0.222848719551934
40
0.481899146367956
40
1
40
1
40
1
40
1
41
1
10
122.881793277295
20
23.5607679245182
30
0
41
1
10
122.881566308501
20
23.5650390574378
30
0
41
1
10
122.88082187831
20
23.5789880094171
30
0
41
1
10
122.879046138363
20
23.6123004288325
30
0
41
1
10
122.875432230973
20
23.68006447041
30
0
41
1
10
122.868205407523
20
23.8155944678792
30
0
41
1
10
122.862010676732
20
23.9317624191878
30
0
41
1
10
122.857880921759
20
24.0092078576963
30
0
0
SPLINE
5
22D
100
AcDbEntity
8
1
62
256
6
ByLayer
370
-1
48
1
60
0
100
AcDbSpline
70
4
71
3
72
17
73
13
40
0
40
0
40
0
40
0
40
0.0032703186403226
40
0.0092094466333973
40
0.0210877026195469
40
0.0448442145918459
40
0.092357238536444
40
0.282409334314836
40
0.662513525871621
40
0.852565621650013
40
0.94759166953921
40
1
40
1
40
1
40
1
41
1
10
122.899225179711
20
22.2389681897099
30
0
41
1
10
122.899232303099
20
22.2392484877661
30
0
41
1
10
122.899252917492
20
22.2400344266284
30
0
41
1
10
122.899301338427
20
22.2418264212033
30
0
41
1
10
122.89939371483
20
22.2453783718985
30
0
41
1
10
122.899580634504
20
22.2524688577456
30
0
41
1
10
122.90016596817
20
22.2747664250647
30
0
41
1
10
122.901551137045
20
22.3274595242502
30
0
41
1
10
122.903254259195
20
22.3923230565904
30
0
41
1
10
122.904747537694
20
22.449059945972
30
0
41
1
10
122.905500808589
20
22.4778726673897
30
0
41
1
10
122.905834696404
20
22.4904308303047
30
0
41
1
10
122.905950759909
20
22.4949109431428
30
0
0
SPLINE
5
22E
100
AcDbEntity
8
1
62
256
6
ByLayer
370
-1
48
1
60
0
100
AcDbSpline
70
4
71
3
72
8
73
4
40
0
40
0
40
0
40
0
40
1
40
1
40
1
40
1
41
1
10
135.200671642118
20
24.5419082578919
30
0
41
1
10
135.230873141829
20
24.5429669093356
30
0
41
1
10
135.261078446934
20
24.5438903656098
30
0
41
1
10
135.291289120421
20
24.5446713280887
30
0
0
SPLINE
5
22F
100
AcDbEntity
8
1
62
256
6
ByLayer
370
-1
48
1
60
0
100
AcDbSpline
70
4
71
3
72
15
73
11
40
0
40
0
40
0
40
0
40
0.0466427416045716
40
0.130083711367134
40
0.213524681129697
40
0.380406620654823
40
0.714170499705074
40
0.8810524392302
40
0.964493408992762
40
1
40
1
40
1
40
1
41
1
10
134.181715291551
20
23.9568771958501
30
0
41
1
10
134.18200300009
20
23.9514634757891
30
0
41
1
10
134.182801562095
20
23.9363552395549
30
0
41
1
10
134.184070340377
20
23.9114510034825
30
0
41
1
10
134.185974232591
20
23.8723535505429
30
0
41
1
10
134.18909858511
20
23.8035625915553
30
0
41
1
10
134.192179102589
20
23.7243786973484
30
0
41
1
10
134.19442407839
20
23.6551048064436
30
0
41
1
10
134.195411553129
20
23.6212691756006
30
0
41
1
10
134.195799308647
20
23.6072089643084
30
0
41
1
10
134.195914012127
20
23.603012830767
30
0
0
SPLINE
5
230
100
AcDbEntity
8
1
62
256
6
ByLayer
370
-1
48
1
60
0
100
AcDbSpline
70
4
71
3
72
15
73
11
40
0
40
0
40
0
40
0
40
0.250139710793228
40
0.500351579587047
40
0.750563448380867
40
0.875669382777776
40
0.938222349976231
40
0.969498833575459
40
0.985137075375072
40
1
40
1
40
1
40
1
41
1
10
135.879965560949
20
24.2373654807211
30
0
41
1
10
135.88795253122
20
24.2458954799176
30
0
41
1
10
135.90392877532
20
24.2629579384843
30
0
41
1
10
135.927889597415
20
24.2885478413229
30
0
41
1
10
135.947881571857
20
24.3098990571321
30
0
41
1
10
135.961827572951
20
24.3247932377886
30
0
41
1
10
135.968871031288
20
24.3323155762866
30
0
41
1
10
135.972287073771
20
24.335963873281
30
0
41
1
10
135.974400545039
20
24.3382210380893
30
0
41
1
10
135.97496297896
20
24.3388217115275
30
0
41
1
10
135.975834234325
20
24.3397522029794
30
0
0
SPLINE
5
231
100
AcDbEntity
8
1
62
256
6
ByLayer
370
-1
48
1
60
0
100
AcDbSpline
70
4
71
3
72
8
73
4
40
0
40
0
40
0
40
0
40
1
40
1
40
1
40
1
41
1
10
121.571571028541
20
8.83406727394384
30
0
41
1
10
121.673573587545
20
8.73859672926207
30
0
41
1
10
121.799937038498
20
8.67115429469689
30
0
41
1
10
121.935817510696
20
8.6396541832664
30
0
0
SPLINE
5
232
100
AcDbEntity
8
1
62
256
6
ByLayer
370
-1
48
1
60
0
100
AcDbSpline
70
4
71
3
72
12
73
8
40
0
40
0
40
0
40
0
40
0.028560899439904
40
0.0933235061439104
40
0.222848719551923
40
0.481899146367949
40
1
40
1
40
1
40
1
41
1
10
135.728572883452
20
22.508899183615
30
0
41
1
10
135.732749378311
20
22.5090483348631
30
0
41
1
10
135.746386074668
20
22.5095354429999
30
0
41
1
10
135.778954858954
20
22.5106987383195
30
0
41
1
10
135.845204498219
20
22.5130651107952
30
0
41
1
10
135.977706741703
20
22.5177979225961
30
0
41
1
10
136.091279145473
20
22.5218545968461
30
0
41
1
10
136.166994288775
20
22.5245590511524
30
0
0
SPLINE
5
233
100
AcDbEntity
8
1
62
256
6
ByLayer
370
-1
48
1
60
0
100
AcDbSpline
70
4
71
3
72
17
73
13
40
0
40
0
40
0
40
0
40
0.0524083454183427
40
0.14743440120068
40
0.337486512765355
40
0.717590735894704
40
0.907642847459379
40
0.955155875350547
40
0.978912389296132
40
0.990790646268924
40
0.99672977475532
40
1
40
1
40
1
40
1
41
1
10
134.205872780208
20
22.8910202306977
30
0
41
1
10
134.205756716668
20
22.886540116457
30
0
41
1
10
134.205422828803
20
22.8739819518596
30
0
41
1
10
134.204669558093
20
22.8451692374248
30
0
41
1
10
134.203176267326
20
22.7884324141732
30
0
41
1
10
134.201473230194
20
22.7235683862216
30
0
41
1
10
134.200087897409
20
22.6708762449388
30
0
41
1
10
134.199502723092
20
22.648577746009
30
0
41
1
10
134.199315632704
20
22.6414882589644
30
0
41
1
10
134.199223525111
20
22.6379347326485
30
0
41
1
10
134.199174729618
20
22.636144950851
30
0
41
1
10
134.199154170891
20
22.6353586960533
30
0
41
1
10
134.199147079552
20
22.6350782194376
30
0
0
SPLINE
5
234
100
AcDbEntity
8
1
62
256
6
ByLayer
370
-1
48
1
60
0
100
AcDbSpline
70
4
71
3
72
8
73
4
40
0
40
0
40
0
40
0
40
1
40
1
40
1
40
1
41
1
10
136.70220145029
20
9.99543317111895
30
0
41
1
10
136.703052366347
20
9.94208737737998
30
0
41
1
10
136.703472323496
20
9.88873300572632
30
0
41
1
10
136.703477835687
20
9.83538039685379
30
0
0
SPLINE
5
235
100
AcDbEntity
8
1
62
256
6
ByLayer
370
-1
48
1
60
0
100
AcDbSpline
70
4
71
3
72
14
73
10
40
0
40
0
40
0
40
0
40
0.0318086637759067
40
0.315507725074466
40
0.599206786373025
40
0.882905847671585
40
0.953830612996225
40
0.989292995658545
40
1
40
1
40
1
40
1
41
1
10
122.905950759909
20
22.4949109431429
30
0
41
1
10
122.906045141118
20
22.4985541079088
30
0
41
1
10
122.906964095237
20
22.5347958336047
30
0
41
1
10
122.908060545333
20
22.6075950622551
30
0
41
1
10
122.907970762293
20
22.7185567261791
30
0
41
1
10
122.906661772336
20
22.8056667109711
30
0
41
1
10
122.905399441864
20
22.8596497702758
30
0
41
1
10
122.904979115005
20
22.8759050199377
30
0
41
1
10
122.904806993787
20
22.8823208502988
30
0
41
1
10
122.904766845249
20
22.8838089627207
30
0
0
SPLINE
5
236
100
AcDbEntity
8
1
62
256
6
ByLayer
370
-1
48
1
60
0
100
AcDbSpline
70
4
71
3
72
15
73
11
40
0
40
0
40
0
40
0
40
0.0466427416045735
40
0.130083711367136
40
0.213524681129698
40
0.380406620654822
40
0.71417049970507
40
0.881052439230194
40
0.964493408992756
40
1
40
1
40
1
40
1
41
1
10
123.380784793208
20
9.21693769507465
30
0
41
1
10
123.380695838001
20
9.22235141513562
30
0
41
1
10
123.380443232824
20
9.23745965136985
30
0
41
1
10
123.379979279684
20
9.26236388744221
30
0
41
1
10
123.379162936472
20
9.30146134038182
30
0
41
1
10
123.377501104992
20
9.37025229936944
30
0
41
1
10
123.375072341993
20
9.44943619357633
30
0
41
1
10
123.372497533436
20
9.51871008448117
30
0
41
1
10
123.371130868077
20
9.55254571532413
30
0
41
1
10
123.370540373556
20
9.56660592661635
30
0
41
1
10
123.370363127811
20
9.57080206015772
30
0
0
SPLINE
5
237
100
AcDbEntity
8
1
62
256
6
ByLayer
370
-1
48
1
60
0
100
AcDbSpline
70
4
71
3
72
8
73
4
40
0
40
0
40
0
40
0
40
1
40
1
40
1
40
1
41
1
10
135.737817057946
20
9.10131998044648
30
0
41
1
10
135.768018538912
20
9.10237866802748
30
0
41
1
10
135.79821538363
20
9.10357495110594
30
0
41
1
10
135.828406129578
20
9.10490977393326
30
0
0
SPLINE
5
238
100
AcDbEntity
8
1
62
256
6
ByLayer
370
-1
48
1
60
0
100
AcDbSpline
70
4
71
3
72
8
73
4
40
0
40
0
40
0
40
0
40
1
40
1
40
1
40
1
41
1
10
121.718994759821
20
24.0689051169915
30
0
41
1
10
121.702739483806
20
24.0681864168141
30
0
41
1
10
121.686487518614
20
24.0673877584596
30
0
41
1
10
121.670239897961
20
24.0665094661758
30
0
0
SPLINE
5
239
100
AcDbEntity
8
1
62
256
6
ByLayer
370
-1
48
1
60
0
100
AcDbSpline
70
4
71
3
72
25
73
21
40
0
40
0
40
0
40
0
40
0.125
40
0.1875
40
0.21875
40
0.234375
40
0.25
40
0.3125
40
0.34375
40
0.375
40
0.5
40
0.625
40
0.6875
40
0.71875
40
0.7265625
40
0.734375
40
0.75
40
0.8125
40
0.875
40
1
40
1
40
1
40
1
41
1
10
120.948529636071
20
23.0419185385603
30
0
41
1
10
120.948766228131
20
23.0589945982926
30
0
41
1
10
120.949192403013
20
23.0845851822383
30
0
41
1
10
120.949781430926
20
23.114447680855
30
0
41
1
10
120.950116966672
20
23.1293460487113
30
0
41
1
10
120.950322993434
20
23.137845734225
30
0
41
1
10
120.950647636743
20
23.1505784683116
30
0
41
1
10
120.951075643444
20
23.1653777280813
30
0
41
1
10
120.951616156132
20
23.1822978917901
30
0
41
1
10
120.952470166519
20
23.2077249212099
30
0
41
1
10
120.953882881594
20
23.2462023834843
30
0
41
1
10
120.955671264597
20
23.2887050361512
30
0
41
1
10
120.957036970723
20
23.3186695043411
30
0
41
1
10
120.957699684792
20
23.3323065836369
30
0
41
1
10
120.958008407335
20
23.3389193235977
30
0
41
1
10
120.958218164844
20
23.3419396348217
30
0
41
1
10
120.958894113968
20
23.3512699191231
30
0
41
1
10
120.960475405122
20
23.3659869506512
30
0
41
1
10
120.964633272261
20
23.3921409654313
30
0
41
1
10
120.969233197887
20
23.4113702262514
30
0
41
1
10
120.972931571706
20
23.4239158947214
30
0
0
SPLINE
5
23A
100
AcDbEntity
8
1
62
256
6
ByLayer
370
-1
48
1
60
0
100
AcDbSpline
70
4
71
3
72
9
73
5
40
0
40
0
40
0
40
0
40
0.375000000000569
40
1
40
1
40
1
40
1
41
1
10
123.392312182174
20
8.6685586629531
30
0
41
1
10
123.391782284261
20
8.68105104829087
30
0
41
1
10
123.39036922316
20
8.71436407585821
30
0
41
1
10
123.388956162059
20
8.74767710342556
30
0
41
1
10
123.388072998871
20
8.76849774565511
30
0
0
SPLINE
5
23B
100
AcDbEntity
8
1
62
256
6
ByLayer
370
-1
48
1
60
0
100
AcDbSpline
70
4
71
3
72
17
73
13
40
0
40
0
40
0
40
0
40
0.014463156076374
40
0.0301057427840135
40
0.0613909161992923
40
0.12396126302985
40
0.249101956690965
40
0.499383344013197
40
0.749664731335427
40
0.999946118657658
40
0.999946118657658
40
1
40
1
40
1
40
1
41
1
10
122.346730133132
20
8.63188345160938
30
0
41
1
10
122.346692043506
20
8.63297836225564
30
0
41
1
10
122.346676887311
20
8.63341403675631
30
0
41
1
10
122.34660090143
20
8.63559829946541
30
0
41
1
10
122.346476934024
20
8.63916182178514
30
0
41
1
10
122.346221569441
20
8.64650243994578
30
0
41
1
10
122.345715793454
20
8.66104129391962
30
0
41
1
10
122.344990826914
20
8.68188092046216
30
0
41
1
10
122.34412182468
20
8.70686094505939
30
0
41
1
10
122.343542379787
20
8.72351745884305
30
0
41
1
10
122.343252737634
20
8.73184340765687
30
0
41
1
10
122.343252389931
20
8.73185340261077
30
0
41
1
10
122.343252042228
20
8.73186339756467
30
0
0
SPLINE
5
23C
100
AcDbEntity
8
1
62
256
6
ByLayer
370
-1
48
1
60
0
100
AcDbSpline
70
4
71
3
72
8
73
4
40
0
40
0
40
0
40
0
40
1
40
1
40
1
40
1
41
1
10
120.843923814918
20
23.3384344940682
30
0
41
1
10
120.84391346781
20
23.3764137872807
30
0
41
1
10
120.848179569894
20
23.4139047582282
30
0
41
1
10
120.856688920332
20
23.4509100212494
30
0
0
SPLINE
5
23D
100
AcDbEntity
8
1
62
256
6
ByLayer
370
-1
48
1
60
0
100
AcDbSpline
70
4
71
3
72
8
73
4
40
0
40
0
40
0
40
0
40
1
40
1
40
1
40
1
41
1
10
121.320174033188
20
9.50525393095165
30
0
41
1
10
121.320890066285
20
9.48893649437244
30
0
41
1
10
121.32168574999
20
9.47262238458086
30
0
41
1
10
121.322560641457
20
9.45631275953065
30
0
0
SPLINE
5
23E
100
AcDbEntity
8
1
62
256
6
ByLayer
370
-1
48
1
60
0
100
AcDbSpline
70
4
71
3
72
15
73
11
40
0
40
0
40
0
40
0
40
0.250227978748281
40
0.500467923372722
40
0.750707867997163
40
0.875827840309384
40
0.938387826465494
40
0.969667819543549
40
0.985307816082577
40
1
40
1
40
1
40
1
41
1
10
136.573997144871
20
9.74989867350467
30
0
41
1
10
136.583723038018
20
9.74764927052743
30
0
41
1
10
136.603175289313
20
9.74315035702759
30
0
41
1
10
136.632348253736
20
9.73640323858453
30
0
41
1
10
136.656686730494
20
9.73077423965856
30
0
41
1
10
136.673665517733
20
9.72684738852135
30
0
41
1
10
136.682239590708
20
9.72486437832512
30
0
41
1
10
136.686399608162
20
9.72390225016844
30
0
41
1
10
136.688963235779
20
9.72330933479222
30
0
41
1
10
136.689573559161
20
9.7231681793003
30
0
41
1
10
136.690730932446
20
9.72290050219604
30
0
0
SPLINE
5
23F
100
AcDbEntity
8
1
62
256
6
ByLayer
370
-1
48
1
60
0
100
AcDbSpline
70
4
71
3
72
11
73
7
40
0
40
0
40
0
40
0
40
0.48634109599992
40
0.72951164399988
40
0.97268219199984
40
1
40
1
40
1
40
1
41
1
10
134.353909749277
20
22.4617399570879
30
0
41
1
10
134.358839387819
20
22.4619127614318
30
0
41
1
10
134.366330235971
20
22.4621719511253
30
0
41
1
10
134.375855471881
20
22.4624948295901
30
0
41
1
10
134.380611088422
20
22.4626535615734
30
0
41
1
10
134.38301063729
20
22.4627329318844
30
0
41
1
10
134.38325228039
20
22.4627409197615
30
0
0
SPLINE
5
240
100
AcDbEntity
8
1
62
256
6
ByLayer
370
-1
48
1
60
0
100
AcDbSpline
70
4
71
3
72
11
73
7
40
0
40
0
40
0
40
0
40
0.48634109599985
40
0.729511643999776
40
0.972682191999701
40
1
40
1
40
1
40
1
41
1
10
122.899434548463
20
22.2103043690621
30
0
41
1
10
122.899262401692
20
22.2152528380219
30
0
41
1
10
122.899101068528
20
22.222675059734
30
0
41
1
10
122.899093809061
20
22.2319210892309
30
0
41
1
10
122.899163105321
20
22.2364665785103
30
0
41
1
10
122.899219366528
20
22.2387394468392
30
0
41
1
10
122.899225179711
20
22.2389681897099
30
0
0
SPLINE
5
241
100
AcDbEntity
8
1
62
256
6
ByLayer
370
-1
48
1
60
0
100
AcDbSpline
70
4
71
3
72
12
73
8
40
0
40
0
40
0
40
0
40
0.518100853439296
40
0.777151280158944
40
0.906676493518768
40
0.97143910019868
40
1
40
1
40
1
40
1
41
1
10
123.388072998871
20
8.76849774565511
30
0
41
1
10
123.386814427761
20
8.84594318416362
30
0
41
1
10
123.384926706624
20
8.96211108180597
30
0
41
1
10
123.382723868949
20
9.09764121354598
30
0
41
1
10
123.381623126535
20
9.1654050533607
30
0
41
1
10
123.381080996619
20
9.19871778632401
30
0
41
1
10
123.380854973346
20
9.21266660595907
30
0
41
1
10
123.380784793208
20
9.21693769507465
30
0
0
SPLINE
5
242
100
AcDbEntity
8
1
62
256
6
ByLayer
370
-1
48
1
60
0
100
AcDbSpline
70
4
71
3
72
25
73
21
40
0
40
0
40
0
40
0
40
0.125
40
0.1875
40
0.21875
40
0.234375
40
0.25
40
0.3125
40
0.34375
40
0.375
40
0.5
40
0.625
40
0.6875
40
0.71875
40
0.7265625
40
0.734375
40
0.75
40
0.8125
40
0.875
40
1
40
1
40
1
40
1
41
1
10
135.204148311476
20
24.4419691751899
30
0
41
1
10
135.221158077863
20
24.4417303605852
30
0
41
1
10
135.246649112069
20
24.4413003796544
30
0
41
1
10
135.276395473753
20
24.4407065910867
30
0
41
1
10
135.291235639822
20
24.4403682588852
30
0
41
1
10
135.299702012428
20
24.4401604723942
30
0
41
1
10
135.312384710298
20
24.4398329986294
30
0
41
1
10
135.327125373744
20
24.4394010676289
30
0
41
1
10
135.343978588166
20
24.4388559175231
30
0
41
1
10
135.369305366487
20
24.4379951380362
30
0
41
1
10
135.407633724045
20
24.4365743300013
30
0
41
1
10
135.44996973894
20
24.4347741945927
30
0
41
1
10
135.479818356704
20
24.4334014381373
30
0
41
1
10
135.493400619621
20
24.4327332582667
30
0
41
1
10
135.499989250977
20
24.4324244153505
30
0
41
1
10
135.502988292724
20
24.4322040429767
30
0
41
1
10
135.512263878485
20
24.431506244527
30
0
41
1
10
135.526889258993
20
24.4298831286556
30
0
41
1
10
135.552881090634
20
24.4256464805743
30
0
41
1
10
135.571989322552
20
24.4209809454195
30
0
41
1
10
135.584455228612
20
24.4172362997395
30
0
0
SPLINE
5
243
100
AcDbEntity
8
1
62
256
6
ByLayer
370
-1
48
1
60
0
100
AcDbSpline
70
4
71
3
72
8
73
4
40
0
40
0
40
0
40
0
40
1
40
1
40
1
40
1
41
1
10
123.304466528683
20
10.5674012342894
30
0
41
1
10
123.304820491426
20
10.5572263490293
30
0
41
1
10
123.30545278664
20
10.5470746608963
30
0
41
1
10
123.306251693389
20
10.5387398828352
30
0
0
SPLINE
5
244
100
AcDbEntity
8
1
62
256
6
ByLayer
370
-1
48
1
60
0
100
AcDbSpline
70
4
71
3
72
16
73
12
40
0
40
0
40
0
40
0
40
0.0319528420423587
40
0.215044192449692
40
0.398135542857025
40
0.581226893264357
40
0.76431824367169
40
0.855863918875357
40
0.947409594079023
40
0.993182431680856
40
1
40
1
40
1
40
1
41
1
10
135.053613552041
20
22.4852592557547
30
0
41
1
10
135.057067950052
20
22.4853794050245
30
0
41
1
10
135.080316624819
20
22.4861883125039
30
0
41
1
10
135.123358820094
20
22.4876855356489
30
0
41
1
10
135.182740797899
20
22.4897512975332
30
0
41
1
10
135.242122840791
20
22.4918170960219
30
0
41
1
10
135.291607819943
20
22.4935385604444
30
0
41
1
10
135.331195670888
20
22.4949157639559
30
0
41
1
10
135.355938235975
20
22.495776484818
30
0
41
1
10
135.371520995729
20
22.4963185210703
30
0
41
1
10
135.377206532897
20
22.4965163329543
30
0
41
1
10
135.377943576546
20
22.4965419772269
30
0
0
SPLINE
5
245
100
AcDbEntity
8
1
62
256
6
ByLayer
370
-1
48
1
60
0
100
AcDbSpline
70
4
71
3
72
9
73
5
40
0
40
0
40
0
40
0
40
0.5
40
1
40
1
40
1
40
1
41
1
10
135.584455228612
20
24.4172362997395
30
0
41
1
10
135.640565696205
20
24.4007731662764
30
0
41
1
10
135.749609012307
20
24.3527388348802
30
0
41
1
10
135.840812564072
20
24.2786195501629
30
0
41
1
10
135.879958648926
20
24.2373580987542
30
0
0
SPLINE
5
246
100
AcDbEntity
8
1
62
256
6
ByLayer
370
-1
48
1
60
0
100
AcDbSpline
70
4
71
3
72
9
73
5
40
0
40
0
40
0
40
0
40
0.5
40
1
40
1
40
1
40
1
41
1
10
121.962472092691
20
8.75657859118522
30
0
41
1
10
121.906195891167
20
8.77304172464835
30
0
41
1
10
121.796800556489
20
8.82107605604455
30
0
41
1
10
121.705244755603
20
8.89519534076183
30
0
41
1
10
121.665932619303
20
8.93645679217053
30
0
0
SPLINE
5
247
100
AcDbEntity
8
1
62
256
6
ByLayer
370
-1
48
1
60
0
100
AcDbSpline
70
4
71
3
72
8
73
4
40
0
40
0
40
0
40
0
40
1
40
1
40
1
40
1
41
1
10
122.755311376021
20
22.0551608205039
30
0
41
1
10
122.745175209271
20
22.0548055056811
30
0
41
1
10
122.735341290827
20
22.0544510009198
30
0
41
1
10
122.727547186557
20
22.0541599440564
30
0
0
SPLINE
5
248
100
AcDbEntity
8
1
62
256
6
ByLayer
370
-1
48
1
60
0
100
AcDbSpline
70
4
71
3
72
15
73
11
40
0
40
0
40
0
40
0
40
0.250227978747289
40
0.500467923372007
40
0.750707867996725
40
0.875827840309085
40
0.938387826465264
40
0.969667819543354
40
0.985307816082399
40
1
40
1
40
1
40
1
41
1
10
120.972930182094
20
23.4239162174201
30
0
41
1
10
120.963243757686
20
23.4261656203973
30
0
41
1
10
120.943870445755
20
23.4306645338972
30
0
41
1
10
120.914815868414
20
23.4374116523402
30
0
41
1
10
120.890576159859
20
23.4430406512662
30
0
41
1
10
120.873666274397
20
23.4469675024034
30
0
41
1
10
120.865126995948
20
23.4489505125996
30
0
41
1
10
120.8609838603
20
23.4499126407563
30
0
41
1
10
120.858430636165
20
23.4505055561325
30
0
41
1
10
120.857822789542
20
23.4506467116244
30
0
41
1
10
120.856670113004
20
23.4509143887287
30
0
0
SPLINE
5
249
100
AcDbEntity
8
1
62
256
6
ByLayer
370
-1
48
1
60
0
100
AcDbSpline
70
4
71
3
72
17
73
13
40
0
40
0
40
0
40
0
40
0.0524083454182648
40
0.14743440120061
40
0.337486512765302
40
0.717590735894684
40
0.907642847459376
40
0.955155875350548
40
0.978912389296135
40
0.990790646268928
40
0.996729774755325
40
1
40
1
40
1
40
1
41
1
10
135.048452353882
20
11.1285927509896
30
0
41
1
10
135.043717370587
20
11.1284363019529
30
0
41
1
10
135.030436233742
20
11.1279977611817
30
0
41
1
10
134.999977556266
20
11.1269915990225
30
0
41
1
10
134.939989588882
20
11.1250103054961
30
0
41
1
10
134.871412868636
20
11.1227452037277
30
0
41
1
10
134.815702855901
20
11.1209051536079
30
0
41
1
10
134.792128317548
20
11.1201264728668
30
0
41
1
10
134.784632089491
20
11.1198789025238
30
0
41
1
10
134.780876358156
20
11.1197548106505
30
0
41
1
10
134.778982328802
20
11.1196923100929
30
0
41
1
10
134.778151155072
20
11.1196648534703
30
0
41
1
10
134.777854897227
20
11.1196550590111
30
0
0
SPLINE
5
24A
100
AcDbEntity
8
1
62
256
6
ByLayer
370
-1
48
1
60
0
100
AcDbSpline
70
4
71
3
72
15
73
11
40
0
40
0
40
0
40
0
40
0.250139710793267
40
0.500351579587037
40
0.750563448380806
40
0.875669382777691
40
0.938222349976133
40
0.969498833575355
40
0.985137075374965
40
1
40
1
40
1
40
1
41
1
10
136.394291421235
20
9.45273991172041
30
0
41
1
10
136.40285184726
20
9.44478555878493
30
0
41
1
10
136.419975168258
20
9.4288745587649
30
0
41
1
10
136.445656351243
20
9.40501158831509
30
0
41
1
10
136.467083727643
20
9.38510125746566
30
0
41
1
10
136.482031036402
20
9.3712122093078
30
0
41
1
10
136.489580207365
20
9.36419751517539
30
0
41
1
10
136.493241517972
20
9.36079542318942
30
0
41
1
10
136.495506734172
20
9.35869058295376
30
0
41
1
10
136.496109550235
20
9.35813044591083
30
0
41
1
10
136.497043360785
20
9.35726274859437
30
0
0
SPLINE
5
24B
100
AcDbEntity
8
1
62
256
6
ByLayer
370
-1
48
1
60
0
100
AcDbSpline
70
4
71
3
72
11
73
7
40
0
40
0
40
0
40
0
40
0.486341096000181
40
0.729511644000272
40
0.972682192000363
40
1
40
1
40
1
40
1
41
1
10
123.149913348166
20
10.7120749338369
30
0
41
1
10
123.144983709625
20
10.711902129493
30
0
41
1
10
123.137686601942
20
10.7116429397994
30
0
41
1
10
123.128790146726
20
10.7113200613347
30
0
41
1
10
123.124489378626
20
10.7111613293513
30
0
41
1
10
123.122360488737
20
10.7110819590403
30
0
41
1
10
123.122146386966
20
10.7110739711632
30
0
0
SPLINE
5
24C
100
AcDbEntity
8
1
62
256
6
ByLayer
370
-1
48
1
60
0
100
AcDbSpline
70
4
71
3
72
15
73
11
40
0
40
0
40
0
40
0
40
0.250244249035886
40
0.500488498071772
40
0.750732747107657
40
0.8758548716256
40
0.938415933884572
40
0.969696465014058
40
0.9853367305788
40
1
40
1
40
1
40
1
41
1
10
121.466397015765
20
9.22033747602774
30
0
41
1
10
121.45694401168
20
9.21741375898051
30
0
41
1
10
121.438038003509
20
9.21156632488604
30
0
41
1
10
121.409684477886
20
9.20279687070342
30
0
41
1
10
121.386030021143
20
9.19548079024909
30
0
41
1
10
121.369528413737
20
9.19037701260942
30
0
41
1
10
121.361195310547
20
9.18779966940363
30
0
41
1
10
121.357152208183
20
9.18654917937965
30
0
41
1
10
121.354661809458
20
9.18577892463918
30
0
41
1
10
121.354068600742
20
9.18559545127783
30
0
41
1
10
121.352949302668
20
9.18524926388261
30
0
0
SPLINE
5
24D
100
AcDbEntity
8
1
62
256
6
ByLayer
370
-1
48
1
60
0
100
AcDbSpline
70
4
71
3
72
8
73
4
40
0
40
0
40
0
40
0
40
1
40
1
40
1
40
1
41
1
10
135.291289120421
20
24.5446713280787
30
0
41
1
10
135.307555260483
20
24.5450918167206
30
0
41
1
10
135.323823865531
20
24.5454318286351
30
0
41
1
10
135.340092821771
20
24.5456933820258
30
0
0
SPLINE
5
24E
100
AcDbEntity
8
1
62
256
6
ByLayer
370
-1
48
1
60
0
100
AcDbSpline
70
4
71
3
72
9
73
5
40
0
40
0
40
0
40
0
40
0.375000000002084
40
1
40
1
40
1
40
1
41
1
10
136.661917559186
20
11.1849631141557
30
0
41
1
10
136.649377396903
20
11.1845268704469
30
0
41
1
10
136.615936964147
20
11.1833635538901
30
0
41
1
10
136.582496531392
20
11.1822002373333
30
0
41
1
10
136.561596260921
20
11.1814731644854
30
0
0
SPLINE
5
24F
100
AcDbEntity
8
1
62
256
6
ByLayer
370
-1
48
1
60
0
100
AcDbSpline
70
4
71
3
72
9
73
5
40
0
40
0
40
0
40
0
40
0.5
40
1
40
1
40
1
40
1
41
1
10
135.879958648926
20
24.2373580987542
30
0
41
1
10
135.923670070696
20
24.2009723785544
30
0
41
1
10
136.003671511523
20
24.114655994033
30
0
41
1
10
136.058987703055
20
24.0086105663468
30
0
41
1
10
136.079236276462
20
23.953477414897
30
0
0
SPLINE
5
250
100
AcDbEntity
8
1
62
256
6
ByLayer
370
-1
48
1
60
0
100
AcDbSpline
70
4
71
3
72
12
73
8
40
0
40
0
40
0
40
0
40
0.0285608994399022
40
0.0933235061439087
40
0.222848719551922
40
0.481899146367948
40
1
40
1
40
1
40
1
41
1
10
121.833927214518
20
10.6649157073097
30
0
41
1
10
121.829593949438
20
10.6647665560616
30
0
41
1
10
121.815438901784
20
10.6642794479249
30
0
41
1
10
121.781636374865
20
10.6631161526053
30
0
41
1
10
121.712873656249
20
10.6607497801295
30
0
41
1
10
121.57534736991
20
10.6560169683287
30
0
41
1
10
121.457467979317
20
10.6519602940787
30
0
41
1
10
121.378881652152
20
10.6492558397723
30
0
0
SPLINE
5
251
100
AcDbEntity
8
1
62
256
6
ByLayer
370
-1
48
1
60
0
100
AcDbSpline
70
4
71
3
72
8
73
4
40
0
40
0
40
0
40
0
40
1
40
1
40
1
40
1
41
1
10
136.698430117066
20
10.1353863020347
30
0
41
1
10
136.699484756254
20
10.1050694537957
30
0
41
1
10
136.700403482388
20
10.0747475485763
30
0
41
1
10
136.701182272658
20
10.0444222778686
30
0
0
SPLINE
5
252
100
AcDbEntity
8
1
62
256
6
ByLayer
370
-1
48
1
60
0
100
AcDbSpline
70
4
71
3
72
8
73
4
40
0
40
0
40
0
40
0
40
1
40
1
40
1
40
1
41
1
10
134.748511721423
20
11.1186540704209
30
0
41
1
10
134.758647888172
20
11.1190093852437
30
0
41
1
10
134.769040085518
20
11.1193638900049
30
0
41
1
10
134.777852104677
20
11.1196549468684
30
0
0
SPLINE
5
253
100
AcDbEntity
8
1
62
256
6
ByLayer
370
-1
48
1
60
0
100
AcDbSpline
70
4
71
3
72
8
73
4
40
0
40
0
40
0
40
0
40
1
40
1
40
1
40
1
41
1
10
120.846217895591
20
23.1293926130564
30
0
41
1
10
120.845799437554
20
23.1457204549684
30
0
41
1
10
120.845461362477
20
23.1620505579992
30
0
41
1
10
120.845200743811
20
23.1783817198054
30
0
0
SPLINE
5
254
100
AcDbEntity
8
1
62
256
6
ByLayer
370
-1
48
1
60
0
100
AcDbSpline
70
4
71
3
72
15
73
11
40
0
40
0
40
0
40
0
40
0.250244249035876
40
0.500488498071752
40
0.750732747107628
40
0.875854871625566
40
0.938415933884535
40
0.969696465014019
40
0.985336730578761
40
1
40
1
40
1
40
1
41
1
10
121.434278699441
20
23.9212364118225
30
0
41
1
10
121.431439761211
20
23.9307994593821
30
0
41
1
10
121.425761884751
20
23.9499255545014
30
0
41
1
10
121.417246717814
20
23.9786091466773
30
0
41
1
10
121.410142781229
20
24.0025389675883
30
0
41
1
10
121.40518699747
20
24.0192326720452
30
0
41
1
10
121.402684389304
20
24.0276627818186
30
0
41
1
10
121.401470159651
20
24.0317529503879
30
0
41
1
10
121.400722239933
20
24.0342723401226
30
0
41
1
10
121.400544086736
20
24.034872454447
30
0
41
1
10
121.400207937712
20
24.0360047823952
30
0
0
SPLINE
5
255
100
AcDbEntity
8
1
62
256
6
ByLayer
370
-1
48
1
60
0
100
AcDbSpline
70
4
71
3
72
9
73
5
40
0
40
0
40
0
40
0
40
0.625000000000086
40
1
40
1
40
1
40
1
41
1
10
121.812298066284
20
23.9725558277764
30
0
41
1
10
121.81173261724
20
23.9933764700059
30
0
41
1
10
121.810827898769
20
24.0266894975732
30
0
41
1
10
121.809923180298
20
24.0600025251405
30
0
41
1
10
121.809583910871
20
24.0724949104783
30
0
0
SPLINE
5
256
100
AcDbEntity
8
1
62
256
6
ByLayer
370
-1
48
1
60
0
100
AcDbSpline
70
4
71
3
72
8
73
4
40
0
40
0
40
0
40
0
40
1
40
1
40
1
40
1
41
1
10
135.828406129578
20
9.10490977393326
30
0
41
1
10
135.844661541176
20
9.10562847411069
30
0
41
1
10
135.860913635341
20
9.10642713246517
30
0
41
1
10
135.877161138694
20
9.10730542474892
30
0
0
SPLINE
5
257
100
AcDbEntity
8
1
62
256
6
ByLayer
370
-1
48
1
60
0
100
AcDbSpline
70
4
71
3
72
8
73
4
40
0
40
0
40
0
40
0
40
1
40
1
40
1
40
1
41
1
10
122.346729326699
20
8.63190663303286
30
0
41
1
10
122.316527859454
20
8.6308479815892
30
0
41
1
10
122.286320122127
20
8.62992452531495
30
0
41
1
10
122.256111047819
20
8.62914356283602
30
0
0
SPLINE
5
258
100
AcDbEntity
8
1
62
256
6
ByLayer
370
-1
48
1
60
0
100
AcDbSpline
70
4
71
3
72
22
73
18
40
0
40
0
40
0
40
0
40
0.0682063547119179
40
0.0682063547119179
40
0.161385719240713
40
0.161385719240713
40
0.254565083769508
40
0.254565083769508
40
0.347744448298303
40
0.347744448298303
40
0.440923812827098
40
0.440923812827098
40
0.627282541884732
40
0.627282541884732
40
0.813641270942366
40
0.813641270942366
40
1
40
1
40
1
40
1
41
1
10
134.79556941177
20
1.18704864022635
30
0
41
1
10
134.811595753645
20
1.18229454283909
30
0
41
1
10
134.828151676938
20
1.17675150041629
30
0
41
1
10
134.868722827897
20
1.16132328975456
30
0
41
1
10
134.892978957268
20
1.15063197188951
30
0
41
1
10
134.942834367467
20
1.12434831948266
30
0
41
1
10
134.968007078495
20
1.10890633242977
30
0
41
1
10
135.016350050622
20
1.07388201091385
30
0
41
1
10
135.038532258823
20
1.05501902178844
30
0
41
1
10
135.077941548777
20
1.0165994369238
30
0
41
1
10
135.094692863495
20
0.997629353925163
30
0
41
1
10
135.139140548261
20
0.941195064265429
30
0
41
1
10
135.159675491993
20
0.906335319192749
30
0
41
1
10
135.19261388994
20
0.839462511231261
30
0
41
1
10
135.204420000671
20
0.808158235758896
30
0
41
1
10
135.222838711928
20
0.748140483727582
30
0
41
1
10
135.229375690306
20
0.719417355605287
30
0
41
1
10
135.234122725115
20
0.691564607657938
30
0
0
SPLINE
5
259
100
AcDbEntity
8
1
62
256
6
ByLayer
370
-1
48
1
60
0
100
AcDbSpline
70
4
71
3
72
14
73
10
40
0
40
0
40
0
40
0
40
0.25
40
0.25
40
0.5
40
0.5
40
0.75
40
0.75
40
1
40
1
40
1
40
1
41
1
10
136.900049096012
20
-12.0794654732035
30
0
41
1
10
136.897281137902
20
-12.1585815794832
30
0
41
1
10
136.882713837581
20
-12.2368845885889
30
0
41
1
10
136.83119258203
20
-12.3862376590998
30
0
41
1
10
136.79419199395
20
-12.4571526052201
30
0
41
1
10
136.701264791078
20
-12.5848050093491
30
0
41
1
10
136.645050680333
20
-12.6418930308537
30
0
41
1
10
136.518789999873
20
-12.7368387528614
30
0
41
1
10
136.448681698663
20
-12.7748740793675
30
0
41
1
10
136.374152549057
20
-12.8019498752199
30
0
0
SPLINE
5
25A
100
AcDbEntity
8
1
62
256
6
ByLayer
370
-1
48
1
60
0
100
AcDbSpline
70
4
71
3
72
10
73
6
40
0
40
0
40
0
40
0
40
0.5
40
0.5
40
1
40
1
40
1
40
1
41
1
10
135.309116394523
20
-8.90276226950738
30
0
41
1
10
135.311237310285
20
-8.84122836521738
30
0
41
1
10
135.306348190819
20
-8.78063981101135
30
0
41
1
10
135.283070160783
20
-8.66128323962008
30
0
41
1
10
135.26443145426
20
-8.60217031662569
30
0
41
1
10
135.239256729067
20
-8.54596086971148
30
0
0
SPLINE
5
25B
100
AcDbEntity
8
1
62
256
6
ByLayer
370
-1
48
1
60
0
100
AcDbSpline
70
4
71
3
72
10
73
6
40
0
40
0
40
0
40
0
40
0.414631168620573
40
0.414631168620573
40
1
40
1
40
1
40
1
41
1
10
135.291078224377
20
-10.8336384685286
30
0
41
1
10
135.30051718826
20
-10.5676531192835
30
0
41
1
10
135.309948528799
20
-10.3016664529447
30
0
41
1
10
135.33267232567
20
-9.66016078745884
30
0
41
1
10
135.345955478025
20
-9.28464021222868
30
0
41
1
10
135.359214855558
20
-8.90911571458068
30
0
0
SPLINE
5
25C
100
AcDbEntity
8
1
62
256
6
ByLayer
370
-1
48
1
60
0
100
AcDbSpline
70
4
71
3
72
10
73
6
40
0
40
0
40
0
40
0
40
0.825424594715765
40
0.825424594715765
40
1
40
1
40
1
40
1
41
1
10
135.239256729067
20
-8.54596086971148
30
0
41
1
10
135.180480459567
20
-8.41472680161874
30
0
41
1
10
135.127927735899
20
-8.28118167203391
30
0
41
1
10
135.071764642501
20
-8.11660535451364
30
0
41
1
10
135.062237375892
20
-8.08776510025078
30
0
41
1
10
135.052991524762
20
-8.05883154002447
30
0
0
SPLINE
5
25D
100
AcDbEntity
8
1
62
256
6
ByLayer
370
-1
48
1
60
0
100
AcDbSpline
70
4
71
3
72
18
73
14
40
0
40
0
40
0
40
0
40
0.249999999999974
40
0.249999999999974
40
0.499999999999948
40
0.499999999999948
40
0.624999999999961
40
0.624999999999961
40
0.749999999999974
40
0.749999999999974
40
0.874999999999987
40
0.874999999999987
40
1
40
1
40
1
40
1
41
1
10
136.207139996545
20
-12.5957408206394
30
0
41
1
10
136.158425015239
20
-12.598403053742
30
0
41
1
10
136.107413048504
20
-12.602086916169
30
0
41
1
10
135.999756497896
20
-12.612638532711
30
0
41
1
10
135.943134615907
20
-12.6194541711783
30
0
41
1
10
135.850454474956
20
-12.633947934434
30
0
41
1
10
135.818248468085
20
-12.6395027058799
30
0
41
1
10
135.749923466035
20
-12.6527690797903
30
0
41
1
10
135.713441382183
20
-12.6605576145877
30
0
41
1
10
135.635993148827
20
-12.6792042622344
30
0
41
1
10
135.595536950914
20
-12.6899235936545
30
0
41
1
10
135.509432623396
20
-12.7155468039245
30
0
41
1
10
135.465531230154
20
-12.7299583557407
30
0
41
1
10
135.420905685098
20
-12.7461704305349
30
0
0
SPLINE
5
25E
100
AcDbEntity
8
1
62
256
6
ByLayer
370
-1
48
1
60
0
100
AcDbSpline
70
4
71
3
72
10
73
6
40
0
40
0
40
0
40
0
40
0.5
40
0.5
40
1
40
1
40
1
40
1
41
1
10
136.003372849133
20
-1.85832943065034
30
0
41
1
10
136.001571208069
20
-1.8240161919654
30
0
41
1
10
136.000361652596
20
-1.79087205826306
30
0
41
1
10
135.998947781894
20
-1.72656869202444
30
0
41
1
10
135.998748269643
20
-1.69512033366308
30
0
41
1
10
135.99896371591
20
-1.66537097306895
30
0
0
SPLINE
5
25F
100
AcDbEntity
8
1
62
256
6
ByLayer
370
-1
48
1
60
0
100
AcDbSpline
70
4
71
3
72
8
73
4
40
0
40
0
40
0
40
0
40
1
40
1
40
1
40
1
41
1
10
136.219159193423
20
-1.59538373419807
30
0
41
1
10
136.236197611057
20
-1.64210908684882
30
0
41
1
10
136.246020430051
20
-1.69029973146169
30
0
41
1
10
136.248627650407
20
-1.73995566803785
30
0
0
SPLINE
5
260
100
AcDbEntity
8
1
62
256
6
ByLayer
370
-1
48
1
60
0
100
AcDbSpline
70
4
71
3
72
14
73
10
40
0
40
0
40
0
40
0
40
0.0592437847918152
40
0.0592437847918152
40
0.37282918986121
40
0.37282918986121
40
0.686414594930605
40
0.686414594930605
40
1
40
1
40
1
40
1
41
1
10
134.821385639237
20
1.26844490455366
30
0
41
1
10
134.835760538363
20
1.26438880177344
30
0
41
1
10
134.850024764993
20
1.25992985033597
30
0
41
1
10
134.93897539507
20
1.2293595500374
30
0
41
1
10
135.010022859032
20
1.19242797551297
30
0
41
1
10
135.137913805556
20
1.09967410060554
30
0
41
1
10
135.195108506708
20
1.04356484050885
30
0
41
1
10
135.290231652557
20
0.917539661669565
30
0
41
1
10
135.328338055185
20
0.847562126573678
30
0
41
1
10
135.355464447227
20
0.773171988855353
30
0
0
SPLINE
5
261
100
AcDbEntity
8
1
62
256
6
ByLayer
370
-1
48
1
60
0
100
AcDbSpline
70
4
71
3
72
18
73
14
40
0
40
0
40
0
40
0
40
0.25
40
0.25
40
0.5
40
0.5
40
0.625
40
0.625
40
0.75
40
0.75
40
0.875
40
0.875
40
1
40
1
40
1
40
1
41
1
10
135.234122725115
20
0.691564607658989
30
0
41
1
10
135.24159284348
20
0.64773444159934
30
0
41
1
10
135.250026716047
20
0.60155190173279
30
0
41
1
10
135.269720906462
20
0.503201992530904
30
0
41
1
10
135.280943024462
20
0.451071269785842
30
0
41
1
10
135.301589457939
20
0.364678156440704
30
0
41
1
10
135.309117681723
20
0.334491630948179
30
0
41
1
10
135.326100115559
20
0.269978453063231
30
0
41
1
10
135.335648962698
20
0.235306917468733
30
0
41
1
10
135.357361802783
20
0.161028834293887
30
0
41
1
10
135.369371907614
20
0.121916467489456
30
0
41
1
10
135.396850299546
20
0.037776670821728
30
0
41
1
10
135.411779900443
20
-0.0055526351063406
30
0
41
1
10
135.428022270532
20
-0.0500949445257675
30
0
0
SPLINE
5
262
100
AcDbEntity
8
1
62
256
6
ByLayer
370
-1
48
1
60
0
100
AcDbSpline
70
4
71
3
72
10
73
6
40
0
40
0
40
0
40
0
40
0.5
40
0.5
40
1
40
1
40
1
40
1
41
1
10
135.969495258926
20
-1.52079903922856
30
0
41
1
10
135.978776594975
20
-1.54289442172151
30
0
41
1
10
135.986715793809
20
-1.56762635704618
30
0
41
1
10
135.99691305306
20
-1.61764154518946
30
0
41
1
10
135.999127687973
20
-1.642729299725
30
0
41
1
10
135.99896371591
20
-1.66537097306846
30
0
0
SPLINE
5
263
100
AcDbEntity
8
1
62
256
6
ByLayer
370
-1
48
1
60
0
100
AcDbSpline
70
4
71
3
72
8
73
4
40
0
40
0
40
0
40
0
40
1
40
1
40
1
40
1
41
1
10
135.215718926971
20
-10.97012380202
30
0
41
1
10
135.232012053792
20
-10.9244665289602
30
0
41
1
10
135.241383652155
20
-10.876244152751
30
0
41
1
10
135.243054424833
20
-10.8274001517763
30
0
0
SPLINE
5
264
100
AcDbEntity
8
1
62
256
6
ByLayer
370
-1
48
1
60
0
100
AcDbSpline
70
4
71
3
72
10
73
6
40
0
40
0
40
0
40
0
40
0.411501615201382
40
0.411501615201382
40
1
40
1
40
1
40
1
41
1
10
135.216915874656
20
-11.0837180222699
30
0
41
1
10
135.235512738223
20
-11.0527279342275
30
0
41
1
10
135.250956257636
20
-11.0197377567111
30
0
41
1
10
135.279510132679
20
-10.9372938210476
30
0
41
1
10
135.289245459114
20
-10.885665349235
30
0
41
1
10
135.291078224377
20
-10.8336384685286
30
0
0
SPLINE
5
265
100
AcDbEntity
8
1
62
256
6
ByLayer
370
-1
48
1
60
0
100
AcDbSpline
70
4
71
3
72
18
73
14
40
0
40
0
40
0
40
0
40
0.125
40
0.125
40
0.25
40
0.25
40
0.375000000000001
40
0.375000000000001
40
0.500000000000001
40
0.500000000000001
40
0.75
40
0.75
40
1
40
1
40
1
40
1
41
1
10
136.674486205876
20
-11.0239830950623
30
0
41
1
10
136.672848913085
20
-11.0707815744125
30
0
41
1
10
136.672205476524
20
-11.1179654643255
30
0
41
1
10
136.672653089567
20
-11.2086979320676
30
0
41
1
10
136.673724768985
20
-11.2524599249641
30
0
41
1
10
136.676931319611
20
-11.3346052425639
30
0
41
1
10
136.679087620539
20
-11.3738091385456
30
0
41
1
10
136.684074793588
20
-11.4484218691119
30
0
41
1
10
136.686882214031
20
-11.4835624123453
30
0
41
1
10
136.695926663941
20
-11.5846902112339
30
0
41
1
10
136.702772247768
20
-11.6464777282017
30
0
41
1
10
136.717331534239
20
-11.7640617243154
30
0
41
1
10
136.72507566369
20
-11.8198360700452
30
0
41
1
10
136.733036543499
20
-11.873256418624
30
0
0
SPLINE
5
266
100
AcDbEntity
8
1
62
256
6
ByLayer
370
-1
48
1
60
0
100
AcDbSpline
70
4
71
3
72
8
73
4
40
0
40
0
40
0
40
0
40
1
40
1
40
1
40
1
41
1
10
135.285440625196
20
-8.53016082543593
30
0
41
1
10
135.185964297948
20
-8.30707645710967
30
0
41
1
10
135.105128898868
20
-8.07875270351099
30
0
41
1
10
135.042470287746
20
-7.84531936753592
30
0
0
SPLINE
5
267
100
AcDbEntity
8
1
62
256
6
ByLayer
370
-1
48
1
60
0
100
AcDbSpline
70
4
71
3
72
26
73
22
40
0
40
0
40
0
40
0
40
0.124999999999988
40
0.124999999999988
40
0.249999999999976
40
0.249999999999976
40
0.374999999999964
40
0.374999999999964
40
0.437499999999956
40
0.437499999999956
40
0.499999999999948
40
0.499999999999948
40
0.562499999999941
40
0.562499999999941
40
0.624999999999934
40
0.624999999999934
40
0.749999999999956
40
0.749999999999956
40
0.874999999999978
40
0.874999999999978
40
1
40
1
40
1
40
1
41
1
10
136.733036543499
20
-11.8732564186239
30
0
41
1
10
136.738081825135
20
-11.9071120614884
30
0
41
1
10
136.741675098876
20
-11.9422089340796
30
0
41
1
10
136.744547880058
20
-12.0160599284569
30
0
41
1
10
136.743907802399
20
-12.0547467399242
30
0
41
1
10
136.735083241764
20
-12.1384763807122
30
0
41
1
10
136.727064744669
20
-12.1833526943637
30
0
41
1
10
136.703305289628
20
-12.2565036305873
30
0
41
1
10
136.693451501215
20
-12.2815704261412
30
0
41
1
10
136.668345469428
20
-12.3325572943802
30
0
41
1
10
136.653224118104
20
-12.3580318933255
30
0
41
1
10
136.618138496138
20
-12.406288837371
30
0
41
1
10
136.59889526607
20
-12.4280853228435
30
0
41
1
10
136.559180930843
20
-12.466200431405
30
0
41
1
10
136.539327425263
20
-12.4820741097538
30
0
41
1
10
136.479778410688
20
-12.5234352366284
30
0
41
1
10
136.442369271321
20
-12.5414522598428
30
0
41
1
10
136.370018194946
20
-12.5689859019664
30
0
41
1
10
136.335820763686
20
-12.5779406212356
30
0
41
1
10
136.269868957876
20
-12.5905139375169
30
0
41
1
10
136.23809689718
20
-12.5940490518371
30
0
41
1
10
136.207139996544
20
-12.5957408206403
30
0
0
SPLINE
5
268
100
AcDbEntity
8
1
62
256
6
ByLayer
370
-1
48
1
60
0
100
AcDbSpline
70
4
71
3
72
10
73
6
40
0
40
0
40
0
40
0
40
0.5
40
0.5
40
1
40
1
40
1
40
1
41
1
10
135.359214855558
20
-8.90911571458068
30
0
41
1
10
135.361517845313
20
-8.84370345551545
30
0
41
1
10
135.356368239887
20
-8.77936142559628
30
0
41
1
10
135.331809297203
20
-8.65272515873144
30
0
41
1
10
135.312117594501
20
-8.58995087858136
30
0
41
1
10
135.285440625196
20
-8.53016082543593
30
0
0
SPLINE
5
269
100
AcDbEntity
8
1
62
256
6
ByLayer
370
-1
48
1
60
0
100
AcDbSpline
70
4
71
3
72
10
73
6
40
0
40
0
40
0
40
0
40
0.5
40
0.5
40
1
40
1
40
1
40
1
41
1
10
135.896876120423
20
-1.33585762205331
30
0
41
1
10
135.908422947279
20
-1.36752309524528
30
0
41
1
10
135.920635743453
20
-1.39969942654344
30
0
41
1
10
135.945053288452
20
-1.46174642253664
30
0
41
1
10
135.95727081116
20
-1.49169721081529
30
0
41
1
10
135.969495258926
20
-1.52079903922865
30
0
0
SPLINE
5
26A
100
AcDbEntity
8
1
62
256
6
ByLayer
370
-1
48
1
60
0
100
AcDbSpline
70
4
71
3
72
10
73
6
40
0
40
0
40
0
40
0
40
0.310983025413771
40
0.310983025413771
40
1
40
1
40
1
40
1
41
1
10
135.243054424833
20
-10.8274001517763
30
0
41
1
10
135.249878948477
20
-10.6278894439751
30
0
41
1
10
135.25670929086
20
-10.4283789343423
30
0
41
1
10
135.278696098975
20
-9.78683181590023
30
0
41
1
10
135.293880620664
20
-9.34479616207804
30
0
41
1
10
135.309116394523
20
-8.90276226950738
30
0
0
SPLINE
5
26B
100
AcDbEntity
8
SK1
62
256
6
ByLayer
370
-1
48
1
60
0
100
AcDbSpline
70
4
71
3
72
8
73
4
40
0
40
0
40
0
40
0
40
1
40
1
40
1
40
1
41
1
10
-66.6
20
-9.10261500888609
30
0
41
1
10
-66.9484012097206
20
-8.8388177253639
30
0
41
1
10
-67.2932836983816
20
-8.56864972916986
30
0
41
1
10
-67.6338144512153
20
-8.2906028309236
30
0
0
SPLINE
5
26C
100
AcDbEntity
8
SK1
62
256
6
ByLayer
370
-1
48
1
60
0
100
AcDbSpline
70
4
71
3
72
8
73
4
40
0
40
0
40
0
40
0
40
1
40
1
40
1
40
1
41
1
10
-68.5162227297291
20
-8.87304222606727
30
0
41
1
10
-68.5439066952102
20
-8.94968599658964
30
0
41
1
10
-68.571834450002
20
-9.02620926996545
30
0
41
1
10
-68.6
20
-9.10261500888612
30
0
0
SPLINE
5
26D
100
AcDbEntity
8
SK1
62
256
6
ByLayer
370
-1
48
1
60
0
100
AcDbSpline
70
4
71
3
72
72
73
68
40
0
40
0
40
0
40
0
40
0.0156250000000003
40
0.0156250000000003
40
0.0312500000000005
40
0.0312500000000005
40
0.0468750000000008
40
0.0468750000000008
40
0.062500000000001
40
0.062500000000001
40
0.0937500000000014
40
0.0937500000000014
40
0.109375000000002
40
0.109375000000002
40
0.125000000000002
40
0.125000000000002
40
0.156250000000002
40
0.156250000000002
40
0.187500000000002
40
0.187500000000002
40
0.218750000000001
40
0.218750000000001
40
0.250000000000001
40
0.250000000000001
40
0.312500000000001
40
0.312500000000001
40
0.375000000000002
40
0.375000000000002
40
0.406250000000002
40
0.406250000000002
40
0.437500000000002
40
0.437500000000002
40
0.500000000000002
40
0.500000000000002
40
0.562500000000002
40
0.562500000000002
40
0.625000000000002
40
0.625000000000002
40
0.687500000000002
40
0.687500000000002
40
0.718750000000002
40
0.718750000000002
40
0.750000000000002
40
0.750000000000002
40
0.812500000000002
40
0.812500000000002
40
0.843750000000001
40
0.843750000000001
40
0.859375000000001
40
0.859375000000001
40
0.875000000000001
40
0.875000000000001
40
0.906250000000001
40
0.906250000000001
40
0.921875000000001
40
0.921875000000001
40
0.937500000000001
40
0.937500000000001
40
0.953125000000001
40
0.953125000000001
40
0.96875
40
0.96875
40
0.9765625
40
0.9765625
40
0.984375
40
0.984375
40
1
40
1
40
1
40
1
41
1
10
-6.5
20
-9.10261500888618
30
0
41
1
10
-6.38914660019725
20
-9.1026150088862
30
0
41
1
10
-6.27612961385466
20
-9.09015098385046
30
0
41
1
10
-6.05985917895461
20
-9.04281130004992
30
0
41
1
10
-5.95475985097423
20
-9.00792576349431
30
0
41
1
10
-5.75343258145492
20
-8.91941414226187
30
0
41
1
10
-5.65919810333844
20
-8.86684398682266
30
0
41
1
10
-5.48088894318994
20
-8.74834825662376
30
0
41
1
10
-5.39640443529882
20
-8.68198569080923
30
0
41
1
10
-5.15892238475899
20
-8.4684605676342
30
0
41
1
10
-5.02365441240056
20
-8.30974008062717
30
0
41
1
10
-4.84296399719619
20
-8.05482884459988
30
0
41
1
10
-4.78642322072847
20
-7.96675301550394
30
0
41
1
10
-4.68042079967142
20
-7.78654390286022
30
0
41
1
10
-4.63122526195846
20
-7.69491452027412
30
0
41
1
10
-4.49299887645103
20
-7.41608134345648
30
0
41
1
10
-4.41323038468988
20
-7.22496300624556
30
0
41
1
10
-4.27152687943763
20
-6.8343560263894
30
0
41
1
10
-4.20965906429049
20
-6.6348461887967
30
0
41
1
10
-4.09961007502051
20
-6.2286775881141
30
0
41
1
10
-4.05150917072524
20
-6.02203194443632
30
0
41
1
10
-3.96692144189856
20
-5.6074574550413
30
0
41
1
10
-3.93025488815388
20
-5.39884469275898
30
0
41
1
10
-3.83321097175369
20
-4.76942146087168
30
0
41
1
10
-3.78559277520367
20
-4.34504706257979
30
0
41
1
10
-3.7112361899147
20
-3.48808137992401
30
0
41
1
10
-3.68460707386046
20
-3.05547999795235
30
0
41
1
10
-3.65470782442822
20
-2.40091890566339
30
0
41
1
10
-3.64643900603767
20
-2.18145148399697
30
0
41
1
10
-3.63274891948819
20
-1.74230735687166
30
0
41
1
10
-3.62733252136272
20
-1.52296705685933
30
0
41
1
10
-3.61463310465442
20
-0.865617065631682
30
0
41
1
10
-3.61080933488054
20
-0.428275684574771
30
0
41
1
10
-3.61090950897167
20
0.444684991040077
30
0
41
1
10
-3.61483745040269
20
0.88030412472645
30
0
41
1
10
-3.63179619285316
20
1.74979970758309
30
0
41
1
10
-3.64481102904037
20
2.18367646184913
30
0
41
1
10
-3.68431141261161
20
3.04958358359085
30
0
41
1
10
-3.71074384326306
20
3.48161507013518
30
0
41
1
10
-3.76673696017031
20
4.12812283873399
30
0
41
1
10
-3.78821526595235
20
4.34375014492497
30
0
41
1
10
-3.83787895821774
20
4.77101649951717
30
0
41
1
10
-3.86607610819138
20
4.9829568382882
30
0
41
1
10
-3.96342969061479
20
5.61325776204001
30
0
41
1
10
-4.04484226281082
20
6.02618785295124
30
0
41
1
10
-4.20877761048993
20
6.63176810724454
30
0
41
1
10
-4.27047938114893
20
6.83131020667685
30
0
41
1
10
-4.37747378301123
20
7.12647785984242
30
0
41
1
10
-4.41562361112287
20
7.22427655673613
30
0
41
1
10
-4.49679279030673
20
7.41629459142595
30
0
41
1
10
-4.5398877733324
20
7.51074836914336
30
0
41
1
10
-4.67791145216944
20
7.78892537172752
30
0
41
1
10
-4.78135481362554
20
7.96756739375849
30
0
41
1
10
-4.96130737226687
20
8.22195198147358
30
0
41
1
10
-5.02546297402537
20
8.30446540137604
30
0
41
1
10
-5.16438164479459
20
8.46391044858186
30
0
41
1
10
-5.23841496286948
20
8.53994273964545
30
0
41
1
10
-5.39629023089529
20
8.68187427767452
30
0
41
1
10
-5.4804954947721
20
8.74813957968226
30
0
41
1
10
-5.66096910628903
20
8.86796771603022
30
0
41
1
10
-5.75541196182655
20
8.92033547523616
30
0
41
1
10
-5.90448373735469
20
8.98579651940287
30
0
41
1
10
-5.95541416893875
20
9.00542573092372
30
0
41
1
10
-6.06002939197239
20
9.03984379515771
30
0
41
1
10
-6.1141052041134
20
9.05470732343474
30
0
41
1
10
-6.277583542549
20
9.09042477028081
30
0
41
1
10
-6.38802552881097
20
9.10261500888618
30
0
41
1
10
-6.5
20
9.1026150088862
30
0
0
SPLINE
5
26E
100
AcDbEntity
8
SK1
62
256
6
ByLayer
370
-1
48
1
60
0
100
AcDbSpline
70
4
71
3
72
20
73
16
40
0
40
0
40
0
40
0
40
0.125000000000019
40
0.125000000000019
40
0.187500000000028
40
0.187500000000028
40
0.250000000000038
40
0.250000000000038
40
0.375000000000024
40
0.375000000000024
40
0.50000000000001
40
0.50000000000001
40
0.750000000000005
40
0.750000000000005
40
1
40
1
40
1
40
1
41
1
10
-67.6338144512151
20
-8.29060283092329
30
0
41
1
10
-67.6746000935235
20
-8.25730093016261
30
0
41
1
10
-67.7199836490945
20
-8.22876323292448
30
0
41
1
10
-67.7948550962205
20
-8.20056981372309
30
0
41
1
10
-67.8205420829085
20
-8.19379354056497
30
0
41
1
10
-67.8728129362724
20
-8.18630243082055
30
0
41
1
10
-67.8998340844743
20
-8.1856286499503
30
0
41
1
10
-67.9787783127119
20
-8.19310764466417
30
0
41
1
10
-68.0301252704948
20
-8.21095104743222
30
0
41
1
10
-68.1222359195847
20
-8.26210721442101
30
0
41
1
10
-68.1643255549633
20
-8.29567338223035
30
0
41
1
10
-68.2768770736766
20
-8.40615789436035
30
0
41
1
10
-68.3371994967397
20
-8.49473748926303
30
0
41
1
10
-68.4387470357031
20
-8.67793923211124
30
0
41
1
10
-68.4804562077026
20
-8.77402168984949
30
0
41
1
10
-68.5162227297291
20
-8.87304222606727
30
0
0
SPLINE
5
26F
100
AcDbEntity
8
SK1
62
256
6
ByLayer
370
-1
48
1
60
0
100
AcDbSpline
70
4
71
3
72
8
73
4
40
0
40
0
40
0
40
0
40
1
40
1
40
1
40
1
41
1
10
-70
20
6.62311105146222
30
0
41
1
10
-69.7055026821388
20
7.46777015601646
30
0
41
1
10
-69.3687115489839
20
8.29265478028327
30
0
41
1
10
-69
20
9.10261500888626
30
0
0
SPLINE
5
270
100
AcDbEntity
8
SK1
62
256
6
ByLayer
370
-1
48
1
60
0
100
AcDbSpline
70
4
71
3
72
8
73
4
40
0
40
0
40
0
40
0
40
1
40
1
40
1
40
1
41
1
10
-68.6
20
9.10261500888626
30
0
41
1
10
-68.571834450002
20
9.02620926996562
30
0
41
1
10
-68.5439066952102
20
8.94968599658984
30
0
41
1
10
-68.516222729729
20
8.87304222606744
30
0
0
SPLINE
5
271
100
AcDbEntity
8
SK1
62
256
6
ByLayer
370
-1
48
1
60
0
100
AcDbSpline
70
4
71
3
72
20
73
16
40
0
40
0
40
0
40
0
40
0.249999999999997
40
0.249999999999997
40
0.374999999999998
40
0.374999999999998
40
0.499999999999998
40
0.499999999999998
40
0.624999999999999
40
0.624999999999999
40
0.749999999999999
40
0.749999999999999
40
0.875
40
0.875
40
1
40
1
40
1
40
1
41
1
10
-68.5162227297303
20
8.87304222606699
30
0
41
1
10
-68.4805102229812
20
8.77417123253394
30
0
41
1
10
-68.4382573152345
20
8.67693148618665
30
0
41
1
10
-68.3621710721186
20
8.53985159931514
30
0
41
1
10
-68.3346894685715
20
8.49562896904695
30
0
41
1
10
-68.2739659602408
20
8.41118058772861
30
0
41
1
10
-68.2407881315988
20
8.37091037639976
30
0
41
1
10
-68.1654488761744
20
8.29660337023134
30
0
41
1
10
-68.123541484252
20
8.2629600402953
30
0
41
1
10
-68.0305243323762
20
8.21104725205689
30
0
41
1
10
-67.9795833203366
20
8.19319188549028
30
0
41
1
10
-67.872813969243
20
8.18306085753042
30
0
41
1
10
-67.8196144054522
20
8.19122791676685
30
0
41
1
10
-67.7199392264586
20
8.22879859450236
30
0
41
1
10
-67.6749143258214
20
8.2570443562262
30
0
41
1
10
-67.6338144512151
20
8.29060283092346
30
0
0
SPLINE
5
272
100
AcDbEntity
8
SK1
62
256
6
ByLayer
370
-1
48
1
60
0
100
AcDbSpline
70
4
71
3
72
8
73
4
40
0
40
0
40
0
40
0
40
1
40
1
40
1
40
1
41
1
10
-69
20
-9.10261500888609
30
0
41
1
10
-69.3687115489839
20
-8.2926547802831
30
0
41
1
10
-69.7055026821388
20
-7.46777015601629
30
0
41
1
10
-70
20
-6.62311105146205
30
0
0
SPLINE
5
273
100
AcDbEntity
8
SK1
62
256
6
ByLayer
370
-1
48
1
60
0
100
AcDbSpline
70
4
71
3
72
8
73
4
40
0
40
0
40
0
40
0
40
1
40
1
40
1
40
1
41
1
10
-67.6338144512152
20
8.29060283092377
30
0
41
1
10
-67.2932836983815
20
8.56864972917003
30
0
41
1
10
-66.9484012097206
20
8.83881772536409
30
0
41
1
10
-66.6
20
9.10261500888626
30
0
0
LINE
5
45
100
AcDbEntity
8
80
62
256
6
ByLayer
370
-1
48
1
60
0
100
AcDbLine
10
0
20
0
30
0
11
-7
21
0
31
0
39
0
210
0
220
0
230
1
0
LINE
5
46
100
AcDbEntity
8
81
62
256
6
ByLayer
370
-1
48
1
60
0
100
AcDbLine
10
137
20
0
30
0
11
144
21
0
31
0
39
0
210
0
220
0
230
1
0
LINE
5
47
100
AcDbEntity
8
1
62
256
6
ByLayer
370
-1
48
1
60
0
100
AcDbLine
10
0.2
20
31.25
30
0
11
0
21
31.05
31
0
39
0
210
0
220
0
230
1
0
LINE
5
49
100
AcDbEntity
8
1
62
256
6
ByLayer
370
-1
48
1
60
0
100
AcDbLine
10
0
20
-31.05
30
0
11
0.2
21
-31.25
31
0
39
0
210
0
220
0
230
1
0
LINE
5
4A
100
AcDbEntity
8
1
62
256
6
ByLayer
370
-1
48
1
60
0
100
AcDbLine
10
5
20
31.25
30
0
11
0.2
21
31.25
31
0
39
0
210
0
220
0
230
1
0
LINE
5
4B
100
AcDbEntity
8
1
62
256
6
ByLayer
370
-1
48
1
60
0
100
AcDbLine
10
0.2
20
-31.25
30
0
11
5
21
-31.25
31
0
39
0
210
0
220
0
230
1
0
LINE
5
4C
100
AcDbEntity
8
1
62
256
6
ByLayer
370
-1
48
1
60
0
100
AcDbLine
10
38.40047
20
23.8
30
0
11
34
21
23.8
31
0
39
0
210
0
220
0
230
1
0
LINE
5
4D
100
AcDbEntity
8
1
62
256
6
ByLayer
370
-1
48
1
60
0
100
AcDbLine
10
34
20
-23.8
30
0
11
40.654286
21
-23.8
31
0
39
0
210
0
220
0
230
1
0
LINE
5
4E
100
AcDbEntity
8
SK1
62
256
6
ByLayer
370
-1
48
1
60
0
100
AcDbLine
10
-2
20
19.996
30
0
11
-66.6
21
19.996
31
0
39
0
210
0
220
0
230
1
0
LINE
5
50
100
AcDbEntity
8
SK1
62
256
6
ByLayer
370
-1
48
1
60
0
100
AcDbLine
10
-66.6
20
-19.996
30
0
11
-2
21
-19.996
31
0
39
0
210
0
220
0
230
1
0
LINE
5
51
100
AcDbEntity
8
SK1
62
256
6
ByLayer
370
-1
48
1
60
0
100
AcDbLine
10
-2
20
-19.996
30
0
11
-1.552821
21
-19.787477
31
0
39
0
210
0
220
0
230
1
0
LINE
5
52
100
AcDbEntity
8
SK1
62
256
6
ByLayer
370
-1
48
1
60
0
100
AcDbLine
10
-1.552821
20
19.787477
30
0
11
-2
21
19.996
31
0
39
0
210
0
220
0
230
1
0
LINE
5
53
100
AcDbEntity
8
SK1
62
256
6
ByLayer
370
-1
48
1
60
0
100
AcDbLine
10
-0.15
20
19.75
30
0
11
-1.383773
21
19.75
31
0
39
0
210
0
220
0
230
1
0
LINE
5
54
100
AcDbEntity
8
SK1
62
256
6
ByLayer
370
-1
48
1
60
0
100
AcDbLine
10
-1.383773
20
-19.75
30
0
11
-0.15
21
-19.75
31
0
39
0
210
0
220
0
230
1
0
LINE
5
55
100
AcDbEntity
8
SK1
62
256
6
ByLayer
370
-1
48
1
60
0
100
AcDbLine
10
-66.6
20
19.996
30
0
11
-67.633814
21
19.639667
31
0
39
0
210
0
220
0
230
1
0
LINE
5
56
100
AcDbEntity
8
SK1
62
256
6
ByLayer
370
-1
48
1
60
0
100
AcDbLine
10
-67.633814
20
-19.639667
30
0
11
-66.6
21
-19.996
31
0
39
0
210
0
220
0
230
1
0
LINE
5
57
100
AcDbEntity
8
SK1
62
256
6
ByLayer
370
-1
48
1
60
0
100
AcDbLine
10
-69
20
19.996
30
0
11
-70
21
18.996
31
0
39
0
210
0
220
0
230
1
0
LINE
5
58
100
AcDbEntity
8
SK1
62
256
6
ByLayer
370
-1
48
1
60
0
100
AcDbLine
10
-70
20
-18.996
30
0
11
-69
21
-19.996
31
0
39
0
210
0
220
0
230
1
0
LINE
5
59
100
AcDbEntity
8
SK1
62
256
6
ByLayer
370
-1
48
1
60
0
100
AcDbLine
10
-68.6
20
-19.996
30
0
11
-68.516223
21
-19.892544
31
0
39
0
210
0
220
0
230
1
0
LINE
5
5A
100
AcDbEntity
8
SK1
62
256
6
ByLayer
370
-1
48
1
60
0
100
AcDbLine
10
-68.516223
20
19.892544
30
0
11
-68.6
21
19.996
31
0
39
0
210
0
220
0
230
1
0
LINE
5
5B
100
AcDbEntity
8
SK1
62
256
6
ByLayer
370
-1
48
1
60
0
100
AcDbLine
10
-68.6
20
19.996
30
0
11
-69
21
19.996
31
0
39
0
210
0
220
0
230
1
0
LINE
5
5C
100
AcDbEntity
8
SK1
62
256
6
ByLayer
370
-1
48
1
60
0
100
AcDbLine
10
-69
20
-19.996
30
0
11
-68.6
21
-19.996
31
0
39
0
210
0
220
0
230
1
0
LINE
5
5D
100
AcDbEntity
8
SK4
62
256
6
ByLayer
370
-1
48
0.05
60
0
100
AcDbLine
10
137
20
0
30
0
11
-70
21
0
31
0
39
0
210
0
220
0
230
1
0
LINE
5
5F
100
AcDbEntity
8
4
62
256
6
ByLayer
370
-1
48
0.05
60
0
100
AcDbLine
10
137
20
0
30
0
11
0
21
0
31
0
39
0
210
0
220
0
230
1
0
LINE
5
61
100
AcDbEntity
8
1
62
256
6
ByLayer
370
-1
48
1
60
0
100
AcDbLine
10
115.655755
20
14.800387
30
0
11
92.347004
21
16.897086
31
0
39
0
210
0
220
0
230
1
0
LINE
5
62
100
AcDbEntity
8
1
62
256
6
ByLayer
370
-1
48
1
60
0
100
AcDbLine
10
134.480991
20
8.835563
30
0
11
135.136167
21
8.801096
31
0
39
0
210
0
220
0
230
1
0
LINE
5
63
100
AcDbEntity
8
1
62
256
6
ByLayer
370
-1
48
1
60
0
100
AcDbLine
10
135.232352
20
-13.26111
30
0
11
135.749407
21
-13.323567
31
0
39
0
210
0
220
0
230
1
0
LINE
5
64
100
AcDbEntity
8
1
62
256
6
ByLayer
370
-1
48
1
60
0
100
AcDbLine
10
111.781031
20
5.251231
30
0
11
111.474342
21
4.196155
31
0
39
0
210
0
220
0
230
1
0
LINE
5
65
100
AcDbEntity
8
1
62
256
6
ByLayer
370
-1
48
1
60
0
100
AcDbLine
10
113.854857
20
10.960943
30
0
11
112.789755
21
11.414779
31
0
39
0
210
0
220
0
230
1
0
LINE
5
66
100
AcDbEntity
8
1
62
256
6
ByLayer
370
-1
48
1
60
0
100
AcDbLine
10
120.831364
20
16.160824
30
0
11
120.58795
21
23.794506
31
0
39
0
210
0
220
0
230
1
0
LINE
5
67
100
AcDbEntity
8
1
62
256
6
ByLayer
370
-1
48
1
60
0
100
AcDbLine
10
135.136167
20
8.801096
30
0
11
134.818546
21
8.805869
31
0
39
0
210
0
220
0
230
1
0
LINE
5
68
100
AcDbEntity
8
1
62
256
6
ByLayer
370
-1
48
1
60
0
100
AcDbLine
10
120.594098
20
10.100375
30
0
11
120.951437
21
10.100375
31
0
39
0
210
0
220
0
230
1
0
LINE
5
69
100
AcDbEntity
8
1
62
256
6
ByLayer
370
-1
48
1
60
0
100
AcDbLine
10
134.74624
20
1.27139
30
0
11
134.817601
21
1.233346
31
0
39
0
210
0
220
0
230
1
0
LINE
5
6A
100
AcDbEntity
8
1
62
256
6
ByLayer
370
-1
48
1
60
0
100
AcDbLine
10
120.957613
20
23.765444
30
0
11
120.959798
21
23.696916
31
0
39
0
210
0
220
0
230
1
0
LINE
5
6B
100
AcDbEntity
8
1
62
256
6
ByLayer
370
-1
48
1
60
0
100
AcDbLine
10
34
20
23.8
30
0
11
34
21
-5.40227
31
0
39
0
210
0
220
0
230
1
0
LINE
5
6C
100
AcDbEntity
8
1
62
256
6
ByLayer
370
-1
48
1
60
0
100
AcDbLine
10
121.143545
20
8.634749
30
0
11
121.19165
21
8.634749
31
0
39
0
210
0
220
0
230
1
0
LINE
5
6D
100
AcDbEntity
8
1
62
256
6
ByLayer
370
-1
48
1
60
0
100
AcDbLine
10
120.428956
20
14.847481
30
0
11
120.786295
21
14.847481
31
0
39
0
210
0
220
0
230
1
0
LINE
5
6E
100
AcDbEntity
8
1
62
256
6
ByLayer
370
-1
48
1
60
0
100
AcDbLine
10
134.694141
20
1.181633
30
0
11
134.796239
21
1.178074
31
0
39
0
210
0
220
0
230
1
0
LINE
5
6F
100
AcDbEntity
8
1
62
256
6
ByLayer
370
-1
48
1
60
0
100
AcDbLine
10
121.05204
20
16.357428
30
0
11
121.08139
21
16.357428
31
0
39
0
210
0
220
0
230
1
0
LINE
5
70
100
AcDbEntity
8
1
62
256
6
ByLayer
370
-1
48
1
60
0
100
AcDbLine
10
134.818546
20
8.805869
30
0
11
134.270187
21
8.835563
31
0
39
0
210
0
220
0
230
1
0
LINE
5
71
100
AcDbEntity
8
1
62
256
6
ByLayer
370
-1
48
1
60
0
100
AcDbLine
10
115.762498
20
14.9
30
0
11
117.366205
21
14.9
31
0
39
0
210
0
220
0
230
1
0
LINE
5
72
100
AcDbEntity
8
1
62
256
6
ByLayer
370
-1
48
1
60
0
100
AcDbLine
10
134.636663
20
-0.039521
30
0
11
135.256321
21
-11.841241
31
0
39
0
210
0
220
0
230
1
0
LINE
5
73
100
AcDbEntity
8
1
62
256
6
ByLayer
370
-1
48
1
60
0
100
AcDbLine
10
34
20
-23.8
30
0
11
34
21
-23.646685
31
0
39
0
210
0
220
0
230
1
0
LINE
5
74
100
AcDbEntity
8
1
62
256
6
ByLayer
370
-1
48
1
60
0
100
AcDbLine
10
134.817601
20
1.233346
30
0
11
135.540897
21
9.094377
31
0
39
0
210
0
220
0
230
1
0
LINE
5
75
100
AcDbEntity
8
1
62
256
6
ByLayer
370
-1
48
1
60
0
100
AcDbLine
10
5
20
31.25
30
0
11
5
21
-31.25
31
0
39
0
210
0
220
0
230
1
0
LINE
5
76
100
AcDbEntity
8
1
62
256
6
ByLayer
370
-1
48
1
60
0
100
AcDbLine
10
134.641448
20
0.524886
30
0
11
134.636663
21
-0.039521
31
0
39
0
210
0
220
0
230
1
0
LINE
5
77
100
AcDbEntity
8
1
62
256
6
ByLayer
370
-1
48
1
60
0
100
AcDbLine
10
123.705937
20
8.465242
30
0
11
134.270187
21
8.835563
31
0
39
0
210
0
220
0
230
1
0
LINE
5
78
100
AcDbEntity
8
1
62
256
6
ByLayer
370
-1
48
1
60
0
100
AcDbLine
10
134.796239
20
1.178074
30
0
11
134.817601
21
1.233346
31
0
39
0
210
0
220
0
230
1
0
LINE
5
79
100
AcDbEntity
8
1
62
256
6
ByLayer
370
-1
48
1
60
0
100
AcDbLine
10
120.831364
20
16.160824
30
0
11
120.84666
21
16.160824
31
0
39
0
210
0
220
0
230
1
0
LINE
5
7A
100
AcDbEntity
8
1
62
256
6
ByLayer
370
-1
48
1
60
0
100
AcDbLine
10
134.270187
20
8.835563
30
0
11
134.480917
21
8.835563
31
0
39
0
210
0
220
0
230
1
0
LINE
5
7B
100
AcDbEntity
8
1
62
256
6
ByLayer
370
-1
48
1
60
0
100
AcDbLine
10
135.256321
20
-11.841241
30
0
11
135.209344
21
-12.370876
31
0
39
0
210
0
220
0
230
1
0
LINE
5
7C
100
AcDbEntity
8
1
62
256
6
ByLayer
370
-1
48
1
60
0
100
AcDbLine
10
115.762498
20
23.767757
30
0
11
115.762498
21
14.9
31
0
39
0
210
0
220
0
230
1
0
LINE
5
7D
100
AcDbEntity
8
1
62
256
6
ByLayer
370
-1
48
1
60
0
100
AcDbLine
10
134.636663
20
-0.039521
30
0
11
132.279256
21
1.010875
31
0
39
0
210
0
220
0
230
1
0
LINE
5
7E
100
AcDbEntity
8
1
62
256
6
ByLayer
370
-1
48
1
60
0
100
AcDbLine
10
135.256321
20
-11.841241
30
0
11
133.314258
21
-10.975911
31
0
39
0
210
0
220
0
230
1
0
LINE
5
7F
100
AcDbEntity
8
1
62
256
6
ByLayer
370
-1
48
1
60
0
100
AcDbLine
10
134.734208
20
1.271809
30
0
11
134.74624
21
1.27139
31
0
39
0
210
0
220
0
230
1
0
LINE
5
80
100
AcDbEntity
8
1
62
256
6
ByLayer
370
-1
48
1
60
0
100
AcDbLine
10
120.317655
20
2.551412
30
0
11
121.937811
21
8.125086
31
0
39
0
210
0
220
0
230
1
0
LINE
5
81
100
AcDbEntity
8
1
62
256
6
ByLayer
370
-1
48
1
60
0
100
AcDbLine
10
120.603386
20
23.790107
30
0
11
120.84666
21
16.160824
31
0
39
0
210
0
220
0
230
1
0
LINE
5
82
100
AcDbEntity
8
1
62
256
6
ByLayer
370
-1
48
1
60
0
100
AcDbLine
10
0.2
20
31.25
30
0
11
0.2
21
-31.25
31
0
39
0
210
0
220
0
230
1
0
LINE
5
83
100
AcDbEntity
8
1
62
256
6
ByLayer
370
-1
48
1
60
0
100
AcDbLine
10
120.428956
20
14.847481
30
0
11
120.594098
21
10.100375
31
0
39
0
210
0
220
0
230
1
0
LINE
5
84
100
AcDbEntity
8
1
62
256
6
ByLayer
370
-1
48
1
60
0
100
AcDbLine
10
120.786295
20
14.847481
30
0
11
120.951437
21
10.100375
31
0
39
0
210
0
220
0
230
1
0
LINE
5
85
100
AcDbEntity
8
1
62
256
6
ByLayer
370
-1
48
1
60
0
100
AcDbLine
10
118.76361
20
-23.773471
30
0
11
134.822533
21
-23.773471
31
0
39
0
210
0
220
0
230
1
0
LINE
5
86
100
AcDbEntity
8
1
62
256
6
ByLayer
370
-1
48
1
60
0
100
AcDbLine
10
117.366205
20
23.786778
30
0
11
117.366205
21
14.9
31
0
39
0
210
0
220
0
230
1
0
LINE
5
87
100
AcDbEntity
8
1
62
256
6
ByLayer
370
-1
48
1
60
0
100
AcDbLine
10
0
20
31.05
30
0
11
0
21
-31.05
31
0
39
0
210
0
220
0
230
1
0
LINE
5
88
100
AcDbEntity
8
1
62
256
6
ByLayer
370
-1
48
1
60
0
100
AcDbLine
10
132.306562
20
3.272092
30
0
11
134.818546
21
8.805869
31
0
39
0
210
0
220
0
230
1
0
LINE
5
89
100
AcDbEntity
8
1
62
256
6
ByLayer
370
-1
48
1
60
0
100
AcDbLine
10
134.822533
20
-23.773471
30
0
11
135.749407
21
-13.323567
31
0
39
0
210
0
220
0
230
1
0
LINE
5
8A
100
AcDbEntity
8
1
62
256
6
ByLayer
370
-1
48
1
60
0
100
AcDbLine
10
122.755311
20
22.055161
30
0
11
123.149913
21
10.712075
31
0
39
0
210
0
220
0
230
1
0
LINE
5
8B
100
AcDbEntity
8
1
62
256
6
ByLayer
370
-1
48
1
60
0
100
AcDbLine
10
134.204688
20
23.279919
30
0
11
122.904766
21
22.88381
31
0
39
0
210
0
220
0
230
1
0
LINE
5
8C
100
AcDbEntity
8
1
62
256
6
ByLayer
370
-1
48
1
60
0
100
AcDbLine
10
134.630707
20
10.678905
30
0
11
123.330785
21
10.282795
31
0
39
0
210
0
220
0
230
1
0
LINE
5
8D
100
AcDbEntity
8
1
62
256
6
ByLayer
370
-1
48
1
60
0
100
AcDbLine
10
134.680707
20
9.613046
30
0
11
123.380785
21
9.216936
31
0
39
0
210
0
220
0
230
1
0
LINE
5
8E
100
AcDbEntity
8
1
62
256
6
ByLayer
370
-1
48
1
60
0
100
AcDbLine
10
134.670285
20
9.966911
30
0
11
123.370363
21
9.570802
31
0
39
0
210
0
220
0
230
1
0
LINE
5
8F
100
AcDbEntity
8
1
62
256
6
ByLayer
370
-1
48
1
60
0
100
AcDbLine
10
135.448216
20
11.142173
30
0
11
135.053614
21
22.485259
31
0
39
0
210
0
220
0
230
1
0
LINE
5
90
100
AcDbEntity
8
1
62
256
6
ByLayer
370
-1
48
1
60
0
100
AcDbLine
10
134.181716
20
23.956879
30
0
11
122.881794
21
23.560769
31
0
39
0
210
0
220
0
230
1
0
LINE
5
91
100
AcDbEntity
8
1
62
256
6
ByLayer
370
-1
48
1
60
0
100
AcDbLine
10
133.074099
20
21.546413
30
0
11
130.087335
21
21.441715
31
0
39
0
210
0
220
0
230
1
0
LINE
5
92
100
AcDbEntity
8
1
62
256
6
ByLayer
370
-1
48
1
60
0
100
AcDbLine
10
121.793731
20
22.020359
30
0
11
122.188333
21
10.677273
31
0
39
0
210
0
220
0
230
1
0
LINE
5
93
100
AcDbEntity
8
1
62
256
6
ByLayer
370
-1
48
1
60
0
100
AcDbLine
10
123.684446
20
20.121729
30
0
11
125.046873
21
18.846392
31
0
39
0
210
0
220
0
230
1
0
LINE
5
94
100
AcDbEntity
8
1
62
256
6
ByLayer
370
-1
48
1
60
0
100
AcDbLine
10
134.65658
20
10.290005
30
0
11
123.356658
21
9.893896
31
0
39
0
210
0
220
0
230
1
0
LINE
5
95
100
AcDbEntity
8
1
62
256
6
ByLayer
370
-1
48
1
60
0
100
AcDbLine
10
135.772546
20
11.153456
30
0
11
135.377944
21
22.496542
31
0
39
0
210
0
220
0
230
1
0
LINE
5
96
100
AcDbEntity
8
1
62
256
6
ByLayer
370
-1
48
1
60
0
100
AcDbLine
10
124.914971
20
13.167477
30
0
11
124.901375
21
13.180204
31
0
39
0
210
0
220
0
230
1
0
LINE
5
97
100
AcDbEntity
8
1
62
256
6
ByLayer
370
-1
48
1
60
0
100
AcDbLine
10
133.063768
20
21.730624
30
0
11
130.077005
21
21.625926
31
0
39
0
210
0
220
0
230
1
0
LINE
5
98
100
AcDbEntity
8
1
62
256
6
ByLayer
370
-1
48
1
60
0
100
AcDbLine
10
123.388073
20
8.768498
30
0
11
134.687995
21
9.164607
31
0
39
0
210
0
220
0
230
1
0
LINE
5
99
100
AcDbEntity
8
1
62
256
6
ByLayer
370
-1
48
1
60
0
100
AcDbLine
10
134.157803
20
24.405317
30
0
11
122.857881
21
24.009208
31
0
39
0
210
0
220
0
230
1
0
LINE
5
9A
100
AcDbEntity
8
1
62
256
6
ByLayer
370
-1
48
1
60
0
100
AcDbLine
10
122.11313
20
22.031641
30
0
11
122.507732
21
10.688556
31
0
39
0
210
0
220
0
230
1
0
LINE
5
9B
100
AcDbEntity
8
1
62
256
6
ByLayer
370
-1
48
1
60
0
100
AcDbLine
10
134.748512
20
11.118654
30
0
11
134.35391
21
22.46174
31
0
39
0
210
0
220
0
230
1
0
LINE
5
9C
100
AcDbEntity
8
1
62
256
6
ByLayer
370
-1
48
1
60
0
100
AcDbLine
10
124.697296
20
12.970058
30
0
11
125.068867
21
12.622239
31
0
39
0
210
0
220
0
230
1
0
LINE
5
9D
100
AcDbEntity
8
1
62
256
6
ByLayer
370
-1
48
1
60
0
100
AcDbLine
10
135.737817
20
9.10132
30
0
11
123.392312
21
8.668559
31
0
39
0
210
0
220
0
230
1
0
LINE
5
9E
100
AcDbEntity
8
1
62
256
6
ByLayer
370
-1
48
1
60
0
100
AcDbLine
10
124.885631
20
21.414762
30
0
11
126.248058
21
20.139425
31
0
39
0
210
0
220
0
230
1
0
LINE
5
9F
100
AcDbEntity
8
1
62
256
6
ByLayer
370
-1
48
1
60
0
100
AcDbLine
10
133.876055
20
12.25858
30
0
11
133.771755
21
15.256753
31
0
39
0
210
0
220
0
230
1
0
LINE
5
A0
100
AcDbEntity
8
1
62
256
6
ByLayer
370
-1
48
1
60
0
100
AcDbLine
10
120.98428
20
21.992342
30
0
11
121.378882
21
10.649256
31
0
39
0
210
0
220
0
230
1
0
LINE
5
A1
100
AcDbEntity
8
1
62
256
6
ByLayer
370
-1
48
1
60
0
100
AcDbLine
10
124.669572
20
13.388896
30
0
11
125.144245
21
13.899864
31
0
39
0
210
0
220
0
230
1
0
LINE
5
A2
100
AcDbEntity
8
1
62
256
6
ByLayer
370
-1
48
1
60
0
100
AcDbLine
10
130.423944
20
11.652951
30
0
11
133.410707
21
11.757649
31
0
39
0
210
0
220
0
230
1
0
LINE
5
A3
100
AcDbEntity
8
1
62
256
6
ByLayer
370
-1
48
1
60
0
100
AcDbLine
10
134.205873
20
22.891019
30
0
11
122.905951
21
22.49491
31
0
39
0
210
0
220
0
230
1
0
LINE
5
A4
100
AcDbEntity
8
1
62
256
6
ByLayer
370
-1
48
1
60
0
100
AcDbLine
10
122.727547
20
22.05416
30
0
11
123.122149
21
10.711074
31
0
39
0
210
0
220
0
230
1
0
LINE
5
A5
100
AcDbEntity
8
1
62
256
6
ByLayer
370
-1
48
1
60
0
100
AcDbLine
10
133.667093
20
18.265326
30
0
11
133.562793
21
21.263499
31
0
39
0
210
0
220
0
230
1
0
LINE
5
A6
100
AcDbEntity
8
1
62
256
6
ByLayer
370
-1
48
1
60
0
100
AcDbLine
10
123.951379
20
20.64573
30
0
11
124.540664
21
20.52896
31
0
39
0
210
0
220
0
230
1
0
LINE
5
A7
100
AcDbEntity
8
1
62
256
6
ByLayer
370
-1
48
1
60
0
100
AcDbLine
10
133.592167
20
15.25032
30
0
11
133.696467
21
12.252147
31
0
39
0
210
0
220
0
230
1
0
LINE
5
A8
100
AcDbEntity
8
1
62
256
6
ByLayer
370
-1
48
1
60
0
100
AcDbLine
10
125.251619
20
20.235364
30
0
11
125.257562
21
20.213357
31
0
39
0
210
0
220
0
230
1
0
LINE
5
A9
100
AcDbEntity
8
1
62
256
6
ByLayer
370
-1
48
1
60
0
100
AcDbLine
10
125.251619
20
20.235364
30
0
11
125.832263
21
19.691837
31
0
39
0
210
0
220
0
230
1
0
LINE
5
AA
100
AcDbEntity
8
1
62
256
6
ByLayer
370
-1
48
1
60
0
100
AcDbLine
10
121.439324
20
22.008002
30
0
11
121.833926
21
10.664916
31
0
39
0
210
0
220
0
230
1
0
LINE
5
AB
100
AcDbEntity
8
1
62
256
6
ByLayer
370
-1
48
1
60
0
100
AcDbLine
10
122.488206
20
22.045222
30
0
11
122.882808
21
10.702136
31
0
39
0
210
0
220
0
230
1
0
LINE
5
AC
100
AcDbEntity
8
1
62
256
6
ByLayer
370
-1
48
1
60
0
100
AcDbLine
10
134.199357
20
22.606414
30
0
11
122.899435
21
22.210304
31
0
39
0
210
0
220
0
230
1
0
LINE
5
AD
100
AcDbEntity
8
1
62
256
6
ByLayer
370
-1
48
1
60
0
100
AcDbLine
10
136.561596
20
11.181473
30
0
11
136.166994
21
22.524559
31
0
39
0
210
0
220
0
230
1
0
LINE
5
AE
100
AcDbEntity
8
1
62
256
6
ByLayer
370
-1
48
1
60
0
100
AcDbLine
10
134.199148
20
22.635075
30
0
11
122.899226
21
22.238966
31
0
39
0
210
0
220
0
230
1
0
LINE
5
AF
100
AcDbEntity
8
1
62
256
6
ByLayer
370
-1
48
1
60
0
100
AcDbLine
10
125.336033
20
13.208955
30
0
11
125.484662
21
13.069827
31
0
39
0
210
0
220
0
230
1
0
LINE
5
B0
100
AcDbEntity
8
1
62
256
6
ByLayer
370
-1
48
1
60
0
100
AcDbLine
10
136.230803
20
23.577626
30
0
11
136.661918
21
11.184963
31
0
39
0
210
0
220
0
230
1
0
LINE
5
B1
100
AcDbEntity
8
1
62
256
6
ByLayer
370
-1
48
1
60
0
100
AcDbLine
10
124.882024
20
19.837508
30
0
11
125.462668
21
19.29398
31
0
39
0
210
0
220
0
230
1
0
LINE
5
B2
100
AcDbEntity
8
1
62
256
6
ByLayer
370
-1
48
1
60
0
100
AcDbLine
10
134.777852
20
11.119655
30
0
11
134.38325
21
22.462741
31
0
39
0
210
0
220
0
230
1
0
LINE
5
B3
100
AcDbEntity
8
1
62
256
6
ByLayer
370
-1
48
1
60
0
100
AcDbLine
10
121.809584
20
24.072495
30
0
11
134.155089
21
24.505256
31
0
39
0
210
0
220
0
230
1
0
LINE
5
B4
100
AcDbEntity
8
1
62
256
6
ByLayer
370
-1
48
1
60
0
100
AcDbLine
10
125.336033
20
13.208955
30
0
11
125.47076
21
13.353984
31
0
39
0
210
0
220
0
230
1
0
LINE
5
B5
100
AcDbEntity
8
1
62
256
6
ByLayer
370
-1
48
1
60
0
100
AcDbLine
10
124.882024
20
19.837508
30
0
11
124.904308
21
19.833092
31
0
39
0
210
0
220
0
230
1
0
LINE
5
B6
100
AcDbEntity
8
1
62
256
6
ByLayer
370
-1
48
1
60
0
100
AcDbLine
10
134.195914
20
23.603013
30
0
11
122.895991
21
23.206904
31
0
39
0
210
0
220
0
230
1
0
LINE
5
B7
100
AcDbEntity
8
1
62
256
6
ByLayer
370
-1
48
1
60
0
100
AcDbLine
10
124.383516
20
21.11091
30
0
11
124.540664
21
20.52896
31
0
39
0
210
0
220
0
230
1
0
LINE
5
B8
100
AcDbEntity
8
1
62
256
6
ByLayer
370
-1
48
1
60
0
100
AcDbLine
10
134.606174
20
10.934849
30
0
11
123.306252
21
10.53874
31
0
39
0
210
0
220
0
230
1
0
LINE
5
B9
100
AcDbEntity
8
1
62
256
6
ByLayer
370
-1
48
1
60
0
100
AcDbLine
10
134.604389
20
10.963511
30
0
11
123.304467
21
10.567401
31
0
39
0
210
0
220
0
230
1
0
LINE
5
BA
100
AcDbEntity
8
1
62
256
6
ByLayer
370
-1
48
1
60
0
100
AcDbLine
10
133.408221
20
11.94186
30
0
11
130.421457
21
11.837162
31
0
39
0
210
0
220
0
230
1
0
LINE
5
BB
100
AcDbEntity
8
1
62
256
6
ByLayer
370
-1
48
1
60
0
100
AcDbLine
10
121.316598
20
9.596189
30
0
11
120.885483
21
21.988852
31
0
39
0
210
0
220
0
230
1
0
LINE
5
BC
100
AcDbEntity
8
1
62
256
6
ByLayer
370
-1
48
1
60
0
100
AcDbLine
10
133.487505
20
18.258894
30
0
11
133.383205
21
21.257066
31
0
39
0
210
0
220
0
230
1
0
LINE
5
BD
100
AcDbEntity
8
1
62
256
6
ByLayer
370
-1
48
1
60
0
100
AcDbLine
10
135.048452
20
11.128593
30
0
11
134.65385
21
22.471679
31
0
39
0
210
0
220
0
230
1
0
LINE
5
BE
100
AcDbEntity
8
1
62
256
6
ByLayer
370
-1
48
1
60
0
100
AcDbLine
10
124.669572
20
13.388896
30
0
11
124.669987
21
13.388507
31
0
39
0
210
0
220
0
230
1
0
LINE
5
BF
100
AcDbEntity
8
1
62
256
6
ByLayer
370
-1
48
1
60
0
100
AcDbLine
10
136.123177
20
11.165813
30
0
11
135.728575
21
22.508899
31
0
39
0
210
0
220
0
230
1
0
LINE
5
C0
100
AcDbEntity
8
1
62
256
6
ByLayer
370
-1
48
1
60
0
100
AcDbLine
10
135.428022
20
-0.050095
30
0
11
135.896876
21
-1.335858
31
0
39
0
210
0
220
0
230
1
0
LINE
5
C1
100
AcDbEntity
8
1
62
256
6
ByLayer
370
-1
48
1
60
0
100
AcDbLine
10
136.019175
20
-8.94594
30
0
11
135.951839
21
-10.870593
31
0
39
0
210
0
220
0
230
1
0
LINE
5
C2
100
AcDbEntity
8
1
62
256
6
ByLayer
370
-1
48
1
60
0
100
AcDbLine
10
136.20714
20
-12.595741
30
0
11
136.374153
21
-12.80195
31
0
39
0
210
0
220
0
230
1
0
LINE
5
C3
100
AcDbEntity
8
1
62
256
6
ByLayer
370
-1
48
1
60
0
100
AcDbLine
10
135.969495
20
-1.520799
30
0
11
136.219159
21
-1.595384
31
0
39
0
210
0
220
0
230
1
0
LINE
5
C4
100
AcDbEntity
8
1
62
256
6
ByLayer
370
-1
48
1
60
0
100
AcDbLine
10
134.981687
20
-1.783572
30
0
11
135.249345
21
-6.88126
31
0
39
0
210
0
220
0
230
1
0
LINE
5
C5
100
AcDbEntity
8
1
62
256
6
ByLayer
370
-1
48
1
60
0
100
AcDbLine
10
136.019175
20
-8.94594
30
0
11
136.741822
21
-9.09933
31
0
39
0
210
0
220
0
230
1
0
LINE
5
C6
100
AcDbEntity
8
1
62
256
6
ByLayer
370
-1
48
1
60
0
100
AcDbLine
10
135.548934
20
-6.865589
30
0
11
135.281276
21
-1.7679
31
0
39
0
210
0
220
0
230
1
0
LINE
5
C7
100
AcDbEntity
8
1
62
256
6
ByLayer
370
-1
48
1
60
0
100
AcDbLine
10
135.355464
20
0.773172
30
0
11
136.219159
21
-1.595384
31
0
39
0
210
0
220
0
230
1
0
LINE
5
C8
100
AcDbEntity
8
1
62
256
6
ByLayer
370
-1
48
1
60
0
100
AcDbLine
10
135.88846
20
-8.275623
30
0
11
136.548886
21
-8.109937
31
0
39
0
210
0
220
0
230
1
0
LINE
5
C9
100
AcDbEntity
8
1
62
256
6
ByLayer
370
-1
48
1
60
0
100
AcDbLine
10
135.652021
20
-10.860143
30
0
11
135.719357
21
-8.93549
31
0
39
0
210
0
220
0
230
1
0
LINE
5
CA
100
AcDbEntity
8
1
62
256
6
ByLayer
370
-1
48
1
60
0
100
AcDbLine
10
135.548934
20
-6.865589
30
0
11
136.271031
21
-6.956018
31
0
39
0
210
0
220
0
230
1
0
LINE
5
CB
100
AcDbEntity
8
1
62
256
6
ByLayer
370
-1
48
1
60
0
100
AcDbLine
10
135.951839
20
-10.870593
30
0
11
136.674486
21
-11.023983
31
0
39
0
210
0
220
0
230
1
0
LINE
5
CC
100
AcDbEntity
8
1
62
256
6
ByLayer
370
-1
48
1
60
0
100
AcDbLine
10
136.741822
20
-9.09933
30
0
11
136.674486
21
-11.023983
31
0
39
0
210
0
220
0
230
1
0
LINE
5
CD
100
AcDbEntity
8
1
62
256
6
ByLayer
370
-1
48
1
60
0
100
AcDbLine
10
134.748542
20
-0.168742
30
0
11
135.217396
21
-1.454505
31
0
39
0
210
0
220
0
230
1
0
LINE
5
CE
100
AcDbEntity
8
1
62
256
6
ByLayer
370
-1
48
1
60
0
100
AcDbLine
10
136.528525
20
-7.07075
30
0
11
136.271031
21
-6.956018
31
0
39
0
210
0
220
0
230
1
0
LINE
5
CF
100
AcDbEntity
8
1
62
256
6
ByLayer
370
-1
48
1
60
0
100
AcDbLine
10
136.003373
20
-1.858329
30
0
11
136.271031
21
-6.956018
31
0
39
0
210
0
220
0
230
1
0
LINE
5
D0
100
AcDbEntity
8
1
62
256
6
ByLayer
370
-1
48
1
60
0
100
AcDbLine
10
136.528525
20
-7.07075
30
0
11
136.248628
21
-1.739956
31
0
39
0
210
0
220
0
230
1
0
LINE
5
D1
100
AcDbEntity
8
1
62
256
6
ByLayer
370
-1
48
1
60
0
100
AcDbLine
10
134.748542
20
-0.168742
30
0
11
135.428022
21
-0.050095
31
0
39
0
210
0
220
0
230
1
0
LINE
5
D2
100
AcDbEntity
8
1
62
256
6
ByLayer
370
-1
48
1
60
0
100
AcDbLine
10
136.374153
20
-12.80195
30
0
11
135.208092
21
-13.22557
31
0
39
0
210
0
220
0
230
1
0
LINE
5
D3
100
AcDbEntity
8
1
62
256
6
ByLayer
370
-1
48
1
60
0
100
AcDbLine
10
136.733037
20
-11.873256
30
0
11
136.900049
21
-12.079465
31
0
39
0
210
0
220
0
230
1
0
LINE
5
D4
100
AcDbEntity
8
1
62
256
6
ByLayer
370
-1
48
1
60
0
100
AcDbLine
10
135.281276
20
-1.7679
30
0
11
136.003373
21
-1.858329
31
0
39
0
210
0
220
0
230
1
0
LINE
5
D5
100
AcDbEntity
8
1
62
256
6
ByLayer
370
-1
48
1
60
0
100
AcDbLine
10
136.999513
20
-9.236514
30
0
11
136.900049
21
-12.079465
31
0
39
0
210
0
220
0
230
1
0
LINE
5
D6
100
AcDbEntity
8
1
62
256
6
ByLayer
370
-1
48
1
60
0
100
AcDbLine
10
134.935488
20
-1.55692
30
0
11
134.679472
21
-0.854833
31
0
39
0
210
0
220
0
230
1
0
LINE
5
D7
100
AcDbEntity
8
1
62
256
6
ByLayer
370
-1
48
1
60
0
100
AcDbLine
10
136.999513
20
-9.236514
30
0
11
136.741822
21
-9.09933
31
0
39
0
210
0
220
0
230
1
0
LINE
5
D8
100
AcDbEntity
8
1
62
256
6
ByLayer
370
-1
48
1
60
0
100
AcDbLine
10
135.230987
20
-12.126894
30
0
11
135.420906
21
-12.74617
31
0
39
0
210
0
220
0
230
1
0
LINE
5
D9
100
AcDbEntity
8
1
62
256
6
ByLayer
370
-1
48
1
60
0
100
AcDbLine
10
135.420906
20
-12.74617
30
0
11
135.183481
21
-12.832425
31
0
39
0
210
0
220
0
230
1
0
LINE
5
DA
100
AcDbEntity
8
1
62
256
6
ByLayer
370
-1
48
1
60
0
100
AcDbLine
10
136.784389
20
-8.13334
30
0
11
136.548886
21
-8.109937
31
0
39
0
210
0
220
0
230
1
0
LINE
5
DB
100
AcDbEntity
8
1
62
256
6
ByLayer
370
-1
48
1
60
0
100
AcDbLine
10
135.234123
20
0.691565
30
0
11
135.355464
21
0.773172
31
0
39
0
210
0
220
0
230
1
0
LINE
5
DC
100
AcDbEntity
8
1
62
256
6
ByLayer
370
-1
48
1
60
0
100
AcDbLine
10
135.998964
20
-1.665371
30
0
11
136.248628
21
-1.739956
31
0
39
0
210
0
220
0
230
1
0
LINE
5
DD
100
AcDbEntity
8
1
62
256
6
ByLayer
370
-1
48
1
60
0
100
AcDbLine
10
135.217396
20
-1.454505
30
0
11
135.896876
21
-1.335858
31
0
39
0
210
0
220
0
230
1
0
LINE
5
DE
100
AcDbEntity
8
SK1
62
256
6
ByLayer
370
-1
48
1
60
0
100
AcDbLine
10
-66.6
20
9.102615
30
0
11
-66.6
21
19.996
31
0
39
0
210
0
220
0
230
1
0
LINE
5
DF
100
AcDbEntity
8
SK1
62
256
6
ByLayer
370
-1
48
1
60
0
100
AcDbLine
10
-66.6
20
-19.996
30
0
11
-66.6
21
-9.102615
31
0
39
0
210
0
220
0
230
1
0
LINE
5
E0
100
AcDbEntity
8
SK1
62
256
6
ByLayer
370
-1
48
1
60
0
100
AcDbLine
10
-70
20
6.623111
30
0
11
-70
21
-6.623111
31
0
39
0
210
0
220
0
230
1
0
LINE
5
E1
100
AcDbEntity
8
SK1
62
256
6
ByLayer
370
-1
48
1
60
0
100
AcDbLine
10
-1.383773
20
19.75
30
0
11
-1.383773
21
-19.75
31
0
39
0
210
0
220
0
230
1
0
LINE
5
E2
100
AcDbEntity
8
SK1
62
256
6
ByLayer
370
-1
48
1
60
0
100
AcDbLine
10
-66.6
20
9.102615
30
0
11
-6.5
21
9.102615
31
0
39
0
210
0
220
0
230
1
0
LINE
5
E3
100
AcDbEntity
8
SK1
62
256
6
ByLayer
370
-1
48
1
60
0
100
AcDbLine
10
-68.516223
20
-8.873042
30
0
11
-68.516223
21
-19.892544
31
0
39
0
210
0
220
0
230
1
0
LINE
5
E4
100
AcDbEntity
8
SK1
62
256
6
ByLayer
370
-1
48
1
60
0
100
AcDbLine
10
-68.516223
20
19.892544
30
0
11
-68.516223
21
8.873042
31
0
39
0
210
0
220
0
230
1
0
LINE
5
E5
100
AcDbEntity
8
SK1
62
256
6
ByLayer
370
-1
48
1
60
0
100
AcDbLine
10
-67.633814
20
-8.290603
30
0
11
-67.633814
21
-19.639667
31
0
39
0
210
0
220
0
230
1
0
LINE
5
E6
100
AcDbEntity
8
SK1
62
256
6
ByLayer
370
-1
48
1
60
0
100
AcDbLine
10
-67.633814
20
19.639667
30
0
11
-67.633814
21
8.290603
31
0
39
0
210
0
220
0
230
1
0
LINE
5
E7
100
AcDbEntity
8
SK1
62
256
6
ByLayer
370
-1
48
1
60
0
100
AcDbLine
10
-0.15
20
19.75
30
0
11
-0.15
21
-19.75
31
0
39
0
210
0
220
0
230
1
0
LINE
5
E8
100
AcDbEntity
8
SK1
62
256
6
ByLayer
370
-1
48
1
60
0
100
AcDbLine
10
-70
20
-6.623111
30
0
11
-70
21
-18.996
31
0
39
0
210
0
220
0
230
1
0
LINE
5
E9
100
AcDbEntity
8
SK1
62
256
6
ByLayer
370
-1
48
1
60
0
100
AcDbLine
10
-70
20
18.996
30
0
11
-70
21
6.623111
31
0
39
0
210
0
220
0
230
1
0
LINE
5
EA
100
AcDbEntity
8
SK1
62
256
6
ByLayer
370
-1
48
1
60
0
100
AcDbLine
10
-1.552821
20
19.787477
30
0
11
-1.552821
21
-19.787477
31
0
39
0
210
0
220
0
230
1
0
LINE
5
EB
100
AcDbEntity
8
SK1
62
256
6
ByLayer
370
-1
48
1
60
0
100
AcDbLine
10
-69
20
9.102615
30
0
11
-68.6
21
9.102615
31
0
39
0
210
0
220
0
230
1
0
LINE
5
EC
100
AcDbEntity
8
SK1
62
256
6
ByLayer
370
-1
48
1
60
0
100
AcDbLine
10
-69
20
-9.102615
30
0
11
-69
21
-19.996
31
0
39
0
210
0
220
0
230
1
0
LINE
5
ED
100
AcDbEntity
8
SK1
62
256
6
ByLayer
370
-1
48
1
60
0
100
AcDbLine
10
-69
20
19.996
30
0
11
-69
21
9.102615
31
0
39
0
210
0
220
0
230
1
0
LINE
5
EE
100
AcDbEntity
8
SK1
62
256
6
ByLayer
370
-1
48
1
60
0
100
AcDbLine
10
-68.6
20
-19.996
30
0
11
-68.6
21
-9.102615
31
0
39
0
210
0
220
0
230
1
0
LINE
5
EF
100
AcDbEntity
8
SK1
62
256
6
ByLayer
370
-1
48
1
60
0
100
AcDbLine
10
-68.6
20
9.102615
30
0
11
-68.6
21
19.996
31
0
39
0
210
0
220
0
230
1
0
LINE
5
F0
100
AcDbEntity
8
SK1
62
256
6
ByLayer
370
-1
48
1
60
0
100
AcDbLine
10
-6.5
20
9.102615
30
0
11
-6.5
21
-9.102615
31
0
39
0
210
0
220
0
230
1
0
LINE
5
F1
100
AcDbEntity
8
SK1
62
256
6
ByLayer
370
-1
48
1
60
0
100
AcDbLine
10
-6.5
20
-9.102615
30
0
11
-66.6
21
-9.102615
31
0
39
0
210
0
220
0
230
1
0
LINE
5
F2
100
AcDbEntity
8
SK1
62
256
6
ByLayer
370
-1
48
1
60
0
100
AcDbLine
10
-2
20
-19.996
30
0
11
-2
21
19.996
31
0
39
0
210
0
220
0
230
1
0
LINE
5
F3
100
AcDbEntity
8
SK1
62
256
6
ByLayer
370
-1
48
1
60
0
100
AcDbLine
10
-68.6
20
-9.102615
30
0
11
-69
21
-9.102615
31
0
39
0
210
0
220
0
230
1
0
MTEXT
5
274
100
AcDbEntity
8
SK6
62
256
6
ByLayer
370
-1
48
1
60
0
100
AcDbMText
10
0.79375
20
-80.79375
30
0
210
0
220
0
230
1
1
\W00.754;\fsimplex.shx,bigfont.shx;880-D4900L40-02 
40
3.175
41
0
44
1.084337
50
0
71
7
72
5
7
DEFAULT
0
DIMENSION
5
2A4
100
AcDbEntity
8
SK2
62
256
6
ByLayer
370
-3
48
1
60
0
100
AcDbDimension
2
DimnDraft3D1
10
137
20
-70.11955
30
0
11
33.5
21
-70.11955
31
0
70
32
71
5
72
1
41
1
210
0
220
0
230
1
3
Standard
100
AcDbAlignedDimension
13
-70
23
-21.5875
33
0
14
137
24
-26.0875
34
0
50
0
100
AcDbRotatedDimension
1001
ACAD
1000
DSTYLE
1002
{
1070
   279
1070
     0
1070
   172
1070
     1
1070
   173
1070
     1
1070
   340
1005
275
1070
   271
1070
     1
1070
   272
1070
     2
1070
    77
1070
     1
1070
    73
1070
     0
1070
   171
1070
     3
1070
   274
1070
     4
1070
   177
1070
   150
1070
   176
1070
     9
1070
   178
1070
    43
1070
    78
1070
     8
1070
    48
1040
-0.005
1070
    41
1041
4.175
1070
   147
1041
2.25
1070
    42
1041
1.5875
1070
    44
1041
3.175
1070
   140
1041
4.5
1070
   343
1005
0
1070
   344
1005
0
1002
}
0
DIMENSION
5
2AE
100
AcDbEntity
8
SK2
62
256
6
ByLayer
370
-3
48
1
60
0
100
AcDbDimension
2
DimnDraft3D2
10
0
20
-58.1508
30
0
11
-35
21
-58.1508
31
0
70
32
71
5
72
1
41
1
210
0
220
0
230
1
3
Standard
100
AcDbAlignedDimension
13
-70
23
-21.5875
33
0
14
0
24
-32.8375
34
0
50
0
100
AcDbRotatedDimension
1001
ACAD
1000
DSTYLE
1002
{
1070
   279
1070
     0
1070
   172
1070
     1
1070
   173
1070
     1
1070
   340
1005
275
1070
   271
1070
     1
1070
   272
1070
     2
1070
    77
1070
     1
1070
    73
1070
     0
1070
   171
1070
     3
1070
   274
1070
     4
1070
   177
1070
   150
1070
   176
1070
     9
1070
   178
1070
    43
1070
    78
1070
     8
1070
    48
1040
-0.005
1070
    41
1041
4.175
1070
   147
1041
2.25
1070
    42
1041
1.5875
1070
    44
1041
3.175
1070
   140
1041
4.5
1070
   343
1005
0
1070
   344
1005
0
1002
}
0
DIMENSION
5
2B9
100
AcDbEntity
8
2
62
256
6
ByLayer
370
-3
48
1
60
0
100
AcDbDimension
2
DimnDraft3D3
10
137
20
-58.1508
30
0
11
68.5
21
-58.1508
31
0
70
32
71
5
72
1
41
1
210
0
220
0
230
1
3
Standard
100
AcDbAlignedDimension
13
0
23
-32.8375
33
0
14
137
24
-26.0875
34
0
50
0
100
AcDbRotatedDimension
1001
ACAD
1000
DSTYLE
1002
{
1070
   279
1070
     0
1070
   172
1070
     1
1070
   173
1070
     1
1070
   340
1005
275
1070
   271
1070
     1
1070
   272
1070
     2
1070
    77
1070
     1
1070
    73
1070
     0
1070
   171
1070
     3
1070
   274
1070
     4
1070
   177
1070
   150
1070
   176
1070
     9
1070
   178
1070
    43
1070
    78
1070
     8
1070
    48
1040
-0.005
1070
    41
1041
4.175
1070
   147
1041
2.25
1070
    42
1041
1.5875
1070
    44
1041
3.175
1070
   140
1041
4.5
1070
   343
1005
0
1070
   344
1005
0
1002
}
0
DIMENSION
5
2C3
100
AcDbEntity
8
SK2
62
256
6
ByLayer
370
-3
48
1
60
0
100
AcDbDimension
2
DimnDraft3D4
10
137
20
-48.1508
30
0
11
85.5
21
-48.1508
31
0
70
32
71
5
72
1
41
1
210
0
220
0
230
1
3
Standard
100
AcDbAlignedDimension
13
34
23
-11.5875
33
0
14
137
24
-26.0875
34
0
50
0
100
AcDbRotatedDimension
1001
ACAD
1000
DSTYLE
1002
{
1070
   279
1070
     0
1070
   172
1070
     1
1070
   173
1070
     1
1070
   340
1005
275
1070
   271
1070
     1
1070
   272
1070
     2
1070
    77
1070
     1
1070
    73
1070
     0
1070
   171
1070
     3
1070
   274
1070
     4
1070
   177
1070
   150
1070
   176
1070
     9
1070
   178
1070
    43
1070
    78
1070
     8
1070
    48
1040
-0.005
1070
    41
1041
4.175
1070
   147
1041
2.25
1070
    42
1041
1.5875
1070
    44
1041
3.175
1070
   140
1041
4.5
1070
   343
1005
0
1070
   344
1005
0
1002
}
0
DIMENSION
5
2CE
100
AcDbEntity
8
SK2
62
256
6
ByLayer
370
-3
48
1
60
0
100
AcDbDimension
2
DimnDraft3D5
10
-81.9
20
-20
30
0
11
-82.1
21
3.884211
31
0
70
33
71
5
72
1
41
1
210
0
220
0
230
1
3
Standard
100
AcDbAlignedDimension
13
-71.5875
23
20
33
0
14
-71.5875
24
-20
34
0
1001
ACAD
1000
DSTYLE
1002
{
1070
   279
1070
     0
1070
    74
1070
     0
1070
   173
1070
     1
1070
   340
1005
275
1070
   271
1070
     2
1070
   272
1070
     2
1070
    77
1070
     1
1070
    73
1070
     0
1070
   171
1070
     3
1070
   274
1070
     4
1070
   177
1070
   150
1070
   176
1070
     9
1070
   178
1070
    43
1070
    78
1070
     8
1070
    48
1040
-0.005
1070
    41
1041
4.175
1070
   147
1041
2.25
1070
    42
1041
1.5875
1070
    44
1041
3.175
1070
   140
1041
4.5
1070
   343
1005
0
1070
   344
1005
0
1002
}
0
DIMENSION
5
2D9
100
AcDbEntity
8
SK2
62
256
6
ByLayer
370
-3
48
1
60
0
100
AcDbDimension
2
DimnDraft3D6
10
-91.9
20
31.25
30
0
11
-92.1
21
1.586842
31
0
70
33
71
5
72
1
41
1
210
0
220
0
230
1
3
Standard
100
AcDbAlignedDimension
13
-1.5875
23
-31.25
33
0
14
-1.5875
24
31.25
34
0
1001
ACAD
1000
DSTYLE
1002
{
1070
   279
1070
     0
1070
    74
1070
     0
1070
   173
1070
     1
1070
   340
1005
275
1070
   271
1070
     1
1070
   272
1070
     2
1070
    77
1070
     1
1070
    73
1070
     0
1070
   171
1070
     3
1070
   274
1070
     4
1070
   177
1070
   150
1070
   176
1070
     9
1070
   178
1070
    43
1070
    78
1070
     8
1070
    48
1040
-0.005
1070
    41
1041
4.175
1070
   147
1041
2.25
1070
    42
1041
1.5875
1070
    44
1041
3.175
1070
   140
1041
4.5
1070
   343
1005
0
1070
   344
1005
0
1002
}
0
DIMENSION
5
2E4
100
AcDbEntity
8
2
62
256
6
ByLayer
370
-3
48
1
60
0
100
AcDbDimension
2
DimnDraft3D7
10
167.15
20
-24.5
30
0
11
160.6
21
3.884211
31
0
70
33
71
5
72
1
41
1
210
0
220
0
230
1
3
Standard
100
AcDbAlignedDimension
13
138.5875
23
24.5
33
0
14
138.5875
24
-24.5
34
0
1001
ACAD
1000
DSTYLE
1002
{
1070
   279
1070
     0
1070
    74
1070
     0
1070
   173
1070
     1
1070
   340
1005
275
1070
   271
1070
     2
1070
   272
1070
     2
1070
    77
1070
     1
1070
    73
1070
     0
1070
   171
1070
     3
1070
   274
1070
     4
1070
   177
1070
   150
1070
   176
1070
     9
1070
   178
1070
    43
1070
    78
1070
     8
1070
    48
1040
-0.005
1070
    41
1041
4.175
1070
   147
1041
2.25
1070
    42
1041
1.5875
1070
    44
1041
3.175
1070
   140
1041
4.5
1070
   343
1005
0
1070
   344
1005
0
1002
}
0
ENDSEC
0
SECTION
2
OBJECTS
0
DICTIONARY
5
315
330
0
100
AcDbDictionary
280
0
281
1
3
ACAD_GROUP
350
316
3
ACAD_MLINESTYLE
350
317
0
DICTIONARY
5
316
330
0
100
AcDbDictionary
280
0
281
1
0
DICTIONARY
5
317
330
0
100
AcDbDictionary
280
0
281
1
3
Standard
350
18
0
MLINESTYLE
5
18
330
317
100
AcDbMlineStyle
2
Standard
70
0
3

62
256
51
90
52
90
71
2
49
-0.5
62
256
6
ByLayer
49
0.5
62
256
6
ByLayer
0
RASTERVARIABLES
5
303
330

100
AcDbRasterVariables
90
0
70
1
71
1
72
1
0
ENDSEC
0
EOF
