0
SECTION
2
HEADER
9
$ACADVER
1
AC1015
9
$DWGCODEPAGE
3
ANSI_1252
9
$HANDSEED
5
339
9
$ANGBASE
50
0
9
$ANGDIR
70
0
9
$ATTMODE
70
1
9
$AUNITS
70
0
9
$AUPREC
70
0
9
$CECOLOR
62
256
9
$CELTSCALE
40
1
9
$CELTYPE
6
ByLayer
9
$CELWEIGHT
370
-1
9
$CLAYER
8
0
9
$CMLJUST
70
0
9
$CMLSCALE
40
1
9
$CMLSTYLE
2
Standard
9
$DIMSTYLE
2
Standard
9
$TEXTSIZE
40
0.2
9
$TEXTSTYLE
7
Standard
9
$LUNITS
70
2
9
$LUPREC
70
4
9
$EXTNAMES
290
1
9
$INSUNITS
70
4
9
$LTSCALE
40
1
9
$LWDISPLAY
290
0
9
$PDMODE
70
0
9
$PDSIZE
40
0
9
$PLINEGEN
70
0
0
ENDSEC
0
SECTION
2
CLASSES
0
CLASS
1
RASTERVARIABLES
2
AcDbRasterVariables
3
ISM
90
0
280
0
281
0
0
ENDSEC
0
SECTION
2
TABLES
0
TABLE
2
VPORT
5
32f
100
AcDbSymbolTable
0
VPORT
5
1
100
AcDbSymbolTableRecord
100
AcDbViewportTableRecord
2
*Active
70
0
10
0
20
0
11
1
21
1
12
-1
22
1
13
0
23
0
14
0.5
24
0.5
15
10
25
10
16
0
26
0
36
1
17
0
27
0
37
0
0
ENDTAB
0
TABLE
2
LTYPE
5
330
100
AcDbSymbolTable
0
LTYPE
5
14
100
AcDbSymbolTableRecord
100
AcDbLinetypeTableRecord
70
0
2
ByBlock
3

72
65
73
0
40
0
0
LTYPE
5
15
100
AcDbSymbolTableRecord
100
AcDbLinetypeTableRecord
70
0
2
ByLayer
3

72
65
73
0
40
0
0
LTYPE
5
16
100
AcDbSymbolTableRecord
100
AcDbLinetypeTableRecord
70
0
2
CONTINUOUS
3
Solid line
72
65
73
0
40
0
0
LTYPE
5
3B
100
AcDbSymbolTableRecord
100
AcDbLinetypeTableRecord
70
0
2
DASHED
3
__ __ __ __ __ __ __ __ __
72
65
73
2
40
25.72
49
12.86
74
0
49
-12.86
74
0
0
LTYPE
5
3C
100
AcDbSymbolTableRecord
100
AcDbLinetypeTableRecord
70
0
2
HIDDEN
3
_ _ _ _ _ _ _ _ _ _ _ _ _ _ _
72
65
73
2
40
0.5
49
0.25
74
0
49
-0.25
74
0
0
LTYPE
5
3D
100
AcDbSymbolTableRecord
100
AcDbLinetypeTableRecord
70
0
2
PHANTOM
3
____ _ _ ____ _ _ _____ _ _ ____
72
65
73
6
40
50.5
49
18
74
0
49
-6.5
74
0
49
6.5
74
0
49
-6.5
74
0
49
6.5
74
0
49
-6.5
74
0
0
LTYPE
5
3E
100
AcDbSymbolTableRecord
100
AcDbLinetypeTableRecord
70
0
2
CENTER
3
____ _ ____ _ ____ _ ____
72
65
73
4
40
47.5
49
22
74
0
49
-8.5
74
0
49
8.5
74
0
49
-8.5
74
0
0
LTYPE
5
3F
100
AcDbSymbolTableRecord
100
AcDbLinetypeTableRecord
70
0
2
DOT
3
.........................
72
65
73
2
40
10
49
0
74
0
49
-10
74
0
0
LTYPE
5
40
100
AcDbSymbolTableRecord
100
AcDbLinetypeTableRecord
70
0
2
DASHDOT
3
_._._._._._._._._._._._._._._._.
72
65
73
4
40
70
49
31
74
0
49
-13
74
0
49
13
74
0
49
-13
74
0
0
ENDTAB
0
TABLE
2
LAYER
5
331
100
AcDbSymbolTable
0
LAYER
5
10
100
AcDbSymbolTableRecord
100
AcDbLayerTableRecord
2
0
70
0
62
7
6
CONTINUOUS
290
1
370
-3
390
0
0
LAYER
5
42
100
AcDbSymbolTableRecord
100
AcDbLayerTableRecord
2
81
70
0
62
-3
6
CONTINUOUS
290
1
370
-3
390
0
0
LAYER
5
44
100
AcDbSymbolTableRecord
100
AcDbLayerTableRecord
2
80
70
0
62
-6
6
CONTINUOUS
290
1
370
-3
390
0
0
LAYER
5
48
100
AcDbSymbolTableRecord
100
AcDbLayerTableRecord
2
1
70
0
62
4
6
CONTINUOUS
290
1
370
-3
390
0
0
LAYER
5
62
100
AcDbSymbolTableRecord
100
AcDbLayerTableRecord
2
4
70
0
62
-2
6
CENTER
290
1
370
-3
390
0
0
LAYER
5
2C8
100
AcDbSymbolTableRecord
100
AcDbLayerTableRecord
2
2
70
0
62
7
6
CONTINUOUS
290
1
370
-3
390
0
0
LAYER
5
31b
100
AcDbSymbolTableRecord
100
AcDbLayerTableRecord
2
SK1
70
0
62
4
6
CONTINUOUS
290
1
370
-3
390
0
0
LAYER
5
31c
100
AcDbSymbolTableRecord
100
AcDbLayerTableRecord
2
SK4
70
0
62
2
6
CENTER
290
1
370
-3
390
0
0
LAYER
5
31d
100
AcDbSymbolTableRecord
100
AcDbLayerTableRecord
2
SK6
70
0
62
5
6
CONTINUOUS
290
1
370
-3
390
0
0
LAYER
5
31e
100
AcDbSymbolTableRecord
100
AcDbLayerTableRecord
2
SK2
70
0
62
7
6
CONTINUOUS
290
1
370
-3
390
0
0
ENDTAB
0
TABLE
2
STYLE
5
332
100
AcDbSymbolTable
0
STYLE
5
11
100
AcDbSymbolTableRecord
100
AcDbTextStyleTableRecord
2
Standard
3
txt
70
0
71
0
40
0
41
1
42
0
50
0
0
STYLE
5
28C
100
AcDbSymbolTableRecord
100
AcDbTextStyleTableRecord
2
DEFAULT
3
simplex.shx
70
0
71
0
40
0
41
1
42
0
50
0
0
STYLE
5
2AF
100
AcDbSymbolTableRecord
100
AcDbTextStyleTableRecord
2
DWGDirectTextStyle
3
SIMPLEX
70
0
71
0
40
0
41
1
42
0
50
0
0
ENDTAB
0
TABLE
2
DIMSTYLE
5
333
100
AcDbSymbolTable
100
AcDbDimStyleTable
0
DIMSTYLE
105
27
100
AcDbSymbolTableRecord
100
AcDbDimStyleTableRecord
2
Standard
70
0
3
<>
41
0.18
42
0.0625
44
0.18
140
0.18
147
0.09
73
0
74
0
77
1
271
2
275
0
278
52
280
0
340
11
0
ENDTAB
0
TABLE
2
VIEW
5
334
100
AcDbSymbolTable
0
ENDTAB
0
TABLE
2
UCS
5
335
100
AcDbSymbolTable
0
ENDTAB
0
TABLE
2
APPID
5
336
100
AcDbSymbolTable
0
APPID
5
12
100
AcDbSymbolTableRecord
100
AcDbRegAppTableRecord
2
ACAD
70
0
0
ENDTAB
0
TABLE
2
BLOCK_RECORD
5
337
100
AcDbSymbolTable
0
BLOCK_RECORD
5
1F
100
AcDbSymbolTableRecord
100
AcDbBlockTableRecord
2
*Model_Space
340
0
70
0
0
BLOCK_RECORD
5
1B
100
AcDbSymbolTableRecord
100
AcDbBlockTableRecord
2
*Paper_Space
340
0
70
0
0
BLOCK_RECORD
5
23
100
AcDbSymbolTableRecord
100
AcDbBlockTableRecord
2
*Paper_Space0
340
0
70
0
0
BLOCK_RECORD
5
2B1
100
AcDbSymbolTableRecord
100
AcDbBlockTableRecord
2
DimnDraft3D1
340
0
70
0
0
BLOCK_RECORD
5
2BC
100
AcDbSymbolTableRecord
100
AcDbBlockTableRecord
2
DimnDraft3D2
340
0
70
0
0
BLOCK_RECORD
5
2C6
100
AcDbSymbolTableRecord
100
AcDbBlockTableRecord
2
DimnDraft3D3
340
0
70
0
0
BLOCK_RECORD
5
2D1
100
AcDbSymbolTableRecord
100
AcDbBlockTableRecord
2
DimnDraft3D4
340
0
70
0
0
BLOCK_RECORD
5
2DB
100
AcDbSymbolTableRecord
100
AcDbBlockTableRecord
2
DimnDraft3D5
340
0
70
0
0
BLOCK_RECORD
5
2E6
100
AcDbSymbolTableRecord
100
AcDbBlockTableRecord
2
DimnDraft3D6
340
0
70
0
0
BLOCK_RECORD
5
2F1
100
AcDbSymbolTableRecord
100
AcDbBlockTableRecord
2
DimnDraft3D7
340
0
70
0
0
ENDTAB
0
ENDSEC
0
SECTION
2
BLOCKS
0
BLOCK
5
20
100
AcDbEntity
8
0
100
AcDbBlockBegin
2
*Model_Space
70
0
10
0
20
0
30
0
3
*Model_Space
0
ENDBLK
5
21
100
AcDbEntity
8
0
100
AcDbBlockEnd
0
BLOCK
5
1C
100
AcDbEntity
8
0
100
AcDbBlockBegin
2
*Paper_Space
70
0
10
0
20
0
30
0
3
*Paper_Space
0
ENDBLK
5
1D
100
AcDbEntity
8
0
100
AcDbBlockEnd
0
BLOCK
5
24
100
AcDbEntity
8
0
100
AcDbBlockBegin
2
*Paper_Space0
70
0
10
0
20
0
30
0
3
*Paper_Space0
0
ENDBLK
5
25
100
AcDbEntity
8
0
100
AcDbBlockEnd
0
BLOCK
5
2B9
100
AcDbEntity
8
0
100
AcDbBlockBegin
2
DimnDraft3D1
70
0
10
0
20
0
30
0
3
DimnDraft3D1
0
MTEXT
5
2B2
100
AcDbEntity
8
SK2
62
256
6
ByLayer
370
-1
48
1
60
0
100
AcDbMText
10
65.344079
20
-67.0258
30
0
210
0
220
0
230
1
1
\W01.000;\fsimplex.shx,bigfont.shx;(306) 
40
4.5
41
0
44
1.084337
50
0
71
7
72
5
7
DEFAULT
0
LINE
5
2B4
100
AcDbEntity
8
SK2
62
256
6
ByLayer
370
-1
48
1
60
0
100
AcDbLine
10
-80
20
-26.5875
30
0
11
-80
21
-73.29455
31
0
39
0
210
0
220
0
230
1
0
LINE
5
2B5
100
AcDbEntity
8
SK2
62
256
6
ByLayer
370
-1
48
1
60
0
100
AcDbLine
10
226
20
-25.0875
30
0
11
226
21
-73.29455
31
0
39
0
210
0
220
0
230
1
0
LINE
5
2B6
100
AcDbEntity
8
SK2
62
256
6
ByLayer
370
-1
48
1
60
0
100
AcDbLine
10
-80
20
-70.11955
30
0
11
226
21
-70.11955
31
0
39
0
210
0
220
0
230
1
0
SOLID
5
2B7
100
AcDbEntity
8
SK2
62
256
6
ByLayer
370
-1
48
1
60
0
100
AcDbTrace
10
-80
20
-70.11955
30
0
11
-75.825003
21
-69.193975
31
0
12
-75.824997
22
-71.045125
32
0
13
-80
23
-70.11955
33
0
39
0
210
0
220
0
230
1
0
SOLID
5
2B8
100
AcDbEntity
8
SK2
62
256
6
ByLayer
370
-1
48
1
60
0
100
AcDbTrace
10
226
20
-70.11955
30
0
11
221.825003
21
-71.045125
31
0
12
221.824997
22
-69.193975
32
0
13
226
23
-70.11955
33
0
39
0
210
0
220
0
230
1
0
ENDBLK
5
2BA
100
AcDbEntity
8
0
100
AcDbBlockEnd
0
BLOCK
5
2C3
100
AcDbEntity
8
0
100
AcDbBlockBegin
2
DimnDraft3D2
70
0
10
0
20
0
30
0
3
DimnDraft3D2
0
MTEXT
5
2BD
100
AcDbEntity
8
SK2
62
256
6
ByLayer
370
-1
48
1
60
0
100
AcDbMText
10
-41.503947
20
-57.0258
30
0
210
0
220
0
230
1
1
\W01.000;\fsimplex.shx,bigfont.shx;80 
40
4.5
41
0
44
1.084337
50
0
71
7
72
5
7
DEFAULT
0
LINE
5
2BE
100
AcDbEntity
8
SK2
62
256
6
ByLayer
370
-1
48
1
60
0
100
AcDbLine
10
-80
20
-26.5875
30
0
11
-80
21
-61.3258
31
0
39
0
210
0
220
0
230
1
0
LINE
5
2BF
100
AcDbEntity
8
SK2
62
256
6
ByLayer
370
-1
48
1
60
0
100
AcDbLine
10
0
20
-32.8375
30
0
11
0
21
-61.3258
31
0
39
0
210
0
220
0
230
1
0
LINE
5
2C0
100
AcDbEntity
8
SK2
62
256
6
ByLayer
370
-1
48
1
60
0
100
AcDbLine
10
-80
20
-58.1508
30
0
11
0
21
-58.1508
31
0
39
0
210
0
220
0
230
1
0
SOLID
5
2C1
100
AcDbEntity
8
SK2
62
256
6
ByLayer
370
-1
48
1
60
0
100
AcDbTrace
10
-80
20
-58.1508
30
0
11
-75.825003
21
-57.225225
31
0
12
-75.824997
22
-59.076375
32
0
13
-80
23
-58.1508
33
0
39
0
210
0
220
0
230
1
0
SOLID
5
2C2
100
AcDbEntity
8
SK2
62
256
6
ByLayer
370
-1
48
1
60
0
100
AcDbTrace
10
0
20
-58.1508
30
0
11
-4.174997
21
-59.076375
31
0
12
-4.175003
22
-57.225225
32
0
13
0
23
-58.1508
33
0
39
0
210
0
220
0
230
1
0
ENDBLK
5
2C4
100
AcDbEntity
8
0
100
AcDbBlockEnd
0
BLOCK
5
2CE
100
AcDbEntity
8
0
100
AcDbBlockBegin
2
DimnDraft3D3
70
0
10
0
20
0
30
0
3
DimnDraft3D3
0
MTEXT
5
2C7
100
AcDbEntity
8
2
62
256
6
ByLayer
370
-1
48
1
60
0
100
AcDbMText
10
109.844079
20
-57.0258
30
0
210
0
220
0
230
1
1
\W01.000;\fsimplex.shx,bigfont.shx;226 
40
4.5
41
0
44
1.084337
50
0
71
7
72
5
7
DEFAULT
0
LINE
5
2C9
100
AcDbEntity
8
2
62
256
6
ByLayer
370
-1
48
1
60
0
100
AcDbLine
10
0
20
-32.8375
30
0
11
0
21
-61.3258
31
0
39
0
210
0
220
0
230
1
0
LINE
5
2CA
100
AcDbEntity
8
2
62
256
6
ByLayer
370
-1
48
1
60
0
100
AcDbLine
10
226
20
-25.0875
30
0
11
226
21
-61.3258
31
0
39
0
210
0
220
0
230
1
0
LINE
5
2CB
100
AcDbEntity
8
2
62
256
6
ByLayer
370
-1
48
1
60
0
100
AcDbLine
10
0
20
-58.1508
30
0
11
226
21
-58.1508
31
0
39
0
210
0
220
0
230
1
0
SOLID
5
2CC
100
AcDbEntity
8
2
62
256
6
ByLayer
370
-1
48
1
60
0
100
AcDbTrace
10
0
20
-58.1508
30
0
11
4.174997
21
-57.225225
31
0
12
4.175003
22
-59.076375
32
0
13
0
23
-58.1508
33
0
39
0
210
0
220
0
230
1
0
SOLID
5
2CD
100
AcDbEntity
8
2
62
256
6
ByLayer
370
-1
48
1
60
0
100
AcDbTrace
10
226
20
-58.1508
30
0
11
221.825003
21
-59.076375
31
0
12
221.824997
22
-57.225225
32
0
13
226
23
-58.1508
33
0
39
0
210
0
220
0
230
1
0
ENDBLK
5
2CF
100
AcDbEntity
8
0
100
AcDbBlockEnd
0
BLOCK
5
2D8
100
AcDbEntity
8
0
100
AcDbBlockBegin
2
DimnDraft3D4
70
0
10
0
20
0
30
0
3
DimnDraft3D4
0
MTEXT
5
2D2
100
AcDbEntity
8
SK2
62
256
6
ByLayer
370
-1
48
1
60
0
100
AcDbMText
10
126.906579
20
-47.0258
30
0
210
0
220
0
230
1
1
\W01.000;\fsimplex.shx,bigfont.shx;193 
40
4.5
41
0
44
1.084337
50
0
71
7
72
5
7
DEFAULT
0
LINE
5
2D3
100
AcDbEntity
8
SK2
62
256
6
ByLayer
370
-1
48
1
60
0
100
AcDbLine
10
33
20
-11.5875
30
0
11
33
21
-51.3258
31
0
39
0
210
0
220
0
230
1
0
LINE
5
2D4
100
AcDbEntity
8
SK2
62
256
6
ByLayer
370
-1
48
1
60
0
100
AcDbLine
10
226
20
-25.0875
30
0
11
226
21
-51.3258
31
0
39
0
210
0
220
0
230
1
0
LINE
5
2D5
100
AcDbEntity
8
SK2
62
256
6
ByLayer
370
-1
48
1
60
0
100
AcDbLine
10
33
20
-48.1508
30
0
11
226
21
-48.1508
31
0
39
0
210
0
220
0
230
1
0
SOLID
5
2D6
100
AcDbEntity
8
SK2
62
256
6
ByLayer
370
-1
48
1
60
0
100
AcDbTrace
10
33
20
-48.1508
30
0
11
37.174997
21
-47.225225
31
0
12
37.175003
22
-49.076375
32
0
13
33
23
-48.1508
33
0
39
0
210
0
220
0
230
1
0
SOLID
5
2D7
100
AcDbEntity
8
SK2
62
256
6
ByLayer
370
-1
48
1
60
0
100
AcDbTrace
10
226
20
-48.1508
30
0
11
221.825003
21
-49.076375
31
0
12
221.824997
22
-47.225225
32
0
13
226
23
-48.1508
33
0
39
0
210
0
220
0
230
1
0
ENDBLK
5
2D9
100
AcDbEntity
8
0
100
AcDbBlockEnd
0
BLOCK
5
2E3
100
AcDbEntity
8
0
100
AcDbBlockBegin
2
DimnDraft3D5
70
0
10
0
20
0
30
0
3
DimnDraft3D5
0
MTEXT
5
2DC
100
AcDbEntity
8
SK2
62
256
6
ByLayer
370
-1
48
1
60
0
100
AcDbMText
10
-90.975
20
5.246053
30
0
210
0
220
0
230
1
1
\W01.000;\fsimplex.shx,bigfont.shx;50 
40
4.5
41
0
44
1.084337
50
90
71
7
72
5
7
DEFAULT
0
MTEXT
5
2DD
100
AcDbEntity
8
SK2
62
256
6
ByLayer
370
-1
48
1
60
0
100
AcDbMText
10
-90.975
20
-8.253947
30
0
210
0
220
0
230
1
1
\W01.000;\fsimplex.shx,bigfont.shx;%%c 
40
4.5
41
0
44
1.084337
50
90
71
7
72
5
7
DEFAULT
0
LINE
5
2DE
100
AcDbEntity
8
SK2
62
256
6
ByLayer
370
-1
48
1
60
0
100
AcDbLine
10
-81.5875
20
25
30
0
11
-91.9
21
25
31
0
39
0
210
0
220
0
230
1
0
LINE
5
2DF
100
AcDbEntity
8
SK2
62
256
6
ByLayer
370
-1
48
1
60
0
100
AcDbLine
10
-81.5875
20
-25
30
0
11
-91.9
21
-25
31
0
39
0
210
0
220
0
230
1
0
LINE
5
2E0
100
AcDbEntity
8
SK2
62
256
6
ByLayer
370
-1
48
1
60
0
100
AcDbLine
10
-88.725
20
25
30
0
11
-88.725
21
-25
31
0
39
0
210
0
220
0
230
1
0
SOLID
5
2E1
100
AcDbEntity
8
SK2
62
256
6
ByLayer
370
-1
48
1
60
0
100
AcDbTrace
10
-88.725
20
25
30
0
11
-87.799425
21
20.825003
31
0
12
-89.650575
22
20.824997
32
0
13
-88.725
23
25
33
0
39
0
210
0
220
0
230
1
0
SOLID
5
2E2
100
AcDbEntity
8
SK2
62
256
6
ByLayer
370
-1
48
1
60
0
100
AcDbTrace
10
-88.725
20
-25
30
0
11
-89.650575
21
-20.825003
31
0
12
-87.799425
22
-20.824997
32
0
13
-88.725
23
-25
33
0
39
0
210
0
220
0
230
1
0
ENDBLK
5
2E4
100
AcDbEntity
8
0
100
AcDbBlockEnd
0
BLOCK
5
2EE
100
AcDbEntity
8
0
100
AcDbBlockBegin
2
DimnDraft3D6
70
0
10
0
20
0
30
0
3
DimnDraft3D6
0
MTEXT
5
2E7
100
AcDbEntity
8
SK2
62
256
6
ByLayer
370
-1
48
1
60
0
100
AcDbMText
10
-100.975
20
2.711842
30
0
210
0
220
0
230
1
1
\W01.000;\fsimplex.shx,bigfont.shx;62.5 
40
4.5
41
0
44
1.084337
50
90
71
7
72
5
7
DEFAULT
0
MTEXT
5
2E8
100
AcDbEntity
8
SK2
62
256
6
ByLayer
370
-1
48
1
60
0
100
AcDbMText
10
-100.975
20
-10.788158
30
0
210
0
220
0
230
1
1
\W01.000;\fsimplex.shx,bigfont.shx;%%c 
40
4.5
41
0
44
1.084337
50
90
71
7
72
5
7
DEFAULT
0
LINE
5
2E9
100
AcDbEntity
8
SK2
62
256
6
ByLayer
370
-1
48
1
60
0
100
AcDbLine
10
-1.5875
20
-31.25
30
0
11
-101.9
21
-31.25
31
0
39
0
210
0
220
0
230
1
0
LINE
5
2EA
100
AcDbEntity
8
SK2
62
256
6
ByLayer
370
-1
48
1
60
0
100
AcDbLine
10
-1.5875
20
31.25
30
0
11
-101.9
21
31.25
31
0
39
0
210
0
220
0
230
1
0
LINE
5
2EB
100
AcDbEntity
8
SK2
62
256
6
ByLayer
370
-1
48
1
60
0
100
AcDbLine
10
-98.725
20
-31.25
30
0
11
-98.725
21
31.25
31
0
39
0
210
0
220
0
230
1
0
SOLID
5
2EC
100
AcDbEntity
8
SK2
62
256
6
ByLayer
370
-1
48
1
60
0
100
AcDbTrace
10
-98.725
20
-31.25
30
0
11
-99.650575
21
-27.075003
31
0
12
-97.799425
22
-27.074997
32
0
13
-98.725
23
-31.25
33
0
39
0
210
0
220
0
230
1
0
SOLID
5
2ED
100
AcDbEntity
8
SK2
62
256
6
ByLayer
370
-1
48
1
60
0
100
AcDbTrace
10
-98.725
20
31.25
30
0
11
-97.799425
21
27.075003
31
0
12
-99.650575
22
27.074997
32
0
13
-98.725
23
31.25
33
0
39
0
210
0
220
0
230
1
0
ENDBLK
5
2EF
100
AcDbEntity
8
0
100
AcDbBlockEnd
0
BLOCK
5
2F9
100
AcDbEntity
8
0
100
AcDbBlockBegin
2
DimnDraft3D7
70
0
10
0
20
0
30
0
3
DimnDraft3D7
0
MTEXT
5
2F2
100
AcDbEntity
8
2
62
256
6
ByLayer
370
-1
48
1
60
0
100
AcDbMText
10
250.725
20
5.009211
30
0
210
0
220
0
230
1
1
\W01.000;\fsimplex.shx,bigfont.shx;47 
40
4.5
41
0
44
1.084337
50
90
71
7
72
5
7
DEFAULT
0
MTEXT
5
2F3
100
AcDbEntity
8
2
62
256
6
ByLayer
370
-1
48
1
60
0
100
AcDbMText
10
250.725
20
-8.490789
30
0
210
0
220
0
230
1
1
\W01.000;\fsimplex.shx,bigfont.shx;%%c 
40
4.5
41
0
44
1.084337
50
90
71
7
72
5
7
DEFAULT
0
LINE
5
2F4
100
AcDbEntity
8
2
62
256
6
ByLayer
370
-1
48
1
60
0
100
AcDbLine
10
227.5875
20
23.5
30
0
11
256.15
21
23.5
31
0
39
0
210
0
220
0
230
1
0
LINE
5
2F5
100
AcDbEntity
8
2
62
256
6
ByLayer
370
-1
48
1
60
0
100
AcDbLine
10
227.5875
20
-23.5
30
0
11
256.15
21
-23.5
31
0
39
0
210
0
220
0
230
1
0
LINE
5
2F6
100
AcDbEntity
8
2
62
256
6
ByLayer
370
-1
48
1
60
0
100
AcDbLine
10
252.975
20
23.5
30
0
11
252.975
21
-23.5
31
0
39
0
210
0
220
0
230
1
0
SOLID
5
2F7
100
AcDbEntity
8
2
62
256
6
ByLayer
370
-1
48
1
60
0
100
AcDbTrace
10
252.975
20
23.5
30
0
11
253.900575
21
19.325003
31
0
12
252.049425
22
19.324997
32
0
13
252.975
23
23.5
33
0
39
0
210
0
220
0
230
1
0
SOLID
5
2F8
100
AcDbEntity
8
2
62
256
6
ByLayer
370
-1
48
1
60
0
100
AcDbTrace
10
252.975
20
-23.5
30
0
11
252.049425
21
-19.325003
31
0
12
253.900575
22
-19.324997
32
0
13
252.975
23
-23.5
33
0
39
0
210
0
220
0
230
1
0
ENDBLK
5
2FA
100
AcDbEntity
8
0
100
AcDbBlockEnd
0
ENDSEC
0
SECTION
2
ENTITIES
0
ARC
5
FD
100
AcDbEntity
8
SK1
62
256
6
ByLayer
370
-1
48
1
60
0
100
AcDbCircle
39
0
10
1.383773
20
25.15
30
0
40
0.4
210
0
220
0
230
-1
100
AcDbArc
50
270
51
295
0
ARC
5
FE
100
AcDbEntity
8
SK1
62
256
6
ByLayer
370
-1
48
1
60
0
100
AcDbCircle
39
0
10
1.383773
20
-25.15
30
0
40
0.4
210
0
220
0
230
-1
100
AcDbArc
50
65
51
90
0
ARC
5
FF
100
AcDbEntity
8
SK1
62
256
6
ByLayer
370
-1
48
1
60
0
100
AcDbCircle
39
0
10
0.15
20
25.15
30
0
40
0.4
210
0
220
0
230
-1
100
AcDbArc
50
247.975687
51
270
0
ARC
5
100
100
AcDbEntity
8
SK1
62
256
6
ByLayer
370
-1
48
1
60
0
100
AcDbCircle
39
0
10
0.15
20
-25.15
30
0
40
0.4
210
0
220
0
230
-1
100
AcDbArc
50
90
51
112.024313
0
ARC
5
101
100
AcDbEntity
8
SK1
62
256
6
ByLayer
370
-1
48
1
60
0
100
AcDbCircle
39
0
10
77.894506
20
25.396
30
0
40
0.8
210
0
220
0
230
-1
100
AcDbArc
50
250.982048
51
321
0
ARC
5
102
100
AcDbEntity
8
SK1
62
256
6
ByLayer
370
-1
48
1
60
0
100
AcDbCircle
39
0
10
77.894506
20
-25.396
30
0
40
0.8
210
0
220
0
230
-1
100
AcDbArc
50
39
51
109.017952
0
ELLIPSE
5
103
100
AcDbEntity
8
1
62
256
6
ByLayer
370
-1
48
1
60
0
100
AcDbEllipse
10
179.456573
20
17.945549
30
0
11
-25.8626993204248
21
13.0818989928289
31
0
210
0
220
0
230
-1
40
0.102866
41
-2.68029659126156
42
-2.00395802620961
0
ELLIPSE
5
104
100
AcDbEntity
8
1
62
256
6
ByLayer
370
-1
48
1
60
0
100
AcDbEllipse
10
181.982559
20
17.705376
30
0
11
-32.6388274313426
21
14.0091247056977
31
0
210
0
220
0
230
-1
40
0.010594
41
2.12487364686449
42
2.24994698854861
0
ELLIPSE
5
105
100
AcDbEntity
8
1
62
256
6
ByLayer
370
-1
48
1
60
0
100
AcDbEllipse
10
74.916475
20
0
30
0
11
-405.489713129811
21
-22.0489819987193
31
0
210
0
220
0
230
-1
40
0.014313
41
-1.93968654557157
42
-1.90578046566136
0
ELLIPSE
5
106
100
AcDbEntity
8
1
62
256
6
ByLayer
370
-1
48
1
60
0
100
AcDbEllipse
10
210.639021
20
13.895275
30
0
11
-0.799516360141551
21
-0.0278134835287853
31
0
210
0
220
0
230
1
40
0.003042
41
0.0872135714651397
42
0.974050329556216
0
ELLIPSE
5
107
100
AcDbEntity
8
1
62
256
6
ByLayer
370
-1
48
1
60
0
100
AcDbEllipse
10
217.820748
20
-4.796831
30
0
11
-1.65
21
1.6675544408859E-15
31
0
210
0
220
0
230
1
40
0.997564
41
-3.11636194851898
42
-0.0253295671303054
0
ELLIPSE
5
108
100
AcDbEntity
8
1
62
256
6
ByLayer
370
-1
48
1
60
0
100
AcDbEllipse
10
224.110183
20
0
30
0
11
-54.4443630584868
21
22.0817092840408
31
0
210
0
220
0
230
-1
40
0.104287
41
-1.18405363000389
42
-0.693739192809558
0
ELLIPSE
5
109
100
AcDbEntity
8
1
62
256
6
ByLayer
370
-1
48
1
60
0
100
AcDbEllipse
10
210.689864
20
0
30
0
11
-138.651007127591
21
1.6344198995007
31
0
210
0
220
0
230
-1
40
0.164019
41
-1.53985628730647
42
-1.45098633900721
0
ELLIPSE
5
10A
100
AcDbEntity
8
1
62
256
6
ByLayer
370
-1
48
1
60
0
100
AcDbEllipse
10
209.571079
20
23.625999
30
0
11
-1.71499099643757E-14
21
-16
31
0
210
0
220
0
230
1
40
0.996195
41
-0.401425727958701
42
-1.63553297897062E-08
0
ELLIPSE
5
10B
100
AcDbEntity
8
1
62
256
6
ByLayer
370
-1
48
1
60
0
100
AcDbEllipse
10
218.203017
20
15.328919
30
0
11
2.34290668463255E-15
21
2
31
0
210
0
220
0
230
1
40
0.996195
41
0
42
6.28318530717959
0
ELLIPSE
5
10C
100
AcDbEntity
8
1
62
256
6
ByLayer
370
-1
48
1
60
0
100
AcDbEllipse
10
215.488975
20
1E-06
30
0
11
-260.60518818975
21
-2.95291658071275E-13
31
0
210
0
220
0
230
-1
40
0.087489
41
1.53930540395573
42
1.5483692314555
0
ELLIPSE
5
10D
100
AcDbEntity
8
1
62
256
6
ByLayer
370
-1
48
1
60
0
100
AcDbEllipse
10
217.820748
20
-4.713557
30
0
11
-1.65
21
1.6675544408859E-15
31
0
210
0
220
0
230
1
40
0.997564
41
-3.141592486695
42
0
0
ELLIPSE
5
10E
100
AcDbEntity
8
1
62
256
6
ByLayer
370
-1
48
1
60
0
100
AcDbEllipse
10
217.820748
20
-4.713557
30
0
11
-1.65
21
1.6675544408859E-15
31
0
210
0
220
0
230
1
40
0.997564
41
0
42
1.64580203992918
0
ELLIPSE
5
10F
100
AcDbEntity
8
1
62
256
6
ByLayer
370
-1
48
1
60
0
100
AcDbEllipse
10
217.820748
20
-4.713557
30
0
11
-1.65
21
1.6675544408859E-15
31
0
210
0
220
0
230
1
40
0.997564
41
1.68291165597378
42
3.14159221294404
0
ELLIPSE
5
110
100
AcDbEntity
8
1
62
256
6
ByLayer
370
-1
48
1
60
0
100
AcDbEllipse
10
203.654566
20
9.634325
30
0
11
-0.313595748497264
21
-0.735973984950855
31
0
210
0
220
0
230
1
40
0.080227
41
0.0341712377311708
42
1.60496756452651
0
ELLIPSE
5
111
100
AcDbEntity
8
1
62
256
6
ByLayer
370
-1
48
1
60
0
100
AcDbEllipse
10
211.933285
20
13.940645
30
0
11
-2.25092568282431E-15
21
-2.1
31
0
210
0
220
0
230
1
40
0.996195
41
-2.12048111657724
42
-1.53588974175502
0
ELLIPSE
5
112
100
AcDbEntity
8
1
62
256
6
ByLayer
370
-1
48
1
60
0
100
AcDbEllipse
10
224.310232
20
-11.841449
30
0
11
-0.0766931515652861
21
-0.877709776626245
31
0
210
0
220
0
230
-1
40
0.115977
41
0.0117126501966256
42
1.58250897699552
0
ELLIPSE
5
113
100
AcDbEntity
8
1
62
256
6
ByLayer
370
-1
48
1
60
0
100
AcDbEllipse
10
223.010549
20
-15.966036
30
0
11
-0.246988010336964
21
-3.10607772505861
31
0
210
0
220
0
230
-1
40
0.121796
41
1.14483630281753
42
0.0990808737388539
0
ELLIPSE
5
114
100
AcDbEntity
8
1
62
256
6
ByLayer
370
-1
48
1
60
0
100
AcDbEllipse
10
225.849721
20
0
30
0
11
-1.84946686673176
21
-22.7987881461172
31
0
210
0
220
0
230
-1
40
0.127103
41
0.70429267221446
42
1.08945213109282
0
ELLIPSE
5
115
100
AcDbEntity
8
1
62
256
6
ByLayer
370
-1
48
1
60
0
100
AcDbEllipse
10
204.383193
20
15.600425
30
0
11
-1.01976294692999
21
-10.8521925679592
31
0
210
0
220
0
230
1
40
0.173962
41
1.42524779298301
42
1.58714175695826
0
ELLIPSE
5
116
100
AcDbEntity
8
1
62
256
6
ByLayer
370
-1
48
1
60
0
100
AcDbEllipse
10
217.820748
20
-5.28556
30
0
11
-2
21
2.02127811016473E-15
31
0
210
0
220
0
230
1
40
0.997564
41
-2.25595810801175
42
-0.885732702026401
0
ELLIPSE
5
117
100
AcDbEntity
8
1
62
256
6
ByLayer
370
-1
48
1
60
0
100
AcDbEllipse
10
179.331111
20
17.954518
30
0
11
-28.688767756186
21
13.2881297689794
31
0
210
0
220
0
230
-1
40
0.092462
41
2.47269610720656
42
2.50450047664873
0
ELLIPSE
5
118
100
AcDbEntity
8
1
62
256
6
ByLayer
370
-1
48
1
60
0
100
AcDbEllipse
10
210.099533
20
8.435259
30
0
11
0.0280261150489101
21
-0.799508934831416
31
0
210
0
220
0
230
1
40
0.087103
41
0.0631311649895973
42
0.611859362791408
0
ELLIPSE
5
119
100
AcDbEntity
8
1
62
256
6
ByLayer
370
-1
48
1
60
0
100
AcDbEllipse
10
16.7
20
7.501447
30
0
11
-11
21
1.1117029605906E-14
31
0
210
0
220
0
230
1
40
0.806161
41
-1.73020762966189
42
-0.186616384525761
0
ELLIPSE
5
11A
100
AcDbEntity
8
1
62
256
6
ByLayer
370
-1
48
1
60
0
100
AcDbEllipse
10
211.575947
20
13.940645
30
0
11
2.46005201886418E-15
21
2.1
31
0
210
0
220
0
230
1
40
0.996195
41
0.939115740685899
42
1.60570291183478
0
ELLIPSE
5
11B
100
AcDbEntity
8
1
62
256
6
ByLayer
370
-1
48
1
60
0
100
AcDbEllipse
10
210.673267
20
16.027845
30
0
11
-0.773306882799298
21
-0.824449234467244
31
0
210
0
220
0
230
-1
40
0.04503
41
-0.757084607889117
42
-0.704869720509552
0
ELLIPSE
5
11C
100
AcDbEntity
8
1
62
256
6
ByLayer
370
-1
48
1
60
0
100
AcDbEllipse
10
212.098427
20
9.193538
30
0
11
-2.25092568282431E-15
21
-2.1
31
0
210
0
220
0
230
1
40
0.996195
41
-1.53588974175502
42
-0.158767832418391
0
ELLIPSE
5
11D
100
AcDbEntity
8
1
62
256
6
ByLayer
370
-1
48
1
60
0
100
AcDbEllipse
10
223.743436
20
1.006755
30
0
11
-0.00527082764385385
21
-0.80029680323824
31
0
210
0
220
0
230
-1
40
0.123216
41
1.64404711105643
42
-3.06834186932389
0
ELLIPSE
5
11E
100
AcDbEntity
8
1
62
256
6
ByLayer
370
-1
48
1
60
0
100
AcDbEllipse
10
224.198646
20
-3E-06
30
0
11
-0.162215457576122
21
-22.8000101312773
31
0
210
0
220
0
230
-1
40
0.123299
41
1.64253950231657
42
1.68143097170302
0
ELLIPSE
5
11F
100
AcDbEntity
8
1
62
256
6
ByLayer
370
-1
48
1
60
0
100
AcDbEllipse
10
211.546966
20
0
30
0
11
-128.498959143392
21
-1.45602130830401E-13
31
0
210
0
220
0
230
-1
40
0.177433
41
1.41656556297418
42
1.53069218460947
0
ELLIPSE
5
120
100
AcDbEntity
8
1
62
256
6
ByLayer
370
-1
48
1
60
0
100
AcDbEllipse
10
204.339623
20
5.920152
30
0
11
-14.7476103864832
21
6.56883070597459
31
0
210
0
220
0
230
-1
40
0.142541
41
1.42677700911581
42
1.43408513936584
0
ELLIPSE
5
121
100
AcDbEntity
8
1
62
256
6
ByLayer
370
-1
48
1
60
0
100
AcDbEllipse
10
204.842567
20
7.640867
30
0
11
-16.8119563835058
21
-0.528911816900684
31
0
210
0
220
0
230
-1
40
0.010627
41
-1.89591022256847
42
-1.8873796484426
0
ELLIPSE
5
122
100
AcDbEntity
8
1
62
256
6
ByLayer
370
-1
48
1
60
0
100
AcDbEllipse
10
218.002559
20
15.328919
30
0
11
2.63577002021162E-15
21
2.25
31
0
210
0
220
0
230
1
40
0.996195
41
-2.22542577446687
42
0
0
ELLIPSE
5
123
100
AcDbEntity
8
1
62
256
6
ByLayer
370
-1
48
1
60
0
100
AcDbEllipse
10
218.002559
20
15.328919
30
0
11
2.63577002021162E-15
21
2.25
31
0
210
0
220
0
230
1
40
0.996195
41
0
42
1.16248744141283
0
ELLIPSE
5
124
100
AcDbEntity
8
1
62
256
6
ByLayer
370
-1
48
1
60
0
100
AcDbEllipse
10
224.187058
20
8.62235
30
0
11
-0.00545091503522689
21
-0.800806948779028
31
0
210
0
220
0
230
-1
40
0.122326
41
-0.89281360507209
42
0.00102184020253318
0
ELLIPSE
5
125
100
AcDbEntity
8
1
62
256
6
ByLayer
370
-1
48
1
60
0
100
AcDbEllipse
10
224.212957
20
0
30
0
11
-1.4073541242905
21
22.7993895238277
31
0
210
0
220
0
230
-1
40
0.118552
41
-2.03451229828287
42
-1.49085816404056
0
ELLIPSE
5
126
100
AcDbEntity
8
1
62
256
6
ByLayer
370
-1
48
1
60
0
100
AcDbEllipse
10
206.296544
20
15.7
30
0
11
1.17145334231633E-16
21
0.100000000000005
31
0
210
0
220
0
230
1
40
0.984621
41
3.04933209242162
42
-1.5707963267949
0
ELLIPSE
5
127
100
AcDbEntity
8
1
62
256
6
ByLayer
370
-1
48
1
60
0
100
AcDbEllipse
10
212.013437
20
8.461677
30
0
11
-11.5240026037457
21
0.60622583789418
31
0
210
0
220
0
230
-1
40
0.000357
41
-3.13583344338395
42
-3.13481450702372
0
ELLIPSE
5
128
100
AcDbEntity
8
1
62
256
6
ByLayer
370
-1
48
1
60
0
100
AcDbEllipse
10
209.640804
20
23.625999
30
0
11
1.78060908032074E-14
21
15.2
31
0
210
0
220
0
230
1
40
0.996195
41
2.7401669256311
42
-3.13150721822985
0
ELLIPSE
5
129
100
AcDbEntity
8
1
62
256
6
ByLayer
370
-1
48
1
60
0
100
AcDbEllipse
10
211.741089
20
9.193538
30
0
11
2.46005201886418E-15
21
2.1
31
0
210
0
220
0
230
1
40
0.996195
41
1.60570291183478
42
1.94456523429143
0
ELLIPSE
5
12A
100
AcDbEntity
8
1
62
256
6
ByLayer
370
-1
48
1
60
0
100
AcDbEllipse
10
225.849721
20
0
30
0
11
-1.84946686649988
21
-22.7987881448189
31
0
210
0
220
0
230
-1
40
0.127103
41
0.0467831438902018
42
0.571084256027867
0
ELLIPSE
5
12B
100
AcDbEntity
8
1
62
256
6
ByLayer
370
-1
48
1
60
0
100
AcDbEllipse
10
210.804163
20
9.148169
30
0
11
-0.799516360141551
21
-0.0278134835287853
31
0
210
0
220
0
230
1
40
0.003042
41
0.087213571465873
42
0.974050329556246
0
ELLIPSE
5
12C
100
AcDbEntity
8
1
62
256
6
ByLayer
370
-1
48
1
60
0
100
AcDbEllipse
10
217.820748
20
-4.713557
30
0
11
2.1
21
0
31
0
210
0
220
0
230
1
40
0.997564
41
0.069017019123418
42
2.93748737665588
0
ELLIPSE
5
12D
100
AcDbEntity
8
1
62
256
6
ByLayer
370
-1
48
1
60
0
100
AcDbEllipse
10
212.114876
20
9.193538
30
0
11
-1.83236116208183
21
-1.63166900511876
31
0
210
0
220
0
230
-1
40
0.721468
41
-1.30152588459517
42
0.0506349693259367
0
ELLIPSE
5
12E
100
AcDbEntity
8
1
62
256
6
ByLayer
370
-1
48
1
60
0
100
AcDbEllipse
10
204.383193
20
15.600425
30
0
11
-1.01976294692999
21
-10.8521925679592
31
0
210
0
220
0
230
1
40
0.173962
41
0.0163454301633691
42
0.791977912677904
0
ELLIPSE
5
12F
100
AcDbEntity
8
1
62
256
6
ByLayer
370
-1
48
1
60
0
100
AcDbEllipse
10
84.634161
20
26.853048
30
0
11
-123.074275218224
21
11.4761571487878
31
0
210
0
220
0
230
-1
40
0.088179
41
-2.98792082304873
42
-2.74874844256946
0
ELLIPSE
5
130
100
AcDbEntity
8
1
62
256
6
ByLayer
370
-1
48
1
60
0
100
AcDbEllipse
10
218.612649
20
15.328919
30
0
11
2.34290668463255E-15
21
2
31
0
210
0
220
0
230
1
40
0.996195
41
0.102985300926076
42
1.57079604872776
0
ELLIPSE
5
131
100
AcDbEntity
8
1
62
256
6
ByLayer
370
-1
48
1
60
0
100
AcDbEllipse
10
218.612649
20
15.328919
30
0
11
2.34290668463255E-15
21
2
31
0
210
0
220
0
230
1
40
0.996195
41
1.57079654872776
42
3.03860729631731
0
ELLIPSE
5
132
100
AcDbEntity
8
1
62
256
6
ByLayer
370
-1
48
1
60
0
100
AcDbEllipse
10
210.332533
20
-0.000599
30
0
11
-0.738244069951987
21
22.8005080276609
31
0
210
0
220
0
230
-1
40
0.087397
41
0.0252565549248808
42
0.032926642270851
0
ELLIPSE
5
133
100
AcDbEntity
8
1
62
256
6
ByLayer
370
-1
48
1
60
0
100
AcDbEllipse
10
218.203017
20
15.328919
30
0
11
2.63577002021162E-15
21
2.25
31
0
210
0
220
0
230
1
40
0.996195
41
0.0349501263397849
42
1.57079643761665
0
ELLIPSE
5
134
100
AcDbEntity
8
1
62
256
6
ByLayer
370
-1
48
1
60
0
100
AcDbEllipse
10
218.203017
20
15.328919
30
0
11
2.63577002021162E-15
21
2.25
31
0
210
0
220
0
230
1
40
0.996195
41
1.57079643761666
42
1.87572723107152
0
ELLIPSE
5
135
100
AcDbEntity
8
1
62
256
6
ByLayer
370
-1
48
1
60
0
100
AcDbEllipse
10
219.108729
20
20.461589
30
0
11
-0.0140130575244566
21
0.399754467415708
31
0
210
0
220
0
230
1
40
0.087103
41
-1.5738496276308
42
-1.09494454275644
0
ELLIPSE
5
136
100
AcDbEntity
8
1
62
256
6
ByLayer
370
-1
48
1
60
0
100
AcDbEllipse
10
217.808168
20
15.606782
30
0
11
4.99704147825015E-15
21
4.26567691408833
31
0
210
0
220
0
230
1
40
0.996195
41
-2.78424263309282
42
-1.85833317721211
0
ELLIPSE
5
137
100
AcDbEntity
8
1
62
256
6
ByLayer
370
-1
48
1
60
0
100
AcDbEllipse
10
213.69843
20
20.210842
30
0
11
0.348527918949299
21
0.3723282016083
31
0
210
0
220
0
230
1
40
0.063742
41
-1.51119985916248
42
-0.86769875036941
0
ELLIPSE
5
138
100
AcDbEntity
8
1
62
256
6
ByLayer
370
-1
48
1
60
0
100
AcDbEllipse
10
212.91304
20
19.365397
30
0
11
0.099131498336372
21
0.500272871578687
31
0
210
0
220
0
230
1
40
0.085506
41
-1.55385457642578
42
-0.910353467632622
0
ELLIPSE
5
139
100
AcDbEntity
8
1
62
256
6
ByLayer
370
-1
48
1
60
0
100
AcDbEllipse
10
217.808168
20
15.606782
30
0
11
3.68413502519129E-15
21
3.14492681194351
31
0
210
0
220
0
230
1
40
0.996195
41
0
42
6.28318530717959
0
ELLIPSE
5
13A
100
AcDbEntity
8
1
62
256
6
ByLayer
370
-1
48
1
60
0
100
AcDbEllipse
10
219.463361
20
11.156853
30
0
11
-5.19131082315856E-16
21
-0.484323085911667
31
0
210
0
220
0
230
1
40
0.996195
41
-2.78424263309281
42
0.0349065850399259
0
ELLIPSE
5
13B
100
AcDbEntity
8
1
62
256
6
ByLayer
370
-1
48
1
60
0
100
AcDbEllipse
10
222.345825
20
14.259724
30
0
11
-5.19131082315857E-16
21
-0.484323085911668
31
0
210
0
220
0
230
1
40
0.996195
41
1.60570291183474
42
-1.85833317721212
0
ELLIPSE
5
13C
100
AcDbEntity
8
1
62
256
6
ByLayer
370
-1
48
1
60
0
100
AcDbEllipse
10
217.905238
20
15.606782
30
0
11
-3.19627500372467E-15
21
-2.98196318032136
31
0
210
0
220
0
230
1
40
0.996195
41
0
42
6.28318530717959
0
ELLIPSE
5
13D
100
AcDbEntity
8
1
62
256
6
ByLayer
370
-1
48
1
60
0
100
AcDbEllipse
10
213.92589
20
12.213727
30
0
11
-0.719441079109824
21
-0.0251232539412875
31
0
210
0
220
0
230
-1
40
0.002159
41
-2.27604469503337
42
-1.63254358548212
0
ELLIPSE
5
13E
100
AcDbEntity
8
1
62
256
6
ByLayer
370
-1
48
1
60
0
100
AcDbEllipse
10
214.387884
20
12.711047
30
0
11
0.373651049327857
21
-0.347109339165905
31
0
210
0
220
0
230
1
40
0.05944
41
1.50689827555566
42
2.15039938434923
0
ELLIPSE
5
13F
100
AcDbEntity
8
1
62
256
6
ByLayer
370
-1
48
1
60
0
100
AcDbEllipse
10
215.060857
20
18.935505
30
0
11
0.348527918949299
21
0.3723282016083
31
0
210
0
220
0
230
1
40
0.063742
41
-2.1547009679558
42
-0.867698750369297
0
ELLIPSE
5
140
100
AcDbEntity
8
1
62
256
6
ByLayer
370
-1
48
1
60
0
100
AcDbEllipse
10
213.961449
20
12.213727
30
0
11
3.5846472274878E-16
21
0.306
31
0
210
0
220
0
230
1
40
0.996195
41
0.881327184779031
42
2.39110107523223
0
ELLIPSE
5
141
100
AcDbEntity
8
1
62
256
6
ByLayer
370
-1
48
1
60
0
100
AcDbEllipse
10
213.383957
20
11.592076
30
0
11
3.58464722748779E-16
21
0.305999999999999
31
0
210
0
220
0
230
1
40
0.996195
41
-1.39399268715089
42
1.747599966439
0
ELLIPSE
5
142
100
AcDbEntity
8
1
62
256
6
ByLayer
370
-1
48
1
60
0
100
AcDbEllipse
10
217.881523
20
15.606782
30
0
11
-3.30786649004912E-15
21
-3.0860724021715
31
0
210
0
220
0
230
1
40
0.996195
41
2.2155101975546
42
0
0
ELLIPSE
5
143
100
AcDbEntity
8
1
62
256
6
ByLayer
370
-1
48
1
60
0
100
AcDbEllipse
10
217.881523
20
15.606782
30
0
11
-3.30786649004912E-15
21
-3.0860724021715
31
0
210
0
220
0
230
1
40
0.996195
41
0
42
0.926082660508351
0
ELLIPSE
5
144
100
AcDbEntity
8
1
62
256
6
ByLayer
370
-1
48
1
60
0
100
AcDbEllipse
10
213.348397
20
11.592076
30
0
11
0.502108561637825
21
0.0893699744321017
31
0
210
0
220
0
230
1
40
0.015329
41
-2.1283846410781
42
-0.841382423492335
0
ELLIPSE
5
145
100
AcDbEntity
8
1
62
256
6
ByLayer
370
-1
48
1
60
0
100
AcDbEllipse
10
219.327882
20
11.437901
30
0
11
0.14038589456198
21
-0.374555470668942
31
0
210
0
220
0
230
1
40
0.08165
41
1.54020296240859
42
2.01910804728366
0
ELLIPSE
5
146
100
AcDbEntity
8
1
62
256
6
ByLayer
370
-1
48
1
60
0
100
AcDbEllipse
10
213.925889
20
12.213727
30
0
11
-0.0251713330742219
21
0.720817343673025
31
0
210
0
220
0
230
-1
40
0.061592
41
1.57294752376576
42
1.6095459564293
0
ELLIPSE
5
147
100
AcDbEntity
8
1
62
256
6
ByLayer
370
-1
48
1
60
0
100
AcDbEllipse
10
218.065765
20
15.606782
30
0
11
-2.51889302601768E-15
21
-2.35
31
0
210
0
220
0
230
1
40
0.996195
41
3.09878844376697
42
0
0
ELLIPSE
5
148
100
AcDbEntity
8
1
62
256
6
ByLayer
370
-1
48
1
60
0
100
AcDbEllipse
10
218.065765
20
15.606782
30
0
11
-2.51889302601768E-15
21
-2.35
31
0
210
0
220
0
230
1
40
0.996195
41
0
42
0.0335758030814271
0
ELLIPSE
5
149
100
AcDbEntity
8
1
62
256
6
ByLayer
370
-1
48
1
60
0
100
AcDbEllipse
10
219.150099
20
20.161772
30
0
11
-5.19131082315856E-16
21
-0.484323085911667
31
0
210
0
220
0
230
1
40
0.996195
41
-3.10668606854993
42
-0.287536850417242
0
ELLIPSE
5
14A
100
AcDbEntity
8
1
62
256
6
ByLayer
370
-1
48
1
60
0
100
AcDbEllipse
10
222.140785
20
20.26647
30
0
11
-3.21560811832048E-16
21
-0.300000000000003
31
0
210
0
220
0
230
1
40
0.996195
41
1.60570291183477
42
-3.10668606854979
0
ELLIPSE
5
14B
100
AcDbEntity
8
1
62
256
6
ByLayer
370
-1
48
1
60
0
100
AcDbEllipse
10
222.028296
20
14.344801
30
0
11
0.383695343937984
21
-0.113039298654548
31
0
210
0
220
0
230
1
40
0.024717
41
1.48709549701768
42
1.96600058189239
0
ELLIPSE
5
14C
100
AcDbEntity
8
1
62
256
6
ByLayer
370
-1
48
1
60
0
100
AcDbEllipse
10
222.245085
20
17.268298
30
0
11
-3.21560811832046E-16
21
-0.300000000000001
31
0
210
0
220
0
230
1
40
0.996195
41
-1.21344630629795
42
1.60570291183477
0
ELLIPSE
5
14D
100
AcDbEntity
8
1
62
256
6
ByLayer
370
-1
48
1
60
0
100
AcDbEllipse
10
213.92589
20
12.213727
30
0
11
0.348527918949299
21
0.3723282016083
31
0
210
0
220
0
230
1
40
0.063742
41
-2.15470096795583
42
-1.54779877208525
0
ELLIPSE
5
14E
100
AcDbEntity
8
1
62
256
6
ByLayer
370
-1
48
1
60
0
100
AcDbEllipse
10
213.69843
20
20.210842
30
0
11
0.492364140378782
21
0.132956960212932
31
0
210
0
220
0
230
1
40
0.022802
41
-2.13005594553488
42
-1.48655483674059
0
ELLIPSE
5
14F
100
AcDbEntity
8
1
62
256
6
ByLayer
370
-1
48
1
60
0
100
AcDbEllipse
10
213.98404
20
19.153173
30
0
11
-0.705563291487065
21
0.659061826839665
31
0
210
0
220
0
230
-1
40
0.031444
41
0.960945087820195
42
1.6044461967241
0
ELLIPSE
5
150
100
AcDbEntity
8
1
62
256
6
ByLayer
370
-1
48
1
60
0
100
AcDbEllipse
10
214.217522
20
11.741577
30
0
11
6.37270618220054E-16
21
0.544
31
0
210
0
220
0
230
1
40
0.996195
41
1.74759996643897
42
-2.42145532631405
0
ELLIPSE
5
151
100
AcDbEntity
8
1
62
256
6
ByLayer
370
-1
48
1
60
0
100
AcDbEllipse
10
219.154021
20
20.161772
30
0
11
-3.21560811832046E-16
21
-0.300000000000001
31
0
210
0
220
0
230
1
40
0.996195
41
-3.10668606854979
42
-0.287536850417191
0
ELLIPSE
5
152
100
AcDbEntity
8
1
62
256
6
ByLayer
370
-1
48
1
60
0
100
AcDbEllipse
10
214.33302
20
11.865907
30
0
11
-5.83096938788774E-16
21
-0.544
31
0
210
0
220
0
230
1
40
0.996195
41
0.920472169598865
42
2.77549784972789
0
ELLIPSE
5
153
100
AcDbEntity
8
1
62
256
6
ByLayer
370
-1
48
1
60
0
100
AcDbEllipse
10
214.275467
20
18.09006
30
0
11
0.348527918949299
21
0.3723282016083
31
0
210
0
220
0
230
1
40
0.063742
41
-2.15470096795626
42
-0.867698750368745
0
ELLIPSE
5
154
100
AcDbEntity
8
1
62
256
6
ByLayer
370
-1
48
1
60
0
100
AcDbEllipse
10
222.508899
20
17.278768
30
0
11
-0.399758180070776
21
-0.0139067417643927
31
0
210
0
220
0
230
1
40
0.003042
41
1.6580098982609
42
2.13691498313846
0
ELLIPSE
5
155
100
AcDbEntity
8
1
62
256
6
ByLayer
370
-1
48
1
60
0
100
AcDbEllipse
10
222.136863
20
20.26647
30
0
11
-5.19131082315858E-16
21
-0.484323085911669
31
0
210
0
220
0
230
1
40
0.996195
41
1.60570291183474
42
-3.10668606854993
0
ELLIPSE
5
156
100
AcDbEntity
8
1
62
256
6
ByLayer
370
-1
48
1
60
0
100
AcDbEllipse
10
213.913211
20
12.200079
30
0
11
0.373651049327857
21
-0.347109339165905
31
0
210
0
220
0
230
1
40
0.05944
41
1.47029936263275
42
2.15039938434923
0
ELLIPSE
5
157
100
AcDbEntity
8
1
62
256
6
ByLayer
370
-1
48
1
60
0
100
AcDbEllipse
10
222.717861
20
11.272021
30
0
11
0.399758180070776
21
0.0139067417643928
31
0
210
0
220
0
230
1
40
0.003042
41
-1.48358275532889
42
-1.00467767045524
0
ELLIPSE
5
158
100
AcDbEntity
8
1
62
256
6
ByLayer
370
-1
48
1
60
0
100
AcDbEllipse
10
213.98404
20
19.153173
30
0
11
0.492364140378782
21
0.132956960212932
31
0
210
0
220
0
230
1
40
0.022802
41
-1.48655483674059
42
-0.843053727947147
0
ELLIPSE
5
159
100
AcDbEntity
8
1
62
256
6
ByLayer
370
-1
48
1
60
0
100
AcDbEllipse
10
222.613561
20
14.270194
30
0
11
-0.399758180070776
21
-0.0139067417643927
31
0
210
0
220
0
230
1
40
0.003042
41
1.65800989826097
42
2.13691498313648
0
ELLIPSE
5
15A
100
AcDbEntity
8
1
62
256
6
ByLayer
370
-1
48
1
60
0
100
AcDbEllipse
10
212.91304
20
19.365397
30
0
11
-1.65004005617399
21
0.846499039172933
31
0
210
0
220
0
230
-1
40
0.010943
41
1.59212368597114
42
2.2356247942371
0
ELLIPSE
5
15B
100
AcDbEntity
8
1
62
256
6
ByLayer
370
-1
48
1
60
0
100
AcDbEllipse
10
214.387884
20
12.711047
30
0
11
-0.0546667450361371
21
-0.507061679667428
31
0
210
0
220
0
230
1
40
0.086657
41
1.58013866027565
42
2.22363976906952
0
ELLIPSE
5
15C
100
AcDbEntity
8
1
62
256
6
ByLayer
370
-1
48
1
60
0
100
AcDbEllipse
10
222.450125
20
11.261552
30
0
11
-5.19131082315858E-16
21
-0.484323085911669
31
0
210
0
220
0
230
1
40
0.996195
41
0.0349065850399259
42
1.60570291183474
0
ELLIPSE
5
15D
100
AcDbEntity
8
1
62
256
6
ByLayer
370
-1
48
1
60
0
100
AcDbEllipse
10
214.33302
20
11.865907
30
0
11
-1.23908099492614E-15
21
-1.156
31
0
210
0
220
0
230
1
40
0.996195
41
0.920472169598878
42
3.03460218402552
0
ELLIPSE
5
15E
100
AcDbEntity
8
1
62
256
6
ByLayer
370
-1
48
1
60
0
100
AcDbEllipse
10
219.034405
20
19.874088
30
0
11
0.113834701403356
21
0.383460116252537
31
0
210
0
220
0
230
1
40
0.083578
41
-2.02489549788603
42
-1.54599041301063
0
ELLIPSE
5
15F
100
AcDbEntity
8
1
62
256
6
ByLayer
370
-1
48
1
60
0
100
AcDbEllipse
10
214.217522
20
11.741577
30
0
11
1.35420006371761E-15
21
1.156
31
0
210
0
220
0
230
1
40
0.996195
41
1.74759996643896
42
-2.42145532631402
0
ELLIPSE
5
160
100
AcDbEntity
8
1
62
256
6
ByLayer
370
-1
48
1
60
0
100
AcDbEllipse
10
214.297461
20
11.865907
30
0
11
-0.348527918949299
21
-0.3723282016083
31
0
210
0
220
0
230
1
40
0.063742
41
0.98689168563449
42
2.27389390322046
0
ELLIPSE
5
161
100
AcDbEntity
8
1
62
256
6
ByLayer
370
-1
48
1
60
0
100
AcDbEllipse
10
222.404599
20
20.27694
30
0
11
0.399758180070776
21
0.0139067417643928
31
0
210
0
220
0
230
1
40
0.003042
41
-1.48358275532896
42
-1.00467767045133
0
ELLIPSE
5
162
100
AcDbEntity
8
1
62
256
6
ByLayer
370
-1
48
1
60
0
100
AcDbEllipse
10
214.423444
20
12.711047
30
0
11
3.5846472274878E-16
21
0.306
31
0
210
0
220
0
230
1
40
0.996195
41
-0.106990469564346
42
0.820304748434675
0
ELLIPSE
5
163
100
AcDbEntity
8
1
62
256
6
ByLayer
370
-1
48
1
60
0
100
AcDbEllipse
10
217.81209
20
15.606782
30
0
11
5.21296737330743E-15
21
4.45
31
0
210
0
220
0
230
1
40
0.996195
41
-1.21344630629792
42
-0.287536850417209
0
ELLIPSE
5
164
100
AcDbEntity
8
1
62
256
6
ByLayer
370
-1
48
1
60
0
100
AcDbEllipse
10
213.69843
20
20.210842
30
0
11
-0.956951143334163
21
1.59255145092954
31
0
210
0
220
0
230
-1
40
0.020508
41
1.5831188380871
42
2.22661994678544
0
ELLIPSE
5
165
100
AcDbEntity
8
1
62
256
6
ByLayer
370
-1
48
1
60
0
100
AcDbEllipse
10
213.913211
20
12.200079
30
0
11
-0.37340082812668
21
0.346876892031236
31
0
210
0
220
0
230
1
40
0.05944
41
-1.63469437803416
42
-0.992087287820099
0
ELLIPSE
5
166
100
AcDbEntity
8
1
62
256
6
ByLayer
370
-1
48
1
60
0
100
AcDbEllipse
10
222.349747
20
14.259724
30
0
11
3.51436002694884E-16
21
0.300000000000001
31
0
210
0
220
0
230
1
40
0.996195
41
-1.53588974175502
42
1.28325947637766
0
ELLIPSE
5
167
100
AcDbEntity
8
1
62
256
6
ByLayer
370
-1
48
1
60
0
100
AcDbEllipse
10
214.740394
20
11.102619
30
0
11
-0.337063013710962
21
0.382738193531928
31
0
210
0
220
0
230
1
40
0.065516
41
-2.2719312532173
42
-0.984929035631323
0
ELLIPSE
5
168
100
AcDbEntity
8
1
62
256
6
ByLayer
370
-1
48
1
60
0
100
AcDbEllipse
10
222.454047
20
11.261552
30
0
11
3.51436002694886E-16
21
0.300000000000003
31
0
210
0
220
0
230
1
40
0.996195
41
-3.10668606854989
42
-1.53588974175502
0
ELLIPSE
5
169
100
AcDbEntity
8
1
62
256
6
ByLayer
370
-1
48
1
60
0
100
AcDbEllipse
10
217.81209
20
15.606782
30
0
11
-4.76981870884199E-15
21
-4.45
31
0
210
0
220
0
230
1
40
0.996195
41
0.357350020496975
42
1.28325947637769
0
ELLIPSE
5
16A
100
AcDbEntity
8
1
62
256
6
ByLayer
370
-1
48
1
60
0
100
AcDbEllipse
10
214.311027
20
18.09006
30
0
11
-3.27992028068685E-16
21
-0.306
31
0
210
0
220
0
230
1
40
0.996195
41
-0.750491578357678
42
2.39110107523224
0
ELLIPSE
5
16B
100
AcDbEntity
8
1
62
256
6
ByLayer
370
-1
48
1
60
0
100
AcDbEllipse
10
222.429614
20
10.961734
30
0
11
0.014013057524455
21
-0.399754467415708
31
0
210
0
220
0
230
1
40
0.087103
41
1.08883794108433
42
1.56774302595899
0
ELLIPSE
5
16C
100
AcDbEntity
8
1
62
256
6
ByLayer
370
-1
48
1
60
0
100
AcDbEllipse
10
217.808168
20
15.606782
30
0
11
4.99704147825015E-15
21
4.26567691408833
31
0
210
0
220
0
230
1
40
0.996195
41
-1.21344630629792
42
-0.287536850417201
0
ELLIPSE
5
16D
100
AcDbEntity
8
1
62
256
6
ByLayer
370
-1
48
1
60
0
100
AcDbEllipse
10
215.096417
20
18.935505
30
0
11
-3.27992028068685E-16
21
-0.306
31
0
210
0
220
0
230
1
40
0.996195
41
-0.750491578357555
42
2.39110107523224
0
ELLIPSE
5
16E
100
AcDbEntity
8
1
62
256
6
ByLayer
370
-1
48
1
60
0
100
AcDbEllipse
10
212.948599
20
19.365397
30
0
11
3.5846472274878E-16
21
0.306
31
0
210
0
220
0
230
1
40
0.996195
41
-0.194895099805945
42
2.39110107523224
0
ELLIPSE
5
16F
100
AcDbEntity
8
1
62
256
6
ByLayer
370
-1
48
1
60
0
100
AcDbEllipse
10
222.241163
20
17.268298
30
0
11
-5.19131082315857E-16
21
-0.484323085911668
31
0
210
0
220
0
230
1
40
0.996195
41
-1.21344630629796
42
1.60570291183474
0
ELLIPSE
5
170
100
AcDbEntity
8
1
62
256
6
ByLayer
370
-1
48
1
60
0
100
AcDbEllipse
10
213.65909
20
12.380535
30
0
11
1.63300595918889E-15
21
1.394
31
0
210
0
220
0
230
1
40
0.996195
41
-2.42145532631401
42
-2.2211204839909
0
ELLIPSE
5
171
100
AcDbEntity
8
1
62
256
6
ByLayer
370
-1
48
1
60
0
100
AcDbEllipse
10
213.733989
20
20.210842
30
0
11
3.5846472274878E-16
21
0.306
31
0
210
0
220
0
230
1
40
0.996195
41
-0.750491578357678
42
1.83550459668077
0
ELLIPSE
5
172
100
AcDbEntity
8
1
62
256
6
ByLayer
370
-1
48
1
60
0
100
AcDbEllipse
10
214.971391
20
11.35128
30
0
11
-0.406468958660141
21
0.308030819311543
31
0
210
0
220
0
230
1
40
0.052768
41
-2.28381636720087
42
-0.99681414961345
0
ELLIPSE
5
173
100
AcDbEntity
8
1
62
256
6
ByLayer
370
-1
48
1
60
0
100
AcDbEllipse
10
214.33302
20
11.865907
30
0
11
-3.27992028068685E-16
21
-0.306
31
0
210
0
220
0
230
1
40
0.996195
41
-0.750491578357547
42
2.39110107523223
0
ELLIPSE
5
174
100
AcDbEntity
8
1
62
256
6
ByLayer
370
-1
48
1
60
0
100
AcDbEllipse
10
212.91304
20
19.365397
30
0
11
0.348527918949299
21
0.3723282016083
31
0
210
0
220
0
230
1
40
0.063742
41
-2.15470096795535
42
-1.51119985916248
0
ELLIPSE
5
175
100
AcDbEntity
8
1
62
256
6
ByLayer
370
-1
48
1
60
0
100
AcDbEllipse
10
219.467283
20
11.156853
30
0
11
3.51436002694884E-16
21
0.300000000000001
31
0
210
0
220
0
230
1
40
0.996195
41
0.357350020496809
42
-3.10668606854988
0
ELLIPSE
5
176
100
AcDbEntity
8
1
62
256
6
ByLayer
370
-1
48
1
60
0
100
AcDbEllipse
10
219.442851
20
10.857036
30
0
11
0.014013057524455
21
-0.399754467415708
31
0
210
0
220
0
230
1
40
0.087103
41
1.08883794108433
42
1.56774302595899
0
ELLIPSE
5
177
100
AcDbEntity
8
1
62
256
6
ByLayer
370
-1
48
1
60
0
100
AcDbEllipse
10
221.930244
20
17.16336
30
0
11
0.374905085817622
21
0.139449548683677
31
0
210
0
220
0
230
1
40
0.030486
41
-1.96792246060789
42
-1.48901737573349
0
ELLIPSE
5
178
100
AcDbEntity
8
1
62
256
6
ByLayer
370
-1
48
1
60
0
100
AcDbEllipse
10
213.98404
20
19.153173
30
0
11
0.099131498336372
21
0.500272871578687
31
0
210
0
220
0
230
1
40
0.085506
41
-2.19735568521924
42
-1.55385457642578
0
ELLIPSE
5
179
100
AcDbEntity
8
1
62
256
6
ByLayer
370
-1
48
1
60
0
100
AcDbEllipse
10
213.65909
20
12.380535
30
0
11
2.34993540468645E-15
21
2.006
31
0
210
0
220
0
230
1
40
0.996195
41
-2.42145532631401
42
-2.2211204839909
0
ELLIPSE
5
17A
100
AcDbEntity
8
1
62
256
6
ByLayer
370
-1
48
1
60
0
100
AcDbEllipse
10
214.0196
20
19.153173
30
0
11
-3.27992028068685E-16
21
-0.306
31
0
210
0
220
0
230
1
40
0.996195
41
-0.194895099806065
42
1.83550459668067
0
ELLIPSE
5
17B
100
AcDbEntity
8
1
62
256
6
ByLayer
370
-1
48
1
60
0
100
AcDbEllipse
10
218.204726
20
15.606782
30
0
11
-2.51889302601768E-15
21
-2.35
31
0
210
0
220
0
230
1
40
0.996195
41
-3.11194384373769
42
-0.0296489603413482
0
ELLIPSE
5
17C
100
AcDbEntity
8
1
62
256
6
ByLayer
370
-1
48
1
60
0
100
AcDbEllipse
10
222.095492
20
20.566288
30
0
11
-0.0140130575244566
21
0.399754467415708
31
0
210
0
220
0
230
1
40
0.087103
41
-1.5738496276308
42
-1.09494454275608
0
ELLIPSE
5
17D
100
AcDbEntity
8
1
62
256
6
ByLayer
370
-1
48
1
60
0
100
AcDbEllipse
10
218.064564
20
-5.831624
30
0
11
2.35
21
0
31
0
210
0
220
0
230
1
40
0.997564
41
1.1507064630006
42
2.46850638643292
0
ELLIPSE
5
17E
100
AcDbEntity
8
1
62
256
6
ByLayer
370
-1
48
1
60
0
100
AcDbEllipse
10
228.524413
20
-6.407897
30
0
11
-3.00000000000001
21
3.0319171652471E-15
31
0
210
0
220
0
230
1
40
0.997564
41
0.0523598775598172
42
0.419380376866295
0
ELLIPSE
5
17F
100
AcDbEntity
8
1
62
256
6
ByLayer
370
-1
48
1
60
0
100
AcDbEllipse
10
223.768686
20
-10.284257
30
0
11
-0.883873414348952
21
8.93276992290047E-16
31
0
210
0
220
0
230
1
40
0.997564
41
2.13649437897206
42
3.10668606854993
0
ELLIPSE
5
180
100
AcDbEntity
8
1
62
256
6
ByLayer
370
-1
48
1
60
0
100
AcDbEllipse
10
224.614458
20
-7.825945
30
0
11
0.365188559267697
21
0.163209424298917
31
0
210
0
220
0
230
1
40
0.063711
41
-2.7203783083821
42
-1.59926245588946
0
ELLIPSE
5
181
100
AcDbEntity
8
1
62
256
6
ByLayer
370
-1
48
1
60
0
100
AcDbEllipse
10
224.652021
20
-10.287126
30
0
11
0.399755140417831
21
-0.0139938454157801
31
0
210
0
220
0
230
1
40
0.069714
41
-2.69484373370648
42
-1.56835592109676
0
ELLIPSE
5
182
100
AcDbEntity
8
1
62
256
6
ByLayer
370
-1
48
1
60
0
100
AcDbEllipse
10
228.524413
20
-6.11492
30
0
11
4.28093556580439
21
0
31
0
210
0
220
0
230
1
40
0.997564
41
-3.08923277602997
42
-2.7222122767235
0
ELLIPSE
5
183
100
AcDbEntity
8
1
62
256
6
ByLayer
370
-1
48
1
60
0
100
AcDbEllipse
10
223.981687
20
-1.215745
30
0
11
0.399449138938554
21
0.0209853615944111
31
0
210
0
220
0
230
1
40
0.069661
41
-2.26018375206139
42
-1.57445599702667
0
ELLIPSE
5
184
100
AcDbEntity
8
1
62
256
6
ByLayer
370
-1
48
1
60
0
100
AcDbEllipse
10
223.501036
20
-8.495524
30
0
11
-2.24215242210385
21
2.26600680522567E-15
31
0
210
0
220
0
230
1
40
0.997564
41
3.10668606854989
42
-2.72221227672349
0
ELLIPSE
5
185
100
AcDbEntity
8
1
62
256
6
ByLayer
370
-1
48
1
60
0
100
AcDbEllipse
10
224.249345
20
-6.310519
30
0
11
0.399449138938554
21
0.0209853615944111
31
0
210
0
220
0
230
1
40
0.069661
41
-2.26019022116293
42
-1.57445599702667
0
ELLIPSE
5
186
100
AcDbEntity
8
1
62
256
6
ByLayer
370
-1
48
1
60
0
100
AcDbEllipse
10
224.088926
20
-8.363467
30
0
11
0.299810376168269
21
-0.0106648179469134
31
0
210
0
220
0
230
1
40
0.070874
41
0.451425555480483
42
0.749393722448999
0
ELLIPSE
5
187
100
AcDbEntity
8
1
62
256
6
ByLayer
370
-1
48
1
60
0
100
AcDbEllipse
10
218.064564
20
-5.713428
30
0
11
2.35
21
0
31
0
210
0
220
0
230
1
40
0.997564
41
1.38269361528275
42
2.42383717155513
0
ELLIPSE
5
188
100
AcDbEntity
8
1
62
256
6
ByLayer
370
-1
48
1
60
0
100
AcDbEllipse
10
228.524413
20
-6.261409
30
0
11
-3.25784757789614
21
3.29250799772732E-15
31
0
210
0
220
0
230
1
40
0.997564
41
0.0523598775598173
42
0.419380376866286
0
ELLIPSE
5
189
100
AcDbEntity
8
1
62
256
6
ByLayer
370
-1
48
1
60
0
100
AcDbEllipse
10
223.935488
20
-0.989223
30
0
11
0.375769594861038
21
0.137102923302063
31
0
210
0
220
0
230
1
40
0.06555
41
-2.20420308577726
42
-1.59470814660093
0
ELLIPSE
5
18A
100
AcDbEntity
8
1
62
256
6
ByLayer
370
-1
48
1
60
0
100
AcDbEllipse
10
223.198888
20
-1.284573
30
0
11
1.08387341434895
21
0
31
0
210
0
220
0
230
1
40
0.997564
41
0.0523598775598166
42
0.349065850399032
0
ELLIPSE
5
18B
100
AcDbEntity
8
1
62
256
6
ByLayer
370
-1
48
1
60
0
100
AcDbEllipse
10
228.524413
20
-6.11492
30
0
11
-3.98093556580436
21
4.02328895856829E-15
31
0
210
0
220
0
230
1
40
0.997564
41
0.0523598775598154
42
0.419380376866298
0
ELLIPSE
5
18C
100
AcDbEntity
8
1
62
256
6
ByLayer
370
-1
48
1
60
0
100
AcDbEllipse
10
223.198888
20
-1.284573
30
0
11
-0.783873414348954
21
7.92213086781812E-16
31
0
210
0
220
0
230
1
40
0.997564
41
-3.08923277602995
42
-2.79252680319094
0
ELLIPSE
5
18D
100
AcDbEntity
8
1
62
256
6
ByLayer
370
-1
48
1
60
0
100
AcDbEllipse
10
222.636065
20
-0.033664
30
0
11
1.18387341434896
21
0
31
0
210
0
220
0
230
1
40
0.997564
41
0.349065850399012
42
0.5615816626303
0
ELLIPSE
5
18E
100
AcDbEntity
8
1
62
256
6
ByLayer
370
-1
48
1
60
0
100
AcDbEllipse
10
223.501036
20
-8.349035
30
0
11
-1.21906443419553
21
1.23203412785989E-15
31
0
210
0
220
0
230
1
40
0.997564
41
3.10668606854992
42
-2.72221227672348
0
ELLIPSE
5
18F
100
AcDbEntity
8
1
62
256
6
ByLayer
370
-1
48
1
60
0
100
AcDbEllipse
10
223.768686
20
-10.284257
30
0
11
1.18387341434896
21
0
31
0
210
0
220
0
230
1
40
0.997564
41
-1.1520231251962
42
-0.0349065850398909
0
ELLIPSE
5
190
100
AcDbEntity
8
1
62
256
6
ByLayer
370
-1
48
1
60
0
100
AcDbEllipse
10
223.501036
20
-8.642012
30
0
11
-2.49999999999999
21
2.5265976377059E-15
31
0
210
0
220
0
230
1
40
0.997564
41
3.1066860685499
42
-2.7222122767235
0
ELLIPSE
5
191
100
AcDbEntity
8
1
62
256
6
ByLayer
370
-1
48
1
60
0
100
AcDbEllipse
10
224.020083
20
-10.287158
30
0
11
0.299807042544351
21
-0.0107581244094681
31
0
210
0
220
0
230
1
40
0.071534
41
0.446810241819324
42
0.736202119105737
0
ELLIPSE
5
192
100
AcDbEntity
8
1
62
256
6
ByLayer
370
-1
48
1
60
0
100
AcDbEllipse
10
224.038678
20
-8.103245
30
0
11
0.27401681486339
21
0.122126103565629
31
0
210
0
220
0
230
1
40
0.065991
41
0.421280855964767
42
0.720612613954222
0
ELLIPSE
5
193
100
AcDbEntity
8
1
62
256
6
ByLayer
370
-1
48
1
60
0
100
AcDbEllipse
10
224.719357
20
-8.363573
30
0
11
0.399755140417831
21
-0.0139938454157801
31
0
210
0
220
0
230
1
40
0.069714
41
-2.69020654808533
42
-1.56835592109676
0
ELLIPSE
5
194
100
AcDbEntity
8
1
62
256
6
ByLayer
370
-1
48
1
60
0
100
AcDbEllipse
10
223.501036
20
-8.349035
30
0
11
1.51906443419564
21
0
31
0
210
0
220
0
230
1
40
0.997564
41
-0.0349065850399031
42
0.419380376866316
0
POINT
5
41
100
AcDbEntity
8
81
62
256
6
ByLayer
370
-1
48
1
60
0
100
AcDbPoint
10
226
20
0
30
0
39
0
210
0
220
0
230
1
50
360
0
POINT
5
43
100
AcDbEntity
8
80
62
256
6
ByLayer
370
-1
48
1
60
0
100
AcDbPoint
10
0
20
0
30
0
39
0
210
0
220
0
230
1
50
360
0
SPLINE
5
195
100
AcDbEntity
8
1
62
256
6
ByLayer
370
-1
48
1
60
0
100
AcDbSpline
70
4
71
3
72
18
73
14
40
0
40
0
40
0
40
0
40
0.079838426274037
40
0.160481209911546
40
0.241230637140876
40
0.321383474928669
40
0.401360748975915
40
0.481241028316789
40
0.560902742785056
40
0.670302174696483
40
0.779817902135506
40
0.889662884062878
40
1
40
1
40
1
40
1
41
1
10
33
20
23.185
30
0
41
1
10
32.2092629226602
20
23.1854432624914
30
0
41
1
10
30.635417028797
20
23.2883914330392
30
0
41
1
10
28.298197341273
20
23.7556143408784
30
0
41
1
10
26.04261359001
20
24.5257290728708
30
0
41
1
10
23.9165641038027
20
25.5907441246625
30
0
41
1
10
21.9431123282184
20
26.8927626189979
30
0
41
1
10
19.8435417599943
20
27.9720851579567
30
0
41
1
10
17.4168206307116
20
29.0316758017581
30
0
41
1
10
14.6270902324697
20
29.9709905669358
30
0
41
1
10
11.4730983332721
20
30.7099860652507
30
0
41
1
10
8.25233858806627
20
31.1521099114309
30
0
41
1
10
6.08924231988394
20
31.2504578361436
30
0
41
1
10
5.00000000000003
20
31.25
30
0
0
SPLINE
5
196
100
AcDbEntity
8
1
62
256
6
ByLayer
370
-1
48
1
60
0
100
AcDbSpline
70
4
71
3
72
14
73
10
40
0
40
0
40
0
40
0
40
0.0980815739045447
40
0.249062059838059
40
0.39974187393587
40
0.550160065364252
40
0.700391882087018
40
0.850537183354156
40
1
40
1
40
1
40
1
41
1
10
216.214750524178
20
-4.39030156529751
30
0
41
1
10
216.275469293336
20
-4.31324253424259
30
0
41
1
10
216.442072511963
20
-4.12710683306108
30
0
41
1
10
216.755070043961
20
-3.87348052344237
30
0
41
1
10
217.158460607823
20
-3.65950566156209
30
0
41
1
10
217.595404908373
20
-3.52678661487158
30
0
41
1
10
218.049554824372
20
-3.48010435525691
30
0
41
1
10
218.503301535636
20
-3.52097124882462
30
0
41
1
10
218.794517712537
20
-3.60521837322108
30
0
41
1
10
218.934350821302
20
-3.66062261345152
30
0
0
SPLINE
5
197
100
AcDbEntity
8
1
62
256
6
ByLayer
370
-1
48
1
60
0
100
AcDbSpline
70
4
71
3
72
24
73
20
40
0
40
0
40
0
40
0
40
0.0512219324959501
40
0.114795075180369
40
0.178268200557149
40
0.241581453348871
40
0.304701879023941
40
0.367626814561736
40
0.430381895458718
40
0.493015351539987
40
0.555590417373264
40
0.618167359708196
40
0.680802024190455
40
0.743557000804855
40
0.806479913224969
40
0.869596202215385
40
0.932903765868141
40
0.996370983435446
40
1
40
1
40
1
40
1
41
1
10
218.164688545585
20
17.9477528200318
30
0
41
1
10
218.28715300971
20
17.9456786895628
30
0
41
1
10
218.556508302965
20
17.9184703230993
30
0
41
1
10
218.963002458737
20
17.7909196033288
30
0
41
1
10
219.363341512448
20
17.5764023260024
30
0
41
1
10
219.715147084607
20
17.2871582975068
30
0
41
1
10
220.004931989077
20
16.9355121918297
30
0
41
1
10
220.222026243256
20
16.5345037751319
30
0
41
1
10
220.358516266019
20
16.0993620864034
30
0
41
1
10
220.409586450512
20
15.6463345178027
30
0
41
1
10
220.373587580017
20
15.1922469262493
30
0
41
1
10
220.252058238617
20
14.7538456562591
30
0
41
1
10
220.049629077752
20
14.3472858747247
30
0
41
1
10
219.773784948073
20
13.987203417729
30
0
41
1
10
219.434598329633
20
13.6876320710725
30
0
41
1
10
219.044297480825
20
13.4564588232099
30
0
41
1
10
218.61740112327
20
13.314405595144
30
0
41
1
10
218.309836290022
20
13.2511869715805
30
0
41
1
10
218.151511901979
20
13.2598954779559
30
0
41
1
10
218.142942963363
20
13.2604417801836
30
0
0
SPLINE
5
198
100
AcDbEntity
8
1
62
256
6
ByLayer
370
-1
48
1
60
0
100
AcDbSpline
70
4
71
3
72
19
73
15
40
0
40
0
40
0
40
0
40
0.112329704767326
40
0.224152022233088
40
0.335640142572684
40
0.447021714906958
40
0.558596329078319
40
0.621459148518929
40
0.684239762258481
40
0.747212069499496
40
0.810614701806312
40
0.874107555222221
40
0.937347622366864
40
1
40
1
40
1
40
1
41
1
10
4.99999999999997
20
-31.25
30
0
41
1
10
6.10911345621
20
-31.2504807967844
30
0
41
1
10
8.31122629672197
20
-31.1485375521694
30
0
41
1
10
11.5892779055281
20
-30.6901280962824
30
0
41
1
10
14.7975527435579
20
-29.9241552564199
30
0
41
1
10
17.9153406670211
20
-28.8520200907499
30
0
41
1
10
20.4737384858765
20
-27.6713304712854
30
0
41
1
10
22.5146842204597
20
-26.5349373392541
30
0
41
1
10
24.0680693715086
20
-25.5156717005054
30
0
41
1
10
25.7370478674879
20
-24.6813089405857
30
0
41
1
10
27.4863490522546
20
-24.0157632274403
30
0
41
1
10
29.2984904373587
20
-23.536565464665
30
0
41
1
10
31.1446173636633
20
-23.2486760316381
30
0
41
1
10
32.3809584942192
20
-23.1851680828877
30
0
41
1
10
33
20
-23.185
30
0
0
SPLINE
5
199
100
AcDbEntity
8
1
62
256
6
ByLayer
370
-1
48
1
60
0
100
AcDbSpline
70
4
71
3
72
54
73
50
40
0
40
0
40
0
40
0
40
0.062500000000001
40
0.062500000000001
40
0.125000000000002
40
0.125000000000002
40
0.140625000000002
40
0.140625000000002
40
0.156250000000002
40
0.156250000000002
40
0.187500000000002
40
0.187500000000002
40
0.250000000000003
40
0.250000000000003
40
0.281250000000003
40
0.281250000000003
40
0.312500000000003
40
0.312500000000003
40
0.375000000000004
40
0.375000000000004
40
0.406250000000004
40
0.406250000000004
40
0.421875000000004
40
0.421875000000004
40
0.437500000000004
40
0.437500000000004
40
0.500000000000003
40
0.500000000000003
40
0.562500000000002
40
0.562500000000002
40
0.625000000000001
40
0.625000000000001
40
0.687500000000001
40
0.687500000000001
40
0.75
40
0.75
40
0.8125
40
0.8125
40
0.828125
40
0.828125
40
0.84375
40
0.84375
40
0.875
40
0.875
40
0.9375
40
0.9375
40
0.96875
40
0.96875
40
1
40
1
40
1
40
1
41
1
10
18.446107012864
20
18.9781996217316
30
0
41
1
10
17.9292472309129
20
19.1702777443076
30
0
41
1
10
17.4088787434996
20
19.3260357181262
30
0
41
1
10
16.3616313320735
20
19.56564526863
30
0
41
1
10
15.8347528204172
20
19.6495172928823
30
0
41
1
10
15.1721412219189
20
19.7071569687734
30
0
41
1
10
15.0394171571549
20
19.7163129609667
30
0
41
1
10
14.7735623888172
20
19.7297725531011
30
0
41
1
10
14.6403349958553
20
19.7340658032973
30
0
41
1
10
14.2434539159709
20
19.7394912993548
30
0
41
1
10
13.9814878550417
20
19.7332554036232
30
0
41
1
10
13.2034519776752
20
19.6853213617444
30
0
41
1
10
12.6952028523486
20
19.6145643745134
30
0
41
1
10
11.9491991272867
20
19.4486204980147
30
0
41
1
10
11.7032694580212
20
19.3832975074189
30
0
41
1
10
11.2171425647966
20
19.2318172785063
30
0
41
1
10
10.9764846164203
20
19.1453534517168
30
0
41
1
10
10.2770620347024
20
18.859019301377
30
0
41
1
10
9.83617456060631
20
18.6311776828241
30
0
41
1
10
9.21286312289422
20
18.2341430724925
30
0
41
1
10
9.01145544022336
20
18.092545429112
30
0
41
1
10
8.7191270407389
20
17.8659043973707
30
0
41
1
10
8.62331655597379
20
17.7879805112092
30
0
41
1
10
8.43502313124162
20
17.6272823252732
30
0
41
1
10
8.34231712919464
20
17.5442921728744
30
0
41
1
10
7.89062130488506
20
17.1200861211126
30
0
41
1
10
7.56686134251021
20
16.7516443113063
30
0
41
1
10
6.99170963376079
20
15.9583687039768
30
0
41
1
10
6.74019464388903
20
15.5332654853675
30
0
41
1
10
6.31237390956915
20
14.6253135771878
30
0
41
1
10
6.14178462840297
20
14.1547506182885
30
0
41
1
10
5.88170064086199
20
13.1820180080738
30
0
41
1
10
5.79223680521346
20
12.6798389648079
30
0
41
1
10
5.69456798994153
20
11.6431937278123
30
0
41
1
10
5.68756425883493
20
11.1211158819029
30
0
41
1
10
5.75065157409998
20
10.0718410952643
30
0
41
1
10
5.82074873408152
20
9.54425257671318
30
0
41
1
10
5.95556556787483
20
8.8808815924051
30
0
41
1
10
5.98492939216084
20
8.74792909366434
30
0
41
1
10
6.04791280757823
20
8.48359194796132
30
0
41
1
10
6.08157758231496
20
8.35196495554447
30
0
41
1
10
6.18892712753364
20
7.95866182888929
30
0
41
1
10
6.26895856137151
20
7.69856131076682
30
0
41
1
10
6.53347379188406
20
6.92427783670195
30
0
41
1
10
6.74226624509311
20
6.41608415634181
30
0
41
1
10
7.10249851179165
20
5.66522811505664
30
0
41
1
10
7.23091341820702
20
5.41604144792325
30
0
41
1
10
7.5008183662992
20
4.92630854285264
30
0
41
1
10
7.64222527258968
20
4.68576822334009
30
0
41
1
10
7.78982467355112
20
4.44937604636516
30
0
0
SPLINE
5
19A
100
AcDbEntity
8
1
62
256
6
ByLayer
370
-1
48
1
60
0
100
AcDbSpline
70
4
71
3
72
94
73
90
40
-0.0312500000000024
40
-0.0312500000000024
40
0
40
0
40
0.0312499999999987
40
0.0312499999999987
40
0.046874999999998
40
0.046874999999998
40
0.0624999999999973
40
0.0624999999999973
40
0.093749999999996
40
0.093749999999996
40
0.124999999999995
40
0.124999999999995
40
0.156249999999993
40
0.156249999999993
40
0.171874999999993
40
0.171874999999993
40
0.187499999999992
40
0.187499999999992
40
0.218749999999991
40
0.218749999999991
40
0.249999999999989
40
0.249999999999989
40
0.265624999999992
40
0.265624999999992
40
0.281249999999994
40
0.281249999999994
40
0.312499999999999
40
0.312499999999999
40
0.328125000000002
40
0.328125000000002
40
0.343750000000004
40
0.343750000000004
40
0.375000000000009
40
0.375000000000009
40
0.406250000000014
40
0.406250000000014
40
0.421875000000015
40
0.421875000000015
40
0.437500000000015
40
0.437500000000015
40
0.468750000000014
40
0.468750000000014
40
0.484375000000014
40
0.484375000000014
40
0.500000000000013
40
0.500000000000013
40
0.531250000000013
40
0.531250000000013
40
0.546875000000012
40
0.546875000000012
40
0.562500000000012
40
0.578125000000012
40
0.578125000000012
40
0.593750000000012
40
0.593750000000012
40
0.625000000000014
40
0.625000000000014
40
0.640625000000015
40
0.640625000000015
40
0.656250000000016
40
0.656250000000016
40
0.687500000000014
40
0.687500000000014
40
0.718750000000011
40
0.718750000000011
40
0.750000000000009
40
0.750000000000009
40
0.765625000000007
40
0.765625000000007
40
0.781250000000006
40
0.796875000000005
40
0.796875000000005
40
0.812500000000003
40
0.812500000000003
40
0.843749999999995
40
0.843749999999995
40
0.859374999999993
40
0.859374999999993
40
0.874999999999992
40
0.874999999999992
40
0.906249999999993
40
0.906249999999993
40
0.937499999999994
40
0.937499999999994
40
0.953124999999996
40
0.953124999999996
40
0.968749999999998
40
0.968749999999998
40
1
40
1
40
1.03125
40
1.03125
41
1
10
215.730761309428
20
-4.47913706198477
30
0
41
1
10
215.71649111994
20
-4.20242825040856
30
0
41
1
10
215.722587129142
20
-4.06535082760774
30
0
41
1
10
215.751076243374
20
-3.86161496148307
30
0
41
1
10
215.763819263705
20
-3.79401892318666
30
0
41
1
10
215.795989079307
20
-3.65948402322201
30
0
41
1
10
215.815545470398
20
-3.59224155569712
30
0
41
1
10
215.883301638993
20
-3.39556319584065
30
0
41
1
10
215.940615136334
20
-3.27013527285851
30
0
41
1
10
216.079533560815
20
-3.03075000966277
30
0
41
1
10
216.162218630405
20
-2.91584888987597
30
0
41
1
10
216.346130970733
20
-2.70752278434762
30
0
41
1
10
216.447665650143
20
-2.61304257534235
30
0
41
1
10
216.614650309856
20
-2.48623453418136
30
0
41
1
10
216.673086708159
20
-2.4463093461745
30
0
41
1
10
216.792522372261
20
-2.37324897406569
30
0
41
1
10
216.853716456503
20
-2.33992293710469
30
0
41
1
10
217.041642278451
20
-2.24938473324386
30
0
41
1
10
217.173057793218
20
-2.20141890787122
30
0
41
1
10
217.446385377681
20
-2.13221490180843
30
0
41
1
10
217.584323721893
20
-2.11190047323456
30
0
41
1
10
217.793076998751
20
-2.10213530166084
30
0
41
1
10
217.862971407838
20
-2.10235752212392
30
0
41
1
10
218.003397855684
20
-2.10995458407302
30
0
41
1
10
218.073728418257
20
-2.11736603491838
30
0
41
1
10
218.280924462514
20
-2.14981216786293
30
0
41
1
10
218.415583360003
20
-2.18501227624361
30
0
41
1
10
218.612350934131
20
-2.25819004390121
30
0
41
1
10
218.677403239772
20
-2.28619296666221
30
0
41
1
10
218.803225028255
20
-2.34806841054251
30
0
41
1
10
218.864163023544
20
-2.38195846790222
30
0
41
1
10
219.04120815853
20
-2.4922481054347
30
0
41
1
10
219.151835844033
20
-2.57740492871457
30
0
41
1
10
219.356289043332
20
-2.77039900549644
30
0
41
1
10
219.447193852161
20
-2.87539046170409
30
0
41
1
10
219.567366570987
20
-3.04494734813338
30
0
41
1
10
219.604706687045
20
-3.10349303903922
30
0
41
1
10
219.67385074509
20
-3.22470179504944
30
0
41
1
10
219.705554594395
20
-3.28728103969439
30
0
41
1
10
219.790394099162
20
-3.47711213272484
30
0
41
1
10
219.834123811774
20
-3.60772635590641
30
0
41
1
10
219.88080947408
20
-3.8095757270718
30
0
41
1
10
219.893236106792
20
-3.87821900871117
30
0
41
1
10
219.91129592231
20
-4.0154585557114
30
0
41
1
10
219.916968030388
20
-4.08400158002129
30
0
41
1
10
219.924240084885
20
-4.28940241111138
30
0
41
1
10
219.916185024267
20
-4.42603244844864
30
0
41
1
10
219.884401960472
20
-4.63052089461581
30
0
41
1
10
219.870535534693
20
-4.69819476591977
30
0
41
1
10
219.836787102654
20
-4.83078848330717
30
0
41
1
10
219.796941421904
20
-4.9611854604907
30
0
41
1
10
219.745048273192
20
-5.08726264170201
30
0
41
1
10
219.687030335756
20
-5.21115740944711
30
0
41
1
10
219.654783975344
20
-5.27230056649705
30
0
41
1
10
219.549752824207
20
-5.45014396207702
30
0
41
1
10
219.469406152584
20
-5.56050232458023
30
0
41
1
10
219.333536581115
20
-5.71397575089404
30
0
41
1
10
219.285670168911
20
-5.76310854516305
30
0
41
1
10
219.184573477301
20
-5.85718270583206
30
0
41
1
10
219.131182978755
20
-5.90219521200513
30
0
41
1
10
218.966394093618
20
-6.02777144181473
30
0
41
1
10
218.849365265569
20
-6.10005700556877
30
0
41
1
10
218.600619667719
20
-6.22140124292079
30
0
41
1
10
218.467556569344
20
-6.27054588039795
30
0
41
1
10
218.198225059483
20
-6.33983440350298
30
0
41
1
10
218.060792232729
20
-6.36081361115311
30
0
41
1
10
217.850333538371
20
-6.37105320425428
30
0
41
1
10
217.779437301681
20
-6.37084181870205
30
0
41
1
10
217.639692317401
20
-6.3632604283184
30
0
41
1
10
217.501105347778
20
-6.3485933432122
30
0
41
1
10
217.364788870314
20
-6.32002142006326
30
0
41
1
10
217.229617867927
20
-6.28442262584937
30
0
41
1
10
217.162283305453
20
-6.26296143764847
30
0
41
1
10
216.966196439448
20
-6.18932153693575
30
0
41
1
10
216.842268316016
20
-6.1278526415017
30
0
41
1
10
216.666148813243
20
-6.01772537343095
30
0
41
1
10
216.608801456465
20
-5.97777779860732
30
0
41
1
10
216.498998106053
20
-5.89291998374526
30
0
41
1
10
216.446623502326
20
-5.84812892578972
30
0
41
1
10
216.296770154065
20
-5.70692351419677
30
0
41
1
10
216.206492678702
20
-5.6037421457267
30
0
41
1
10
216.045306796451
20
-5.37898502711158
30
0
41
1
10
215.976689235299
20
-5.2605553703394
30
0
41
1
10
215.891145582729
20
-5.0748135506208
30
0
41
1
10
215.865526746489
20
-5.01150650442636
30
0
41
1
10
215.820170358877
20
-4.88204877340533
30
0
41
1
10
215.800387237829
20
-4.81564064081201
30
0
41
1
10
215.750944864377
20
-4.61515550458466
30
0
41
1
10
215.730761309428
20
-4.47913706198477
30
0
41
1
10
215.71649111994
20
-4.20242825040856
30
0
0
SPLINE
5
19B
100
AcDbEntity
8
1
62
256
6
ByLayer
370
-1
48
1
60
0
100
AcDbSpline
70
4
71
3
72
24
73
20
40
0
40
0
40
0
40
0
40
0.182484830224475
40
0.182484830224475
40
0.386863622668355
40
0.386863622668355
40
0.489053018890294
40
0.489053018890294
40
0.591242415112233
40
0.591242415112233
40
0.693431811334172
40
0.693431811334172
40
0.744526509445143
40
0.744526509445143
40
0.795621207556114
40
0.795621207556114
40
0.897810603778057
40
0.897810603778057
40
1
40
1
40
1
40
1
41
1
10
153.688998849897
20
18.5949574500051
30
0
41
1
10
156.004345546109
20
18.9657364920756
30
0
41
1
10
158.319865990699
20
19.3145215088574
30
0
41
1
10
163.230233967399
20
20.0049182490346
30
0
41
1
10
165.824926288103
20
20.3412117504093
30
0
41
1
10
169.720023168061
20
20.798957564383
30
0
41
1
10
171.018944465108
20
20.9437035041461
30
0
41
1
10
173.618068589377
20
21.2173288106291
30
0
41
1
10
174.91806549506
20
21.3464751171929
30
0
41
1
10
177.517002460071
20
21.5887239588973
30
0
41
1
10
178.816629380466
20
21.7014123788873
30
0
41
1
10
180.765219587653
20
21.8590083182322
30
0
41
1
10
181.41464632982
20
21.9095781258993
30
0
41
1
10
182.713616782832
20
22.0064639603308
30
0
41
1
10
183.363217910949
20
22.0527325200847
30
0
41
1
10
185.31192982349
20
22.185463232225
30
0
41
1
10
186.610585716843
20
22.2661208810674
30
0
41
1
10
189.208414132312
20
22.4104085732058
30
0
41
1
10
190.507515814067
20
22.474123167908
30
0
41
1
10
191.806950540596
20
22.5293638451837
30
0
0
SPLINE
5
19C
100
AcDbEntity
8
1
62
256
6
ByLayer
370
-1
48
1
60
0
100
AcDbSpline
70
4
71
3
72
8
73
4
40
0
40
0
40
0
40
0
40
1
40
1
40
1
40
1
41
1
10
9.49238633837274
20
1.13513612523343
30
0
41
1
10
9.68295335747186
20
0.893064390099482
30
0
41
1
10
9.87696087184545
20
0.655733151737593
30
0
41
1
10
10.074223072029
20
0.422865636747076
30
0
0
SPLINE
5
19D
100
AcDbEntity
8
1
62
256
6
ByLayer
370
-1
48
1
60
0
100
AcDbSpline
70
4
71
3
72
16
73
12
40
0
40
0
40
0
40
0
40
0.25
40
0.25
40
0.5
40
0.5
40
0.625
40
0.625
40
0.75
40
0.75
40
1
40
1
40
1
40
1
41
1
10
208.520956199872
20
1.76763543458213
30
0
41
1
10
207.911952605254
20
1.73147611088305
30
0
41
1
10
207.306867890267
20
1.73200062176002
30
0
41
1
10
206.104311119023
20
1.8043097556907
30
0
41
1
10
205.50683930187
20
1.87609677305446
30
0
41
1
10
204.616457077607
20
2.03817057778352
30
0
41
1
10
204.320636831192
20
2.101286549554
30
0
41
1
10
203.731000726031
20
2.24619024454731
30
0
41
1
10
203.436594475379
20
2.32819809047851
30
0
41
1
10
202.564903020659
20
2.60049453783989
30
0
41
1
10
201.996916156599
20
2.81734031330666
30
0
41
1
10
201.44243941698
20
3.07013047877061
30
0
0
SPLINE
5
19E
100
AcDbEntity
8
1
62
256
6
ByLayer
370
-1
48
1
60
0
100
AcDbSpline
70
4
71
3
72
14
73
10
40
0
40
0
40
0
40
0
40
0.25
40
0.25
40
0.5
40
0.5
40
0.75
40
0.75
40
1
40
1
40
1
40
1
41
1
10
210.162474838793
20
7.78219750739501
30
0
41
1
10
210.134391867637
20
7.81834476080164
30
0
41
1
10
210.103584070721
20
7.85943465233788
30
0
41
1
10
210.039490901916
20
7.95156634842431
30
0
41
1
10
210.005974939376
20
8.00303481218938
30
0
41
1
10
209.940970509918
20
8.11243995892787
30
0
41
1
10
209.909098321408
20
8.1708546789809
30
0
41
1
10
209.847653073618
20
8.29624471732205
30
0
41
1
10
209.819357185439
20
8.36063493955973
30
0
41
1
10
209.793516535508
20
8.426772110174
30
0
0
SPLINE
5
19F
100
AcDbEntity
8
1
62
256
6
ByLayer
370
-1
48
1
60
0
100
AcDbSpline
70
4
71
4
72
19
73
14
40
0
40
0
40
0
40
0
40
0
40
0.45736500422193
40
0.45736500422193
40
0.45736500422193
40
0.686047506332895
40
0.686047506332895
40
0.686047506332895
40
0.91473000844386
40
0.91473000844386
40
0.91473000844386
40
1
40
1
40
1
40
1
40
1
41
1
10
35.1461070128671
20
6.7573757515492
30
0
41
1
10
35.1461070128671
20
5.67553076197194
30
0
41
0.974581796258695
10
35.0133923852097
20
3.64258056359915
30
0
41
0.974581796258695
10
34.6702207009385
20
0.677382971602037
30
0
41
0.987290898129347
10
34.0484477639757
20
-3.75355091467045
30
0
41
0.993645449064674
10
33.82767276423
20
-5.19943571742204
30
0
41
1
10
33.6057806849153
20
-6.53922602358179
30
0
41
1
10
33.1942193150907
20
-8.86558405072546
30
0
41
0.993645449064674
10
32.972327235776
20
-10.0342916635691
30
0
41
0.987290898129347
10
32.7515522360303
20
-11.0842761552074
30
0
41
0.981474895319442
10
32.4690117670391
20
-12.2649411482006
30
0
41
0.980189763109326
10
32.3942679188871
20
-12.5593173598901
30
0
41
0.97930894713495
10
32.3226866544646
20
-12.8218910831259
30
0
41
0.978860367329353
10
32.2549347047366
20
-13.0501591708419
30
0
0
SPLINE
5
1A0
100
AcDbEntity
8
1
62
256
6
ByLayer
370
-1
48
1
60
0
100
AcDbSpline
70
4
71
3
72
8
73
4
40
0
40
0
40
0
40
0
40
1
40
1
40
1
40
1
41
1
10
31.4584849450824
20
-12.8453907134061
30
0
41
1
10
30.692115719838
20
-12.5791156645362
30
0
41
1
10
29.9298118732575
20
-12.2990859677024
30
0
41
1
10
29.1717700558936
20
-12.0043247849309
30
0
0
SPLINE
5
1A1
100
AcDbEntity
8
1
62
256
6
ByLayer
370
-1
48
1
60
0
100
AcDbSpline
70
4
71
3
72
14
73
10
40
0
40
0
40
0
40
0
40
0.25
40
0.25
40
0.5
40
0.5
40
0.75
40
0.75
40
1
40
1
40
1
40
1
41
1
10
204.612442983718
20
4.73130900750468
30
0
41
1
10
204.430797788102
20
4.72036486341287
30
0
41
1
10
204.239904965137
20
4.71833091695632
30
0
41
1
10
203.843920777394
20
4.731601253886
30
0
41
1
10
203.638800921452
20
4.74691753804325
30
0
41
1
10
203.217129607795
20
4.7951327180933
30
0
41
1
10
203.000564495976
20
4.82803572072456
30
0
41
1
10
202.557933667632
20
4.91212665170661
30
0
41
1
10
202.332257715087
20
4.96329685361709
30
0
41
1
10
202.105227319267
20
5.02327383580121
30
0
0
SPLINE
5
1A2
100
AcDbEntity
8
1
62
256
6
ByLayer
370
-1
48
1
60
0
100
AcDbSpline
70
4
71
3
72
40
73
36
40
0
40
0
40
0
40
0
40
0.0014879532554992
40
0.0294010075878731
40
0.0573140619202478
40
0.0852271162526222
40
0.113140170584996
40
0.141053224917371
40
0.168966279249745
40
0.196879333582119
40
0.224792387914494
40
0.252705442246868
40
0.280618496579243
40
0.308531550911617
40
0.336444605243992
40
0.364357659576366
40
0.39227071390874
40
0.406227241074927
40
0.448096822573488
40
0.476009876905863
40
0.503922931238238
40
0.517879458404425
40
0.559749039902986
40
0.615575148567735
40
0.671401257232484
40
0.727227365897233
40
0.783053474561981
40
0.810966528894355
40
0.83887958322673
40
0.866792637559104
40
0.894705691891479
40
0.922618746223853
40
0.950531800556227
40
0.978444854888602
40
1
40
1
40
1
40
1
41
1
10
156.083298683497
20
-18.1527370138299
30
0
41
1
10
156.039121893639
20
-18.1591205230271
30
0
41
1
10
155.166218641431
20
-18.2850993225294
30
0
41
1
10
153.464647394671
20
-18.5246945435593
30
0
41
1
10
150.97859065098
20
-18.8578357430087
30
0
41
1
10
148.492689924796
20
-19.1736442678098
30
0
41
1
10
146.007245255583
20
-19.4721200115459
30
0
41
1
10
143.521938263836
20
-19.7531983749216
30
0
41
1
10
141.036558316156
20
-20.0164006570343
30
0
41
1
10
138.55104976571
20
-20.2612440644445
30
0
41
1
10
136.065592352536
20
-20.4876762483112
30
0
41
1
10
133.579931487634
20
-20.6955976001945
30
0
41
1
10
131.093851067988
20
-20.8846556477524
30
0
41
1
10
128.607679068823
20
-21.054553084257
30
0
41
1
10
126.121996756269
20
-21.205459838625
30
0
41
1
10
123.636300882593
20
-21.3374247067734
30
0
41
1
10
121.564647359139
20
-21.431358583091
30
0
41
1
10
119.078438288693
20
-21.5292157543979
30
0
41
1
10
116.592189633986
20
-21.6073937837729
30
0
41
1
10
113.691349081334
20
-21.6697220943065
30
0
41
1
10
111.619156294684
20
-21.6975211118734
30
0
41
1
10
109.13249898577
20
-21.7155968367922
30
0
41
1
10
105.817313329308
20
-21.7127432740959
30
0
41
1
10
101.259718810353
20
-21.6453562883829
30
0
41
1
10
96.2883753790591
20
-21.4936977619581
30
0
41
1
10
91.3172839287966
20
-21.2643994582036
30
0
41
1
10
87.1745715454969
20
-21.0095144696949
30
0
41
1
10
83.8602267047036
20
-20.7678459294116
30
0
41
1
10
81.3743678465502
20
-20.5677041657806
30
0
41
1
10
78.888423321489
20
-20.3490448300557
30
0
41
1
10
76.4023963212731
20
-20.111939633441
30
0
41
1
10
73.9162138162285
20
-19.8564978379316
30
0
41
1
10
71.4297675047607
20
-19.5827588806595
30
0
41
1
10
69.1320378132037
20
-19.3130406841387
30
0
41
1
10
67.6632410029127
20
-19.1312826225217
30
0
41
1
10
67.0232481811987
20
-19.0503353454232
30
0
0
SPLINE
5
1A3
100
AcDbEntity
8
1
62
256
6
ByLayer
370
-1
48
1
60
0
100
AcDbSpline
70
4
71
2
72
6
73
3
40
0
40
0
40
0
40
1
40
1
40
1
41
1
10
29.1717700558936
20
-12.0043247852617
30
0
41
1
10
29.1717700558936
20
-13.1475980985671
30
0
41
1
10
29.1717700558936
20
-14.2908714118724
30
0
0
SPLINE
5
1A4
100
AcDbEntity
8
1
62
256
6
ByLayer
370
-1
48
1
60
0
100
AcDbSpline
70
4
71
3
72
38
73
34
40
0
40
0
40
0
40
0
40
0.125000000000004
40
0.125000000000004
40
0.187500000000006
40
0.187500000000006
40
0.250000000000008
40
0.250000000000008
40
0.375000000000007
40
0.375000000000007
40
0.500000000000005
40
0.500000000000005
40
0.531250000000006
40
0.531250000000006
40
0.562500000000007
40
0.562500000000007
40
0.625000000000007
40
0.625000000000007
40
0.687500000000008
40
0.687500000000008
40
0.750000000000008
40
0.750000000000008
40
0.812500000000008
40
0.812500000000008
40
0.843750000000008
40
0.843750000000008
40
0.875000000000008
40
0.875000000000008
40
0.937500000000004
40
0.937500000000004
40
0.968750000000002
40
0.968750000000002
40
1
40
1
40
1
40
1
41
1
10
205.010548190211
20
7.85115976506492
30
0
41
1
10
205.364568261261
20
7.6969288788687
30
0
41
1
10
205.710551562638
20
7.55267138050922
30
0
41
1
10
206.21255732815
20
7.34699096779178
30
0
41
1
10
206.377134780671
20
7.28016534525324
30
0
41
1
10
206.694125031823
20
7.15125932597456
30
0
41
1
10
206.847223566929
20
7.08889911538421
30
0
41
1
10
207.288436169623
20
6.9063923130561
30
0
41
1
10
207.558996245871
20
6.79084353318393
30
0
41
1
10
208.035353328624
20
6.5617488343421
30
0
41
1
10
208.233665513736
20
6.45165852425635
30
0
41
1
10
208.420308469245
20
6.31234185164513
30
0
41
1
10
208.454540739922
20
6.28439418787187
30
0
41
1
10
208.516363788704
20
6.22815044089663
30
0
41
1
10
208.543966271225
20
6.19980575796268
30
0
41
1
10
208.615073547535
20
6.11528660794525
30
0
41
1
10
208.647399861048
20
6.05921154547681
30
0
41
1
10
208.680730942957
20
5.94679764165855
30
0
41
1
10
208.681742704031
20
5.89045681225585
30
0
41
1
10
208.650399940665
20
5.77718185833038
30
0
41
1
10
208.618372810084
20
5.72158114751599
30
0
41
1
10
208.523784353668
20
5.61299924599274
30
0
41
1
10
208.461196928022
20
5.55994981489707
30
0
41
1
10
208.345258387939
20
5.48274680846538
30
0
41
1
10
208.302762344186
20
5.45732613332373
30
0
41
1
10
208.211430029189
20
5.40791012346756
30
0
41
1
10
208.162647679607
20
5.38392160599321
30
0
41
1
10
208.007552314129
20
5.31421289301417
30
0
41
1
10
207.892517491561
20
5.27074063858552
30
0
41
1
10
207.704320525925
20
5.2106156204444
30
0
41
1
10
207.63897352461
20
5.19142354651623
30
0
41
1
10
207.503277898809
20
5.15486157666302
30
0
41
1
10
207.432933340904
20
5.13750417242798
30
0
41
1
10
207.361001761806
20
5.12128882038922
30
0
0
SPLINE
5
1A5
100
AcDbEntity
8
1
62
256
6
ByLayer
370
-1
48
1
60
0
100
AcDbSpline
70
4
71
3
72
8
73
4
40
0
40
0
40
0
40
0
40
1
40
1
40
1
40
1
41
1
10
33
20
-14.7124151405819
30
0
41
1
10
31.7260533782948
20
-14.4345928301353
30
0
41
1
10
30.4483196874002
20
-14.2939018338029
30
0
41
1
10
29.1717700558936
20
-14.2908714119458
30
0
0
SPLINE
5
1A6
100
AcDbEntity
8
1
62
256
6
ByLayer
370
-1
48
1
60
0
100
AcDbSpline
70
4
71
3
72
8
73
4
40
0
40
0
40
0
40
0
40
1
40
1
40
1
40
1
41
1
10
13.4491686455377
20
-2.46246634892032
30
0
41
1
10
16.0430586896019
20
-4.08306616591918
30
0
41
1
10
18.6289076141413
20
-5.71594431375524
30
0
41
1
10
21.1923863383729
20
-7.3613552142717
30
0
0
SPLINE
5
1A7
100
AcDbEntity
8
1
62
256
6
ByLayer
370
-1
48
1
60
0
100
AcDbSpline
70
4
71
3
72
12
73
8
40
0
40
0
40
0
40
0
40
0.25
40
0.25
40
0.5
40
0.5
40
1
40
1
40
1
40
1
41
1
10
210.263202105443
20
7.64050815205235
30
0
41
1
10
210.266982779932
20
7.64050815205235
30
0
41
1
10
210.266963716247
20
7.64388063132552
30
0
41
1
10
210.260272983528
20
7.65678437890548
30
0
41
1
10
210.253487460579
20
7.66646465117509
30
0
41
1
10
210.225217495883
20
7.70357547227007
30
0
41
1
10
210.196231262481
20
7.73874761762329
30
0
41
1
10
210.162474838793
20
7.78219750739478
30
0
0
SPLINE
5
1A8
100
AcDbEntity
8
1
62
256
6
ByLayer
370
-1
48
1
60
0
100
AcDbSpline
70
4
71
3
72
10
73
6
40
0
40
0
40
0
40
0
40
0.863208536425901
40
0.863208536425901
40
1
40
1
40
1
40
1
41
1
10
129.5
20
-21.9130337851349
30
0
41
1
10
137.731441161358
20
-21.2839416256025
30
0
41
1
10
145.941085392002
20
-20.3287987685615
30
0
41
1
10
155.454133364733
20
-18.8904540866516
30
0
41
1
10
156.755500270291
20
-18.6865401954901
30
0
41
1
10
158.057039283952
20
-18.475704386095
30
0
0
SPLINE
5
1A9
100
AcDbEntity
8
1
62
256
6
ByLayer
370
-1
48
1
60
0
100
AcDbSpline
70
4
71
3
72
24
73
20
40
0
40
0
40
0
40
0
40
0.125
40
0.125
40
0.25
40
0.25
40
0.375000000000001
40
0.375000000000001
40
0.437500000000001
40
0.437500000000001
40
0.500000000000001
40
0.500000000000001
40
0.625000000000001
40
0.625000000000001
40
0.75
40
0.75
40
0.875
40
0.875
40
1
40
1
40
1
40
1
41
1
10
38
20
-15.7750694278592
30
0
41
1
10
41.816496880048
20
-16.5469955380895
30
0
41
1
10
45.6282156729907
20
-17.2660785689827
30
0
41
1
10
53.2476447027537
20
-18.5861065159597
30
0
41
1
10
57.0553729189364
20
-19.1870418587376
30
0
41
1
10
64.6719828868584
20
-20.2613427217996
30
0
41
1
10
68.4808280666927
20
-20.7348131264239
30
0
41
1
10
74.1983487964445
20
-21.3440440092408
30
0
41
1
10
76.1049158682168
20
-21.5302677088885
30
0
41
1
10
79.9201850220994
20
-21.8680903158265
30
0
41
1
10
81.8295821635898
20
-22.0197354439577
30
0
41
1
10
87.5569747661839
20
-22.4212555969271
30
0
41
1
10
91.3707216352501
20
-22.6174482348381
30
0
41
1
10
98.9943615933746
20
-22.8651473893845
30
0
41
1
10
102.804268111537
20
-22.9167048443135
30
0
41
1
10
110.424748515051
20
-22.8754438714693
30
0
41
1
10
114.235200849108
20
-22.7825496783162
30
0
41
1
10
121.861885525212
20
-22.4538496228383
30
0
41
1
10
125.678151195245
20
-22.218055849181
30
0
41
1
10
129.5
20
-21.9130337851349
30
0
0
SPLINE
5
1AA
100
AcDbEntity
8
1
62
256
6
ByLayer
370
-1
48
1
60
0
100
AcDbSpline
70
4
71
3
72
10
73
6
40
0
40
0
40
0
40
0
40
0.5
40
0.5
40
1
40
1
40
1
40
1
41
1
10
194.710618876472
20
14.1120317805315
30
0
41
1
10
193.927915906492
20
14.1994256357033
30
0
41
1
10
193.146272501015
20
14.2930604980939
30
0
41
1
10
191.585526567759
20
14.4955725492397
30
0
41
1
10
190.806437533314
20
14.6045344807041
30
0
41
1
10
190.028478972607
20
14.7205427072595
30
0
0
SPLINE
5
1AB
100
AcDbEntity
8
1
62
256
6
ByLayer
370
-1
48
1
60
0
100
AcDbSpline
70
4
71
3
72
25
73
21
40
0
40
0
40
0
40
0
40
0.0183943431396815
40
0.0885090329154185
40
0.158623722691156
40
0.228738412466893
40
0.29885310224263
40
0.368967792018367
40
0.439082481794104
40
0.474139826681972
40
0.509197171569841
40
0.54425451645771
40
0.579311861345578
40
0.614369206233447
40
0.649426551121315
40
0.684483896009184
40
0.719541240897052
40
0.737069913340986
40
0.859770620448526
40
1
40
1
40
1
40
1
41
1
10
70.6014019203368
20
2.66131646885359
30
0
41
1
10
70.3840414230668
20
2.68877261461986
30
0
41
1
10
69.3381470288419
20
2.82074592295606
30
0
41
1
10
67.4636409025025
20
3.05602482634094
30
0
41
1
10
64.9778506026722
20
3.36490704103912
30
0
41
1
10
62.491957496128
20
3.67075758374833
30
0
41
1
10
60.0058938778567
20
3.97378009433962
30
0
41
1
10
57.5198889358307
20
4.27347024688152
30
0
41
1
10
55.4485203366689
20
4.51973264421764
30
0
41
1
10
53.7916054928223
20
4.71414292472764
30
0
41
1
10
52.5489292506021
20
4.85859005882563
30
0
41
1
10
51.3058214682182
20
5.00180248741302
30
0
41
1
10
50.0619785735395
20
5.14411821230755
30
0
41
1
10
48.8177728000617
20
5.28580486135101
30
0
41
1
10
47.5737512050164
20
5.42665782944147
30
0
41
1
10
46.3303342848527
20
5.56652273581304
30
0
41
1
10
45.2949178893083
20
5.68191699980949
30
0
41
1
10
43.2248484542933
20
5.9103545646656
30
0
41
1
10
39.9117666781507
20
6.26745362193327
30
0
41
1
10
36.804101970524
20
6.58926990926179
30
0
41
1
10
35.1461070128671
20
6.7573757515492
30
0
0
SPLINE
5
1AC
100
AcDbEntity
8
1
62
256
6
ByLayer
370
-1
48
1
60
0
100
AcDbSpline
70
4
71
3
72
20
73
16
40
0
40
0
40
0
40
0
40
0.25
40
0.25
40
0.5
40
0.5
40
0.5625
40
0.5625
40
0.625
40
0.625
40
0.75
40
0.75
40
0.875
40
0.875
40
1
40
1
40
1
40
1
41
1
10
9.49238633837274
20
-1.22758962088454
30
0
41
1
10
10.3361683560952
20
-2.45960461378982
30
0
41
1
10
11.2128007782204
20
-3.6285962948572
30
0
41
1
10
13.0369319225128
20
-5.8396296465236
30
0
41
1
10
13.9843196684787
20
-6.88178134227891
30
0
41
1
10
15.2231218088371
20
-8.09463290563431
30
0
41
1
10
15.4733490841151
20
-8.33234059022541
30
0
41
1
10
15.9756546375605
20
-8.79464431756287
30
0
41
1
10
16.2281921189728
20
-9.01969539249075
30
0
41
1
10
16.9903038367565
20
-9.67619355736784
30
0
41
1
10
17.5043559636893
20
-10.0890418992242
30
0
41
1
10
18.5467037940195
20
-10.8619840896473
30
0
41
1
10
19.0708884125688
20
-11.2189916744845
30
0
41
1
10
20.1257895729177
20
-11.8707546086024
30
0
41
1
10
20.6567402858207
20
-12.1657045295777
30
0
41
1
10
21.1923863383728
20
-12.4275291204107
30
0
0
SPLINE
5
1AD
100
AcDbEntity
8
1
62
256
6
ByLayer
370
-1
48
1
60
0
100
AcDbSpline
70
4
71
3
72
12
73
8
40
0
40
0
40
0
40
0
40
0.250000000000015
40
0.250000000000015
40
0.50000000000003
40
0.50000000000003
40
1
40
1
40
1
40
1
41
1
10
209.660289546977
20
22.7896741299394
30
0
41
1
10
209.665598474659
20
22.7878672140844
30
0
41
1
10
209.677510580043
20
22.7858758380382
30
0
41
1
10
209.71402308566
20
22.7815978573354
30
0
41
1
10
209.7390410678
20
22.7792859517801
30
0
41
1
10
209.830203078532
20
22.7723884711235
30
0
41
1
10
209.914225564822
20
22.7676873966826
30
0
41
1
10
210.014550691474
20
22.763928941191
30
0
0
SPLINE
5
1AE
100
AcDbEntity
8
1
62
256
6
ByLayer
370
-1
48
1
60
0
100
AcDbSpline
70
4
71
3
72
40
73
36
40
0
40
0
40
0
40
0
40
0.250000000000018
40
0.250000000000018
40
0.375000000000027
40
0.375000000000027
40
0.500000000000036
40
0.500000000000036
40
0.56250000000004
40
0.56250000000004
40
0.625000000000045
40
0.625000000000045
40
0.656250000000048
40
0.656250000000048
40
0.687500000000051
40
0.687500000000051
40
0.703125000000052
40
0.703125000000052
40
0.718750000000054
40
0.718750000000054
40
0.734375000000055
40
0.734375000000055
40
0.750000000000057
40
0.750000000000057
40
0.765625000000058
40
0.765625000000058
40
0.781250000000059
40
0.781250000000059
40
0.812500000000054
40
0.812500000000054
40
0.875000000000036
40
0.875000000000036
40
0.937500000000018
40
0.937500000000018
40
1
40
1
40
1
40
1
41
1
10
190.028478972607
20
14.7205427072595
30
0
41
1
10
189.489245418904
20
14.8009525535208
30
0
41
1
10
188.953007846066
20
14.8924866729528
30
0
41
1
10
188.156769495443
20
15.060649768432
30
0
41
1
10
187.892727002724
20
15.1219160646207
30
0
41
1
10
187.368903621656
20
15.2609148368648
30
0
41
1
10
187.109021280505
20
15.3382351269273
30
0
41
1
10
186.725168501856
20
15.4776952604945
30
0
41
1
10
186.597844166292
20
15.52835923148
30
0
41
1
10
186.350414191444
20
15.641107006682
30
0
41
1
10
186.229842069639
20
15.7029986150684
30
0
41
1
10
186.058261846416
20
15.8122433556962
30
0
41
1
10
186.002635269049
20
15.8514293451267
30
0
41
1
10
185.896553822322
20
15.9389810782072
30
0
41
1
10
185.846406883471
20
15.9870814159666
30
0
41
1
10
185.781704658393
20
16.0680886438353
30
0
41
1
10
185.76176260362
20
16.0968523808064
30
0
41
1
10
185.727667587432
20
16.1569779335337
30
0
41
1
10
185.713364576714
20
16.1884715704519
30
0
41
1
10
185.692042743274
20
16.2552629179504
30
0
41
1
10
185.685380998842
20
16.2897618992789
30
0
41
1
10
185.681208697586
20
16.3596248875438
30
0
41
1
10
185.683801156021
20
16.3954310161753
30
0
41
1
10
185.697419101097
20
16.4644031546579
30
0
41
1
10
185.708515888873
20
16.4984223204792
30
0
41
1
10
185.736832590895
20
16.5632102142568
30
0
41
1
10
185.753896930449
20
16.5939135372082
30
0
41
1
10
185.811493698466
20
16.6822976490819
30
0
41
1
10
185.858310729108
20
16.7360685150825
30
0
41
1
10
186.007716446544
20
16.8830446392845
30
0
41
1
10
186.122009805073
20
16.965931478929
30
0
41
1
10
186.356508888841
20
17.1149152113239
30
0
41
1
10
186.477870654989
20
17.1811062632189
30
0
41
1
10
186.725118603008
20
17.3043085470711
30
0
41
1
10
186.851086543888
20
17.3611562064884
30
0
41
1
10
186.978603594652
20
17.4148484705245
30
0
0
SPLINE
5
1AF
100
AcDbEntity
8
1
62
256
6
ByLayer
370
-1
48
1
60
0
100
AcDbSpline
70
4
71
3
72
10
73
6
40
0
40
0
40
0
40
0
40
0.5
40
0.5
40
1
40
1
40
1
40
1
41
1
10
9.49238633837277
20
1.13513612523337
30
0
41
1
10
9.14857937383576
20
1.66615703511721
30
0
41
1
10
8.83737758692249
20
2.20998627444931
30
0
41
1
10
8.27193457085323
20
3.31680995091565
30
0
41
1
10
8.01773633103574
20
3.87987649119412
30
0
41
1
10
7.78982467355112
20
4.4493760463651
30
0
0
SPLINE
5
1B0
100
AcDbEntity
8
1
62
256
6
ByLayer
370
-1
48
1
60
0
100
AcDbSpline
70
4
71
3
72
16
73
12
40
0
40
0
40
0
40
0
40
0.25
40
0.25
40
0.5
40
0.5
40
0.75
40
0.75
40
0.875
40
0.875
40
1
40
1
40
1
40
1
41
1
10
129.5
20
21.6133053737897
30
0
41
1
10
133.778921965006
20
21.2363355132009
30
0
41
1
10
138.051922649734
20
20.7727410230525
30
0
41
1
10
146.593050907403
20
19.6840641302655
30
0
41
1
10
150.861023352606
20
19.0587211492078
30
0
41
1
10
159.398721283382
20
17.6594531395441
30
0
41
1
10
163.668560575231
20
16.8857152187359
30
0
41
1
10
170.080555765782
20
15.6275764362
30
0
41
1
10
172.219486892235
20
15.1918815808546
30
0
41
1
10
176.498896043401
20
14.2908117944239
30
0
41
1
10
178.638218819137
20
13.8256914665821
30
0
41
1
10
180.777586405497
20
13.3472349959992
30
0
0
SPLINE
5
1B1
100
AcDbEntity
8
1
62
256
6
ByLayer
370
-1
48
1
60
0
100
AcDbSpline
70
4
71
3
72
16
73
12
40
0
40
0
40
0
40
0
40
0.249999999999994
40
0.249999999999994
40
0.374999999999991
40
0.374999999999991
40
0.499999999999989
40
0.499999999999989
40
0.749999999999994
40
0.749999999999994
40
1
40
1
40
1
40
1
41
1
10
203.257328805273
20
8.89792141983889
30
0
41
1
10
203.79227340765
20
8.67211041667559
30
0
41
1
10
204.339789306356
20
8.47467417969736
30
0
41
1
10
205.18043224015
20
8.22228546637839
30
0
41
1
10
205.464581345093
20
8.1453014838045
30
0
41
1
10
206.036234752566
20
8.00713650183516
30
0
41
1
10
206.322658122997
20
7.94617187773116
30
0
41
1
10
207.183688306012
20
7.78714293432139
30
0
41
1
10
207.760050201342
20
7.71287472718771
30
0
41
1
10
208.917422719339
20
7.6269833212088
30
0
41
1
10
209.498433057522
20
7.61535853620819
30
0
41
1
10
210.081832194643
20
7.63574584277237
30
0
0
SPLINE
5
1B2
100
AcDbEntity
8
1
62
256
6
ByLayer
370
-1
48
1
60
0
100
AcDbSpline
70
4
71
3
72
34
73
30
40
0
40
0
40
0
40
0
40
0.119843266535114
40
0.119843266535114
40
0.295874613228094
40
0.295874613228094
40
0.383890286574584
40
0.383890286574584
40
0.427898123247829
40
0.427898123247829
40
0.471905959921073
40
0.471905959921073
40
0.559921633267561
40
0.559921633267561
40
0.647937306614049
40
0.647937306614049
40
0.735952979960537
40
0.735952979960537
40
0.779960816633781
40
0.779960816633781
40
0.823968653307025
40
0.823968653307025
40
0.867976489980268
40
0.867976489980268
40
0.911984326653512
40
0.911984326653512
40
0.955992163326756
40
0.955992163326756
40
1
40
1
40
1
40
1
41
1
10
198.095330491657
20
6.30944743500049
30
0
41
1
10
198.097843508327
20
6.50429983351688
30
0
41
1
10
198.091235952292
20
6.72513788482405
30
0
41
1
10
198.048764652103
20
7.33459892612615
30
0
41
1
10
198.001374332674
20
7.74268776609225
30
0
41
1
10
197.8897270975
20
8.41449719956063
30
0
41
1
10
197.845679250937
20
8.64851109215377
30
0
41
1
10
197.767546841303
20
9.01409721850195
30
0
41
1
10
197.739485018448
20
9.13838839783622
30
0
41
1
10
197.678907759013
20
9.39174751103104
30
0
41
1
10
197.646493854864
20
9.52035922328704
30
0
41
1
10
197.542967272487
20
9.90926805257132
30
0
41
1
10
197.465406290757
20
10.1735902813235
30
0
41
1
10
197.289642445138
20
10.7098982654422
30
0
41
1
10
197.19149303424
20
10.9819120701577
30
0
41
1
10
196.968612433353
20
11.5303564078899
30
0
41
1
10
196.844028344657
20
11.8068569079242
30
0
41
1
10
196.628938558296
20
12.220868185349
30
0
41
1
10
196.552300923528
20
12.3589812852339
30
0
41
1
10
196.389239464644
20
12.6303011540743
30
0
41
1
10
196.302657954893
20
12.7638884880418
30
0
41
1
10
196.116792121471
20
13.0248837227694
30
0
41
1
10
196.017220960974
20
13.152678060471
30
0
41
1
10
195.802672215319
20
13.3973303401749
30
0
41
1
10
195.688573759
20
13.5132791876698
30
0
41
1
10
195.442555474196
20
13.7273026406978
30
0
41
1
10
195.310247546916
20
13.8257363287741
30
0
41
1
10
195.022613477991
20
13.995152374383
30
0
41
1
10
194.871236106488
20
14.0637406320986
30
0
41
1
10
194.710618876475
20
14.1120317807265
30
0
0
SPLINE
5
1B3
100
AcDbEntity
8
1
62
256
6
ByLayer
370
-1
48
1
60
0
100
AcDbSpline
70
4
71
3
72
8
73
4
40
0
40
0
40
0
40
0
40
1
40
1
40
1
40
1
41
1
10
206.395006466764
20
22.7816673559886
30
0
41
1
10
206.694976658208
20
22.7838030325796
30
0
41
1
10
206.991159184961
20
22.7862535408679
30
0
41
1
10
207.283633191337
20
22.7886958028761
30
0
0
SPLINE
5
1B4
100
AcDbEntity
8
1
62
256
6
ByLayer
370
-1
48
1
60
0
100
AcDbSpline
70
4
71
3
72
14
73
10
40
0
40
0
40
0
40
0
40
0.25
40
0.25
40
0.5
40
0.5
40
0.75
40
0.75
40
1
40
1
40
1
40
1
41
1
10
21.1923863383729
20
-7.3613552142717
30
0
41
1
10
21.6999167412455
20
-7.76099568531549
30
0
41
1
10
22.2542082615828
20
-8.15568054277364
30
0
41
1
10
23.4478392968361
20
-8.9497844829103
30
0
41
1
10
24.0871594730521
20
-9.34915492490836
30
0
41
1
10
25.4510024229579
20
-10.1518140314154
30
0
41
1
10
26.1586272525856
20
-10.5450112076427
30
0
41
1
10
27.6246137617271
20
-11.3022942428134
30
0
41
1
10
28.3831755523315
20
-11.6665375229332
30
0
41
1
10
29.1717700570118
20
-12.0043247854097
30
0
0
SPLINE
5
1B5
100
AcDbEntity
8
1
62
256
6
ByLayer
370
-1
48
1
60
0
100
AcDbSpline
70
4
71
3
72
30
73
26
40
0
40
0
40
0
40
0
40
0.0624999999999937
40
0.0624999999999937
40
0.0937499999999905
40
0.0937499999999905
40
0.124999999999987
40
0.124999999999987
40
0.156249999999984
40
0.156249999999984
40
0.187499999999981
40
0.187499999999981
40
0.218749999999978
40
0.218749999999978
40
0.249999999999975
40
0.249999999999975
40
0.312499999999968
40
0.312499999999968
40
0.374999999999962
40
0.374999999999962
40
0.49999999999997
40
0.49999999999997
40
0.749999999999985
40
0.749999999999985
40
1
40
1
40
1
40
1
41
1
10
197.945734024539
20
12.0965466318564
30
0
41
1
10
197.886971637288
20
12.0896582826304
30
0
41
1
10
197.828846549566
20
12.0795069005783
30
0
41
1
10
197.743859833732
20
12.0529811110843
30
0
41
1
10
197.715940255768
20
12.0421733833123
30
0
41
1
10
197.663548976647
20
12.0144872768417
30
0
41
1
10
197.639115418237
20
11.997572938859
30
0
41
1
10
197.599511071859
20
11.9555823809673
30
0
41
1
10
197.584802925659
20
11.930027968787
30
0
41
1
10
197.571084554702
20
11.8764194521778
30
0
41
1
10
197.571608284164
20
11.8487117742092
30
0
41
1
10
197.581486165355
20
11.7962292244643
30
0
41
1
10
197.590803101803
20
11.7707413777419
30
0
41
1
10
197.613691834383
20
11.722609144939
30
0
41
1
10
197.627339257127
20
11.6997248035096
30
0
41
1
10
197.672412105423
20
11.6333024255372
30
0
41
1
10
197.707762849579
20
11.59220952602
30
0
41
1
10
197.782114170935
20
11.5150009344778
30
0
41
1
10
197.821545377084
20
11.4785810523511
30
0
41
1
10
197.94405847737
20
11.3734387119527
30
0
41
1
10
198.031464935069
20
11.3086576567538
30
0
41
1
10
198.301770851601
20
11.1241773357284
30
0
41
1
10
198.491230185004
20
11.0151462734202
30
0
41
1
10
198.87964386324
20
10.8113713995184
30
0
41
1
10
199.078928172145
20
10.7171132236903
30
0
41
1
10
199.281971566292
20
10.6283831487465
30
0
0
SPLINE
5
1B6
100
AcDbEntity
8
1
62
256
6
ByLayer
370
-1
48
1
60
0
100
AcDbSpline
70
4
71
3
72
21
73
17
40
0
40
0
40
0
40
0
40
0.0229047218119455
40
0.223794421366667
40
0.424684120921391
40
0.449795333365731
40
0.474906545810072
40
0.500017758254412
40
0.525128970698751
40
0.625573820476114
40
0.726018670253475
40
0.79507450447541
40
0.826463520030836
40
0.857852535586262
40
0.926908369808198
40
1
40
1
40
1
40
1
41
1
10
190.028478972607
20
14.7205427072595
30
0
41
1
10
189.934004394048
20
14.7164297996856
30
0
41
1
10
189.010920308366
20
14.6759608161556
30
0
41
1
10
187.259148399124
20
14.593950528262
30
0
41
1
10
185.498713008213
20
14.5024042008549
30
0
41
1
10
184.463788974723
20
14.4456759525484
30
0
41
1
10
184.153420550408
20
14.4284639495931
30
0
41
1
10
183.842919498003
20
14.4110583703393
30
0
41
1
10
183.220914585033
20
14.3758364638681
30
0
41
1
10
182.287159721131
20
14.3215317311418
30
0
41
1
10
181.172953999234
20
14.2539454527838
30
0
41
1
10
180.34464617914
20
14.2019592568218
30
0
41
1
10
179.801480564298
20
14.1671919084859
30
0
41
1
10
179.258320644102
20
14.1320158567782
30
0
41
1
10
178.542797783646
20
14.0848312462093
30
0
41
1
10
177.955999871379
20
14.0451252122839
30
0
41
1
10
177.654164085406
20
14.0244289365098
30
0
0
SPLINE
5
1B7
100
AcDbEntity
8
1
62
256
6
ByLayer
370
-1
48
1
60
0
100
AcDbSpline
70
4
71
1
72
4
73
2
40
0
40
0
40
1
40
1
41
1
10
35.1461070128641
20
6.7573757515496
30
0
41
1
10
35.1461070128641
20
12.0281611574122
30
0
0
SPLINE
5
1B8
100
AcDbEntity
8
1
62
256
6
ByLayer
370
-1
48
1
60
0
100
AcDbSpline
70
4
71
3
72
8
73
4
40
0
40
0
40
0
40
0
40
1
40
1
40
1
40
1
41
1
10
33
20
12.7860016335418
30
0
41
1
10
33.720359659963
20
12.5464461730461
30
0
41
1
10
34.4355898971592
20
12.293796150391
30
0
41
1
10
35.1461070128641
20
12.0281611574121
30
0
0
SPLINE
5
1B9
100
AcDbEntity
8
1
62
256
6
ByLayer
370
-1
48
1
60
0
100
AcDbSpline
70
4
71
3
72
10
73
6
40
0
40
0
40
0
40
0
40
0.5
40
0.5
40
1
40
1
40
1
40
1
41
1
10
206.132734066273
20
-22.6798977181812
30
0
41
1
10
206.689712946605
20
-22.6892913808902
30
0
41
1
10
207.233121122194
20
-22.7024955980602
30
0
41
1
10
208.293746071973
20
-22.7319910895033
30
0
41
1
10
208.810962852803
20
-22.7483047822857
30
0
41
1
10
209.314624126311
20
-22.7628498432651
30
0
0
SPLINE
5
1BA
100
AcDbEntity
8
1
62
256
6
ByLayer
370
-1
48
1
60
0
100
AcDbSpline
70
4
71
3
72
12
73
8
40
0
40
0
40
0
40
0
40
0.249999999999999
40
0.249999999999999
40
0.499999999999998
40
0.499999999999998
40
1
40
1
40
1
40
1
41
1
10
209.902915620347
20
15.1806985900864
30
0
41
1
10
209.907110607
20
15.1806985900864
30
0
41
1
10
209.915281692772
20
15.1863755607083
30
0
41
1
10
209.938667976588
20
15.2071749061207
30
0
41
1
10
209.954101355247
20
15.2225171184872
30
0
41
1
10
210.007884903286
20
15.2772121179999
30
0
41
1
10
210.054355920437
20
15.3255698403845
30
0
41
1
10
210.108296497171
20
15.3773027073509
30
0
0
SPLINE
5
1BB
100
AcDbEntity
8
1
62
256
6
ByLayer
370
-1
48
1
60
0
100
AcDbSpline
70
4
71
3
72
12
73
8
40
0
40
0
40
0
40
0
40
0.150427625137343
40
0.150427625137343
40
0.575213812568671
40
0.575213812568671
40
1
40
1
40
1
40
1
41
1
10
102.566414461121
20
22.913321964888
30
0
41
1
10
103.915750737481
20
22.9076206181322
30
0
41
1
10
105.265028360431
20
22.8928765260816
30
0
41
1
10
110.424626649389
20
22.8019981967603
30
0
41
1
10
114.235100898433
20
22.6628388587365
30
0
41
1
10
121.861831775763
20
22.2429130704626
30
0
41
1
10
125.678121986024
20
21.9621668912066
30
0
41
1
10
129.5
20
21.6133053737896
30
0
0
SPLINE
5
1BC
100
AcDbEntity
8
1
62
256
6
ByLayer
370
-1
48
1
60
0
100
AcDbSpline
70
4
71
3
72
30
73
26
40
0
40
0
40
0
40
0
40
0.0535002399293563
40
0.0535002399293563
40
0.139545672663051
40
0.139545672663051
40
0.225591105396747
40
0.225591105396747
40
0.311636538130442
40
0.311636538130442
40
0.397681970864136
40
0.397681970864136
40
0.483727403597831
40
0.483727403597831
40
0.569772836331526
40
0.569772836331526
40
0.655818269065221
40
0.655818269065221
40
0.741863701798915
40
0.741863701798915
40
0.82790913453261
40
0.82790913453261
40
0.913954567266305
40
0.913954567266305
40
1
40
1
40
1
40
1
41
1
10
11.5373191110269
20
-1.07294610163709
30
0
41
1
10
11.5132343134223
20
-0.874015235428686
30
0
41
1
10
11.4993924263116
20
-0.658072421358924
30
0
41
1
10
11.4903167957642
20
-0.0536441917896582
30
0
41
1
10
11.5115251217321
20
0.359880341185857
30
0
41
1
10
11.6068999618448
20
1.25589578592803
30
0
41
1
10
11.6810649678266
20
1.73837252899636
30
0
41
1
10
11.8800745445727
20
2.75746020837229
30
0
41
1
10
12.0049159683971
20
3.29405502983948
30
0
41
1
10
12.3014415738548
20
4.40488228157946
30
0
41
1
10
12.4731210665268
20
4.97909714633337
30
0
41
1
10
12.8580457848134
20
6.14751070195709
30
0
41
1
10
13.0712849236109
20
6.74169091669538
30
0
41
1
10
13.5327739377215
20
7.93176697094975
30
0
41
1
10
13.7810165155058
20
8.52764399178506
30
0
41
1
10
14.3048809781872
20
9.70279270864529
30
0
41
1
10
14.5804945792121
20
10.2820458220355
30
0
41
1
10
15.150627860371
20
11.4061363183527
30
0
41
1
10
15.4451385249836
20
11.950955926029
30
0
41
1
10
16.0440114228558
20
12.9894271443058
30
0
41
1
10
16.3483641861342
20
13.483062333554
30
0
41
1
10
16.9575638765522
20
14.4039856491808
30
0
41
1
10
17.262401170413
20
14.8312592129929
30
0
41
1
10
17.8631973237488
20
15.6063201052384
30
0
41
1
10
18.1591466828301
20
15.9540951776286
30
0
41
1
10
18.4461070128627
20
16.2567794798783
30
0
0
SPLINE
5
1BD
100
AcDbEntity
8
1
62
256
6
ByLayer
370
-1
48
1
60
0
100
AcDbSpline
70
4
71
3
72
19
73
15
40
0
40
0
40
0
40
0
40
0.250000000000006
40
0.250000000000006
40
0.375000000000005
40
0.375000000000005
40
0.500000000000004
40
0.500000000000004
40
0.625000000000003
40
0.625000000000003
40
0.750000000000002
40
0.875000000000001
40
0.875000000000001
40
1
40
1
40
1
40
1
41
1
10
207.283633191337
20
15.6999999999998
30
0
41
1
10
207.283633191337
20
15.504698604367
30
0
41
1
10
207.25667523329
20
15.3140017718755
30
0
41
1
10
207.176274080614
20
15.0347826245008
30
0
41
1
10
207.14247320845
20
14.9426442654229
30
0
41
1
10
207.063218940285
20
14.7666193763909
30
0
41
1
10
207.017598041908
20
14.6819688829838
30
0
41
1
10
206.914356835318
20
14.5193984626746
30
0
41
1
10
206.856266049231
20
14.440949049948
30
0
41
1
10
206.729651865327
20
14.293803689878
30
0
41
1
10
206.593719324109
20
14.1573527912277
30
0
41
1
10
206.439650966464
20
14.0417159462327
30
0
41
1
10
206.276196156483
20
13.9368517137272
30
0
41
1
10
206.190749175882
20
13.8905304857003
30
0
41
1
10
206.10319471155
20
13.8509517174771
30
0
0
SPLINE
5
1BE
100
AcDbEntity
8
1
62
256
6
ByLayer
370
-1
48
1
60
0
100
AcDbSpline
70
4
71
3
72
16
73
12
40
0
40
0
40
0
40
0
40
0.153125665071096
40
0.153125665071096
40
0.435417110047381
40
0.435417110047381
40
0.717708555023667
40
0.717708555023667
40
0.858854277511833
40
0.858854277511833
40
1
40
1
40
1
40
1
41
1
10
213.284431012585
20
7.70980220267799
30
0
41
1
10
213.263299311714
20
7.69031893564889
30
0
41
1
10
213.242349355503
20
7.67187240608038
30
0
41
1
10
213.183608778254
20
7.62226122372553
30
0
41
1
10
213.146470074563
20
7.59347032572504
30
0
41
1
10
213.076938933474
20
7.54344633010834
30
0
41
1
10
213.045092530348
20
7.52264318339155
30
0
41
1
10
213.007925268225
20
7.50064113957791
30
0
41
1
10
212.99733075835
20
7.49486046255558
30
0
41
1
10
212.981290175935
20
7.48713716023209
30
0
41
1
10
212.975719364439
20
7.48511624327034
30
0
41
1
10
212.972923100648
20
7.48511624327034
30
0
0
SPLINE
5
1BF
100
AcDbEntity
8
1
62
256
6
ByLayer
370
-1
48
1
60
0
100
AcDbSpline
70
4
71
3
72
28
73
24
40
0
40
0
40
0
40
0
40
0.0624999999999997
40
0.0624999999999997
40
0.124999999999999
40
0.124999999999999
40
0.187499999999999
40
0.187499999999999
40
0.249999999999999
40
0.249999999999999
40
0.374999999999998
40
0.374999999999998
40
0.437499999999998
40
0.437499999999998
40
0.499999999999998
40
0.499999999999998
40
0.624999999999999
40
0.624999999999999
40
0.749999999999999
40
0.749999999999999
40
0.875
40
0.875
40
1
40
1
40
1
40
1
41
1
10
38
20
11.3343811536219
30
0
41
1
10
39.9086206590133
20
10.8627520728358
30
0
41
1
10
41.8161257362203
20
10.3831226732525
30
0
41
1
10
45.6290695448121
20
9.4084539930123
30
0
41
1
10
47.5343459446303
20
8.91285260578866
30
0
41
1
10
51.3446088644143
20
7.91227054418164
30
0
41
1
10
53.2494588913206
20
7.40685039919615
30
0
41
1
10
57.0580487455814
20
6.38389822366591
30
0
41
1
10
58.9619622450329
20
5.86695116778989
30
0
41
1
10
64.6743228071225
20
4.30588106673147
30
0
41
1
10
68.4833400296734
20
3.25138441999775
30
0
41
1
10
74.2009279043313
20
1.65941261805898
30
0
41
1
10
76.1075268376477
20
1.12726284679377
30
0
41
1
10
79.922893236543
20
0.0625230804014336
30
0
41
1
10
81.8323772086972
20
-0.470266339974103
30
0
41
1
10
87.5599199670133
20
-2.06403368341409
30
0
41
1
10
91.3735663896036
20
-3.11958938252886
30
0
41
1
10
98.9966710068669
20
-5.19793500268491
30
0
41
1
10
102.806090846623
20
-6.22087035167377
30
0
41
1
10
110.425697082552
20
-8.21677348393419
30
0
41
1
10
114.235940055482
20
-9.18955007738813
30
0
41
1
10
121.862133777117
20
-11.0685234564186
30
0
41
1
10
125.678339434857
20
-11.9738800746932
30
0
41
1
10
129.5
20
-12.8375550383449
30
0
0
SPLINE
5
1C0
100
AcDbEntity
8
1
62
256
6
ByLayer
370
-1
48
1
60
0
100
AcDbSpline
70
4
71
3
72
26
73
22
40
0
40
0
40
0
40
0
40
0.124999999999999
40
0.124999999999999
40
0.249999999999998
40
0.249999999999998
40
0.312499999999998
40
0.312499999999998
40
0.343749999999997
40
0.343749999999997
40
0.374999999999997
40
0.374999999999997
40
0.499999999999997
40
0.499999999999997
40
0.749999999999999
40
0.749999999999999
40
0.812499999999999
40
0.812499999999999
40
0.874999999999999
40
0.874999999999999
40
1
40
1
40
1
40
1
41
1
10
21.1923863383728
20
-12.4275291204107
30
0
41
1
10
21.4354201473311
20
-12.6532785723521
30
0
41
1
10
21.6918743290346
20
-12.8496963794686
30
0
41
1
10
22.2321940062373
20
-13.1839943379803
30
0
41
1
10
22.516055394928
20
-13.3218829548821
30
0
41
1
10
22.9632794222726
20
-13.4831935453942
30
0
41
1
10
23.1161986720179
20
-13.529072081699
30
0
41
1
10
23.3474775631518
20
-13.5863117626244
30
0
41
1
10
23.4250690358648
20
-13.6040080531329
30
0
41
1
10
23.5814525963901
20
-13.63897126116
30
0
41
1
10
23.6602168055792
20
-13.6559338426727
30
0
41
1
10
24.0568947372735
20
-13.7383340590092
30
0
41
1
10
24.3833654849696
20
-13.7965759034703
30
0
41
1
10
25.390291483371
20
-13.9541547221162
30
0
41
1
10
26.0980708594092
20
-14.0365836029372
30
0
41
1
10
27.0315354844714
20
-14.1252305512473
30
0
41
1
10
27.220834389072
20
-14.1422306440045
30
0
41
1
10
27.6021725824873
20
-14.17484063857
30
0
41
1
10
27.7944665726104
20
-14.1904761782648
30
0
41
1
10
28.3762571642654
20
-14.2357955403506
30
0
41
1
10
28.7706546044117
20
-14.2639031071852
30
0
41
1
10
29.1717700570119
20
-14.2908714120205
30
0
0
SPLINE
5
1C1
100
AcDbEntity
8
1
62
256
6
ByLayer
370
-1
48
1
60
0
100
AcDbSpline
70
4
71
3
72
8
73
4
40
0
40
0
40
0
40
0
40
1
40
1
40
1
40
1
41
1
10
183.128279820975
20
12.7252095694348
30
0
41
1
10
182.360296499442
20
12.9161476593426
30
0
41
1
10
181.57622551287
20
13.1240227231486
30
0
41
1
10
180.777586405497
20
13.3472349959992
30
0
0
SPLINE
5
1C2
100
AcDbEntity
8
1
62
256
6
ByLayer
370
-1
48
1
60
0
100
AcDbSpline
70
4
71
3
72
24
73
20
40
0
40
0
40
0
40
0
40
0.249999999999999
40
0.249999999999999
40
0.312499999999999
40
0.312499999999999
40
0.375
40
0.375
40
0.5
40
0.5
40
0.625000000000001
40
0.625000000000001
40
0.656250000000001
40
0.656250000000001
40
0.687500000000001
40
0.687500000000001
40
0.750000000000001
40
0.750000000000001
40
1
40
1
40
1
40
1
41
1
10
33
20
12.7860016335418
30
0
41
1
10
31.7415000932762
20
13.204515525206
30
0
41
1
10
30.4753339919787
20
13.6382871658662
30
0
41
1
10
28.8913502620495
20
14.2270779495581
30
0
41
1
10
28.5739400474499
20
14.3474392069279
30
0
41
1
10
27.9454005194975
20
14.5913701404126
30
0
41
1
10
27.6336256273758
20
14.7151711560089
30
0
41
1
10
26.7061554567777
20
15.0930859443145
30
0
41
1
10
26.098302666729
20
15.3536985033219
30
0
41
1
10
24.9057305195889
20
15.8978673509954
30
0
41
1
10
24.3210031425671
20
16.1814127234877
30
0
41
1
10
23.6062275761989
20
16.5540175420797
30
0
41
1
10
23.4641269503008
20
16.6295054981027
30
0
41
1
10
23.1814021440671
20
16.782176027816
30
0
41
1
10
23.0398505770462
20
16.8582524873392
30
0
41
1
10
22.6128904140934
20
17.0840585399833
30
0
41
1
10
22.3258421202741
20
17.2319855012133
30
0
41
1
10
20.8785355676753
20
17.957895257165
30
0
41
1
10
19.6822026790908
20
18.4948705366521
30
0
41
1
10
18.4461070128625
20
18.9781996217249
30
0
0
SPLINE
5
1C3
100
AcDbEntity
8
1
62
256
6
ByLayer
370
-1
48
1
60
0
100
AcDbSpline
70
4
71
3
72
14
73
10
40
0
40
0
40
0
40
0
40
0.500000000000001
40
0.500000000000001
40
0.625000000000001
40
0.625000000000001
40
0.750000000000001
40
0.750000000000001
40
1
40
1
40
1
40
1
41
1
10
13.4491676113843
20
-2.4624718117895
30
0
41
1
10
12.8499820717445
20
-2.12112381223426
30
0
41
1
10
12.269653010864
20
-1.70755500687153
30
0
41
1
10
11.563932791401
20
-1.10396067704937
30
0
41
1
10
11.4237893302055
20
-0.978852411530568
30
0
41
1
10
11.1454686725861
20
-0.719713533260602
30
0
41
1
10
11.0069628591926
20
-0.5853433659953
30
0
41
1
10
10.5972421266966
20
-0.171416916368088
30
0
41
1
10
10.3319118470192
20
0.118664707136247
30
0
41
1
10
10.0742230720213
20
0.422865636756455
30
0
0
SPLINE
5
1C4
100
AcDbEntity
8
1
62
256
6
ByLayer
370
-1
48
1
60
0
100
AcDbSpline
70
4
71
3
72
12
73
8
40
0
40
0
40
0
40
0
40
0.25
40
0.25
40
0.5
40
0.5
40
1
40
1
40
1
40
1
41
1
10
9.49238633837282
20
-1.22758962088309
30
0
41
1
10
9.28615935503586
20
-0.770931839401953
30
0
41
1
10
9.10077270744634
20
-0.308840930516794
30
0
41
1
10
8.7633306373788
20
0.623884255720583
30
0
41
1
10
8.61131559048238
20
1.09452954651621
30
0
41
1
10
8.19635553346447
20
2.51677943388319
30
0
41
1
10
7.97409353968615
20
3.47858943425075
30
0
41
1
10
7.7898246735511
20
4.44937604636519
30
0
0
SPLINE
5
1C5
100
AcDbEntity
8
1
62
256
6
ByLayer
370
-1
48
1
60
0
100
AcDbSpline
70
4
71
3
72
32
73
28
40
0
40
0
40
0
40
0
40
0.0625000000000074
40
0.0625000000000074
40
0.125000000000015
40
0.125000000000015
40
0.250000000000028
40
0.250000000000028
40
0.312500000000029
40
0.312500000000029
40
0.375000000000029
40
0.375000000000029
40
0.437500000000029
40
0.437500000000029
40
0.500000000000029
40
0.500000000000029
40
0.562500000000029
40
0.562500000000029
40
0.625000000000029
40
0.625000000000029
40
0.750000000000019
40
0.750000000000019
40
0.812500000000014
40
0.812500000000014
40
0.87500000000001
40
0.87500000000001
40
1
40
1
40
1
40
1
41
1
10
222.563992437917
20
-17.222058074828
30
0
41
1
10
222.495646734578
20
-17.2485550004793
30
0
41
1
10
222.428765326785
20
-17.2765279872792
30
0
41
1
10
222.298560160863
20
-17.3360250075041
30
0
41
1
10
222.235013487102
20
-17.367683269908
30
0
41
1
10
222.053978435781
20
-17.4675957952836
30
0
41
1
10
221.945060642976
20
-17.5408608327006
30
0
41
1
10
221.808704202833
20
-17.6656469431063
30
0
41
1
10
221.768233087257
20
-17.7095769227456
30
0
41
1
10
221.701471914328
20
-17.7998619016654
30
0
41
1
10
221.674745816153
20
-17.8466184824416
30
0
41
1
10
221.636650878601
20
-17.9434226465583
30
0
41
1
10
221.625921670966
20
-17.9918389184864
30
0
41
1
10
221.620241376711
20
-18.0886403583324
30
0
41
1
10
221.625440528826
20
-18.1374761349001
30
0
41
1
10
221.650403775137
20
-18.2327027326046
30
0
41
1
10
221.669914864202
20
-18.2788870183346
30
0
41
1
10
221.720733293511
20
-18.3688317682061
30
0
41
1
10
221.752212242712
20
-18.4126783724975
30
0
41
1
10
221.858790882874
20
-18.5377954216143
30
0
41
1
10
221.946411113044
20
-18.6141024676357
30
0
41
1
10
222.094619765703
20
-18.7213681944267
30
0
41
1
10
222.146879666308
20
-18.7558630379885
30
0
41
1
10
222.254618379637
20
-18.8217867336604
30
0
41
1
10
222.310306801041
20
-18.8533686126889
30
0
41
1
10
222.481928686909
20
-18.944670335899
30
0
41
1
10
222.602373136477
20
-19.00098105187
30
0
41
1
10
222.72735024843
20
-19.0539039130567
30
0
0
SPLINE
5
1C6
100
AcDbEntity
8
1
62
256
6
ByLayer
370
-1
48
1
60
0
100
AcDbSpline
70
4
71
3
72
10
73
6
40
0
40
0
40
0
40
0
40
0.5
40
0.5
40
1
40
1
40
1
40
1
41
1
10
203.122842360783
20
8.8510672720281
30
0
41
1
10
203.423771796643
20
8.66321185129365
30
0
41
1
10
203.730327120923
20
8.48553904353614
30
0
41
1
10
204.358133095896
20
8.15166586887156
30
0
41
1
10
204.679354678986
20
7.99544612879328
30
0
41
1
10
205.010548190211
20
7.85115976506495
30
0
0
SPLINE
5
1C7
100
AcDbEntity
8
1
62
256
6
ByLayer
370
-1
48
1
60
0
100
AcDbSpline
70
4
71
3
72
8
73
4
40
0
40
0
40
0
40
0
40
1
40
1
40
1
40
1
41
1
10
35.1461070128642
20
12.0281611574118
30
0
41
1
10
36.0973925113426
20
11.7992014938933
30
0
41
1
10
37.0486782376745
20
11.5679037356813
30
0
41
1
10
38
20
11.3343811536219
30
0
0
SPLINE
5
1C8
100
AcDbEntity
8
1
62
256
6
ByLayer
370
-1
48
1
60
0
100
AcDbSpline
70
4
71
3
72
8
73
4
40
0
40
0
40
0
40
0
40
1
40
1
40
1
40
1
41
1
10
32.9999999999999
20
-14.7124151405819
30
0
41
1
10
34.6667234030958
20
-15.0758942211291
30
0
41
1
10
36.3333084911805
20
-15.4303323405323
30
0
41
1
10
38
20
-15.7750694278592
30
0
0
SPLINE
5
1C9
100
AcDbEntity
8
1
62
256
6
ByLayer
370
-1
48
1
60
0
100
AcDbSpline
70
4
71
3
72
8
73
4
40
0
40
0
40
0
40
0
40
1
40
1
40
1
40
1
41
1
10
18.4461070128632
20
16.2567794798741
30
0
41
1
10
24.047019325961
20
13.0806873705494
30
0
41
1
10
29.6111506715862
20
9.90728716470781
30
0
41
1
10
35.1461070128641
20
6.7573757515496
30
0
0
SPLINE
5
1CA
100
AcDbEntity
8
1
62
256
6
ByLayer
370
-1
48
1
60
0
100
AcDbSpline
70
4
71
3
72
36
73
32
40
0
40
0
40
0
40
0
40
0.0549235133442428
40
0.0549235133442428
40
0.127621704625454
40
0.127621704625454
40
0.273018087187878
40
0.273018087187878
40
0.309367182828484
40
0.309367182828484
40
0.34571627846909
40
0.34571627846909
40
0.418414469750303
40
0.418414469750303
40
0.563810852312727
40
0.563810852312727
40
0.636509043593939
40
0.636509043593939
40
0.672858139234545
40
0.672858139234545
40
0.709207234875151
40
0.709207234875151
40
0.781905426156363
40
0.781905426156363
40
0.854603617437576
40
0.854603617437576
40
0.890952713078182
40
0.890952713078182
40
0.927301808718788
40
0.927301808718788
40
1
40
1
40
1
40
1
41
1
10
156.509104647235
20
-18.2079040881735
30
0
41
1
10
154.227987281165
20
-18.5377875711544
30
0
41
1
10
151.947367614237
20
-18.8465572855946
30
0
41
1
10
146.647894440163
20
-19.5125658478138
30
0
41
1
10
143.628948614745
20
-19.8531664615221
30
0
41
1
10
134.568425151225
20
-20.7552900459772
30
0
41
1
10
128.52336846675
20
-21.1968228017972
30
0
41
1
10
120.949955579914
20
-21.5334110132663
30
0
41
1
10
119.433863101259
20
-21.5898469569789
30
0
41
1
10
116.402788869592
20
-21.6806612347829
30
0
41
1
10
114.887921436485
20
-21.7150671116378
30
0
41
1
10
110.344942988199
20
-21.7846532270546
30
0
41
1
10
107.318535251216
20
-21.7854776796623
30
0
41
1
10
98.2417567412588
20
-21.6552858724431
30
0
41
1
10
92.1940155272024
20
-21.3922391891496
30
0
41
1
10
83.1137269533055
20
-20.7452601598189
30
0
41
1
10
80.0855267675867
20
-20.4873397897255
30
0
41
1
10
75.5392484098905
20
-20.0388386675753
30
0
41
1
10
74.023372014345
20
-19.8790499950567
30
0
41
1
10
70.9938002455215
20
-19.5393803816098
30
0
41
1
10
69.4796505803056
20
-19.3594454715886
30
0
41
1
10
64.9386486186488
20
-18.7901183888168
30
0
41
1
10
61.9133302723004
20
-18.3707194204676
30
0
41
1
10
55.8639849520931
20
-17.4605860509308
30
0
41
1
10
52.8398607362546
20
-16.9708063261542
30
0
41
1
10
48.3034581753359
20
-16.1822597095252
30
0
41
1
10
46.7912578395348
20
-15.9105581401977
30
0
41
1
10
43.7660323627456
20
-15.3537880582728
30
0
41
1
10
42.2530495922916
20
-15.0684684965352
30
0
41
1
10
37.7131836220051
20
-14.1864844849646
30
0
41
1
10
34.6850773786964
20
-13.5662908856246
30
0
41
1
10
31.6538929871359
20
-12.9205522329743
30
0
0
SPLINE
5
1CB
100
AcDbEntity
8
1
62
256
6
ByLayer
370
-1
48
1
60
0
100
AcDbSpline
70
4
71
3
72
8
73
4
40
0
40
0
40
0
40
0
40
1
40
1
40
1
40
1
41
1
10
31.6538929871359
20
-12.9205522329743
30
0
41
1
10
31.5887984942956
20
-12.8953877753054
30
0
41
1
10
31.5236623187802
20
-12.8703337151182
30
0
41
1
10
31.4584849450825
20
-12.8453907134061
30
0
0
SPLINE
5
1CC
100
AcDbEntity
8
1
62
256
6
ByLayer
370
-1
48
1
60
0
100
AcDbSpline
70
4
71
3
72
8
73
4
40
0
40
0
40
0
40
0
40
1
40
1
40
1
40
1
41
1
10
18.446107012864
20
16.256779479878
30
0
41
1
10
18.446107012864
20
17.1639195271626
30
0
41
1
10
18.446107012864
20
18.0710595744471
30
0
41
1
10
18.446107012864
20
18.9781996217316
30
0
0
SPLINE
5
1CD
100
AcDbEntity
8
1
62
256
6
ByLayer
370
-1
48
1
60
0
100
AcDbSpline
70
4
71
3
72
20
73
16
40
0
40
0
40
0
40
0
40
0.250000000000003
40
0.250000000000003
40
0.375000000000002
40
0.375000000000002
40
0.437500000000001
40
0.437500000000001
40
0.5
40
0.5
40
0.750000000000004
40
0.750000000000004
40
0.875000000000002
40
0.875000000000002
40
1
40
1
40
1
40
1
41
1
10
191.806950540596
20
22.5293638451996
30
0
41
1
10
191.599084325642
20
21.9557602840481
30
0
41
1
10
191.354561161301
20
21.4009855473842
30
0
41
1
10
190.904472213312
20
20.6116126055603
30
0
41
1
10
190.740456786248
20
20.3556720796504
30
0
41
1
10
190.469376296688
20
19.9846319860748
30
0
41
1
10
190.374884239129
20
19.8632419557952
30
0
41
1
10
190.180130260357
20
19.6286544063126
30
0
41
1
10
190.07953491686
20
19.5149849281375
30
0
41
1
10
189.560573129516
20
18.9646388608535
30
0
41
1
10
189.093621488241
20
18.582675692989
30
0
41
1
10
188.326153522057
20
18.0852275027934
30
0
41
1
10
188.063046845219
20
17.9342585245244
30
0
41
1
10
187.527787962792
20
17.6574520724176
30
0
41
1
10
187.255170674719
20
17.5312996635033
30
0
41
1
10
186.978603594652
20
17.4148484705245
30
0
0
SPLINE
5
1CE
100
AcDbEntity
8
1
62
256
6
ByLayer
370
-1
48
1
60
0
100
AcDbSpline
70
4
71
3
72
8
73
4
40
0
40
0
40
0
40
0
40
1
40
1
40
1
40
1
41
1
10
207.36100176181
20
5.12128882039028
30
0
41
1
10
206.460620017975
20
4.91831806500312
30
0
41
1
10
205.537696022065
20
4.78705561031833
30
0
41
1
10
204.612442983718
20
4.73130900750462
30
0
0
SPLINE
5
1CF
100
AcDbEntity
8
1
62
256
6
ByLayer
370
-1
48
1
60
0
100
AcDbSpline
70
4
71
3
72
8
73
4
40
0
40
0
40
0
40
0
40
1
40
1
40
1
40
1
41
1
10
210.225281686373
20
7.63087076687748
30
0
41
1
10
210.222804316863
20
7.63408002282046
30
0
41
1
10
210.220348376931
20
7.63729250878345
30
0
41
1
10
210.217913532605
20
7.64050815205235
30
0
0
SPLINE
5
1D0
100
AcDbEntity
8
1
62
256
6
ByLayer
370
-1
48
1
60
0
100
AcDbSpline
70
4
71
3
72
20
73
16
40
0
40
0
40
0
40
0
40
0.249999999999999
40
0.249999999999999
40
0.499999999999999
40
0.499999999999999
40
0.624999999999999
40
0.624999999999999
40
0.749999999999999
40
0.749999999999999
40
0.875
40
0.875
40
0.9375
40
0.9375
40
1
40
1
40
1
40
1
41
1
10
129.5
20
-12.8375550383449
30
0
41
1
10
134.869348280219
20
-14.0659132978911
30
0
41
1
10
140.228928435424
20
-15.2097830607338
30
0
41
1
10
150.943690690057
20
-17.2877920030217
30
0
41
1
10
156.298458663133
20
-18.2231842981198
30
0
41
1
10
164.336533276425
20
-19.4474181494025
30
0
41
1
10
167.016885665156
20
-19.8256657758465
30
0
41
1
10
172.381931780724
20
-20.5178765345034
30
0
41
1
10
175.06729394756
20
-20.8322348132033
30
0
41
1
10
180.434558069416
20
-21.3933854722089
30
0
41
1
10
183.117553516257
20
-21.6401696249757
30
0
41
1
10
187.141981771028
20
-21.9584702626096
30
0
41
1
10
188.483532406287
20
-22.0558261106393
30
0
41
1
10
191.16718714442
20
-22.2327230971893
30
0
41
1
10
192.509312878919
20
-22.3122619122794
30
0
41
1
10
193.851648846593
20
-22.3829667072652
30
0
0
SPLINE
5
1D1
100
AcDbEntity
8
1
62
256
6
ByLayer
370
-1
48
1
60
0
100
AcDbSpline
70
4
71
3
72
8
73
4
40
0
40
0
40
0
40
0
40
1
40
1
40
1
40
1
41
1
10
183.128279820975
20
12.7252095694348
30
0
41
1
10
185.097518395479
20
11.8138050711287
30
0
41
1
10
187.08501520575
20
10.9186558527813
30
0
41
1
10
189.090850058453
20
10.0398329661477
30
0
0
SPLINE
5
1D2
100
AcDbEntity
8
1
62
256
6
ByLayer
370
-1
48
1
60
0
100
AcDbSpline
70
4
71
2
72
6
73
3
40
0
40
0
40
0
40
1
40
1
40
1
41
1
10
9.49238633837268
20
1.13513612523352
30
0
41
1
10
9.49238633837271
20
-0.0462267478255001
30
0
41
1
10
9.49238633837271
20
-1.22758962088449
30
0
0
SPLINE
5
1D3
100
AcDbEntity
8
1
62
256
6
ByLayer
370
-1
48
1
60
0
100
AcDbSpline
70
4
71
3
72
8
73
4
40
0
40
0
40
0
40
0
40
1
40
1
40
1
40
1
41
1
10
202.105227319267
20
5.02327383580121
30
0
41
1
10
202.075803317364
20
5.03104708057549
30
0
41
1
10
202.04640515656
20
5.03890693645849
30
0
41
1
10
202.017033364039
20
5.04685356294749
30
0
0
SPLINE
5
1D4
100
AcDbEntity
8
1
62
256
6
ByLayer
370
-1
48
1
60
0
100
AcDbSpline
70
4
71
3
72
30
73
26
40
0
40
0
40
0
40
0
40
0.0891085999968898
40
0.0891085999968898
40
0.17821719999378
40
0.17821719999378
40
0.26732579999067
40
0.26732579999067
40
0.356434399987559
40
0.356434399987559
40
0.44554299998445
40
0.44554299998445
40
0.53465159998134
40
0.53465159998134
40
0.62376019997823
40
0.62376019997823
40
0.712868799975121
40
0.712868799975121
40
0.801977399972011
40
0.801977399972011
40
0.891085999968901
40
0.891085999968901
40
0.980194599965791
40
0.980194599965791
40
1
40
1
40
1
40
1
41
1
10
35.1461070128657
20
6.75737575154818
30
0
41
1
10
34.8251839403346
20
6.53621898752397
30
0
41
1
10
34.493013244007
20
6.25144544141912
30
0
41
1
10
33.8189091978737
20
5.5655805762882
30
0
41
1
10
33.476992516619
20
5.16450621662247
30
0
41
1
10
32.7965360098657
20
4.26144741653855
30
0
41
1
10
32.4580130099952
20
3.75948530602878
30
0
41
1
10
31.7973536045721
20
2.6739366142379
30
0
41
1
10
31.4752335351251
20
2.09037687528738
30
0
41
1
10
30.8597600014804
20
0.864055319232335
30
0
41
1
10
30.5664217560787
20
0.221323825344854
30
0
41
1
10
30.019786396949
20
-1.09864374530426
30
0
41
1
10
29.7665027998574
20
-1.77584718326656
30
0
41
1
10
29.3097125055372
20
-3.13873515501604
30
0
41
1
10
29.1062171033489
20
-3.82438598871235
30
0
41
1
10
28.7568260686781
20
-5.17781934112426
30
0
41
1
10
28.6109390755775
20
-5.84556839353309
30
0
41
1
10
28.3823742020778
20
-7.13753544188842
30
0
41
1
10
28.2997019733955
20
-7.76172149140368
30
0
41
1
10
28.2007468809747
20
-8.9425726665776
30
0
41
1
10
28.1844664640958
20
-9.49920859336399
30
0
41
1
10
28.218923941461
20
-10.5235644469236
30
0
41
1
10
28.2696609836761
20
-10.9912590444797
30
0
41
1
10
28.3714422731024
20
-11.4975778315768
30
0
41
1
10
28.3915577031538
20
-11.5870077609263
30
0
41
1
10
28.4132558372992
20
-11.6737204673318
30
0
0
SPLINE
5
1D5
100
AcDbEntity
8
1
62
256
6
ByLayer
370
-1
48
1
60
0
100
AcDbSpline
70
4
71
4
72
10
73
5
40
0
40
0
40
0
40
0
40
0
40
1
40
1
40
1
40
1
40
1
41
0.979039121033084
10
194.19933900259
20
7.83848551500706
30
0
41
0.980834190982801
10
194.432223736986
20
9.21901777038882
30
0
41
0.986974834992274
10
194.600666837219
20
10.8269684150254
30
0
41
0.996318270182282
10
194.687649911158
20
12.5246917448809
30
0
41
0.999226502334128
10
194.710618876475
20
14.1120317807265
30
0
0
SPLINE
5
1D6
100
AcDbEntity
8
1
62
256
6
ByLayer
370
-1
48
1
60
0
100
AcDbSpline
70
4
71
3
72
24
73
20
40
0
40
0
40
0
40
0
40
0.329516392707209
40
0.329516392707209
40
0.411895490884012
40
0.411895490884012
40
0.494274589060815
40
0.494274589060815
40
0.659032785414436
40
0.659032785414436
40
0.741411883591237
40
0.741411883591237
40
0.823790981768038
40
0.823790981768038
40
0.906170079944839
40
0.906170079944839
40
0.98854917812164
40
0.98854917812164
40
1
40
1
40
1
40
1
41
1
10
216.967154244716
20
15.2556303142427
30
0
41
1
10
216.994886604134
20
15.0119882579283
30
0
41
1
10
217.062880836423
20
14.7707103204045
30
0
41
1
10
217.205982340471
20
14.4744790092684
30
0
41
1
10
217.237633178391
20
14.4154967720865
30
0
41
1
10
217.306228646929
20
14.3001072810808
30
0
41
1
10
217.343277771606
20
14.2434631237295
30
0
41
1
10
217.463039510509
20
14.0769398285119
30
0
41
1
10
217.554257025271
20
13.9704165746267
30
0
41
1
10
217.7111475847
20
13.8191471114388
30
0
41
1
10
217.766559988929
20
13.7704530943897
30
0
41
1
10
217.882279846742
20
13.6782373476946
30
0
41
1
10
217.942806099238
20
13.6344966113206
30
0
41
1
10
218.069520401739
20
13.5521417726592
30
0
41
1
10
218.135705635918
20
13.5135249260086
30
0
41
1
10
218.274291199355
20
13.4420188689979
30
0
41
1
10
218.346598061822
20
13.4092543697817
30
0
41
1
10
218.43054382196
20
13.3764685860664
30
0
41
1
10
218.440823799046
20
13.3725396765053
30
0
41
1
10
218.451139438321
20
13.368683607365
30
0
0
SPLINE
5
1D7
100
AcDbEntity
8
1
62
256
6
ByLayer
370
-1
48
1
60
0
100
AcDbSpline
70
4
71
3
72
22
73
18
40
0
40
0
40
0
40
0
40
0.0441294145538102
40
0.0441294145538102
40
0.123785296674326
40
0.123785296674326
40
0.203441178794841
40
0.203441178794841
40
0.362752943035873
40
0.362752943035873
40
0.522064707276906
40
0.522064707276906
40
0.681376471517937
40
0.681376471517937
40
0.84068823575897
40
0.84068823575897
40
1
40
1
40
1
40
1
41
1
10
217.966102375698
20
17.211748049489
30
0
41
1
10
217.930546168645
20
17.1933401472659
30
0
41
1
10
217.896107195258
20
17.1740617829968
30
0
41
1
10
217.802367611218
20
17.1177150077966
30
0
41
1
10
217.74537894339
20
17.0788143721094
30
0
41
1
10
217.6373696324
20
16.9961289474751
30
0
41
1
10
217.586744184828
20
16.9526052936038
30
0
41
1
10
217.44573039176
20
16.8180336964593
30
0
41
1
10
217.365053242724
20
16.7222655104695
30
0
41
1
10
217.225400612661
20
16.5199981239173
30
0
41
1
10
217.166463779306
20
16.4129891839749
30
0
41
1
10
217.071274901084
20
16.1950595659842
30
0
41
1
10
217.034440741415
20
16.0833891938835
30
0
41
1
10
216.980601418041
20
15.8546979980285
30
0
41
1
10
216.963604580785
20
15.7375405320771
30
0
41
1
10
216.949916884864
20
15.4981764999513
30
0
41
1
10
216.953288065007
20
15.3774513423999
30
0
41
1
10
216.967154244716
20
15.2556303142427
30
0
0
SPLINE
5
1D8
100
AcDbEntity
8
1
62
256
6
ByLayer
370
-1
48
1
60
0
100
AcDbSpline
70
4
71
3
72
12
73
8
40
0
40
0
40
0
40
0
40
0.104898575171168
40
0.104898575171168
40
0.403265716780781
40
0.403265716780781
40
1
40
1
40
1
40
1
41
1
10
223.57687169309
20
8.07033573849233
30
0
41
1
10
223.575926153527
20
8.05612375069612
30
0
41
1
10
223.574899644661
20
8.04252269636777
30
0
41
1
10
223.570706489464
20
7.99255419625018
30
0
41
1
10
223.567014955687
20
7.96029474858869
30
0
41
1
10
223.55522124652
20
7.88304373927721
30
0
41
1
10
223.546156017836
20
7.85552013702062
30
0
41
1
10
223.537247158386
20
7.85543748804645
30
0
0
SPLINE
5
1D9
100
AcDbEntity
8
1
62
256
6
ByLayer
370
-1
48
1
60
0
100
AcDbSpline
70
4
71
3
72
8
73
4
40
0
40
0
40
0
40
0
40
1
40
1
40
1
40
1
41
1
10
21.1923863383728
20
-7.3613552142717
30
0
41
1
10
21.1923863383728
20
-9.05007984965138
30
0
41
1
10
21.1923863383728
20
-10.7388044850311
30
0
41
1
10
21.1923863383728
20
-12.4275291204107
30
0
0
SPLINE
5
1DA
100
AcDbEntity
8
1
62
256
6
ByLayer
370
-1
48
1
60
0
100
AcDbSpline
70
4
71
3
72
25
73
21
40
0
40
0
40
0
40
0
40
0.125
40
0.1875
40
0.25
40
0.265625
40
0.2734375
40
0.28125
40
0.3125
40
0.375
40
0.5
40
0.625
40
0.65625
40
0.6875
40
0.75
40
0.765625
40
0.78125
40
0.8125
40
0.875
40
1
40
1
40
1
40
1
41
1
10
210.522653015765
20
8.24021169542002
30
0
41
1
10
210.518044980125
20
8.2524616127404
30
0
41
1
10
210.512056471325
20
8.27131611998504
30
0
41
1
10
210.506021723033
20
8.29711140266886
30
0
41
1
10
210.503387365523
20
8.31168119555562
30
0
41
1
10
210.502048782245
20
8.32094046499262
30
0
41
1
10
210.501620972433
20
8.32393866220156
30
0
41
1
10
210.500857996053
20
8.33051333689849
30
0
41
1
10
210.499253235834
20
8.34407105530025
30
0
41
1
10
210.49582216498
20
8.3738676276231
30
0
41
1
10
210.491101490362
20
8.41614172110528
30
0
41
1
10
210.487035492592
20
8.45442628596257
30
0
41
1
10
210.484426294386
20
8.47973219143489
30
0
41
1
10
210.482717510042
20
8.49657355194122
30
0
41
1
10
210.481267507578
20
8.51130637914224
30
0
41
1
10
210.480063861944
20
8.52398519158481
30
0
41
1
10
210.479271126298
20
8.53244967209085
30
0
41
1
10
210.477907333639
20
8.54728821593989
30
0
41
1
10
210.475257592653
20
8.57703688358401
30
0
41
1
10
210.473065282049
20
8.60253535346757
30
0
41
1
10
210.471650210032
20
8.61955324704363
30
0
0
SPLINE
5
1DB
100
AcDbEntity
8
1
62
256
6
ByLayer
370
-1
48
1
60
0
100
AcDbSpline
70
4
71
3
72
15
73
11
40
0
40
0
40
0
40
0
40
0.250227978748336
40
0.500467923372803
40
0.75070786799727
40
0.875827840309503
40
0.938387826465619
40
0.969667819543678
40
0.985307816082707
40
1
40
1
40
1
40
1
41
1
10
225.63025314487
20
8.76977289289698
30
0
41
1
10
225.639979038017
20
8.76752348991977
30
0
41
1
10
225.659431289313
20
8.76302457641992
30
0
41
1
10
225.688604253736
20
8.75627745797686
30
0
41
1
10
225.712942730494
20
8.75064845905089
30
0
41
1
10
225.729921517733
20
8.74672160791368
30
0
41
1
10
225.738495590708
20
8.74473859771746
30
0
41
1
10
225.742655608162
20
8.74377646956074
30
0
41
1
10
225.745219235779
20
8.74318355418455
30
0
41
1
10
225.745829559161
20
8.74304239869261
30
0
41
1
10
225.746986932446
20
8.74277472158838
30
0
0
SPLINE
5
1DC
100
AcDbEntity
8
1
62
256
6
ByLayer
370
-1
48
1
60
0
100
AcDbSpline
70
4
71
3
72
12
73
8
40
0
40
0
40
0
40
0
40
0.0285608994398897
40
0.0933235061438971
40
0.222848719551912
40
0.481899146367941
40
1
40
1
40
1
40
1
41
1
10
210.890183214518
20
9.68478992670205
30
0
41
1
10
210.885849949438
20
9.68464077545389
30
0
41
1
10
210.871694901784
20
9.68415366731716
30
0
41
1
10
210.837892374865
20
9.68299037199756
30
0
41
1
10
210.769129656249
20
9.6806239995218
30
0
41
1
10
210.63160336991
20
9.67589118772096
30
0
41
1
10
210.513723979317
20
9.67183451347097
30
0
41
1
10
210.435137652152
20
9.66913005916464
30
0
0
SPLINE
5
1DD
100
AcDbEntity
8
1
62
256
6
ByLayer
370
-1
48
1
60
0
100
AcDbSpline
70
4
71
3
72
9
73
5
40
0
40
0
40
0
40
0
40
0.5
40
1
40
1
40
1
40
1
41
1
10
211.018728092691
20
7.7764528105775
30
0
41
1
10
210.962451891167
20
7.79291594404063
30
0
41
1
10
210.853056556489
20
7.84095027543682
30
0
41
1
10
210.761500755603
20
7.91506956015411
30
0
41
1
10
210.722188619303
20
7.95633101156281
30
0
0
SPLINE
5
1DE
100
AcDbEntity
8
1
62
256
6
ByLayer
370
-1
48
1
60
0
100
AcDbSpline
70
4
71
3
72
14
73
10
40
0
40
0
40
0
40
0
40
0.0318086637759089
40
0.31550772507447
40
0.59920678637303
40
0.882905847671591
40
0.953830612996231
40
0.989292995658551
40
1
40
1
40
1
40
1
41
1
10
211.962206759908
20
21.5147851625351
30
0
41
1
10
211.962301141118
20
21.5184283273011
30
0
41
1
10
211.963220095237
20
21.554670052997
30
0
41
1
10
211.964316545333
20
21.6274692816474
30
0
41
1
10
211.964226762293
20
21.7384309455714
30
0
41
1
10
211.962917772336
20
21.8255409303634
30
0
41
1
10
211.961655441864
20
21.8795239896681
30
0
41
1
10
211.961235115005
20
21.8957792393299
30
0
41
1
10
211.961062993787
20
21.9021950696911
30
0
41
1
10
211.961022845249
20
21.903683182113
30
0
0
SPLINE
5
1DF
100
AcDbEntity
8
1
62
256
6
ByLayer
370
-1
48
1
60
0
100
AcDbSpline
70
4
71
3
72
8
73
4
40
0
40
0
40
0
40
0
40
1
40
1
40
1
40
1
41
1
10
211.104121375167
20
7.64671419482875
30
0
41
1
10
211.066283393016
20
7.64670703207904
30
0
41
1
10
211.028938408038
20
7.65098609578558
30
0
41
1
10
210.992073510722
20
7.65952840277444
30
0
0
SPLINE
5
1E0
100
AcDbEntity
8
1
62
256
6
ByLayer
370
-1
48
1
60
0
100
AcDbSpline
70
4
71
3
72
15
73
11
40
0
40
0
40
0
40
0
40
0.250244249035886
40
0.500488498071771
40
0.750732747107657
40
0.8758548716256
40
0.938415933884571
40
0.969696465014057
40
0.9853367305788
40
1
40
1
40
1
40
1
41
1
10
210.490534699441
20
22.9411106312147
30
0
41
1
10
210.487695761211
20
22.9506736787744
30
0
41
1
10
210.482017884751
20
22.9697997738936
30
0
41
1
10
210.473502717814
20
22.9984833660695
30
0
41
1
10
210.466398781229
20
23.0224131869806
30
0
41
1
10
210.46144299747
20
23.0391068914375
30
0
41
1
10
210.458940389304
20
23.0475370012109
30
0
41
1
10
210.457726159651
20
23.0516271697802
30
0
41
1
10
210.456978239933
20
23.0541465595149
30
0
41
1
10
210.456800086736
20
23.0547466738393
30
0
41
1
10
210.456463937712
20
23.0558790017875
30
0
0
SPLINE
5
1E1
100
AcDbEntity
8
1
62
256
6
ByLayer
370
-1
48
1
60
0
100
AcDbSpline
70
4
71
3
72
91
73
87
40
0
40
0
40
0
40
0
40
0.0276322771566926
40
0.0681475989418304
40
0.0782764293881148
40
0.083340844611257
40
0.0839738965141498
40
0.0846069484170426
40
0.084923474368489
40
0.0852400003199354
40
0.0858730522228282
40
0.0884052598343993
40
0.0985340902806837
40
0.108662920726968
40
0.118791751173253
40
0.128920581619537
40
0.149178242512106
40
0.169435903404675
40
0.179564733850959
40
0.184629149074102
40
0.189693564297244
40
0.190326616200137
40
0.190959668103029
40
0.192225771908815
40
0.192858823811708
40
0.1934918757146
40
0.194757979520386
40
0.197290187131957
40
0.199822394743528
40
0.20488680996667
40
0.209951225189813
40
0.220080055636097
40
0.222612263247668
40
0.223878367053454
40
0.225144470859239
40
0.230208886082382
40
0.270724207867519
40
0.290981868760088
40
0.311239529652657
40
0.331497190545226
40
0.341626020991511
40
0.346690436214653
40
0.349222643826224
40
0.350488747632009
40
0.351121799534902
40
0.351754851437795
40
0.352387903340688
40
0.353020955243581
40
0.354287059049366
40
0.356819266660937
40
0.361883681884079
40
0.372012512330364
40
0.392270173222933
40
0.412527834115502
40
0.432785495008071
40
0.473300816793209
40
0.47583302440478
40
0.478365232016351
40
0.479631335822136
40
0.480897439627922
40
0.483429647239493
40
0.493558477685777
40
0.503687308132062
40
0.508751723355204
40
0.511283930966775
40
0.512550034772561
40
0.513816138578346
40
0.514449190481239
40
0.523944969024631
40
0.534073799470915
40
0.554331460363484
40
0.564460290809769
40
0.574589121256053
40
0.594846782148622
40
0.615104443041191
40
0.617636650652762
40
0.618269702555655
40
0.618586228507101
40
0.618902754458548
40
0.61953580636144
40
0.620168858264333
40
0.625233273487475
40
0.63536210393376
40
0.675877425718898
40
0.837938712859449
40
1
40
1
40
1
40
1
41
1
10
212.307890663167
20
9.59500382910301
30
0
41
1
10
212.306310009545
20
9.59553714451417
30
0
41
1
10
212.302433706725
20
9.59691795590609
30
0
41
1
10
212.298049781795
20
9.59868795215507
30
0
41
1
10
212.294970575921
20
9.60004269155993
30
0
41
1
10
212.294099374996
20
9.6004356138304
30
0
41
1
10
212.293751437923
20
9.60059398712426
30
0
41
1
10
212.293664483888
20
9.60063364733315
30
0
41
1
10
212.29359493883
20
9.60066541561659
30
0
41
1
10
212.293525405897
20
9.60069721063928
30
0
41
1
10
212.293334240382
20
9.6007847572306
30
0
41
1
10
212.292604973779
20
9.60112042906047
30
0
41
1
10
212.291359207032
20
9.60170547290812
30
0
41
1
10
212.289707829465
20
9.60250590279421
30
0
41
1
10
212.288066344996
20
9.60332658181881
30
0
41
1
10
212.285891220952
20
9.60444765632417
30
0
41
1
10
212.283198290329
20
9.6058990108819
30
0
41
1
10
212.280541647861
20
9.60741623211396
30
0
41
1
10
212.278701918595
20
9.60851243898628
30
0
41
1
10
212.277656460457
20
9.60914853948842
30
0
41
1
10
212.277103142547
20
9.6094898912566
30
0
41
1
10
212.276778357505
20
9.60969181556666
30
0
41
1
10
212.276648505434
20
9.60977268560492
30
0
41
1
10
212.276518746388
20
9.60985370603225
30
0
41
1
10
212.276389080583
20
9.60993487668404
30
0
41
1
10
212.276259477009
20
9.61001614743066
30
0
41
1
10
212.276032834301
20
9.61015863384199
30
0
41
1
10
212.275709527352
20
9.61036293533479
30
0
41
1
10
212.275193239956
20
9.61069141309559
30
0
41
1
10
212.274549771277
20
9.61110499503636
30
0
41
1
10
212.273524291235
20
9.61177306549794
30
0
41
1
10
212.272632385958
20
9.61236591069076
30
0
41
1
10
212.27193519522
20
9.61283709309649
30
0
41
1
10
212.271682064885
20
9.61300901725122
30
0
41
1
10
212.271302763811
20
9.61326748792308
30
0
41
1
10
212.268969834533
20
9.61487039036345
30
0
41
1
10
212.265753323746
20
9.61721377722745
30
0
41
1
10
212.261903648539
20
9.6202413265946
30
0
41
1
10
212.259072704401
20
9.62258233082832
30
0
41
1
10
212.256761976691
20
9.62459066265401
30
0
41
1
10
212.255170642701
20
9.62602608992836
30
0
41
1
10
212.254381615732
20
9.62675112858213
30
0
41
1
10
212.253988774276
20
9.6271154699466
30
0
41
1
10
212.253792773058
20
9.62729809498614
30
0
41
1
10
212.253680892437
20
9.62740258180341
30
0
41
1
10
212.253597042061
20
9.62748101170112
30
0
41
1
10
212.253513251831
20
9.62755950634241
30
0
41
1
10
212.253401611776
20
9.62766425212115
30
0
41
1
10
212.253206452499
20
9.62784778348043
30
0
41
1
10
212.252816978468
20
9.62821574976067
30
0
41
1
10
212.252041418504
20
9.6289552851724
30
0
41
1
10
212.250503930939
20
9.63044867623748
30
0
41
1
10
212.248346926785
20
9.63262248608791
30
0
41
1
10
212.245823034968
20
9.63529402139176
30
0
41
1
10
212.242545813468
20
9.63893779712714
30
0
41
1
10
212.240090856384
20
9.64187766803292
30
0
41
1
10
212.238379358008
20
9.64403923559402
30
0
41
1
10
212.238142568469
20
9.64434018361251
30
0
41
1
10
212.237953689408
20
9.64458137858037
30
0
41
1
10
212.237765179202
20
9.64482286404098
30
0
41
1
10
212.237248299629
20
9.64548814510187
30
0
41
1
10
212.236410828082
20
9.64658328629659
30
0
41
1
10
212.235495267846
20
9.64781149079525
30
0
41
1
10
212.234862311608
20
9.64867711777922
30
0
41
1
10
212.234547827469
20
9.64911139083452
30
0
41
1
10
212.234368693383
20
9.64935996225631
30
0
41
1
10
212.23425697285
20
9.64951549213501
30
0
41
1
10
212.233855423069
20
9.6500758651809
30
0
41
1
10
212.233147667043
20
9.65107649239013
30
0
41
1
10
212.231777745142
20
9.6530630068155
30
0
41
1
10
212.230423277984
20
9.65510657340738
30
0
41
1
10
212.229106565742
20
9.65717469959759
30
0
41
1
10
212.227815208572
20
9.65925887865563
30
0
41
1
10
212.226248899979
20
9.66189360123465
30
0
41
1
10
212.224972597385
20
9.66416518651053
30
0
41
1
10
212.224295231345
20
9.6654105955127
30
0
41
1
10
212.22419489531
20
9.66559591685902
30
0
41
1
10
212.224158448061
20
9.66566332746265
30
0
41
1
10
212.224122026539
20
9.66573075207197
30
0
41
1
10
212.224076547885
20
9.66581505907592
30
0
41
1
10
212.223894890707
20
9.6661524268554
30
0
41
1
10
212.223443645216
20
9.66699741644595
30
0
41
1
10
212.221882553979
20
9.66998635310131
30
0
41
1
10
212.216271817629
20
9.68157993241934
30
0
41
1
10
212.209118644377
20
9.70258240218513
30
0
41
1
10
212.206510669379
20
9.72213765683708
30
0
41
1
10
212.206169348166
20
9.73194915322912
30
0
0
SPLINE
5
1E2
100
AcDbEntity
8
1
62
256
6
ByLayer
370
-1
48
1
60
0
100
AcDbSpline
70
4
71
3
72
14
73
10
40
0
40
0
40
0
40
0
40
0.0107070020616753
40
0.0461693850894243
40
0.117094151144922
40
0.400793215366914
40
0.684492279588906
40
0.968191343810898
40
1
40
1
40
1
40
1
41
1
10
223.260944865519
20
22.2997924697143
30
0
41
1
10
223.260985014074
20
22.2983043576297
30
0
41
1
10
223.261157135283
20
22.2918885276127
30
0
41
1
10
223.26157746219
20
22.2756332761231
30
0
41
1
10
223.262839792627
20
22.2216502182029
30
0
41
1
10
223.264148782616
20
22.1345402315386
30
0
41
1
10
223.264238565637
20
22.0235785761633
30
0
41
1
10
223.263142115638
20
21.9507793445311
30
0
41
1
10
223.262223161405
20
21.9145376143529
30
0
41
1
10
223.262128780208
20
21.91089445009
30
0
0
SPLINE
5
1E3
100
AcDbEntity
8
1
62
256
6
ByLayer
370
-1
48
1
60
0
100
AcDbSpline
70
4
71
3
72
14
73
10
40
0
40
0
40
0
40
0
40
0.0107070020616556
40
0.0461693850894052
40
0.117094151144904
40
0.400793215366901
40
0.684492279588898
40
0.968191343810895
40
1
40
1
40
1
40
1
41
1
10
212.412914426713
20
8.91377085999505
30
0
41
1
10
212.412851038723
20
8.9152589720797
30
0
41
1
10
212.412576773613
20
8.92167480209662
30
0
41
1
10
212.411866128867
20
8.93793005358626
30
0
41
1
10
212.409372546437
20
8.99191311150648
30
0
41
1
10
212.404620791956
20
9.07902309817075
30
0
41
1
10
212.39699033227
20
9.1899847535461
30
0
41
1
10
212.390828819614
20
9.26278398517826
30
0
41
1
10
212.387388319067
20
9.29902571535641
30
0
41
1
10
212.387040461908
20
9.30266887961938
30
0
0
SPLINE
5
1E4
100
AcDbEntity
8
1
62
256
6
ByLayer
370
-1
48
1
60
0
100
AcDbSpline
70
4
71
3
72
14
73
10
40
0
40
0
40
0
40
0
40
0.136649739226096
40
0.273299478452193
40
0.546598956904386
40
0.614923826517434
40
0.683248696130482
40
0.819898435356579
40
1
40
1
40
1
40
1
41
1
10
211.811567376021
20
21.0750350398961
30
0
41
1
10
211.811482045718
20
21.0774879139942
30
0
41
1
10
211.811431719471
20
21.0823978649606
30
0
41
1
10
211.811810909488
20
21.0922109495991
30
0
41
1
10
211.812770531952
20
21.1007574387156
30
0
41
1
10
211.814038713356
20
21.1080101547947
30
0
41
1
10
211.815002249882
20
21.1128230103737
30
0
41
1
10
211.816607827775
20
21.1195511177468
30
0
41
1
10
211.818239651878
20
21.1250024912545
30
0
41
1
10
211.81926634264
20
21.1280687145558
30
0
0
SPLINE
5
1E5
100
AcDbEntity
8
1
62
256
6
ByLayer
370
-1
48
1
60
0
100
AcDbSpline
70
4
71
3
72
9
73
5
40
0
40
0
40
0
40
0
40
0.375000000000577
40
1
40
1
40
1
40
1
41
1
10
212.448568182174
20
7.68843288234541
30
0
41
1
10
212.448038284261
20
7.70092526768318
30
0
41
1
10
212.44662522316
20
7.73423829525049
30
0
41
1
10
212.445212162059
20
7.76755132281784
30
0
41
1
10
212.444328998871
20
7.78837196504739
30
0
0
SPLINE
5
1E6
100
AcDbEntity
8
1
62
256
6
ByLayer
370
-1
48
1
60
0
100
AcDbSpline
70
4
71
3
72
9
73
5
40
0
40
0
40
0
40
0
40
0.624999999999909
40
1
40
1
40
1
40
1
41
1
10
224.789833874643
20
8.22113328254071
30
0
41
1
10
224.790717037831
20
8.20031264031115
30
0
41
1
10
224.792130098932
20
8.16699961274384
30
0
41
1
10
224.793543160033
20
8.13368658517652
30
0
41
1
10
224.794073057946
20
8.12119419983878
30
0
0
SPLINE
5
1E7
100
AcDbEntity
8
1
62
256
6
ByLayer
370
-1
48
1
60
0
100
AcDbSpline
70
4
71
3
72
8
73
4
40
0
40
0
40
0
40
0
40
1
40
1
40
1
40
1
41
1
10
224.256927642118
20
23.5617824772842
30
0
41
1
10
224.287129141829
20
23.5628411287279
30
0
41
1
10
224.317334446934
20
23.5637645850021
30
0
41
1
10
224.347545120421
20
23.564545547481
30
0
0
SPLINE
5
1E8
100
AcDbEntity
8
1
62
256
6
ByLayer
370
-1
48
1
60
0
100
AcDbSpline
70
4
71
3
72
15
73
11
40
0
40
0
40
0
40
0
40
0.250227978748013
40
0.500467923372489
40
0.750707867996965
40
0.875827840309203
40
0.938387826465322
40
0.969667819543381
40
0.985307816082411
40
1
40
1
40
1
40
1
41
1
10
211.018727774051
20
7.77645141281604
30
0
41
1
10
211.016506665101
20
7.76670817808866
30
0
41
1
10
211.012064341007
20
7.74722124280359
30
0
41
1
10
211.005402090928
20
7.71799626204651
30
0
41
1
10
210.999843896144
20
7.69361438900236
30
0
41
1
10
210.995966438749
20
7.67660532803961
30
0
41
1
10
210.994008371769
20
7.66801596721629
30
0
41
1
10
210.993058345703
20
7.66384853231753
30
0
41
1
10
210.99247288829
20
7.66128033366996
30
0
41
1
10
210.992333508317
20
7.66066892206217
30
0
41
1
10
210.992069198178
20
7.65950948514299
30
0
0
SPLINE
5
1E9
100
AcDbEntity
8
1
62
256
6
ByLayer
370
-1
48
1
60
0
100
AcDbSpline
70
4
71
3
72
9
73
5
40
0
40
0
40
0
40
0
40
0.5
40
1
40
1
40
1
40
1
41
1
10
225.450540012937
20
8.47262101490824
30
0
41
1
10
225.41424567121
20
8.42869536259323
30
0
41
1
10
225.328187953643
20
8.34831826971273
30
0
41
1
10
225.222529964523
20
8.29277462152822
30
0
41
1
10
225.167610592786
20
8.27245269849462
30
0
0
SPLINE
5
1EA
100
AcDbEntity
8
1
62
256
6
ByLayer
370
-1
48
1
60
0
100
AcDbSpline
70
4
71
3
72
8
73
4
40
0
40
0
40
0
40
0
40
1
40
1
40
1
40
1
41
1
10
210.775250759821
20
23.0887793363838
30
0
41
1
10
210.758995483806
20
23.0880606362064
30
0
41
1
10
210.742743518614
20
23.0872619778519
30
0
41
1
10
210.726495897961
20
23.0863836855681
30
0
0
SPLINE
5
1EB
100
AcDbEntity
8
1
62
256
6
ByLayer
370
-1
48
1
60
0
100
AcDbSpline
70
4
71
3
72
17
73
13
40
0
40
0
40
0
40
0
40
0.003270318640259
40
0.0092094466333346
40
0.0210877026194858
40
0.0448442145917883
40
0.0923572385363931
40
0.282409334314813
40
0.662513525871652
40
0.852565621650071
40
0.947591669539281
40
1
40
1
40
1
40
1
41
1
10
212.178402386966
20
9.73094819055552
30
0
41
1
10
212.178140029893
20
9.73093840233173
30
0
41
1
10
212.177405037309
20
9.73091095674187
30
0
41
1
10
212.175730622452
20
9.73084837891241
30
0
41
1
10
212.172408129259
20
9.73072434206094
30
0
41
1
10
212.165778207533
20
9.73047673683908
30
0
41
1
10
212.144926508074
20
9.7296980886305
30
0
41
1
10
212.09565217241
20
9.72785800506003
30
0
41
1
10
212.034995052675
20
9.72559292059876
30
0
41
1
10
211.981941099192
20
9.72361162476298
30
0
41
1
10
211.954993623425
20
9.72260546235992
30
0
41
1
10
211.943254007859
20
9.72216692164753
30
0
41
1
10
211.939062860359
20
9.72201047265983
30
0
0
SPLINE
5
1EC
100
AcDbEntity
8
1
62
256
6
ByLayer
370
-1
48
1
60
0
100
AcDbSpline
70
4
71
3
72
25
73
21
40
0
40
0
40
0
40
0
40
0.125
40
0.1875
40
0.21875
40
0.234375
40
0.25
40
0.3125
40
0.34375
40
0.375
40
0.5
40
0.625
40
0.6875
40
0.71875
40
0.7265625
40
0.734375
40
0.75
40
0.8125
40
0.875
40
1
40
1
40
1
40
1
41
1
10
224.260404311476
20
23.4618433945822
30
0
41
1
10
224.277414077863
20
23.4616045799775
30
0
41
1
10
224.302905112069
20
23.4611745990468
30
0
41
1
10
224.332651473753
20
23.4605808104791
30
0
41
1
10
224.347491639822
20
23.4602424782775
30
0
41
1
10
224.355958012428
20
23.4600346917866
30
0
41
1
10
224.368640710298
20
23.4597072180217
30
0
41
1
10
224.383381373744
20
23.4592752870212
30
0
41
1
10
224.400234588165
20
23.4587301369154
30
0
41
1
10
224.425561366487
20
23.4578693574286
30
0
41
1
10
224.463889724045
20
23.4564485493937
30
0
41
1
10
224.50622573894
20
23.4546484139851
30
0
41
1
10
224.536074356704
20
23.4532756575296
30
0
41
1
10
224.549656619621
20
23.452607477659
30
0
41
1
10
224.556245250977
20
23.4522986347428
30
0
41
1
10
224.559244292724
20
23.452078262369
30
0
41
1
10
224.568519878485
20
23.4513804639193
30
0
41
1
10
224.583145258993
20
23.4497573480479
30
0
41
1
10
224.609137090634
20
23.4455206999666
30
0
41
1
10
224.628245322551
20
23.4408551648118
30
0
41
1
10
224.640711228612
20
23.4371105191319
30
0
0
SPLINE
5
1ED
100
AcDbEntity
8
1
62
256
6
ByLayer
370
-1
48
1
60
0
100
AcDbSpline
70
4
71
3
72
15
73
11
40
0
40
0
40
0
40
0
40
0.0466427416044929
40
0.130083711367064
40
0.213524681129634
40
0.380406620654775
40
0.714170499705058
40
0.881052439230199
40
0.96449340899277
40
1
40
1
40
1
40
1
41
1
10
225.179430832812
20
10.1856875157731
30
0
41
1
10
225.174137090256
20
10.1854984645028
30
0
41
1
10
225.159359323836
20
10.1849708732678
30
0
41
1
10
225.134952268472
20
10.1841011981806
30
0
41
1
10
225.096547367646
20
10.1827358850388
30
0
41
1
10
225.028749439545
20
10.1803336518169
30
0
41
1
10
224.950192741202
20
10.1775684892998
30
0
41
1
10
224.881017541989
20
10.1751493917237
30
0
41
1
10
224.847121070627
20
10.1739678254584
30
0
41
1
10
224.833012993181
20
10.1734768320609
30
0
41
1
10
224.828801556062
20
10.1733302998487
30
0
0
SPLINE
5
1EE
100
AcDbEntity
8
1
62
256
6
ByLayer
370
-1
48
1
60
0
100
AcDbSpline
70
4
71
3
72
12
73
8
40
0
40
0
40
0
40
0
40
0.448044053330177
40
0.448044053330177
40
0.724021472165486
40
0.724021472165486
40
1
40
1
40
1
40
1
41
1
10
209.941739409632
20
21.0087259961614
30
0
41
1
10
209.936286315808
20
21.165478663288
30
0
41
1
10
209.931008369557
20
21.322234921929
30
0
41
1
10
209.922322860981
20
21.5755433771388
30
0
41
1
10
209.918936030053
20
21.672096315408
30
0
41
1
10
209.912070148476
20
21.8651988808736
30
0
41
1
10
209.908585585953
20
21.9617490583353
30
0
41
1
10
209.90522685175
20
22.0583028082824
30
0
0
SPLINE
5
1EF
100
AcDbEntity
8
1
62
256
6
ByLayer
370
-1
48
1
60
0
100
AcDbSpline
70
4
71
3
72
8
73
4
40
0
40
0
40
0
40
0
40
1
40
1
40
1
40
1
41
1
10
224.794073057946
20
8.12119419983878
30
0
41
1
10
224.824274538912
20
8.12225288741979
30
0
41
1
10
224.85447138363
20
8.12344917049828
30
0
41
1
10
224.884662129578
20
8.12478399332556
30
0
0
SPLINE
5
1F0
100
AcDbEntity
8
1
62
256
6
ByLayer
370
-1
48
1
60
0
100
AcDbSpline
70
4
71
3
72
8
73
4
40
0
40
0
40
0
40
0
40
1
40
1
40
1
40
1
41
1
10
209.902473895591
20
22.1492668324487
30
0
41
1
10
209.902055437554
20
22.1655946743607
30
0
41
1
10
209.901717362477
20
22.1819247773914
30
0
41
1
10
209.901456743811
20
22.1982559391977
30
0
0
SPLINE
5
1F1
100
AcDbEntity
8
1
62
256
6
ByLayer
370
-1
48
1
60
0
100
AcDbSpline
70
4
71
3
72
8
73
4
40
0
40
0
40
0
40
0
40
1
40
1
40
1
40
1
41
1
10
210.409216966742
20
8.20512709085324
30
0
41
1
10
210.449988476507
20
8.0712488481681
30
0
41
1
10
210.525823591562
20
7.94941286253211
30
0
41
1
10
210.627827028079
20
7.85394149283019
30
0
0
SPLINE
5
1F2
100
AcDbEntity
8
1
62
256
6
ByLayer
370
-1
48
1
60
0
100
AcDbSpline
70
4
71
3
72
15
73
11
40
0
40
0
40
0
40
0
40
0.0466427416045696
40
0.130083711367131
40
0.213524681129693
40
0.380406620654816
40
0.714170499705061
40
0.881052439230184
40
0.964493408992746
40
1
40
1
40
1
40
1
41
1
10
223.237971291551
20
22.9767514152424
30
0
41
1
10
223.238259000089
20
22.9713376951815
30
0
41
1
10
223.239057562094
20
22.9562294589472
30
0
41
1
10
223.240326340376
20
22.9313252228749
30
0
41
1
10
223.242230232591
20
22.8922277699353
30
0
41
1
10
223.24535458511
20
22.8234368109476
30
0
41
1
10
223.248435102589
20
22.7442529167407
30
0
41
1
10
223.25068007839
20
22.6749790258359
30
0
41
1
10
223.251667553129
20
22.641143394993
30
0
41
1
10
223.252055308646
20
22.6270831837007
30
0
41
1
10
223.252170012127
20
22.6228870501593
30
0
0
SPLINE
5
1F3
100
AcDbEntity
8
1
62
256
6
ByLayer
370
-1
48
1
60
0
100
AcDbSpline
70
4
71
3
72
8
73
4
40
0
40
0
40
0
40
0
40
1
40
1
40
1
40
1
41
1
10
223.804767721423
20
10.1385282898132
30
0
41
1
10
223.814903888172
20
10.138883604636
30
0
41
1
10
223.825296085518
20
10.1392381093972
30
0
41
1
10
223.834108104676
20
10.1395291662607
30
0
0
SPLINE
5
1F4
100
AcDbEntity
8
1
62
256
6
ByLayer
370
-1
48
1
60
0
100
AcDbSpline
70
4
71
3
72
9
73
5
40
0
40
0
40
0
40
0
40
0.375000000003611
40
1
40
1
40
1
40
1
41
1
10
209.941739409631
20
21.0087259961614
30
0
41
1
10
209.954088943428
20
21.0091622398702
30
0
41
1
10
209.987021033553
20
21.0103255564269
30
0
41
1
10
210.019953123678
20
21.0114888729837
30
0
41
1
10
210.040535680006
20
21.0122159458317
30
0
0
SPLINE
5
1F5
100
AcDbEntity
8
1
62
256
6
ByLayer
370
-1
48
1
60
0
100
AcDbSpline
70
4
71
3
72
8
73
4
40
0
40
0
40
0
40
0
40
1
40
1
40
1
40
1
41
1
10
210.106618210389
20
22.8364220852099
30
0
41
1
10
210.011513900368
20
22.7340328446485
30
0
41
1
10
209.944329053036
20
22.6071876578722
30
0
41
1
10
209.912944920218
20
22.4707842406684
30
0
0
SPLINE
5
1F6
100
AcDbEntity
8
1
62
256
6
ByLayer
370
-1
48
1
60
0
100
AcDbSpline
70
4
71
3
72
8
73
4
40
0
40
0
40
0
40
0
40
1
40
1
40
1
40
1
41
1
10
211.402985326699
20
7.65178085242513
30
0
41
1
10
211.372783859453
20
7.65072220098151
30
0
41
1
10
211.342576122127
20
7.64979874470723
30
0
41
1
10
211.312367047819
20
7.64901778222833
30
0
0
SPLINE
5
1F7
100
AcDbEntity
8
1
62
256
6
ByLayer
370
-1
48
1
60
0
100
AcDbSpline
70
4
71
3
72
9
73
5
40
0
40
0
40
0
40
0
40
0.37500000000078
40
1
40
1
40
1
40
1
41
1
10
223.211344786643
20
23.525130447364
30
0
41
1
10
223.21168405607
20
23.5126380620262
30
0
41
1
10
223.212588774541
20
23.4793250344589
30
0
41
1
10
223.213493493012
20
23.4460120068915
30
0
41
1
10
223.214058942056
20
23.425191364662
30
0
0
SPLINE
5
1F8
100
AcDbEntity
8
1
62
256
6
ByLayer
370
-1
48
1
60
0
100
AcDbSpline
70
4
71
3
72
8
73
4
40
0
40
0
40
0
40
0
40
1
40
1
40
1
40
1
41
1
10
211.312367047819
20
7.64901778223836
30
0
41
1
10
211.296101768793
20
7.64859729359645
30
0
41
1
10
211.279834449724
20
7.64825728168191
30
0
41
1
10
211.263565372354
20
7.64799572829122
30
0
0
SPLINE
5
1F9
100
AcDbEntity
8
1
62
256
6
ByLayer
370
-1
48
1
60
0
100
AcDbSpline
70
4
71
3
72
9
73
5
40
0
40
0
40
0
40
0
40
0.5
40
1
40
1
40
1
40
1
41
1
10
225.630251749597
20
8.76977321559565
30
0
41
1
10
225.613768396362
20
8.71336523162805
30
0
41
1
10
225.56574084081
20
8.60372870615811
30
0
41
1
10
225.491727477788
20
8.51199997431496
30
0
41
1
10
225.450540012937
20
8.47262101490824
30
0
0
SPLINE
5
1FA
100
AcDbEntity
8
1
62
256
6
ByLayer
370
-1
48
1
60
0
100
AcDbSpline
70
4
71
3
72
14
73
10
40
0
40
0
40
0
40
0
40
0.0318086637758945
40
0.315507725074459
40
0.599206786373024
40
0.882905847671589
40
0.953830612996231
40
0.989292995658551
40
1
40
1
40
1
40
1
41
1
10
223.686962482204
20
9.69877816717423
30
0
41
1
10
223.68731033941
20
9.69513500240822
30
0
41
1
10
223.690750839531
20
9.65889327671238
30
0
41
1
10
223.696912352077
20
9.58609404806194
30
0
41
1
10
223.704542812339
20
9.47513238413794
30
0
41
1
10
223.709294566721
20
9.38802239934594
30
0
41
1
10
223.711788149213
20
9.3340393400413
30
0
41
1
10
223.712498793879
20
9.31778409037943
30
0
41
1
10
223.712773059004
20
9.31136826001827
30
0
41
1
10
223.712836447035
20
9.30988014759637
30
0
0
SPLINE
5
1FB
100
AcDbEntity
8
1
62
256
6
ByLayer
370
-1
48
1
60
0
100
AcDbSpline
70
4
71
3
72
17
73
13
40
0
40
0
40
0
40
0
40
0.0144631560763485
40
0.0301057427839853
40
0.0613909161992587
40
0.123961263029806
40
0.249101956690899
40
0.499383344013087
40
0.749664731335275
40
0.999946118657462
40
0.999946118657462
40
1
40
1
40
1
40
1
41
1
10
224.256926835685
20
23.5618056587077
30
0
41
1
10
224.256964925312
20
23.5607107480614
30
0
41
1
10
224.256980081506
20
23.5602750735608
30
0
41
1
10
224.257056067387
20
23.5580908108517
30
0
41
1
10
224.257180034793
20
23.5545272885319
30
0
41
1
10
224.257435399377
20
23.5471866703713
30
0
41
1
10
224.257941175363
20
23.5326478163975
30
0
41
1
10
224.258666141903
20
23.5118081898549
30
0
41
1
10
224.259535144137
20
23.4868281652577
30
0
41
1
10
224.26011458903
20
23.470171651474
30
0
41
1
10
224.260404231183
20
23.4618457026602
30
0
41
1
10
224.260404578886
20
23.4618357077063
30
0
41
1
10
224.26040492659
20
23.4618257127524
30
0
0
SPLINE
5
1FC
100
AcDbEntity
8
1
62
256
6
ByLayer
370
-1
48
1
60
0
100
AcDbSpline
70
4
71
3
72
11
73
7
40
0
40
0
40
0
40
0
40
0.486341095999889
40
0.729511643999833
40
0.972682191999777
40
1
40
1
40
1
40
1
41
1
10
223.66064454898
20
9.98338474125498
30
0
41
1
10
223.660816695751
20
9.97843627229514
30
0
41
1
10
223.661171769384
20
9.97101405058305
30
0
41
1
10
223.661807809546
20
9.96176802108616
30
0
41
1
10
223.662193361727
20
9.95722253180671
30
0
41
1
10
223.662407759499
20
9.95494966347789
30
0
41
1
10
223.662429487645
20
9.95472092060717
30
0
0
SPLINE
5
1FD
100
AcDbEntity
8
1
62
256
6
ByLayer
370
-1
48
1
60
0
100
AcDbSpline
70
4
71
3
72
16
73
12
40
0
40
0
40
0
40
0
40
0.0068174563922456
40
0.0525902990102799
40
0.144135984246349
40
0.235681669482417
40
0.418773039954554
40
0.601864410426691
40
0.784955780898829
40
0.968047151370966
40
1
40
1
40
1
40
1
41
1
10
212.426619127811
20
8.59067627955002
30
0
41
1
10
212.426588108605
20
8.59141063133563
30
0
41
1
10
212.426348593045
20
8.59707524931861
30
0
41
1
10
212.425688091072
20
8.6125966050611
30
0
41
1
10
212.42464235888
20
8.63724464610033
30
0
41
1
10
212.422970420439
20
8.67668259316238
30
0
41
1
10
212.420879196926
20
8.72597884706715
30
0
41
1
10
212.41837100879
20
8.78513576672731
30
0
41
1
10
212.415861526101
20
8.84429124912165
30
0
41
1
10
212.414039554054
20
8.887166155118
30
0
41
1
10
212.413060984437
20
8.91033023475157
30
0
41
1
10
212.412914426713
20
8.91377085999505
30
0
0
SPLINE
5
1FE
100
AcDbEntity
8
1
62
256
6
ByLayer
370
-1
48
1
60
0
100
AcDbSpline
70
4
71
3
72
14
73
10
40
0
40
0
40
0
40
0
40
0.0107070020616342
40
0.0461693850893863
40
0.117094151144891
40
0.400793215366908
40
0.684492279588925
40
0.968191343810942
40
1
40
1
40
1
40
1
41
1
10
211.169387768044
20
21.0515157412284
30
0
41
1
10
211.170858597696
20
21.0515677072475
30
0
41
1
10
211.177198941592
20
21.0517917529686
30
0
41
1
10
211.193247178022
20
21.0523593988589
30
0
41
1
10
211.246409188112
20
21.054244528781
30
0
41
1
10
211.331466312733
20
21.0572864765457
30
0
41
1
10
211.438235387177
20
21.0611613429355
30
0
41
1
10
211.507128614426
20
21.0637035481225
30
0
41
1
10
211.541052706489
20
21.064969137228
30
0
41
1
10
211.544460888235
20
21.0650963593275
30
0
0
SPLINE
5
1FF
100
AcDbEntity
8
1
62
256
6
ByLayer
370
-1
48
1
60
0
100
AcDbSpline
70
4
71
3
72
8
73
4
40
0
40
0
40
0
40
0
40
1
40
1
40
1
40
1
41
1
10
209.905226851751
20
22.0583028082824
30
0
41
1
10
209.904172245028
20
22.0886196565213
30
0
41
1
10
209.903251086673
20
22.1189415617407
30
0
41
1
10
209.902473895581
20
22.1492668324484
30
0
0
SPLINE
5
200
100
AcDbEntity
8
1
62
256
6
ByLayer
370
-1
48
1
60
0
100
AcDbSpline
70
4
71
3
72
20
73
16
40
0
40
0
40
0
40
0
40
0.0006369940731693
40
0.002297065511586
40
0.0039571369500027
40
0.017237708457336
40
0.0437988514720026
40
0.150043423530669
40
0.362532567648002
40
0.468777139706668
40
0.521899425736001
40
0.575021711765334
40
0.787510855882667
40
0.893755427941334
40
1
40
1
40
1
40
1
41
1
10
225.655116607189
20
9.15177045536038
30
0
41
1
10
225.65511422142
20
9.1519935709984
30
0
41
1
10
225.655097277958
20
9.15279885649346
30
0
41
1
10
225.655042255553
20
9.15418451871287
30
0
41
1
10
225.654844671006
20
9.1599863291292
30
0
41
1
10
225.654335163659
20
9.17451479228023
30
0
41
1
10
225.652562885389
20
9.225618024629
30
0
41
1
10
225.648335503606
20
9.34643734020338
30
0
41
1
10
225.643084887079
20
9.49511951401047
30
0
41
1
10
225.638439629179
20
9.62521175350327
30
0
41
1
10
225.635769437352
20
9.6995463748118
30
0
41
1
10
225.631769102727
20
9.81105124201466
30
0
41
1
10
225.627114843633
20
9.94114742405318
30
0
41
1
10
225.621817002911
20
10.0898329055685
30
0
41
1
10
225.619170089918
20
10.164175922249
30
0
41
1
10
225.617852260921
20
10.2013473838777
30
0
0
SPLINE
5
201
100
AcDbEntity
8
1
62
256
6
ByLayer
370
-1
48
1
60
0
100
AcDbSpline
70
4
71
3
72
15
73
11
40
0
40
0
40
0
40
0
40
0.035506491937923
40
0.11894747022978
40
0.285829426813493
40
0.61959333998092
40
0.786475296564634
40
0.86991627485649
40
0.953357253148347
40
1
40
1
40
1
40
1
41
1
10
224.434199576545
20
21.5164161966192
30
0
41
1
10
224.438411009779
20
21.5165627268034
30
0
41
1
10
224.45251916086
20
21.5170537029602
30
0
41
1
10
224.48641553706
20
21.5182352844746
30
0
41
1
10
224.555590790499
20
21.5206543718964
30
0
41
1
10
224.634147466864
20
21.523419538465
30
0
41
1
10
224.701945397171
20
21.5258217717652
30
0
41
1
10
224.740350294548
20
21.5271870847843
30
0
41
1
10
224.764757062609
20
21.5280567526199
30
0
41
1
10
224.779535064027
20
21.5285843497937
30
0
41
1
10
224.784828883452
20
21.5287734030073
30
0
0
SPLINE
5
202
100
AcDbEntity
8
1
62
256
6
ByLayer
370
-1
48
1
60
0
100
AcDbSpline
70
4
71
3
72
8
73
4
40
0
40
0
40
0
40
0
40
1
40
1
40
1
40
1
41
1
10
210.567351491104
20
23.0764968606126
30
0
41
1
10
210.52961009172
20
23.073846896696
30
0
41
1
10
210.492649739792
20
23.0669687785163
30
0
41
1
10
210.456467440682
20
23.0558672019303
30
0
0
SPLINE
5
203
100
AcDbEntity
8
1
62
256
6
ByLayer
370
-1
48
1
60
0
100
AcDbSpline
70
4
71
3
72
10
73
6
40
0
40
0
40
0
40
0
40
0.5
40
0.5
40
1
40
1
40
1
40
1
41
1
10
214.527016041599
20
12.373857913178
30
0
41
1
10
214.517986688858
20
12.4255769739268
30
0
41
1
10
214.505438037045
20
12.479923030121
30
0
41
1
10
214.473420103858
20
12.5936899528407
30
0
41
1
10
214.453718751573
20
12.6532782784045
30
0
41
1
10
214.43233341566
20
12.7110471618055
30
0
0
SPLINE
5
204
100
AcDbEntity
8
1
62
256
6
ByLayer
370
-1
48
1
60
0
100
AcDbSpline
70
4
71
3
72
15
73
11
40
0
40
0
40
0
40
0
40
0.42499786374904
40
0.84999572749808
40
0.95624519343534
40
0.982807559919655
40
0.996088743161813
40
0.997748891067082
40
0.999409038972352
40
1
40
1
40
1
40
1
41
1
10
223.744251019168
20
8.18448125262074
30
0
41
1
10
223.892374619853
20
8.18967360119049
30
0
41
1
10
224.188618839452
20
8.2000554718627
30
0
41
1
10
224.521907422704
20
8.21174815037534
30
0
41
1
10
224.716307497148
20
8.21855162401752
30
0
41
1
10
224.767233165093
20
8.22034422340371
30
0
41
1
10
224.781690907667
20
8.22084424916397
30
0
41
1
10
224.78748290456
20
8.22105266550659
30
0
41
1
10
224.788845055327
20
8.22109279154077
30
0
41
1
10
224.789627702311
20
8.22113121504808
30
0
41
1
10
224.789833208163
20
8.22114333217365
30
0
0
SPLINE
5
205
100
AcDbEntity
8
1
62
256
6
ByLayer
370
-1
48
1
60
0
100
AcDbSpline
70
4
71
3
72
20
73
16
40
0
40
0
40
0
40
0
40
0.0006369940731991
40
0.0022970655116158
40
0.0039571369500324
40
0.0172377084573653
40
0.0437988514720311
40
0.150043423530694
40
0.362532567648021
40
0.468777139706684
40
0.521899425736016
40
0.575021711765347
40
0.787510855882674
40
0.893755427941337
40
1
40
1
40
1
40
1
41
1
10
224.260404427551
20
23.4618326279328
30
0
41
1
10
224.260182178027
20
23.4618302158941
30
0
41
1
10
224.259380018091
20
23.4618131462722
30
0
41
1
10
224.257999729138
20
23.4617578129036
30
0
41
1
10
224.252220386758
20
23.4615590817283
30
0
41
1
10
224.237747846371
20
23.4610469881343
30
0
41
1
10
224.186838130941
20
23.4592688899736
30
0
41
1
10
224.066451297087
20
23.4550527367061
30
0
41
1
10
223.918226416365
20
23.449890965556
30
0
41
1
10
223.788471194919
20
23.4453865893455
30
0
41
1
10
223.714307524226
20
23.4428185403778
30
0
41
1
10
223.603077166061
20
23.4389532979838
30
0
41
1
10
223.473352083724
20
23.4344056894151
30
0
41
1
10
223.325161742419
20
23.4291585346211
30
0
41
1
10
223.251088487074
20
23.4265146973166
30
0
41
1
10
223.214058942056
20
23.425191364662
30
0
0
SPLINE
5
206
100
AcDbEntity
8
1
62
256
6
ByLayer
370
-1
48
1
60
0
100
AcDbSpline
70
4
71
3
72
8
73
4
40
0
40
0
40
0
40
0
40
1
40
1
40
1
40
1
41
1
10
211.263565372353
20
7.64799572831549
30
0
41
1
10
211.210422377628
20
7.64714136330474
30
0
41
1
10
211.157275472874
20
7.64672425634515
30
0
41
1
10
211.104121375169
20
7.64671419424752
30
0
0
SPLINE
5
207
100
AcDbEntity
8
1
62
256
6
ByLayer
370
-1
48
1
60
0
100
AcDbSpline
70
4
71
3
72
16
73
12
40
0
40
0
40
0
40
0
40
0.0319528420423169
40
0.215044192449669
40
0.398135542857022
40
0.581226893264375
40
0.764318243671727
40
0.855863918875404
40
0.94740959407908
40
0.993182431680918
40
1
40
1
40
1
40
1
41
1
10
223.712836447035
20
9.30988014759637
30
0
41
1
10
223.712983004805
20
9.30643952267332
30
0
41
1
10
223.71396157577
20
9.28327544321314
30
0
41
1
10
223.715783587394
20
9.2404005820116
30
0
41
1
10
223.718292890917
20
9.18124490146977
30
0
41
1
10
223.720801251771
20
9.1220881727161
30
0
41
1
10
223.722892440703
20
9.07279188149496
30
0
41
1
10
223.724564379209
20
9.03335393291826
30
0
41
1
10
223.725610361641
20
9.00870611230573
30
0
41
1
10
223.726270273092
20
8.99318422489446
30
0
41
1
10
223.726509833679
20
8.98751963368235
30
0
41
1
10
223.726540862578
20
8.98678527779904
30
0
0
SPLINE
5
208
100
AcDbEntity
8
1
62
256
6
ByLayer
370
-1
48
1
60
0
100
AcDbSpline
70
4
71
3
72
16
73
12
40
0
40
0
40
0
40
0
40
0.0319528420423164
40
0.215044192449668
40
0.398135542857019
40
0.58122689326437
40
0.764318243671722
40
0.855863918875397
40
0.947409594079073
40
0.993182431680911
40
1
40
1
40
1
40
1
41
1
10
211.961022845249
20
21.903683182113
30
0
41
1
10
211.960930018888
20
21.9071238070361
30
0
41
1
10
211.960296931168
20
21.9302878864962
30
0
41
1
10
211.959135891275
20
21.9731627476978
30
0
41
1
10
211.957529392724
20
22.0323184282396
30
0
41
1
10
211.955921878574
20
22.0914751569933
30
0
41
1
10
211.954583240046
20
22.1407714482144
30
0
41
1
10
211.953511252879
20
22.1802093967911
30
0
41
1
10
211.952842344192
20
22.2048572174037
30
0
41
1
10
211.952422308362
20
22.2203791048149
30
0
41
1
10
211.952267750648
20
22.226043696027
30
0
41
1
10
211.95224768617
20
22.2267780519103
30
0
0
SPLINE
5
209
100
AcDbEntity
8
1
62
256
6
ByLayer
370
-1
48
1
60
0
100
AcDbSpline
70
4
71
3
72
14
73
10
40
0
40
0
40
0
40
0
40
0.136649739226109
40
0.273299478452218
40
0.546598956904436
40
0.61492382651749
40
0.683248696130545
40
0.819898435356654
40
1
40
1
40
1
40
1
41
1
10
223.804767721423
20
10.1385282898132
30
0
41
1
10
223.804853051726
20
10.1360754157152
30
0
41
1
10
223.804903377972
20
10.1311654647488
30
0
41
1
10
223.804524187955
20
10.1213523801103
30
0
41
1
10
223.803564565491
20
10.1128058909938
30
0
41
1
10
223.802296384088
20
10.1055531749147
30
0
41
1
10
223.801332847561
20
10.1007403193357
30
0
41
1
10
223.799727269668
20
10.0940122119626
30
0
41
1
10
223.798095445565
20
10.0885608384549
30
0
41
1
10
223.797068754803
20
10.0854946151536
30
0
0
SPLINE
5
20A
100
AcDbEntity
8
1
62
256
6
ByLayer
370
-1
48
1
60
0
100
AcDbSpline
70
4
71
3
72
8
73
4
40
0
40
0
40
0
40
0
40
1
40
1
40
1
40
1
41
1
10
224.933417138694
20
8.12717964414119
30
0
41
1
10
224.98648966624
20
8.13004858901286
30
0
41
1
10
225.039540935274
20
8.13334376440585
30
0
41
1
10
225.092561467347
20
8.13706646909696
30
0
0
SPLINE
5
20B
100
AcDbEntity
8
1
62
256
6
ByLayer
370
-1
48
1
60
0
100
AcDbSpline
70
4
71
3
72
9
73
5
40
0
40
0
40
0
40
0
40
0.5
40
1
40
1
40
1
40
1
41
1
10
224.640711228612
20
23.4371105191319
30
0
41
1
10
224.696821696205
20
23.4206473856687
30
0
41
1
10
224.805865012307
20
23.3726130542725
30
0
41
1
10
224.897068564072
20
23.2984937695553
30
0
41
1
10
224.936214648926
20
23.2572323181465
30
0
0
SPLINE
5
20C
100
AcDbEntity
8
1
62
256
6
ByLayer
370
-1
48
1
60
0
100
AcDbSpline
70
4
71
3
72
20
73
16
40
0
40
0
40
0
40
0
40
0.0006369940731712
40
0.0022970655115879
40
0.0039571369500045
40
0.0172377084573378
40
0.0437988514720044
40
0.15004342353067
40
0.362532567648003
40
0.468777139706669
40
0.521899425736002
40
0.575021711765335
40
0.787510855882668
40
0.893755427941334
40
1
40
1
40
1
40
1
41
1
10
210.004796361871
20
22.061792874349
30
0
41
1
10
210.004798781823
20
22.061569758711
30
0
41
1
10
210.004815847694
20
22.0607644732159
30
0
41
1
10
210.004871070906
20
22.0593788109965
30
0
41
1
10
210.005069436246
20
22.0535770005802
30
0
41
1
10
210.005580218745
20
22.0390485374291
30
0
41
1
10
210.007350604396
20
21.9879453050804
30
0
41
1
10
210.011523441676
20
21.867125989506
30
0
41
1
10
210.016557083254
20
21.7184438156989
30
0
41
1
10
210.020886296752
20
21.5883515762061
30
0
41
1
10
210.023332658457
20
21.5140169548976
30
0
41
1
10
210.027033391791
20
21.4025120876947
30
0
41
1
10
210.031439739788
20
21.2724159056562
30
0
41
1
10
210.036596274638
20
21.1237304241409
30
0
41
1
10
210.039216915055
20
21.0493874074604
30
0
41
1
10
210.040535680006
20
21.0122159458317
30
0
0
SPLINE
5
20D
100
AcDbEntity
8
1
62
256
6
ByLayer
370
-1
48
1
60
0
100
AcDbSpline
70
4
71
3
72
8
73
4
40
0
40
0
40
0
40
0
40
1
40
1
40
1
40
1
41
1
10
210.726495897961
20
23.0863836855682
30
0
41
1
10
210.673422987258
20
23.0835147406965
30
0
41
1
10
210.62037111286
20
23.0802195653036
30
0
41
1
10
210.567351491102
20
23.0764968606124
30
0
0
SPLINE
5
20E
100
AcDbEntity
8
1
62
256
6
ByLayer
370
-1
48
1
60
0
100
AcDbSpline
70
4
71
3
72
9
73
5
40
0
40
0
40
0
40
0
40
0.5
40
1
40
1
40
1
40
1
41
1
10
224.936214648926
20
23.2572323181465
30
0
41
1
10
224.979926070696
20
23.2208465979468
30
0
41
1
10
225.059927511523
20
23.1345302134253
30
0
41
1
10
225.115243703054
20
23.0284847857391
30
0
41
1
10
225.135492276462
20
22.9733516342893
30
0
0
SPLINE
5
20F
100
AcDbEntity
8
1
62
256
6
ByLayer
370
-1
48
1
60
0
100
AcDbSpline
70
4
71
3
72
8
73
4
40
0
40
0
40
0
40
0
40
1
40
1
40
1
40
1
41
1
10
210.865839910871
20
23.0923691298706
30
0
41
1
10
210.835638429905
20
23.0913104422896
30
0
41
1
10
210.805441253955
20
23.0901141592111
30
0
41
1
10
210.775250759821
20
23.0887793363838
30
0
0
SPLINE
5
210
100
AcDbEntity
8
1
62
256
6
ByLayer
370
-1
48
1
60
0
100
AcDbSpline
70
4
71
3
72
9
73
5
40
0
40
0
40
0
40
0
40
0.624999999999558
40
1
40
1
40
1
40
1
41
1
10
210.868554066284
20
22.9924300471687
30
0
41
1
10
210.86798861724
20
23.0132506893982
30
0
41
1
10
210.867083898769
20
23.0465637169656
30
0
41
1
10
210.866179180298
20
23.0798767445329
30
0
41
1
10
210.865839910871
20
23.0923691298706
30
0
0
SPLINE
5
211
100
AcDbEntity
8
1
62
256
6
ByLayer
370
-1
48
1
60
0
100
AcDbSpline
70
4
71
3
72
12
73
8
40
0
40
0
40
0
40
0
40
0.448044053330175
40
0.448044053330175
40
0.724021472165484
40
0.724021472165484
40
1
40
1
40
1
40
1
41
1
10
225.718173559185
20
10.204837333548
30
0
41
1
10
225.723626653009
20
10.0480846664213
30
0
41
1
10
225.72901335841
20
9.89132840778038
30
0
41
1
10
225.737777397412
20
9.6380199525706
30
0
41
1
10
225.741146879761
20
9.54146701430136
30
0
41
1
10
225.747920769025
20
9.34836444883578
30
0
41
1
10
225.751327279494
20
9.25181427137409
30
0
41
1
10
225.754686117067
20
9.15526052142701
30
0
0
SPLINE
5
212
100
AcDbEntity
8
1
62
256
6
ByLayer
370
-1
48
1
60
0
100
AcDbSpline
70
4
71
3
72
8
73
4
40
0
40
0
40
0
40
0
40
1
40
1
40
1
40
1
41
1
10
225.75845745029
20
9.01530739051128
30
0
41
1
10
225.759308366347
20
8.96196159677231
30
0
41
1
10
225.759728323496
20
8.90860722511863
30
0
41
1
10
225.759733835687
20
8.85525461624613
30
0
0
SPLINE
5
213
100
AcDbEntity
8
1
62
256
6
ByLayer
370
-1
48
1
60
0
100
AcDbSpline
70
4
71
3
72
15
73
11
40
0
40
0
40
0
40
0
40
0.0355064919379725
40
0.118947470229822
40
0.28582942681352
40
0.619593339980916
40
0.786475296564615
40
0.869916274856464
40
0.953357253148313
40
1
40
1
40
1
40
1
41
1
10
223.726540862578
20
8.98678527779904
30
0
41
1
10
223.726718160269
20
8.98258920232988
30
0
41
1
10
223.727309203082
20
8.96852948474771
30
0
41
1
10
223.728675353454
20
8.93469341722707
30
0
41
1
10
223.731250495795
20
8.86541981710337
30
0
41
1
10
223.733679125274
20
8.78623580687579
30
0
41
1
10
223.735340956804
20
8.71744484564658
30
0
41
1
10
223.736157299945
20
8.67834739622083
30
0
41
1
10
223.736621165428
20
8.65344336780959
30
0
41
1
10
223.736873842101
20
8.63833496150872
30
0
41
1
10
223.736962820676
20
8.63292118579884
30
0
0
SPLINE
5
214
100
AcDbEntity
8
1
62
256
6
ByLayer
370
-1
48
1
60
0
100
AcDbSpline
70
4
71
3
72
14
73
10
40
0
40
0
40
0
40
0
40
0.0318086637758948
40
0.315507725074439
40
0.599206786372983
40
0.882905847671527
40
0.953830612996163
40
0.989292995658481
40
1
40
1
40
1
40
1
41
1
10
211.939062860359
20
9.72201047265983
30
0
41
1
10
211.935654678143
20
9.72188325054282
30
0
41
1
10
211.901730590275
20
9.72061766159379
30
0
41
1
10
211.832837365989
20
9.71807545651092
30
0
41
1
10
211.726068283308
20
9.71420058982261
30
0
41
1
10
211.64101116052
20
9.71115864212325
30
0
41
1
10
211.587849149063
20
9.70927351215283
30
0
41
1
10
211.571800914438
20
9.70870586632634
30
0
41
1
10
211.565460570202
20
9.70848182059322
30
0
41
1
10
211.563989740243
20
9.70842985456235
30
0
0
SPLINE
5
215
100
AcDbEntity
8
1
62
256
6
ByLayer
370
-1
48
1
60
0
100
AcDbSpline
70
4
71
3
72
25
73
21
40
0
40
0
40
0
40
0
40
0.125
40
0.1875
40
0.21875
40
0.234375
40
0.25
40
0.3125
40
0.34375
40
0.375
40
0.5
40
0.625
40
0.6875
40
0.71875
40
0.7265625
40
0.734375
40
0.75
40
0.8125
40
0.875
40
1
40
1
40
1
40
1
41
1
10
210.004785636071
20
22.0617927579526
30
0
41
1
10
210.005022228131
20
22.0788688176849
30
0
41
1
10
210.005448403013
20
22.1044594016306
30
0
41
1
10
210.006037430926
20
22.1343219002473
30
0
41
1
10
210.006372966672
20
22.1492202681035
30
0
41
1
10
210.006578993434
20
22.1577199536173
30
0
41
1
10
210.006903636743
20
22.1704526877039
30
0
41
1
10
210.007331643443
20
22.1852519474736
30
0
41
1
10
210.007872156132
20
22.2021721111824
30
0
41
1
10
210.008726166519
20
22.2275991406022
30
0
41
1
10
210.010138881594
20
22.2660766028765
30
0
41
1
10
210.011927264597
20
22.3085792555435
30
0
41
1
10
210.013292970723
20
22.3385437237334
30
0
41
1
10
210.013955684792
20
22.3521808030292
30
0
41
1
10
210.014264407335
20
22.35879354299
30
0
41
1
10
210.014474164844
20
22.361813854214
30
0
41
1
10
210.015150113968
20
22.3711441385154
30
0
41
1
10
210.016731405122
20
22.3858611700435
30
0
41
1
10
210.020889272261
20
22.4120151848236
30
0
41
1
10
210.025489197887
20
22.4312444456437
30
0
41
1
10
210.029187571705
20
22.4437901141137
30
0
0
SPLINE
5
216
100
AcDbEntity
8
1
62
256
6
ByLayer
370
-1
48
1
60
0
100
AcDbSpline
70
4
71
3
72
9
73
5
40
0
40
0
40
0
40
0
40
0.5
40
1
40
1
40
1
40
1
41
1
10
210.207863255293
20
22.7409423148011
30
0
41
1
10
210.244063436665
20
22.7848679671161
30
0
41
1
10
210.329981568336
20
22.8652450599966
30
0
41
1
10
210.435607364851
20
22.9207887081811
30
0
41
1
10
210.490534699441
20
22.9411106312147
30
0
0
SPLINE
5
217
100
AcDbEntity
8
1
62
256
6
ByLayer
370
-1
48
1
60
0
100
AcDbSpline
70
4
71
3
72
8
73
4
40
0
40
0
40
0
40
0
40
1
40
1
40
1
40
1
41
1
10
225.032085940276
20
23.3596218363732
30
0
41
1
10
224.930089262103
20
23.455092381055
30
0
41
1
10
224.803727707965
20
23.5225348156202
30
0
41
1
10
224.667839458124
20
23.5540349270507
30
0
0
SPLINE
5
218
100
AcDbEntity
8
1
62
256
6
ByLayer
370
-1
48
1
60
0
100
AcDbSpline
70
4
71
3
72
8
73
4
40
0
40
0
40
0
40
0
40
1
40
1
40
1
40
1
41
1
10
210.388665804955
20
8.3164347055384
30
0
41
1
10
210.391306008958
20
8.27854881490396
30
0
41
1
10
210.398158664753
20
8.24144656678865
30
0
41
1
10
210.409216966742
20
8.20512709085327
30
0
0
SPLINE
5
219
100
AcDbEntity
8
1
62
256
6
ByLayer
370
-1
48
1
60
0
100
AcDbSpline
70
4
71
3
72
8
73
4
40
0
40
0
40
0
40
0
40
1
40
1
40
1
40
1
41
1
10
225.283482856212
20
22.6884351793654
30
0
41
1
10
225.282766958697
20
22.7047526159446
30
0
41
1
10
225.281971403965
20
22.7210667257362
30
0
41
1
10
225.281096395199
20
22.7373763507864
30
0
0
SPLINE
5
21A
100
AcDbEntity
8
1
62
256
6
ByLayer
370
-1
48
1
60
0
100
AcDbSpline
70
4
71
3
72
8
73
4
40
0
40
0
40
0
40
0
40
1
40
1
40
1
40
1
41
1
10
225.759733835103
20
8.85525461624883
30
0
41
1
10
225.759737758981
20
8.81727532303643
30
0
41
1
10
225.75547829991
20
8.77978435208888
30
0
41
1
10
225.746968048486
20
8.74277908906771
30
0
0
SPLINE
5
21B
100
AcDbEntity
8
1
62
256
6
ByLayer
370
-1
48
1
60
0
100
AcDbSpline
70
4
71
3
72
15
73
11
40
0
40
0
40
0
40
0
40
0.0466427416045707
40
0.130083711367133
40
0.213524681129695
40
0.38040662065482
40
0.714170499705069
40
0.881052439230194
40
0.964493408992756
40
1
40
1
40
1
40
1
41
1
10
212.437040793208
20
8.23681191446693
30
0
41
1
10
212.436951838001
20
8.2422256345279
30
0
41
1
10
212.436699232824
20
8.25733387076215
30
0
41
1
10
212.436235279684
20
8.28223810683451
30
0
41
1
10
212.435418936472
20
8.32133555977413
30
0
41
1
10
212.433757104992
20
8.39012651876172
30
0
41
1
10
212.431328341993
20
8.46931041296861
30
0
41
1
10
212.428753533436
20
8.53858430387348
30
0
41
1
10
212.427386868077
20
8.57241993471641
30
0
41
1
10
212.426796373556
20
8.58648014600863
30
0
41
1
10
212.426619127811
20
8.59067627955002
30
0
0
SPLINE
5
21C
100
AcDbEntity
8
1
62
256
6
ByLayer
370
-1
48
1
60
0
100
AcDbSpline
70
4
71
3
72
91
73
87
40
0
40
0
40
0
40
0
40
0.027632277156555
40
0.0681475989416985
40
0.0782764293879844
40
0.0833408446111273
40
0.0839738965140202
40
0.0846069484169131
40
0.0849234743683595
40
0.0852400003198059
40
0.0858730522226988
40
0.0884052598342703
40
0.0985340902805562
40
0.108662920726842
40
0.118791751173128
40
0.128920581619414
40
0.149178242511986
40
0.169435903404557
40
0.179564733850843
40
0.184629149073986
40
0.189693564297129
40
0.190326616200022
40
0.190959668102915
40
0.192225771908701
40
0.192858823811593
40
0.193491875714486
40
0.194757979520272
40
0.197290187131843
40
0.199822394743415
40
0.204886809966558
40
0.209951225189701
40
0.220080055635987
40
0.222612263247558
40
0.223878367053344
40
0.22514447085913
40
0.230208886082273
40
0.270724207867416
40
0.290981868759988
40
0.31123952965256
40
0.331497190545131
40
0.341626020991417
40
0.34669043621456
40
0.349222643826132
40
0.350488747631918
40
0.35112179953481
40
0.351754851437703
40
0.352387903340596
40
0.353020955243489
40
0.354287059049275
40
0.356819266660846
40
0.361883681883989
40
0.372012512330275
40
0.392270173222847
40
0.412527834115419
40
0.43278549500799
40
0.473300816793134
40
0.475833024404705
40
0.478365232016277
40
0.479631335822063
40
0.480897439627848
40
0.48342964723942
40
0.493558477685706
40
0.503687308131992
40
0.508751723355135
40
0.511283930966706
40
0.512550034772492
40
0.513816138578277
40
0.51444919048117
40
0.523944969024563
40
0.534073799470849
40
0.554331460363421
40
0.564460290809707
40
0.574589121255993
40
0.594846782148565
40
0.615104443041136
40
0.617636650652708
40
0.618269702555601
40
0.618586228507047
40
0.618902754458494
40
0.619535806361386
40
0.620168858264279
40
0.625233273487422
40
0.635362103933708
40
0.675877425718852
40
0.837938712859426
40
1
40
1
40
1
40
1
41
1
10
211.81926634264
20
21.1280687145558
30
0
41
1
10
211.819797628625
20
21.1296554060181
30
0
41
1
10
211.821173185613
20
21.1335465156849
30
0
41
1
10
211.822936446492
20
21.1379471864957
30
0
41
1
10
211.824286030704
20
21.1410381544364
30
0
41
1
10
211.824677457787
20
21.1419126832068
30
0
41
1
10
211.824835228423
20
21.1422619493435
30
0
41
1
10
211.824874737712
20
21.1423492355285
30
0
41
1
10
211.824906385108
20
21.1424190462366
30
0
41
1
10
211.824938059141
20
21.1424888447746
30
0
41
1
10
211.825025272591
20
21.1426807405107
30
0
41
1
10
211.825359667088
20
21.1434127927943
30
0
41
1
10
211.825942484668
20
21.1446633181674
30
0
41
1
10
211.826739868676
20
21.1463210037286
30
0
41
1
10
211.827557424769
20
21.1479687584012
30
0
41
1
10
211.828674233248
20
21.1501521910657
30
0
41
1
10
211.830120064963
20
21.1528554082467
30
0
41
1
10
211.83163151271
20
21.1555221986572
30
0
41
1
10
211.832723548185
20
21.1573689553903
30
0
41
1
10
211.833357228132
20
21.158418407008
30
0
41
1
10
211.833697280954
20
21.1589738385027
30
0
41
1
10
211.833898436881
20
21.1592998641706
30
0
41
1
10
211.833978999184
20
21.1594302122556
30
0
41
1
10
211.834059711305
20
21.1595604669598
30
0
41
1
10
211.834140573077
20
21.1596906280675
30
0
41
1
10
211.834221534564
20
21.1598207267058
30
0
41
1
10
211.834363478772
20
21.160048235152
30
0
41
1
10
211.834567002836
20
21.160372777081
30
0
41
1
10
211.83489423064
20
21.1608910366112
30
0
41
1
10
211.835306238776
20
21.1615369632364
30
0
41
1
10
211.835971767028
20
21.1625663604453
30
0
41
1
10
211.836562356266
20
21.1634616726561
30
0
41
1
10
211.83703174568
20
21.1641615265493
30
0
41
1
10
211.837203015612
20
21.1644156238009
30
0
41
1
10
211.837460502725
20
21.1647963737432
30
0
41
1
10
211.839057305637
20
21.1671382144317
30
0
41
1
10
211.841391775207
20
21.1703670117674
30
0
41
1
10
211.844407803835
20
21.1742313921085
30
0
41
1
10
211.84673989984
20
21.1770731499931
30
0
41
1
10
211.848740589357
20
21.1793927043081
30
0
41
1
10
211.850170554397
20
21.1809901169352
30
0
41
1
10
211.85089283406
20
21.1817821578587
30
0
41
1
10
211.851255788996
20
21.1821764999052
30
0
41
1
10
211.851437719092
20
21.1823732498162
30
0
41
1
10
211.851541808305
20
21.1824855578035
30
0
41
1
10
211.851619939754
20
21.1825697284734
30
0
41
1
10
211.851698135699
20
21.1826538387689
30
0
41
1
10
211.851802482888
20
21.1827659052707
30
0
41
1
10
211.851985315856
20
21.1829618100249
30
0
41
1
10
211.852351881913
20
21.1833527717827
30
0
41
1
10
211.853088603169
20
21.1841312942606
30
0
41
1
10
211.85457631143
20
21.185674654778
30
0
41
1
10
211.856741849278
20
21.1878398983375
30
0
41
1
10
211.859403218584
20
21.1903734310109
30
0
41
1
10
211.863033128652
20
21.1936631709644
30
0
41
1
10
211.865961812462
20
21.1961275055862
30
0
41
1
10
211.868115154606
20
21.1978455416074
30
0
41
1
10
211.868414957426
20
21.1980832356439
30
0
41
1
10
211.868655234574
20
21.198272836193
30
0
41
1
10
211.86889580111
20
21.1984620664773
30
0
41
1
10
211.869558550575
20
21.1989809204459
30
0
41
1
10
211.870649524427
20
21.1998215909984
30
0
41
1
10
211.871873055237
20
21.2007406485256
30
0
41
1
10
211.872735388249
20
21.2013760225534
30
0
41
1
10
211.873168008764
20
21.2016917079711
30
0
41
1
10
211.873415634296
20
21.2018715263201
30
0
41
1
10
211.873570572337
20
21.2019836736068
30
0
41
1
10
211.874128812994
20
21.2023867572431
30
0
41
1
10
211.875125632515
20
21.2030972167823
30
0
41
1
10
211.877104587653
20
21.2044723715628
30
0
41
1
10
211.879140377857
20
21.2058320125651
30
0
41
1
10
211.881200634203
20
21.2071537544334
30
0
41
1
10
211.88327688233
20
21.2084500443785
30
0
41
1
10
211.885901578994
20
21.2100223360153
30
0
41
1
10
211.888164520203
20
21.2113035138782
30
0
41
1
10
211.889405190048
20
21.2119834673469
30
0
41
1
10
211.88958980619
20
21.212084186649
30
0
41
1
10
211.889656960276
20
21.2121207731205
30
0
41
1
10
211.889724128314
20
21.2121573337669
30
0
41
1
10
211.889808114505
20
21.212202986142
30
0
41
1
10
211.890144198498
20
21.2123853372207
30
0
41
1
10
211.890985972648
20
21.2128383063957
30
0
41
1
10
211.893963535497
20
21.2144053607483
30
0
41
1
10
211.905512997745
20
21.220037529199
30
0
41
1
10
211.926435546773
20
21.2272180264109
30
0
41
1
10
211.945916387777
20
21.2298359634505
30
0
41
1
10
211.955690548463
20
21.2301785884544
30
0
0
SPLINE
5
21D
100
AcDbEntity
8
1
62
256
6
ByLayer
370
-1
48
1
60
0
100
AcDbSpline
70
4
71
3
72
14
73
10
40
0
40
0
40
0
40
0
40
0.136649739226147
40
0.273299478452295
40
0.54659895690459
40
0.614923826517663
40
0.683248696130737
40
0.819898435356885
40
1
40
1
40
1
40
1
41
1
10
223.25561256876
20
21.6262878760277
30
0
41
1
10
223.258056108932
20
21.6263735322787
30
0
41
1
10
223.262947376052
20
21.6264240507631
30
0
41
1
10
223.272723118941
20
21.6260434123019
30
0
41
1
10
223.281237086086
20
21.6250801242364
30
0
41
1
10
223.288462203391
20
21.6238070985858
30
0
41
1
10
223.293256744602
20
21.6228398815062
30
0
41
1
10
223.299959249495
20
21.6212281705662
30
0
41
1
10
223.305389878881
20
21.6195901131606
30
0
41
1
10
223.308444434277
20
21.6185595006063
30
0
0
SPLINE
5
21E
100
AcDbEntity
8
1
62
256
6
ByLayer
370
-1
48
1
60
0
100
AcDbSpline
70
4
71
3
72
8
73
4
40
0
40
0
40
0
40
0
40
1
40
1
40
1
40
1
41
1
10
223.25561256876
20
21.6262878760277
30
0
41
1
10
223.255258606017
20
21.6364627612877
30
0
41
1
10
223.255184589705
20
21.6466144494208
30
0
41
1
10
223.255403597845
20
21.6549492274819
30
0
0
SPLINE
5
21F
100
AcDbEntity
8
1
62
256
6
ByLayer
370
-1
48
1
60
0
100
AcDbSpline
70
4
71
3
72
15
73
11
40
0
40
0
40
0
40
0
40
0.250139710793205
40
0.500351579587018
40
0.750563448380832
40
0.875669382777739
40
0.938222349976193
40
0.969498833575419
40
0.985137075375033
40
1
40
1
40
1
40
1
41
1
10
224.936221560949
20
23.2572397001134
30
0
41
1
10
224.944208531221
20
23.26576969931
30
0
41
1
10
224.96018477532
20
23.2828321578766
30
0
41
1
10
224.984145597415
20
23.3084220607152
30
0
41
1
10
225.004137571857
20
23.3297732765244
30
0
41
1
10
225.018083572951
20
23.3446674571809
30
0
41
1
10
225.025127031287
20
23.3521897956789
30
0
41
1
10
225.02854307377
20
23.3558380926733
30
0
41
1
10
225.030656545039
20
23.3580952574816
30
0
41
1
10
225.03121897896
20
23.3586959309198
30
0
41
1
10
225.032090234325
20
23.3596264223717
30
0
0
SPLINE
5
220
100
AcDbEntity
8
1
62
256
6
ByLayer
370
-1
48
1
60
0
100
AcDbSpline
70
4
71
3
72
15
73
11
40
0
40
0
40
0
40
0
40
0.25013971079328
40
0.500351579587063
40
0.750563448380846
40
0.875669382777737
40
0.938222349976183
40
0.969498833575406
40
0.985137075375017
40
1
40
1
40
1
40
1
41
1
10
225.450547421235
20
8.47261413111275
30
0
41
1
10
225.45910784726
20
8.46465977817724
30
0
41
1
10
225.476231168258
20
8.44874877815724
30
0
41
1
10
225.501912351243
20
8.42488580770743
30
0
41
1
10
225.523339727643
20
8.404975476858
30
0
41
1
10
225.538287036402
20
8.39108642870013
30
0
41
1
10
225.545836207365
20
8.3840717345677
30
0
41
1
10
225.549497517972
20
8.38066964258175
30
0
41
1
10
225.551762734172
20
8.37856480234606
30
0
41
1
10
225.552365550235
20
8.37800466530317
30
0
41
1
10
225.553299360785
20
8.3771369679867
30
0
0
SPLINE
5
221
100
AcDbEntity
8
1
62
256
6
ByLayer
370
-1
48
1
60
0
100
AcDbSpline
70
4
71
3
72
8
73
4
40
0
40
0
40
0
40
0
40
1
40
1
40
1
40
1
41
1
10
209.901456743835
20
22.1982559391981
30
0
41
1
10
209.900605432104
20
22.2516017329371
30
0
41
1
10
209.90019434977
20
22.3049561045907
30
0
41
1
10
209.900179814344
20
22.3583087134632
30
0
0
SPLINE
5
222
100
AcDbEntity
8
1
62
256
6
ByLayer
370
-1
48
1
60
0
100
AcDbSpline
70
4
71
3
72
9
73
5
40
0
40
0
40
0
40
0
40
0.37500000000208
40
1
40
1
40
1
40
1
41
1
10
225.718173559186
20
10.204837333548
30
0
41
1
10
225.705633396903
20
10.2044010898392
30
0
41
1
10
225.672192964147
20
10.2032377732824
30
0
41
1
10
225.638752531392
20
10.2020744567257
30
0
41
1
10
225.617852260921
20
10.2013473838777
30
0
0
SPLINE
5
223
100
AcDbEntity
8
1
62
256
6
ByLayer
370
-1
48
1
60
0
100
AcDbSpline
70
4
71
3
72
9
73
5
40
0
40
0
40
0
40
0
40
0.624999999996904
40
1
40
1
40
1
40
1
41
1
10
210.471650210032
20
8.61955324704363
30
0
41
1
10
210.451067653704
20
8.61882617419565
30
0
41
1
10
210.418135563579
20
8.61766285763889
30
0
41
1
10
210.385203473454
20
8.61649954108213
30
0
41
1
10
210.372853939657
20
8.61606329737336
30
0
0
SPLINE
5
224
100
AcDbEntity
8
1
62
256
6
ByLayer
370
-1
48
1
60
0
100
AcDbSpline
70
4
71
3
72
16
73
12
40
0
40
0
40
0
40
0
40
0.0068174563922649
40
0.0525902990103019
40
0.144135984246376
40
0.23568166948245
40
0.418773039954598
40
0.601864410426746
40
0.784955780898895
40
0.968047151371043
40
1
40
1
40
1
40
1
41
1
10
224.828801556062
20
10.1733302998487
30
0
41
1
10
224.828064526047
20
10.1733046557193
30
0
41
1
10
224.822379008167
20
10.1731068429005
30
0
41
1
10
224.806796169041
20
10.1725648252144
30
0
41
1
10
224.782053642276
20
10.1717040966548
30
0
41
1
10
224.742465792851
20
10.1703268931963
30
0
41
1
10
224.692980814995
20
10.1686054300768
30
0
41
1
10
224.633598761281
20
10.1665396249215
30
0
41
1
10
224.574216794811
20
10.1644738699567
30
0
41
1
10
224.531174596047
20
10.1629766452474
30
0
41
1
10
224.50792592246
20
10.162167737762
30
0
41
1
10
224.504471524188
20
10.162047588481
30
0
0
SPLINE
5
225
100
AcDbEntity
8
1
62
256
6
ByLayer
370
-1
48
1
60
0
100
AcDbSpline
70
4
71
3
72
16
73
12
40
0
40
0
40
0
40
0
40
0.0068174563922342
40
0.0525902990102702
40
0.144135984246342
40
0.235681669482414
40
0.418773039954558
40
0.601864410426703
40
0.784955780898847
40
0.968047151370991
40
1
40
1
40
1
40
1
41
1
10
223.252170012127
20
22.6228870501593
30
0
41
1
10
223.252190086013
20
22.6221526983737
30
0
41
1
10
223.252344690616
20
22.6164880803907
30
0
41
1
10
223.252764098933
20
22.6009667246483
30
0
41
1
10
223.253433273196
20
22.576318683609
30
0
41
1
10
223.254505260322
20
22.536880736547
30
0
41
1
10
223.255843861674
20
22.4875844826422
30
0
41
1
10
223.257451561824
20
22.4284275629821
30
0
41
1
10
223.259057867423
20
22.3692720805877
30
0
41
1
10
223.26021895001
20
22.3263971745914
30
0
41
1
10
223.260852039089
20
22.3032330949578
30
0
41
1
10
223.260944865519
20
22.2997924697143
30
0
0
SPLINE
5
226
100
AcDbEntity
8
1
62
256
6
ByLayer
370
-1
48
1
60
0
100
AcDbSpline
70
4
71
3
72
8
73
4
40
0
40
0
40
0
40
0
40
1
40
1
40
1
40
1
41
1
10
210.456467440682
20
23.0558672019304
30
0
41
1
10
210.323097615132
20
23.0149389176894
30
0
41
1
10
210.201723342697
20
22.9388122080144
30
0
41
1
10
210.106618209893
20
22.8364220856817
30
0
0
SPLINE
5
227
100
AcDbEntity
8
1
62
256
6
ByLayer
370
-1
48
1
60
0
100
AcDbSpline
70
4
71
3
72
25
73
21
40
0
40
0
40
0
40
0
40
0.125
40
0.1875
40
0.25
40
0.265625
40
0.2734375
40
0.28125
40
0.3125
40
0.375
40
0.5
40
0.625
40
0.65625
40
0.6875
40
0.75
40
0.765625
40
0.78125
40
0.8125
40
0.875
40
1
40
1
40
1
40
1
41
1
10
210.490534699441
20
22.9411106312147
30
0
41
1
10
210.502736046525
20
22.94573430573
30
0
41
1
10
210.521518454663
20
22.9517453363022
30
0
41
1
10
210.547220092168
20
22.9578076672521
30
0
41
1
10
210.561738784215
20
22.9604564457855
30
0
41
1
10
210.570966236504
20
22.9618035724548
30
0
41
1
10
210.573954246067
20
22.9622342424958
30
0
41
1
10
210.580506327391
20
22.9630025678355
30
0
41
1
10
210.594017505343
20
22.9646185280327
30
0
41
1
10
210.623711752051
20
22.9680738066038
30
0
41
1
10
210.665840705782
20
22.972828299439
30
0
41
1
10
210.70399380253
20
22.9769240991819
30
0
41
1
10
210.729212867527
20
22.9795527563581
30
0
41
1
10
210.74599644411
20
22.9812743945929
30
0
41
1
10
210.760678726184
20
22.9827354746356
30
0
41
1
10
210.773314031153
20
22.983948475339
30
0
41
1
10
210.781749463545
20
22.9847474129744
30
0
41
1
10
210.796537080548
20
22.9861219745485
30
0
41
1
10
210.826183636606
20
22.9887929705566
30
0
41
1
10
210.851594586349
20
22.9910032009898
30
0
41
1
10
210.868554066284
20
22.9924300471687
30
0
0
SPLINE
5
228
100
AcDbEntity
8
1
62
256
6
ByLayer
370
-1
48
1
60
0
100
AcDbSpline
70
4
71
3
72
14
73
10
40
0
40
0
40
0
40
0
40
0.136649739226162
40
0.273299478452323
40
0.546598956904647
40
0.614923826517728
40
0.683248696130808
40
0.81989843535697
40
1
40
1
40
1
40
1
41
1
10
212.360722528683
20
9.58727545368166
30
0
41
1
10
212.358278988512
20
9.58718979743068
30
0
41
1
10
212.353387721391
20
9.58713927894624
30
0
41
1
10
212.343611978502
20
9.58751991740743
30
0
41
1
10
212.335098011357
20
9.58848320547298
30
0
41
1
10
212.327872894052
20
9.58975623112354
30
0
41
1
10
212.323078352842
20
9.59072344820319
30
0
41
1
10
212.316375847948
20
9.59233515914312
30
0
41
1
10
212.310945218563
20
9.59397321654879
30
0
41
1
10
212.307890663167
20
9.59500382910301
30
0
0
SPLINE
5
229
100
AcDbEntity
8
1
62
256
6
ByLayer
370
-1
48
1
60
0
100
AcDbSpline
70
4
71
3
72
12
73
8
40
0
40
0
40
0
40
0
40
0.518100853439295
40
0.777151280158942
40
0.906676493518766
40
0.971439100198678
40
1
40
1
40
1
40
1
41
1
10
223.214058942056
20
23.425191364662
30
0
41
1
10
223.218188697029
20
23.3477459261535
30
0
41
1
10
223.224383446917
20
23.2315780285111
30
0
41
1
10
223.231610222631
20
23.0960478967711
30
0
41
1
10
223.235224201606
20
23.0282840569564
30
0
41
1
10
223.236999830766
20
22.994971323993
30
0
41
1
10
223.237744307371
20
22.981022504358
30
0
41
1
10
223.237971291551
20
22.9767514152424
30
0
0
SPLINE
5
22A
100
AcDbEntity
8
1
62
256
6
ByLayer
370
-1
48
1
60
0
100
AcDbSpline
70
4
71
3
72
15
73
11
40
0
40
0
40
0
40
0
40
0.0355064919379309
40
0.118947470229771
40
0.285829426813453
40
0.619593339980815
40
0.786475296564496
40
0.869916274856337
40
0.953357253148177
40
1
40
1
40
1
40
1
41
1
10
211.244588972203
20
9.6971471330902
30
0
41
1
10
211.240440189166
20
9.69700060290594
30
0
41
1
10
211.226535908023
20
9.69650962674916
30
0
41
1
10
211.193017662087
20
9.69532804523476
30
0
41
1
10
211.124172929203
20
9.69290895781299
30
0
41
1
10
211.044964223244
20
9.6901437912444
30
0
41
1
10
210.975703771844
20
9.68774155794418
30
0
41
1
10
210.936211325567
20
9.68637624492507
30
0
41
1
10
210.910999571499
20
9.68550657708951
30
0
41
1
10
210.895675744411
20
9.68497897991568
30
0
41
1
10
210.890183214518
20
9.68478992670205
30
0
0
SPLINE
5
22B
100
AcDbEntity
8
1
62
256
6
ByLayer
370
-1
48
1
60
0
100
AcDbSpline
70
4
71
3
72
11
73
7
40
0
40
0
40
0
40
0
40
0.486341095999469
40
0.729511643999203
40
0.972682191998937
40
1
40
1
40
1
40
1
41
1
10
223.410165749277
20
21.4816141764802
30
0
41
1
10
223.415095387819
20
21.4817869808241
30
0
41
1
10
223.422586235971
20
21.4820461705176
30
0
41
1
10
223.432111471881
20
21.4823690489824
30
0
41
1
10
223.436867088422
20
21.4825277809658
30
0
41
1
10
223.43926663729
20
21.4826071512768
30
0
41
1
10
223.43950828039
20
21.4826151391538
30
0
0
SPLINE
5
22C
100
AcDbEntity
8
1
62
256
6
ByLayer
370
-1
48
1
60
0
100
AcDbSpline
70
4
71
3
72
8
73
4
40
0
40
0
40
0
40
0
40
1
40
1
40
1
40
1
41
1
10
210.372853939658
20
8.61606329737339
30
0
41
1
10
210.373908598613
20
8.58574645165612
30
0
41
1
10
210.375100163857
20
8.55543409364839
30
0
41
1
10
210.376430033187
20
8.52512815034396
30
0
0
SPLINE
5
22D
100
AcDbEntity
8
1
62
256
6
ByLayer
370
-1
48
1
60
0
100
AcDbSpline
70
4
71
3
72
15
73
11
40
0
40
0
40
0
40
0
40
0.250244249035896
40
0.500488498071792
40
0.750732747107688
40
0.875854871625636
40
0.93841593388461
40
0.969696465014096
40
0.98533673057884
40
1
40
1
40
1
40
1
41
1
10
225.135492276462
20
22.9733516342893
30
0
41
1
10
225.14509258693
20
22.9762753513366
30
0
41
1
10
225.164293207865
20
22.982122785431
30
0
41
1
10
225.193088567138
20
22.9908922396137
30
0
41
1
10
225.217111631831
20
22.998208320068
30
0
41
1
10
225.233870384168
20
23.0033120977077
30
0
41
1
10
225.242333342299
20
23.0058894409135
30
0
41
1
10
225.246439448421
20
23.0071399309374
30
0
41
1
10
225.248968655088
20
23.0079101856779
30
0
41
1
10
225.249571107789
20
23.0080936590393
30
0
41
1
10
225.250707847911
20
23.0084398464345
30
0
0
SPLINE
5
22E
100
AcDbEntity
8
1
62
256
6
ByLayer
370
-1
48
1
60
0
100
AcDbSpline
70
4
71
3
72
8
73
4
40
0
40
0
40
0
40
0
40
1
40
1
40
1
40
1
41
1
10
224.347545120421
20
23.564545547471
30
0
41
1
10
224.363811260483
20
23.5649660361129
30
0
41
1
10
224.380079865531
20
23.5653060480275
30
0
41
1
10
224.396348821771
20
23.5655676014181
30
0
0
SPLINE
5
22F
100
AcDbEntity
8
1
62
256
6
ByLayer
370
-1
48
1
60
0
100
AcDbSpline
70
4
71
3
72
8
73
4
40
0
40
0
40
0
40
0
40
1
40
1
40
1
40
1
41
1
10
211.811567376021
20
21.0750350398961
30
0
41
1
10
211.801431209271
20
21.0746797250734
30
0
41
1
10
211.791597290827
20
21.0743252203121
30
0
41
1
10
211.783803186557
20
21.0740341634487
30
0
0
SPLINE
5
230
100
AcDbEntity
8
1
62
256
6
ByLayer
370
-1
48
1
60
0
100
AcDbSpline
70
4
71
3
72
14
73
10
40
0
40
0
40
0
40
0
40
0.0107070020617151
40
0.0461693850894615
40
0.117094151144954
40
0.400793215366926
40
0.684492279588897
40
0.968191343810868
40
1
40
1
40
1
40
1
41
1
10
224.504471524188
20
10.162047588481
30
0
41
1
10
224.502977455102
20
10.1619956224619
30
0
41
1
10
224.496534967304
20
10.1617715767408
30
0
41
1
10
224.480196413035
20
10.1612039308505
30
0
41
1
10
224.425803150951
20
10.1593188009284
30
0
41
1
10
224.33730326184
20
10.1562768531637
30
0
41
1
10
224.222993510731
20
10.1524019867739
30
0
41
1
10
224.146842320826
20
10.1498597815869
30
0
41
1
10
224.108558773983
20
10.1485941924813
30
0
41
1
10
224.104708353882
20
10.1484669703819
30
0
0
SPLINE
5
231
100
AcDbEntity
8
1
62
256
6
ByLayer
370
-1
48
1
60
0
100
AcDbSpline
70
4
71
3
72
25
73
21
40
0
40
0
40
0
40
0
40
0.125
40
0.1875
40
0.21875
40
0.234375
40
0.25
40
0.3125
40
0.34375
40
0.375
40
0.5
40
0.625
40
0.6875
40
0.71875
40
0.7265625
40
0.734375
40
0.75
40
0.8125
40
0.875
40
1
40
1
40
1
40
1
41
1
10
211.399508657341
20
7.75171993512717
30
0
41
1
10
211.382496263389
20
7.75195874973187
30
0
41
1
10
211.3570008895
20
7.7523887306626
30
0
41
1
10
211.327249525596
20
7.7529825192303
30
0
41
1
10
211.312406341527
20
7.75332085143182
30
0
41
1
10
211.303938030845
20
7.75352863792278
30
0
41
1
10
211.291252164336
20
7.75385611168767
30
0
41
1
10
211.276506939546
20
7.75428804268813
30
0
41
1
10
211.259648599212
20
7.75483319279394
30
0
41
1
10
211.234314833741
20
7.7556939722808
30
0
41
1
10
211.195981103472
20
7.7571147803157
30
0
41
1
10
211.153635283883
20
7.75891491572432
30
0
41
1
10
211.123783012964
20
7.76028767217977
30
0
41
1
10
211.110194903697
20
7.76095585205039
30
0
41
1
10
211.103608382075
20
7.76126469496657
30
0
41
1
10
211.100589787767
20
7.76148506734035
30
0
41
1
10
211.091275814022
20
7.76218286579009
30
0
41
1
10
211.07657913697
20
7.76380598166142
30
0
41
1
10
211.050461986895
20
7.76804262974272
30
0
41
1
10
211.031258043459
20
7.77270816489755
30
0
41
1
10
211.018728092691
20
7.7764528105775
30
0
0
SPLINE
5
232
100
AcDbEntity
8
1
62
256
6
ByLayer
370
-1
48
1
60
0
100
AcDbSpline
70
4
71
3
72
17
73
13
40
0
40
0
40
0
40
0
40
0.0144631560764659
40
0.0301057427840664
40
0.0613909161992673
40
0.123961263029669
40
0.249101956690473
40
0.49938334401208
40
0.749664731333687
40
0.999946118655294
40
0.999946118655294
40
1
40
1
40
1
40
1
41
1
10
209.90520375854
20
22.0583019987692
30
0
41
1
10
209.90629450272
20
22.0583402338915
30
0
41
1
10
209.906728519348
20
22.0583554479804
30
0
41
1
10
209.908904470278
20
22.0584317241149
30
0
41
1
10
209.912454432319
20
22.0585561650564
30
0
41
1
10
209.919767117212
20
22.0588125050911
30
0
41
1
10
209.934250646457
20
22.0593202130594
30
0
41
1
10
209.955010971929
20
22.0600479488542
30
0
41
1
10
209.979895939991
20
22.0609202705351
30
0
41
1
10
209.996489070711
20
22.0615019288134
30
0
41
1
10
210.004783317805
20
22.0617926766878
30
0
41
1
10
210.004793312666
20
22.0617930270493
30
0
41
1
10
210.004803307527
20
22.0617933774109
30
0
0
SPLINE
5
233
100
AcDbEntity
8
1
62
256
6
ByLayer
370
-1
48
1
60
0
100
AcDbSpline
70
4
71
3
72
9
73
5
40
0
40
0
40
0
40
0
40
0.5
40
1
40
1
40
1
40
1
41
1
10
210.722188619303
20
7.95633101156281
30
0
41
1
10
210.67838303718
20
7.99271673176258
30
0
41
1
10
210.598242010456
20
8.07903311628402
30
0
41
1
10
210.54289362632
20
8.18507854397023
30
0
41
1
10
210.522653015765
20
8.24021169542002
30
0
0
SPLINE
5
234
100
AcDbEntity
8
1
62
256
6
ByLayer
370
-1
48
1
60
0
100
AcDbSpline
70
4
71
3
72
12
73
8
40
0
40
0
40
0
40
0
40
0.518100853439262
40
0.777151280158893
40
0.906676493518708
40
0.971439100198616
40
1
40
1
40
1
40
1
41
1
10
225.617852260921
20
10.2013473838777
30
0
41
1
10
225.542137117619
20
10.1986429295714
30
0
41
1
10
225.428564788274
20
10.1945862571955
30
0
41
1
10
225.296062358623
20
10.1898534407058
30
0
41
1
10
225.229812998957
20
10.1874870752757
30
0
41
1
10
225.197243780622
20
10.1863237690068
30
0
41
1
10
225.183607267123
20
10.1858366654916
30
0
41
1
10
225.179430832812
20
10.1856875157731
30
0
0
SPLINE
5
235
100
AcDbEntity
8
1
62
256
6
ByLayer
370
-1
48
1
60
0
100
AcDbSpline
70
4
71
3
72
8
73
4
40
0
40
0
40
0
40
0
40
1
40
1
40
1
40
1
41
1
10
210.627827028541
20
7.85394149333612
30
0
41
1
10
210.729829587545
20
7.75847094865435
30
0
41
1
10
210.856193038498
20
7.69102851408917
30
0
41
1
10
210.992073510696
20
7.65952840265868
30
0
0
SPLINE
5
236
100
AcDbEntity
8
1
62
256
6
ByLayer
370
-1
48
1
60
0
100
AcDbSpline
70
4
71
3
72
91
73
87
40
0
40
0
40
0
40
0
40
0.0276322771566625
40
0.0681475989418015
40
0.0782764293880863
40
0.0833408446112287
40
0.0839738965141215
40
0.0846069484170143
40
0.0849234743684607
40
0.0852400003199071
40
0.0858730522227999
40
0.0884052598343711
40
0.0985340902806558
40
0.108662920726941
40
0.118791751173225
40
0.12892058161951
40
0.14917824251208
40
0.169435903404649
40
0.179564733850934
40
0.184629149074076
40
0.189693564297219
40
0.190326616200111
40
0.190959668103004
40
0.19222577190879
40
0.192858823811683
40
0.193491875714575
40
0.194757979520361
40
0.197290187131932
40
0.199822394743503
40
0.204886809966646
40
0.209951225189788
40
0.220080055636073
40
0.222612263247644
40
0.22387836705343
40
0.225144470859215
40
0.230208886082358
40
0.270724207867497
40
0.290981868760066
40
0.311239529652636
40
0.331497190545205
40
0.34162602099149
40
0.346690436214633
40
0.349222643826204
40
0.350488747631989
40
0.351121799534882
40
0.351754851437775
40
0.352387903340668
40
0.353020955243561
40
0.354287059049346
40
0.356819266660917
40
0.36188368188406
40
0.372012512330344
40
0.392270173222914
40
0.412527834115483
40
0.432785495008053
40
0.473300816793192
40
0.475833024404763
40
0.478365232016335
40
0.47963133582212
40
0.480897439627906
40
0.483429647239477
40
0.493558477685762
40
0.503687308132046
40
0.508751723355189
40
0.51128393096676
40
0.512550034772546
40
0.513816138578331
40
0.514449190481224
40
0.523944969024616
40
0.534073799470901
40
0.55433146036347
40
0.564460290809755
40
0.57458912125604
40
0.594846782148609
40
0.615104443041179
40
0.61763665065275
40
0.618269702555643
40
0.618586228507089
40
0.618902754458536
40
0.619535806361428
40
0.620168858264321
40
0.625233273487464
40
0.635362103933748
40
0.675877425718888
40
0.837938712859444
40
1
40
1
40
1
40
1
41
1
10
223.308444434277
20
21.6185595006063
30
0
41
1
10
223.310025087899
20
21.6180261851952
30
0
41
1
10
223.313901390718
20
21.6166453738033
30
0
41
1
10
223.318285315648
20
21.6148753775543
30
0
41
1
10
223.321364521523
20
21.6135206381494
30
0
41
1
10
223.322235722447
20
21.613127715879
30
0
41
1
10
223.322583659521
20
21.6129693425851
30
0
41
1
10
223.322670613555
20
21.6129296823762
30
0
41
1
10
223.322740158613
20
21.6128979140928
30
0
41
1
10
223.322809691546
20
21.6128661190701
30
0
41
1
10
223.323000857061
20
21.6127785724788
30
0
41
1
10
223.323730123665
20
21.6124429006489
30
0
41
1
10
223.324975890411
20
21.6118578568012
30
0
41
1
10
223.326627267978
20
21.6110574269151
30
0
41
1
10
223.328268752447
20
21.6102367478906
30
0
41
1
10
223.330443876491
20
21.6091156733852
30
0
41
1
10
223.333136807115
20
21.6076643188275
30
0
41
1
10
223.335793449582
20
21.6061470975954
30
0
41
1
10
223.337633178849
20
21.6050508907231
30
0
41
1
10
223.338678636986
20
21.604414790221
30
0
41
1
10
223.339231954896
20
21.6040734384528
30
0
41
1
10
223.339556739938
20
21.6038715141427
30
0
41
1
10
223.339686592009
20
21.6037906441044
30
0
41
1
10
223.339816351055
20
21.6037096236771
30
0
41
1
10
223.33994601686
20
21.6036284530253
30
0
41
1
10
223.340075620434
20
21.6035471822787
30
0
41
1
10
223.340302263142
20
21.6034046958674
30
0
41
1
10
223.340625570091
20
21.6032003943746
30
0
41
1
10
223.341141857487
20
21.6028719166138
30
0
41
1
10
223.341785326167
20
21.602458334673
30
0
41
1
10
223.342810806208
20
21.6017902642114
30
0
41
1
10
223.343702711486
20
21.6011974190186
30
0
41
1
10
223.344399902224
20
21.6007262366129
30
0
41
1
10
223.344653032559
20
21.6005543124581
30
0
41
1
10
223.345032333632
20
21.6002958417863
30
0
41
1
10
223.34736526291
20
21.5986929393459
30
0
41
1
10
223.350581773697
20
21.5963495524819
30
0
41
1
10
223.354431448904
20
21.5933220031148
30
0
41
1
10
223.357262393042
20
21.5909809988811
30
0
41
1
10
223.359573120753
20
21.5889726670553
30
0
41
1
10
223.361164454742
20
21.587537239781
30
0
41
1
10
223.361953481711
20
21.5868122011272
30
0
41
1
10
223.362346323167
20
21.5864478597628
30
0
41
1
10
223.362542324385
20
21.5862652347232
30
0
41
1
10
223.362654205007
20
21.586160747906
30
0
41
1
10
223.362738055382
20
21.5860823180082
30
0
41
1
10
223.362821845612
20
21.586003823367
30
0
41
1
10
223.362933485667
20
21.5858990775882
30
0
41
1
10
223.363128644945
20
21.5857155462289
30
0
41
1
10
223.363518118975
20
21.5853475799487
30
0
41
1
10
223.36429367894
20
21.584608044537
30
0
41
1
10
223.365831166504
20
21.5831146534719
30
0
41
1
10
223.367988170658
20
21.5809408436214
30
0
41
1
10
223.370512062475
20
21.5782693083176
30
0
41
1
10
223.373789283975
20
21.5746255325822
30
0
41
1
10
223.37624424106
20
21.5716856616765
30
0
41
1
10
223.377955739435
20
21.5695240941153
30
0
41
1
10
223.378192528974
20
21.5692231460969
30
0
41
1
10
223.378381408036
20
21.568981951129
30
0
41
1
10
223.378569918242
20
21.5687404656684
30
0
41
1
10
223.379086797814
20
21.5680751846075
30
0
41
1
10
223.379924269361
20
21.5669800434128
30
0
41
1
10
223.380839829597
20
21.5657518389141
30
0
41
1
10
223.381472785835
20
21.5648862119301
30
0
41
1
10
223.381787269974
20
21.5644519388748
30
0
41
1
10
223.38196640406
20
21.5642033674531
30
0
41
1
10
223.382078124593
20
21.5640478375744
30
0
41
1
10
223.382479674374
20
21.5634874645285
30
0
41
1
10
223.3831874304
20
21.5624868373192
30
0
41
1
10
223.384557352302
20
21.5605003228939
30
0
41
1
10
223.385911819459
20
21.558456756302
30
0
41
1
10
223.387228531701
20
21.5563886301118
30
0
41
1
10
223.388519888872
20
21.5543044510537
30
0
41
1
10
223.390086197464
20
21.5516697284747
30
0
41
1
10
223.391362500058
20
21.5493981431988
30
0
41
1
10
223.392039866099
20
21.5481527341967
30
0
41
1
10
223.392140202134
20
21.5479674128504
30
0
41
1
10
223.392176649382
20
21.5479000022467
30
0
41
1
10
223.392213070904
20
21.5478325776374
30
0
41
1
10
223.392258549559
20
21.5477482706334
30
0
41
1
10
223.392440206736
20
21.547410902854
30
0
41
1
10
223.392891452227
20
21.5465659132634
30
0
41
1
10
223.394452543464
20
21.5435769766081
30
0
41
1
10
223.400063279814
20
21.53198339729
30
0
41
1
10
223.407216453066
20
21.5109809275242
30
0
41
1
10
223.409824428065
20
21.4914256728723
30
0
41
1
10
223.410165749277
20
21.4816141764802
30
0
0
SPLINE
5
237
100
AcDbEntity
8
1
62
256
6
ByLayer
370
-1
48
1
60
0
100
AcDbSpline
70
4
71
3
72
8
73
4
40
0
40
0
40
0
40
0
40
1
40
1
40
1
40
1
41
1
10
212.360722528683
20
9.58727545368166
30
0
41
1
10
212.361076491426
20
9.57710056842163
30
0
41
1
10
212.36170878664
20
9.56694888028861
30
0
41
1
10
212.362507693389
20
9.55861410222747
30
0
0
SPLINE
5
238
100
AcDbEntity
8
1
62
256
6
ByLayer
370
-1
48
1
60
0
100
AcDbSpline
70
4
71
3
72
9
73
5
40
0
40
0
40
0
40
0
40
0.5
40
1
40
1
40
1
40
1
41
1
10
210.029187571705
20
22.4437901141137
30
0
41
1
10
210.04550519101
20
22.5001980980813
30
0
41
1
10
210.093180727985
20
22.6098346235513
30
0
41
1
10
210.166841841887
20
22.7015633553944
30
0
41
1
10
210.207863255293
20
22.7409423148011
30
0
0
SPLINE
5
239
100
AcDbEntity
8
1
62
256
6
ByLayer
370
-1
48
1
60
0
100
AcDbSpline
70
4
71
3
72
8
73
4
40
0
40
0
40
0
40
0
40
1
40
1
40
1
40
1
41
1
10
225.287059029159
20
22.597500032336
30
0
41
1
10
225.286004370204
20
22.6278168780533
30
0
41
1
10
225.284812473728
20
22.658129236061
30
0
41
1
10
225.283482856212
20
22.6884351793654
30
0
0
SPLINE
5
23A
100
AcDbEntity
8
1
62
256
6
ByLayer
370
-1
48
1
60
0
100
AcDbSpline
70
4
71
3
72
8
73
4
40
0
40
0
40
0
40
0
40
1
40
1
40
1
40
1
41
1
10
225.092561467345
20
8.13706646909677
30
0
41
1
10
225.130303514726
20
8.13971643301332
30
0
41
1
10
225.167265288517
20
8.14659455119309
30
0
41
1
10
225.203445528135
20
8.15769612777905
30
0
0
SPLINE
5
23B
100
AcDbEntity
8
1
62
256
6
ByLayer
370
-1
48
1
60
0
100
AcDbSpline
70
4
71
3
72
16
73
12
40
0
40
0
40
0
40
0
40
0.0068174563922344
40
0.052590299010268
40
0.144135984246335
40
0.235681669482402
40
0.418773039954536
40
0.60186441042667
40
0.784955780898804
40
0.968047151370938
40
1
40
1
40
1
40
1
41
1
10
210.849987583875
20
21.0402330298606
30
0
41
1
10
210.850713668571
20
21.04025867399
30
0
41
1
10
210.856314275494
20
21.0404564868089
30
0
41
1
10
210.871656020963
20
21.040998504495
30
0
41
1
10
210.896021989801
20
21.0418592330545
30
0
41
1
10
210.93500988791
20
21.0432364365131
30
0
41
1
10
210.983742243605
20
21.0449578996325
30
0
41
1
10
211.042223809333
20
21.0470237047878
30
0
41
1
10
211.100702598712
20
21.0490894597527
30
0
41
1
10
211.143083908017
20
21.050586684462
30
0
41
1
10
211.165987101065
20
21.0513955919473
30
0
41
1
10
211.169387768044
20
21.0515157412284
30
0
0
SPLINE
5
23C
100
AcDbEntity
8
1
62
256
6
ByLayer
370
-1
48
1
60
0
100
AcDbSpline
70
4
71
3
72
15
73
11
40
0
40
0
40
0
40
0
40
0.250139710793636
40
0.500351579587326
40
0.750563448381017
40
0.875669382777863
40
0.938222349976285
40
0.969498833575497
40
0.985137075375102
40
1
40
1
40
1
40
1
41
1
10
210.207855955839
20
22.7409491985966
30
0
41
1
10
210.199421301915
20
22.7489035515321
30
0
41
1
10
210.182549561392
20
22.7648145515521
30
0
41
1
10
210.157245693312
20
22.788677522002
30
0
41
1
10
210.136133133738
20
22.8085878528514
30
0
41
1
10
210.121405434893
20
22.8224769010092
30
0
41
1
10
210.113967178397
20
22.8294915951417
30
0
41
1
10
210.110359660758
20
22.8328936871276
30
0
41
1
10
210.108127725729
20
22.8349985273633
30
0
41
1
10
210.107533766403
20
22.8355586644062
30
0
41
1
10
210.106613675651
20
22.8364263617227
30
0
0
SPLINE
5
23D
100
AcDbEntity
8
1
62
256
6
ByLayer
370
-1
48
1
60
0
100
AcDbSpline
70
4
71
3
72
8
73
4
40
0
40
0
40
0
40
0
40
1
40
1
40
1
40
1
41
1
10
210.376430033187
20
8.52512815034396
30
0
41
1
10
210.377146066285
20
8.50881071376472
30
0
41
1
10
210.37794174999
20
8.49249660397314
30
0
41
1
10
210.378816641457
20
8.47618697892293
30
0
0
SPLINE
5
23E
100
AcDbEntity
8
1
62
256
6
ByLayer
370
-1
48
1
60
0
100
AcDbSpline
70
4
71
3
72
15
73
11
40
0
40
0
40
0
40
0
40
0.424997863749038
40
0.849995727498077
40
0.956245193435336
40
0.982807559919651
40
0.996088743161809
40
0.997748891067078
40
0.999409038972348
40
1
40
1
40
1
40
1
41
1
10
225.223250288775
20
21.5444332705447
30
0
41
1
10
225.218077698659
20
21.6931226793211
30
0
41
1
10
225.20773535487
20
21.9904984829022
30
0
41
1
10
225.196087097973
20
22.3250602472308
30
0
41
1
10
225.189309597819
20
22.5202028138388
30
0
41
1
10
225.18752376313
20
22.5713230664636
30
0
41
1
10
225.187025691742
20
22.5858359834447
30
0
41
1
10
225.186818027491
20
22.591650145976
30
0
41
1
10
225.186778112217
20
22.5930174416477
30
0
41
1
10
225.186739751213
20
22.5938031622453
30
0
41
1
10
225.186727642791
20
22.5940094906463
30
0
0
SPLINE
5
23F
100
AcDbEntity
8
1
62
256
6
ByLayer
370
-1
48
1
60
0
100
AcDbSpline
70
4
71
3
72
8
73
4
40
0
40
0
40
0
40
0
40
1
40
1
40
1
40
1
41
1
10
224.884662129578
20
8.12478399332559
30
0
41
1
10
224.900917541176
20
8.12550269350299
30
0
41
1
10
224.917169635341
20
8.12630135185751
30
0
41
1
10
224.933417138694
20
8.12717964414125
30
0
0
SPLINE
5
240
100
AcDbEntity
8
1
62
256
6
ByLayer
370
-1
48
1
60
0
100
AcDbSpline
70
4
71
3
72
17
73
13
40
0
40
0
40
0
40
0
40
0.0032703186403093
40
0.0092094466333842
40
0.0210877026195339
40
0.0448442145918333
40
0.0923572385364322
40
0.282409334314828
40
0.662513525871619
40
0.852565621650014
40
0.947591669539212
40
1
40
1
40
1
40
1
41
1
10
211.955481179712
20
21.2588424091022
30
0
41
1
10
211.955488303099
20
21.2591227071584
30
0
41
1
10
211.955508917492
20
21.2599086460207
30
0
41
1
10
211.955557338427
20
21.2617006405956
30
0
41
1
10
211.95564971483
20
21.2652525912908
30
0
41
1
10
211.955836634504
20
21.2723430771379
30
0
41
1
10
211.95642196817
20
21.294640644457
30
0
41
1
10
211.957807137045
20
21.3473337436425
30
0
41
1
10
211.959510259195
20
21.4121972759827
30
0
41
1
10
211.961003537694
20
21.4689341653643
30
0
41
1
10
211.961756808589
20
21.497746886782
30
0
41
1
10
211.962090696404
20
21.510305049697
30
0
41
1
10
211.962206759908
20
21.514785162535
30
0
0
SPLINE
5
241
100
AcDbEntity
8
1
62
256
6
ByLayer
370
-1
48
1
60
0
100
AcDbSpline
70
4
71
3
72
17
73
13
40
0
40
0
40
0
40
0
40
0.0524083454183162
40
0.14743440120067
40
0.337486512765378
40
0.717590735894794
40
0.907642847459501
40
0.955155875350678
40
0.978912389296267
40
0.990790646269061
40
0.996729774755458
40
1
40
1
40
1
40
1
41
1
10
224.104708353882
20
10.1484669703819
30
0
41
1
10
224.099973370587
20
10.1483105213452
30
0
41
1
10
224.086692233742
20
10.1478719805741
30
0
41
1
10
224.056233556266
20
10.1468658184149
30
0
41
1
10
223.996245588882
20
10.1448845248884
30
0
41
1
10
223.927668868636
20
10.14261942312
30
0
41
1
10
223.871958855901
20
10.1407793730002
30
0
41
1
10
223.848384317548
20
10.1400006922591
30
0
41
1
10
223.840888089491
20
10.1397531219162
30
0
41
1
10
223.837132358156
20
10.1396290300428
30
0
41
1
10
223.835238328801
20
10.1395665294852
30
0
41
1
10
223.834407155072
20
10.1395390728627
30
0
41
1
10
223.834110897227
20
10.1395292784034
30
0
0
SPLINE
5
242
100
AcDbEntity
8
1
62
256
6
ByLayer
370
-1
48
1
60
0
100
AcDbSpline
70
4
71
3
72
8
73
4
40
0
40
0
40
0
40
0
40
1
40
1
40
1
40
1
41
1
10
225.754686117066
20
9.15526052142698
30
0
41
1
10
225.755740756254
20
9.12494367318808
30
0
41
1
10
225.756659482388
20
9.09462176796862
30
0
41
1
10
225.757438272658
20
9.06429649726095
30
0
0
SPLINE
5
243
100
AcDbEntity
8
1
62
256
6
ByLayer
370
-1
48
1
60
0
100
AcDbSpline
70
4
71
3
72
25
73
21
40
0
40
0
40
0
40
0
40
0.125
40
0.1875
40
0.21875
40
0.234375
40
0.25
40
0.3125
40
0.34375
40
0.375
40
0.5
40
0.625
40
0.6875
40
0.71875
40
0.7265625
40
0.734375
40
0.75
40
0.8125
40
0.875
40
1
40
1
40
1
40
1
41
1
10
225.655127332746
20
9.15177057175671
30
0
41
1
10
225.654888113121
20
9.13469451202448
30
0
41
1
10
225.654457598556
20
9.10910392807878
30
0
41
1
10
225.653863568423
20
9.07924142946206
30
0
41
1
10
225.653525014678
20
9.06434306160583
30
0
41
1
10
225.653317049839
20
9.0558433760921
30
0
41
1
10
225.652989237892
20
9.04311064200542
30
0
41
1
10
225.652556669846
20
9.02831138223578
30
0
41
1
10
225.652011031245
20
9.01139121852694
30
0
41
1
10
225.65115003371
20
8.98596418910716
30
0
41
1
10
225.649731945922
20
8.94748672683281
30
0
41
1
10
225.647933758226
20
8.90498407416587
30
0
41
1
10
225.646564398946
20
8.87501960597598
30
0
41
1
10
225.645895838526
20
8.86138252668019
30
0
41
1
10
225.645589225718
20
8.85476978671937
30
0
41
1
10
225.645359915647
20
8.85174947549535
30
0
41
1
10
225.644645578538
20
8.84241919119398
30
0
41
1
10
225.642992990841
20
8.8277021596659
30
0
41
1
10
225.638709805268
20
8.80154814488574
30
0
41
1
10
225.634014168123
20
8.78231888406566
30
0
41
1
10
225.630251749597
20
8.76977321559565
30
0
0
SPLINE
5
244
100
AcDbEntity
8
1
62
256
6
ByLayer
370
-1
48
1
60
0
100
AcDbSpline
70
4
71
3
72
17
73
13
40
0
40
0
40
0
40
0
40
0.0524083454183496
40
0.147434401200688
40
0.337486512765364
40
0.717590735894717
40
0.907642847459393
40
0.955155875350562
40
0.978912389296147
40
0.990790646268939
40
0.996729774755335
40
1
40
1
40
1
40
1
41
1
10
223.262128780208
20
21.91089445009
30
0
41
1
10
223.262012716668
20
21.9064143358493
30
0
41
1
10
223.261678828803
20
21.8938561712519
30
0
41
1
10
223.260925558093
20
21.8650434568172
30
0
41
1
10
223.259432267326
20
21.8083066335655
30
0
41
1
10
223.257729230194
20
21.743442605614
30
0
41
1
10
223.256343897409
20
21.6907504643312
30
0
41
1
10
223.255758723092
20
21.6684519654014
30
0
41
1
10
223.255571632704
20
21.6613624783567
30
0
41
1
10
223.255479525111
20
21.6578089520408
30
0
41
1
10
223.255430729618
20
21.6560191702434
30
0
41
1
10
223.255410170891
20
21.6552329154457
30
0
41
1
10
223.255403079552
20
21.6549524388299
30
0
0
SPLINE
5
245
100
AcDbEntity
8
1
62
256
6
ByLayer
370
-1
48
1
60
0
100
AcDbSpline
70
4
71
3
72
17
73
13
40
0
40
0
40
0
40
0
40
0.014463156076364
40
0.0301057427840021
40
0.0613909161992785
40
0.123961263029831
40
0.249101956690936
40
0.499383344013147
40
0.749664731335358
40
0.999946118657569
40
0.999946118657569
40
1
40
1
40
1
40
1
41
1
10
211.402986133132
20
7.65175767100166
30
0
41
1
10
211.402948043506
20
7.65285258164792
30
0
41
1
10
211.402932887311
20
7.65328825614858
30
0
41
1
10
211.40285690143
20
7.65547251885769
30
0
41
1
10
211.402732934024
20
7.65903604117742
30
0
41
1
10
211.40247756944
20
7.66637665933806
30
0
41
1
10
211.401971793454
20
7.6809155133119
30
0
41
1
10
211.401246826914
20
7.70175513985447
30
0
41
1
10
211.40037782468
20
7.7267351644517
30
0
41
1
10
211.399798379788
20
7.74339167823535
30
0
41
1
10
211.399508737634
20
7.75171762704915
30
0
41
1
10
211.399508389931
20
7.75172762200302
30
0
41
1
10
211.399508042227
20
7.75173761695692
30
0
0
SPLINE
5
246
100
AcDbEntity
8
1
62
256
6
ByLayer
370
-1
48
1
60
0
100
AcDbSpline
70
4
71
3
72
14
73
10
40
0
40
0
40
0
40
0
40
0.0318086637759432
40
0.315507725074494
40
0.599206786373045
40
0.882905847671596
40
0.953830612996233
40
0.989292995658552
40
1
40
1
40
1
40
1
41
1
10
223.710106381753
20
21.4915528570495
30
0
41
1
10
223.713956802385
20
21.4916800791666
30
0
41
1
10
223.752240344493
20
21.4929456681156
30
0
41
1
10
223.82839153142
20
21.4954878731984
30
0
41
1
10
223.942701291324
20
21.4993627398867
30
0
41
1
10
224.031201178537
20
21.5024046875861
30
0
41
1
10
224.085594442013
20
21.5042898175566
30
0
41
1
10
224.101932994446
20
21.504857463383
30
0
41
1
10
224.108375482589
20
21.5050815091162
30
0
41
1
10
224.10986955204
20
21.505133475147
30
0
0
SPLINE
5
247
100
AcDbEntity
8
1
62
256
6
ByLayer
370
-1
48
1
60
0
100
AcDbSpline
70
4
71
3
72
12
73
8
40
0
40
0
40
0
40
0
40
0.518100853439319
40
0.777151280158978
40
0.906676493518808
40
0.971439100198723
40
1
40
1
40
1
40
1
41
1
10
210.040535680006
20
21.0122159458317
30
0
41
1
10
210.119122007172
20
21.014920400138
30
0
41
1
10
210.237001365267
20
21.0189770725139
30
0
41
1
10
210.374527732957
20
21.0237098890036
30
0
41
1
10
210.443290329183
20
21.0260762544336
30
0
41
1
10
210.477093046762
20
21.0272395607026
30
0
41
1
10
210.491248013594
20
21.0277266642177
30
0
41
1
10
210.495581251947
20
21.0278758139362
30
0
0
SPLINE
5
248
100
AcDbEntity
8
1
62
256
6
ByLayer
370
-1
48
1
60
0
100
AcDbSpline
70
4
71
3
72
8
73
4
40
0
40
0
40
0
40
0
40
1
40
1
40
1
40
1
41
1
10
224.396348821771
20
23.5655676013939
30
0
41
1
10
224.449491420823
20
23.5664219664046
30
0
41
1
10
224.502647200392
20
23.5668390733643
30
0
41
1
10
224.555792274863
20
23.5668491354619
30
0
0
SPLINE
5
249
100
AcDbEntity
8
1
62
256
6
ByLayer
370
-1
48
1
60
0
100
AcDbSpline
70
4
71
3
72
8
73
4
40
0
40
0
40
0
40
0
40
1
40
1
40
1
40
1
41
1
10
225.757438272648
20
9.0642964972607
30
0
41
1
10
225.757857591722
20
9.04796865534868
30
0
41
1
10
225.758196952778
20
9.03163855231793
30
0
41
1
10
225.758457450314
20
9.01530739051165
30
0
0
SPLINE
5
24A
100
AcDbEntity
8
1
62
256
6
ByLayer
370
-1
48
1
60
0
100
AcDbSpline
70
4
71
3
72
16
73
12
40
0
40
0
40
0
40
0
40
0.0319528420422265
40
0.215044192449588
40
0.39813554285695
40
0.581226893264312
40
0.764318243671674
40
0.855863918875355
40
0.947409594079035
40
0.993182431680876
40
1
40
1
40
1
40
1
41
1
10
211.563989740243
20
9.70842985456235
30
0
41
1
10
211.560589073641
20
9.70830970529249
30
0
41
1
10
211.53768588212
20
9.70750079781317
30
0
41
1
10
211.495304658574
20
9.70600357466819
30
0
41
1
10
211.436825485743
20
9.70393781278383
30
0
41
1
10
211.378344289554
20
9.70187201429516
30
0
41
1
10
211.329611860806
20
9.70015054987263
30
0
41
1
10
211.2906239612
20
9.69877334636115
30
0
41
1
10
211.266258469858
20
9.69791262549907
30
0
41
1
10
211.250915585725
20
9.6973705892467
30
0
41
1
10
211.245315051429
20
9.69717277736271
30
0
41
1
10
211.244588972203
20
9.6971471330902
30
0
0
SPLINE
5
24B
100
AcDbEntity
8
1
62
256
6
ByLayer
370
-1
48
1
60
0
100
AcDbSpline
70
4
71
3
72
25
73
21
40
0
40
0
40
0
40
0
40
0.125
40
0.1875
40
0.25
40
0.265625
40
0.2734375
40
0.28125
40
0.3125
40
0.375
40
0.5
40
0.625
40
0.65625
40
0.6875
40
0.75
40
0.765625
40
0.78125
40
0.8125
40
0.875
40
1
40
1
40
1
40
1
41
1
10
225.135492276462
20
22.9733516342893
30
0
41
1
10
225.140096400897
20
22.961101716969
30
0
41
1
10
225.146084205669
20
22.9422472097243
30
0
41
1
10
225.152127981279
20
22.9164519270405
30
0
41
1
10
225.154771022031
20
22.9018821341537
30
0
41
1
10
225.156116439645
20
22.8926228647168
30
0
41
1
10
225.156546692255
20
22.8896246675078
30
0
41
1
10
225.157314519135
20
22.8830499928109
30
0
41
1
10
225.158929380878
20
22.8694922744091
30
0
41
1
10
225.16238257041
20
22.8396957020863
30
0
41
1
10
225.167134696901
20
22.7974216086041
30
0
41
1
10
225.171229127108
20
22.7591370437468
30
0
41
1
10
225.173857237586
20
22.7338311382745
30
0
41
1
10
225.175578627005
20
22.7169897777682
30
0
41
1
10
225.177039664925
20
22.7022569505671
30
0
41
1
10
225.17825278903
20
22.6895781381246
30
0
41
1
10
225.179051848257
20
22.6811136576185
30
0
41
1
10
225.180426717502
20
22.6662751137695
30
0
41
1
10
225.18309864064
20
22.6365264461253
30
0
41
1
10
225.185309969714
20
22.6110279762418
30
0
41
1
10
225.186737730894
20
22.5940100826657
30
0
0
SPLINE
5
24C
100
AcDbEntity
8
1
62
256
6
ByLayer
370
-1
48
1
60
0
100
AcDbSpline
70
4
71
3
72
15
73
11
40
0
40
0
40
0
40
0
40
0.0466427416046268
40
0.130083711367183
40
0.21352468112974
40
0.380406620654853
40
0.714170499705079
40
0.881052439230192
40
0.964493408992748
40
1
40
1
40
1
40
1
41
1
10
210.495581251947
20
21.0278758139362
30
0
41
1
10
210.501073747834
20
21.0280648652065
30
0
41
1
10
210.516397471082
20
21.0285924564415
30
0
41
1
10
210.541609351588
20
21.0294621315288
30
0
41
1
10
210.581101801417
20
21.0308274446706
30
0
41
1
10
210.650362250557
20
21.0332296778925
30
0
41
1
10
210.72957070338
20
21.0359948404096
30
0
41
1
10
210.798416069837
20
21.0384139379857
30
0
41
1
10
210.83193335058
20
21.0395955042509
30
0
41
1
10
210.845838689021
20
21.0400864976485
30
0
41
1
10
210.849987583875
20
21.0402330298606
30
0
0
SPLINE
5
24D
100
AcDbEntity
8
1
62
256
6
ByLayer
370
-1
48
1
60
0
100
AcDbSpline
70
4
71
3
72
17
73
13
40
0
40
0
40
0
40
0
40
0.0524083454183464
40
0.147434401200683
40
0.337486512765356
40
0.717590735894701
40
0.907642847459374
40
0.955155875350542
40
0.978912389296126
40
0.990790646268919
40
0.996729774755315
40
1
40
1
40
1
40
1
41
1
10
212.387040461908
20
9.30266887961938
30
0
41
1
10
212.386612690966
20
9.30714899386007
30
0
41
1
10
212.385405059119
20
9.31970715845748
30
0
41
1
10
212.382647121592
20
9.34851987289221
30
0
41
1
10
212.377206322612
20
9.40525669614382
30
0
41
1
10
212.370990320736
20
9.47012072409538
30
0
41
1
10
212.365938891604
20
9.52281286537823
30
0
41
1
10
212.363802282035
20
9.54511136430799
30
0
41
1
10
212.363121935121
20
9.55220085135269
30
0
41
1
10
212.362782588195
20
9.55575437766854
30
0
41
1
10
212.362609267254
20
9.55754415946603
30
0
41
1
10
212.362534004244
20
9.55833041426371
30
0
41
1
10
212.362507398527
20
9.55861089087946
30
0
0
SPLINE
5
24E
100
AcDbEntity
8
1
62
256
6
ByLayer
370
-1
48
1
60
0
100
AcDbSpline
70
4
71
3
72
12
73
8
40
0
40
0
40
0
40
0
40
0.448044053330179
40
0.448044053330179
40
0.724021472165492
40
0.724021472165492
40
1
40
1
40
1
40
1
41
1
10
223.211344786643
20
23.525130447364
30
0
41
1
10
223.367500962546
20
23.5306043711199
30
0
41
1
10
223.523715095872
20
23.535957065564
30
0
41
1
10
223.776098901147
20
23.5447151665718
30
0
41
1
10
223.872275752046
20
23.5481062272198
30
0
41
1
10
224.064597507795
20
23.5549521634946
30
0
41
1
10
224.160741256655
20
23.5584108613809
30
0
41
1
10
224.256927642118
20
23.5617824772851
30
0
0
SPLINE
5
24F
100
AcDbEntity
8
1
62
256
6
ByLayer
370
-1
48
1
60
0
100
AcDbSpline
70
4
71
3
72
15
73
11
40
0
40
0
40
0
40
0
40
0.42499786374904
40
0.84999572749808
40
0.95624519343534
40
0.982807559919655
40
0.996088743161812
40
0.997748891067082
40
0.999409038972352
40
1
40
1
40
1
40
1
41
1
10
210.435137652152
20
9.66913005916464
30
0
41
1
10
210.440310242268
20
9.52044065038822
30
0
41
1
10
210.450652627518
20
9.22306484680715
30
0
41
1
10
210.462300739302
20
8.88850308247856
30
0
41
1
10
210.46907840789
20
8.69336051587055
30
0
41
1
10
210.47086412921
20
8.64224026324581
30
0
41
1
10
210.471362303845
20
8.62772734626466
30
0
41
1
10
210.471569886105
20
8.62191318373337
30
0
41
1
10
210.471609917516
20
8.62054588806163
30
0
41
1
10
210.471648111101
20
8.61976016746411
30
0
41
1
10
210.471660144711
20
8.61955383906309
30
0
0
SPLINE
5
250
100
AcDbEntity
8
1
62
256
6
ByLayer
370
-1
48
1
60
0
100
AcDbSpline
70
4
71
3
72
17
73
13
40
0
40
0
40
0
40
0
40
0.014463156076396
40
0.030105742784002
40
0.0613909161992139
40
0.123961263029638
40
0.249101956690486
40
0.499383344012181
40
0.749664731333877
40
0.999946118655572
40
0.999946118655572
40
1
40
1
40
1
40
1
41
1
10
225.754709210278
20
9.15526133094011
30
0
41
1
10
225.753618466097
20
9.15522309581783
30
0
41
1
10
225.753184449469
20
9.15520788172901
30
0
41
1
10
225.751008498539
20
9.15513160559445
30
0
41
1
10
225.747458536498
20
9.15500716465294
30
0
41
1
10
225.740145851605
20
9.15475082461822
30
0
41
1
10
225.72566232236
20
9.15424311664992
30
0
41
1
10
225.704901996888
20
9.15351538085514
30
0
41
1
10
225.680017028826
20
9.1526430591743
30
0
41
1
10
225.663423898106
20
9.15206140089592
30
0
41
1
10
225.655129651012
20
9.15177065302157
30
0
41
1
10
225.655119656151
20
9.15177030266014
30
0
41
1
10
225.65510966129
20
9.15176995229871
30
0
0
SPLINE
5
251
100
AcDbEntity
8
1
62
256
6
ByLayer
370
-1
48
1
60
0
100
AcDbSpline
70
4
71
3
72
12
73
8
40
0
40
0
40
0
40
0
40
0.0285608994399094
40
0.0933235061439154
40
0.222848719551928
40
0.481899146367952
40
1
40
1
40
1
40
1
41
1
10
223.736962820676
20
8.63292118579884
30
0
41
1
10
223.737033019248
20
8.62865005287929
30
0
41
1
10
223.737259098143
20
8.61470110089994
30
0
41
1
10
223.737801095456
20
8.58138868148455
30
0
41
1
10
223.738901923494
20
8.51362463990708
30
0
41
1
10
223.74110470409
20
8.37809464243787
30
0
41
1
10
223.742992448058
20
8.26192669112928
30
0
41
1
10
223.744251019168
20
8.18448125262074
30
0
0
SPLINE
5
252
100
AcDbEntity
8
1
62
256
6
ByLayer
370
-1
48
1
60
0
100
AcDbSpline
70
4
71
3
72
25
73
21
40
0
40
0
40
0
40
0
40
0.125
40
0.1875
40
0.25
40
0.265625
40
0.2734375
40
0.28125
40
0.3125
40
0.375
40
0.5
40
0.625
40
0.65625
40
0.6875
40
0.75
40
0.765625
40
0.78125
40
0.8125
40
0.875
40
1
40
1
40
1
40
1
41
1
10
225.167610592786
20
8.27245269849462
30
0
41
1
10
225.155405334497
20
8.2678290239794
30
0
41
1
10
225.136622222331
20
8.26181799340719
30
0
41
1
10
225.110929612145
20
8.25575566245726
30
0
41
1
10
225.096419603339
20
8.25310688392389
30
0
41
1
10
225.087198985386
20
8.25175975725455
30
0
41
1
10
225.084213418622
20
8.25132908721358
30
0
41
1
10
225.077666187797
20
8.25056076187386
30
0
41
1
10
225.064165111368
20
8.24894480167663
30
0
41
1
10
225.034492983338
20
8.24548952310553
30
0
41
1
10
224.992395481482
20
8.2407350302704
30
0
41
1
10
224.95427081717
20
8.23663923052746
30
0
41
1
10
224.929070664444
20
8.23401057335124
30
0
41
1
10
224.912299692937
20
8.23228893511649
30
0
41
1
10
224.897628446319
20
8.23082785507378
30
0
41
1
10
224.885002619822
20
8.2296148543704
30
0
41
1
10
224.876573511009
20
8.22881591673499
30
0
41
1
10
224.861796970593
20
8.22744135516089
30
0
41
1
10
224.832172596686
20
8.22477035915276
30
0
41
1
10
224.806780665414
20
8.22256012871958
30
0
41
1
10
224.789833874643
20
8.22113328254071
30
0
0
SPLINE
5
253
100
AcDbEntity
8
1
62
256
6
ByLayer
370
-1
48
1
60
0
100
AcDbSpline
70
4
71
3
72
8
73
4
40
0
40
0
40
0
40
0
40
1
40
1
40
1
40
1
41
1
10
209.900179814918
20
22.3583087134606
30
0
41
1
10
209.90016946781
20
22.3962880066729
30
0
41
1
10
209.904435569894
20
22.4337789776205
30
0
41
1
10
209.912944920332
20
22.4707842406416
30
0
0
SPLINE
5
254
100
AcDbEntity
8
1
62
256
6
ByLayer
370
-1
48
1
60
0
100
AcDbSpline
70
4
71
3
72
9
73
5
40
0
40
0
40
0
40
0
40
0.624999999998245
40
1
40
1
40
1
40
1
41
1
10
225.186737730894
20
22.5940100826657
30
0
41
1
10
225.207638001366
20
22.5947371555137
30
0
41
1
10
225.241078434121
20
22.5959004720705
30
0
41
1
10
225.274518866876
20
22.5970637886272
30
0
41
1
10
225.28705902916
20
22.597500032336
30
0
0
SPLINE
5
255
100
AcDbEntity
8
1
62
256
6
ByLayer
370
-1
48
1
60
0
100
AcDbSpline
70
4
71
3
72
17
73
13
40
0
40
0
40
0
40
0
40
0.0032703186403302
40
0.0092094466334049
40
0.0210877026195543
40
0.044844214591853
40
0.0923572385364504
40
0.28240933431484
40
0.66251352587162
40
0.852565621650009
40
0.947591669539204
40
1
40
1
40
1
40
1
41
1
10
223.662429487645
20
9.95472092060717
30
0
41
1
10
223.662456112986
20
9.954440622551
30
0
41
1
10
223.662531409681
20
9.95365468368868
30
0
41
1
10
223.66270451002
20
9.9518626891138
30
0
41
1
10
223.663044016131
20
9.94831073841854
30
0
41
1
10
223.663724261823
20
9.94122025257147
30
0
41
1
10
223.665860965924
20
9.9189226852524
30
0
41
1
10
223.670912297792
20
9.86622958606685
30
0
41
1
10
223.677128350204
20
9.80136605372667
30
0
41
1
10
223.682569141517
20
9.74462916434507
30
0
41
1
10
223.685327079715
20
9.71581644292738
30
0
41
1
10
223.686534711395
20
9.70325828001239
30
0
41
1
10
223.686962482204
20
9.69877816717431
30
0
0
SPLINE
5
256
100
AcDbEntity
8
1
62
256
6
ByLayer
370
-1
48
1
60
0
100
AcDbSpline
70
4
71
3
72
15
73
11
40
0
40
0
40
0
40
0
40
0.25013971079349
40
0.500351579587128
40
0.750563448380766
40
0.875669382777585
40
0.938222349975994
40
0.969498833575199
40
0.985137075374801
40
1
40
1
40
1
40
1
41
1
10
210.722181816125
20
7.95632362959597
30
0
41
1
10
210.714320617954
20
7.94779363039945
30
0
41
1
10
210.698595954331
20
7.93073117183278
30
0
41
1
10
210.675012447141
20
7.90514126899413
30
0
41
1
10
210.655335289524
20
7.88379005318495
30
0
41
1
10
210.641608898344
20
7.86889587252844
30
0
41
1
10
210.634676354474
20
7.86137353403043
30
0
41
1
10
210.63131410496
20
7.85772523703605
30
0
41
1
10
210.629233914862
20
7.85546807222772
30
0
41
1
10
210.628680337678
20
7.85486739878957
30
0
41
1
10
210.627822802111
20
7.85393690733758
30
0
0
SPLINE
5
257
100
AcDbEntity
8
1
62
256
6
ByLayer
370
-1
48
1
60
0
100
AcDbSpline
70
4
71
3
72
8
73
4
40
0
40
0
40
0
40
0
40
1
40
1
40
1
40
1
41
1
10
225.250696002075
20
23.0084362388561
30
0
41
1
10
225.209922432315
20
23.1423144815413
30
0
41
1
10
225.134083498247
20
23.2641504671772
30
0
41
1
10
225.032085940754
20
23.3596218368792
30
0
0
SPLINE
5
258
100
AcDbEntity
8
1
62
256
6
ByLayer
370
-1
48
1
60
0
100
AcDbSpline
70
4
71
3
72
15
73
11
40
0
40
0
40
0
40
0
40
0.250244249035877
40
0.500488498071753
40
0.750732747107629
40
0.875854871625568
40
0.938415933884537
40
0.969696465014021
40
0.985336730578764
40
1
40
1
40
1
40
1
41
1
10
225.167610592786
20
8.27245269849462
30
0
41
1
10
225.170596837399
20
8.26288965093497
30
0
41
1
10
225.176569326624
20
8.24376355581572
30
0
41
1
10
225.18552632721
20
8.21507996363982
30
0
41
1
10
225.192998871744
20
8.19115014272876
30
0
41
1
10
225.198211800435
20
8.17445643827188
30
0
41
1
10
225.200844263542
20
8.1660263284985
30
0
41
1
10
225.202121496953
20
8.16193615992921
30
0
41
1
10
225.202908224612
20
8.15941677019447
30
0
41
1
10
225.203095621795
20
8.15881665587003
30
0
41
1
10
225.203449212867
20
8.15768432792188
30
0
0
SPLINE
5
259
100
AcDbEntity
8
1
62
256
6
ByLayer
370
-1
48
1
60
0
100
AcDbSpline
70
4
71
3
72
91
73
87
40
0
40
0
40
0
40
0
40
0.0276322771565814
40
0.0681475989417238
40
0.0782764293880094
40
0.0833408446111523
40
0.0839738965140451
40
0.0846069484169379
40
0.0849234743683844
40
0.0852400003198308
40
0.0858730522227237
40
0.088405259834295
40
0.0985340902805807
40
0.108662920726866
40
0.118791751173152
40
0.128920581619438
40
0.149178242512009
40
0.16943590340458
40
0.179564733850865
40
0.184629149074008
40
0.189693564297151
40
0.190326616200044
40
0.190959668102937
40
0.192225771908723
40
0.192858823811615
40
0.193491875714508
40
0.194757979520294
40
0.197290187131865
40
0.199822394743437
40
0.20488680996658
40
0.209951225189722
40
0.220080055636008
40
0.222612263247579
40
0.223878367053365
40
0.225144470859151
40
0.230208886082294
40
0.270724207867436
40
0.290981868760007
40
0.311239529652579
40
0.33149719054515
40
0.341626020991435
40
0.346690436214578
40
0.349222643826149
40
0.350488747631935
40
0.351121799534828
40
0.351754851437721
40
0.352387903340614
40
0.353020955243507
40
0.354287059049292
40
0.356819266660864
40
0.361883681884006
40
0.372012512330292
40
0.392270173222863
40
0.412527834115435
40
0.432785495008006
40
0.473300816793148
40
0.47583302440472
40
0.478365232016291
40
0.479631335822077
40
0.480897439627863
40
0.483429647239434
40
0.493558477685719
40
0.503687308132005
40
0.508751723355148
40
0.511283930966719
40
0.512550034772505
40
0.513816138578291
40
0.514449190481184
40
0.523944969024576
40
0.534073799470862
40
0.554331460363433
40
0.564460290809719
40
0.574589121256004
40
0.594846782148576
40
0.615104443041147
40
0.617636650652718
40
0.618269702555611
40
0.618586228507057
40
0.618902754458504
40
0.619535806361397
40
0.62016885826429
40
0.625233273487432
40
0.635362103933718
40
0.67587742571886
40
0.83793871285943
40
1
40
1
40
1
40
1
41
1
10
223.797068754803
20
10.0854946151536
30
0
41
1
10
223.796537468818
20
10.0839079236913
30
0
41
1
10
223.79516191183
20
10.0800168140245
30
0
41
1
10
223.793398650951
20
10.0756161432136
30
0
41
1
10
223.792049066739
20
10.072525175273
30
0
41
1
10
223.791657639656
20
10.0716506465025
30
0
41
1
10
223.791499869021
20
10.0713013803659
30
0
41
1
10
223.791460359731
20
10.0712140941809
30
0
41
1
10
223.791428712335
20
10.0711442834728
30
0
41
1
10
223.791397038302
20
10.0710744849347
30
0
41
1
10
223.791309824852
20
10.0708825891987
30
0
41
1
10
223.790975430355
20
10.0701505369151
30
0
41
1
10
223.790392612776
20
10.068900011542
30
0
41
1
10
223.789595228767
20
10.0672423259808
30
0
41
1
10
223.788777672674
20
10.0655945713082
30
0
41
1
10
223.787660864195
20
10.0634111386437
30
0
41
1
10
223.78621503248
20
10.0607079214627
30
0
41
1
10
223.784703584733
20
10.0580411310522
30
0
41
1
10
223.783611549259
20
10.0561943743191
30
0
41
1
10
223.782977869311
20
10.0551449227013
30
0
41
1
10
223.782637816489
20
10.0545894912067
30
0
41
1
10
223.782436660562
20
10.0542634655388
30
0
41
1
10
223.782356098259
20
10.0541331174537
30
0
41
1
10
223.782275386139
20
10.0540028627496
30
0
41
1
10
223.782194524366
20
10.0538727016418
30
0
41
1
10
223.782113562879
20
10.0537426030035
30
0
41
1
10
223.781971618671
20
10.0535150945573
30
0
41
1
10
223.781768094607
20
10.0531905526284
30
0
41
1
10
223.781440866804
20
10.0526722930981
30
0
41
1
10
223.781028858667
20
10.052026366473
30
0
41
1
10
223.780363330415
20
10.050996969264
30
0
41
1
10
223.779772741177
20
10.0501016570533
30
0
41
1
10
223.779303351763
20
10.0494018031601
30
0
41
1
10
223.779132081832
20
10.0491477059085
30
0
41
1
10
223.778874594719
20
10.0487669559662
30
0
41
1
10
223.777277791806
20
10.0464251152776
30
0
41
1
10
223.774943322236
20
10.043196317942
30
0
41
1
10
223.771927293609
20
10.0393319376008
30
0
41
1
10
223.769595197603
20
10.0364901797163
30
0
41
1
10
223.767594508086
20
10.0341706254013
30
0
41
1
10
223.766164543046
20
10.0325732127741
30
0
41
1
10
223.765442263383
20
10.0317811718506
30
0
41
1
10
223.765079308447
20
10.0313868298042
30
0
41
1
10
223.764897378351
20
10.0311900798932
30
0
41
1
10
223.764793289138
20
10.0310777719059
30
0
41
1
10
223.76471515769
20
10.030993601236
30
0
41
1
10
223.764636961744
20
10.0309094909405
30
0
41
1
10
223.764532614555
20
10.0307974244386
30
0
41
1
10
223.764349781588
20
10.0306015196845
30
0
41
1
10
223.76398321553
20
10.0302105579267
30
0
41
1
10
223.763246494274
20
10.0294320354488
30
0
41
1
10
223.761758786013
20
10.0278886749314
30
0
41
1
10
223.759593248165
20
10.0257234313719
30
0
41
1
10
223.75693187886
20
10.0231898986984
30
0
41
1
10
223.753301968791
20
10.019900158745
30
0
41
1
10
223.750373284982
20
10.0174358241232
30
0
41
1
10
223.748219942838
20
10.015717788102
30
0
41
1
10
223.747920140017
20
10.0154800940654
30
0
41
1
10
223.747679862869
20
10.0152904935164
30
0
41
1
10
223.747439296334
20
10.0151012632321
30
0
41
1
10
223.746776546868
20
10.0145824092635
30
0
41
1
10
223.745685573016
20
10.0137417387109
30
0
41
1
10
223.744462042206
20
10.0128226811838
30
0
41
1
10
223.743599709195
20
10.0121873071559
30
0
41
1
10
223.743167088679
20
10.0118716217382
30
0
41
1
10
223.742919463147
20
10.0116918033893
30
0
41
1
10
223.742764525106
20
10.0115796561025
30
0
41
1
10
223.742206284449
20
10.0111765724663
30
0
41
1
10
223.741209464928
20
10.0104661129271
30
0
41
1
10
223.73923050979
20
10.0090909581465
30
0
41
1
10
223.737194719586
20
10.0077313171443
30
0
41
1
10
223.735134463241
20
10.006409575276
30
0
41
1
10
223.733058215113
20
10.0051132853308
30
0
41
1
10
223.730433518449
20
10.0035409936941
30
0
41
1
10
223.728170577241
20
10.0022598158312
30
0
41
1
10
223.726929907396
20
10.0015798623625
30
0
41
1
10
223.726745291253
20
10.0014791430603
30
0
41
1
10
223.726678137167
20
10.0014425565888
30
0
41
1
10
223.726610969129
20
10.0014059959425
30
0
41
1
10
223.726526982939
20
10.0013603435673
30
0
41
1
10
223.726190898945
20
10.0011779924887
30
0
41
1
10
223.725349124795
20
10.0007250233137
30
0
41
1
10
223.722371561946
20
9.99915796896104
30
0
41
1
10
223.710822099698
20
9.99352580051038
30
0
41
1
10
223.68989955067
20
9.98634530329846
30
0
41
1
10
223.670418709666
20
9.98372736625888
30
0
41
1
10
223.66064454898
20
9.98338474125498
30
0
0
SPLINE
5
25A
100
AcDbEntity
8
1
62
256
6
ByLayer
370
-1
48
1
60
0
100
AcDbSpline
70
4
71
3
72
15
73
11
40
0
40
0
40
0
40
0
40
0.250227978748089
40
0.500467923372546
40
0.750707867997004
40
0.875827840309232
40
0.938387826465347
40
0.969667819543404
40
0.985307816082433
40
1
40
1
40
1
40
1
41
1
10
210.029186182094
20
22.4437904368124
30
0
41
1
10
210.019499757686
20
22.4460398397896
30
0
41
1
10
210.000126445755
20
22.4505387532894
30
0
41
1
10
209.971071868414
20
22.4572858717325
30
0
41
1
10
209.946832159859
20
22.4629148706585
30
0
41
1
10
209.929922274397
20
22.4668417217957
30
0
41
1
10
209.921382995948
20
22.4688247319919
30
0
41
1
10
209.9172398603
20
22.4697868601486
30
0
41
1
10
209.914686636165
20
22.4703797755248
30
0
41
1
10
209.914078789542
20
22.4705209310168
30
0
41
1
10
209.912926113004
20
22.470788608121
30
0
0
SPLINE
5
25B
100
AcDbEntity
8
1
62
256
6
ByLayer
370
-1
48
1
60
0
100
AcDbSpline
70
4
71
3
72
15
73
11
40
0
40
0
40
0
40
0
40
0.0355064919379664
40
0.118947470229816
40
0.285829426813516
40
0.619593339980916
40
0.786475296564616
40
0.869916274856466
40
0.953357253148315
40
1
40
1
40
1
40
1
41
1
10
211.95224768617
20
22.2267780519103
30
0
41
1
10
211.952133038676
20
22.2309741273795
30
0
41
1
10
211.951745865801
20
22.2450338449617
30
0
41
1
10
211.950757845693
20
22.2788699124823
30
0
41
1
10
211.948513223906
20
22.348143512606
30
0
41
1
10
211.945432564835
20
22.4273275228336
30
0
41
1
10
211.94230821221
20
22.4961184840628
30
0
41
1
10
211.94040432017
20
22.5352159334885
30
0
41
1
10
211.93913546868
20
22.5601199618998
30
0
41
1
10
211.938336966337
20
22.5752283682006
30
0
41
1
10
211.938049277295
20
22.5806421439105
30
0
0
SPLINE
5
25C
100
AcDbEntity
8
1
62
256
6
ByLayer
370
-1
48
1
60
0
100
AcDbSpline
70
4
71
3
72
8
73
4
40
0
40
0
40
0
40
0
40
1
40
1
40
1
40
1
41
1
10
225.553294758428
20
8.37714124449948
30
0
41
1
10
225.648404949279
20
8.47953048506088
30
0
41
1
10
225.715591693428
20
8.60637567183718
30
0
41
1
10
225.746968048602
20
8.74277908904099
30
0
0
SPLINE
5
25D
100
AcDbEntity
8
1
62
256
6
ByLayer
370
-1
48
1
60
0
100
AcDbSpline
70
4
71
3
72
15
73
11
40
0
40
0
40
0
40
0
40
0.250227978748092
40
0.500467923372572
40
0.750707867997053
40
0.875827840309293
40
0.938387826465413
40
0.969667819543474
40
0.985307816082504
40
1
40
1
40
1
40
1
41
1
10
224.640711552913
20
23.4371119168933
30
0
41
1
10
224.642972130602
20
23.4468551516207
30
0
41
1
10
224.64749339406
20
23.4663420869058
30
0
41
1
10
224.654274031222
20
23.4955670676629
30
0
41
1
10
224.659930994209
20
23.519948940707
30
0
41
1
10
224.66387735338
20
23.5369580016698
30
0
41
1
10
224.665870214887
20
23.5455473624931
30
0
41
1
10
224.666837122759
20
23.5497147973918
30
0
41
1
10
224.667432983654
20
23.5522829960394
30
0
41
1
10
224.667574840386
20
23.5528944076472
30
0
41
1
10
224.667843847272
20
23.5540538445664
30
0
0
SPLINE
5
25E
100
AcDbEntity
8
1
62
256
6
ByLayer
370
-1
48
1
60
0
100
AcDbSpline
70
4
71
3
72
16
73
12
40
0
40
0
40
0
40
0
40
0.0319528420423157
40
0.215044192449658
40
0.398135542856999
40
0.581226893264341
40
0.764318243671683
40
0.855863918875354
40
0.947409594079025
40
0.993182431680861
40
1
40
1
40
1
40
1
41
1
10
224.10986955204
20
21.505133475147
30
0
41
1
10
224.113323950052
20
21.5052536244169
30
0
41
1
10
224.136572624819
20
21.5060625318962
30
0
41
1
10
224.179614820094
20
21.5075597550412
30
0
41
1
10
224.238996797898
20
21.5096255169255
30
0
41
1
10
224.298378840791
20
21.5116913154142
30
0
41
1
10
224.347863819943
20
21.5134127798368
30
0
41
1
10
224.387451670888
20
21.5147899833482
30
0
41
1
10
224.412194235975
20
21.5156507042103
30
0
41
1
10
224.427776995729
20
21.5161927404627
30
0
41
1
10
224.433462532897
20
21.5163905523467
30
0
41
1
10
224.434199576545
20
21.5164161966192
30
0
0
SPLINE
5
25F
100
AcDbEntity
8
1
62
256
6
ByLayer
370
-1
48
1
60
0
100
AcDbSpline
70
4
71
3
72
11
73
7
40
0
40
0
40
0
40
0
40
0.486341095999531
40
0.729511643999297
40
0.972682191999063
40
1
40
1
40
1
40
1
41
1
10
212.206169348166
20
9.73194915322912
30
0
41
1
10
212.201239709625
20
9.73177634888523
30
0
41
1
10
212.193942601942
20
9.73151715919172
30
0
41
1
10
212.185046146726
20
9.73119428072695
30
0
41
1
10
212.180745378625
20
9.73103554874359
30
0
41
1
10
212.178616488737
20
9.73095617843259
30
0
41
1
10
212.178402386966
20
9.73094819055552
30
0
0
SPLINE
5
260
100
AcDbEntity
8
1
62
256
6
ByLayer
370
-1
48
1
60
0
100
AcDbSpline
70
4
71
3
72
11
73
7
40
0
40
0
40
0
40
0
40
0.486341095999784
40
0.729511643999676
40
0.972682191999569
40
1
40
1
40
1
40
1
41
1
10
211.955690548463
20
21.2301785884544
30
0
41
1
10
211.955518401692
20
21.2351270574142
30
0
41
1
10
211.955357068528
20
21.2425492791263
30
0
41
1
10
211.95534980906
20
21.2517953086232
30
0
41
1
10
211.955419105321
20
21.2563407979026
30
0
41
1
10
211.955475366527
20
21.2586136662315
30
0
41
1
10
211.955481179712
20
21.2588424091022
30
0
0
SPLINE
5
261
100
AcDbEntity
8
1
62
256
6
ByLayer
370
-1
48
1
60
0
100
AcDbSpline
70
4
71
3
72
8
73
4
40
0
40
0
40
0
40
0
40
1
40
1
40
1
40
1
41
1
10
224.555792274855
20
23.5668491348806
30
0
41
1
10
224.593623833775
20
23.5668562976303
30
0
41
1
10
224.630975461766
20
23.5625772339238
30
0
41
1
10
224.667839458096
20
23.5540349269349
30
0
0
SPLINE
5
262
100
AcDbEntity
8
1
62
256
6
ByLayer
370
-1
48
1
60
0
100
AcDbSpline
70
4
71
3
72
12
73
8
40
0
40
0
40
0
40
0
40
0.518100853439295
40
0.777151280158943
40
0.906676493518766
40
0.971439100198678
40
1
40
1
40
1
40
1
41
1
10
212.444328998871
20
7.78837196504739
30
0
41
1
10
212.443070427761
20
7.86581740355589
30
0
41
1
10
212.441182706624
20
7.98198530119825
30
0
41
1
10
212.438979868949
20
8.11751543293826
30
0
41
1
10
212.437879126535
20
8.18527927275298
30
0
41
1
10
212.437336996619
20
8.21859200571632
30
0
41
1
10
212.437110973346
20
8.23254082535138
30
0
41
1
10
212.437040793208
20
8.23681191446693
30
0
0
SPLINE
5
263
100
AcDbEntity
8
1
62
256
6
ByLayer
370
-1
48
1
60
0
100
AcDbSpline
70
4
71
3
72
15
73
11
40
0
40
0
40
0
40
0
40
0.250244249035869
40
0.500488498071738
40
0.750732747107608
40
0.875854871625542
40
0.93841593388451
40
0.969696465013993
40
0.985336730578735
40
1
40
1
40
1
40
1
41
1
10
210.522653015765
20
8.24021169542002
30
0
41
1
10
210.51320001168
20
8.23728797837279
30
0
41
1
10
210.494294003509
20
8.23144054427834
30
0
41
1
10
210.465940477886
20
8.2226710900957
30
0
41
1
10
210.442286021143
20
8.21535500964137
30
0
41
1
10
210.425784413737
20
8.2102512320017
30
0
41
1
10
210.417451310547
20
8.20767388879591
30
0
41
1
10
210.413408208183
20
8.20642339877193
30
0
41
1
10
210.410917809458
20
8.20565314403149
30
0
41
1
10
210.410324600742
20
8.20546967067011
30
0
41
1
10
210.409205302667
20
8.20512348327489
30
0
0
SPLINE
5
264
100
AcDbEntity
8
1
62
256
6
ByLayer
370
-1
48
1
60
0
100
AcDbSpline
70
4
71
3
72
8
73
4
40
0
40
0
40
0
40
0
40
1
40
1
40
1
40
1
41
1
10
225.203445528135
20
8.15769612777893
30
0
41
1
10
225.336813293691
20
8.19862441202
30
0
41
1
10
225.458183747111
20
8.27475112169495
30
0
41
1
10
225.55329475894
20
8.37714124402765
30
0
0
SPLINE
5
265
100
AcDbEntity
8
1
62
256
6
ByLayer
370
-1
48
1
60
0
100
AcDbSpline
70
4
71
3
72
12
73
8
40
0
40
0
40
0
40
0
40
0.448044053330183
40
0.448044053330183
40
0.724021472165477
40
0.724021472165477
40
1
40
1
40
1
40
1
41
1
10
212.448568182174
20
7.68843288234541
30
0
41
1
10
212.292412006271
20
7.68295895858947
30
0
41
1
10
212.136306632095
20
7.67760626414537
30
0
41
1
10
211.884001357246
20
7.66884816313757
30
0
41
1
10
211.787807157768
20
7.6654571024896
30
0
41
1
10
211.595393409706
20
7.65861116621474
30
0
41
1
10
211.499171608792
20
7.65515246832851
30
0
41
1
10
211.402985326699
20
7.65178085242431
30
0
0
SPLINE
5
266
100
AcDbEntity
8
1
62
256
6
ByLayer
370
-1
48
1
60
0
100
AcDbSpline
70
4
71
3
72
8
73
4
40
0
40
0
40
0
40
0
40
1
40
1
40
1
40
1
41
1
10
225.281096395199
20
22.7373763507864
30
0
41
1
10
225.27823817595
20
22.7906517990766
30
0
41
1
10
225.274955237012
20
22.8439060191776
30
0
41
1
10
225.271247153494
20
22.8971286241733
30
0
0
SPLINE
5
267
100
AcDbEntity
8
1
62
256
6
ByLayer
370
-1
48
1
60
0
100
AcDbSpline
70
4
71
3
72
8
73
4
40
0
40
0
40
0
40
0
40
1
40
1
40
1
40
1
41
1
10
225.271247153494
20
22.897128624171
30
0
41
1
10
225.268607597489
20
22.9350145148054
30
0
41
1
10
225.261756363557
20
22.9721167629207
30
0
41
1
10
225.250696002075
20
23.0084362388561
30
0
0
SPLINE
5
268
100
AcDbEntity
8
1
62
256
6
ByLayer
370
-1
48
1
60
0
100
AcDbSpline
70
4
71
3
72
15
73
11
40
0
40
0
40
0
40
0
40
0.424997863749037
40
0.849995727498073
40
0.956245193435332
40
0.982807559919647
40
0.996088743161805
40
0.997748891067074
40
0.999409038972344
40
1
40
1
40
1
40
1
41
1
10
211.914136921759
20
23.0290820770886
30
0
41
1
10
211.766013321074
20
23.0238897285189
30
0
41
1
10
211.469769142936
20
23.0135078578467
30
0
41
1
10
211.136480414571
20
23.001815179334
30
0
41
1
10
210.942080508561
20
22.9950117056919
30
0
41
1
10
210.891154727247
20
22.9932191063056
30
0
41
1
10
210.87669708792
20
22.9927190805454
30
0
41
1
10
210.870905009037
20
22.9925106642028
30
0
41
1
10
210.869542974406
20
22.9924705381686
30
0
41
1
10
210.868760160003
20
22.9924321146613
30
0
41
1
10
210.868554579338
20
22.9924199975357
30
0
0
SPLINE
5
269
100
AcDbEntity
8
1
62
256
6
ByLayer
370
-1
48
1
60
0
100
AcDbSpline
70
4
71
3
72
12
73
8
40
0
40
0
40
0
40
0
40
0.0285608994399107
40
0.0933235061439167
40
0.222848719551929
40
0.481899146367952
40
1
40
1
40
1
40
1
41
1
10
211.938049277295
20
22.5806421439105
30
0
41
1
10
211.937822308501
20
22.5849132768301
30
0
41
1
10
211.93707787831
20
22.5988622288094
30
0
41
1
10
211.935302138363
20
22.6321746482248
30
0
41
1
10
211.931688230973
20
22.6999386898023
30
0
41
1
10
211.924461407523
20
22.8354686872715
30
0
41
1
10
211.918266676732
20
22.9516366385801
30
0
41
1
10
211.914136921759
20
23.0290820770886
30
0
0
SPLINE
5
26A
100
AcDbEntity
8
1
62
256
6
ByLayer
370
-1
48
1
60
0
100
AcDbSpline
70
4
71
3
72
17
73
13
40
0
40
0
40
0
40
0
40
0.0032703186402462
40
0.0092094466333216
40
0.0210877026194724
40
0.0448442145917739
40
0.092357238536377
40
0.282409334314789
40
0.662513525871614
40
0.852565621650026
40
0.947591669539232
40
1
40
1
40
1
40
1
41
1
10
223.43950828039
20
21.4826151391538
30
0
41
1
10
223.439804386192
20
21.4826249273776
30
0
41
1
10
223.440635289863
20
21.4826523729675
30
0
41
1
10
223.442531225995
20
21.482714950797
30
0
41
1
10
223.446285601702
20
21.4828389876484
30
0
41
1
10
223.453782688793
20
21.4830865928703
30
0
41
1
10
223.47735642602
20
21.4838652410789
30
0
41
1
10
223.533067262426
20
21.4857053246493
30
0
41
1
10
223.601643556724
20
21.4879704091106
30
0
41
1
10
223.661631580018
20
21.4899517049464
30
0
41
1
10
223.692090264879
20
21.4909578673494
30
0
41
1
10
223.70537139994
20
21.4913964080618
30
0
41
1
10
223.710106381753
20
21.4915528570495
30
0
0
SPLINE
5
26B
100
AcDbEntity
8
1
62
256
6
ByLayer
370
-1
48
1
60
0
100
AcDbSpline
70
4
71
3
72
8
73
4
40
0
40
0
40
0
40
0
40
1
40
1
40
1
40
1
41
1
10
210.378816641457
20
8.47618697892293
30
0
41
1
10
210.381674477548
20
8.4229115306328
30
0
41
1
10
210.384956811122
20
8.36965731053175
30
0
41
1
10
210.388665804955
20
8.31643470553604
30
0
0
SPLINE
5
26C
100
AcDbEntity
8
1
62
256
6
ByLayer
370
-1
48
1
60
0
100
AcDbSpline
70
4
71
3
72
12
73
8
40
0
40
0
40
0
40
0
40
0.0285608994399456
40
0.0933235061439492
40
0.222848719551957
40
0.481899146367971
40
1
40
1
40
1
40
1
41
1
10
224.784828883452
20
21.5287734030073
30
0
41
1
10
224.789005378311
20
21.5289225542555
30
0
41
1
10
224.802642074668
20
21.5294096623922
30
0
41
1
10
224.835210858954
20
21.5305729577118
30
0
41
1
10
224.901460498219
20
21.5329393301876
30
0
41
1
10
225.033962741703
20
21.5376721419884
30
0
41
1
10
225.147535145473
20
21.5417288162384
30
0
41
1
10
225.223250288775
20
21.5444332705447
30
0
0
SPLINE
5
26D
100
AcDbEntity
8
1
62
256
6
ByLayer
370
-1
48
1
60
0
100
AcDbSpline
70
4
71
3
72
17
73
13
40
0
40
0
40
0
40
0
40
0.0524083454183991
40
0.147434401200713
40
0.33748651276534
40
0.717590735894595
40
0.907642847459223
40
0.95515587535038
40
0.978912389295958
40
0.990790646268747
40
0.996729774755142
40
1
40
1
40
1
40
1
41
1
10
211.544460888235
20
21.0650963593275
30
0
41
1
10
211.548652037047
20
21.0652528083642
30
0
41
1
10
211.56039165418
20
21.0656913491353
30
0
41
1
10
211.58733912342
20
21.0666975112945
30
0
41
1
10
211.640393001055
20
21.068678804821
30
0
41
1
10
211.701050682294
20
21.0709439065894
30
0
41
1
10
211.750323933113
20
21.0727839567091
30
0
41
1
10
211.771176687579
20
21.0735626374503
30
0
41
1
10
211.777805478334
20
21.0738102077932
30
0
41
1
10
211.781129755149
20
21.0739342996666
30
0
41
1
10
211.78280166807
20
21.0739968002241
30
0
41
1
10
211.783537020062
20
21.0740242568467
30
0
41
1
10
211.783799580852
20
21.0740340513059
30
0
0
SPLINE
5
26E
100
AcDbEntity
8
1
62
256
6
ByLayer
370
-1
48
1
60
0
100
AcDbSpline
70
4
71
3
72
20
73
16
40
0
40
0
40
0
40
0
40
0.0006369940731427
40
0.0022970655115595
40
0.0039571369499762
40
0.0172377084573098
40
0.0437988514719771
40
0.150043423530646
40
0.362532567647985
40
0.468777139706654
40
0.521899425735989
40
0.575021711765323
40
0.787510855882662
40
0.893755427941331
40
1
40
1
40
1
40
1
41
1
10
211.399508541509
20
7.75173070177661
30
0
41
1
10
211.399730825216
20
7.75173311381522
30
0
41
1
10
211.400533107562
20
7.75175018343714
30
0
41
1
10
211.401913597322
20
7.75180551680575
30
0
41
1
10
211.407693720494
20
7.75200424798106
30
0
41
1
10
211.422167536032
20
7.75251634157502
30
0
41
1
10
211.473075358844
20
7.75429443973582
30
0
41
1
10
211.593407648195
20
7.75851059300331
30
0
41
1
10
211.741415553967
20
7.76367236415334
30
0
41
1
10
211.870854731012
20
7.76817674036386
30
0
41
1
10
211.944794571583
20
7.77074478933159
30
0
41
1
10
212.055725328457
20
7.77461003172553
30
0
41
1
10
212.185202499697
20
7.77915764029424
30
0
41
1
10
212.33325153513
20
7.78440479508822
30
0
41
1
10
212.407298517899
20
7.78704863239273
30
0
41
1
10
212.444328998871
20
7.78837196504739
30
0
0
SPLINE
5
26F
100
AcDbEntity
8
1
62
256
6
ByLayer
370
-1
48
1
60
0
100
AcDbSpline
70
4
71
3
72
8
73
4
40
0
40
0
40
0
40
0
40
1
40
1
40
1
40
1
41
1
10
224.285440625196
20
-7.98440192250126
30
0
41
1
10
224.185996986712
20
-7.76152129715132
30
0
41
1
10
224.105182027276
20
-7.53340735036616
30
0
41
1
10
224.042532064087
20
-7.30018960047508
30
0
0
SPLINE
5
270
100
AcDbEntity
8
1
62
256
6
ByLayer
370
-1
48
1
60
0
100
AcDbSpline
70
4
71
3
72
10
73
6
40
0
40
0
40
0
40
0
40
0.5
40
0.5
40
1
40
1
40
1
40
1
41
1
10
224.309116394523
20
-8.35614446402019
30
0
41
1
10
224.311237310285
20
-8.29464574572194
30
0
41
1
10
224.306348190819
20
-8.23409183694255
30
0
41
1
10
224.283070160783
20
-8.11480351539475
30
0
41
1
10
224.26443145426
20
-8.0557243940394
30
0
41
1
10
224.239256729067
20
-7.99954708851388
30
0
0
SPLINE
5
271
100
AcDbEntity
8
1
62
256
6
ByLayer
370
-1
48
1
60
0
100
AcDbSpline
70
4
71
3
72
10
73
6
40
0
40
0
40
0
40
0
40
0.5
40
0.5
40
1
40
1
40
1
40
1
41
1
10
225.003372849133
20
-1.33672255788585
30
0
41
1
10
225.001571208069
20
-1.3024289400156
30
0
41
1
10
225.000361652596
20
-1.26934250537954
30
0
41
1
10
224.998947781894
20
-1.20521918635728
30
0
41
1
10
224.998748269643
20
-1.17389480049579
30
0
41
1
10
224.99896371591
20
-1.14429222417979
30
0
0
SPLINE
5
272
100
AcDbEntity
8
1
62
256
6
ByLayer
370
-1
48
1
60
0
100
AcDbSpline
70
4
71
3
72
10
73
6
40
0
40
0
40
0
40
0
40
0.5
40
0.5
40
1
40
1
40
1
40
1
41
1
10
224.359214855558
20
-8.36313780510289
30
0
41
1
10
224.361517845313
20
-8.2977632110985
30
0
41
1
10
224.356368239887
20
-8.23345829682299
30
0
41
1
10
224.331809297203
20
-8.10689521362067
30
0
41
1
10
224.312117594501
20
-8.04415728065692
30
0
41
1
10
224.285440625196
20
-7.98440192250126
30
0
0
SPLINE
5
273
100
AcDbEntity
8
1
62
256
6
ByLayer
370
-1
48
1
60
0
100
AcDbSpline
70
4
71
3
72
10
73
6
40
0
40
0
40
0
40
0
40
0.825424482462885
40
0.825424482462885
40
1
40
1
40
1
40
1
41
1
10
224.239256729067
20
-7.99954708851388
30
0
41
1
10
224.180480459567
20
-7.86838806199196
30
0
41
1
10
224.1279277359
20
-7.73491929547689
30
0
41
1
10
224.071764634864
20
-7.57043706274754
30
0
41
1
10
224.062237361048
20
-7.54161327722761
30
0
41
1
10
224.052991503155
20
-7.51269623896508
30
0
0
SPLINE
5
274
100
AcDbEntity
8
1
62
256
6
ByLayer
370
-1
48
1
60
0
100
AcDbSpline
70
4
71
3
72
10
73
6
40
0
40
0
40
0
40
0
40
0.310983025413771
40
0.310983025413771
40
1
40
1
40
1
40
1
41
1
10
224.243054424833
20
-10.2796818100332
30
0
41
1
10
224.249878948477
20
-10.0802851853899
30
0
41
1
10
224.25670929086
20
-9.88088875880166
30
0
41
1
10
224.278696098975
20
-9.23970848644021
30
0
41
1
10
224.293880620664
20
-8.79792559510801
30
0
41
1
10
224.309116394523
20
-8.35614446402019
30
0
0
SPLINE
5
275
100
AcDbEntity
8
1
62
256
6
ByLayer
370
-1
48
1
60
0
100
AcDbSpline
70
4
71
3
72
26
73
22
40
0
40
0
40
0
40
0
40
0.124999999999985
40
0.124999999999985
40
0.249999999999969
40
0.249999999999969
40
0.374999999999954
40
0.374999999999954
40
0.437499999999946
40
0.437499999999946
40
0.499999999999939
40
0.499999999999939
40
0.562499999999931
40
0.562499999999931
40
0.624999999999923
40
0.624999999999923
40
0.749999999999949
40
0.749999999999949
40
0.874999999999974
40
0.874999999999974
40
1
40
1
40
1
40
1
41
1
10
225.733036543499
20
-11.3520964565786
30
0
41
1
10
225.738081825135
20
-11.3863684830628
30
0
41
1
10
225.741675098876
20
-11.4218725830934
30
0
41
1
10
225.744547880058
20
-11.4965110563419
30
0
41
1
10
225.743907802399
20
-11.5355786156546
30
0
41
1
10
225.735083241764
20
-11.62002287315
30
0
41
1
10
225.727064744669
20
-11.6652337911213
30
0
41
1
10
225.703305289629
20
-11.7387737133987
30
0
41
1
10
225.693451501215
20
-11.7639487512228
30
0
41
1
10
225.668345469428
20
-11.8150818193111
30
0
41
1
10
225.653224118104
20
-11.8405918093609
30
0
41
1
10
225.618138496138
20
-11.8888217524579
30
0
41
1
10
225.59889526607
20
-11.9105564597807
30
0
41
1
10
225.559180930843
20
-11.9484749590522
30
0
41
1
10
225.539327425263
20
-11.9642183477025
30
0
41
1
10
225.479778410688
20
-12.0051256663862
30
0
41
1
10
225.442369271321
20
-12.0227772777036
30
0
41
1
10
225.370018194947
20
-12.0495299518441
30
0
41
1
10
225.335820763686
20
-12.0580743527286
30
0
41
1
10
225.269868957876
20
-12.0698082725716
30
0
41
1
10
225.23809689718
20
-12.0729132106558
30
0
41
1
10
225.207139996544
20
-12.074167731385
30
0
0
SPLINE
5
276
100
AcDbEntity
8
1
62
256
6
ByLayer
370
-1
48
1
60
0
100
AcDbSpline
70
4
71
3
72
18
73
14
40
0
40
0
40
0
40
0
40
0.25
40
0.25
40
0.5
40
0.5
40
0.625
40
0.625
40
0.75
40
0.75
40
0.875
40
0.875
40
1
40
1
40
1
40
1
41
1
10
224.234122725115
20
1.20553982019104
30
0
41
1
10
224.24159284348
20
1.1624212651146
30
0
41
1
10
224.250026716048
20
1.11694313554369
30
0
41
1
10
224.269720906462
20
1.019953523776
30
0
41
1
10
224.280943024462
20
0.968480670318598
30
0
41
1
10
224.301589457938
20
0.883012574890245
30
0
41
1
10
224.309117681723
20
0.853123920310992
30
0
41
1
10
224.326100115559
20
0.789175277588072
30
0
41
1
10
224.335648962698
20
0.754773113693915
30
0
41
1
10
224.357361802783
20
0.680970817432438
30
0
41
1
10
224.369371907614
20
0.64206246091905
30
0
41
1
10
224.396850299546
20
0.55822911968869
30
0
41
1
10
224.411779900443
20
0.514994792628897
30
0
41
1
10
224.428022270532
20
0.470477953157285
30
0
0
SPLINE
5
277
100
AcDbEntity
8
1
62
256
6
ByLayer
370
-1
48
1
60
0
100
AcDbSpline
70
4
71
3
72
8
73
4
40
0
40
0
40
0
40
0
40
1
40
1
40
1
40
1
41
1
10
225.219159193423
20
-1.09228718724205
30
0
41
1
10
225.236197611057
20
-1.13898582164873
30
0
41
1
10
225.246020430052
20
-1.18714891014204
30
0
41
1
10
225.248627650407
20
-1.23677645272315
30
0
0
SPLINE
5
278
100
AcDbEntity
8
1
62
256
6
ByLayer
370
-1
48
1
60
0
100
AcDbSpline
70
4
71
3
72
14
73
10
40
0
40
0
40
0
40
0
40
0.25
40
0.25
40
0.5
40
0.5
40
0.75
40
0.75
40
1
40
1
40
1
40
1
41
1
10
225.900049096012
20
-11.57037397407
30
0
41
1
10
225.897281137902
20
-11.6494448405962
30
0
41
1
10
225.882713837581
20
-11.7277030748893
30
0
41
1
10
225.83119258203
20
-11.8769707431172
30
0
41
1
10
225.79419199395
20
-11.9478451390281
30
0
41
1
10
225.701264791078
20
-12.0754245496344
30
0
41
1
10
225.645050680333
20
-12.1324799273684
30
0
41
1
10
225.518789999873
20
-12.2273713580154
30
0
41
1
10
225.448681698663
20
-12.2653849353623
30
0
41
1
10
225.374152549057
20
-12.2924452488763
30
0
0
SPLINE
5
279
100
AcDbEntity
8
1
62
256
6
ByLayer
370
-1
48
1
60
0
100
AcDbSpline
70
4
71
3
72
10
73
6
40
0
40
0
40
0
40
0
40
0.5
40
0.5
40
1
40
1
40
1
40
1
41
1
10
224.896876120423
20
-0.814549506355434
30
0
41
1
10
224.908422947279
20
-0.846196872764011
30
0
41
1
10
224.920635743453
20
-0.878393492276416
30
0
41
1
10
224.945053288452
20
-0.940549542505295
30
0
41
1
10
224.95727081116
20
-0.970587724826032
30
0
41
1
10
224.969495258926
20
-0.999802958698183
30
0
0
SPLINE
5
27A
100
AcDbEntity
8
1
62
256
6
ByLayer
370
-1
48
1
60
0
100
AcDbSpline
70
4
71
3
72
10
73
6
40
0
40
0
40
0
40
0
40
0.5
40
0.5
40
1
40
1
40
1
40
1
41
1
10
224.969495258926
20
-0.999802958698098
30
0
41
1
10
224.978776594975
20
-1.02198444358135
30
0
41
1
10
224.986715793809
20
-1.04676205643329
30
0
41
1
10
224.99691305306
20
-1.09674869758086
30
0
41
1
10
224.999127687973
20
-1.12176226556215
30
0
41
1
10
224.99896371591
20
-1.14429222417931
30
0
0
SPLINE
5
27B
100
AcDbEntity
8
1
62
256
6
ByLayer
370
-1
48
1
60
0
100
AcDbSpline
70
4
71
3
72
10
73
6
40
0
40
0
40
0
40
0
40
0.414631168620574
40
0.414631168620574
40
1
40
1
40
1
40
1
41
1
10
224.291078224377
20
-10.2865454624946
30
0
41
1
10
224.30051718826
20
-10.0207146413122
30
0
41
1
10
224.309948528799
20
-9.75488235641038
30
0
41
1
10
224.33267232567
20
-9.11374860236265
30
0
41
1
10
224.345955478025
20
-8.73844538260531
30
0
41
1
10
224.359214855558
20
-8.36313780510289
30
0
0
SPLINE
5
27C
100
AcDbEntity
8
1
62
256
6
ByLayer
370
-1
48
1
60
0
100
AcDbSpline
70
4
71
3
72
14
73
10
40
0
40
0
40
0
40
0
40
0.0377738419469713
40
0.0377738419469713
40
0.358515894631314
40
0.358515894631314
40
0.679257947315657
40
0.679257947315657
40
1
40
1
40
1
40
1
41
1
10
223.837579434032
20
1.76515247123871
30
0
41
1
10
223.846486716699
20
1.76243675809502
30
0
41
1
10
223.855348210967
20
1.7595651863235
30
0
41
1
10
223.93897539507
20
1.73084086722659
30
0
41
1
10
224.010022859032
20
1.69393041071981
30
0
41
1
10
224.137913805556
20
1.60122957384263
30
0
41
1
10
224.195108506708
20
1.54515239784632
30
0
41
1
10
224.290231652557
20
1.41919928205834
30
0
41
1
10
224.328338055185
20
1.34926176114652
30
0
41
1
10
224.355464447227
20
1.27491416080335
30
0
0
SPLINE
5
27D
100
AcDbEntity
8
1
62
256
6
ByLayer
370
-1
48
1
60
0
100
AcDbSpline
70
4
71
3
72
22
73
18
40
0
40
0
40
0
40
0
40
0.0883369298222642
40
0.0883369298222642
40
0.17950323684005
40
0.17950323684005
40
0.270669543857836
40
0.270669543857836
40
0.361835850875623
40
0.361835850875623
40
0.453002157893409
40
0.453002157893409
40
0.635334771928939
40
0.635334771928939
40
0.81766738596447
40
0.81766738596447
40
1
40
1
40
1
40
1
41
1
10
223.780168727066
20
1.70207101685091
30
0
41
1
10
223.800938012816
20
1.69626359057915
30
0
41
1
10
223.822600640911
20
1.68919255314606
30
0
41
1
10
223.868722827897
20
1.67138069611045
30
0
41
1
10
223.892978957268
20
1.6605729158656
30
0
41
1
10
223.942834367467
20
1.63412893794728
30
0
41
1
10
223.968007078495
20
1.61864582299478
30
0
41
1
10
224.016350050622
20
1.58364093581915
30
0
41
1
10
224.038532258823
20
1.564838047427
30
0
41
1
10
224.077941548777
20
1.52661524595635
30
0
41
1
10
224.094692863495
20
1.50777722322601
30
0
41
1
10
224.139140548261
20
1.45180536081344
30
0
41
1
10
224.159675491993
20
1.41732065855388
30
0
41
1
10
224.19261388994
20
1.35125131328922
30
0
41
1
10
224.204420000671
20
1.3203701360066
30
0
41
1
10
224.222838711928
20
1.2612189098399
30
0
41
1
10
224.229375690306
20
1.23294036083047
30
0
41
1
10
224.234122725115
20
1.20553982018995
30
0
0
SPLINE
5
27E
100
AcDbEntity
8
1
62
256
6
ByLayer
370
-1
48
1
60
0
100
AcDbSpline
70
4
71
3
72
10
73
6
40
0
40
0
40
0
40
0
40
0.411393459467231
40
0.411393459467231
40
1
40
1
40
1
40
1
41
1
10
224.216940785073
20
-10.5364398006569
30
0
41
1
10
224.235526529548
20
-10.5054795150525
30
0
41
1
10
224.250961504376
20
-10.4725225702088
30
0
41
1
10
224.279510132679
20
-10.3901411325753
30
0
41
1
10
224.289245459114
20
-10.3385423641233
30
0
41
1
10
224.291078224377
20
-10.2865454624946
30
0
0
SPLINE
5
27F
100
AcDbEntity
8
1
62
256
6
ByLayer
370
-1
48
1
60
0
100
AcDbSpline
70
4
71
3
72
18
73
14
40
0
40
0
40
0
40
0
40
0.125000000000001
40
0.125000000000001
40
0.250000000000002
40
0.250000000000002
40
0.375000000000003
40
0.375000000000003
40
0.500000000000003
40
0.500000000000003
40
0.750000000000002
40
0.750000000000002
40
1
40
1
40
1
40
1
41
1
10
225.674486205877
20
-10.4971351666897
30
0
41
1
10
225.672848913086
20
-10.5439068859809
30
0
41
1
10
225.672205476524
20
-10.5911342542653
30
0
41
1
10
225.672653089568
20
-10.682068180789
30
0
41
1
10
225.673724768985
20
-10.7259871994568
30
0
41
1
10
225.676931319611
20
-10.8085108473745
30
0
41
1
10
225.679087620539
20
-10.8479390856279
30
0
41
1
10
225.684074793588
20
-10.9230405670226
30
0
41
1
10
225.686882214031
20
-10.9584433753498
30
0
41
1
10
225.695926663942
20
-11.0603934365416
30
0
41
1
10
225.702772247768
20
-11.1227756405399
30
0
41
1
10
225.717331534239
20
-11.2415984966583
30
0
41
1
10
225.72507566369
20
-11.2980191020704
30
0
41
1
10
225.733036543499
20
-11.3520964565787
30
0
0
SPLINE
5
280
100
AcDbEntity
8
1
62
256
6
ByLayer
370
-1
48
1
60
0
100
AcDbSpline
70
4
71
3
72
18
73
14
40
0
40
0
40
0
40
0
40
0.249999999999975
40
0.249999999999975
40
0.49999999999995
40
0.49999999999995
40
0.624999999999962
40
0.624999999999962
40
0.749999999999975
40
0.749999999999975
40
0.874999999999987
40
0.874999999999987
40
1
40
1
40
1
40
1
41
1
10
225.207139996545
20
-12.0741677313841
30
0
41
1
10
225.158425015239
20
-12.0761418939332
30
0
41
1
10
225.107413048504
20
-12.0791456474334
30
0
41
1
10
224.999756497896
20
-12.0883871708967
30
0
41
1
10
224.943134615907
20
-12.0945708519082
30
0
41
1
10
224.850454474956
20
-12.1081807103533
30
0
41
1
10
224.818248468085
20
-12.1134516956853
30
0
41
1
10
224.749923466036
20
-12.12618283811
30
0
41
1
10
224.713441382183
20
-12.1337173733025
30
0
41
1
10
224.635993148827
20
-12.151920044909
30
0
41
1
10
224.595536950914
20
-12.1624516015934
30
0
41
1
10
224.509432623396
20
-12.1878018170711
30
0
41
1
10
224.465531230155
20
-12.2021349256162
30
0
41
1
10
224.420905685098
20
-12.2183377301075
30
0
0
SPLINE
5
281
100
AcDbEntity
8
1
62
256
6
ByLayer
370
-1
48
1
60
0
100
AcDbSpline
70
4
71
3
72
8
73
4
40
0
40
0
40
0
40
0
40
1
40
1
40
1
40
1
41
1
10
224.215718973813
20
-10.4223237176048
30
0
41
1
10
224.232012071754
20
-10.3766925908616
30
0
41
1
10
224.241383653756
20
-10.3284978345077
30
0
41
1
10
224.243054424833
20
-10.2796818100332
30
0
0
SPLINE
5
282
100
AcDbEntity
8
SK1
62
256
6
ByLayer
370
-1
48
1
60
0
100
AcDbSpline
70
4
71
3
72
8
73
4
40
0
40
0
40
0
40
0
40
1
40
1
40
1
40
1
41
1
10
-77.6338144512152
20
9.8067508950781
30
0
41
1
10
-77.293445384311
20
10.1015142440094
30
0
41
1
10
-76.9485917454248
20
10.3890222754875
30
0
41
1
10
-76.6
20
10.6704826507522
30
0
0
SPLINE
5
283
100
AcDbEntity
8
SK1
62
256
6
ByLayer
370
-1
48
1
60
0
100
AcDbSpline
70
4
71
3
72
20
73
16
40
0
40
0
40
0
40
0
40
0.25
40
0.25
40
0.375
40
0.375
40
0.5
40
0.5
40
0.625
40
0.625
40
0.75
40
0.75
40
0.875
40
0.875
40
1
40
1
40
1
40
1
41
1
10
-78.516222729729
20
10.4258292340311
30
0
41
1
10
-78.481648532285
20
10.3238899523136
30
0
41
1
10
-78.4407178893849
20
10.222863184314
30
0
41
1
10
-78.366182383801
20
10.0785569359928
30
0
41
1
10
-78.3389517594226
20
10.0313738170425
30
0
41
1
10
-78.2789242561791
20
9.9414114685452
30
0
41
1
10
-78.2462023973559
20
9.89858010737444
30
0
41
1
10
-78.1723924001263
20
9.81955890101548
30
0
41
1
10
-78.1310509912521
20
9.78321524627549
30
0
41
1
10
-78.0387498131119
20
9.72613440999527
30
0
41
1
10
-77.987439503438
20
9.70551112784312
30
0
41
1
10
-77.8785037156704
20
9.69221220969743
30
0
41
1
10
-77.8229596875428
20
9.70044596670573
30
0
41
1
10
-77.7211757832574
20
9.74034844732952
30
0
41
1
10
-77.6748225543307
20
9.77123742754159
30
0
41
1
10
-77.6338144512148
20
9.80675089507758
30
0
0
SPLINE
5
284
100
AcDbEntity
8
SK1
62
256
6
ByLayer
370
-1
48
1
60
0
100
AcDbSpline
70
4
71
3
72
8
73
4
40
0
40
0
40
0
40
0
40
1
40
1
40
1
40
1
41
1
10
-78.5162227297291
20
-10.4258292340309
30
0
41
1
10
-78.5439189315756
20
-10.5074892906994
30
0
41
1
10
-78.5718462461953
20
-10.5890396904415
30
0
41
1
10
-78.6
20
-10.6704826507519
30
0
0
SPLINE
5
285
100
AcDbEntity
8
SK1
62
256
6
ByLayer
370
-1
48
1
60
0
100
AcDbSpline
70
4
71
3
72
28
73
24
40
0
40
0
40
0
40
0
40
0.0625
40
0.0625
40
0.125
40
0.125
40
0.1875
40
0.1875
40
0.25
40
0.25
40
0.3125
40
0.3125
40
0.375
40
0.375
40
0.4375
40
0.4375
40
0.5
40
0.5
40
0.625
40
0.625
40
0.75
40
0.75
40
1
40
1
40
1
40
1
41
1
10
-77.6338144512151
20
-9.8067508950777
30
0
41
1
10
-77.6543579611202
20
-9.78895998994784
30
0
41
1
10
-77.6759742207358
20
-9.77252139976983
30
0
41
1
10
-77.722047757932
20
-9.74322562431684
30
0
41
1
10
-77.7466515021883
20
-9.73034655008655
30
0
41
1
10
-77.7978350200696
20
-9.71031034137371
30
0
41
1
10
-77.8240756138441
20
-9.70323109189889
30
0
41
1
10
-77.8780393772639
20
-9.6957878232482
30
0
41
1
10
-77.9058291361522
20
-9.69556645816945
30
0
41
1
10
-77.9596871329427
20
-9.70210490207472
30
0
41
1
10
-77.9864847496244
20
-9.70890522195111
30
0
41
1
10
-78.037569321387
20
-9.72811272586878
30
0
41
1
10
-78.0617557835843
20
-9.74036263557792
30
0
41
1
10
-78.1080225163778
20
-9.76897310396529
30
0
41
1
10
-78.1301520272264
20
-9.78542501141285
30
0
41
1
10
-78.1715088706165
20
-9.8205825368494
30
0
41
1
10
-78.1909321556219
20
-9.83940079115041
30
0
41
1
10
-78.2463112147692
20
-9.89871031654829
30
0
41
1
10
-78.2795961287113
20
-9.94232448617103
30
0
41
1
10
-78.3396100313876
20
-10.0324563718159
30
0
41
1
10
-78.366506987321
20
-10.0791581867371
30
0
41
1
10
-78.4406180649772
20
-10.2227246318282
30
0
41
1
10
-78.4815513469768
20
-10.3236034091323
30
0
41
1
10
-78.516222729729
20
-10.4258292340309
30
0
0
SPLINE
5
286
100
AcDbEntity
8
SK1
62
256
6
ByLayer
370
-1
48
1
60
0
100
AcDbSpline
70
4
71
3
72
8
73
4
40
0
40
0
40
0
40
0
40
1
40
1
40
1
40
1
41
1
10
-79
20
-10.6704826507519
30
0
41
1
10
-79.3659007463117
20
-9.81334662849696
30
0
41
1
10
-79.7018274913942
20
-8.94238761528712
30
0
41
1
10
-80
20
-8.05401763097143
30
0
0
SPLINE
5
287
100
AcDbEntity
8
SK1
62
256
6
ByLayer
370
-1
48
1
60
0
100
AcDbSpline
70
4
71
3
72
8
73
4
40
0
40
0
40
0
40
0
40
1
40
1
40
1
40
1
41
1
10
-76.6000000000001
20
-10.670482650752
30
0
41
1
10
-76.9485917454248
20
-10.3890222754873
30
0
41
1
10
-77.293445384311
20
-10.1015142440092
30
0
41
1
10
-77.6338144512152
20
-9.80675089507795
30
0
0
SPLINE
5
288
100
AcDbEntity
8
SK1
62
256
6
ByLayer
370
-1
48
1
60
0
100
AcDbSpline
70
4
71
3
72
8
73
4
40
0
40
0
40
0
40
0
40
1
40
1
40
1
40
1
41
1
10
-78.6
20
10.6704826507521
30
0
41
1
10
-78.5718462461953
20
10.5890396904417
30
0
41
1
10
-78.5439189315755
20
10.5074892906996
30
0
41
1
10
-78.516222729729
20
10.4258292340311
30
0
0
SPLINE
5
289
100
AcDbEntity
8
SK1
62
256
6
ByLayer
370
-1
48
1
60
0
100
AcDbSpline
70
4
71
3
72
74
73
70
40
0
40
0
40
0
40
0
40
0.0078125
40
0.0078125
40
0.015625
40
0.015625
40
0.0234375000000001
40
0.0234375000000001
40
0.0312500000000001
40
0.0312500000000001
40
0.0468750000000002
40
0.0468750000000002
40
0.0625000000000004
40
0.0625000000000004
40
0.0781250000000005
40
0.0781250000000005
40
0.0937500000000007
40
0.0937500000000007
40
0.125000000000001
40
0.125000000000001
40
0.156250000000001
40
0.156250000000001
40
0.187500000000001
40
0.187500000000001
40
0.250000000000001
40
0.250000000000001
40
0.3125
40
0.3125
40
0.375
40
0.375
40
0.4375
40
0.4375
40
0.5
40
0.5
40
0.5625
40
0.5625
40
0.625
40
0.625
40
0.6875
40
0.6875
40
0.71875
40
0.71875
40
0.75
40
0.75
40
0.8125
40
0.8125
40
0.84375
40
0.84375
40
0.875
40
0.875
40
0.90625
40
0.90625
40
0.921874999999999
40
0.921874999999999
40
0.937499999999999
40
0.937499999999999
40
0.953124999999999
40
0.953124999999999
40
0.960937499999999
40
0.960937499999999
40
0.96875
40
0.96875
40
0.9765625
40
0.9765625
40
0.984375
40
0.984375
40
0.9921875
40
0.9921875
40
1
40
1
40
1
40
1
41
1
10
-6.50000000000001
20
-10.670482650752
30
0
41
1
10
-6.43582469560522
20
-10.670482650752
30
0
41
1
10
-6.37081264331927
20
-10.6660189653216
30
0
41
1
10
-6.24392038992225
20
-10.6486969876231
30
0
41
1
10
-6.18157921432719
20
-10.6358875710277
30
0
41
1
10
-6.05894945950165
20
-10.6025434279042
30
0
41
1
10
-5.99828531584176
20
-10.5818434566541
30
0
41
1
10
-5.88083692317713
20
-10.5339153969847
30
0
41
1
10
-5.82427185750655
20
-10.5068475724891
30
0
41
1
10
-5.66013950429974
20
-10.4175987193405
30
0
41
1
10
-5.55767796670693
20
-10.3470965653228
30
0
41
1
10
-5.36621601012163
20
-10.1903902962456
30
0
41
1
10
-5.27880357186177
20
-10.1056422220725
30
0
41
1
10
-5.11622750836628
20
-9.92648705790921
30
0
41
1
10
-5.04111152798336
20
-9.8320448969433
30
0
41
1
10
-4.90065886276918
20
-9.63522912882672
30
0
41
1
10
-4.83542500373019
20
-9.53286259528852
30
0
41
1
10
-4.65471203118301
20
-9.22109644529974
30
0
41
1
10
-4.55256385540466
20
-9.0051958714954
30
0
41
1
10
-4.37262453777106
20
-8.56162021481845
30
0
41
1
10
-4.29501129112501
20
-8.33388009499919
30
0
41
1
10
-4.15784189524743
20
-7.86879502034912
30
0
41
1
10
-4.09907903740438
20
-7.63402615605699
30
0
41
1
10
-3.94435252661108
20
-6.92518666874861
30
0
41
1
10
-3.86941590197452
20
-6.4460789539506
30
0
41
1
10
-3.75181901250798
20
-5.47739344626228
30
0
41
1
10
-3.70948261237385
20
-4.98778106711202
30
0
41
1
10
-3.64452511166275
20
-3.99941572019102
30
0
41
1
10
-3.62198013028762
20
-3.50007827001653
30
0
41
1
10
-3.58892377607327
20
-2.4954364308274
30
0
41
1
10
-3.57852544151933
20
-1.9938019826163
30
0
41
1
10
-3.56516453260045
20
-0.991813220234803
30
0
41
1
10
-3.56222270481226
20
-0.49145923809175
30
0
41
1
10
-3.56229115849558
20
0.508003221132356
30
0
41
1
10
-3.56530396713819
20
1.0071116342211
30
0
41
1
10
-3.57872854634991
20
2.00406630022576
30
0
41
1
10
-3.58912588826433
20
2.50191273366485
30
0
41
1
10
-3.62186596237336
20
3.49627385340571
30
0
41
1
10
-3.64416085648716
20
3.99278917523472
30
0
41
1
10
-3.69293036786834
20
4.73646313788097
30
0
41
1
10
-3.71182176597955
20
4.98464599195373
30
0
41
1
10
-3.75616257191399
20
5.47799266038496
30
0
41
1
10
-3.78158287580703
20
5.72301013604627
30
0
41
1
10
-3.8703237062345
20
6.45266121988658
30
0
41
1
10
-3.94563979261514
20
6.93197513305708
30
0
41
1
10
-4.09993208028902
20
7.63748203830275
30
0
41
1
10
-4.15833437396446
20
7.87039260799332
30
0
41
1
10
-4.29410155537133
20
8.33086753859507
30
0
41
1
10
-4.37155898125485
20
8.5589040944626
30
0
41
1
10
-4.55298151088468
20
9.00631450635206
30
0
41
1
10
-4.65571371792436
20
9.22299836195256
30
0
41
1
10
-4.83609280283841
20
9.53392693237404
30
0
41
1
10
-4.90064241103281
20
9.63520102478984
30
0
41
1
10
-5.04103051650716
20
9.83193642265834
30
0
41
1
10
-5.11703382242627
20
9.92748901775266
30
0
41
1
10
-5.2803556517932
20
10.1072375093538
30
0
41
1
10
-5.36794028451175
20
10.1919346295056
30
0
41
1
10
-5.5111141918655
20
10.3089173634913
30
0
41
1
10
-5.56098716244992
20
10.346308238641
30
0
41
1
10
-5.66357783518522
20
10.4159186649603
30
0
41
1
10
-5.71645596113862
20
10.4482905987006
30
0
41
1
10
-5.8257765875092
20
10.5075946315751
30
0
41
1
10
-5.88221687926884
20
10.5345300782901
30
0
41
1
10
-5.99920669180636
20
10.5821668732083
30
0
41
1
10
-6.05997126142914
20
10.6028655288242
30
0
41
1
10
-6.18253580232603
20
10.6361026919536
30
0
41
1
10
-6.24472496658315
20
10.6488298146219
30
0
41
1
10
-6.37103256116302
20
10.6660258041167
30
0
41
1
10
-6.43568437547604
20
10.6704826507524
30
0
41
1
10
-6.50000000000006
20
10.6704826507524
30
0
0
SPLINE
5
28A
100
AcDbEntity
8
SK1
62
256
6
ByLayer
370
-1
48
1
60
0
100
AcDbSpline
70
4
71
3
72
8
73
4
40
0
40
0
40
0
40
0
40
1
40
1
40
1
40
1
41
1
10
-80
20
8.0540176309716
30
0
41
1
10
-79.7018274913942
20
8.94238761528729
30
0
41
1
10
-79.3659007463117
20
9.81334662849713
30
0
41
1
10
-79
20
10.6704826507521
30
0
0
LINE
5
45
100
AcDbEntity
8
80
62
256
6
ByLayer
370
-1
48
1
60
0
100
AcDbLine
10
0
20
0
30
0
11
-7
21
0
31
0
39
0
210
0
220
0
230
1
0
LINE
5
46
100
AcDbEntity
8
81
62
256
6
ByLayer
370
-1
48
1
60
0
100
AcDbLine
10
226
20
0
30
0
11
233
21
0
31
0
39
0
210
0
220
0
230
1
0
LINE
5
47
100
AcDbEntity
8
1
62
256
6
ByLayer
370
-1
48
1
60
0
100
AcDbLine
10
5
20
31.25
30
0
11
0.2
21
31.25
31
0
39
0
210
0
220
0
230
1
0
LINE
5
49
100
AcDbEntity
8
1
62
256
6
ByLayer
370
-1
48
1
60
0
100
AcDbLine
10
0.2
20
-31.25
30
0
11
5
21
-31.25
31
0
39
0
210
0
220
0
230
1
0
LINE
5
4A
100
AcDbEntity
8
1
62
256
6
ByLayer
370
-1
48
1
60
0
100
AcDbLine
10
0.2
20
31.25
30
0
11
0
21
31.05
31
0
39
0
210
0
220
0
230
1
0
LINE
5
4B
100
AcDbEntity
8
1
62
256
6
ByLayer
370
-1
48
1
60
0
100
AcDbLine
10
0
20
-31.05
30
0
11
0.2
21
-31.25
31
0
39
0
210
0
220
0
230
1
0
LINE
5
4C
100
AcDbEntity
8
1
62
256
6
ByLayer
370
-1
48
1
60
0
100
AcDbLine
10
102.56218
20
22.913345
30
0
11
38
21
23.185
31
0
39
0
210
0
220
0
230
1
0
LINE
5
4D
100
AcDbEntity
8
1
62
256
6
ByLayer
370
-1
48
1
60
0
100
AcDbLine
10
38
20
23.185
30
0
11
33
21
23.185
31
0
39
0
210
0
220
0
230
1
0
LINE
5
4E
100
AcDbEntity
8
1
62
256
6
ByLayer
370
-1
48
1
60
0
100
AcDbLine
10
33
20
-23.185
30
0
11
38
21
-23.185
31
0
39
0
210
0
220
0
230
1
0
LINE
5
4F
100
AcDbEntity
8
1
62
256
6
ByLayer
370
-1
48
1
60
0
100
AcDbLine
10
38
20
-23.185
30
0
11
106.250373
21
-22.897826
31
0
39
0
210
0
220
0
230
1
0
LINE
5
50
100
AcDbEntity
8
SK1
62
256
6
ByLayer
370
-1
48
1
60
0
100
AcDbLine
10
-2
20
-24.996
30
0
11
-1.552821
21
-24.787477
31
0
39
0
210
0
220
0
230
1
0
LINE
5
52
100
AcDbEntity
8
SK1
62
256
6
ByLayer
370
-1
48
1
60
0
100
AcDbLine
10
-1.552821
20
24.787477
30
0
11
-2
21
24.996
31
0
39
0
210
0
220
0
230
1
0
LINE
5
53
100
AcDbEntity
8
SK1
62
256
6
ByLayer
370
-1
48
1
60
0
100
AcDbLine
10
-2
20
24.996
30
0
11
-76.6
21
24.996
31
0
39
0
210
0
220
0
230
1
0
LINE
5
54
100
AcDbEntity
8
SK1
62
256
6
ByLayer
370
-1
48
1
60
0
100
AcDbLine
10
-76.6
20
-24.996
30
0
11
-2
21
-24.996
31
0
39
0
210
0
220
0
230
1
0
LINE
5
55
100
AcDbEntity
8
SK1
62
256
6
ByLayer
370
-1
48
1
60
0
100
AcDbLine
10
-0.15
20
24.75
30
0
11
-1.383773
21
24.75
31
0
39
0
210
0
220
0
230
1
0
LINE
5
56
100
AcDbEntity
8
SK1
62
256
6
ByLayer
370
-1
48
1
60
0
100
AcDbLine
10
-1.383773
20
-24.75
30
0
11
-0.15
21
-24.75
31
0
39
0
210
0
220
0
230
1
0
LINE
5
57
100
AcDbEntity
8
SK1
62
256
6
ByLayer
370
-1
48
1
60
0
100
AcDbLine
10
-76.6
20
24.996
30
0
11
-77.633814
21
24.639667
31
0
39
0
210
0
220
0
230
1
0
LINE
5
58
100
AcDbEntity
8
SK1
62
256
6
ByLayer
370
-1
48
1
60
0
100
AcDbLine
10
-77.633814
20
-24.639667
30
0
11
-76.6
21
-24.996
31
0
39
0
210
0
220
0
230
1
0
LINE
5
59
100
AcDbEntity
8
SK1
62
256
6
ByLayer
370
-1
48
1
60
0
100
AcDbLine
10
-78.6
20
24.996
30
0
11
-79
21
24.996
31
0
39
0
210
0
220
0
230
1
0
LINE
5
5A
100
AcDbEntity
8
SK1
62
256
6
ByLayer
370
-1
48
1
60
0
100
AcDbLine
10
-79
20
-24.996
30
0
11
-78.6
21
-24.996
31
0
39
0
210
0
220
0
230
1
0
LINE
5
5B
100
AcDbEntity
8
SK1
62
256
6
ByLayer
370
-1
48
1
60
0
100
AcDbLine
10
-79
20
24.996
30
0
11
-80
21
23.996
31
0
39
0
210
0
220
0
230
1
0
LINE
5
5C
100
AcDbEntity
8
SK1
62
256
6
ByLayer
370
-1
48
1
60
0
100
AcDbLine
10
-80
20
-23.996
30
0
11
-79
21
-24.996
31
0
39
0
210
0
220
0
230
1
0
LINE
5
5D
100
AcDbEntity
8
SK1
62
256
6
ByLayer
370
-1
48
1
60
0
100
AcDbLine
10
-78.6
20
-24.996
30
0
11
-78.516223
21
-24.892544
31
0
39
0
210
0
220
0
230
1
0
LINE
5
5E
100
AcDbEntity
8
SK1
62
256
6
ByLayer
370
-1
48
1
60
0
100
AcDbLine
10
-78.516223
20
24.892544
30
0
11
-78.6
21
24.996
31
0
39
0
210
0
220
0
230
1
0
LINE
5
5F
100
AcDbEntity
8
SK4
62
256
6
ByLayer
370
-1
48
0.05
60
0
100
AcDbLine
10
226
20
0
30
0
11
-80
21
0
31
0
39
0
210
0
220
0
230
1
0
LINE
5
61
100
AcDbEntity
8
4
62
256
6
ByLayer
370
-1
48
0.05
60
0
100
AcDbLine
10
226
20
0
30
0
11
0
21
0
31
0
39
0
210
0
220
0
230
1
0
LINE
5
63
100
AcDbEntity
8
1
62
256
6
ByLayer
370
-1
48
1
60
0
100
AcDbLine
10
203.149654
20
8.943306
30
0
11
202.59954
21
9.174832
31
0
39
0
210
0
220
0
230
1
0
LINE
5
64
100
AcDbEntity
8
1
62
256
6
ByLayer
370
-1
48
1
60
0
100
AcDbLine
10
210.217914
20
7.640508
30
0
11
210.263202
21
7.640508
31
0
39
0
210
0
220
0
230
1
0
LINE
5
65
100
AcDbEntity
8
1
62
256
6
ByLayer
370
-1
48
1
60
0
100
AcDbLine
10
223.645477
20
1.065973
30
0
11
223.636663
21
0.502029
31
0
39
0
210
0
220
0
230
1
0
LINE
5
66
100
AcDbEntity
8
1
62
256
6
ByLayer
370
-1
48
1
60
0
100
AcDbLine
10
223.863227
20
7.82637
30
0
11
223.326443
21
7.855437
31
0
39
0
210
0
220
0
230
1
0
LINE
5
67
100
AcDbEntity
8
1
62
256
6
ByLayer
370
-1
48
1
60
0
100
AcDbLine
10
129.5
20
21.613305
30
0
11
129.5
21
-12.837555
31
0
39
0
210
0
220
0
230
1
0
LINE
5
68
100
AcDbEntity
8
1
62
256
6
ByLayer
370
-1
48
1
60
0
100
AcDbLine
10
209.842551
20
13.867356
30
0
11
210.007693
21
9.120249
31
0
39
0
210
0
220
0
230
1
0
LINE
5
69
100
AcDbEntity
8
1
62
256
6
ByLayer
370
-1
48
1
60
0
100
AcDbLine
10
206.395006
20
22.781667
30
0
11
206.395006
21
15.7
31
0
39
0
210
0
220
0
230
1
0
LINE
5
6A
100
AcDbEntity
8
1
62
256
6
ByLayer
370
-1
48
1
60
0
100
AcDbLine
10
209.485212
20
13.867356
30
0
11
209.842551
21
13.867356
31
0
39
0
210
0
220
0
230
1
0
LINE
5
6B
100
AcDbEntity
8
1
62
256
6
ByLayer
370
-1
48
1
60
0
100
AcDbLine
10
223.326443
20
7.855437
30
0
11
223.537173
21
7.855437
31
0
39
0
210
0
220
0
230
1
0
LINE
5
6C
100
AcDbEntity
8
1
62
256
6
ByLayer
370
-1
48
1
60
0
100
AcDbLine
10
208.520956
20
1.767635
30
0
11
210.225282
21
7.630871
31
0
39
0
210
0
220
0
230
1
0
LINE
5
6D
100
AcDbEntity
8
1
62
256
6
ByLayer
370
-1
48
1
60
0
100
AcDbLine
10
223.537247
20
7.855437
30
0
11
224.181507
21
7.821544
31
0
39
0
210
0
220
0
230
1
0
LINE
5
6E
100
AcDbEntity
8
1
62
256
6
ByLayer
370
-1
48
1
60
0
100
AcDbLine
10
209.66029
20
22.789674
30
0
11
209.902916
21
15.180699
31
0
39
0
210
0
220
0
230
1
0
LINE
5
6F
100
AcDbEntity
8
1
62
256
6
ByLayer
370
-1
48
1
60
0
100
AcDbLine
10
33
20
23.185
30
0
11
33
21
12.786002
31
0
39
0
210
0
220
0
230
1
0
LINE
5
70
100
AcDbEntity
8
1
62
256
6
ByLayer
370
-1
48
1
60
0
100
AcDbLine
10
223.636663
20
0.502029
30
0
11
221.406284
21
1.654288
31
0
39
0
210
0
220
0
230
1
0
LINE
5
71
100
AcDbEntity
8
1
62
256
6
ByLayer
370
-1
48
1
60
0
100
AcDbLine
10
224.256321
20
-11.292943
30
0
11
224.209344
21
-11.822275
31
0
39
0
210
0
220
0
230
1
0
LINE
5
72
100
AcDbEntity
8
1
62
256
6
ByLayer
370
-1
48
1
60
0
100
AcDbLine
10
223.636663
20
0.502029
30
0
11
224.256321
21
-11.292943
31
0
39
0
210
0
220
0
230
1
0
LINE
5
73
100
AcDbEntity
8
1
62
256
6
ByLayer
370
-1
48
1
60
0
100
AcDbLine
10
209.650354
20
9.120249
30
0
11
210.007693
21
9.120249
31
0
39
0
210
0
220
0
230
1
0
LINE
5
74
100
AcDbEntity
8
1
62
256
6
ByLayer
370
-1
48
1
60
0
100
AcDbLine
10
212.762193
20
7.485116
30
0
11
223.326443
21
7.855437
31
0
39
0
210
0
220
0
230
1
0
LINE
5
75
100
AcDbEntity
8
1
62
256
6
ByLayer
370
-1
48
1
60
0
100
AcDbLine
10
209.88762
20
15.180699
30
0
11
209.644847
21
22.794266
31
0
39
0
210
0
220
0
230
1
0
LINE
5
76
100
AcDbEntity
8
1
62
256
6
ByLayer
370
-1
48
1
60
0
100
AcDbLine
10
224.181507
20
7.821544
30
0
11
223.863227
21
7.82637
31
0
39
0
210
0
220
0
230
1
0
LINE
5
77
100
AcDbEntity
8
1
62
256
6
ByLayer
370
-1
48
1
60
0
100
AcDbLine
10
207.283633
20
22.788696
30
0
11
207.283633
21
15.7
31
0
39
0
210
0
220
0
230
1
0
LINE
5
78
100
AcDbEntity
8
1
62
256
6
ByLayer
370
-1
48
1
60
0
100
AcDbLine
10
223.866759
20
-22.76285
30
0
11
224.749407
21
-12.817261
31
0
39
0
210
0
220
0
230
1
0
LINE
5
79
100
AcDbEntity
8
1
62
256
6
ByLayer
370
-1
48
1
60
0
100
AcDbLine
10
224.232352
20
-12.718994
30
0
11
224.749407
21
-12.817261
31
0
39
0
210
0
220
0
230
1
0
LINE
5
7A
100
AcDbEntity
8
1
62
256
6
ByLayer
370
-1
48
1
60
0
100
AcDbLine
10
223.699125
20
1.702202
30
0
11
223.824101
21
1.697848
31
0
39
0
210
0
220
0
230
1
0
LINE
5
7B
100
AcDbEntity
8
1
62
256
6
ByLayer
370
-1
48
1
60
0
100
AcDbLine
10
203.343171
20
8.897921
30
0
11
203.257329
21
8.897921
31
0
39
0
210
0
220
0
230
1
0
LINE
5
7C
100
AcDbEntity
8
1
62
256
6
ByLayer
370
-1
48
1
60
0
100
AcDbLine
10
38
20
23.185
30
0
11
38
21
11.334381
31
0
39
0
210
0
220
0
230
1
0
LINE
5
7D
100
AcDbEntity
8
1
62
256
6
ByLayer
370
-1
48
1
60
0
100
AcDbLine
10
5
20
31.25
30
0
11
5
21
-31.25
31
0
39
0
210
0
220
0
230
1
0
LINE
5
7E
100
AcDbEntity
8
1
62
256
6
ByLayer
370
-1
48
1
60
0
100
AcDbLine
10
221.422521
20
2.537204
30
0
11
223.863227
21
7.82637
31
0
39
0
210
0
220
0
230
1
0
LINE
5
7F
100
AcDbEntity
8
1
62
256
6
ByLayer
370
-1
48
1
60
0
100
AcDbLine
10
210.108296
20
15.377303
30
0
11
210.137646
21
15.377303
31
0
39
0
210
0
220
0
230
1
0
LINE
5
80
100
AcDbEntity
8
1
62
256
6
ByLayer
370
-1
48
1
60
0
100
AcDbLine
10
203.149654
20
8.943306
30
0
11
203.122842
21
8.851067
31
0
39
0
210
0
220
0
230
1
0
LINE
5
81
100
AcDbEntity
8
1
62
256
6
ByLayer
370
-1
48
1
60
0
100
AcDbLine
10
38
20
-23.185
30
0
11
38
21
-15.775069
31
0
39
0
210
0
220
0
230
1
0
LINE
5
82
100
AcDbEntity
8
1
62
256
6
ByLayer
370
-1
48
1
60
0
100
AcDbLine
10
199.281972
20
10.628383
30
0
11
203.343171
21
8.897921
31
0
39
0
210
0
220
0
230
1
0
LINE
5
83
100
AcDbEntity
8
1
62
256
6
ByLayer
370
-1
48
1
60
0
100
AcDbLine
10
224.256321
20
-11.292943
30
0
11
222.424945
21
-10.346817
31
0
39
0
210
0
220
0
230
1
0
LINE
5
84
100
AcDbEntity
8
1
62
256
6
ByLayer
370
-1
48
1
60
0
100
AcDbLine
10
223.844167
20
1.751506
30
0
11
224.570127
21
8.11324
31
0
39
0
210
0
220
0
230
1
0
LINE
5
85
100
AcDbEntity
8
1
62
256
6
ByLayer
370
-1
48
1
60
0
100
AcDbLine
10
203.724291
20
9.634325
30
0
11
197.945734
21
12.096547
31
0
39
0
210
0
220
0
230
1
0
LINE
5
86
100
AcDbEntity
8
1
62
256
6
ByLayer
370
-1
48
1
60
0
100
AcDbLine
10
209.314624
20
-22.76285
30
0
11
223.866759
21
-22.76285
31
0
39
0
210
0
220
0
230
1
0
LINE
5
87
100
AcDbEntity
8
1
62
256
6
ByLayer
370
-1
48
1
60
0
100
AcDbLine
10
33
20
-23.185
30
0
11
33
21
-14.712415
31
0
39
0
210
0
220
0
230
1
0
LINE
5
88
100
AcDbEntity
8
1
62
256
6
ByLayer
370
-1
48
1
60
0
100
AcDbLine
10
223.75591
20
1.804858
30
0
11
223.844167
21
1.751506
31
0
39
0
210
0
220
0
230
1
0
LINE
5
89
100
AcDbEntity
8
1
62
256
6
ByLayer
370
-1
48
1
60
0
100
AcDbLine
10
210.014551
20
22.763929
30
0
11
210.016054
21
22.716792
31
0
39
0
210
0
220
0
230
1
0
LINE
5
8A
100
AcDbEntity
8
1
62
256
6
ByLayer
370
-1
48
1
60
0
100
AcDbLine
10
202.017033
20
5.046854
30
0
11
201.442439
21
3.07013
31
0
39
0
210
0
220
0
230
1
0
LINE
5
8B
100
AcDbEntity
8
1
62
256
6
ByLayer
370
-1
48
1
60
0
100
AcDbLine
10
223.742135
20
1.805338
30
0
11
223.75591
21
1.804858
31
0
39
0
210
0
220
0
230
1
0
LINE
5
8C
100
AcDbEntity
8
1
62
256
6
ByLayer
370
-1
48
1
60
0
100
AcDbLine
10
0
20
31.05
30
0
11
0
21
-31.05
31
0
39
0
210
0
220
0
230
1
0
LINE
5
8D
100
AcDbEntity
8
1
62
256
6
ByLayer
370
-1
48
1
60
0
100
AcDbLine
10
209.88762
20
15.180699
30
0
11
209.902916
21
15.180699
31
0
39
0
210
0
220
0
230
1
0
LINE
5
8E
100
AcDbEntity
8
1
62
256
6
ByLayer
370
-1
48
1
60
0
100
AcDbLine
10
206.395006
20
15.7
30
0
11
207.283633
21
15.7
31
0
39
0
210
0
220
0
230
1
0
LINE
5
8F
100
AcDbEntity
8
1
62
256
6
ByLayer
370
-1
48
1
60
0
100
AcDbLine
10
206.287473
20
15.600425
30
0
11
186.978604
21
17.414848
31
0
39
0
210
0
220
0
230
1
0
LINE
5
90
100
AcDbEntity
8
1
62
256
6
ByLayer
370
-1
48
1
60
0
100
AcDbLine
10
0.2
20
31.25
30
0
11
0.2
21
-31.25
31
0
39
0
210
0
220
0
230
1
0
LINE
5
91
100
AcDbEntity
8
1
62
256
6
ByLayer
370
-1
48
1
60
0
100
AcDbLine
10
223.824101
20
1.697848
30
0
11
223.844167
21
1.751506
31
0
39
0
210
0
220
0
230
1
0
LINE
5
92
100
AcDbEntity
8
1
62
256
6
ByLayer
370
-1
48
1
60
0
100
AcDbLine
10
209.485212
20
13.867356
30
0
11
209.650354
21
9.120249
31
0
39
0
210
0
220
0
230
1
0
LINE
5
93
100
AcDbEntity
8
1
62
256
6
ByLayer
370
-1
48
1
60
0
100
AcDbLine
10
223.66243
20
9.954723
30
0
11
212.362508
21
9.558614
31
0
39
0
210
0
220
0
230
1
0
LINE
5
94
100
AcDbEntity
8
1
62
256
6
ByLayer
370
-1
48
1
60
0
100
AcDbLine
10
213.93828
20
18.857382
30
0
11
214.518924
21
18.313854
31
0
39
0
210
0
220
0
230
1
0
LINE
5
95
100
AcDbEntity
8
1
62
256
6
ByLayer
370
-1
48
1
60
0
100
AcDbLine
10
223.237972
20
22.976753
30
0
11
211.93805
21
22.580643
31
0
39
0
210
0
220
0
230
1
0
LINE
5
96
100
AcDbEntity
8
1
62
256
6
ByLayer
370
-1
48
1
60
0
100
AcDbLine
10
223.25217
20
22.622888
30
0
11
211.952247
21
22.226778
31
0
39
0
210
0
220
0
230
1
0
LINE
5
97
100
AcDbEntity
8
1
62
256
6
ByLayer
370
-1
48
1
60
0
100
AcDbLine
10
222.543761
20
17.278768
30
0
11
222.439461
21
20.27694
31
0
39
0
210
0
220
0
230
1
0
LINE
5
98
100
AcDbEntity
8
1
62
256
6
ByLayer
370
-1
48
1
60
0
100
AcDbLine
10
213.725828
20
12.40877
30
0
11
213.726243
21
12.408382
31
0
39
0
210
0
220
0
230
1
0
LINE
5
99
100
AcDbEntity
8
1
62
256
6
ByLayer
370
-1
48
1
60
0
100
AcDbLine
10
223.255613
20
21.626288
30
0
11
211.955691
21
21.230179
31
0
39
0
210
0
220
0
230
1
0
LINE
5
9A
100
AcDbEntity
8
1
62
256
6
ByLayer
370
-1
48
1
60
0
100
AcDbLine
10
224.794073
20
8.121194
30
0
11
212.448568
21
7.688433
31
0
39
0
210
0
220
0
230
1
0
LINE
5
9B
100
AcDbEntity
8
1
62
256
6
ByLayer
370
-1
48
1
60
0
100
AcDbLine
10
223.736963
20
8.63292
30
0
11
212.437041
21
8.236811
31
0
39
0
210
0
220
0
230
1
0
LINE
5
9C
100
AcDbEntity
8
1
62
256
6
ByLayer
370
-1
48
1
60
0
100
AcDbLine
10
211.544462
20
21.065096
30
0
11
211.939064
21
9.72201
31
0
39
0
210
0
220
0
230
1
0
LINE
5
9D
100
AcDbEntity
8
1
62
256
6
ByLayer
370
-1
48
1
60
0
100
AcDbLine
10
222.723349
20
17.285201
30
0
11
222.619049
21
20.283373
31
0
39
0
210
0
220
0
230
1
0
LINE
5
9E
100
AcDbEntity
8
1
62
256
6
ByLayer
370
-1
48
1
60
0
100
AcDbLine
10
222.120024
20
20.750498
30
0
11
219.133261
21
20.6458
31
0
39
0
210
0
220
0
230
1
0
LINE
5
9F
100
AcDbEntity
8
1
62
256
6
ByLayer
370
-1
48
1
60
0
100
AcDbLine
10
213.971227
20
12.187352
30
0
11
213.957631
21
12.200079
31
0
39
0
210
0
220
0
230
1
0
LINE
5
A0
100
AcDbEntity
8
1
62
256
6
ByLayer
370
-1
48
1
60
0
100
AcDbLine
10
210.49558
20
21.027876
30
0
11
210.890182
21
9.68479
31
0
39
0
210
0
220
0
230
1
0
LINE
5
A1
100
AcDbEntity
8
1
62
256
6
ByLayer
370
-1
48
1
60
0
100
AcDbLine
10
211.783803
20
21.074034
30
0
11
212.178405
21
9.730948
31
0
39
0
210
0
220
0
230
1
0
LINE
5
A2
100
AcDbEntity
8
1
62
256
6
ByLayer
370
-1
48
1
60
0
100
AcDbLine
10
213.941887
20
20.434636
30
0
11
215.304314
21
19.159299
31
0
39
0
210
0
220
0
230
1
0
LINE
5
A3
100
AcDbEntity
8
1
62
256
6
ByLayer
370
-1
48
1
60
0
100
AcDbLine
10
213.753552
20
11.989932
30
0
11
214.125123
21
11.642113
31
0
39
0
210
0
220
0
230
1
0
LINE
5
A4
100
AcDbEntity
8
1
62
256
6
ByLayer
370
-1
48
1
60
0
100
AcDbLine
10
223.834108
20
10.139529
30
0
11
223.439506
21
21.482615
31
0
39
0
210
0
220
0
230
1
0
LINE
5
A5
100
AcDbEntity
8
1
62
256
6
ByLayer
370
-1
48
1
60
0
100
AcDbLine
10
210.372854
20
8.616063
30
0
11
209.941739
21
21.008726
31
0
39
0
210
0
220
0
230
1
0
LINE
5
A6
100
AcDbEntity
8
1
62
256
6
ByLayer
370
-1
48
1
60
0
100
AcDbLine
10
223.686963
20
9.698779
30
0
11
212.387041
21
9.30267
31
0
39
0
210
0
220
0
230
1
0
LINE
5
A7
100
AcDbEntity
8
1
62
256
6
ByLayer
370
-1
48
1
60
0
100
AcDbLine
10
223.255404
20
21.654949
30
0
11
211.955482
21
21.25884
31
0
39
0
210
0
220
0
230
1
0
LINE
5
A8
100
AcDbEntity
8
1
62
256
6
ByLayer
370
-1
48
1
60
0
100
AcDbLine
10
223.214059
20
23.425191
30
0
11
211.914137
21
23.029082
31
0
39
0
210
0
220
0
230
1
0
LINE
5
A9
100
AcDbEntity
8
1
62
256
6
ByLayer
370
-1
48
1
60
0
100
AcDbLine
10
213.007635
20
19.665604
30
0
11
213.59692
21
19.548834
31
0
39
0
210
0
220
0
230
1
0
LINE
5
AA
100
AcDbEntity
8
1
62
256
6
ByLayer
370
-1
48
1
60
0
100
AcDbLine
10
214.392289
20
12.228829
30
0
11
214.540918
21
12.089702
31
0
39
0
210
0
220
0
230
1
0
LINE
5
AB
100
AcDbEntity
8
1
62
256
6
ByLayer
370
-1
48
1
60
0
100
AcDbLine
10
223.712836
20
9.309879
30
0
11
212.412914
21
8.91377
31
0
39
0
210
0
220
0
230
1
0
LINE
5
AC
100
AcDbEntity
8
1
62
256
6
ByLayer
370
-1
48
1
60
0
100
AcDbLine
10
223.660645
20
9.983385
30
0
11
212.360723
21
9.587275
31
0
39
0
210
0
220
0
230
1
0
LINE
5
AD
100
AcDbEntity
8
1
62
256
6
ByLayer
370
-1
48
1
60
0
100
AcDbLine
10
222.464477
20
10.961734
30
0
11
219.477713
21
10.857036
31
0
39
0
210
0
220
0
230
1
0
LINE
5
AE
100
AcDbEntity
8
1
62
256
6
ByLayer
370
-1
48
1
60
0
100
AcDbLine
10
210.849987
20
21.040233
30
0
11
211.244589
21
9.697147
31
0
39
0
210
0
220
0
230
1
0
LINE
5
AF
100
AcDbEntity
8
1
62
256
6
ByLayer
370
-1
48
1
60
0
100
AcDbLine
10
223.726541
20
8.986785
30
0
11
212.426619
21
8.590676
31
0
39
0
210
0
220
0
230
1
0
LINE
5
B0
100
AcDbEntity
8
1
62
256
6
ByLayer
370
-1
48
1
60
0
100
AcDbLine
10
210.86584
20
23.092369
30
0
11
223.211345
21
23.52513
31
0
39
0
210
0
220
0
230
1
0
LINE
5
B1
100
AcDbEntity
8
1
62
256
6
ByLayer
370
-1
48
1
60
0
100
AcDbLine
10
212.740702
20
19.141603
30
0
11
214.103129
21
17.866266
31
0
39
0
210
0
220
0
230
1
0
LINE
5
B2
100
AcDbEntity
8
1
62
256
6
ByLayer
370
-1
48
1
60
0
100
AcDbLine
10
214.307875
20
19.255239
30
0
11
214.888519
21
18.711711
31
0
39
0
210
0
220
0
230
1
0
LINE
5
B3
100
AcDbEntity
8
1
62
256
6
ByLayer
370
-1
48
1
60
0
100
AcDbLine
10
214.392289
20
12.228829
30
0
11
214.527016
21
12.373858
31
0
39
0
210
0
220
0
230
1
0
LINE
5
B4
100
AcDbEntity
8
1
62
256
6
ByLayer
370
-1
48
1
60
0
100
AcDbLine
10
225.617852
20
10.201347
30
0
11
225.22325
21
21.544433
31
0
39
0
210
0
220
0
230
1
0
LINE
5
B5
100
AcDbEntity
8
1
62
256
6
ByLayer
370
-1
48
1
60
0
100
AcDbLine
10
223.804768
20
10.138528
30
0
11
223.410166
21
21.481614
31
0
39
0
210
0
220
0
230
1
0
LINE
5
B6
100
AcDbEntity
8
1
62
256
6
ByLayer
370
-1
48
1
60
0
100
AcDbLine
10
224.504472
20
10.162048
30
0
11
224.10987
21
21.505134
31
0
39
0
210
0
220
0
230
1
0
LINE
5
B7
100
AcDbEntity
8
1
62
256
6
ByLayer
370
-1
48
1
60
0
100
AcDbLine
10
223.260944
20
22.299793
30
0
11
211.961022
21
21.903684
31
0
39
0
210
0
220
0
230
1
0
LINE
5
B8
100
AcDbEntity
8
1
62
256
6
ByLayer
370
-1
48
1
60
0
100
AcDbLine
10
223.262129
20
21.910894
30
0
11
211.962207
21
21.514784
31
0
39
0
210
0
220
0
230
1
0
LINE
5
B9
100
AcDbEntity
8
1
62
256
6
ByLayer
370
-1
48
1
60
0
100
AcDbLine
10
212.444329
20
7.788372
30
0
11
223.744251
21
8.184481
31
0
39
0
210
0
220
0
230
1
0
LINE
5
BA
100
AcDbEntity
8
1
62
256
6
ByLayer
370
-1
48
1
60
0
100
AcDbLine
10
222.932311
20
11.278454
30
0
11
222.828011
21
14.276627
31
0
39
0
210
0
220
0
230
1
0
LINE
5
BB
100
AcDbEntity
8
1
62
256
6
ByLayer
370
-1
48
1
60
0
100
AcDbLine
10
210.040536
20
21.012216
30
0
11
210.435138
21
9.66913
31
0
39
0
210
0
220
0
230
1
0
LINE
5
BC
100
AcDbEntity
8
1
62
256
6
ByLayer
370
-1
48
1
60
0
100
AcDbLine
10
213.439772
20
20.130784
30
0
11
213.59692
21
19.548834
31
0
39
0
210
0
220
0
230
1
0
LINE
5
BD
100
AcDbEntity
8
1
62
256
6
ByLayer
370
-1
48
1
60
0
100
AcDbLine
10
213.93828
20
18.857382
30
0
11
213.960564
21
18.852966
31
0
39
0
210
0
220
0
230
1
0
LINE
5
BE
100
AcDbEntity
8
1
62
256
6
ByLayer
370
-1
48
1
60
0
100
AcDbLine
10
224.104708
20
10.148467
30
0
11
223.710106
21
21.491553
31
0
39
0
210
0
220
0
230
1
0
LINE
5
BF
100
AcDbEntity
8
1
62
256
6
ByLayer
370
-1
48
1
60
0
100
AcDbLine
10
222.130355
20
20.566288
30
0
11
219.143591
21
20.461589
31
0
39
0
210
0
220
0
230
1
0
LINE
5
C0
100
AcDbEntity
8
1
62
256
6
ByLayer
370
-1
48
1
60
0
100
AcDbLine
10
214.307875
20
19.255239
30
0
11
214.313818
21
19.233231
31
0
39
0
210
0
220
0
230
1
0
LINE
5
C1
100
AcDbEntity
8
1
62
256
6
ByLayer
370
-1
48
1
60
0
100
AcDbLine
10
211.169386
20
21.051516
30
0
11
211.563988
21
9.70843
31
0
39
0
210
0
220
0
230
1
0
LINE
5
C2
100
AcDbEntity
8
1
62
256
6
ByLayer
370
-1
48
1
60
0
100
AcDbLine
10
213.725828
20
12.40877
30
0
11
214.200501
21
12.919739
31
0
39
0
210
0
220
0
230
1
0
LINE
5
C3
100
AcDbEntity
8
1
62
256
6
ByLayer
370
-1
48
1
60
0
100
AcDbLine
10
219.4802
20
10.672825
30
0
11
222.466963
21
10.777524
31
0
39
0
210
0
220
0
230
1
0
LINE
5
C4
100
AcDbEntity
8
1
62
256
6
ByLayer
370
-1
48
1
60
0
100
AcDbLine
10
224.828802
20
10.17333
30
0
11
224.4342
21
21.516416
31
0
39
0
210
0
220
0
230
1
0
LINE
5
C5
100
AcDbEntity
8
1
62
256
6
ByLayer
370
-1
48
1
60
0
100
AcDbLine
10
225.179433
20
10.185688
30
0
11
224.784831
21
21.528773
31
0
39
0
210
0
220
0
230
1
0
LINE
5
C6
100
AcDbEntity
8
1
62
256
6
ByLayer
370
-1
48
1
60
0
100
AcDbLine
10
225.287059
20
22.5975
30
0
11
225.718174
21
10.204837
31
0
39
0
210
0
220
0
230
1
0
LINE
5
C7
100
AcDbEntity
8
1
62
256
6
ByLayer
370
-1
48
1
60
0
100
AcDbLine
10
222.648423
20
14.270194
30
0
11
222.752723
21
11.272021
31
0
39
0
210
0
220
0
230
1
0
LINE
5
C8
100
AcDbEntity
8
1
62
256
6
ByLayer
370
-1
48
1
60
0
100
AcDbLine
10
211.811567
20
21.075035
30
0
11
212.206169
21
9.731949
31
0
39
0
210
0
220
0
230
1
0
LINE
5
C9
100
AcDbEntity
8
1
62
256
6
ByLayer
370
-1
48
1
60
0
100
AcDbLine
10
224.217396
20
-0.914769
30
0
11
224.896876
21
-0.81455
31
0
39
0
210
0
220
0
230
1
0
LINE
5
CA
100
AcDbEntity
8
1
62
256
6
ByLayer
370
-1
48
1
60
0
100
AcDbLine
10
224.548934
20
-6.322759
30
0
11
224.281276
21
-1.227985
31
0
39
0
210
0
220
0
230
1
0
LINE
5
CB
100
AcDbEntity
8
1
62
256
6
ByLayer
370
-1
48
1
60
0
100
AcDbLine
10
225.528525
20
-6.564523
30
0
11
225.271031
21
-6.431496
31
0
39
0
210
0
220
0
230
1
0
LINE
5
CC
100
AcDbEntity
8
1
62
256
6
ByLayer
370
-1
48
1
60
0
100
AcDbLine
10
224.652021
20
-10.315028
30
0
11
224.719357
21
-8.391476
31
0
39
0
210
0
220
0
230
1
0
LINE
5
CD
100
AcDbEntity
8
1
62
256
6
ByLayer
370
-1
48
1
60
0
100
AcDbLine
10
224.355464
20
1.274914
30
0
11
225.219159
21
-1.092287
31
0
39
0
210
0
220
0
230
1
0
LINE
5
CE
100
AcDbEntity
8
1
62
256
6
ByLayer
370
-1
48
1
60
0
100
AcDbLine
10
224.951839
20
-10.325473
30
0
11
225.674486
21
-10.497135
31
0
39
0
210
0
220
0
230
1
0
LINE
5
CF
100
AcDbEntity
8
1
62
256
6
ByLayer
370
-1
48
1
60
0
100
AcDbLine
10
225.019175
20
-8.40192
30
0
11
224.951839
21
-10.325473
31
0
39
0
210
0
220
0
230
1
0
LINE
5
D0
100
AcDbEntity
8
1
62
256
6
ByLayer
370
-1
48
1
60
0
100
AcDbLine
10
225.999513
20
-8.729048
30
0
11
225.741822
21
-8.573583
31
0
39
0
210
0
220
0
230
1
0
LINE
5
D1
100
AcDbEntity
8
1
62
256
6
ByLayer
370
-1
48
1
60
0
100
AcDbLine
10
223.981687
20
-1.243648
30
0
11
224.249345
21
-6.338421
31
0
39
0
210
0
220
0
230
1
0
LINE
5
D2
100
AcDbEntity
8
1
62
256
6
ByLayer
370
-1
48
1
60
0
100
AcDbLine
10
225.784389
20
-7.626505
30
0
11
225.548886
21
-7.584755
31
0
39
0
210
0
220
0
230
1
0
LINE
5
D3
100
AcDbEntity
8
1
62
256
6
ByLayer
370
-1
48
1
60
0
100
AcDbLine
10
225.999513
20
-8.729048
30
0
11
225.900049
21
-11.570374
31
0
39
0
210
0
220
0
230
1
0
LINE
5
D4
100
AcDbEntity
8
1
62
256
6
ByLayer
370
-1
48
1
60
0
100
AcDbLine
10
225.374153
20
-12.292445
30
0
11
224.221291
21
-12.71103
31
0
39
0
210
0
220
0
230
1
0
LINE
5
D5
100
AcDbEntity
8
1
62
256
6
ByLayer
370
-1
48
1
60
0
100
AcDbLine
10
223.935488
20
-1.017125
30
0
11
223.679633
21
-0.315882
31
0
39
0
210
0
220
0
230
1
0
LINE
5
D6
100
AcDbEntity
8
1
62
256
6
ByLayer
370
-1
48
1
60
0
100
AcDbLine
10
224.548934
20
-6.322759
30
0
11
225.271031
21
-6.431496
31
0
39
0
210
0
220
0
230
1
0
LINE
5
D7
100
AcDbEntity
8
1
62
256
6
ByLayer
370
-1
48
1
60
0
100
AcDbLine
10
225.003373
20
-1.336723
30
0
11
225.271031
21
-6.431496
31
0
39
0
210
0
220
0
230
1
0
LINE
5
D8
100
AcDbEntity
8
1
62
256
6
ByLayer
370
-1
48
1
60
0
100
AcDbLine
10
224.428022
20
0.470478
30
0
11
224.896876
21
-0.81455
31
0
39
0
210
0
220
0
230
1
0
LINE
5
D9
100
AcDbEntity
8
1
62
256
6
ByLayer
370
-1
48
1
60
0
100
AcDbLine
10
224.234123
20
1.20554
30
0
11
224.355464
21
1.274914
31
0
39
0
210
0
220
0
230
1
0
LINE
5
DA
100
AcDbEntity
8
1
62
256
6
ByLayer
370
-1
48
1
60
0
100
AcDbLine
10
224.230515
20
-11.583745
30
0
11
224.420906
21
-12.218338
31
0
39
0
210
0
220
0
230
1
0
LINE
5
DB
100
AcDbEntity
8
1
62
256
6
ByLayer
370
-1
48
1
60
0
100
AcDbLine
10
224.88846
20
-7.731987
30
0
11
225.548886
21
-7.584755
31
0
39
0
210
0
220
0
230
1
0
LINE
5
DC
100
AcDbEntity
8
1
62
256
6
ByLayer
370
-1
48
1
60
0
100
AcDbLine
10
225.741822
20
-8.573583
30
0
11
225.674486
21
-10.497135
31
0
39
0
210
0
220
0
230
1
0
LINE
5
DD
100
AcDbEntity
8
1
62
256
6
ByLayer
370
-1
48
1
60
0
100
AcDbLine
10
223.748542
20
0.370258
30
0
11
224.217396
21
-0.914769
31
0
39
0
210
0
220
0
230
1
0
LINE
5
DE
100
AcDbEntity
8
1
62
256
6
ByLayer
370
-1
48
1
60
0
100
AcDbLine
10
225.528525
20
-6.564523
30
0
11
225.248628
21
-1.236776
31
0
39
0
210
0
220
0
230
1
0
LINE
5
DF
100
AcDbEntity
8
1
62
256
6
ByLayer
370
-1
48
1
60
0
100
AcDbLine
10
224.998964
20
-1.144292
30
0
11
225.248628
21
-1.236776
31
0
39
0
210
0
220
0
230
1
0
LINE
5
E0
100
AcDbEntity
8
1
62
256
6
ByLayer
370
-1
48
1
60
0
100
AcDbLine
10
223.748542
20
0.370258
30
0
11
224.428022
21
0.470478
31
0
39
0
210
0
220
0
230
1
0
LINE
5
E1
100
AcDbEntity
8
1
62
256
6
ByLayer
370
-1
48
1
60
0
100
AcDbLine
10
224.420906
20
-12.218338
30
0
11
224.183179
21
-12.304652
31
0
39
0
210
0
220
0
230
1
0
LINE
5
E2
100
AcDbEntity
8
1
62
256
6
ByLayer
370
-1
48
1
60
0
100
AcDbLine
10
225.733037
20
-11.352096
30
0
11
225.900049
21
-11.570374
31
0
39
0
210
0
220
0
230
1
0
LINE
5
E3
100
AcDbEntity
8
1
62
256
6
ByLayer
370
-1
48
1
60
0
100
AcDbLine
10
225.019175
20
-8.40192
30
0
11
225.741822
21
-8.573583
31
0
39
0
210
0
220
0
230
1
0
LINE
5
E4
100
AcDbEntity
8
1
62
256
6
ByLayer
370
-1
48
1
60
0
100
AcDbLine
10
224.281276
20
-1.227985
30
0
11
225.003373
21
-1.336723
31
0
39
0
210
0
220
0
230
1
0
LINE
5
E5
100
AcDbEntity
8
1
62
256
6
ByLayer
370
-1
48
1
60
0
100
AcDbLine
10
224.969495
20
-0.999803
30
0
11
225.219159
21
-1.092287
31
0
39
0
210
0
220
0
230
1
0
LINE
5
E6
100
AcDbEntity
8
1
62
256
6
ByLayer
370
-1
48
1
60
0
100
AcDbLine
10
225.20714
20
-12.074168
30
0
11
225.374153
21
-12.292445
31
0
39
0
210
0
220
0
230
1
0
LINE
5
E7
100
AcDbEntity
8
SK1
62
256
6
ByLayer
370
-1
48
1
60
0
100
AcDbLine
10
-2
20
-24.996
30
0
11
-2
21
24.996
31
0
39
0
210
0
220
0
230
1
0
LINE
5
E8
100
AcDbEntity
8
SK1
62
256
6
ByLayer
370
-1
48
1
60
0
100
AcDbLine
10
-0.15
20
24.75
30
0
11
-0.15
21
-24.75
31
0
39
0
210
0
220
0
230
1
0
LINE
5
E9
100
AcDbEntity
8
SK1
62
256
6
ByLayer
370
-1
48
1
60
0
100
AcDbLine
10
-79
20
10.670483
30
0
11
-78.6
21
10.670483
31
0
39
0
210
0
220
0
230
1
0
LINE
5
EA
100
AcDbEntity
8
SK1
62
256
6
ByLayer
370
-1
48
1
60
0
100
AcDbLine
10
-76.6
20
10.670483
30
0
11
-76.6
21
24.996
31
0
39
0
210
0
220
0
230
1
0
LINE
5
EB
100
AcDbEntity
8
SK1
62
256
6
ByLayer
370
-1
48
1
60
0
100
AcDbLine
10
-76.6
20
-24.996
30
0
11
-76.6
21
-10.670483
31
0
39
0
210
0
220
0
230
1
0
LINE
5
EC
100
AcDbEntity
8
SK1
62
256
6
ByLayer
370
-1
48
1
60
0
100
AcDbLine
10
-77.633814
20
-9.806751
30
0
11
-77.633814
21
-24.639667
31
0
39
0
210
0
220
0
230
1
0
LINE
5
ED
100
AcDbEntity
8
SK1
62
256
6
ByLayer
370
-1
48
1
60
0
100
AcDbLine
10
-77.633814
20
24.639667
30
0
11
-77.633814
21
9.806751
31
0
39
0
210
0
220
0
230
1
0
LINE
5
EE
100
AcDbEntity
8
SK1
62
256
6
ByLayer
370
-1
48
1
60
0
100
AcDbLine
10
-78.6
20
-24.996
30
0
11
-78.6
21
-10.670483
31
0
39
0
210
0
220
0
230
1
0
LINE
5
EF
100
AcDbEntity
8
SK1
62
256
6
ByLayer
370
-1
48
1
60
0
100
AcDbLine
10
-78.6
20
10.670483
30
0
11
-78.6
21
24.996
31
0
39
0
210
0
220
0
230
1
0
LINE
5
F0
100
AcDbEntity
8
SK1
62
256
6
ByLayer
370
-1
48
1
60
0
100
AcDbLine
10
-6.5
20
-10.670483
30
0
11
-76.6
21
-10.670483
31
0
39
0
210
0
220
0
230
1
0
LINE
5
F1
100
AcDbEntity
8
SK1
62
256
6
ByLayer
370
-1
48
1
60
0
100
AcDbLine
10
-6.5
20
10.670483
30
0
11
-6.5
21
-10.670483
31
0
39
0
210
0
220
0
230
1
0
LINE
5
F2
100
AcDbEntity
8
SK1
62
256
6
ByLayer
370
-1
48
1
60
0
100
AcDbLine
10
-79
20
-10.670483
30
0
11
-79
21
-24.996
31
0
39
0
210
0
220
0
230
1
0
LINE
5
F3
100
AcDbEntity
8
SK1
62
256
6
ByLayer
370
-1
48
1
60
0
100
AcDbLine
10
-79
20
24.996
30
0
11
-79
21
10.670483
31
0
39
0
210
0
220
0
230
1
0
LINE
5
F4
100
AcDbEntity
8
SK1
62
256
6
ByLayer
370
-1
48
1
60
0
100
AcDbLine
10
-78.516223
20
-10.425829
30
0
11
-78.516223
21
-24.892544
31
0
39
0
210
0
220
0
230
1
0
LINE
5
F5
100
AcDbEntity
8
SK1
62
256
6
ByLayer
370
-1
48
1
60
0
100
AcDbLine
10
-78.516223
20
24.892544
30
0
11
-78.516223
21
10.425829
31
0
39
0
210
0
220
0
230
1
0
LINE
5
F6
100
AcDbEntity
8
SK1
62
256
6
ByLayer
370
-1
48
1
60
0
100
AcDbLine
10
-80
20
8.054018
30
0
11
-80
21
-8.054018
31
0
39
0
210
0
220
0
230
1
0
LINE
5
F7
100
AcDbEntity
8
SK1
62
256
6
ByLayer
370
-1
48
1
60
0
100
AcDbLine
10
-76.6
20
10.670483
30
0
11
-6.5
21
10.670483
31
0
39
0
210
0
220
0
230
1
0
LINE
5
F8
100
AcDbEntity
8
SK1
62
256
6
ByLayer
370
-1
48
1
60
0
100
AcDbLine
10
-1.383773
20
24.75
30
0
11
-1.383773
21
-24.75
31
0
39
0
210
0
220
0
230
1
0
LINE
5
F9
100
AcDbEntity
8
SK1
62
256
6
ByLayer
370
-1
48
1
60
0
100
AcDbLine
10
-80
20
-8.054018
30
0
11
-80
21
-23.996
31
0
39
0
210
0
220
0
230
1
0
LINE
5
FA
100
AcDbEntity
8
SK1
62
256
6
ByLayer
370
-1
48
1
60
0
100
AcDbLine
10
-80
20
23.996
30
0
11
-80
21
8.054018
31
0
39
0
210
0
220
0
230
1
0
LINE
5
FB
100
AcDbEntity
8
SK1
62
256
6
ByLayer
370
-1
48
1
60
0
100
AcDbLine
10
-1.552821
20
24.787477
30
0
11
-1.552821
21
-24.787477
31
0
39
0
210
0
220
0
230
1
0
LINE
5
FC
100
AcDbEntity
8
SK1
62
256
6
ByLayer
370
-1
48
1
60
0
100
AcDbLine
10
-78.6
20
-10.670483
30
0
11
-79
21
-10.670483
31
0
39
0
210
0
220
0
230
1
0
MTEXT
5
28B
100
AcDbEntity
8
SK6
62
256
6
ByLayer
370
-1
48
1
60
0
100
AcDbMText
10
0.79375
20
-80.79375
30
0
210
0
220
0
230
1
1
\W00.751;\fsimplex.shx,bigfont.shx;880-D4700L50-04 
40
3.175
41
0
44
1.084337
50
0
71
7
72
5
7
DEFAULT
0
DIMENSION
5
2BB
100
AcDbEntity
8
SK2
62
256
6
ByLayer
370
-3
48
1
60
0
100
AcDbDimension
2
DimnDraft3D1
10
226
20
-70.11955
30
0
11
73
21
-70.11955
31
0
70
32
71
5
72
1
41
1
210
0
220
0
230
1
3
Standard
100
AcDbAlignedDimension
13
-80
23
-26.5875
33
0
14
226
24
-25.0875
34
0
50
0
100
AcDbRotatedDimension
1001
ACAD
1000
DSTYLE
1002
{
1070
   279
1070
     0
1070
   172
1070
     1
1070
   173
1070
     1
1070
   340
1005
28C
1070
   271
1070
     1
1070
   272
1070
     2
1070
    77
1070
     1
1070
    73
1070
     0
1070
   171
1070
     3
1070
   274
1070
     4
1070
   177
1070
   150
1070
   176
1070
     9
1070
   178
1070
    43
1070
    78
1070
     8
1070
    48
1040
-0.005
1070
    41
1041
4.175
1070
   147
1041
2.25
1070
    42
1041
1.5875
1070
    44
1041
3.175
1070
   140
1041
4.5
1070
   343
1005
0
1070
   344
1005
0
1002
}
0
DIMENSION
5
2C5
100
AcDbEntity
8
SK2
62
256
6
ByLayer
370
-3
48
1
60
0
100
AcDbDimension
2
DimnDraft3D2
10
0
20
-58.1508
30
0
11
-40
21
-58.1508
31
0
70
32
71
5
72
1
41
1
210
0
220
0
230
1
3
Standard
100
AcDbAlignedDimension
13
-80
23
-26.5875
33
0
14
0
24
-32.8375
34
0
50
0
100
AcDbRotatedDimension
1001
ACAD
1000
DSTYLE
1002
{
1070
   279
1070
     0
1070
   172
1070
     1
1070
   173
1070
     1
1070
   340
1005
28C
1070
   271
1070
     1
1070
   272
1070
     2
1070
    77
1070
     1
1070
    73
1070
     0
1070
   171
1070
     3
1070
   274
1070
     4
1070
   177
1070
   150
1070
   176
1070
     9
1070
   178
1070
    43
1070
    78
1070
     8
1070
    48
1040
-0.005
1070
    41
1041
4.175
1070
   147
1041
2.25
1070
    42
1041
1.5875
1070
    44
1041
3.175
1070
   140
1041
4.5
1070
   343
1005
0
1070
   344
1005
0
1002
}
0
DIMENSION
5
2D0
100
AcDbEntity
8
2
62
256
6
ByLayer
370
-3
48
1
60
0
100
AcDbDimension
2
DimnDraft3D3
10
226
20
-58.1508
30
0
11
113
21
-58.1508
31
0
70
32
71
5
72
1
41
1
210
0
220
0
230
1
3
Standard
100
AcDbAlignedDimension
13
0
23
-32.8375
33
0
14
226
24
-25.0875
34
0
50
0
100
AcDbRotatedDimension
1001
ACAD
1000
DSTYLE
1002
{
1070
   279
1070
     0
1070
   172
1070
     1
1070
   173
1070
     1
1070
   340
1005
28C
1070
   271
1070
     1
1070
   272
1070
     2
1070
    77
1070
     1
1070
    73
1070
     0
1070
   171
1070
     3
1070
   274
1070
     4
1070
   177
1070
   150
1070
   176
1070
     9
1070
   178
1070
    43
1070
    78
1070
     8
1070
    48
1040
-0.005
1070
    41
1041
4.175
1070
   147
1041
2.25
1070
    42
1041
1.5875
1070
    44
1041
3.175
1070
   140
1041
4.5
1070
   343
1005
0
1070
   344
1005
0
1002
}
0
DIMENSION
5
2DA
100
AcDbEntity
8
SK2
62
256
6
ByLayer
370
-3
48
1
60
0
100
AcDbDimension
2
DimnDraft3D4
10
226
20
-48.1508
30
0
11
129.5
21
-48.1508
31
0
70
32
71
5
72
1
41
1
210
0
220
0
230
1
3
Standard
100
AcDbAlignedDimension
13
33
23
-11.5875
33
0
14
226
24
-25.0875
34
0
50
0
100
AcDbRotatedDimension
1001
ACAD
1000
DSTYLE
1002
{
1070
   279
1070
     0
1070
   172
1070
     1
1070
   173
1070
     1
1070
   340
1005
28C
1070
   271
1070
     1
1070
   272
1070
     2
1070
    77
1070
     1
1070
    73
1070
     0
1070
   171
1070
     3
1070
   274
1070
     4
1070
   177
1070
   150
1070
   176
1070
     9
1070
   178
1070
    43
1070
    78
1070
     8
1070
    48
1040
-0.005
1070
    41
1041
4.175
1070
   147
1041
2.25
1070
    42
1041
1.5875
1070
    44
1041
3.175
1070
   140
1041
4.5
1070
   343
1005
0
1070
   344
1005
0
1002
}
0
DIMENSION
5
2E5
100
AcDbEntity
8
SK2
62
256
6
ByLayer
370
-3
48
1
60
0
100
AcDbDimension
2
DimnDraft3D5
10
-91.9
20
-25
30
0
11
-92.1
21
4.121053
31
0
70
33
71
5
72
1
41
1
210
0
220
0
230
1
3
Standard
100
AcDbAlignedDimension
13
-81.5875
23
25
33
0
14
-81.5875
24
-25
34
0
1001
ACAD
1000
DSTYLE
1002
{
1070
   279
1070
     0
1070
    74
1070
     0
1070
   173
1070
     1
1070
   340
1005
28C
1070
   271
1070
     2
1070
   272
1070
     2
1070
    77
1070
     1
1070
    73
1070
     0
1070
   171
1070
     3
1070
   274
1070
     4
1070
   177
1070
   150
1070
   176
1070
     9
1070
   178
1070
    43
1070
    78
1070
     8
1070
    48
1040
-0.005
1070
    41
1041
4.175
1070
   147
1041
2.25
1070
    42
1041
1.5875
1070
    44
1041
3.175
1070
   140
1041
4.5
1070
   343
1005
0
1070
   344
1005
0
1002
}
0
DIMENSION
5
2F0
100
AcDbEntity
8
SK2
62
256
6
ByLayer
370
-3
48
1
60
0
100
AcDbDimension
2
DimnDraft3D6
10
-101.9
20
31.25
30
0
11
-102.1
21
1.586842
31
0
70
33
71
5
72
1
41
1
210
0
220
0
230
1
3
Standard
100
AcDbAlignedDimension
13
-1.5875
23
-31.25
33
0
14
-1.5875
24
31.25
34
0
1001
ACAD
1000
DSTYLE
1002
{
1070
   279
1070
     0
1070
    74
1070
     0
1070
   173
1070
     1
1070
   340
1005
28C
1070
   271
1070
     1
1070
   272
1070
     2
1070
    77
1070
     1
1070
    73
1070
     0
1070
   171
1070
     3
1070
   274
1070
     4
1070
   177
1070
   150
1070
   176
1070
     9
1070
   178
1070
    43
1070
    78
1070
     8
1070
    48
1040
-0.005
1070
    41
1041
4.175
1070
   147
1041
2.25
1070
    42
1041
1.5875
1070
    44
1041
3.175
1070
   140
1041
4.5
1070
   343
1005
0
1070
   344
1005
0
1002
}
0
DIMENSION
5
2FB
100
AcDbEntity
8
2
62
256
6
ByLayer
370
-3
48
1
60
0
100
AcDbDimension
2
DimnDraft3D7
10
256.15
20
-23.5
30
0
11
249.6
21
3.884211
31
0
70
33
71
5
72
1
41
1
210
0
220
0
230
1
3
Standard
100
AcDbAlignedDimension
13
227.5875
23
23.5
33
0
14
227.5875
24
-23.5
34
0
1001
ACAD
1000
DSTYLE
1002
{
1070
   279
1070
     0
1070
    74
1070
     0
1070
   173
1070
     1
1070
   340
1005
28C
1070
   271
1070
     2
1070
   272
1070
     2
1070
    77
1070
     1
1070
    73
1070
     0
1070
   171
1070
     3
1070
   274
1070
     4
1070
   177
1070
   150
1070
   176
1070
     9
1070
   178
1070
    43
1070
    78
1070
     8
1070
    48
1040
-0.005
1070
    41
1041
4.175
1070
   147
1041
2.25
1070
    42
1041
1.5875
1070
    44
1041
3.175
1070
   140
1041
4.5
1070
   343
1005
0
1070
   344
1005
0
1002
}
0
ENDSEC
0
SECTION
2
OBJECTS
0
DICTIONARY
5
32c
330
0
100
AcDbDictionary
280
0
281
1
3
ACAD_GROUP
350
32d
3
ACAD_MLINESTYLE
350
32e
0
DICTIONARY
5
32d
330
0
100
AcDbDictionary
280
0
281
1
0
DICTIONARY
5
32e
330
0
100
AcDbDictionary
280
0
281
1
3
Standard
350
18
0
MLINESTYLE
5
18
330
32e
100
AcDbMlineStyle
2
Standard
70
0
3

62
256
51
90
52
90
71
2
49
-0.5
62
256
6
ByLayer
49
0.5
62
256
6
ByLayer
0
RASTERVARIABLES
5
31a
330

100
AcDbRasterVariables
90
0
70
1
71
1
72
1
0
ENDSEC
0
EOF
