0
SECTION
2
HEADER
9
$ACADVER
1
AC1015
9
$DWGCODEPAGE
3
ANSI_1252
9
$HANDSEED
5
338
9
$ANGBASE
50
0
9
$ANGDIR
70
0
9
$ATTMODE
70
1
9
$AUNITS
70
0
9
$AUPREC
70
0
9
$CECOLOR
62
256
9
$CELTSCALE
40
1
9
$CELTYPE
6
ByLayer
9
$CELWEIGHT
370
-1
9
$CLAYER
8
0
9
$CMLJUST
70
0
9
$CMLSCALE
40
1
9
$CMLSTYLE
2
Standard
9
$DIMSTYLE
2
Standard
9
$TEXTSIZE
40
0.2
9
$TEXTSTYLE
7
Standard
9
$LUNITS
70
2
9
$LUPREC
70
4
9
$EXTNAMES
290
1
9
$INSUNITS
70
4
9
$LTSCALE
40
1
9
$LWDISPLAY
290
0
9
$PDMODE
70
0
9
$PDSIZE
40
0
9
$PLINEGEN
70
0
0
ENDSEC
0
SECTION
2
CLASSES
0
CLASS
1
RASTERVARIABLES
2
AcDbRasterVariables
3
ISM
90
0
280
0
281
0
0
ENDSEC
0
SECTION
2
TABLES
0
TABLE
2
VPORT
5
32e
100
AcDbSymbolTable
0
VPORT
5
1
100
AcDbSymbolTableRecord
100
AcDbViewportTableRecord
2
*Active
70
0
10
0
20
0
11
1
21
1
12
-1
22
1
13
0
23
0
14
0.5
24
0.5
15
10
25
10
16
0
26
0
36
1
17
0
27
0
37
0
0
ENDTAB
0
TABLE
2
LTYPE
5
32f
100
AcDbSymbolTable
0
LTYPE
5
14
100
AcDbSymbolTableRecord
100
AcDbLinetypeTableRecord
70
0
2
ByBlock
3

72
65
73
0
40
0
0
LTYPE
5
15
100
AcDbSymbolTableRecord
100
AcDbLinetypeTableRecord
70
0
2
ByLayer
3

72
65
73
0
40
0
0
LTYPE
5
16
100
AcDbSymbolTableRecord
100
AcDbLinetypeTableRecord
70
0
2
CONTINUOUS
3
Solid line
72
65
73
0
40
0
0
LTYPE
5
3B
100
AcDbSymbolTableRecord
100
AcDbLinetypeTableRecord
70
0
2
DASHED
3
__ __ __ __ __ __ __ __ __
72
65
73
2
40
25.72
49
12.86
74
0
49
-12.86
74
0
0
LTYPE
5
3C
100
AcDbSymbolTableRecord
100
AcDbLinetypeTableRecord
70
0
2
HIDDEN
3
_ _ _ _ _ _ _ _ _ _ _ _ _ _ _
72
65
73
2
40
0.5
49
0.25
74
0
49
-0.25
74
0
0
LTYPE
5
3D
100
AcDbSymbolTableRecord
100
AcDbLinetypeTableRecord
70
0
2
PHANTOM
3
____ _ _ ____ _ _ _____ _ _ ____
72
65
73
6
40
50.5
49
18
74
0
49
-6.5
74
0
49
6.5
74
0
49
-6.5
74
0
49
6.5
74
0
49
-6.5
74
0
0
LTYPE
5
3E
100
AcDbSymbolTableRecord
100
AcDbLinetypeTableRecord
70
0
2
CENTER
3
____ _ ____ _ ____ _ ____
72
65
73
4
40
47.5
49
22
74
0
49
-8.5
74
0
49
8.5
74
0
49
-8.5
74
0
0
LTYPE
5
3F
100
AcDbSymbolTableRecord
100
AcDbLinetypeTableRecord
70
0
2
DOT
3
.........................
72
65
73
2
40
10
49
0
74
0
49
-10
74
0
0
LTYPE
5
40
100
AcDbSymbolTableRecord
100
AcDbLinetypeTableRecord
70
0
2
DASHDOT
3
_._._._._._._._._._._._._._._._.
72
65
73
4
40
70
49
31
74
0
49
-13
74
0
49
13
74
0
49
-13
74
0
0
ENDTAB
0
TABLE
2
LAYER
5
330
100
AcDbSymbolTable
0
LAYER
5
10
100
AcDbSymbolTableRecord
100
AcDbLayerTableRecord
2
0
70
0
62
7
6
CONTINUOUS
290
1
370
-3
390
0
0
LAYER
5
42
100
AcDbSymbolTableRecord
100
AcDbLayerTableRecord
2
81
70
0
62
-3
6
CONTINUOUS
290
1
370
-3
390
0
0
LAYER
5
44
100
AcDbSymbolTableRecord
100
AcDbLayerTableRecord
2
80
70
0
62
-6
6
CONTINUOUS
290
1
370
-3
390
0
0
LAYER
5
57
100
AcDbSymbolTableRecord
100
AcDbLayerTableRecord
2
1
70
0
62
4
6
CONTINUOUS
290
1
370
-3
390
0
0
LAYER
5
62
100
AcDbSymbolTableRecord
100
AcDbLayerTableRecord
2
4
70
0
62
-2
6
CENTER
290
1
370
-3
390
0
0
LAYER
5
2C7
100
AcDbSymbolTableRecord
100
AcDbLayerTableRecord
2
2
70
0
62
7
6
CONTINUOUS
290
1
370
-3
390
0
0
LAYER
5
31a
100
AcDbSymbolTableRecord
100
AcDbLayerTableRecord
2
SK1
70
0
62
4
6
CONTINUOUS
290
1
370
-3
390
0
0
LAYER
5
31b
100
AcDbSymbolTableRecord
100
AcDbLayerTableRecord
2
SK4
70
0
62
2
6
CENTER
290
1
370
-3
390
0
0
LAYER
5
31c
100
AcDbSymbolTableRecord
100
AcDbLayerTableRecord
2
SK6
70
0
62
5
6
CONTINUOUS
290
1
370
-3
390
0
0
LAYER
5
31d
100
AcDbSymbolTableRecord
100
AcDbLayerTableRecord
2
SK2
70
0
62
7
6
CONTINUOUS
290
1
370
-3
390
0
0
ENDTAB
0
TABLE
2
STYLE
5
331
100
AcDbSymbolTable
0
STYLE
5
11
100
AcDbSymbolTableRecord
100
AcDbTextStyleTableRecord
2
Standard
3
txt
70
0
71
0
40
0
41
1
42
0
50
0
0
STYLE
5
28B
100
AcDbSymbolTableRecord
100
AcDbTextStyleTableRecord
2
DEFAULT
3
simplex.shx
70
0
71
0
40
0
41
1
42
0
50
0
0
STYLE
5
2AE
100
AcDbSymbolTableRecord
100
AcDbTextStyleTableRecord
2
DWGDirectTextStyle
3
SIMPLEX
70
0
71
0
40
0
41
1
42
0
50
0
0
ENDTAB
0
TABLE
2
DIMSTYLE
5
332
100
AcDbSymbolTable
100
AcDbDimStyleTable
0
DIMSTYLE
105
27
100
AcDbSymbolTableRecord
100
AcDbDimStyleTableRecord
2
Standard
70
0
3
<>
41
0.18
42
0.0625
44
0.18
140
0.18
147
0.09
73
0
74
0
77
1
271
2
275
0
278
52
280
0
340
11
0
ENDTAB
0
TABLE
2
VIEW
5
333
100
AcDbSymbolTable
0
ENDTAB
0
TABLE
2
UCS
5
334
100
AcDbSymbolTable
0
ENDTAB
0
TABLE
2
APPID
5
335
100
AcDbSymbolTable
0
APPID
5
12
100
AcDbSymbolTableRecord
100
AcDbRegAppTableRecord
2
ACAD
70
0
0
ENDTAB
0
TABLE
2
BLOCK_RECORD
5
336
100
AcDbSymbolTable
0
BLOCK_RECORD
5
1F
100
AcDbSymbolTableRecord
100
AcDbBlockTableRecord
2
*Model_Space
340
0
70
0
0
BLOCK_RECORD
5
1B
100
AcDbSymbolTableRecord
100
AcDbBlockTableRecord
2
*Paper_Space
340
0
70
0
0
BLOCK_RECORD
5
23
100
AcDbSymbolTableRecord
100
AcDbBlockTableRecord
2
*Paper_Space0
340
0
70
0
0
BLOCK_RECORD
5
2B0
100
AcDbSymbolTableRecord
100
AcDbBlockTableRecord
2
DimnDraft3D1
340
0
70
0
0
BLOCK_RECORD
5
2BB
100
AcDbSymbolTableRecord
100
AcDbBlockTableRecord
2
DimnDraft3D2
340
0
70
0
0
BLOCK_RECORD
5
2C5
100
AcDbSymbolTableRecord
100
AcDbBlockTableRecord
2
DimnDraft3D3
340
0
70
0
0
BLOCK_RECORD
5
2D0
100
AcDbSymbolTableRecord
100
AcDbBlockTableRecord
2
DimnDraft3D4
340
0
70
0
0
BLOCK_RECORD
5
2DA
100
AcDbSymbolTableRecord
100
AcDbBlockTableRecord
2
DimnDraft3D5
340
0
70
0
0
BLOCK_RECORD
5
2E5
100
AcDbSymbolTableRecord
100
AcDbBlockTableRecord
2
DimnDraft3D6
340
0
70
0
0
BLOCK_RECORD
5
2F0
100
AcDbSymbolTableRecord
100
AcDbBlockTableRecord
2
DimnDraft3D7
340
0
70
0
0
ENDTAB
0
ENDSEC
0
SECTION
2
BLOCKS
0
BLOCK
5
20
100
AcDbEntity
8
0
100
AcDbBlockBegin
2
*Model_Space
70
0
10
0
20
0
30
0
3
*Model_Space
0
ENDBLK
5
21
100
AcDbEntity
8
0
100
AcDbBlockEnd
0
BLOCK
5
1C
100
AcDbEntity
8
0
100
AcDbBlockBegin
2
*Paper_Space
70
0
10
0
20
0
30
0
3
*Paper_Space
0
ENDBLK
5
1D
100
AcDbEntity
8
0
100
AcDbBlockEnd
0
BLOCK
5
24
100
AcDbEntity
8
0
100
AcDbBlockBegin
2
*Paper_Space0
70
0
10
0
20
0
30
0
3
*Paper_Space0
0
ENDBLK
5
25
100
AcDbEntity
8
0
100
AcDbBlockEnd
0
BLOCK
5
2B8
100
AcDbEntity
8
0
100
AcDbBlockBegin
2
DimnDraft3D1
70
0
10
0
20
0
30
0
3
DimnDraft3D1
0
MTEXT
5
2B1
100
AcDbEntity
8
SK2
62
256
6
ByLayer
370
-1
48
1
60
0
100
AcDbMText
10
63.344079
20
-67.0258
30
0
210
0
220
0
230
1
1
\W01.000;\fsimplex.shx,bigfont.shx;(302) 
40
4.5
41
0
44
1.084337
50
0
71
7
72
5
7
DEFAULT
0
LINE
5
2B3
100
AcDbEntity
8
SK2
62
256
6
ByLayer
370
-1
48
1
60
0
100
AcDbLine
10
-80
20
-26.5875
30
0
11
-80
21
-73.29455
31
0
39
0
210
0
220
0
230
1
0
LINE
5
2B4
100
AcDbEntity
8
SK2
62
256
6
ByLayer
370
-1
48
1
60
0
100
AcDbLine
10
222
20
-24.5875
30
0
11
222
21
-73.29455
31
0
39
0
210
0
220
0
230
1
0
LINE
5
2B5
100
AcDbEntity
8
SK2
62
256
6
ByLayer
370
-1
48
1
60
0
100
AcDbLine
10
-80
20
-70.11955
30
0
11
222
21
-70.11955
31
0
39
0
210
0
220
0
230
1
0
SOLID
5
2B6
100
AcDbEntity
8
SK2
62
256
6
ByLayer
370
-1
48
1
60
0
100
AcDbTrace
10
-80
20
-70.11955
30
0
11
-75.825003
21
-69.193975
31
0
12
-75.824997
22
-71.045125
32
0
13
-80
23
-70.11955
33
0
39
0
210
0
220
0
230
1
0
SOLID
5
2B7
100
AcDbEntity
8
SK2
62
256
6
ByLayer
370
-1
48
1
60
0
100
AcDbTrace
10
222
20
-70.11955
30
0
11
217.825003
21
-71.045125
31
0
12
217.824997
22
-69.193975
32
0
13
222
23
-70.11955
33
0
39
0
210
0
220
0
230
1
0
ENDBLK
5
2B9
100
AcDbEntity
8
0
100
AcDbBlockEnd
0
BLOCK
5
2C2
100
AcDbEntity
8
0
100
AcDbBlockBegin
2
DimnDraft3D2
70
0
10
0
20
0
30
0
3
DimnDraft3D2
0
MTEXT
5
2BC
100
AcDbEntity
8
SK2
62
256
6
ByLayer
370
-1
48
1
60
0
100
AcDbMText
10
-41.503947
20
-57.0258
30
0
210
0
220
0
230
1
1
\W01.000;\fsimplex.shx,bigfont.shx;80 
40
4.5
41
0
44
1.084337
50
0
71
7
72
5
7
DEFAULT
0
LINE
5
2BD
100
AcDbEntity
8
SK2
62
256
6
ByLayer
370
-1
48
1
60
0
100
AcDbLine
10
-80
20
-26.5875
30
0
11
-80
21
-61.3258
31
0
39
0
210
0
220
0
230
1
0
LINE
5
2BE
100
AcDbEntity
8
SK2
62
256
6
ByLayer
370
-1
48
1
60
0
100
AcDbLine
10
0
20
-32.8375
30
0
11
0
21
-61.3258
31
0
39
0
210
0
220
0
230
1
0
LINE
5
2BF
100
AcDbEntity
8
SK2
62
256
6
ByLayer
370
-1
48
1
60
0
100
AcDbLine
10
-80
20
-58.1508
30
0
11
0
21
-58.1508
31
0
39
0
210
0
220
0
230
1
0
SOLID
5
2C0
100
AcDbEntity
8
SK2
62
256
6
ByLayer
370
-1
48
1
60
0
100
AcDbTrace
10
-80
20
-58.1508
30
0
11
-75.825003
21
-57.225225
31
0
12
-75.824997
22
-59.076375
32
0
13
-80
23
-58.1508
33
0
39
0
210
0
220
0
230
1
0
SOLID
5
2C1
100
AcDbEntity
8
SK2
62
256
6
ByLayer
370
-1
48
1
60
0
100
AcDbTrace
10
0
20
-58.1508
30
0
11
-4.174997
21
-59.076375
31
0
12
-4.175003
22
-57.225225
32
0
13
0
23
-58.1508
33
0
39
0
210
0
220
0
230
1
0
ENDBLK
5
2C3
100
AcDbEntity
8
0
100
AcDbBlockEnd
0
BLOCK
5
2CD
100
AcDbEntity
8
0
100
AcDbBlockBegin
2
DimnDraft3D3
70
0
10
0
20
0
30
0
3
DimnDraft3D3
0
MTEXT
5
2C6
100
AcDbEntity
8
2
62
256
6
ByLayer
370
-1
48
1
60
0
100
AcDbMText
10
107.844079
20
-57.0258
30
0
210
0
220
0
230
1
1
\W01.000;\fsimplex.shx,bigfont.shx;222 
40
4.5
41
0
44
1.084337
50
0
71
7
72
5
7
DEFAULT
0
LINE
5
2C8
100
AcDbEntity
8
2
62
256
6
ByLayer
370
-1
48
1
60
0
100
AcDbLine
10
0
20
-32.8375
30
0
11
0
21
-61.3258
31
0
39
0
210
0
220
0
230
1
0
LINE
5
2C9
100
AcDbEntity
8
2
62
256
6
ByLayer
370
-1
48
1
60
0
100
AcDbLine
10
222
20
-24.5875
30
0
11
222
21
-61.3258
31
0
39
0
210
0
220
0
230
1
0
LINE
5
2CA
100
AcDbEntity
8
2
62
256
6
ByLayer
370
-1
48
1
60
0
100
AcDbLine
10
0
20
-58.1508
30
0
11
222
21
-58.1508
31
0
39
0
210
0
220
0
230
1
0
SOLID
5
2CB
100
AcDbEntity
8
2
62
256
6
ByLayer
370
-1
48
1
60
0
100
AcDbTrace
10
0
20
-58.1508
30
0
11
4.174997
21
-57.225225
31
0
12
4.175003
22
-59.076375
32
0
13
0
23
-58.1508
33
0
39
0
210
0
220
0
230
1
0
SOLID
5
2CC
100
AcDbEntity
8
2
62
256
6
ByLayer
370
-1
48
1
60
0
100
AcDbTrace
10
222
20
-58.1508
30
0
11
217.825003
21
-59.076375
31
0
12
217.824997
22
-57.225225
32
0
13
222
23
-58.1508
33
0
39
0
210
0
220
0
230
1
0
ENDBLK
5
2CE
100
AcDbEntity
8
0
100
AcDbBlockEnd
0
BLOCK
5
2D7
100
AcDbEntity
8
0
100
AcDbBlockBegin
2
DimnDraft3D4
70
0
10
0
20
0
30
0
3
DimnDraft3D4
0
MTEXT
5
2D1
100
AcDbEntity
8
SK2
62
256
6
ByLayer
370
-1
48
1
60
0
100
AcDbMText
10
124.906579
20
-47.0258
30
0
210
0
220
0
230
1
1
\W01.000;\fsimplex.shx,bigfont.shx;189 
40
4.5
41
0
44
1.084337
50
0
71
7
72
5
7
DEFAULT
0
LINE
5
2D2
100
AcDbEntity
8
SK2
62
256
6
ByLayer
370
-1
48
1
60
0
100
AcDbLine
10
33
20
-11.5875
30
0
11
33
21
-51.3258
31
0
39
0
210
0
220
0
230
1
0
LINE
5
2D3
100
AcDbEntity
8
SK2
62
256
6
ByLayer
370
-1
48
1
60
0
100
AcDbLine
10
222
20
-24.5875
30
0
11
222
21
-51.3258
31
0
39
0
210
0
220
0
230
1
0
LINE
5
2D4
100
AcDbEntity
8
SK2
62
256
6
ByLayer
370
-1
48
1
60
0
100
AcDbLine
10
33
20
-48.1508
30
0
11
222
21
-48.1508
31
0
39
0
210
0
220
0
230
1
0
SOLID
5
2D5
100
AcDbEntity
8
SK2
62
256
6
ByLayer
370
-1
48
1
60
0
100
AcDbTrace
10
33
20
-48.1508
30
0
11
37.174997
21
-47.225225
31
0
12
37.175003
22
-49.076375
32
0
13
33
23
-48.1508
33
0
39
0
210
0
220
0
230
1
0
SOLID
5
2D6
100
AcDbEntity
8
SK2
62
256
6
ByLayer
370
-1
48
1
60
0
100
AcDbTrace
10
222
20
-48.1508
30
0
11
217.825003
21
-49.076375
31
0
12
217.824997
22
-47.225225
32
0
13
222
23
-48.1508
33
0
39
0
210
0
220
0
230
1
0
ENDBLK
5
2D8
100
AcDbEntity
8
0
100
AcDbBlockEnd
0
BLOCK
5
2E2
100
AcDbEntity
8
0
100
AcDbBlockBegin
2
DimnDraft3D5
70
0
10
0
20
0
30
0
3
DimnDraft3D5
0
MTEXT
5
2DB
100
AcDbEntity
8
SK2
62
256
6
ByLayer
370
-1
48
1
60
0
100
AcDbMText
10
-90.975
20
5.246053
30
0
210
0
220
0
230
1
1
\W01.000;\fsimplex.shx,bigfont.shx;50 
40
4.5
41
0
44
1.084337
50
90
71
7
72
5
7
DEFAULT
0
MTEXT
5
2DC
100
AcDbEntity
8
SK2
62
256
6
ByLayer
370
-1
48
1
60
0
100
AcDbMText
10
-90.975
20
-8.253947
30
0
210
0
220
0
230
1
1
\W01.000;\fsimplex.shx,bigfont.shx;%%c 
40
4.5
41
0
44
1.084337
50
90
71
7
72
5
7
DEFAULT
0
LINE
5
2DD
100
AcDbEntity
8
SK2
62
256
6
ByLayer
370
-1
48
1
60
0
100
AcDbLine
10
-81.5875
20
25
30
0
11
-91.9
21
25
31
0
39
0
210
0
220
0
230
1
0
LINE
5
2DE
100
AcDbEntity
8
SK2
62
256
6
ByLayer
370
-1
48
1
60
0
100
AcDbLine
10
-81.5875
20
-25
30
0
11
-91.9
21
-25
31
0
39
0
210
0
220
0
230
1
0
LINE
5
2DF
100
AcDbEntity
8
SK2
62
256
6
ByLayer
370
-1
48
1
60
0
100
AcDbLine
10
-88.725
20
25
30
0
11
-88.725
21
-25
31
0
39
0
210
0
220
0
230
1
0
SOLID
5
2E0
100
AcDbEntity
8
SK2
62
256
6
ByLayer
370
-1
48
1
60
0
100
AcDbTrace
10
-88.725
20
25
30
0
11
-87.799425
21
20.825003
31
0
12
-89.650575
22
20.824997
32
0
13
-88.725
23
25
33
0
39
0
210
0
220
0
230
1
0
SOLID
5
2E1
100
AcDbEntity
8
SK2
62
256
6
ByLayer
370
-1
48
1
60
0
100
AcDbTrace
10
-88.725
20
-25
30
0
11
-89.650575
21
-20.825003
31
0
12
-87.799425
22
-20.824997
32
0
13
-88.725
23
-25
33
0
39
0
210
0
220
0
230
1
0
ENDBLK
5
2E3
100
AcDbEntity
8
0
100
AcDbBlockEnd
0
BLOCK
5
2ED
100
AcDbEntity
8
0
100
AcDbBlockBegin
2
DimnDraft3D6
70
0
10
0
20
0
30
0
3
DimnDraft3D6
0
MTEXT
5
2E6
100
AcDbEntity
8
SK2
62
256
6
ByLayer
370
-1
48
1
60
0
100
AcDbMText
10
-100.975
20
2.711842
30
0
210
0
220
0
230
1
1
\W01.000;\fsimplex.shx,bigfont.shx;62.5 
40
4.5
41
0
44
1.084337
50
90
71
7
72
5
7
DEFAULT
0
MTEXT
5
2E7
100
AcDbEntity
8
SK2
62
256
6
ByLayer
370
-1
48
1
60
0
100
AcDbMText
10
-100.975
20
-10.788158
30
0
210
0
220
0
230
1
1
\W01.000;\fsimplex.shx,bigfont.shx;%%c 
40
4.5
41
0
44
1.084337
50
90
71
7
72
5
7
DEFAULT
0
LINE
5
2E8
100
AcDbEntity
8
SK2
62
256
6
ByLayer
370
-1
48
1
60
0
100
AcDbLine
10
-1.5875
20
-31.25
30
0
11
-101.9
21
-31.25
31
0
39
0
210
0
220
0
230
1
0
LINE
5
2E9
100
AcDbEntity
8
SK2
62
256
6
ByLayer
370
-1
48
1
60
0
100
AcDbLine
10
-1.5875
20
31.25
30
0
11
-101.9
21
31.25
31
0
39
0
210
0
220
0
230
1
0
LINE
5
2EA
100
AcDbEntity
8
SK2
62
256
6
ByLayer
370
-1
48
1
60
0
100
AcDbLine
10
-98.725
20
-31.25
30
0
11
-98.725
21
31.25
31
0
39
0
210
0
220
0
230
1
0
SOLID
5
2EB
100
AcDbEntity
8
SK2
62
256
6
ByLayer
370
-1
48
1
60
0
100
AcDbTrace
10
-98.725
20
-31.25
30
0
11
-99.650575
21
-27.075003
31
0
12
-97.799425
22
-27.074997
32
0
13
-98.725
23
-31.25
33
0
39
0
210
0
220
0
230
1
0
SOLID
5
2EC
100
AcDbEntity
8
SK2
62
256
6
ByLayer
370
-1
48
1
60
0
100
AcDbTrace
10
-98.725
20
31.25
30
0
11
-97.799425
21
27.075003
31
0
12
-99.650575
22
27.074997
32
0
13
-98.725
23
31.25
33
0
39
0
210
0
220
0
230
1
0
ENDBLK
5
2EE
100
AcDbEntity
8
0
100
AcDbBlockEnd
0
BLOCK
5
2F8
100
AcDbEntity
8
0
100
AcDbBlockBegin
2
DimnDraft3D7
70
0
10
0
20
0
30
0
3
DimnDraft3D7
0
MTEXT
5
2F1
100
AcDbEntity
8
2
62
256
6
ByLayer
370
-1
48
1
60
0
100
AcDbMText
10
246.725
20
5.009211
30
0
210
0
220
0
230
1
1
\W01.000;\fsimplex.shx,bigfont.shx;46 
40
4.5
41
0
44
1.084337
50
90
71
7
72
5
7
DEFAULT
0
MTEXT
5
2F2
100
AcDbEntity
8
2
62
256
6
ByLayer
370
-1
48
1
60
0
100
AcDbMText
10
246.725
20
-8.490789
30
0
210
0
220
0
230
1
1
\W01.000;\fsimplex.shx,bigfont.shx;%%c 
40
4.5
41
0
44
1.084337
50
90
71
7
72
5
7
DEFAULT
0
LINE
5
2F3
100
AcDbEntity
8
2
62
256
6
ByLayer
370
-1
48
1
60
0
100
AcDbLine
10
223.5875
20
23
30
0
11
252.15
21
23
31
0
39
0
210
0
220
0
230
1
0
LINE
5
2F4
100
AcDbEntity
8
2
62
256
6
ByLayer
370
-1
48
1
60
0
100
AcDbLine
10
223.5875
20
-23
30
0
11
252.15
21
-23
31
0
39
0
210
0
220
0
230
1
0
LINE
5
2F5
100
AcDbEntity
8
2
62
256
6
ByLayer
370
-1
48
1
60
0
100
AcDbLine
10
248.975
20
23
30
0
11
248.975
21
-23
31
0
39
0
210
0
220
0
230
1
0
SOLID
5
2F6
100
AcDbEntity
8
2
62
256
6
ByLayer
370
-1
48
1
60
0
100
AcDbTrace
10
248.975
20
23
30
0
11
249.900575
21
18.825003
31
0
12
248.049425
22
18.824997
32
0
13
248.975
23
23
33
0
39
0
210
0
220
0
230
1
0
SOLID
5
2F7
100
AcDbEntity
8
2
62
256
6
ByLayer
370
-1
48
1
60
0
100
AcDbTrace
10
248.975
20
-23
30
0
11
248.049425
21
-18.825003
31
0
12
249.900575
22
-18.824997
32
0
13
248.975
23
-23
33
0
39
0
210
0
220
0
230
1
0
ENDBLK
5
2F9
100
AcDbEntity
8
0
100
AcDbBlockEnd
0
ENDSEC
0
SECTION
2
ENTITIES
0
ARC
5
FB
100
AcDbEntity
8
SK1
62
256
6
ByLayer
370
-1
48
1
60
0
100
AcDbCircle
39
0
10
1.383773
20
25.15
30
0
40
0.4
210
0
220
0
230
-1
100
AcDbArc
50
270
51
295
0
ARC
5
FC
100
AcDbEntity
8
SK1
62
256
6
ByLayer
370
-1
48
1
60
0
100
AcDbCircle
39
0
10
1.383773
20
-25.15
30
0
40
0.4
210
0
220
0
230
-1
100
AcDbArc
50
65
51
90
0
ARC
5
FD
100
AcDbEntity
8
SK1
62
256
6
ByLayer
370
-1
48
1
60
0
100
AcDbCircle
39
0
10
0.15
20
25.15
30
0
40
0.4
210
0
220
0
230
-1
100
AcDbArc
50
247.975687
51
270
0
ARC
5
FE
100
AcDbEntity
8
SK1
62
256
6
ByLayer
370
-1
48
1
60
0
100
AcDbCircle
39
0
10
0.15
20
-25.15
30
0
40
0.4
210
0
220
0
230
-1
100
AcDbArc
50
90
51
112.024313
0
ARC
5
FF
100
AcDbEntity
8
SK1
62
256
6
ByLayer
370
-1
48
1
60
0
100
AcDbCircle
39
0
10
77.894506
20
25.396
30
0
40
0.8
210
0
220
0
230
-1
100
AcDbArc
50
250.982048
51
321
0
ARC
5
100
100
AcDbEntity
8
SK1
62
256
6
ByLayer
370
-1
48
1
60
0
100
AcDbCircle
39
0
10
77.894506
20
-25.396
30
0
40
0.8
210
0
220
0
230
-1
100
AcDbArc
50
39
51
109.017952
0
ELLIPSE
5
101
100
AcDbEntity
8
1
62
256
6
ByLayer
370
-1
48
1
60
0
100
AcDbEllipse
10
181.079126
20
15.913625
30
0
11
-29.6563372770341
21
12.7249283404684
31
0
210
0
220
0
230
-1
40
0.010584
41
2.12209571459089
42
2.22707911720464
0
ELLIPSE
5
102
100
AcDbEntity
8
1
62
256
6
ByLayer
370
-1
48
1
60
0
100
AcDbEllipse
10
213.820748
20
-5.036169
30
0
11
-2
21
2.02127811016473E-15
31
0
210
0
220
0
230
1
40
0.997564
41
-2.25595810801175
42
-0.885732702026401
0
ELLIPSE
5
103
100
AcDbEntity
8
1
62
256
6
ByLayer
370
-1
48
1
60
0
100
AcDbEllipse
10
214.211109
20
14.828851
30
0
11
2.63577002021162E-15
21
2.25
31
0
210
0
220
0
230
1
40
0.996195
41
0.0349501263397854
42
1.57079643761665
0
ELLIPSE
5
104
100
AcDbEntity
8
1
62
256
6
ByLayer
370
-1
48
1
60
0
100
AcDbEllipse
10
214.211109
20
14.828851
30
0
11
2.63577002021162E-15
21
2.25
31
0
210
0
220
0
230
1
40
0.996195
41
1.87572723107153
42
-1.57079614170616
0
ELLIPSE
5
105
100
AcDbEntity
8
1
62
256
6
ByLayer
370
-1
48
1
60
0
100
AcDbEllipse
10
214.211109
20
14.828851
30
0
11
2.63577002021162E-15
21
2.25
31
0
210
0
220
0
230
1
40
0.996195
41
1.57079643761666
42
1.87572723107153
0
ELLIPSE
5
106
100
AcDbEntity
8
1
62
256
6
ByLayer
370
-1
48
1
60
0
100
AcDbEllipse
10
178.698521
20
16.137321
30
0
11
-0.926181503666313
21
-9.85658093977148
31
0
210
0
220
0
230
1
40
0.170531
41
1.40697756692526
42
1.52544127315074
0
ELLIPSE
5
107
100
AcDbEntity
8
1
62
256
6
ByLayer
370
-1
48
1
60
0
100
AcDbEllipse
10
207.749181
20
8.69347
30
0
11
2.46005201886418E-15
21
2.1
31
0
210
0
220
0
230
1
40
0.996195
41
1.60570291183478
42
1.94456523429143
0
ELLIPSE
5
108
100
AcDbEntity
8
1
62
256
6
ByLayer
370
-1
48
1
60
0
100
AcDbEllipse
10
211.497113
20
-0.000143
30
0
11
-254.890986769912
21
4.06986886256006E-06
31
0
210
0
220
0
230
-1
40
0.087489
41
1.53789828508119
42
1.54786619372358
0
ELLIPSE
5
109
100
AcDbEntity
8
1
62
256
6
ByLayer
370
-1
48
1
60
0
100
AcDbEllipse
10
208.106519
20
8.69347
30
0
11
-2.25092568282431E-15
21
-2.1
31
0
210
0
220
0
230
1
40
0.996195
41
-1.53588974175501
42
-0.158767832418391
0
ELLIPSE
5
10A
100
AcDbEntity
8
1
62
256
6
ByLayer
370
-1
48
1
60
0
100
AcDbEllipse
10
206.349186
20
0
30
0
11
-132.789821148716
21
1.60047670729133
31
0
210
0
220
0
230
-1
40
0.167501
41
-1.5412856712124
42
-1.44842798747366
0
ELLIPSE
5
10B
100
AcDbEntity
8
1
62
256
6
ByLayer
370
-1
48
1
60
0
100
AcDbEllipse
10
214.620741
20
14.828851
30
0
11
2.34290668463255E-15
21
2
31
0
210
0
220
0
230
1
40
0.996195
41
0.102985300926076
42
1.57079604872776
0
ELLIPSE
5
10C
100
AcDbEntity
8
1
62
256
6
ByLayer
370
-1
48
1
60
0
100
AcDbEllipse
10
214.620741
20
14.828851
30
0
11
2.34290668463255E-15
21
2
31
0
210
0
220
0
230
1
40
0.996195
41
1.57079654872776
42
3.03860729631731
0
ELLIPSE
5
10D
100
AcDbEntity
8
1
62
256
6
ByLayer
370
-1
48
1
60
0
100
AcDbEllipse
10
200.84876
20
7.1408
30
0
11
-16.8152686877869
21
-0.528996858891154
31
0
210
0
220
0
230
-1
40
0.010629
41
-1.89596294001881
42
-1.88743389439556
0
ELLIPSE
5
10E
100
AcDbEntity
8
1
62
256
6
ByLayer
370
-1
48
1
60
0
100
AcDbEllipse
10
206.107625
20
7.93519
30
0
11
0.0280261150489101
21
-0.799508934831416
31
0
210
0
220
0
230
1
40
0.087103
41
0.0631311649911155
42
0.611859362791677
0
ELLIPSE
5
10F
100
AcDbEntity
8
1
62
256
6
ByLayer
370
-1
48
1
60
0
100
AcDbEllipse
10
213.820748
20
-4.464166
30
0
11
-1.65
21
1.6675544408859E-15
31
0
210
0
220
0
230
1
40
0.997564
41
0
42
6.28318530717959
0
ELLIPSE
5
110
100
AcDbEntity
8
1
62
256
6
ByLayer
370
-1
48
1
60
0
100
AcDbEllipse
10
205.579171
20
23.125931
30
0
11
-1.71499099643757E-14
21
-16
31
0
210
0
220
0
230
1
40
0.996195
41
-0.401425727958705
42
-1.63553315728478E-08
0
ELLIPSE
5
111
100
AcDbEntity
8
1
62
256
6
ByLayer
370
-1
48
1
60
0
100
AcDbEllipse
10
213.820748
20
-4.54744
30
0
11
-1.65
21
1.6675544408859E-15
31
0
210
0
220
0
230
1
40
0.997564
41
-3.11636194851898
42
-0.0253295671303
0
ELLIPSE
5
112
100
AcDbEntity
8
1
62
256
6
ByLayer
370
-1
48
1
60
0
100
AcDbEllipse
10
207.584039
20
13.440576
30
0
11
2.46005201886418E-15
21
2.1
31
0
210
0
220
0
230
1
40
0.996195
41
0.939115740685899
42
1.60570291183477
0
ELLIPSE
5
113
100
AcDbEntity
8
1
62
256
6
ByLayer
370
-1
48
1
60
0
100
AcDbEllipse
10
213.820748
20
-4.464166
30
0
11
2.1
21
0
31
0
210
0
220
0
230
1
40
0.997564
41
0.0682313046489033
42
2.95250780545936
0
ELLIPSE
5
114
100
AcDbEntity
8
1
62
256
6
ByLayer
370
-1
48
1
60
0
100
AcDbEllipse
10
214.211109
20
14.828851
30
0
11
2.34290668463255E-15
21
2
31
0
210
0
220
0
230
1
40
0.996195
41
0
42
6.28318530717959
0
ELLIPSE
5
115
100
AcDbEntity
8
1
62
256
6
ByLayer
370
-1
48
1
60
0
100
AcDbEllipse
10
199.662658
20
9.134257
30
0
11
-0.313595748497264
21
-0.735973984950855
31
0
210
0
220
0
230
1
40
0.080227
41
0.0341712377311708
42
1.60496756452651
0
ELLIPSE
5
116
100
AcDbEntity
8
1
62
256
6
ByLayer
370
-1
48
1
60
0
100
AcDbEllipse
10
207.941377
20
13.440576
30
0
11
-2.25092568282431E-15
21
-2.1
31
0
210
0
220
0
230
1
40
0.996195
41
-2.12048111657724
42
-1.53588974175502
0
ELLIPSE
5
117
100
AcDbEntity
8
1
62
256
6
ByLayer
370
-1
48
1
60
0
100
AcDbEllipse
10
200.375504
20
14.100426
30
0
11
-0.926181503666313
21
-9.85658093977148
31
0
210
0
220
0
230
1
40
0.170531
41
0.179274109124676
42
0.862434055867995
0
ELLIPSE
5
118
100
AcDbEntity
8
1
62
256
6
ByLayer
370
-1
48
1
60
0
100
AcDbEllipse
10
200.375504
20
14.100426
30
0
11
-0.926181503666313
21
-9.85658093977148
31
0
210
0
220
0
230
1
40
0.170531
41
1.41224928788869
42
1.5868190450424
0
ELLIPSE
5
119
100
AcDbEntity
8
1
62
256
6
ByLayer
370
-1
48
1
60
0
100
AcDbEllipse
10
206.812255
20
8.648101
30
0
11
-0.799516360141551
21
-0.0278134835287853
31
0
210
0
220
0
230
1
40
0.003042
41
0.087213571465873
42
0.974050329556216
0
ELLIPSE
5
11A
100
AcDbEntity
8
1
62
256
6
ByLayer
370
-1
48
1
60
0
100
AcDbEllipse
10
220.193412
20
8.122373
30
0
11
-0.00689872744591464
21
-0.800731734557439
31
0
210
0
220
0
230
-1
40
0.122446
41
-0.893029996180403
42
0.000805449012886155
0
ELLIPSE
5
11B
100
AcDbEntity
8
1
62
256
6
ByLayer
370
-1
48
1
60
0
100
AcDbEllipse
10
220.226059
20
0
30
0
11
-1.37649109526185
21
22.2994029121354
31
0
210
0
220
0
230
-1
40
0.118552
41
-2.03475600847772
42
-1.47943927885638
0
ELLIPSE
5
11C
100
AcDbEntity
8
1
62
256
6
ByLayer
370
-1
48
1
60
0
100
AcDbEllipse
10
187.744111
20
11.670882
30
0
11
-8.98531848838055
21
3.92795732835606
31
0
210
0
220
0
230
1
40
0.267282
41
1.58510022692611
42
1.65181119651351
0
ELLIPSE
5
11D
100
AcDbEntity
8
1
62
256
6
ByLayer
370
-1
48
1
60
0
100
AcDbEllipse
10
219.017386
20
-15.628176
30
0
11
-0.245997648340334
21
-3.09262022258827
31
0
210
0
220
0
230
-1
40
0.122325
41
1.30096286555318
42
-0.0316404741363404
0
ELLIPSE
5
11E
100
AcDbEntity
8
1
62
256
6
ByLayer
370
-1
48
1
60
0
100
AcDbEllipse
10
220.310232
20
-11.592058
30
0
11
-0.0766931515660616
21
-0.877709776629655
31
0
210
0
220
0
230
-1
40
0.115977
41
0.0117126501981965
42
1.58250897699148
0
ELLIPSE
5
11F
100
AcDbEntity
8
1
62
256
6
ByLayer
370
-1
48
1
60
0
100
AcDbEllipse
10
206.681359
20
15.527776
30
0
11
-0.773306913812906
21
-0.824449269653745
31
0
210
0
220
0
230
-1
40
0.04503
41
-0.757084595531553
42
-0.704869709645115
0
ELLIPSE
5
120
100
AcDbEntity
8
1
62
256
6
ByLayer
370
-1
48
1
60
0
100
AcDbEllipse
10
218.974354
20
0
30
0
11
-53.2504077279284
21
21.5974612733206
31
0
210
0
220
0
230
-1
40
0.104287
41
-1.19808808753331
42
-0.495533977362452
0
ELLIPSE
5
121
100
AcDbEntity
8
1
62
256
6
ByLayer
370
-1
48
1
60
0
100
AcDbEllipse
10
221.827588
20
0
30
0
11
-1.80890838280886
21
-22.2988147218419
31
0
210
0
220
0
230
-1
40
0.127103
41
0.732629206801011
42
1.08920842089575
0
ELLIPSE
5
122
100
AcDbEntity
8
1
62
256
6
ByLayer
370
-1
48
1
60
0
100
AcDbEllipse
10
208.951737
20
7.912673
30
0
11
-10.5937946660971
21
0.557289705796726
31
0
210
0
220
0
230
-1
40
0.000372
41
-3.13558591587666
42
-3.13452318490968
0
ELLIPSE
5
123
100
AcDbEntity
8
1
62
256
6
ByLayer
370
-1
48
1
60
0
100
AcDbEllipse
10
178.370627
20
16.163804
30
0
11
-24.0984108824871
21
11.927628153439
31
0
210
0
220
0
230
-1
40
0.100046
41
-2.57748206391192
42
-2.00494922871328
0
ELLIPSE
5
124
100
AcDbEntity
8
1
62
256
6
ByLayer
370
-1
48
1
60
0
100
AcDbEllipse
10
87.275236
20
24.727983
30
0
11
-116.379037986472
21
10.8548772947469
31
0
210
0
220
0
230
-1
40
0.084696
41
-2.97492252003877
42
-2.76809246072886
0
ELLIPSE
5
125
100
AcDbEntity
8
1
62
256
6
ByLayer
370
-1
48
1
60
0
100
AcDbEllipse
10
17.3
20
7.533823
30
0
11
-11
21
1.1117029605906E-14
31
0
210
0
220
0
230
1
40
0.812471
41
-1.73360662827699
42
-0.163883114298888
0
ELLIPSE
5
126
100
AcDbEntity
8
1
62
256
6
ByLayer
370
-1
48
1
60
0
100
AcDbEllipse
10
221.827588
20
0
30
0
11
-1.80890838254269
21
-22.2988147202336
31
0
210
0
220
0
230
-1
40
0.127103
41
0.0464979342384516
42
0.564177161930885
0
ELLIPSE
5
127
100
AcDbEntity
8
1
62
256
6
ByLayer
370
-1
48
1
60
0
100
AcDbEllipse
10
220.194143
20
-0.000171
30
0
11
-0.199449426365539
21
-22.3009352980486
31
0
210
0
220
0
230
-1
40
0.123415
41
1.65373586987048
42
1.66679976559218
0
ELLIPSE
5
128
100
AcDbEntity
8
1
62
256
6
ByLayer
370
-1
48
1
60
0
100
AcDbEllipse
10
214.010651
20
14.828851
30
0
11
2.63577002021162E-15
21
2.25
31
0
210
0
220
0
230
1
40
0.996195
41
-2.22542577446687
42
0
0
ELLIPSE
5
129
100
AcDbEntity
8
1
62
256
6
ByLayer
370
-1
48
1
60
0
100
AcDbEllipse
10
214.010651
20
14.828851
30
0
11
2.63577002021162E-15
21
2.25
31
0
210
0
220
0
230
1
40
0.996195
41
0
42
1.16248744141283
0
ELLIPSE
5
12A
100
AcDbEntity
8
1
62
256
6
ByLayer
370
-1
48
1
60
0
100
AcDbEllipse
10
205.648896
20
23.125931
30
0
11
1.78060908032074E-14
21
15.2
31
0
210
0
220
0
230
1
40
0.996195
41
2.74016692563109
42
-3.13150721822986
0
ELLIPSE
5
12B
100
AcDbEntity
8
1
62
256
6
ByLayer
370
-1
48
1
60
0
100
AcDbEllipse
10
206.647113
20
13.395207
30
0
11
-0.799516360141551
21
-0.0278134835287853
31
0
210
0
220
0
230
1
40
0.003042
41
0.087213571465873
42
0.974050329556246
0
ELLIPSE
5
12C
100
AcDbEntity
8
1
62
256
6
ByLayer
370
-1
48
1
60
0
100
AcDbEllipse
10
208.122968
20
8.69347
30
0
11
-1.83236116208161
21
-1.63166900511724
31
0
210
0
220
0
230
-1
40
0.721468
41
-1.3015258845958
42
0.0506349693257432
0
ELLIPSE
5
12D
100
AcDbEntity
8
1
62
256
6
ByLayer
370
-1
48
1
60
0
100
AcDbEllipse
10
219.744441
20
1.256111
30
0
11
-0.00673346925312359
21
-0.800246450516706
31
0
210
0
220
0
230
-1
40
0.123335
41
1.6438248332663
42
-3.06856414712339
0
ELLIPSE
5
12E
100
AcDbEntity
8
1
62
256
6
ByLayer
370
-1
48
1
60
0
100
AcDbEllipse
10
206.32453
20
0.000312
30
0
11
-0.722027731522551
21
22.2995991887459
31
0
210
0
220
0
230
-1
40
0.087398
41
0.025760004916936
42
0.0336023358829285
0
ELLIPSE
5
12F
100
AcDbEntity
8
1
62
256
6
ByLayer
370
-1
48
1
60
0
100
AcDbEllipse
10
207.603391
20
0
30
0
11
-128.287381954561
21
-1.45362392783227E-13
31
0
210
0
220
0
230
-1
40
0.173828
41
1.41693389682614
42
1.52849736274855
0
ELLIPSE
5
130
100
AcDbEntity
8
1
62
256
6
ByLayer
370
-1
48
1
60
0
100
AcDbEllipse
10
202.080063
20
14.2
30
0
11
1.17145334231631E-16
21
0.100000000000003
31
0
210
0
220
0
230
1
40
0.985226
41
3.04927825238885
42
-1.5707963267949
0
ELLIPSE
5
131
100
AcDbEntity
8
1
62
256
6
ByLayer
370
-1
48
1
60
0
100
AcDbEllipse
10
79.523377
20
0
30
0
11
-396.597416821445
21
-21.5654527069553
31
0
210
0
220
0
230
-1
40
0.014313
41
-1.92527839147531
42
-1.89077901590601
0
ELLIPSE
5
132
100
AcDbEntity
8
1
62
256
6
ByLayer
370
-1
48
1
60
0
100
AcDbEllipse
10
214.064564
20
-5.582232
30
0
11
2.35
21
0
31
0
210
0
220
0
230
1
40
0.997564
41
1.1507064630006
42
2.46850638643292
0
ELLIPSE
5
133
100
AcDbEntity
8
1
62
256
6
ByLayer
370
-1
48
1
60
0
100
AcDbEllipse
10
220.038678
20
-7.853854
30
0
11
0.27401681486339
21
0.122126103565629
31
0
210
0
220
0
230
1
40
0.065991
41
0.421280855964118
42
0.720612613953539
0
ELLIPSE
5
134
100
AcDbEntity
8
1
62
256
6
ByLayer
370
-1
48
1
60
0
100
AcDbEllipse
10
219.198888
20
-1.035182
30
0
11
-0.783873414348954
21
7.92213086781812E-16
31
0
210
0
220
0
230
1
40
0.997564
41
-3.08923277602995
42
-2.79252680319094
0
ELLIPSE
5
135
100
AcDbEntity
8
1
62
256
6
ByLayer
370
-1
48
1
60
0
100
AcDbEllipse
10
219.981687
20
-0.966354
30
0
11
0.399449138938554
21
0.0209853615944111
31
0
210
0
220
0
230
1
40
0.069661
41
-2.26018375206139
42
-1.57445599702667
0
ELLIPSE
5
136
100
AcDbEntity
8
1
62
256
6
ByLayer
370
-1
48
1
60
0
100
AcDbEllipse
10
224.524413
20
-5.865529
30
0
11
4.28093556580439
21
0
31
0
210
0
220
0
230
1
40
0.997564
41
-3.08923277602997
42
-2.7222122767235
0
ELLIPSE
5
137
100
AcDbEntity
8
1
62
256
6
ByLayer
370
-1
48
1
60
0
100
AcDbEllipse
10
219.935488
20
-0.739832
30
0
11
0.375769594861038
21
0.137102923302063
31
0
210
0
220
0
230
1
40
0.06555
41
-2.20420308577735
42
-1.594708146601
0
ELLIPSE
5
138
100
AcDbEntity
8
1
62
256
6
ByLayer
370
-1
48
1
60
0
100
AcDbEllipse
10
220.719357
20
-8.114182
30
0
11
0.399755140417831
21
-0.0139938454157801
31
0
210
0
220
0
230
1
40
0.069714
41
-2.69020654808533
42
-1.56835592109676
0
ELLIPSE
5
139
100
AcDbEntity
8
1
62
256
6
ByLayer
370
-1
48
1
60
0
100
AcDbEllipse
10
219.501036
20
-8.246133
30
0
11
-2.24215242210385
21
2.26600680522567E-15
31
0
210
0
220
0
230
1
40
0.997564
41
3.10668606854989
42
-2.72221227672349
0
ELLIPSE
5
13A
100
AcDbEntity
8
1
62
256
6
ByLayer
370
-1
48
1
60
0
100
AcDbEllipse
10
220.020083
20
-10.037748
30
0
11
0.299807042544351
21
-0.0107581244094681
31
0
210
0
220
0
230
1
40
0.071534
41
0.446810241819324
42
0.7362021191058
0
ELLIPSE
5
13B
100
AcDbEntity
8
1
62
256
6
ByLayer
370
-1
48
1
60
0
100
AcDbEllipse
10
224.524413
20
-6.012018
30
0
11
-3.25784757789614
21
3.29250799772732E-15
31
0
210
0
220
0
230
1
40
0.997564
41
0.0523598775598178
42
0.419380376866286
0
ELLIPSE
5
13C
100
AcDbEntity
8
1
62
256
6
ByLayer
370
-1
48
1
60
0
100
AcDbEllipse
10
214.064564
20
-5.464037
30
0
11
2.35
21
0
31
0
210
0
220
0
230
1
40
0.997564
41
1.38269361528275
42
2.42383717155513
0
ELLIPSE
5
13D
100
AcDbEntity
8
1
62
256
6
ByLayer
370
-1
48
1
60
0
100
AcDbEllipse
10
220.088926
20
-8.114064
30
0
11
0.299810376168269
21
-0.0106648179469134
31
0
210
0
220
0
230
1
40
0.070874
41
0.451425555480558
42
0.749393722449125
0
ELLIPSE
5
13E
100
AcDbEntity
8
1
62
256
6
ByLayer
370
-1
48
1
60
0
100
AcDbEllipse
10
219.768686
20
-10.034866
30
0
11
-0.883873414348952
21
8.93276992290047E-16
31
0
210
0
220
0
230
1
40
0.997564
41
2.13649437897206
42
3.10668606854994
0
ELLIPSE
5
13F
100
AcDbEntity
8
1
62
256
6
ByLayer
370
-1
48
1
60
0
100
AcDbEllipse
10
218.636065
20
0.215727
30
0
11
1.18387341434896
21
0
31
0
210
0
220
0
230
1
40
0.997564
41
0.349065850399012
42
0.56132189110641
0
ELLIPSE
5
140
100
AcDbEntity
8
1
62
256
6
ByLayer
370
-1
48
1
60
0
100
AcDbEllipse
10
219.768686
20
-10.034866
30
0
11
1.18387341434896
21
0
31
0
210
0
220
0
230
1
40
0.997564
41
-1.1520231251962
42
-0.0349065850398924
0
ELLIPSE
5
141
100
AcDbEntity
8
1
62
256
6
ByLayer
370
-1
48
1
60
0
100
AcDbEllipse
10
220.614458
20
-7.576554
30
0
11
0.365188559267697
21
0.163209424298917
31
0
210
0
220
0
230
1
40
0.063711
41
-2.7203783083816
42
-1.59926245588946
0
ELLIPSE
5
142
100
AcDbEntity
8
1
62
256
6
ByLayer
370
-1
48
1
60
0
100
AcDbEllipse
10
219.501036
20
-8.099644
30
0
11
1.51906443419564
21
0
31
0
210
0
220
0
230
1
40
0.997564
41
-0.034906585039902
42
0.419380376866306
0
ELLIPSE
5
143
100
AcDbEntity
8
1
62
256
6
ByLayer
370
-1
48
1
60
0
100
AcDbEllipse
10
220.249345
20
-6.061128
30
0
11
0.399449138938554
21
0.0209853615944111
31
0
210
0
220
0
230
1
40
0.069661
41
-2.26019022116293
42
-1.57445599702667
0
ELLIPSE
5
144
100
AcDbEntity
8
1
62
256
6
ByLayer
370
-1
48
1
60
0
100
AcDbEllipse
10
224.524413
20
-5.865529
30
0
11
-3.98093556580436
21
4.02328895856829E-15
31
0
210
0
220
0
230
1
40
0.997564
41
0.052359877559815
42
0.419380376866294
0
ELLIPSE
5
145
100
AcDbEntity
8
1
62
256
6
ByLayer
370
-1
48
1
60
0
100
AcDbEllipse
10
219.501036
20
-8.099644
30
0
11
-1.21906443419553
21
1.23203412785989E-15
31
0
210
0
220
0
230
1
40
0.997564
41
3.10668606854992
42
-2.72221227672346
0
ELLIPSE
5
146
100
AcDbEntity
8
1
62
256
6
ByLayer
370
-1
48
1
60
0
100
AcDbEllipse
10
220.652021
20
-10.037735
30
0
11
0.399755140417831
21
-0.0139938454157801
31
0
210
0
220
0
230
1
40
0.069714
41
-2.69484373370654
42
-1.56835592109676
0
ELLIPSE
5
147
100
AcDbEntity
8
1
62
256
6
ByLayer
370
-1
48
1
60
0
100
AcDbEllipse
10
224.524413
20
-6.158506
30
0
11
-3.00000000000001
21
3.0319171652471E-15
31
0
210
0
220
0
230
1
40
0.997564
41
0.0523598775598169
42
0.419380376866299
0
ELLIPSE
5
148
100
AcDbEntity
8
1
62
256
6
ByLayer
370
-1
48
1
60
0
100
AcDbEllipse
10
219.501036
20
-8.392621
30
0
11
-2.49999999999999
21
2.5265976377059E-15
31
0
210
0
220
0
230
1
40
0.997564
41
3.10668606854989
42
-2.7222122767235
0
ELLIPSE
5
149
100
AcDbEntity
8
1
62
256
6
ByLayer
370
-1
48
1
60
0
100
AcDbEllipse
10
219.198888
20
-1.035182
30
0
11
1.08387341434895
21
0
31
0
210
0
220
0
230
1
40
0.997564
41
0.0523598775598182
42
0.349065850399034
0
ELLIPSE
5
14A
100
AcDbEntity
8
1
62
256
6
ByLayer
370
-1
48
1
60
0
100
AcDbEllipse
10
209.706522
20
19.710774
30
0
11
-0.95695114400751
21
1.5925514520179
31
0
210
0
220
0
230
-1
40
0.020508
41
1.58311883853194
42
2.2266199468273
0
ELLIPSE
5
14B
100
AcDbEntity
8
1
62
256
6
ByLayer
370
-1
48
1
60
0
100
AcDbEllipse
10
214.212818
20
15.106713
30
0
11
-2.51889302601768E-15
21
-2.35
31
0
210
0
220
0
230
1
40
0.996195
41
-3.11194384373769
42
-0.0296489603413474
0
ELLIPSE
5
14C
100
AcDbEntity
8
1
62
256
6
ByLayer
370
-1
48
1
60
0
100
AcDbEllipse
10
215.475375
20
10.656785
30
0
11
3.51436002694884E-16
21
0.300000000000001
31
0
210
0
220
0
230
1
40
0.996195
41
0.357350020496943
42
-3.10668606854988
0
ELLIPSE
5
14D
100
AcDbEntity
8
1
62
256
6
ByLayer
370
-1
48
1
60
0
100
AcDbEllipse
10
208.956691
20
18.865329
30
0
11
3.5846472274878E-16
21
0.306
31
0
210
0
220
0
230
1
40
0.996195
41
-0.194895099806065
42
2.39110107523211
0
ELLIPSE
5
14E
100
AcDbEntity
8
1
62
256
6
ByLayer
370
-1
48
1
60
0
100
AcDbEllipse
10
211.068949
20
18.435437
30
0
11
0.348527918949299
21
0.3723282016083
31
0
210
0
220
0
230
1
40
0.063742
41
-2.1547009679559
42
-0.867698750368787
0
ELLIPSE
5
14F
100
AcDbEntity
8
1
62
256
6
ByLayer
370
-1
48
1
60
0
100
AcDbEllipse
10
209.933983
20
11.713658
30
0
11
-0.025170507156838
21
0.720795621174679
31
0
210
0
220
0
230
-1
40
0.06159
41
1.57294607300831
42
1.60954560820612
0
ELLIPSE
5
150
100
AcDbEntity
8
1
62
256
6
ByLayer
370
-1
48
1
60
0
100
AcDbEllipse
10
209.992132
20
18.653105
30
0
11
-0.705563291591938
21
0.659061826939326
31
0
210
0
220
0
230
-1
40
0.031444
41
0.960945087881928
42
1.60444619668373
0
ELLIPSE
5
151
100
AcDbEntity
8
1
62
256
6
ByLayer
370
-1
48
1
60
0
100
AcDbEllipse
10
209.933982
20
11.713658
30
0
11
-0.719441079736135
21
-0.0251232539623934
31
0
210
0
220
0
230
-1
40
0.002159
41
-2.27604469494177
42
-1.63254358592389
0
ELLIPSE
5
152
100
AcDbEntity
8
1
62
256
6
ByLayer
370
-1
48
1
60
0
100
AcDbEllipse
10
218.253177
20
16.76823
30
0
11
-3.21560811832046E-16
21
-0.300000000000001
31
0
210
0
220
0
230
1
40
0.996195
41
-1.21344630629795
42
1.60570291183477
0
ELLIPSE
5
153
100
AcDbEntity
8
1
62
256
6
ByLayer
370
-1
48
1
60
0
100
AcDbEllipse
10
210.395976
20
12.210979
30
0
11
0.373651049327856
21
-0.347109339165906
31
0
210
0
220
0
230
1
40
0.05944
41
1.50689827555572
42
2.15039938434923
0
ELLIPSE
5
154
100
AcDbEntity
8
1
62
256
6
ByLayer
370
-1
48
1
60
0
100
AcDbEllipse
10
209.742081
20
19.710774
30
0
11
3.5846472274878E-16
21
0.306
31
0
210
0
220
0
230
1
40
0.996195
41
-0.750491578357678
42
1.83550459668067
0
ELLIPSE
5
155
100
AcDbEntity
8
1
62
256
6
ByLayer
370
-1
48
1
60
0
100
AcDbEllipse
10
218.458217
20
10.761483
30
0
11
-5.19131082315858E-16
21
-0.484323085911669
31
0
210
0
220
0
230
1
40
0.996195
41
0.034906585039867
42
1.60570291183474
0
ELLIPSE
5
156
100
AcDbEntity
8
1
62
256
6
ByLayer
370
-1
48
1
60
0
100
AcDbEllipse
10
218.148877
20
19.766402
30
0
11
-3.21560811832048E-16
21
-0.300000000000003
31
0
210
0
220
0
230
1
40
0.996195
41
1.60570291183477
42
-3.10668606854998
0
ELLIPSE
5
157
100
AcDbEntity
8
1
62
256
6
ByLayer
370
-1
48
1
60
0
100
AcDbEllipse
10
218.516991
20
16.778699
30
0
11
-0.399758180070776
21
-0.0139067417643927
31
0
210
0
220
0
230
1
40
0.003042
41
1.6580098982609
42
2.1369149831384
0
ELLIPSE
5
158
100
AcDbEntity
8
1
62
256
6
ByLayer
370
-1
48
1
60
0
100
AcDbEllipse
10
218.357839
20
13.759656
30
0
11
3.51436002694884E-16
21
0.300000000000001
31
0
210
0
220
0
230
1
40
0.996195
41
-1.53588974175502
42
1.28325947637766
0
ELLIPSE
5
159
100
AcDbEntity
8
1
62
256
6
ByLayer
370
-1
48
1
60
0
100
AcDbEllipse
10
213.81626
20
15.106713
30
0
11
4.99704147825015E-15
21
4.26567691408833
31
0
210
0
220
0
230
1
40
0.996195
41
-1.21344630629793
42
-0.287536850417217
0
ELLIPSE
5
15A
100
AcDbEntity
8
1
62
256
6
ByLayer
370
-1
48
1
60
0
100
AcDbEllipse
10
215.162113
20
19.661704
30
0
11
-3.21560811832046E-16
21
-0.300000000000001
31
0
210
0
220
0
230
1
40
0.996195
41
-3.10668606854998
42
-0.287536850417191
0
ELLIPSE
5
15B
100
AcDbEntity
8
1
62
256
6
ByLayer
370
-1
48
1
60
0
100
AcDbEllipse
10
209.933982
20
11.713658
30
0
11
0.348527918949299
21
0.3723282016083
31
0
210
0
220
0
230
1
40
0.063742
41
-2.1547009679553
42
-1.5477987720853
0
ELLIPSE
5
15C
100
AcDbEntity
8
1
62
256
6
ByLayer
370
-1
48
1
60
0
100
AcDbEllipse
10
210.748486
20
10.602551
30
0
11
-0.337063013710962
21
0.382738193531928
31
0
210
0
220
0
230
1
40
0.065516
41
-2.27193125321738
42
-0.984929035630729
0
ELLIPSE
5
15D
100
AcDbEntity
8
1
62
256
6
ByLayer
370
-1
48
1
60
0
100
AcDbEllipse
10
209.706522
20
19.710774
30
0
11
0.348527918949299
21
0.3723282016083
31
0
210
0
220
0
230
1
40
0.063742
41
-1.51119985916248
42
-0.86769875036941
0
ELLIPSE
5
15E
100
AcDbEntity
8
1
62
256
6
ByLayer
370
-1
48
1
60
0
100
AcDbEllipse
10
218.103584
20
20.066219
30
0
11
-0.0140130575244559
21
0.399754467415708
31
0
210
0
220
0
230
1
40
0.087103
41
-1.5738496276308
42
-1.09494454275567
0
ELLIPSE
5
15F
100
AcDbEntity
8
1
62
256
6
ByLayer
370
-1
48
1
60
0
100
AcDbEllipse
10
209.356489
20
11.092008
30
0
11
0.502108561637825
21
0.0893699744321017
31
0
210
0
220
0
230
1
40
0.015329
41
-2.1283846410781
42
-0.841382423492335
0
ELLIPSE
5
160
100
AcDbEntity
8
1
62
256
6
ByLayer
370
-1
48
1
60
0
100
AcDbEllipse
10
210.319119
20
17.589992
30
0
11
-3.27992028068685E-16
21
-0.306
31
0
210
0
220
0
230
1
40
0.996195
41
-0.750491578357678
42
2.39110107523211
0
ELLIPSE
5
161
100
AcDbEntity
8
1
62
256
6
ByLayer
370
-1
48
1
60
0
100
AcDbEllipse
10
209.921303
20
11.70001
30
0
11
-0.37340082812668
21
0.346876892031236
31
0
210
0
220
0
230
1
40
0.05944
41
-1.63469437803421
42
-0.992087287820099
0
ELLIPSE
5
162
100
AcDbEntity
8
1
62
256
6
ByLayer
370
-1
48
1
60
0
100
AcDbEllipse
10
215.158191
20
19.661704
30
0
11
-5.19131082315856E-16
21
-0.484323085911667
31
0
210
0
220
0
230
1
40
0.996195
41
-3.10668606854987
42
-0.287536850417242
0
ELLIPSE
5
163
100
AcDbEntity
8
1
62
256
6
ByLayer
370
-1
48
1
60
0
100
AcDbEllipse
10
209.969541
20
11.713658
30
0
11
3.5846472274878E-16
21
0.306
31
0
210
0
220
0
230
1
40
0.996195
41
0.881327184779035
42
2.39110107523225
0
ELLIPSE
5
164
100
AcDbEntity
8
1
62
256
6
ByLayer
370
-1
48
1
60
0
100
AcDbEllipse
10
210.225614
20
11.241509
30
0
11
1.35420006371761E-15
21
1.156
31
0
210
0
220
0
230
1
40
0.996195
41
1.74759996643896
42
-2.42145532631401
0
ELLIPSE
5
165
100
AcDbEntity
8
1
62
256
6
ByLayer
370
-1
48
1
60
0
100
AcDbEllipse
10
213.91333
20
15.106713
30
0
11
-3.19627500372467E-15
21
-2.98196318032136
31
0
210
0
220
0
230
1
40
0.996195
41
0
42
6.28318530717959
0
ELLIPSE
5
166
100
AcDbEntity
8
1
62
256
6
ByLayer
370
-1
48
1
60
0
100
AcDbEllipse
10
217.938336
20
16.663292
30
0
11
0.374905085817622
21
0.139449548683677
31
0
210
0
220
0
230
1
40
0.030486
41
-1.96792246060789
42
-1.48901737573342
0
ELLIPSE
5
167
100
AcDbEntity
8
1
62
256
6
ByLayer
370
-1
48
1
60
0
100
AcDbEllipse
10
208.921132
20
18.865329
30
0
11
-1.65004005349666
21
0.846499037822215
31
0
210
0
220
0
230
-1
40
0.010943
41
1.59212368496902
42
2.23562479418764
0
ELLIPSE
5
168
100
AcDbEntity
8
1
62
256
6
ByLayer
370
-1
48
1
60
0
100
AcDbEllipse
10
218.725953
20
10.771953
30
0
11
0.399758180070776
21
0.0139067417643922
31
0
210
0
220
0
230
1
40
0.003042
41
-1.48358275532889
42
-1.00467767045331
0
ELLIPSE
5
169
100
AcDbEntity
8
1
62
256
6
ByLayer
370
-1
48
1
60
0
100
AcDbEllipse
10
218.249255
20
16.76823
30
0
11
-5.19131082315857E-16
21
-0.484323085911668
31
0
210
0
220
0
230
1
40
0.996195
41
-1.21344630629796
42
1.60570291183474
0
ELLIPSE
5
16A
100
AcDbEntity
8
1
62
256
6
ByLayer
370
-1
48
1
60
0
100
AcDbEllipse
10
215.335974
20
10.937833
30
0
11
0.14038589456198
21
-0.374555470668942
31
0
210
0
220
0
230
1
40
0.08165
41
1.54020296240859
42
2.01910804728327
0
ELLIPSE
5
16B
100
AcDbEntity
8
1
62
256
6
ByLayer
370
-1
48
1
60
0
100
AcDbEllipse
10
210.431536
20
12.210979
30
0
11
3.5846472274878E-16
21
0.306
31
0
210
0
220
0
230
1
40
0.996195
41
-0.106990469564247
42
0.820304748434675
0
ELLIPSE
5
16C
100
AcDbEntity
8
1
62
256
6
ByLayer
370
-1
48
1
60
0
100
AcDbEllipse
10
209.992132
20
18.653105
30
0
11
0.492364140378783
21
0.132956960212929
31
0
210
0
220
0
230
1
40
0.022802
41
-1.48655483674059
42
-0.843053727947147
0
ELLIPSE
5
16D
100
AcDbEntity
8
1
62
256
6
ByLayer
370
-1
48
1
60
0
100
AcDbEllipse
10
210.027692
20
18.653105
30
0
11
-3.27992028068685E-16
21
-0.306
31
0
210
0
220
0
230
1
40
0.996195
41
-0.194895099805997
42
1.83550459668068
0
ELLIPSE
5
16E
100
AcDbEntity
8
1
62
256
6
ByLayer
370
-1
48
1
60
0
100
AcDbEllipse
10
218.412691
20
19.776872
30
0
11
0.399758180070776
21
0.0139067417643922
31
0
210
0
220
0
230
1
40
0.003042
41
-1.48358275532896
42
-1.00467767045482
0
ELLIPSE
5
16F
100
AcDbEntity
8
1
62
256
6
ByLayer
370
-1
48
1
60
0
100
AcDbEllipse
10
213.889615
20
15.106713
30
0
11
-3.30786649004912E-15
21
-3.0860724021715
31
0
210
0
220
0
230
1
40
0.996195
41
2.2155101975546
42
0
0
ELLIPSE
5
170
100
AcDbEntity
8
1
62
256
6
ByLayer
370
-1
48
1
60
0
100
AcDbEllipse
10
213.889615
20
15.106713
30
0
11
-3.30786649004912E-15
21
-3.0860724021715
31
0
210
0
220
0
230
1
40
0.996195
41
0
42
0.92608266050835
0
ELLIPSE
5
171
100
AcDbEntity
8
1
62
256
6
ByLayer
370
-1
48
1
60
0
100
AcDbEllipse
10
210.341112
20
11.365839
30
0
11
-3.27992028068685E-16
21
-0.306
31
0
210
0
220
0
230
1
40
0.996195
41
-0.750491578357547
42
2.39110107523223
0
ELLIPSE
5
172
100
AcDbEntity
8
1
62
256
6
ByLayer
370
-1
48
1
60
0
100
AcDbEllipse
10
211.104509
20
18.435437
30
0
11
-3.27992028068685E-16
21
-0.306
31
0
210
0
220
0
230
1
40
0.996195
41
-0.750491578357555
42
2.39110107523224
0
ELLIPSE
5
173
100
AcDbEntity
8
1
62
256
6
ByLayer
370
-1
48
1
60
0
100
AcDbEllipse
10
209.392049
20
11.092008
30
0
11
3.58464722748779E-16
21
0.305999999999999
31
0
210
0
220
0
230
1
40
0.996195
41
-1.39399268715089
42
1.747599966439
0
ELLIPSE
5
174
100
AcDbEntity
8
1
62
256
6
ByLayer
370
-1
48
1
60
0
100
AcDbEllipse
10
208.921132
20
18.865329
30
0
11
0.099131498336372
21
0.500272871578687
31
0
210
0
220
0
230
1
40
0.085506
41
-1.55385457642578
42
-0.910353467632992
0
ELLIPSE
5
175
100
AcDbEntity
8
1
62
256
6
ByLayer
370
-1
48
1
60
0
100
AcDbEllipse
10
218.036388
20
13.844733
30
0
11
0.383695343937984
21
-0.113039298654548
31
0
210
0
220
0
230
1
40
0.024717
41
1.4870954970174
42
1.96600058189173
0
ELLIPSE
5
176
100
AcDbEntity
8
1
62
256
6
ByLayer
370
-1
48
1
60
0
100
AcDbEllipse
10
213.820182
20
15.106713
30
0
11
-4.76981870884199E-15
21
-4.45
31
0
210
0
220
0
230
1
40
0.996195
41
0.357350020496971
42
1.28325947637769
0
ELLIPSE
5
177
100
AcDbEntity
8
1
62
256
6
ByLayer
370
-1
48
1
60
0
100
AcDbEllipse
10
210.341112
20
11.365839
30
0
11
-5.83096938788774E-16
21
-0.544
31
0
210
0
220
0
230
1
40
0.996195
41
0.920472169598865
42
2.77549784972788
0
ELLIPSE
5
178
100
AcDbEntity
8
1
62
256
6
ByLayer
370
-1
48
1
60
0
100
AcDbEllipse
10
210.225614
20
11.241509
30
0
11
6.37270618220054E-16
21
0.544
31
0
210
0
220
0
230
1
40
0.996195
41
1.74759996643892
42
-2.42145532631405
0
ELLIPSE
5
179
100
AcDbEntity
8
1
62
256
6
ByLayer
370
-1
48
1
60
0
100
AcDbEllipse
10
213.81626
20
15.106713
30
0
11
4.99704147825015E-15
21
4.26567691408833
31
0
210
0
220
0
230
1
40
0.996195
41
-2.78424263309282
42
-1.85833317721211
0
ELLIPSE
5
17A
100
AcDbEntity
8
1
62
256
6
ByLayer
370
-1
48
1
60
0
100
AcDbEllipse
10
213.820182
20
15.106713
30
0
11
5.21296737330743E-15
21
4.45
31
0
210
0
220
0
230
1
40
0.996195
41
-1.21344630629792
42
-0.287536850417202
0
ELLIPSE
5
17B
100
AcDbEntity
8
1
62
256
6
ByLayer
370
-1
48
1
60
0
100
AcDbEllipse
10
210.305553
20
11.365839
30
0
11
-0.348527918949299
21
-0.3723282016083
31
0
210
0
220
0
230
1
40
0.063742
41
0.986891685633968
42
2.27389390321991
0
ELLIPSE
5
17C
100
AcDbEntity
8
1
62
256
6
ByLayer
370
-1
48
1
60
0
100
AcDbEllipse
10
210.979483
20
10.851211
30
0
11
-0.406468958660141
21
0.308030819311543
31
0
210
0
220
0
230
1
40
0.052768
41
-2.28381636720095
42
-0.996814149614133
0
ELLIPSE
5
17D
100
AcDbEntity
8
1
62
256
6
ByLayer
370
-1
48
1
60
0
100
AcDbEllipse
10
209.667182
20
11.880467
30
0
11
1.63300595918889E-15
21
1.394
31
0
210
0
220
0
230
1
40
0.996195
41
-2.42145532631404
42
-2.22112048399092
0
ELLIPSE
5
17E
100
AcDbEntity
8
1
62
256
6
ByLayer
370
-1
48
1
60
0
100
AcDbEllipse
10
210.395976
20
12.210979
30
0
11
-0.0546667450361371
21
-0.507061679667428
31
0
210
0
220
0
230
1
40
0.086657
41
1.58013866027565
42
2.22363976906874
0
ELLIPSE
5
17F
100
AcDbEntity
8
1
62
256
6
ByLayer
370
-1
48
1
60
0
100
AcDbEllipse
10
215.116821
20
19.961521
30
0
11
-0.0140130575244559
21
0.399754467415708
31
0
210
0
220
0
230
1
40
0.087103
41
-1.5738496276308
42
-1.09494454275608
0
ELLIPSE
5
180
100
AcDbEntity
8
1
62
256
6
ByLayer
370
-1
48
1
60
0
100
AcDbEllipse
10
218.144955
20
19.766402
30
0
11
-5.19131082315858E-16
21
-0.484323085911669
31
0
210
0
220
0
230
1
40
0.996195
41
1.60570291183474
42
-3.10668606854993
0
ELLIPSE
5
181
100
AcDbEntity
8
1
62
256
6
ByLayer
370
-1
48
1
60
0
100
AcDbEllipse
10
210.341112
20
11.365839
30
0
11
-1.23908099492614E-15
21
-1.156
31
0
210
0
220
0
230
1
40
0.996195
41
0.920472169598907
42
3.0346021840255
0
ELLIPSE
5
182
100
AcDbEntity
8
1
62
256
6
ByLayer
370
-1
48
1
60
0
100
AcDbEllipse
10
215.450943
20
10.356968
30
0
11
0.014013057524455
21
-0.399754467415708
31
0
210
0
220
0
230
1
40
0.087103
41
1.08883794108427
42
1.56774302595899
0
ELLIPSE
5
183
100
AcDbEntity
8
1
62
256
6
ByLayer
370
-1
48
1
60
0
100
AcDbEllipse
10
218.621653
20
13.770126
30
0
11
-0.399758180070776
21
-0.0139067417643927
31
0
210
0
220
0
230
1
40
0.003042
41
1.65800989826097
42
2.13691498313642
0
ELLIPSE
5
184
100
AcDbEntity
8
1
62
256
6
ByLayer
370
-1
48
1
60
0
100
AcDbEllipse
10
214.073857
20
15.106713
30
0
11
-2.51889302601768E-15
21
-2.35
31
0
210
0
220
0
230
1
40
0.996195
41
3.09878844376696
42
0
0
ELLIPSE
5
185
100
AcDbEntity
8
1
62
256
6
ByLayer
370
-1
48
1
60
0
100
AcDbEllipse
10
214.073857
20
15.106713
30
0
11
-2.51889302601768E-15
21
-2.35
31
0
210
0
220
0
230
1
40
0.996195
41
0
42
0.0335758030814271
0
ELLIPSE
5
186
100
AcDbEntity
8
1
62
256
6
ByLayer
370
-1
48
1
60
0
100
AcDbEllipse
10
209.667182
20
11.880467
30
0
11
2.34993540468645E-15
21
2.006
31
0
210
0
220
0
230
1
40
0.996195
41
-2.42145532631402
42
-2.22112048399088
0
ELLIPSE
5
187
100
AcDbEntity
8
1
62
256
6
ByLayer
370
-1
48
1
60
0
100
AcDbEllipse
10
209.921303
20
11.70001
30
0
11
0.373651049327856
21
-0.347109339165906
31
0
210
0
220
0
230
1
40
0.05944
41
1.47029936263264
42
2.15039938434963
0
ELLIPSE
5
188
100
AcDbEntity
8
1
62
256
6
ByLayer
370
-1
48
1
60
0
100
AcDbEllipse
10
215.042497
20
19.37402
30
0
11
0.113834701403356
21
0.383460116252537
31
0
210
0
220
0
230
1
40
0.083578
41
-2.02489549788521
42
-1.54599041301063
0
ELLIPSE
5
189
100
AcDbEntity
8
1
62
256
6
ByLayer
370
-1
48
1
60
0
100
AcDbEllipse
10
218.462139
20
10.761483
30
0
11
3.51436002694886E-16
21
0.300000000000003
31
0
210
0
220
0
230
1
40
0.996195
41
-3.10668606854998
42
-1.53588974175502
0
ELLIPSE
5
18A
100
AcDbEntity
8
1
62
256
6
ByLayer
370
-1
48
1
60
0
100
AcDbEllipse
10
210.283559
20
17.589992
30
0
11
0.348527918949299
21
0.3723282016083
31
0
210
0
220
0
230
1
40
0.063742
41
-2.1547009679553
42
-0.867698750369919
0
ELLIPSE
5
18B
100
AcDbEntity
8
1
62
256
6
ByLayer
370
-1
48
1
60
0
100
AcDbEllipse
10
218.353917
20
13.759656
30
0
11
-5.19131082315857E-16
21
-0.484323085911668
31
0
210
0
220
0
230
1
40
0.996195
41
1.60570291183474
42
-1.85833317721212
0
ELLIPSE
5
18C
100
AcDbEntity
8
1
62
256
6
ByLayer
370
-1
48
1
60
0
100
AcDbEllipse
10
209.992132
20
18.653105
30
0
11
0.099131498336372
21
0.500272871578687
31
0
210
0
220
0
230
1
40
0.085506
41
-2.19735568521924
42
-1.55385457642578
0
ELLIPSE
5
18D
100
AcDbEntity
8
1
62
256
6
ByLayer
370
-1
48
1
60
0
100
AcDbEllipse
10
209.706522
20
19.710774
30
0
11
0.492364140378783
21
0.132956960212929
31
0
210
0
220
0
230
1
40
0.022802
41
-2.13005594553357
42
-1.48655483674054
0
ELLIPSE
5
18E
100
AcDbEntity
8
1
62
256
6
ByLayer
370
-1
48
1
60
0
100
AcDbEllipse
10
218.437706
20
10.461666
30
0
11
0.014013057524455
21
-0.399754467415708
31
0
210
0
220
0
230
1
40
0.087103
41
1.08883794108433
42
1.56774302595899
0
ELLIPSE
5
18F
100
AcDbEntity
8
1
62
256
6
ByLayer
370
-1
48
1
60
0
100
AcDbEllipse
10
208.921132
20
18.865329
30
0
11
0.348527918949299
21
0.3723282016083
31
0
210
0
220
0
230
1
40
0.063742
41
-2.15470096795535
42
-1.51119985916242
0
ELLIPSE
5
190
100
AcDbEntity
8
1
62
256
6
ByLayer
370
-1
48
1
60
0
100
AcDbEllipse
10
213.81626
20
15.106713
30
0
11
3.68413502519129E-15
21
3.14492681194351
31
0
210
0
220
0
230
1
40
0.996195
41
0
42
6.28318530717959
0
ELLIPSE
5
191
100
AcDbEntity
8
1
62
256
6
ByLayer
370
-1
48
1
60
0
100
AcDbEllipse
10
215.471453
20
10.656785
30
0
11
-5.19131082315856E-16
21
-0.484323085911667
31
0
210
0
220
0
230
1
40
0.996195
41
-2.78424263309281
42
0.0349065850398707
0
POINT
5
41
100
AcDbEntity
8
81
62
256
6
ByLayer
370
-1
48
1
60
0
100
AcDbPoint
10
222
20
0
30
0
39
0
210
0
220
0
230
1
50
360
0
POINT
5
43
100
AcDbEntity
8
80
62
256
6
ByLayer
370
-1
48
1
60
0
100
AcDbPoint
10
0
20
0
30
0
39
0
210
0
220
0
230
1
50
360
0
SPLINE
5
192
100
AcDbEntity
8
1
62
256
6
ByLayer
370
-1
48
1
60
0
100
AcDbSpline
70
4
71
3
72
24
73
20
40
0
40
0
40
0
40
0
40
0.0512219324959558
40
0.114795075180371
40
0.178268200557151
40
0.241581453348873
40
0.304701879023915
40
0.367626814561728
40
0.430381895458708
40
0.493015351539973
40
0.555590417373228
40
0.618167359708155
40
0.680802024190433
40
0.74355700080481
40
0.806479913224928
40
0.86959620221535
40
0.932903765868082
40
0.99637098343539
40
1
40
1
40
1
40
1
41
1
10
214.172780545585
20
17.4476845289277
30
0
41
1
10
214.29524500971
20
17.4456103984587
30
0
41
1
10
214.564600302964
20
17.4184020319953
30
0
41
1
10
214.971094458736
20
17.2908513122248
30
0
41
1
10
215.371433512447
20
17.0763340348984
30
0
41
1
10
215.723239084607
20
16.7870900064029
30
0
41
1
10
216.013023989077
20
16.4354439007258
30
0
41
1
10
216.230118243256
20
16.034435484028
30
0
41
1
10
216.366608266019
20
15.5992937952995
30
0
41
1
10
216.417678450512
20
15.1462662266989
30
0
41
1
10
216.381679580017
20
14.6921786351456
30
0
41
1
10
216.260150238617
20
14.2537773651553
30
0
41
1
10
216.057721077752
20
13.8472175836209
30
0
41
1
10
215.781876948073
20
13.4871351266252
30
0
41
1
10
215.442690329633
20
13.1875637799686
30
0
41
1
10
215.052389480825
20
12.956390532106
30
0
41
1
10
214.625493123271
20
12.81433730404
30
0
41
1
10
214.317928290021
20
12.7511186804764
30
0
41
1
10
214.159603901979
20
12.7598271868518
30
0
41
1
10
214.151034963363
20
12.7603734890795
30
0
0
SPLINE
5
193
100
AcDbEntity
8
1
62
256
6
ByLayer
370
-1
48
1
60
0
100
AcDbSpline
70
4
71
3
72
14
73
10
40
0
40
0
40
0
40
0
40
0.0980815738871091
40
0.249062059820639
40
0.399741873918457
40
0.550160065346862
40
0.700391882069644
40
0.850537183336787
40
1
40
1
40
1
40
1
41
1
10
212.21475052421
20
-4.14091055269145
30
0
41
1
10
212.275469293359
20
-4.06385152165157
30
0
41
1
10
212.442072511977
20
-3.87771582048504
30
0
41
1
10
212.755070043961
20
-3.62408951087741
30
0
41
1
10
213.158460607823
20
-3.41011464899711
30
0
41
1
10
213.595404908373
20
-3.2773956023066
30
0
41
1
10
214.049554824372
20
-3.23071334269193
30
0
41
1
10
214.503301535654
20
-3.27158023626126
30
0
41
1
10
214.79451771257
20
-3.3558273606659
30
0
41
1
10
214.934350821351
20
-3.41123160090584
30
0
0
SPLINE
5
194
100
AcDbEntity
8
1
62
256
6
ByLayer
370
-1
48
1
60
0
100
AcDbSpline
70
4
71
3
72
18
73
14
40
0
40
0
40
0
40
0
40
0.0796433947344083
40
0.160227453860719
40
0.241048130630119
40
0.321388954051615
40
0.401085748554023
40
0.480818408600211
40
0.560221821003723
40
0.669367482854215
40
0.778943412365004
40
0.889162482560172
40
1
40
1
40
1
40
1
41
1
10
33
20
22.685
30
0
41
1
10
32.2052441958
20
22.6854526105729
30
0
41
1
10
30.6224302073946
20
22.789866806655
30
0
41
1
10
28.2688673488097
20
23.2612757888786
30
0
41
1
10
25.9999378283486
20
24.0483902201625
30
0
41
1
10
23.8473284507101
20
25.1070841148098
30
0
41
1
10
21.9195188641997
20
26.504911035733
30
0
41
1
10
19.8940050215549
20
27.7366738982648
30
0
41
1
10
17.4985044702248
20
28.9010901316737
30
0
41
1
10
14.7165835909984
20
29.9194730428299
30
0
41
1
10
11.5439213247181
20
30.6985088611905
30
0
41
1
10
8.29028955311358
20
31.1518356782318
30
0
41
1
10
6.10260821486256
20
31.2522182210747
30
0
41
1
10
5.00000000000003
20
31.25
30
0
0
SPLINE
5
195
100
AcDbEntity
8
1
62
256
6
ByLayer
370
-1
48
1
60
0
100
AcDbSpline
70
4
71
3
72
20
73
16
40
0
40
0
40
0
40
0
40
0.0940770203099379
40
0.187722275701535
40
0.280891095905981
40
0.373654179758366
40
0.46621912695119
40
0.558950227626729
40
0.621774422447789
40
0.684271707749641
40
0.747391000946579
40
0.810869845286602
40
0.874360943661564
40
0.937516598160545
40
1
40
1
40
1
40
1
41
1
10
4.99999999999997
20
-31.25
30
0
41
1
10
5.93507016236646
20
-31.2513417822837
30
0
41
1
10
7.79409281257097
20
-31.1793154887694
30
0
41
1
10
10.5645877066988
20
-30.8544285872979
30
0
41
1
10
13.2836711169715
20
-30.2983493613174
30
0
41
1
10
15.9330954626627
20
-29.504043395074
30
0
41
1
10
18.4873657160849
20
-28.4565604533623
30
0
41
1
10
20.669663160271
20
-27.306243290818
30
0
41
1
10
22.4598360871439
20
-26.0927376767064
30
0
41
1
10
24.0088937363261
20
-25.0442971640378
30
0
41
1
10
25.6900204510981
20
-24.2026362471237
30
0
41
1
10
27.4522570896204
20
-23.5258833489169
30
0
41
1
10
29.2774865854491
20
-23.0406019423597
30
0
41
1
10
31.1347980581072
20
-22.7493177622611
30
0
41
1
10
32.3779452267309
20
-22.6851714697057
30
0
41
1
10
33
20
-22.685
30
0
0
SPLINE
5
196
100
AcDbEntity
8
1
62
256
6
ByLayer
370
-1
48
1
60
0
100
AcDbSpline
70
4
71
3
72
12
73
8
40
0
40
0
40
0
40
0
40
0.250000000000009
40
0.250000000000009
40
0.500000000000018
40
0.500000000000018
40
1
40
1
40
1
40
1
41
1
10
206.271294105443
20
7.14043986094828
30
0
41
1
10
206.275074779932
20
7.14043986094828
30
0
41
1
10
206.275055716247
20
7.14381234022144
30
0
41
1
10
206.268364983528
20
7.15671608780141
30
0
41
1
10
206.261579460579
20
7.16639636007099
30
0
41
1
10
206.233309495883
20
7.20350718116595
30
0
41
1
10
206.204323262481
20
7.23867932651922
30
0
41
1
10
206.170566838793
20
7.28212921629066
30
0
0
SPLINE
5
197
100
AcDbEntity
8
1
62
256
6
ByLayer
370
-1
48
1
60
0
100
AcDbSpline
70
4
71
3
72
16
73
12
40
0
40
0
40
0
40
0
40
0.25
40
0.25
40
0.500000000000001
40
0.500000000000001
40
0.625000000000001
40
0.625000000000001
40
0.75
40
0.75
40
1
40
1
40
1
40
1
41
1
10
13.6216523218864
20
-2.49299746540561
30
0
41
1
10
13.3010539996433
20
-2.30659130724703
30
0
41
1
10
12.9859080256361
20
-2.09649596909668
30
0
41
1
10
12.365211847056
20
-1.63081361103858
30
0
41
1
10
12.0596652456704
20
-1.37522396589102
30
0
41
1
10
11.6080248482128
20
-0.95723559521889
30
0
41
1
10
11.4584718175453
20
-0.811993121993766
30
0
41
1
10
11.1620821318376
20
-0.510127319139201
30
0
41
1
10
11.0163964501442
20
-0.354688052774662
30
0
41
1
10
10.5866486208674
20
0.124940823125513
30
0
41
1
10
10.3098562862523
20
0.462376296652025
30
0
41
1
10
10.0426687578424
20
0.817721827372026
30
0
0
SPLINE
5
198
100
AcDbEntity
8
1
62
256
6
ByLayer
370
-1
48
1
60
0
100
AcDbSpline
70
4
71
3
72
10
73
6
40
0
40
0
40
0
40
0
40
0.337034963395213
40
0.337034963395213
40
1
40
1
40
1
40
1
41
1
10
110.613208356231
20
22.3726159877439
30
0
41
1
10
112.508265867853
20
22.3644906392409
30
0
41
1
10
114.403680240942
20
22.3382802861007
30
0
41
1
10
120.02960305287
20
22.2068417815592
30
0
41
1
10
123.762183778745
20
22.049759310899
30
0
41
1
10
127.5
20
21.8240060712433
30
0
0
SPLINE
5
199
100
AcDbEntity
8
1
62
256
6
ByLayer
370
-1
48
1
60
0
100
AcDbSpline
70
4
71
3
72
8
73
4
40
0
40
0
40
0
40
0
40
1
40
1
40
1
40
1
41
1
10
202.178585730276
20
22.2800533680041
30
0
41
1
10
202.494843142192
20
22.2823801220953
30
0
41
1
10
202.806344445488
20
22.2851507484927
30
0
41
1
10
203.113211432516
20
22.2879337098094
30
0
0
SPLINE
5
19A
100
AcDbEntity
8
1
62
256
6
ByLayer
370
-1
48
1
60
0
100
AcDbSpline
70
4
71
2
72
6
73
3
40
0
40
0
40
0
40
1
40
1
40
1
41
1
10
29.2108395938264
20
-12.4345362957826
30
0
41
1
10
29.2108395938264
20
-13.5327202328152
30
0
41
1
10
29.2108395938264
20
-14.6309041698478
30
0
0
SPLINE
5
19B
100
AcDbEntity
8
1
62
256
6
ByLayer
370
-1
48
1
60
0
100
AcDbSpline
70
4
71
3
72
13
73
9
40
0
40
0
40
0
40
0
40
0.137559015648449
40
0.453349568110038
40
0.690192482456231
40
0.769140120571628
40
0.927035396802424
40
1
40
1
40
1
40
1
41
1
10
186.556183228476
20
13.2544720108008
30
0
41
1
10
186.204361348605
20
13.2395414406093
30
0
41
1
10
185.04487623086
20
13.189068735013
30
0
41
1
10
183.279677941683
20
13.1060490579856
30
0
41
1
10
181.664453573161
20
13.0234126945637
30
0
41
1
10
180.453106150807
20
12.9586537001948
30
0
41
1
10
179.660556070205
20
12.9149582953324
30
0
41
1
10
179.069546663682
20
12.8814109635356
30
0
41
1
10
178.882727621003
20
12.8707101513419
30
0
0
SPLINE
5
19C
100
AcDbEntity
8
1
62
256
6
ByLayer
370
-1
48
1
60
0
100
AcDbSpline
70
4
71
3
72
14
73
10
40
0
40
0
40
0
40
0
40
0.25
40
0.25
40
0.5
40
0.5
40
0.75
40
0.75
40
1
40
1
40
1
40
1
41
1
10
206.170566838793
20
7.28212921629088
30
0
41
1
10
206.142483867638
20
7.31827646969751
30
0
41
1
10
206.111676070721
20
7.35936636123375
30
0
41
1
10
206.047582901916
20
7.45149805732018
30
0
41
1
10
206.014066939376
20
7.50296652108528
30
0
41
1
10
205.949062509918
20
7.61237166782379
30
0
41
1
10
205.917190321408
20
7.6707863878768
30
0
41
1
10
205.855745073618
20
7.79617642621798
30
0
41
1
10
205.827449185439
20
7.86056664845569
30
0
41
1
10
205.801608535508
20
7.92670381906996
30
0
0
SPLINE
5
19D
100
AcDbEntity
8
1
62
256
6
ByLayer
370
-1
48
1
60
0
100
AcDbSpline
70
4
71
3
72
10
73
6
40
0
40
0
40
0
40
0
40
0.923147999817106
40
0.923147999817106
40
1
40
1
40
1
40
1
41
1
10
127.5
20
-21.1838521790779
30
0
41
1
10
135.593689533176
20
-20.4846698074766
30
0
41
1
10
143.665786181018
20
-19.4675709598515
30
0
41
1
10
152.41237541116
20
-18.0675217281999
30
0
41
1
10
153.084587163613
20
-17.9580267572769
30
0
41
1
10
153.756833334403
20
-17.8466693469346
30
0
0
SPLINE
5
19E
100
AcDbEntity
8
1
62
256
6
ByLayer
370
-1
48
1
60
0
100
AcDbSpline
70
4
71
3
72
22
73
18
40
0
40
0
40
0
40
0
40
0.25
40
0.25
40
0.375
40
0.375
40
0.5
40
0.5
40
0.5625
40
0.5625
40
0.625
40
0.625
40
0.75
40
0.75
40
0.875
40
0.875
40
1
40
1
40
1
40
1
41
1
10
9.63136697309972
20
-0.930279467094181
30
0
41
1
10
10.4128716266813
20
-2.21832080739952
30
0
41
1
10
11.2299541510808
20
-3.44507731816398
30
0
41
1
10
12.5129307938818
20
-5.19195458727441
30
0
41
1
10
12.9502429592065
20
-5.75857835919314
30
0
41
1
10
13.8461385766108
20
-6.85859167471304
30
0
41
1
10
14.3047093020888
20
-7.39199580803836
30
0
41
1
10
15.0108503354486
20
-8.16468748758064
30
0
41
1
10
15.2486869965441
20
-8.4169763636659
30
0
41
1
10
15.7267268758399
20
-8.90769067100237
30
0
41
1
10
15.9673440046182
20
-9.146573126296
30
0
41
1
10
16.6944161178482
20
-9.84323468581357
30
0
41
1
10
17.1860564843668
20
-10.28111549873
30
0
41
1
10
18.186195245461
20
-11.098919060524
30
0
41
1
10
18.6891863880633
20
-11.4743238237632
30
0
41
1
10
19.7033416741451
20
-12.1538856031986
30
0
41
1
10
20.2145112111504
20
-12.4581009787568
30
0
41
1
10
20.7313669730998
20
-12.722813735146
30
0
0
SPLINE
5
19F
100
AcDbEntity
8
1
62
256
6
ByLayer
370
-1
48
1
60
0
100
AcDbSpline
70
4
71
3
72
56
73
52
40
0
40
0
40
0
40
0
40
0.0625000000000002
40
0.0625000000000002
40
0.125
40
0.125
40
0.140625
40
0.140625
40
0.15625
40
0.15625
40
0.187500000000001
40
0.187500000000001
40
0.250000000000001
40
0.250000000000001
40
0.28125
40
0.28125
40
0.3125
40
0.3125
40
0.375
40
0.375
40
0.4375
40
0.4375
40
0.5
40
0.5
40
0.5625
40
0.5625
40
0.578125
40
0.578125
40
0.59375
40
0.59375
40
0.625
40
0.625
40
0.6875
40
0.6875
40
0.703125
40
0.703125
40
0.71875
40
0.71875
40
0.75
40
0.75
40
0.8125
40
0.8125
40
0.84375
40
0.84375
40
0.875
40
0.875
40
0.9375
40
0.9375
40
0.96875
40
0.96875
40
1
40
1
40
1
40
1
41
1
10
19.0830117814202
20
18.476654987911
30
0
41
1
10
18.5840928615973
20
18.6851065647134
30
0
41
1
10
18.0795956237716
20
18.8576810647969
30
0
41
1
10
17.060446937168
20
19.1310004332909
30
0
41
1
10
16.5457968188436
20
19.2317735531872
30
0
41
1
10
15.8964555181917
20
19.3104744155229
30
0
41
1
10
15.7662845256669
20
19.3238406179176
30
0
41
1
10
15.5053394803576
20
19.3457182893069
30
0
41
1
10
15.3743218548507
20
19.354234317469
30
0
41
1
10
14.9834137790544
20
19.3722062518213
30
0
41
1
10
14.7249879693404
20
19.3741900757553
30
0
41
1
10
13.9563849446459
20
19.3505451957209
30
0
41
1
10
13.4528505585676
20
19.2954820212396
30
0
41
1
10
12.711902974119
20
19.152711678675
30
0
41
1
10
12.4673200879826
20
19.0950534750423
30
0
41
1
10
11.9832367292939
20
18.9588654801735
30
0
41
1
10
11.7426962480697
20
18.8798803891095
30
0
41
1
10
11.0413452878031
20
18.6148165071731
30
0
41
1
10
10.5981436840013
20
18.4005068737963
30
0
41
1
10
9.76047072827177
20
17.8976158115468
30
0
41
1
10
9.36597957534451
20
17.6090597973495
30
0
41
1
10
8.629039160004
20
16.9529336432231
30
0
41
1
10
8.2974112691513
20
16.594943690589
30
0
41
1
10
7.70541167301536
20
15.8219264879571
30
0
41
1
10
7.44494387168777
20
15.4068019681116
30
0
41
1
10
7.16500639658344
20
14.8508242986966
30
0
41
1
10
7.11134676589265
20
14.7377907958274
30
0
41
1
10
7.00960126939358
20
14.5101251341021
30
0
41
1
10
6.96137930867653
20
14.395231404709
30
0
41
1
10
6.82450800337637
20
14.0474185200541
30
0
41
1
10
6.74364207463151
20
13.8113722758916
30
0
41
1
10
6.53135958795707
20
13.090950730356
30
0
41
1
10
6.43009884190866
20
12.5943599679789
30
0
41
1
10
6.35363261267093
20
11.9529395736072
30
0
41
1
10
6.34086040655814
20
11.8235028579346
30
0
41
1
10
6.32052474964911
20
11.5647211605585
30
0
41
1
10
6.31292462305592
20
11.4351155068846
30
0
41
1
10
6.29763818694872
20
11.0456589663359
30
0
41
1
10
6.29745526085821
20
10.7851693082122
30
0
41
1
10
6.32583406259036
20
10.0011520808222
30
0
41
1
10
6.38318379443652
20
9.47508832048064
30
0
41
1
10
6.52527392575334
20
8.68071931647381
30
0
41
1
10
6.58213673214274
20
8.41490431531977
30
0
41
1
10
6.71250064397279
20
7.88929531633079
30
0
41
1
10
6.78615562385105
20
7.62850125899971
30
0
41
1
10
7.03146884761821
20
6.85184918295545
30
0
41
1
10
7.22736539980215
20
6.34169488451235
30
0
41
1
10
7.56772710378812
20
5.58723384775757
30
0
41
1
10
7.68929537268662
20
5.33691935802645
30
0
41
1
10
7.94642645619393
20
4.84282478233246
30
0
41
1
10
8.08144047774917
20
4.60000020515847
30
0
41
1
10
8.22260994977654
20
4.36120378857058
30
0
0
SPLINE
5
1A0
100
AcDbEntity
8
1
62
256
6
ByLayer
370
-1
48
1
60
0
100
AcDbSpline
70
4
71
3
72
25
73
21
40
0
40
0
40
0
40
0
40
0.250000000000002
40
0.250000000000002
40
0.312500000000003
40
0.312500000000003
40
0.375000000000003
40
0.375000000000003
40
0.500000000000004
40
0.500000000000004
40
0.625000000000006
40
0.625000000000006
40
0.687500000000006
40
0.687500000000006
40
0.718750000000006
40
0.734375000000006
40
0.734375000000006
40
0.750000000000006
40
0.750000000000006
40
1
40
1
40
1
40
1
41
1
10
33
20
12.4496969200092
30
0
41
1
10
31.7889922644642
20
12.8580813218456
30
0
41
1
10
30.569358067209
20
13.2764968387619
30
0
41
1
10
29.0415541953742
20
13.8374400875288
30
0
41
1
10
28.7350758560647
20
13.9518604636873
30
0
41
1
10
28.12677980581
20
14.1835627864435
30
0
41
1
10
27.824899508019
20
14.3008554151304
30
0
41
1
10
26.926406700611
20
14.6580172646744
30
0
41
1
10
26.3369331821747
20
14.9031606064561
30
0
41
1
10
25.1790458884649
20
15.4128192444836
30
0
41
1
10
24.6106255207196
20
15.6773257619973
30
0
41
1
10
23.7755720571702
20
16.0928953889635
30
0
41
1
10
23.5000235316019
20
16.2346273143026
30
0
41
1
10
23.0917760504285
20
16.4523001578338
30
0
41
1
10
22.8892533530272
20
16.5622273350185
30
0
41
1
10
22.6891631368485
20
16.6738803001859
30
0
41
1
10
22.5563140260502
20
16.7487092243475
30
0
41
1
10
22.4901800125767
20
16.7863355651471
30
0
41
1
10
21.361730397446
20
17.4224744265959
30
0
41
1
10
20.2478422365827
20
17.9768368569707
30
0
41
1
10
19.0830117814188
20
18.4766549879046
30
0
0
SPLINE
5
1A1
100
AcDbEntity
8
1
62
256
6
ByLayer
370
-1
48
1
60
0
100
AcDbSpline
70
4
71
3
72
20
73
16
40
0
40
0
40
0
40
0
40
0.0664296158003981
40
0.0664296158003981
40
0.2998222118503
40
0.2998222118503
40
0.416518509875251
40
0.416518509875251
40
0.5332148079002
40
0.5332148079002
40
0.64991110592515
40
0.64991110592515
40
0.7666074039501
40
0.7666074039501
40
1
40
1
40
1
40
1
41
1
10
155.555910445237
20
18.9453155622717
30
0
41
1
10
156.272023271944
20
19.0498133045233
30
0
41
1
10
156.988182809575
20
19.1520889868346
30
0
41
1
10
160.220778459943
20
19.6034809030803
30
0
41
1
10
162.737818925299
20
19.9271808253531
30
0
41
1
10
166.516171096029
20
20.3680110739698
30
0
41
1
10
167.776140164194
20
20.5074326962286
30
0
41
1
10
170.297197740133
20
20.7711453858824
30
0
41
1
10
171.558252603626
20
20.895651572375
30
0
41
1
10
174.079670463094
20
21.1289200970397
30
0
41
1
10
175.340245313394
20
21.2377904154054
30
0
41
1
10
177.860525538337
20
21.4405643446584
30
0
41
1
10
179.120822734234
20
21.5338367633317
30
0
41
1
10
182.901707455621
20
21.7899726577346
30
0
41
1
10
185.421568314997
20
21.9296060731934
30
0
41
1
10
187.942571423077
20
22.0365591648414
30
0
0
SPLINE
5
1A2
100
AcDbEntity
8
1
62
256
6
ByLayer
370
-1
48
1
60
0
100
AcDbSpline
70
4
71
3
72
10
73
6
40
0
40
0
40
0
40
0
40
0.5
40
0.5
40
1
40
1
40
1
40
1
41
1
10
9.63136697310003
20
-0.930279467087644
30
0
41
1
10
9.29338417123466
20
-0.0644357867673477
30
0
41
1
10
9.02087138210885
20
0.812333021946131
30
0
41
1
10
8.56252531774442
20
2.57853981718955
30
0
41
1
10
8.37719257829139
20
3.46807566230098
30
0
41
1
10
8.22260994977654
20
4.36120378857055
30
0
0
SPLINE
5
1A3
100
AcDbEntity
8
1
62
256
6
ByLayer
370
-1
48
1
60
0
100
AcDbSpline
70
4
71
3
72
12
73
8
40
0
40
0
40
0
40
0
40
0.25
40
0.25
40
0.5
40
0.5
40
1
40
1
40
1
40
1
41
1
10
205.911007620347
20
14.6806302989824
30
0
41
1
10
205.915202607
20
14.6806302989824
30
0
41
1
10
205.923373692772
20
14.6863072696042
30
0
41
1
10
205.946759976588
20
14.7071066150166
30
0
41
1
10
205.962193355247
20
14.7224488273832
30
0
41
1
10
206.015976903286
20
14.7771438268958
30
0
41
1
10
206.062447920437
20
14.8255015492805
30
0
41
1
10
206.116388497171
20
14.8772344162468
30
0
0
SPLINE
5
1A4
100
AcDbEntity
8
1
62
256
6
ByLayer
370
-1
48
1
60
0
100
AcDbSpline
70
4
71
3
72
8
73
4
40
0
40
0
40
0
40
0
40
1
40
1
40
1
40
1
41
1
10
35.1830117814204
20
11.6634639012739
30
0
41
1
10
36.1220061439501
20
11.4366344348353
30
0
41
1
10
37.0609613967049
20
11.2073756024527
30
0
41
1
10
38
20
10.9760683689545
30
0
0
SPLINE
5
1A5
100
AcDbEntity
8
1
62
256
6
ByLayer
370
-1
48
1
60
0
100
AcDbSpline
70
4
71
3
72
8
73
4
40
0
40
0
40
0
40
0
40
1
40
1
40
1
40
1
41
1
10
199.698407472038
20
8.22237369332467
30
0
41
1
10
200.134952566117
20
7.98242317354081
30
0
41
1
10
200.583496771575
20
7.76336691626344
30
0
41
1
10
201.049426566743
20
7.56787767331403
30
0
0
SPLINE
5
1A6
100
AcDbEntity
8
1
62
256
6
ByLayer
370
-1
48
1
60
0
100
AcDbSpline
70
4
71
3
72
20
73
16
40
0
40
0
40
0
40
0
40
0.250000000000009
40
0.250000000000009
40
0.500000000000018
40
0.500000000000018
40
0.625000000000017
40
0.625000000000017
40
0.750000000000015
40
0.750000000000015
40
0.875000000000013
40
0.875000000000013
40
0.937500000000007
40
0.937500000000007
40
1
40
1
40
1
40
1
41
1
10
186.556183228475
20
13.2544720108007
30
0
41
1
10
186.016657446345
20
13.2977254069562
30
0
41
1
10
185.478182042825
20
13.3469326856329
30
0
41
1
10
184.404122268918
20
13.4617237546248
30
0
41
1
10
183.868507738584
20
13.5271214153408
30
0
41
1
10
183.068421941538
20
13.6443754081127
30
0
41
1
10
182.802290092923
20
13.6866980901938
30
0
41
1
10
182.271566051392
20
13.7803172255354
30
0
41
1
10
182.006961246581
20
13.8315345314108
30
0
41
1
10
181.480073161626
20
13.9477432078945
30
0
41
1
10
181.217501548655
20
14.0125321464394
30
0
41
1
10
180.830874165231
20
14.1277871468775
30
0
41
1
10
180.703104325138
20
14.1692816697606
30
0
41
1
10
180.451088073139
20
14.2621500605694
30
0
41
1
10
180.32674717391
20
14.3132530979266
30
0
41
1
10
180.205822383231
20
14.3740122732084
30
0
0
SPLINE
5
1A7
100
AcDbEntity
8
1
62
256
6
ByLayer
370
-1
48
1
60
0
100
AcDbSpline
70
4
71
3
72
87
73
83
40
0
40
0
40
0
40
0
40
0.0235022624608567
40
0.0470045249217136
40
0.0587556561521418
40
0.0705067873825703
40
0.0881334842282128
40
0.094009049843427
40
0.105760181073856
40
0.117511312304284
40
0.135138009149926
40
0.141013574765141
40
0.152764705995569
40
0.164515837225997
40
0.18214253407164
40
0.188018099686854
40
0.199769230917283
40
0.211520362147711
40
0.229147058993353
40
0.235022624608568
40
0.246773755838996
40
0.258524887069425
40
0.276151583915067
40
0.282027149530281
40
0.29377828076071
40
0.305529411991138
40
0.323156108836781
40
0.329031674451994
40
0.340782805682423
40
0.352533936912851
40
0.370160633758494
40
0.376036199373708
40
0.387787330604136
40
0.399538461834565
40
0.417165158680208
40
0.423040724295422
40
0.43479185552585
40
0.446542986756279
40
0.464169683601921
40
0.470045249217135
40
0.481796380447564
40
0.493547511677992
40
0.511174208523635
40
0.517049774138849
40
0.528800905369277
40
0.540552036599706
40
0.558178733445348
40
0.564054299060562
40
0.575805430290991
40
0.587556561521419
40
0.611058823982276
40
0.622809955212704
40
0.634561086443133
40
0.658063348903989
40
0.669814480134418
40
0.681565611364846
40
0.705067873825703
40
0.710943439440917
40
0.716819005056131
40
0.72857013628656
40
0.734445701901774
40
0.740321267516988
40
0.74913461593981
40
0.752072398747416
40
0.757947964362631
40
0.763823529977845
40
0.775574661208273
40
0.787325792438701
40
0.79907692366913
40
0.822579186129987
40
0.846081448590843
40
0.857832579821272
40
0.8695837110517
40
0.893085973512557
40
0.904837104742986
40
0.916588235973414
40
0.94009049843427
40
0.951841629664699
40
0.963592760895127
40
0.987095023355984
40
0.998846154586412
40
1
40
1
40
1
40
1
41
1
10
19.0830117814194
20
16.3528169420744
30
0
41
1
10
19.0053194808996
20
16.2806138950897
30
0
41
1
10
18.8473426861851
20
16.1291310603054
30
0
41
1
10
18.6437715997998
20
15.9218364289844
30
0
41
1
10
18.4774829096131
20
15.7450865297414
30
0
41
1
10
18.330069526745
20
15.5840619447727
30
0
41
1
10
18.2017655604151
20
15.4392156223135
30
0
41
1
10
18.0720190335692
20
15.2889067731938
30
0
41
1
10
17.963019733794
20
15.1602348349819
30
0
41
1
10
17.8088985227612
20
14.9737677912016
30
0
41
1
10
17.6752871771292
20
14.8072116023878
30
0
41
1
10
17.5406180337362
20
14.6353346785058
30
0
41
1
10
17.4277634911847
20
14.4887911784049
30
0
41
1
10
17.2687273500503
20
14.2775478924986
30
0
41
1
10
17.1314430670826
20
14.0900739954815
30
0
41
1
10
16.9935604649904
20
13.897603861967
30
0
41
1
10
16.8783209624042
20
13.7341165908544
30
0
41
1
10
16.7165094928946
20
13.4996126526437
30
0
41
1
10
16.5774682604766
20
13.2927536377172
30
0
41
1
10
16.4383478670962
20
13.0814113195672
30
0
41
1
10
16.3224058529978
20
12.9025325749754
30
0
41
1
10
16.1602350329649
20
12.6471582727607
30
0
41
1
10
16.0215653210572
20
12.4231918921585
30
0
41
1
10
15.8833730200558
20
12.1954339167311
30
0
41
1
10
15.7685549702899
20
12.0033216284475
30
0
41
1
10
15.6086140070997
20
11.7302973584623
30
0
41
1
10
15.4725608646898
20
11.492189364213
30
0
41
1
10
15.337551837452
20
11.2511360725097
30
0
41
1
10
15.2257412254385
20
11.0484851134462
30
0
41
1
10
15.0706658720498
20
10.7617482908928
30
0
41
1
10
14.9394778265552
20
10.5130371323775
30
0
41
1
10
14.8098806486132
20
10.2623423981781
30
0
41
1
10
14.7029197756249
20
10.0522665964723
30
0
41
1
10
14.5552529233385
20
9.75629053557918
30
0
41
1
10
14.4310614348505
20
9.50091680442978
30
0
41
1
10
14.3089579548668
20
9.24458735059036
30
0
41
1
10
14.2085483787695
20
9.03046303092745
30
0
41
1
10
14.0706027282104
20
8.73002816646809
30
0
41
1
10
13.9553078570465
20
8.47212941500547
30
0
41
1
10
13.8425229582568
20
8.21431397860246
30
0
41
1
10
13.7501364765962
20
7.99960106970875
30
0
41
1
10
13.6238757606456
20
7.69954041693293
30
0
41
1
10
13.5190511897804
20
7.44323060906919
30
0
41
1
10
13.4170639580478
20
7.18799990779658
30
0
41
1
10
13.3338725642229
20
6.97605940599991
30
0
41
1
10
13.22082173179
20
6.68100639444052
30
0
41
1
10
13.1276474840616
20
6.43016536662469
30
0
41
1
10
13.0375327292904
20
6.18130841462138
30
0
41
1
10
12.9643656001477
20
5.97523742554225
30
0
41
1
10
12.8514460153459
20
5.64857146848942
30
0
41
1
10
12.744798696557
20
5.32685701423574
30
0
41
1
10
12.644524710327
20
5.01085419195809
30
0
41
1
10
12.5484997326009
20
4.698861101548
30
0
41
1
10
12.4588484478273
20
4.39318557476469
30
0
41
1
10
12.3755712164
20
4.09443354325887
30
0
41
1
10
12.2965140916873
20
3.80044481026661
30
0
41
1
10
12.232839591012
20
3.54965026912879
30
0
41
1
10
12.1821354977319
20
3.33956433536272
30
0
41
1
10
12.149364272425
20
3.20084537108986
30
0
41
1
10
12.1181379376951
20
3.06418905521818
30
0
41
1
10
12.0884517640568
20
2.92970570983655
30
0
41
1
10
12.0633381545341
20
2.8131581482256
30
0
41
1
10
12.0426963008559
20
2.71431362942704
30
0
41
1
10
12.022714623046
20
2.61612899430986
30
0
41
1
10
12.0064660218711
20
2.53468280292108
30
0
41
1
10
11.981307884519
20
2.4050255939963
30
0
41
1
10
11.9513976168069
20
2.24391934620277
30
0
41
1
10
11.9178470874817
20
2.05128492920713
30
0
41
1
10
11.8764003673338
20
1.79582233694526
30
0
41
1
10
11.8310649333963
20
1.47994875972287
30
0
41
1
10
11.794941680881
20
1.17009601881929
30
0
41
1
10
11.7719193235773
20
0.926675099194995
30
0
41
1
10
11.752914853867
20
0.68652352532024
30
0
41
1
10
11.7400878022284
20
0.451718715595462
30
0
41
1
10
11.7337393420246
20
0.223146161072123
30
0
41
1
10
11.7317868241017
20
-0.0009780394932761
30
0
41
1
10
11.7365435415871
20
-0.21798943338618
30
0
41
1
10
11.748240138454
20
-0.42700746913556
30
0
41
1
10
11.7646096821214
20
-0.630420584418403
30
0
41
1
10
11.788058186809
20
-0.825012296445124
30
0
41
1
10
11.8118108855889
20
-0.968258871637744
30
0
41
1
10
11.8209573236352
20
-1.01802805072265
30
0
41
1
10
11.8217809279874
20
-1.02246988417099
30
0
0
SPLINE
5
1A8
100
AcDbEntity
8
1
62
256
6
ByLayer
370
-1
48
1
60
0
100
AcDbSpline
70
4
71
3
72
8
73
4
40
0
40
0
40
0
40
0
40
1
40
1
40
1
40
1
41
1
10
31.2987685004539
20
-13.2844939246927
30
0
41
1
10
30.598228472984
20
-13.0146522543591
30
0
41
1
10
29.9021343780202
20
-12.7317395024719
30
0
41
1
10
29.2108395938264
20
-12.4345362957706
30
0
0
SPLINE
5
1A9
100
AcDbEntity
8
1
62
256
6
ByLayer
370
-1
48
1
60
0
100
AcDbSpline
70
4
71
3
72
32
73
28
40
0
40
0
40
0
40
0
40
0.0625
40
0.0625
40
0.0937500000000001
40
0.0937500000000001
40
0.125
40
0.125
40
0.15625
40
0.15625
40
0.1875
40
0.1875
40
0.25
40
0.25
40
0.375
40
0.375
40
0.4375
40
0.4375
40
0.5
40
0.5
40
0.625
40
0.625
40
0.75
40
0.75
40
0.875
40
0.875
40
1
40
1
40
1
40
1
41
1
10
38
20
10.9760683689545
30
0
41
1
10
39.866788169276
20
10.5131770852549
30
0
41
1
10
41.7326440553298
20
10.04308209777
30
0
41
1
10
44.5300346073968
20
9.3272133273183
30
0
41
1
10
45.4620141003305
20
9.08595141675963
30
0
41
1
10
47.3260127527277
20
8.60154700196398
30
0
41
1
10
48.2580299550133
20
8.35840492274986
30
0
41
1
10
50.1216143491736
20
7.86860294304523
30
0
41
1
10
51.0530550998379
20
7.62150572099415
30
0
41
1
10
52.9159538650861
20
7.12538274784421
30
0
41
1
10
53.8474582306502
20
6.87652201982846
30
0
41
1
10
56.6414355276275
20
6.12512966217255
30
0
41
1
10
58.5036732069706
20
5.61881285796022
30
0
41
1
10
64.0912389202971
20
4.09105610471346
30
0
41
1
10
67.8168131649851
20
3.05869544282763
30
0
41
1
10
73.4094303547679
20
1.5018374057594
30
0
41
1
10
75.2743668967448
20
0.981577618811968
30
0
41
1
10
79.0063604244089
20
-0.0591424492371573
30
0
41
1
10
80.8741122619234
20
-0.579795664524511
30
0
41
1
10
86.4764986228386
20
-2.13705525310826
30
0
41
1
10
90.2067650341918
20
-3.16824492540405
30
0
41
1
10
97.6632272323237
20
-5.19776221585781
30
0
41
1
10
101.389375127055
20
-6.19627097919354
30
0
41
1
10
108.842510991271
20
-8.14341650261278
30
0
41
1
10
112.56942620799
20
-9.09230240400876
30
0
41
1
10
120.029039212825
20
-10.9236288301283
30
0
41
1
10
123.761853213856
20
-11.8056965789651
30
0
41
1
10
127.5
20
-12.6466993240404
30
0
0
SPLINE
5
1AA
100
AcDbEntity
8
1
62
256
6
ByLayer
370
-1
48
1
60
0
100
AcDbSpline
70
4
71
3
72
16
73
12
40
0
40
0
40
0
40
0
40
0.153125665075764
40
0.153125665075764
40
0.435417110050525
40
0.435417110050525
40
0.717708555025287
40
0.717708555025287
40
0.858854277512643
40
0.858854277512643
40
1
40
1
40
1
40
1
41
1
10
209.292523012587
20
7.20973391157597
30
0
41
1
10
209.271391311716
20
7.1902506445461
30
0
41
1
10
209.250441355504
20
7.17180411497691
30
0
41
1
10
209.191700778254
20
7.12219293262146
30
0
41
1
10
209.154562074563
20
7.09340203462097
30
0
41
1
10
209.085030933474
20
7.04337803900427
30
0
41
1
10
209.053184530348
20
7.02257489228748
30
0
41
1
10
209.016017268225
20
7.00057284847384
30
0
41
1
10
209.00542275835
20
6.99479217145151
30
0
41
1
10
208.989382175935
20
6.98706886912802
30
0
41
1
10
208.983811364439
20
6.98504795216624
30
0
41
1
10
208.981015100648
20
6.98504795216624
30
0
0
SPLINE
5
1AB
100
AcDbEntity
8
1
62
256
6
ByLayer
370
-1
48
1
60
0
100
AcDbSpline
70
4
71
3
72
20
73
16
40
0
40
0
40
0
40
0
40
0.25
40
0.25
40
0.375
40
0.375
40
0.5
40
0.5
40
0.625
40
0.625
40
0.75
40
0.75
40
0.875
40
0.875
40
1
40
1
40
1
40
1
41
1
10
203.113211432516
20
14.1999999999998
30
0
41
1
10
203.113211432516
20
14.0042894172134
30
0
41
1
10
203.084898167227
20
13.8134131371066
30
0
41
1
10
203.000376079289
20
13.5342788501012
30
0
41
1
10
202.96500234919
20
13.4427416942078
30
0
41
1
10
202.882188857006
20
13.2682498712133
30
0
41
1
10
202.834535876525
20
13.1844982734131
30
0
41
1
10
202.726605276768
20
13.0240576447147
30
0
41
1
10
202.665743804006
20
12.9468310127711
30
0
41
1
10
202.534685306311
20
12.804254976025
30
0
41
1
10
202.464340134296
20
12.7384699754683
30
0
41
1
10
202.314126050357
20
12.6177824798648
30
0
41
1
10
202.233674308477
20
12.5625524396717
30
0
41
1
10
202.065464030797
20
12.4651455592453
30
0
41
1
10
201.978595747418
20
12.4233550907413
30
0
41
1
10
201.889046823166
20
12.3882711821904
30
0
0
SPLINE
5
1AC
100
AcDbEntity
8
1
62
256
6
ByLayer
370
-1
48
1
60
0
100
AcDbSpline
70
4
71
3
72
8
73
4
40
0
40
0
40
0
40
0
40
1
40
1
40
1
40
1
41
1
10
19.0830117814202
20
16.3528169420788
30
0
41
1
10
19.0830117814202
20
17.0607629573562
30
0
41
1
10
19.0830117814202
20
17.7687089726336
30
0
41
1
10
19.0830117814202
20
18.476654987911
30
0
0
SPLINE
5
1AD
100
AcDbEntity
8
1
62
256
6
ByLayer
370
-1
48
1
60
0
100
AcDbSpline
70
4
71
1
72
4
73
2
40
0
40
0
40
1
40
1
41
1
10
35.18301178142
20
6.68746945725798
30
0
41
1
10
35.1830117814201
20
11.663463901274
30
0
0
SPLINE
5
1AE
100
AcDbEntity
8
1
62
256
6
ByLayer
370
-1
48
1
60
0
100
AcDbSpline
70
4
71
3
72
10
73
6
40
0
40
0
40
0
40
0
40
0.5
40
0.5
40
1
40
1
40
1
40
1
41
1
10
202.163074189226
20
-22.1855837217025
30
0
41
1
10
202.698341467447
20
-22.1946823198255
30
0
41
1
10
203.221158578085
20
-22.2072162294274
30
0
41
1
10
204.242699791568
20
-22.2350334458988
30
0
41
1
10
204.741423899611
20
-22.2503355579491
30
0
41
1
10
205.227710386567
20
-22.2640265617688
30
0
0
SPLINE
5
1AF
100
AcDbEntity
8
1
62
256
6
ByLayer
370
-1
48
1
60
0
100
AcDbSpline
70
4
71
3
72
22
73
18
40
0
40
0
40
0
40
0
40
0.249999999999999
40
0.249999999999999
40
0.374999999999998
40
0.374999999999998
40
0.437499999999998
40
0.437499999999998
40
0.499999999999997
40
0.499999999999997
40
0.749999999999998
40
0.749999999999998
40
0.874999999999999
40
0.874999999999999
40
0.937499999999999
40
0.937499999999999
40
1
40
1
40
1
40
1
41
1
10
20.7313669730998
20
-7.23632570713681
30
0
41
1
10
21.2473081108057
20
-7.65449917110641
30
0
41
1
10
21.8215330593708
20
-8.0745254610581
30
0
41
1
10
22.7613323973734
20
-8.72296979467836
30
0
41
1
10
23.0877704407283
20
-8.94199817768907
30
0
41
1
10
23.5969311879271
20
-9.27519700184857
30
0
41
1
10
23.7699081748436
20
-9.38702844767508
30
0
41
1
10
24.1224102952715
20
-9.61214967765585
30
0
41
1
10
24.302128060145
20
-9.72555231448428
30
0
41
1
10
25.2083669961417
20
-10.2903207565823
30
0
41
1
10
25.9639196229665
20
-10.7397738438448
30
0
41
1
10
27.1447563071553
20
-11.3958831864928
30
0
41
1
10
27.5463806511053
20
-11.6114569016262
30
0
41
1
10
28.1618772915022
20
-11.9273277612642
30
0
41
1
10
28.3694604546923
20
-12.0314757193499
30
0
41
1
10
28.7877108517888
20
-12.2359595590415
30
0
41
1
10
28.9984254761045
20
-12.3363263730522
30
0
41
1
10
29.2108395938621
20
-12.434536295787
30
0
0
SPLINE
5
1B0
100
AcDbEntity
8
1
62
256
6
ByLayer
370
-1
48
1
60
0
100
AcDbSpline
70
4
71
4
72
19
73
14
40
0
40
0
40
0
40
0
40
0
40
0.441637561163697
40
0.441637561163697
40
0.441637561163697
40
0.662456341745546
40
0.662456341745546
40
0.662456341745546
40
0.883275122327395
40
0.883275122327395
40
0.883275122327395
40
1
40
1
40
1
40
1
40
1
41
1
10
35.1830117814229
20
6.68746945725755
30
0
41
1
10
35.1830117814229
20
5.62380196749726
30
0
41
0.974581796258695
10
35.0474921695454
20
3.61019089017871
30
0
41
0.974581796258695
10
34.6970673951201
20
0.656496329815607
30
0
41
0.987290898129347
10
34.0621530033873
20
-3.76941586615066
30
0
41
0.993645449064674
10
33.8367118232709
20
-5.21565858059899
30
0
41
1
10
33.6101299535989
20
-6.55771416662029
30
0
41
1
10
33.1898700464063
20
-8.8909396574638
30
0
41
0.993645449064674
10
32.9632881767343
20
-10.0647871353974
30
0
41
0.987290898129347
10
32.7378469966179
20
-11.121781580293
30
0
41
0.980815185741653
10
32.4163928915663
20
-12.4503019054786
30
0
41
0.97916769990968
10
32.3095691745495
20
-12.856264559071
30
0
41
0.978424930339269
10
32.2100242992436
20
-13.1949173026323
30
0
41
0.978568981411162
10
32.1194641212357
20
-13.4611319167881
30
0
0
SPLINE
5
1B1
100
AcDbEntity
8
1
62
256
6
ByLayer
370
-1
48
1
60
0
100
AcDbSpline
70
4
71
3
72
22
73
18
40
0
40
0
40
0
40
0
40
0.25
40
0.25
40
0.5
40
0.5
40
0.625
40
0.625
40
0.6875
40
0.6875
40
0.75
40
0.75
40
0.8125
40
0.8125
40
0.875
40
0.875
40
1
40
1
40
1
40
1
41
1
10
127.5
20
-12.6466993240404
30
0
41
1
10
132.704353254785
20
-13.8324738473085
30
0
41
1
10
137.899220104082
20
-14.936997419804
30
0
41
1
10
148.284973239407
20
-16.9432921335784
30
0
41
1
10
153.475348130745
20
-17.8466427750885
30
0
41
1
10
161.266223804439
20
-19.0303554859609
30
0
41
1
10
163.864077338321
20
-19.3963316426541
30
0
41
1
10
167.764015279718
20
-19.8988782547222
30
0
41
1
10
169.064477531892
20
-20.0587510304903
30
0
41
1
10
171.666310310951
20
-20.3632240944403
30
0
41
1
10
172.967137817377
20
-20.5075761034377
30
0
41
1
10
175.56864620415
20
-20.7795338791986
30
0
41
1
10
176.868923477564
20
-20.9078375848128
30
0
41
1
10
179.469717019333
20
-21.1475028913858
30
0
41
1
10
180.77025914784
20
-21.2588903481463
30
0
41
1
10
184.671039726817
20
-21.5690693005605
30
0
41
1
10
187.272180416736
20
-21.741976104841
30
0
41
1
10
189.8743605536
20
-21.8808113061459
30
0
0
SPLINE
5
1B2
100
AcDbEntity
8
1
62
256
6
ByLayer
370
-1
48
1
60
0
100
AcDbSpline
70
4
71
3
72
94
73
90
40
-0.0312500000000018
40
-0.0312500000000018
40
0
40
0
40
0.0312500000000011
40
0.0312500000000011
40
0.0468750000000017
40
0.0468750000000017
40
0.0625000000000022
40
0.0625000000000022
40
0.0937500000000052
40
0.0937500000000052
40
0.125000000000008
40
0.125000000000008
40
0.156250000000011
40
0.156250000000011
40
0.17187500000001
40
0.17187500000001
40
0.187500000000009
40
0.187500000000009
40
0.218750000000013
40
0.218750000000013
40
0.250000000000017
40
0.250000000000017
40
0.265625000000019
40
0.265625000000019
40
0.281250000000021
40
0.281250000000021
40
0.312500000000025
40
0.312500000000025
40
0.328125000000026
40
0.328125000000026
40
0.343750000000028
40
0.343750000000028
40
0.375000000000027
40
0.375000000000027
40
0.406250000000025
40
0.406250000000025
40
0.421875000000024
40
0.421875000000024
40
0.437500000000023
40
0.437500000000023
40
0.468750000000022
40
0.468750000000022
40
0.48437500000002
40
0.48437500000002
40
0.500000000000019
40
0.500000000000019
40
0.531250000000015
40
0.531250000000015
40
0.546875000000013
40
0.546875000000013
40
0.562500000000012
40
0.57812500000001
40
0.57812500000001
40
0.593750000000008
40
0.593750000000008
40
0.625000000000007
40
0.625000000000007
40
0.640625000000005
40
0.640625000000005
40
0.656250000000003
40
0.656250000000003
40
0.687499999999998
40
0.687499999999998
40
0.718749999999993
40
0.718749999999993
40
0.749999999999988
40
0.749999999999988
40
0.765624999999989
40
0.765624999999989
40
0.78124999999999
40
0.796874999999991
40
0.796874999999991
40
0.812499999999991
40
0.812499999999991
40
0.843749999999992
40
0.843749999999992
40
0.859374999999993
40
0.859374999999993
40
0.874999999999994
40
0.874999999999994
40
0.906249999999995
40
0.906249999999995
40
0.937499999999997
40
0.937499999999997
40
0.953124999999997
40
0.953124999999997
40
0.968749999999998
40
0.968749999999998
40
1
40
1
40
1.03125
40
1.03125
41
1
10
211.73076681596
20
-4.26126082727106
30
0
41
1
10
211.716485613408
20
-3.98445242705574
30
0
41
1
10
211.722596497674
20
-3.84733127285884
30
0
41
1
10
211.751135783191
20
-3.64353831902227
30
0
41
1
10
211.763900239554
20
-3.57592467886056
30
0
41
1
10
211.796122728254
20
-3.44135744008591
30
0
41
1
10
211.815709174411
20
-3.37410675736507
30
0
41
1
10
211.883552353064
20
-3.177442661859
30
0
41
1
10
211.940932882788
20
-3.05203527298943
30
0
41
1
10
212.080001288985
20
-2.81271002106976
30
0
41
1
10
212.162755066021
20
-2.69787629100372
30
0
41
1
10
212.346742357543
20
-2.48974242530824
30
0
41
1
10
212.448311996162
20
-2.39535452701247
30
0
41
1
10
212.615348886116
20
-2.2686799927755
30
0
41
1
10
212.673785131638
20
-2.2288121055247
30
0
41
1
10
212.793175054137
20
-2.1558802006503
30
0
41
1
10
212.854346329828
20
-2.1226116157778
30
0
41
1
10
213.042205439933
20
-2.03222843556412
30
0
41
1
10
213.173655865032
20
-1.9843245249123
30
0
41
1
10
213.446731104377
20
-1.91528967310288
30
0
41
1
10
213.584560079692
20
-1.89501910717814
30
0
41
1
10
213.793175494001
20
-1.88528021893558
30
0
41
1
10
213.863028338311
20
-1.88550447986802
30
0
41
1
10
214.00338095397
20
-1.89309476577691
30
0
41
1
10
214.073636166845
20
-1.90049312827532
30
0
41
1
10
214.280659584583
20
-1.93287917422401
30
0
41
1
10
214.415235036082
20
-1.96801327668118
30
0
41
1
10
214.611919913529
20
-2.04107482920153
30
0
41
1
10
214.676947069527
20
-2.0690344006355
30
0
41
1
10
214.802709839303
20
-2.13080747833234
30
0
41
1
10
214.863627113396
20
-2.16464468335749
30
0
41
1
10
215.040632876189
20
-2.27477592362007
30
0
41
1
10
215.151271108916
20
-2.35983313838935
30
0
41
1
10
215.355765266517
20
-2.55262986597086
30
0
41
1
10
215.446711486041
20
-2.65753520551616
30
0
41
1
10
215.566962828448
20
-2.82699347798072
30
0
41
1
10
215.604331953553
20
-2.8855113996988
30
0
41
1
10
215.673537287852
20
-3.00667723721682
30
0
41
1
10
215.705274537802
20
-3.06924401357512
30
0
41
1
10
215.790207077078
20
-3.25904825299986
30
0
41
1
10
215.833993179246
20
-3.38966257340684
30
0
41
1
10
215.880744892426
20
-3.59154296774167
30
0
41
1
10
215.893190602388
20
-3.66020316527471
30
0
41
1
10
215.911278645382
20
-3.79747921560352
30
0
41
1
10
215.916960159097
20
-3.86604207180187
30
0
41
1
10
215.924246187648
20
-4.0715070237016
30
0
41
1
10
215.916181747851
20
-4.20818595049502
30
0
41
1
10
215.884351272813
20
-4.41275694844663
30
0
41
1
10
215.870467504489
20
-4.48043880837676
30
0
41
1
10
215.836676077153
20
-4.61305789370093
30
0
41
1
10
215.796780014318
20
-4.74347805635549
30
0
41
1
10
215.744822395704
20
-4.86957415210455
30
0
41
1
10
215.686732517753
20
-4.99348553924398
30
0
41
1
10
215.654440775005
20
-5.05464361448944
30
0
41
1
10
215.549332089447
20
-5.2324191572969
30
0
41
1
10
215.468931268714
20
-5.34273296050134
30
0
41
1
10
215.33297379249
20
-5.49613840354283
30
0
41
1
10
215.28507695038
20
-5.54524833946422
30
0
41
1
10
215.183916341277
20
-5.63927586175319
30
0
41
1
10
215.130524849356
20
-5.684235852999
30
0
41
1
10
214.965757802595
20
-5.80965520068264
30
0
41
1
10
214.848742696899
20
-5.88185565470758
30
0
41
1
10
214.6000131245
20
-6.0030547975862
30
0
41
1
10
214.467018830612
20
-6.05210962386778
30
0
41
1
10
214.197888043518
20
-6.12126367158555
30
0
41
1
10
214.06053845288
20
-6.14220715349248
30
0
41
1
10
213.850173276316
20
-6.1524195958479
30
0
41
1
10
213.779354124112
20
-6.15220312003797
30
0
41
1
10
213.639741188681
20
-6.14462978421651
30
0
41
1
10
213.501268133949
20
-6.12998540467495
30
0
41
1
10
213.365031592475
20
-6.10145514560117
30
0
41
1
10
213.229924073178
20
-6.06590323967319
30
0
41
1
10
213.16262517657
20
-6.04447132449474
30
0
41
1
10
212.966663860663
20
-5.97094439175399
30
0
41
1
10
212.842778352268
20
-5.90955967312979
30
0
41
1
10
212.666675903653
20
-5.79954853184736
30
0
41
1
10
212.609324546952
20
-5.75963640423169
30
0
41
1
10
212.499524687192
20
-5.67486296128249
30
0
41
1
10
212.447144596747
20
-5.63011144949218
30
0
41
1
10
212.297257873409
20
-5.48901334174516
30
0
41
1
10
212.206935627227
20
-5.38588863984361
30
0
41
1
10
212.045635314714
20
-5.16119495102319
30
0
41
1
10
211.976965037873
20
-5.04279550982744
30
0
41
1
10
211.891336778178
20
-4.85705595587154
30
0
41
1
10
211.865690197249
20
-4.79374442547729
30
0
41
1
10
211.820281667625
20
-4.66426590938346
30
0
41
1
10
211.800474551652
20
-4.59784203500413
30
0
41
1
10
211.750974613267
20
-4.39731412116265
30
0
41
1
10
211.73076681596
20
-4.26126082727106
30
0
41
1
10
211.716485613408
20
-3.98445242705574
30
0
0
SPLINE
5
1B3
100
AcDbEntity
8
1
62
256
6
ByLayer
370
-1
48
1
60
0
100
AcDbSpline
70
4
71
4
72
10
73
5
40
0
40
0
40
0
40
0
40
0
40
1
40
1
40
1
40
1
40
1
41
0.995660227381497
10
190.031923194793
20
7.81508519508995
30
0
41
0.995064315324149
10
190.176773930889
20
8.98004430783979
30
0
41
0.996032120694378
10
190.281823726111
20
10.2950350126723
30
0
41
0.999230276982167
10
190.335467008758
20
11.6741369322658
30
0
41
0.99989445416245
10
190.345292281378
20
12.9986502691019
30
0
0
SPLINE
5
1B4
100
AcDbEntity
8
1
62
256
6
ByLayer
370
-1
48
1
60
0
100
AcDbSpline
70
4
71
3
72
8
73
4
40
0
40
0
40
0
40
0
40
1
40
1
40
1
40
1
41
1
10
33
20
-15.0323291247682
30
0
41
1
10
31.7384274619927
20
-14.7658319532625
30
0
41
1
10
30.4737247391595
20
-14.631932899698
30
0
41
1
10
29.2108395938264
20
-14.6309041698505
30
0
0
SPLINE
5
1B5
100
AcDbEntity
8
1
62
256
6
ByLayer
370
-1
48
1
60
0
100
AcDbSpline
70
4
71
3
72
12
73
8
40
0
40
0
40
0
40
0
40
0.250000000000015
40
0.250000000000015
40
0.50000000000003
40
0.50000000000003
40
1
40
1
40
1
40
1
41
1
10
205.668386754896
20
22.2894425137567
30
0
41
1
10
205.673697083574
20
22.2875950132347
30
0
41
1
10
205.685610936835
20
22.2855589124027
30
0
41
1
10
205.722126986632
20
22.2811848584614
30
0
41
1
10
205.747146771831
20
22.2788210363039
30
0
41
1
10
205.838313687435
20
22.2717686405763
30
0
41
1
10
205.922338495091
20
22.2669619504219
30
0
41
1
10
206.022666341389
20
22.2631189671345
30
0
0
SPLINE
5
1B6
100
AcDbEntity
8
1
62
256
6
ByLayer
370
-1
48
1
60
0
100
AcDbSpline
70
4
71
3
72
8
73
4
40
0
40
0
40
0
40
0
40
1
40
1
40
1
40
1
41
1
10
19.0830117814194
20
16.3528169420744
30
0
41
1
10
24.488141270021
20
13.1197936968568
30
0
41
1
10
29.8521037362019
20
9.89040183034987
30
0
41
1
10
35.18301178142
20
6.68746945725798
30
0
0
SPLINE
5
1B7
100
AcDbEntity
8
1
62
256
6
ByLayer
370
-1
48
1
60
0
100
AcDbSpline
70
4
71
3
72
8
73
4
40
0
40
0
40
0
40
0
40
1
40
1
40
1
40
1
41
1
10
31.6202264116014
20
-13.3644803323103
30
0
41
1
10
31.512805480111
20
-13.3393341516574
30
0
41
1
10
31.4056541417104
20
-13.3126704414073
30
0
41
1
10
31.2987682789173
20
-13.2844951659578
30
0
0
SPLINE
5
1B8
100
AcDbEntity
8
1
62
256
6
ByLayer
370
-1
48
1
60
0
100
AcDbSpline
70
4
71
3
72
30
73
26
40
0
40
0
40
0
40
0
40
0.085041167489702
40
0.085041167489702
40
0.170082334979404
40
0.170082334979404
40
0.255123502469106
40
0.255123502469106
40
0.340164669958808
40
0.340164669958808
40
0.42520583744851
40
0.42520583744851
40
0.510247004938213
40
0.510247004938213
40
0.595288172427915
40
0.595288172427915
40
0.680329339917617
40
0.680329339917617
40
0.76537050740732
40
0.76537050740732
40
0.850411674897022
40
0.850411674897022
40
0.935452842386725
40
0.935452842386725
40
1
40
1
40
1
40
1
41
1
10
35.1830117814214
20
6.68746945725658
30
0
41
1
10
34.8445368250714
20
6.48503475398775
30
0
41
1
10
34.495019545147
20
6.22125624601267
30
0
41
1
10
33.7867854338973
20
5.58073592192713
30
0
41
1
10
33.428084795045
20
5.20400875013814
30
0
41
1
10
32.7147399948708
20
4.3515085864735
30
0
41
1
10
32.3601121428685
20
3.8757550854493
30
0
41
1
10
31.6680190340856
20
2.84278009006195
30
0
41
1
10
31.3305696007436
20
2.28558221277601
30
0
41
1
10
30.6853051858664
20
1.11030702390323
30
0
41
1
10
30.3775049571175
20
0.492256582826286
30
0
41
1
10
29.8029156367997
20
-0.781885313373209
30
0
41
1
10
29.5361396821608
20
-1.43794763758007
30
0
41
1
10
29.0534599872827
20
-2.7638690355422
30
0
41
1
10
28.8375672826286
20
-3.43369779453852
30
0
41
1
10
28.4646351306797
20
-4.76239792471483
30
0
41
1
10
28.307604209794
20
-5.42123891760528
30
0
41
1
10
28.0582016865472
20
-6.70361431958119
30
0
41
1
10
27.9658357863171
20
-7.32711940950693
30
0
41
1
10
27.849179814876
20
-8.51577860016482
30
0
41
1
10
27.8248924107897
20
-9.0809055243864
30
0
41
1
10
27.8452941308508
20
-10.1319203982122
30
0
41
1
10
27.8899827885502
20
-10.6177843182905
30
0
41
1
10
28.0278060675043
20
-11.3869374687114
30
0
41
1
10
28.1066683357012
20
-11.6908165569231
30
0
41
1
10
28.2040194941753
20
-11.9635537366918
30
0
0
SPLINE
5
1B9
100
AcDbEntity
8
1
62
256
6
ByLayer
370
-1
48
1
60
0
100
AcDbSpline
70
4
71
3
72
20
73
16
40
0
40
0
40
0
40
0
40
0.124999999999995
40
0.124999999999995
40
0.24999999999999
40
0.24999999999999
40
0.374999999999984
40
0.374999999999984
40
0.499999999999979
40
0.499999999999979
40
0.749999999999972
40
0.749999999999972
40
0.874999999999986
40
0.874999999999986
40
1
40
1
40
1
40
1
41
1
10
180.205822383231
20
14.3740122732085
30
0
41
1
10
180.152428724523
20
14.4008401440708
30
0
41
1
10
180.104758423058
20
14.4353931914197
30
0
41
1
10
180.021292638264
20
14.5205163411679
30
0
41
1
10
179.987430835251
20
14.5692699131238
30
0
41
1
10
179.93616568865
20
14.6771848732031
30
0
41
1
10
179.919517319669
20
14.7349427875403
30
0
41
1
10
179.903916989646
20
14.8541633227629
30
0
41
1
10
179.90508855895
20
14.9148152336282
30
0
41
1
10
179.933008302694
20
15.09378115117
30
0
41
1
10
179.984625842149
20
15.2084904488978
30
0
41
1
10
180.09485203559
20
15.3520582421323
30
0
41
1
10
180.137572227452
20
15.3959910022997
30
0
41
1
10
180.231071283021
20
15.4726544480267
30
0
41
1
10
180.281548833368
20
15.5053778537716
30
0
41
1
10
180.335653212906
20
15.5326480146138
30
0
0
SPLINE
5
1BA
100
AcDbEntity
8
1
62
256
6
ByLayer
370
-1
48
1
60
0
100
AcDbSpline
70
4
71
3
72
8
73
4
40
0
40
0
40
0
40
0
40
1
40
1
40
1
40
1
41
1
10
33
20
12.4496969200092
30
0
41
1
10
33.7334536063044
20
12.20235662358
30
0
41
1
10
34.4609528963999
20
11.9402292389928
30
0
41
1
10
35.1830117814201
20
11.6634639012741
30
0
0
SPLINE
5
1BB
100
AcDbEntity
8
1
62
256
6
ByLayer
370
-1
48
1
60
0
100
AcDbSpline
70
4
71
3
72
8
73
4
40
0
40
0
40
0
40
0
40
1
40
1
40
1
40
1
41
1
10
9.63136697309974
20
1.37996286781004
30
0
41
1
10
9.76647556328223
20
1.19003013537116
30
0
41
1
10
9.90361082315101
20
1.00266165558094
30
0
41
1
10
10.04266875785
20
0.817721827361851
30
0
0
SPLINE
5
1BC
100
AcDbEntity
8
1
62
256
6
ByLayer
370
-1
48
1
60
0
100
AcDbSpline
70
4
71
3
72
46
73
42
40
0
40
0
40
0
40
0
40
0.0402540993668114
40
0.0402540993668114
40
0.114080707107826
40
0.114080707107826
40
0.187907314848841
40
0.187907314848841
40
0.261733922589856
40
0.261733922589856
40
0.33556053033087
40
0.33556053033087
40
0.409387138071885
40
0.409387138071885
40
0.483213745812899
40
0.483213745812899
40
0.557040353553914
40
0.557040353553914
40
0.593953657424421
40
0.593953657424421
40
0.630866961294928
40
0.630866961294928
40
0.704693569035942
40
0.704693569035942
40
0.778520176776957
40
0.778520176776957
40
0.815433480647464
40
0.815433480647464
40
0.852346784517971
40
0.852346784517971
40
0.870803436453225
40
0.870803436453225
40
0.889260088388478
40
0.889260088388478
40
0.907716740323732
40
0.907716740323732
40
0.926173392258986
40
0.926173392258986
40
0.963086696129493
40
0.963086696129493
40
1
40
1
40
1
40
1
41
1
10
152.349662422075
20
-17.6076896543062
30
0
41
1
10
150.729851254568
20
-17.850359085389
30
0
41
1
10
149.110061833332
20
-18.0823168281599
30
0
41
1
10
144.518980749432
20
-18.7082255745119
30
0
41
1
10
141.546332461791
20
-19.0756425190258
30
0
41
1
10
135.602774071074
20
-19.7326287652459
30
0
41
1
10
132.631888197736
20
-20.0224110799651
30
0
41
1
10
126.68999977895
20
-20.5202149011847
30
0
41
1
10
123.718986761518
20
-20.7281451001553
30
0
41
1
10
117.774287902269
20
-21.0600435195094
30
0
41
1
10
114.803085271725
20
-21.1835419418478
30
0
41
1
10
108.861673898531
20
-21.3424854144655
30
0
41
1
10
105.891302548886
20
-21.3775345763855
30
0
41
1
10
99.9486061413016
20
-21.3593152628047
30
0
41
1
10
96.9759680444759
20
-21.3065518599722
30
0
41
1
10
91.0338800178781
20
-21.1154760700746
30
0
41
1
10
88.0635258321729
20
-20.9771557090521
30
0
41
1
10
83.6072757582006
20
-20.7068515081708
30
0
41
1
10
82.1217447725251
20
-20.6062300938067
30
0
41
1
10
79.1501597198976
20
-20.3841141974986
30
0
41
1
10
77.6639050041195
20
-20.2626819161375
30
0
41
1
10
73.2066243877726
20
-19.8677580457961
30
0
41
1
10
70.2364047527006
20
-19.5634885629632
30
0
41
1
10
64.2962438734621
20
-18.8750355252063
30
0
41
1
10
61.3263019786092
20
-18.4909656974474
30
0
41
1
10
56.8698214005059
20
-17.8593581713786
30
0
41
1
10
55.3838190551303
20
-17.6395986872784
30
0
41
1
10
52.4122247031898
20
-17.1829163710758
30
0
41
1
10
50.9268484511584
20
-16.9454162807267
30
0
41
1
10
48.6991317612612
20
-16.5762673613276
30
0
41
1
10
47.9565632972817
20
-16.4514570116442
30
0
41
1
10
46.471533827586
20
-16.1974383588654
30
0
41
1
10
45.729123070552
20
-16.0678498438349
30
0
41
1
10
44.2443404736811
20
-15.8045129949228
30
0
41
1
10
43.5019326684808
20
-15.6710401455247
30
0
41
1
10
42.0169691605002
20
-15.401271584471
30
0
41
1
10
41.2744904416186
20
-15.2643765297962
30
0
41
1
10
39.0471891940084
20
-14.8461810573714
30
0
41
1
10
37.5622750328945
20
-14.5591763218568
30
0
41
1
10
34.5917284561467
20
-13.9723882142998
30
0
41
1
10
33.106129625152
20
-13.6724092016074
30
0
41
1
10
31.6202264115992
20
-13.3644803323101
30
0
0
SPLINE
5
1BD
100
AcDbEntity
8
1
62
256
6
ByLayer
370
-1
48
1
60
0
100
AcDbSpline
70
4
71
2
72
6
73
3
40
0
40
0
40
0
40
1
40
1
40
1
41
1
10
9.63136697309969
20
1.37996286781015
30
0
41
1
10
9.63136697309969
20
0.224841700358013
30
0
41
1
10
9.63136697309972
20
-0.930279467094124
30
0
0
SPLINE
5
1BE
100
AcDbEntity
8
1
62
256
6
ByLayer
370
-1
48
1
60
0
100
AcDbSpline
70
4
71
3
72
40
73
36
40
0
40
0
40
0
40
0
40
0.124999999999961
40
0.124999999999961
40
0.187499999999948
40
0.187499999999948
40
0.249999999999935
40
0.249999999999935
40
0.281249999999933
40
0.281249999999933
40
0.312499999999932
40
0.312499999999932
40
0.374999999999938
40
0.374999999999938
40
0.40624999999994
40
0.40624999999994
40
0.437499999999942
40
0.437499999999942
40
0.468749999999945
40
0.468749999999945
40
0.499999999999947
40
0.499999999999947
40
0.562499999999953
40
0.562499999999953
40
0.62499999999996
40
0.62499999999996
40
0.687499999999967
40
0.687499999999967
40
0.749999999999973
40
0.749999999999973
40
0.81249999999998
40
0.81249999999998
40
0.874999999999987
40
0.874999999999987
40
1
40
1
40
1
40
1
41
1
10
218.587194472803
20
-16.423576246561
30
0
41
1
10
218.378607726095
20
-16.4770697380799
30
0
41
1
10
218.175350478566
20
-16.5381531383167
30
0
41
1
10
217.883770360284
20
-16.6470241383837
30
0
41
1
10
217.788578092722
20
-16.686382450401
30
0
41
1
10
217.607706189363
20
-16.7711311951633
30
0
41
1
10
217.521608051743
20
-16.8166325027923
30
0
41
1
10
217.4011191701
20
-16.891030912052
30
0
41
1
10
217.362409620759
20
-16.9168617907839
30
0
41
1
10
217.288453041828
20
-16.9709623541501
30
0
41
1
10
217.252998319993
20
-16.999425260707
30
0
41
1
10
217.154787960275
20
-17.0875838101503
30
0
41
1
10
217.100102216318
20
-17.1498296396494
30
0
41
1
10
217.038657868209
20
-17.2496743973629
30
0
41
1
10
217.02187656718
20
-17.2837630527169
30
0
41
1
10
216.996658953389
20
-17.3520183860909
30
0
41
1
10
216.988078190785
20
-17.3864077606924
30
0
41
1
10
216.979025959921
20
-17.4556925863126
30
0
41
1
10
216.97859976341
20
-17.4908682554777
30
0
41
1
10
216.98577047725
20
-17.5601696113176
30
0
41
1
10
216.993271921626
20
-17.5942203424866
30
0
41
1
10
217.026258288154
20
-17.6947472574664
30
0
41
1
10
217.062710912231
20
-17.7600499154005
30
0
41
1
10
217.154286452041
20
-17.8820387388909
30
0
41
1
10
217.20950995311
20
-17.9394575282635
30
0
41
1
10
217.334100707361
20
-18.0489227229852
30
0
41
1
10
217.403439730418
20
-18.1007888586094
30
0
41
1
10
217.549573789495
20
-18.1979851507025
30
0
41
1
10
217.626837139146
20
-18.2437028167429
30
0
41
1
10
217.787859368014
20
-18.3306992913362
30
0
41
1
10
217.871633129945
20
-18.3719679742444
30
0
41
1
10
218.044506598217
20
-18.4508908491306
30
0
41
1
10
218.133839882744
20
-18.4886201675723
30
0
41
1
10
218.405603438914
20
-18.5961050340402
30
0
41
1
10
218.59250118758
20
-18.6606414231029
30
0
41
1
10
218.783479373439
20
-18.720200669691
30
0
0
SPLINE
5
1BF
100
AcDbEntity
8
1
62
256
6
ByLayer
370
-1
48
1
60
0
100
AcDbSpline
70
4
71
3
72
8
73
4
40
0
40
0
40
0
40
0
40
1
40
1
40
1
40
1
41
1
10
199.281414683344
20
8.39785312873485
30
0
41
1
10
199.419267951998
20
8.33736787177779
30
0
41
1
10
199.558245430875
20
8.27887339738956
30
0
41
1
10
199.698407472038
20
8.2223736933247
30
0
0
SPLINE
5
1C0
100
AcDbEntity
8
1
62
256
6
ByLayer
370
-1
48
1
60
0
100
AcDbSpline
70
4
71
3
72
26
73
22
40
0
40
0
40
0
40
0
40
0.124999999999997
40
0.124999999999997
40
0.249999999999993
40
0.249999999999993
40
0.312499999999994
40
0.312499999999994
40
0.374999999999995
40
0.374999999999995
40
0.499999999999996
40
0.499999999999996
40
0.562499999999994
40
0.562499999999994
40
0.624999999999992
40
0.624999999999992
40
0.749999999999995
40
0.749999999999995
40
0.874999999999997
40
0.874999999999997
40
1
40
1
40
1
40
1
41
1
10
187.942571423076
20
22.0365591648416
30
0
41
1
10
187.833420160484
20
21.6670357184511
30
0
41
1
10
187.711278637667
20
21.3029394515768
30
0
41
1
10
187.431283092232
20
20.5896671845528
30
0
41
1
10
187.273445255033
20
20.2404844223239
30
0
41
1
10
186.999997948942
20
19.7320391638162
30
0
41
1
10
186.902334558503
20
19.5645565951569
30
0
41
1
10
186.694469753571
20
19.2382392750538
30
0
41
1
10
186.584855686198
20
19.0802535401174
30
0
41
1
10
186.238037965366
20
18.6226623149509
30
0
41
1
10
185.982705539452
20
18.3395623356717
30
0
41
1
10
185.562179850043
20
17.949079221962
30
0
41
1
10
185.415393363397
20
17.8242743624986
30
0
41
1
10
185.111329378699
20
17.587109084153
30
0
41
1
10
184.9554977515
20
17.4757981203413
30
0
41
1
10
184.477951306536
20
17.1611017367703
30
0
41
1
10
184.146225905399
20
16.9768743980726
30
0
41
1
10
183.462602827622
20
16.6470250721253
30
0
41
1
10
183.110543613821
20
16.501322581608
30
0
41
1
10
182.392164909712
20
16.2388007949587
30
0
41
1
10
182.028717818524
20
16.1229795728043
30
0
41
1
10
181.662239747073
20
16.0181494746056
30
0
0
SPLINE
5
1C1
100
AcDbEntity
8
1
62
256
6
ByLayer
370
-1
48
1
60
0
100
AcDbSpline
70
4
71
3
72
8
73
4
40
0
40
0
40
0
40
0
40
1
40
1
40
1
40
1
41
1
10
203.861388117021
20
4.84336660485889
30
0
41
1
10
203.217256780148
20
4.65626685039913
30
0
41
1
10
202.552246588398
20
4.50598181019268
30
0
41
1
10
201.872645153664
20
4.39815677338655
30
0
0
SPLINE
5
1C2
100
AcDbEntity
8
1
62
256
6
ByLayer
370
-1
48
1
60
0
100
AcDbSpline
70
4
71
3
72
12
73
8
40
0
40
0
40
0
40
0
40
0.5
40
0.5
40
0.75
40
0.75
40
1
40
1
40
1
40
1
41
1
10
127.5
20
21.8240060712433
30
0
41
1
10
134.771207632728
20
21.410317304679
30
0
41
1
10
142.024376225858
20
20.7302665369464
30
0
41
1
10
152.904014465986
20
19.3468889770422
30
0
41
1
10
156.530640339536
20
18.8254945093509
30
0
41
1
10
163.78923412375
20
17.6722196062104
30
0
41
1
10
167.421650327191
20
17.040322345926
30
0
41
1
10
171.058182896678
20
16.3589842935871
30
0
0
SPLINE
5
1C3
100
AcDbEntity
8
1
62
256
6
ByLayer
370
-1
48
1
60
0
100
AcDbSpline
70
4
71
3
72
8
73
4
40
0
40
0
40
0
40
0
40
1
40
1
40
1
40
1
41
1
10
172.621969714625
20
15.9177458886694
30
0
41
1
10
172.105343083926
20
16.0590388990689
30
0
41
1
10
171.583979025533
20
16.2062454218207
30
0
41
1
10
171.058182896679
20
16.3589842935853
30
0
0
SPLINE
5
1C4
100
AcDbEntity
8
1
62
256
6
ByLayer
370
-1
48
1
60
0
100
AcDbSpline
70
4
71
3
72
8
73
4
40
0
40
0
40
0
40
0
40
1
40
1
40
1
40
1
41
1
10
198.207982319222
20
4.7609793347913
30
0
41
1
10
198.171034274518
20
4.77225007199215
30
0
41
1
10
198.134145902837
20
4.78363725520123
30
0
41
1
10
198.097317601003
20
4.79514163207946
30
0
0
SPLINE
5
1C5
100
AcDbEntity
8
1
62
256
6
ByLayer
370
-1
48
1
60
0
100
AcDbSpline
70
4
71
3
72
24
73
20
40
0
40
0
40
0
40
0
40
0.125
40
0.125
40
0.25
40
0.25
40
0.374999999999999
40
0.374999999999999
40
0.4375
40
0.4375
40
0.5
40
0.5
40
0.625
40
0.625
40
0.75
40
0.75
40
0.875
40
0.875
40
1
40
1
40
1
40
1
41
1
10
37.9999999999999
20
-16.0590061597158
30
0
41
1
10
41.7330022261695
20
-16.7856709569544
30
0
41
1
10
45.4613248844629
20
-17.4587633154036
30
0
41
1
10
52.9140627472829
20
-18.6861650310482
30
0
41
1
10
56.6384958201851
20
-19.240466990066
30
0
41
1
10
64.0885322454978
20
-20.2216532598133
30
0
41
1
10
67.8140985608997
20
-20.6486380519968
30
0
41
1
10
73.406665036203
20
-21.1888110668302
30
0
41
1
10
75.2715724278378
20
-21.3521336807111
30
0
41
1
10
79.0034812837295
20
-21.6445185664394
30
0
41
1
10
80.8711580675177
20
-21.7736188083865
30
0
41
1
10
86.4734465162371
20
-22.108288605869
30
0
41
1
10
90.2038971608259
20
-22.2610037762738
30
0
41
1
10
97.6610010861113
20
-22.4246755106598
30
0
41
1
10
101.387667184876
20
-22.4356808688779
30
0
41
1
10
108.841614786315
20
-22.3167976437861
30
0
41
1
10
112.568794529461
20
-22.1868195426285
30
0
41
1
10
120.028815281379
20
-21.7881159112578
30
0
41
1
10
123.76168250559
20
-21.5194049503666
30
0
41
1
10
127.5
20
-21.1838521790781
30
0
0
SPLINE
5
1C6
100
AcDbEntity
8
1
62
256
6
ByLayer
370
-1
48
1
60
0
100
AcDbSpline
70
4
71
3
72
16
73
12
40
0
40
0
40
0
40
0
40
0.125
40
0.125
40
0.25
40
0.25
40
0.5
40
0.5
40
0.75
40
0.75
40
1
40
1
40
1
40
1
41
1
10
172.621969714625
20
15.9177458886694
30
0
41
1
10
173.197282220424
20
15.6229261985853
30
0
41
1
10
173.775080051662
20
15.3304519502062
30
0
41
1
10
174.935001975998
20
14.7495862165471
30
0
41
1
10
175.517125684971
20
14.4611943687613
30
0
41
1
10
177.269685945693
20
13.6018596108024
30
0
41
1
10
178.446389537249
20
13.036831007181
30
0
41
1
10
180.814832840483
20
11.920963629024
30
0
41
1
10
182.006546150034
20
11.3700999383754
30
0
41
1
10
184.404107772068
20
10.2817119873384
30
0
41
1
10
185.609949772716
20
9.74418177036887
30
0
41
1
10
186.822865509329
20
9.21332715212654
30
0
0
SPLINE
5
1C7
100
AcDbEntity
8
1
62
256
6
ByLayer
370
-1
48
1
60
0
100
AcDbSpline
70
4
71
3
72
12
73
8
40
0
40
0
40
0
40
0
40
0.104898575171313
40
0.104898575171313
40
0.403265716780876
40
0.403265716780876
40
1
40
1
40
1
40
1
41
1
10
219.58496369309
20
7.57026744738829
30
0
41
1
10
219.584018153527
20
7.55605545959205
30
0
41
1
10
219.582991644661
20
7.5424544052637
30
0
41
1
10
219.578798489464
20
7.49248590514608
30
0
41
1
10
219.575106955687
20
7.46022645748459
30
0
41
1
10
219.56331324652
20
7.38297544817314
30
0
41
1
10
219.554248017836
20
7.35545184591652
30
0
41
1
10
219.545339158386
20
7.35536919694235
30
0
0
SPLINE
5
1C8
100
AcDbEntity
8
1
62
256
6
ByLayer
370
-1
48
1
60
0
100
AcDbSpline
70
4
71
3
72
16
73
12
40
0
40
0
40
0
40
0
40
0.249999999999997
40
0.249999999999997
40
0.499999999999994
40
0.499999999999994
40
0.624999999999998
40
0.624999999999998
40
0.750000000000002
40
0.750000000000002
40
1
40
1
40
1
40
1
41
1
10
204.566137959285
20
1.39516365575085
30
0
41
1
10
203.957167787934
20
1.35915267148619
30
0
41
1
10
203.35210881905
20
1.35967766497453
30
0
41
1
10
202.149585957801
20
1.43167568320868
30
0
41
1
10
201.552122320888
20
1.50315121624669
30
0
41
1
10
200.661735223575
20
1.66450582453575
30
0
41
1
10
200.365910470391
20
1.72733999940362
30
0
41
1
10
199.77625856691
20
1.87159188007212
30
0
41
1
10
199.481790075998
20
1.95323978738392
30
0
41
1
10
198.609575870562
20
2.22445880333976
30
0
41
1
10
198.041133491932
20
2.44048669322243
30
0
41
1
10
197.486092418319
20
2.69239945314391
30
0
0
SPLINE
5
1C9
100
AcDbEntity
8
1
62
256
6
ByLayer
370
-1
48
1
60
0
100
AcDbSpline
70
4
71
3
72
8
73
4
40
0
40
0
40
0
40
0
40
1
40
1
40
1
40
1
41
1
10
190.345292281378
20
12.9986502691036
30
0
41
1
10
189.080564104657
20
13.0672388069198
30
0
41
1
10
187.817585986344
20
13.1533528013916
30
0
41
1
10
186.556183228475
20
13.2544720108007
30
0
0
SPLINE
5
1CA
100
AcDbEntity
8
1
62
256
6
ByLayer
370
-1
48
1
60
0
100
AcDbSpline
70
4
71
3
72
37
73
33
40
0
40
0
40
0
40
0
40
0.0045322513722408
40
0.0756370905599376
40
0.146741929747635
40
0.217846768935331
40
0.288951608123029
40
0.360056447310726
40
0.395608866904574
40
0.431161286498423
40
0.448937496295349
40
0.466713706092272
40
0.502266125686121
40
0.53781854527997
40
0.564482859975357
40
0.573370964873818
40
0.591147174670742
40
0.608923384467666
40
0.644475804061515
40
0.662252013858439
40
0.680028223655363
40
0.688916328553825
40
0.697804433452288
40
0.70669253835075
40
0.715580643249212
40
0.751133062843061
40
0.786685482436909
40
0.857790321624606
40
0.893342741218455
40
0.928895160812303
40
0.964447580406152
40
1
40
1
40
1
40
1
41
1
10
69.2656109840885
20
2.65499245823747
30
0
41
1
10
69.21412824801
20
2.66163527525381
30
0
41
1
10
68.3549502580526
20
2.77246716694774
30
0
41
1
10
66.6880339615174
20
2.98658676522413
30
0
41
1
10
64.2647746791459
20
3.29506915257807
30
0
41
1
10
61.8414123626999
20
3.60054175738389
30
0
41
1
10
59.4179245343394
20
3.90287273201435
30
0
41
1
10
57.3981372482917
20
4.15220001398671
30
0
41
1
10
55.7825517501407
20
4.34994351392871
30
0
41
1
10
54.7731540523385
20
4.47245055861032
30
0
41
1
10
53.9656293731057
20
4.56968860240229
30
0
41
1
10
53.1575366995762
20
4.66661770807852
30
0
41
1
10
52.1468392322313
20
4.78743503103578
30
0
41
1
10
51.0358427820529
20
4.91969789929013
30
0
41
1
10
50.2286266578526
20
5.01497141537141
30
0
41
1
10
49.623686374062
20
5.08584473553881
30
0
41
1
10
49.1194037606042
20
5.14459764101471
30
0
41
1
10
48.3114791596387
20
5.2382536928435
30
0
41
1
10
47.5025699111318
20
5.33161568982649
30
0
41
1
10
46.6931536599014
20
5.42487948845692
30
0
41
1
10
46.1870015718575
20
5.48314467812688
30
0
41
1
10
45.7825606191974
20
5.52966278748445
30
0
41
1
10
45.4802473392314
20
5.56429655600479
30
0
41
1
10
45.1783712681714
20
5.59870088872614
30
0
41
1
10
44.5738910893878
20
5.66729316075069
30
0
41
1
10
43.6661853468139
20
5.76936215360399
30
0
41
1
10
42.050637281312
20
5.94894530522933
30
0
41
1
10
40.4335580741811
20
6.12641258086708
30
0
41
1
10
38.8166381129149
20
6.30177783027608
30
0
41
1
10
37.6041399794424
20
6.43204272505383
30
0
41
1
10
36.3926109289108
20
6.56088901367957
30
0
41
1
10
35.5860256568533
20
6.64553748123734
30
0
41
1
10
35.1830117814229
20
6.68746945725755
30
0
0
SPLINE
5
1CB
100
AcDbEntity
8
1
62
256
6
ByLayer
370
-1
48
1
60
0
100
AcDbSpline
70
4
71
3
72
8
73
4
40
0
40
0
40
0
40
0
40
1
40
1
40
1
40
1
41
1
10
206.233373686372
20
7.13080247577346
30
0
41
1
10
206.230896316862
20
7.13401173171641
30
0
41
1
10
206.228440376931
20
7.13722421767937
30
0
41
1
10
206.226005532605
20
7.14043986094831
30
0
0
SPLINE
5
1CC
100
AcDbEntity
8
1
62
256
6
ByLayer
370
-1
48
1
60
0
100
AcDbSpline
70
4
71
3
72
8
73
4
40
0
40
0
40
0
40
0
40
1
40
1
40
1
40
1
41
1
10
20.7313669730998
20
-7.23632570713681
30
0
41
1
10
20.7313669730998
20
-9.06515504980655
30
0
41
1
10
20.7313669730998
20
-10.8939843924763
30
0
41
1
10
20.7313669730998
20
-12.722813735146
30
0
0
SPLINE
5
1CD
100
AcDbEntity
8
1
62
256
6
ByLayer
370
-1
48
1
60
0
100
AcDbSpline
70
4
71
3
72
8
73
4
40
0
40
0
40
0
40
0
40
1
40
1
40
1
40
1
41
1
10
13.6216529109348
20
-2.49299457376233
30
0
41
1
10
16.0026205880491
20
-4.06548858146849
30
0
41
1
10
18.3765988683723
20
-5.64727079657905
30
0
41
1
10
20.7313669730998
20
-7.23632570713681
30
0
0
SPLINE
5
1CE
100
AcDbEntity
8
1
62
256
6
ByLayer
370
-1
48
1
60
0
100
AcDbSpline
70
4
71
3
72
16
73
12
40
0
40
0
40
0
40
0
40
0.249999999999996
40
0.249999999999996
40
0.499999999999991
40
0.499999999999991
40
0.624999999999989
40
0.624999999999989
40
0.749999999999987
40
0.749999999999987
40
1
40
1
40
1
40
1
41
1
10
201.872645153662
20
4.39815677338609
30
0
41
1
10
201.627387456083
20
4.35924437721263
30
0
41
1
10
201.359643433478
20
4.33687697507364
30
0
41
1
10
200.791086418141
20
4.32565258652011
30
0
41
1
10
200.490138795035
20
4.33683523857906
30
0
41
1
10
200.018505879241
20
4.38095435818119
30
0
41
1
10
199.857550041183
20
4.40031242109885
30
0
41
1
10
199.533871454954
20
4.44793884537916
30
0
41
1
10
199.370650412852
20
4.47623525215565
30
0
41
1
10
198.877577132641
20
4.57469127118355
30
0
41
1
10
198.544351403611
20
4.65837234751899
30
0
41
1
10
198.207982319221
20
4.76097933479144
30
0
0
SPLINE
5
1CF
100
AcDbEntity
8
1
62
256
6
ByLayer
370
-1
48
1
60
0
100
AcDbSpline
70
4
71
3
72
12
73
8
40
0
40
0
40
0
40
0
40
0.250000000000014
40
0.250000000000014
40
0.500000000000028
40
0.500000000000028
40
1
40
1
40
1
40
1
41
1
10
180.335653212906
20
15.5326480146136
30
0
41
1
10
180.441905915056
20
15.5862024274414
30
0
41
1
10
180.549972074513
20
15.634258329992
30
0
41
1
10
180.768200144878
20
15.7239754257485
30
0
41
1
10
180.878391601781
20
15.765548051873
30
0
41
1
10
181.211155734244
20
15.8835515917979
30
0
41
1
10
181.435874941312
20
15.9533984112669
30
0
41
1
10
181.662239747073
20
16.0181494746054
30
0
0
SPLINE
5
1D0
100
AcDbEntity
8
1
62
256
6
ByLayer
370
-1
48
1
60
0
100
AcDbSpline
70
4
71
3
72
36
73
32
40
0
40
0
40
0
40
0
40
0.021255411402489
40
0.021255411402489
40
0.217004329121983
40
0.217004329121983
40
0.31487878798173
40
0.31487878798173
40
0.363816017411603
40
0.363816017411603
40
0.412753246841476
40
0.412753246841476
40
0.510627705701225
40
0.510627705701225
40
0.608502164560973
40
0.608502164560973
40
0.657439393990848
40
0.657439393990848
40
0.706376623420724
40
0.706376623420724
40
0.804251082280478
40
0.804251082280478
40
0.853188311710355
40
0.853188311710355
40
0.902125541140232
40
0.902125541140232
40
0.926594155855174
40
0.926594155855174
40
0.951062770570116
40
0.951062770570116
40
1
40
1
40
1
40
1
41
1
10
193.803886950433
20
6.31441264507887
30
0
41
1
10
193.800912334124
20
6.35085702338512
30
0
41
1
10
193.797675926122
20
6.38785314585357
30
0
41
1
10
193.761970312473
20
6.77034106406481
30
0
41
1
10
193.707859140694
20
7.15808434847031
30
0
41
1
10
193.585594839911
20
7.79747822601232
30
0
41
1
10
193.537919827491
20
8.02029251765399
30
0
41
1
10
193.454031882292
20
8.3685616512243
30
0
41
1
10
193.424017876124
20
8.48686646714242
30
0
41
1
10
193.360141650383
20
8.72547406661275
30
0
41
1
10
193.326210330642
20
8.84607351622043
30
0
41
1
10
193.217938163908
20
9.21135846872377
30
0
41
1
10
193.137183143614
20
9.45955118814661
30
0
41
1
10
192.954634247102
20
9.96282695477854
30
0
41
1
10
192.852904353164
20
10.2179428005637
30
0
41
1
10
192.679592525048
20
10.6032075326714
30
0
41
1
10
192.618343077824
20
10.7320505533289
30
0
41
1
10
192.487548685087
20
10.9899278956917
30
0
41
1
10
192.417957456203
20
11.1189963177912
30
0
41
1
10
192.196691134942
20
11.5006594285162
30
0
41
1
10
192.032114346905
20
11.7498617867515
30
0
41
1
10
191.746101367977
20
12.1030737951307
30
0
41
1
10
191.645222636261
20
12.2159227494597
30
0
41
1
10
191.429553988189
20
12.4283345383746
30
0
41
1
10
191.314803164226
20
12.5279397523493
30
0
41
1
10
191.12885340609
20
12.6633361785189
30
0
41
1
10
191.064549774962
20
12.7061147935378
30
0
41
1
10
190.930423752067
20
12.7859475548927
30
0
41
1
10
190.861072550296
20
12.8226574822625
30
0
41
1
10
190.649020796449
20
12.9201464759612
30
0
41
1
10
190.50107298255
20
12.9691284425674
30
0
41
1
10
190.345292281378
20
12.9986502691022
30
0
0
SPLINE
5
1D1
100
AcDbEntity
8
1
62
256
6
ByLayer
370
-1
48
1
60
0
100
AcDbSpline
70
4
71
3
72
8
73
4
40
0
40
0
40
0
40
0
40
1
40
1
40
1
40
1
41
1
10
33
20
-15.0323291247682
30
0
41
1
10
34.6667293518182
20
-15.3844124529505
30
0
41
1
10
36.3333105227085
20
-15.7268617938998
30
0
41
1
10
38
20
-16.0590061597158
30
0
0
SPLINE
5
1D2
100
AcDbEntity
8
1
62
256
6
ByLayer
370
-1
48
1
60
0
100
AcDbSpline
70
4
71
3
72
10
73
6
40
0
40
0
40
0
40
0
40
0.5
40
0.5
40
1
40
1
40
1
40
1
41
1
10
9.63136697309974
20
1.37996286780998
30
0
41
1
10
9.34979173124944
20
1.86399528383686
30
0
41
1
10
9.09327572591599
20
2.35598407850424
30
0
41
1
10
8.62505294451103
20
3.35130392563266
30
0
41
1
10
8.41336515126167
20
3.85468334811472
30
0
41
1
10
8.22260994977654
20
4.36120378857055
30
0
0
SPLINE
5
1D3
100
AcDbEntity
8
1
62
256
6
ByLayer
370
-1
48
1
60
0
100
AcDbSpline
70
4
71
3
72
28
73
24
40
0
40
0
40
0
40
0
40
0.125
40
0.125
40
0.187499999999999
40
0.187499999999999
40
0.249999999999999
40
0.249999999999999
40
0.281249999999999
40
0.281249999999999
40
0.312499999999999
40
0.312499999999999
40
0.374999999999999
40
0.374999999999999
40
0.499999999999999
40
0.499999999999999
40
0.624999999999999
40
0.624999999999999
40
0.687499999999999
40
0.687499999999999
40
0.749999999999999
40
0.749999999999999
40
1
40
1
40
1
40
1
41
1
10
20.7313669730997
20
-12.7228137351459
30
0
41
1
10
20.9763569339526
20
-12.9729742484062
30
0
41
1
10
21.2377200314067
20
-13.1870011036933
30
0
41
1
10
21.6550688594503
20
-13.4526099731126
30
0
41
1
10
21.7984090243224
20
-13.5318783335489
30
0
41
1
10
22.0937501109881
20
-13.6712854348561
30
0
41
1
10
22.2460619998061
20
-13.7315235840512
30
0
41
1
10
22.480241842481
20
-13.8065469799287
30
0
41
1
10
22.558829601071
20
-13.8285934072572
30
0
41
1
10
22.7174711919623
20
-13.8714707596757
30
0
41
1
10
22.7975128404237
20
-13.8921574973152
30
0
41
1
10
23.0397926464358
20
-13.9521344257166
30
0
41
1
10
23.2041846106238
20
-13.9893453429818
30
0
41
1
10
23.7059541413289
20
-14.093874381717
30
0
41
1
10
24.0519089842577
20
-14.1541316238169
30
0
41
1
10
24.7669806644045
20
-14.2609665724593
30
0
41
1
10
25.1360962583929
20
-14.3075256716478
30
0
41
1
10
25.7077541419239
20
-14.37008269318
30
0
41
1
10
25.9013085054147
20
-14.3897140635554
30
0
41
1
10
26.2945790834583
20
-14.426963484351
30
0
41
1
10
26.4943155474681
20
-14.4445777315731
30
0
41
1
10
27.5013234790748
20
-14.5280231334983
30
0
41
1
10
28.3390636972587
20
-14.5809054773883
30
0
41
1
10
29.2108395938622
20
-14.6309041698522
30
0
0
SPLINE
5
1D4
100
AcDbEntity
8
1
62
256
6
ByLayer
370
-1
48
1
60
0
100
AcDbSpline
70
4
71
3
72
30
73
26
40
0
40
0
40
0
40
0
40
0.0624999999999896
40
0.0624999999999896
40
0.0937499999999844
40
0.0937499999999844
40
0.124999999999979
40
0.124999999999979
40
0.156249999999974
40
0.156249999999974
40
0.187499999999969
40
0.187499999999969
40
0.218749999999964
40
0.218749999999964
40
0.249999999999958
40
0.249999999999958
40
0.312499999999949
40
0.312499999999949
40
0.37499999999994
40
0.37499999999994
40
0.499999999999944
40
0.499999999999944
40
0.749999999999972
40
0.749999999999972
40
1
40
1
40
1
40
1
41
1
10
195.295171240605
20
11.0249361862379
30
0
41
1
10
195.235010152275
20
11.0176915348127
30
0
41
1
10
195.17559062263
20
11.0069059177995
30
0
41
1
10
195.089276599572
20
10.9772469278934
30
0
41
1
10
195.061115340953
20
10.9650392785964
30
0
41
1
10
195.009388242098
20
10.9329654015659
30
0
41
1
10
194.986289085676
20
10.9132061780556
30
0
41
1
10
194.952742356262
20
10.8645752324597
30
0
41
1
10
194.94354363116
20
10.8365197535989
30
0
41
1
10
194.939957147483
20
10.7804168983711
30
0
41
1
10
194.944908071057
20
10.7528174798577
30
0
41
1
10
194.961804575651
20
10.7001411739212
30
0
41
1
10
194.973724241524
20
10.6751037944322
30
0
41
1
10
195.000992451341
20
10.6274199124001
30
0
41
1
10
195.016479397837
20
10.6045912294321
30
0
41
1
10
195.06658366947
20
10.5381124366056
30
0
41
1
10
195.104016758841
20
10.4973491894901
30
0
41
1
10
195.182573102565
20
10.4198282463622
30
0
41
1
10
195.2238851561
20
10.3830716402328
30
0
41
1
10
195.351752349385
20
10.2767073875312
30
0
41
1
10
195.442427176409
20
10.2107786190342
30
0
41
1
10
195.721338232583
20
10.0232247394173
30
0
41
1
10
195.916097776987
20
9.91177140388069
30
0
41
1
10
196.315012700937
20
9.70329131996883
30
0
41
1
10
196.519461393841
20
9.60670329389416
30
0
41
1
10
196.727679512775
20
9.51575210677441
30
0
0
SPLINE
5
1D5
100
AcDbEntity
8
1
62
256
6
ByLayer
370
-1
48
1
60
0
100
AcDbSpline
70
4
71
3
72
38
73
34
40
0
40
0
40
0
40
0
40
0.124999999999989
40
0.124999999999989
40
0.187499999999986
40
0.187499999999986
40
0.249999999999984
40
0.249999999999984
40
0.312499999999981
40
0.312499999999981
40
0.374999999999978
40
0.374999999999978
40
0.499999999999978
40
0.499999999999978
40
0.531249999999979
40
0.531249999999979
40
0.562499999999981
40
0.562499999999981
40
0.624999999999983
40
0.624999999999983
40
0.687499999999986
40
0.687499999999986
40
0.718749999999987
40
0.718749999999987
40
0.749999999999988
40
0.749999999999988
40
0.81249999999999
40
0.81249999999999
40
0.843749999999992
40
0.843749999999992
40
0.874999999999995
40
0.874999999999995
40
1
40
1
40
1
40
1
41
1
10
201.049426566743
20
7.56787767331406
30
0
41
1
10
201.410100342421
20
7.41655049035637
30
0
41
1
10
201.763298200521
20
7.27490999516596
30
0
41
1
10
202.277627259108
20
7.07286190034819
30
0
41
1
10
202.44542330822
20
7.00764538308113
30
0
41
1
10
202.769652816458
20
6.88172782240582
30
0
41
1
10
202.926596005237
20
6.82082894996833
30
0
41
1
10
203.229089298143
20
6.70204610986576
30
0
41
1
10
203.374644192737
20
6.64416432010813
30
0
41
1
10
203.652895750299
20
6.53021413028952
30
0
41
1
10
203.785918073023
20
6.47400666959715
30
0
41
1
10
204.160527066331
20
6.30695612107826
30
0
41
1
10
204.372725850849
20
6.20004588267253
30
0
41
1
10
204.581753606805
20
6.06480693826344
30
0
41
1
10
204.620718066549
20
6.03767919708613
30
0
41
1
10
204.69258944046
20
5.98308218396249
30
0
41
1
10
204.7255770357
20
5.95552363105952
30
0
41
1
10
204.813698097658
20
5.87314346843795
30
0
41
1
10
204.858394686987
20
5.81838300555668
30
0
41
1
10
204.918659018188
20
5.70822960187405
30
0
41
1
10
204.934233730409
20
5.65283562625885
30
0
41
1
10
204.934314150886
20
5.56883781828702
30
0
41
1
10
204.930404406796
20
5.54063755837583
30
0
41
1
10
204.914858042564
20
5.48484237543127
30
0
41
1
10
204.903238668801
20
5.45713669667975
30
0
41
1
10
204.857124125132
20
5.37460325587955
30
0
41
1
10
204.811397996604
20
5.32034333320152
30
0
41
1
10
204.720964251838
20
5.24042596338001
30
0
41
1
10
204.687172357237
20
5.21403624736843
30
0
41
1
10
204.612323502265
20
5.16185808708127
30
0
41
1
10
204.571269032372
20
5.13609669187608
30
0
41
1
10
204.351310146772
20
5.01087812072933
30
0
41
1
10
204.126813250693
20
4.92046420048021
30
0
41
1
10
203.86138811702
20
4.84336660485812
30
0
0
SPLINE
5
1D6
100
AcDbEntity
8
1
62
256
6
ByLayer
370
-1
48
1
60
0
100
AcDbSpline
70
4
71
3
72
14
73
10
40
0
40
0
40
0
40
0
40
0.250000000000003
40
0.250000000000003
40
0.375000000000005
40
0.375000000000005
40
0.500000000000006
40
0.500000000000006
40
1
40
1
40
1
40
1
41
1
10
199.698407472038
20
8.2223736933247
30
0
41
1
10
200.20381510834
20
8.02596141584573
30
0
41
1
10
200.720209690798
20
7.85435563327528
30
0
41
1
10
201.511831183938
20
7.63543352668785
30
0
41
1
10
201.779028811456
20
7.56881744497411
30
0
41
1
10
202.313110630755
20
7.45003361085975
30
0
41
1
10
202.580667520689
20
7.39765360030421
30
0
41
1
10
203.920997953134
20
7.17024503287411
30
0
41
1
10
205.001332184987
20
7.09763591325645
30
0
41
1
10
206.089924194643
20
7.13567755166832
30
0
0
SPLINE
5
1D7
100
AcDbEntity
8
1
62
256
6
ByLayer
370
-1
48
1
60
0
100
AcDbSpline
70
4
71
3
72
24
73
20
40
0
40
0
40
0
40
0
40
0.327707731120155
40
0.327707731120155
40
0.4096346639002
40
0.4096346639002
40
0.491561596680246
40
0.491561596680246
40
0.655415462240321
40
0.655415462240321
40
0.737342395020351
40
0.737342395020351
40
0.81926932780038
40
0.81926932780038
40
0.901196260580409
40
0.901196260580409
40
0.983123193360439
40
0.983123193360439
40
1
40
1
40
1
40
1
41
1
10
212.955644778642
20
14.7555620231386
30
0
41
1
10
212.983085440023
20
14.5111302391879
30
0
41
1
10
213.051036434125
20
14.2692458116737
30
0
41
1
10
213.194247570394
20
13.9725038920048
30
0
41
1
10
213.225949034259
20
13.9133948012931
30
0
41
1
10
213.294648380005
20
13.7978138415521
30
0
41
1
10
213.331749970446
20
13.7411027778309
30
0
41
1
10
213.451653340392
20
13.5744616818395
30
0
41
1
10
213.542946300747
20
13.4679704447539
30
0
41
1
10
213.699830827277
20
13.3169040084985
30
0
41
1
10
213.755241575736
20
13.2682850487301
30
0
41
1
10
213.870879367718
20
13.1762833276169
30
0
41
1
10
213.931332690029
20
13.132674242691
30
0
41
1
10
214.057816356048
20
13.0506179816295
30
0
41
1
10
214.123844067481
20
13.0121681830422
30
0
41
1
10
214.262000713602
20
12.9410137466153
30
0
41
1
10
214.334083345561
20
12.9084185574601
30
0
41
1
10
214.422393968064
20
12.8739751422568
30
0
41
1
10
214.437546732981
20
12.868249912598
30
0
41
1
10
214.452768639991
20
12.8626850057279
30
0
0
SPLINE
5
1D8
100
AcDbEntity
8
1
62
256
6
ByLayer
370
-1
48
1
60
0
100
AcDbSpline
70
4
71
3
72
24
73
20
40
0
40
0
40
0
40
0
40
0.0335830770049274
40
0.0335830770049274
40
0.114117820587858
40
0.114117820587858
40
0.194652564170788
40
0.194652564170788
40
0.355722051336647
40
0.355722051336647
40
0.43625679491957
40
0.43625679491957
40
0.516791538502494
40
0.516791538502494
40
0.67786102566833
40
0.67786102566833
40
0.838930512834165
40
0.838930512834165
40
1
40
1
40
1
40
1
41
1
10
213.936019344464
20
16.7002143588844
30
0
41
1
10
213.909469123486
20
16.6860555342041
30
0
41
1
10
213.883559123348
20
16.6714171690208
30
0
41
1
10
213.797863044027
20
16.6202559097333
30
0
41
1
10
213.740899751206
20
16.5816186011055
30
0
41
1
10
213.633154823554
20
16.4997395218875
30
0
41
1
10
213.5821516977
20
16.4562726000347
30
0
41
1
10
213.439388163342
20
16.3209961382662
30
0
41
1
10
213.358202350904
20
16.225090587168
30
0
41
1
10
213.253030336267
20
16.0737911477741
30
0
41
1
10
213.220785008435
20
16.0221032835822
30
0
41
1
10
213.161587218399
20
15.9162749648318
30
0
41
1
10
213.134549848758
20
15.8619238931064
30
0
41
1
10
213.061895676495
20
15.6969586186807
30
0
41
1
10
213.024612619134
20
15.5846284317404
30
0
41
1
10
212.970145397609
20
15.3553629553832
30
0
41
1
10
212.952984775563
20
15.2384258845978
30
0
41
1
10
212.938810772508
20
14.9998014322341
30
0
41
1
10
212.941924447952
20
14.877777915114
30
0
41
1
10
212.955644778642
20
14.7555620231386
30
0
0
SPLINE
5
1D9
100
AcDbEntity
8
1
62
256
6
ByLayer
370
-1
48
1
60
0
100
AcDbSpline
70
4
71
3
72
18
73
14
40
0
40
0
40
0
40
0
40
0.25
40
0.25
40
0.5
40
0.5
40
0.625000000000001
40
0.625000000000001
40
0.75
40
0.75
40
0.875
40
0.875
40
1
40
1
40
1
40
1
41
1
10
220.234122725114
20
1.45493083275602
30
0
41
1
10
220.24159284348
20
1.41181227767959
30
0
41
1
10
220.250026716047
20
1.36633414810868
30
0
41
1
10
220.269720906462
20
1.26934453634095
30
0
41
1
10
220.280943024462
20
1.21787168288355
30
0
41
1
10
220.301589457938
20
1.1324035874552
30
0
41
1
10
220.309117681723
20
1.10251493287595
30
0
41
1
10
220.326100115558
20
1.03856629015303
30
0
41
1
10
220.335648962698
20
1.0041641262589
30
0
41
1
10
220.357361802783
20
0.930361829997423
30
0
41
1
10
220.369371907614
20
0.891453473484034
30
0
41
1
10
220.396850299546
20
0.807620132253646
30
0
41
1
10
220.411779900443
20
0.764385805193854
30
0
41
1
10
220.428022270532
20
0.719868965722242
30
0
0
SPLINE
5
1DA
100
AcDbEntity
8
1
62
256
6
ByLayer
370
-1
48
1
60
0
100
AcDbSpline
70
4
71
3
72
26
73
22
40
0
40
0
40
0
40
0
40
0.124999999999985
40
0.124999999999985
40
0.249999999999969
40
0.249999999999969
40
0.374999999999954
40
0.374999999999954
40
0.437499999999947
40
0.437499999999947
40
0.499999999999939
40
0.499999999999939
40
0.562499999999931
40
0.562499999999931
40
0.624999999999924
40
0.624999999999924
40
0.749999999999949
40
0.749999999999949
40
0.874999999999975
40
0.874999999999975
40
1
40
1
40
1
40
1
41
1
10
221.733036543499
20
-11.1027054440136
30
0
41
1
10
221.738081825135
20
-11.1369774704979
30
0
41
1
10
221.741675098876
20
-11.1724815705284
30
0
41
1
10
221.744547880058
20
-11.2471200437769
30
0
41
1
10
221.743907802399
20
-11.2861876030897
30
0
41
1
10
221.735083241764
20
-11.370631860585
30
0
41
1
10
221.727064744669
20
-11.4158427785564
30
0
41
1
10
221.703305289629
20
-11.4893827008337
30
0
41
1
10
221.693451501215
20
-11.5145577386578
30
0
41
1
10
221.668345469428
20
-11.5656908067461
30
0
41
1
10
221.653224118104
20
-11.5912007967959
30
0
41
1
10
221.618138496138
20
-11.6394307398929
30
0
41
1
10
221.59889526607
20
-11.6611654472157
30
0
41
1
10
221.559180930843
20
-11.6990839464873
30
0
41
1
10
221.539327425263
20
-11.7148273351375
30
0
41
1
10
221.479778410688
20
-11.7557346538212
30
0
41
1
10
221.442369271321
20
-11.7733862651386
30
0
41
1
10
221.370018194947
20
-11.8001389392792
30
0
41
1
10
221.335820763686
20
-11.8086833401637
30
0
41
1
10
221.269868957876
20
-11.8204172600066
30
0
41
1
10
221.23809689718
20
-11.8235221980908
30
0
41
1
10
221.207139996544
20
-11.82477671882
30
0
0
SPLINE
5
1DB
100
AcDbEntity
8
1
62
256
6
ByLayer
370
-1
48
1
60
0
100
AcDbSpline
70
4
71
3
72
10
73
6
40
0
40
0
40
0
40
0
40
0.414631168620573
40
0.414631168620573
40
1
40
1
40
1
40
1
41
1
10
220.291078224377
20
-10.0371544499296
30
0
41
1
10
220.30051718826
20
-9.77132362874727
30
0
41
1
10
220.309948528799
20
-9.50549134384542
30
0
41
1
10
220.33267232567
20
-8.86435758979766
30
0
41
1
10
220.345955478025
20
-8.48905437004035
30
0
41
1
10
220.359214855558
20
-8.11374679253791
30
0
0
SPLINE
5
1DC
100
AcDbEntity
8
1
62
256
6
ByLayer
370
-1
48
1
60
0
100
AcDbSpline
70
4
71
3
72
10
73
6
40
0
40
0
40
0
40
0
40
0.5
40
0.5
40
1
40
1
40
1
40
1
41
1
10
220.359214855558
20
-8.11374679253791
30
0
41
1
10
220.361517845313
20
-8.04837219853354
30
0
41
1
10
220.356368239887
20
-7.98406728425803
30
0
41
1
10
220.331809297203
20
-7.85750420105572
30
0
41
1
10
220.312117594501
20
-7.79476626809196
30
0
41
1
10
220.285440625196
20
-7.73501090993631
30
0
0
SPLINE
5
1DD
100
AcDbEntity
8
1
62
256
6
ByLayer
370
-1
48
1
60
0
100
AcDbSpline
70
4
71
3
72
8
73
4
40
0
40
0
40
0
40
0
40
1
40
1
40
1
40
1
41
1
10
220.215718973814
20
-10.1729327050393
30
0
41
1
10
220.232012071754
20
-10.1273015782962
30
0
41
1
10
220.241383653756
20
-10.0791068219425
30
0
41
1
10
220.243054424833
20
-10.0302907974683
30
0
0
SPLINE
5
1DE
100
AcDbEntity
8
1
62
256
6
ByLayer
370
-1
48
1
60
0
100
AcDbSpline
70
4
71
3
72
10
73
6
40
0
40
0
40
0
40
0
40
0.5
40
0.5
40
1
40
1
40
1
40
1
41
1
10
220.969495258926
20
-0.750411946133113
30
0
41
1
10
220.978776594975
20
-0.772593431016389
30
0
41
1
10
220.986715793809
20
-0.797371043868338
30
0
41
1
10
220.99691305306
20
-0.847357685015879
30
0
41
1
10
220.999127687973
20
-0.872371252997198
30
0
41
1
10
220.99896371591
20
-0.894901211614354
30
0
0
SPLINE
5
1DF
100
AcDbEntity
8
1
62
256
6
ByLayer
370
-1
48
1
60
0
100
AcDbSpline
70
4
71
3
72
18
73
14
40
0
40
0
40
0
40
0
40
0.249999999999975
40
0.249999999999975
40
0.499999999999949
40
0.499999999999949
40
0.624999999999962
40
0.624999999999962
40
0.749999999999975
40
0.749999999999975
40
0.874999999999987
40
0.874999999999987
40
1
40
1
40
1
40
1
41
1
10
221.207139996545
20
-11.8247767188191
30
0
41
1
10
221.158425015239
20
-11.8267508813682
30
0
41
1
10
221.107413048504
20
-11.8297546348685
30
0
41
1
10
220.999756497896
20
-11.8389961583317
30
0
41
1
10
220.943134615907
20
-11.8451798393432
30
0
41
1
10
220.850454474956
20
-11.8587896977883
30
0
41
1
10
220.818248468085
20
-11.8640606831203
30
0
41
1
10
220.749923466036
20
-11.876791825545
30
0
41
1
10
220.713441382183
20
-11.8843263607375
30
0
41
1
10
220.635993148827
20
-11.9025290323441
30
0
41
1
10
220.595536950914
20
-11.9130605890285
30
0
41
1
10
220.509432623396
20
-11.9384108045061
30
0
41
1
10
220.465531230155
20
-11.9527439130513
30
0
41
1
10
220.420905685098
20
-11.9689467175426
30
0
0
SPLINE
5
1E0
100
AcDbEntity
8
1
62
256
6
ByLayer
370
-1
48
1
60
0
100
AcDbSpline
70
4
71
3
72
8
73
4
40
0
40
0
40
0
40
0
40
1
40
1
40
1
40
1
41
1
10
221.219159193423
20
-0.842896174677065
30
0
41
1
10
221.236197611057
20
-0.889594809083746
30
0
41
1
10
221.246020430052
20
-0.937757897577058
30
0
41
1
10
221.248627650407
20
-0.987385440158192
30
0
0
SPLINE
5
1E1
100
AcDbEntity
8
1
62
256
6
ByLayer
370
-1
48
1
60
0
100
AcDbSpline
70
4
71
3
72
10
73
6
40
0
40
0
40
0
40
0
40
0.310983025413772
40
0.310983025413772
40
1
40
1
40
1
40
1
41
1
10
220.243054424833
20
-10.0302907974683
30
0
41
1
10
220.249878948477
20
-9.83089417282494
30
0
41
1
10
220.25670929086
20
-9.63149774623668
30
0
41
1
10
220.278696098975
20
-8.99031747387522
30
0
41
1
10
220.293880620664
20
-8.54853458254303
30
0
41
1
10
220.309116394523
20
-8.10675345145523
30
0
0
SPLINE
5
1E2
100
AcDbEntity
8
1
62
256
6
ByLayer
370
-1
48
1
60
0
100
AcDbSpline
70
4
71
3
72
10
73
6
40
0
40
0
40
0
40
0
40
0.825424482463815
40
0.825424482463815
40
1
40
1
40
1
40
1
41
1
10
220.239256729067
20
-7.75015607594889
30
0
41
1
10
220.180480459567
20
-7.61899704942698
30
0
41
1
10
220.1279277359
20
-7.48552828291193
30
0
41
1
10
220.071764634864
20
-7.32104605018279
30
0
41
1
10
220.062237361048
20
-7.29222226466302
30
0
41
1
10
220.052991503155
20
-7.26330522640066
30
0
0
SPLINE
5
1E3
100
AcDbEntity
8
1
62
256
6
ByLayer
370
-1
48
1
60
0
100
AcDbSpline
70
4
71
3
72
22
73
18
40
0
40
0
40
0
40
0
40
0.0883369298249763
40
0.0883369298249763
40
0.179503236842491
40
0.179503236842491
40
0.270669543860007
40
0.270669543860007
40
0.361835850877522
40
0.361835850877522
40
0.453002157895037
40
0.453002157895037
40
0.635334771930025
40
0.635334771930025
40
0.817667385965012
40
0.817667385965012
40
1
40
1
40
1
40
1
41
1
10
219.780168727064
20
1.9514620294164
30
0
41
1
10
219.800938012815
20
1.94565460314459
30
0
41
1
10
219.82260064091
20
1.93858356571136
30
0
41
1
10
219.868722827897
20
1.92077170867543
30
0
41
1
10
219.892978957268
20
1.90996392843058
30
0
41
1
10
219.942834367467
20
1.88351995051227
30
0
41
1
10
219.968007078495
20
1.86803683555973
30
0
41
1
10
220.016350050622
20
1.8330319483841
30
0
41
1
10
220.038532258823
20
1.81422905999199
30
0
41
1
10
220.077941548777
20
1.77600625852133
30
0
41
1
10
220.094692863495
20
1.757168235791
30
0
41
1
10
220.139140548261
20
1.70119637337839
30
0
41
1
10
220.159675491993
20
1.66671167111886
30
0
41
1
10
220.19261388994
20
1.60064232585418
30
0
41
1
10
220.204420000671
20
1.56976114857156
30
0
41
1
10
220.222838711927
20
1.51060992240488
30
0
41
1
10
220.229375690306
20
1.48233137339543
30
0
41
1
10
220.234122725115
20
1.45493083275491
30
0
0
SPLINE
5
1E4
100
AcDbEntity
8
1
62
256
6
ByLayer
370
-1
48
1
60
0
100
AcDbSpline
70
4
71
3
72
10
73
6
40
0
40
0
40
0
40
0
40
0.5
40
0.5
40
1
40
1
40
1
40
1
41
1
10
220.309116394523
20
-8.10675345145523
30
0
41
1
10
220.311237310285
20
-8.04525473315695
30
0
41
1
10
220.306348190819
20
-7.9847008243776
30
0
41
1
10
220.283070160783
20
-7.86541250282977
30
0
41
1
10
220.26443145426
20
-7.80633338147442
30
0
41
1
10
220.239256729067
20
-7.75015607594889
30
0
0
SPLINE
5
1E5
100
AcDbEntity
8
1
62
256
6
ByLayer
370
-1
48
1
60
0
100
AcDbSpline
70
4
71
3
72
10
73
6
40
0
40
0
40
0
40
0
40
0.411393459476507
40
0.411393459476507
40
1
40
1
40
1
40
1
41
1
10
220.216940785071
20
-10.2870487880955
30
0
41
1
10
220.235526529547
20
-10.25608850249
30
0
41
1
10
220.250961504376
20
-10.2231315576451
30
0
41
1
10
220.279510132679
20
-10.1407501200104
30
0
41
1
10
220.289245459114
20
-10.0891513515583
30
0
41
1
10
220.291078224377
20
-10.0371544499296
30
0
0
SPLINE
5
1E6
100
AcDbEntity
8
1
62
256
6
ByLayer
370
-1
48
1
60
0
100
AcDbSpline
70
4
71
3
72
14
73
10
40
0
40
0
40
0
40
0
40
0.25
40
0.25
40
0.5
40
0.5
40
0.75
40
0.75
40
1
40
1
40
1
40
1
41
1
10
221.900049096012
20
-11.320982961505
30
0
41
1
10
221.897281137902
20
-11.4000538280312
30
0
41
1
10
221.882713837581
20
-11.4783120623243
30
0
41
1
10
221.83119258203
20
-11.6275797305522
30
0
41
1
10
221.79419199395
20
-11.6984541264631
30
0
41
1
10
221.701264791078
20
-11.8260335370694
30
0
41
1
10
221.645050680333
20
-11.8830889148035
30
0
41
1
10
221.518789999873
20
-11.9779803454505
30
0
41
1
10
221.448681698663
20
-12.0159939227973
30
0
41
1
10
221.374152549057
20
-12.0430542363113
30
0
0
SPLINE
5
1E7
100
AcDbEntity
8
1
62
256
6
ByLayer
370
-1
48
1
60
0
100
AcDbSpline
70
4
71
3
72
18
73
14
40
0
40
0
40
0
40
0
40
0.124999999999999
40
0.124999999999999
40
0.249999999999999
40
0.249999999999999
40
0.374999999999998
40
0.374999999999998
40
0.499999999999997
40
0.499999999999997
40
0.749999999999999
40
0.749999999999999
40
1
40
1
40
1
40
1
41
1
10
221.674486205877
20
-10.2477441541248
30
0
41
1
10
221.672848913085
20
-10.2945158734159
30
0
41
1
10
221.672205476524
20
-10.3417432417004
30
0
41
1
10
221.672653089567
20
-10.4326771682241
30
0
41
1
10
221.673724768985
20
-10.4765961868918
30
0
41
1
10
221.676931319611
20
-10.5591198348096
30
0
41
1
10
221.679087620539
20
-10.5985480730629
30
0
41
1
10
221.684074793588
20
-10.6736495544576
30
0
41
1
10
221.686882214031
20
-10.7090523627849
30
0
41
1
10
221.695926663941
20
-10.8110024239766
30
0
41
1
10
221.702772247768
20
-10.873384627975
30
0
41
1
10
221.717331534239
20
-10.9922074840933
30
0
41
1
10
221.72507566369
20
-11.0486280895055
30
0
41
1
10
221.733036543499
20
-11.1027054440138
30
0
0
SPLINE
5
1E8
100
AcDbEntity
8
1
62
256
6
ByLayer
370
-1
48
1
60
0
100
AcDbSpline
70
4
71
3
72
10
73
6
40
0
40
0
40
0
40
0
40
0.5
40
0.5
40
1
40
1
40
1
40
1
41
1
10
220.896876120423
20
-0.565158493790477
30
0
41
1
10
220.908422947279
20
-0.596805860199026
30
0
41
1
10
220.920635743453
20
-0.62900247971146
30
0
41
1
10
220.945053288452
20
-0.691158529940338
30
0
41
1
10
220.95727081116
20
-0.721196712261047
30
0
41
1
10
220.969495258926
20
-0.750411946133227
30
0
0
SPLINE
5
1E9
100
AcDbEntity
8
1
62
256
6
ByLayer
370
-1
48
1
60
0
100
AcDbSpline
70
4
71
3
72
14
73
10
40
0
40
0
40
0
40
0
40
0.0189226609943182
40
0.0189226609943182
40
0.345948440662879
40
0.345948440662879
40
0.672974220331439
40
0.672974220331439
40
1
40
1
40
1
40
1
41
1
10
219.851136138007
20
2.01027834422254
30
0
41
1
10
219.855488996755
20
2.00886627814742
30
0
41
1
10
219.859830237019
20
2.00741670969128
30
0
41
1
10
219.93897539507
20
1.98023187979155
30
0
41
1
10
220.010022859032
20
1.9433214232848
30
0
41
1
10
220.137913805556
20
1.85062058640759
30
0
41
1
10
220.195108506708
20
1.79454341041128
30
0
41
1
10
220.290231652557
20
1.66859029462333
30
0
41
1
10
220.328338055185
20
1.59865277371148
30
0
41
1
10
220.355464447227
20
1.52430517336831
30
0
0
SPLINE
5
1EA
100
AcDbEntity
8
1
62
256
6
ByLayer
370
-1
48
1
60
0
100
AcDbSpline
70
4
71
3
72
8
73
4
40
0
40
0
40
0
40
0
40
1
40
1
40
1
40
1
41
1
10
220.285440625196
20
-7.73501090993631
30
0
41
1
10
220.185996986712
20
-7.51213028458636
30
0
41
1
10
220.105182027276
20
-7.28401633780121
30
0
41
1
10
220.042532064087
20
-7.05079858791012
30
0
0
SPLINE
5
1EB
100
AcDbEntity
8
1
62
256
6
ByLayer
370
-1
48
1
60
0
100
AcDbSpline
70
4
71
3
72
10
73
6
40
0
40
0
40
0
40
0
40
0.499999999999999
40
0.499999999999999
40
1
40
1
40
1
40
1
41
1
10
221.003372849133
20
-1.08733154532089
30
0
41
1
10
221.001571208069
20
-1.05303792745062
30
0
41
1
10
221.000361652596
20
-1.01995149281458
30
0
41
1
10
220.998947781894
20
-0.955828173792298
30
0
41
1
10
220.998748269643
20
-0.924503787930831
30
0
41
1
10
220.99896371591
20
-0.894901211614837
30
0
0
SPLINE
5
1EC
100
AcDbEntity
8
1
62
256
6
ByLayer
370
-1
48
1
60
0
100
AcDbSpline
70
4
71
3
72
17
73
13
40
0
40
0
40
0
40
0
40
0.0032703186402015
40
0.0092094466332765
40
0.0210877026194264
40
0.0448442145917262
40
0.092357238536326
40
0.282409334314725
40
0.662513525871522
40
0.852565621649921
40
0.947591669539121
40
1
40
1
40
1
40
1
41
1
10
219.44760028039
20
20.9825468480497
30
0
41
1
10
219.447896386192
20
20.9825566362736
30
0
41
1
10
219.448727289863
20
20.9825840818634
30
0
41
1
10
219.450623225995
20
20.9826466596929
30
0
41
1
10
219.454377601702
20
20.9827706965444
30
0
41
1
10
219.461874688793
20
20.9830183017662
30
0
41
1
10
219.48544842602
20
20.9837969499748
30
0
41
1
10
219.541159262426
20
20.9856370335452
30
0
41
1
10
219.609735556725
20
20.9879021180065
30
0
41
1
10
219.669723580018
20
20.9898834138423
30
0
41
1
10
219.700182264879
20
20.9908895762453
30
0
41
1
10
219.71346339994
20
20.9913281169577
30
0
41
1
10
219.718198381753
20
20.9914845659455
30
0
0
SPLINE
5
1ED
100
AcDbEntity
8
1
62
256
6
ByLayer
370
-1
48
1
60
0
100
AcDbSpline
70
4
71
3
72
12
73
8
40
0
40
0
40
0
40
0
40
0.518100853439328
40
0.777151280158992
40
0.906676493518824
40
0.97143910019874
40
1
40
1
40
1
40
1
41
1
10
206.048627680006
20
20.5121476547276
30
0
41
1
10
206.127214007171
20
20.5148521090339
30
0
41
1
10
206.245093365267
20
20.5189087814098
30
0
41
1
10
206.382619732957
20
20.5236415978995
30
0
41
1
10
206.451382329183
20
20.5260079633295
30
0
41
1
10
206.485185046762
20
20.5271712695985
30
0
41
1
10
206.499340013594
20
20.5276583731137
30
0
41
1
10
206.503673251947
20
20.5278075228321
30
0
0
SPLINE
5
1EE
100
AcDbEntity
8
1
62
256
6
ByLayer
370
-1
48
1
60
0
100
AcDbSpline
70
4
71
3
72
8
73
4
40
0
40
0
40
0
40
0
40
1
40
1
40
1
40
1
41
1
10
206.396757804955
20
7.81636641443433
30
0
41
1
10
206.399398008957
20
7.77848052379989
30
0
41
1
10
206.406250664753
20
7.74137827568458
30
0
41
1
10
206.417308966742
20
7.7050587997492
30
0
0
SPLINE
5
1EF
100
AcDbEntity
8
1
62
256
6
ByLayer
370
-1
48
1
60
0
100
AcDbSpline
70
4
71
3
72
8
73
4
40
0
40
0
40
0
40
0
40
1
40
1
40
1
40
1
41
1
10
206.384522033187
20
8.02505985923989
30
0
41
1
10
206.385238066285
20
8.00874242266065
30
0
41
1
10
206.38603374999
20
7.99242831286907
30
0
41
1
10
206.386908641457
20
7.97611868781885
30
0
0
SPLINE
5
1F0
100
AcDbEntity
8
1
62
256
6
ByLayer
370
-1
48
1
60
0
100
AcDbSpline
70
4
71
3
72
9
73
5
40
0
40
0
40
0
40
0
40
0.5
40
1
40
1
40
1
40
1
41
1
10
206.215955255293
20
22.2408740236971
30
0
41
1
10
206.252155436665
20
22.2847996760121
30
0
41
1
10
206.338073568335
20
22.3651767688926
30
0
41
1
10
206.443699364851
20
22.4207204170771
30
0
41
1
10
206.498626699441
20
22.4410423401107
30
0
0
SPLINE
5
1F1
100
AcDbEntity
8
1
62
256
6
ByLayer
370
-1
48
1
60
0
100
AcDbSpline
70
4
71
3
72
25
73
21
40
0
40
0
40
0
40
0
40
0.125
40
0.1875
40
0.25
40
0.265625
40
0.2734375
40
0.28125
40
0.3125
40
0.375
40
0.5
40
0.625
40
0.65625
40
0.6875
40
0.75
40
0.765625
40
0.78125
40
0.8125
40
0.875
40
1
40
1
40
1
40
1
41
1
10
221.143584276462
20
22.4732833431852
30
0
41
1
10
221.148188400898
20
22.4610334258649
30
0
41
1
10
221.15417620567
20
22.4421789186202
30
0
41
1
10
221.160219981279
20
22.4163836359364
30
0
41
1
10
221.162863022031
20
22.4018138430497
30
0
41
1
10
221.164208439645
20
22.3925545736127
30
0
41
1
10
221.164638692256
20
22.3895563764037
30
0
41
1
10
221.165406519136
20
22.3829817017068
30
0
41
1
10
221.167021380877
20
22.369423983305
30
0
41
1
10
221.17047457041
20
22.3396274109822
30
0
41
1
10
221.175226696901
20
22.2973533175
30
0
41
1
10
221.179321127108
20
22.2590687526427
30
0
41
1
10
221.181949237586
20
22.2337628471704
30
0
41
1
10
221.183670627005
20
22.2169214866641
30
0
41
1
10
221.185131664925
20
22.202188659463
30
0
41
1
10
221.18634478903
20
22.1895098470205
30
0
41
1
10
221.187143848257
20
22.1810453665144
30
0
41
1
10
221.188518717502
20
22.1662068226654
30
0
41
1
10
221.19119064064
20
22.1364581550212
30
0
41
1
10
221.193401969714
20
22.1109596851377
30
0
41
1
10
221.194829730894
20
22.0939417915616
30
0
0
SPLINE
5
1F2
100
AcDbEntity
8
1
62
256
6
ByLayer
370
-1
48
1
60
0
100
AcDbSpline
70
4
71
3
72
12
73
8
40
0
40
0
40
0
40
0
40
0.448044053330183
40
0.448044053330183
40
0.724021472165503
40
0.724021472165503
40
1
40
1
40
1
40
1
41
1
10
208.456660182174
20
7.18836459124134
30
0
41
1
10
208.300504006271
20
7.1828906674854
30
0
41
1
10
208.144398632095
20
7.1775379730413
30
0
41
1
10
207.892093357246
20
7.1687798720335
30
0
41
1
10
207.795899157768
20
7.16538881138553
30
0
41
1
10
207.603485409706
20
7.15854287511067
30
0
41
1
10
207.507263608792
20
7.15508417722444
30
0
41
1
10
207.411077326699
20
7.15171256132024
30
0
0
SPLINE
5
1F3
100
AcDbEntity
8
1
62
256
6
ByLayer
370
-1
48
1
60
0
100
AcDbSpline
70
4
71
3
72
8
73
4
40
0
40
0
40
0
40
0
40
1
40
1
40
1
40
1
41
1
10
206.417308966742
20
7.70505879974917
30
0
41
1
10
206.458080476507
20
7.57118055706403
30
0
41
1
10
206.533915591562
20
7.44934457142804
30
0
41
1
10
206.635919028078
20
7.35387320172609
30
0
0
SPLINE
5
1F4
100
AcDbEntity
8
1
62
256
6
ByLayer
370
-1
48
1
60
0
100
AcDbSpline
70
4
71
3
72
14
73
10
40
0
40
0
40
0
40
0
40
0.0107070020616512
40
0.0461693850894012
40
0.117094151144901
40
0.400793215366901
40
0.684492279588902
40
0.968191343810902
40
1
40
1
40
1
40
1
41
1
10
219.269036865519
20
21.7997241786102
30
0
41
1
10
219.269077014074
20
21.7982360665256
30
0
41
1
10
219.269249135283
20
21.7918202365086
30
0
41
1
10
219.26966946219
20
21.775564985019
30
0
41
1
10
219.270931792627
20
21.7215819270988
30
0
41
1
10
219.272240782616
20
21.6344719404345
30
0
41
1
10
219.272330565637
20
21.5235102850592
30
0
41
1
10
219.271234115638
20
21.450711053427
30
0
41
1
10
219.270315161405
20
21.4144693232488
30
0
41
1
10
219.270220780208
20
21.4108261589859
30
0
0
SPLINE
5
1F5
100
AcDbEntity
8
1
62
256
6
ByLayer
370
-1
48
1
60
0
100
AcDbSpline
70
4
71
3
72
15
73
11
40
0
40
0
40
0
40
0
40
0.0355064919379809
40
0.118947470229826
40
0.285829426813516
40
0.619593339980896
40
0.786475296564586
40
0.869916274856431
40
0.953357253148276
40
1
40
1
40
1
40
1
41
1
10
220.442291576546
20
21.0163479055151
30
0
41
1
10
220.446503009779
20
21.0164944356993
30
0
41
1
10
220.46061116086
20
21.0169854118561
30
0
41
1
10
220.49450753706
20
21.0181669933705
30
0
41
1
10
220.563682790499
20
21.0205860807923
30
0
41
1
10
220.642239466864
20
21.0233512473609
30
0
41
1
10
220.710037397171
20
21.0257534806611
30
0
41
1
10
220.748442294548
20
21.0271187936802
30
0
41
1
10
220.772849062609
20
21.0279884615158
30
0
41
1
10
220.787627064027
20
21.0285160586896
30
0
41
1
10
220.792920883452
20
21.0287051119032
30
0
0
SPLINE
5
1F6
100
AcDbEntity
8
1
62
256
6
ByLayer
370
-1
48
1
60
0
100
AcDbSpline
70
4
71
3
72
14
73
10
40
0
40
0
40
0
40
0
40
0.0318086637759042
40
0.315507725074466
40
0.599206786373027
40
0.882905847671589
40
0.953830612996229
40
0.98929299565855
40
1
40
1
40
1
40
1
41
1
10
219.695054482203
20
9.19870987607013
30
0
41
1
10
219.69540233941
20
9.19506671130412
30
0
41
1
10
219.698842839531
20
9.15882498560828
30
0
41
1
10
219.705004352076
20
9.08602575695784
30
0
41
1
10
219.712634812338
20
8.97506409303386
30
0
41
1
10
219.717386566721
20
8.88795410824184
30
0
41
1
10
219.719880149213
20
8.8339710489372
30
0
41
1
10
219.720590793879
20
8.81771579927533
30
0
41
1
10
219.720865059004
20
8.81129996891417
30
0
41
1
10
219.720928447035
20
8.80981185649227
30
0
0
SPLINE
5
1F7
100
AcDbEntity
8
1
62
256
6
ByLayer
370
-1
48
1
60
0
100
AcDbSpline
70
4
71
3
72
15
73
11
40
0
40
0
40
0
40
0
40
0.25022797874925
40
0.50046792337329
40
0.75070786799733
40
0.87582784030935
40
0.93838782646536
40
0.969667819543365
40
0.985307816082367
40
1
40
1
40
1
40
1
41
1
10
221.63834514487
20
8.26970460179294
30
0
41
1
10
221.648071038017
20
8.2674551988157
30
0
41
1
10
221.667523289313
20
8.26295628531582
30
0
41
1
10
221.696696253736
20
8.25620916687276
30
0
41
1
10
221.721034730494
20
8.25058016794679
30
0
41
1
10
221.738013517733
20
8.24665331680959
30
0
41
1
10
221.746587590708
20
8.24467030661336
30
0
41
1
10
221.750747608162
20
8.24370817845667
30
0
41
1
10
221.753311235779
20
8.24311526308045
30
0
41
1
10
221.753921559161
20
8.24297410758851
30
0
41
1
10
221.755078932446
20
8.24270643048425
30
0
0
SPLINE
5
1F8
100
AcDbEntity
8
1
62
256
6
ByLayer
370
-1
48
1
60
0
100
AcDbSpline
70
4
71
3
72
16
73
12
40
0
40
0
40
0
40
0
40
0.0068174563921275
40
0.0525902990101724
40
0.144135984246262
40
0.235681669482352
40
0.418773039954531
40
0.601864410426711
40
0.784955780898891
40
0.96804715137107
40
1
40
1
40
1
40
1
41
1
10
206.858079583875
20
20.5401647387565
30
0
41
1
10
206.858805668571
20
20.540190382886
30
0
41
1
10
206.864406275494
20
20.5403881957048
30
0
41
1
10
206.879748020963
20
20.5409302133909
30
0
41
1
10
206.904113989801
20
20.5417909419504
30
0
41
1
10
206.94310188791
20
20.5431681454091
30
0
41
1
10
206.991834243605
20
20.5448896085285
30
0
41
1
10
207.050315809333
20
20.5469554136838
30
0
41
1
10
207.108794598712
20
20.5490211686486
30
0
41
1
10
207.151175908017
20
20.5505183933579
30
0
41
1
10
207.174079101065
20
20.5513273008433
30
0
41
1
10
207.177479768044
20
20.5514474501243
30
0
0
SPLINE
5
1F9
100
AcDbEntity
8
1
62
256
6
ByLayer
370
-1
48
1
60
0
100
AcDbSpline
70
4
71
3
72
9
73
5
40
0
40
0
40
0
40
0
40
0.625000000001472
40
1
40
1
40
1
40
1
41
1
10
206.479742210032
20
8.11948495593956
30
0
41
1
10
206.459159653704
20
8.11875788309158
30
0
41
1
10
206.426227563579
20
8.11759456653485
30
0
41
1
10
206.393295473455
20
8.11643124997809
30
0
41
1
10
206.380945939658
20
8.11599500626932
30
0
0
SPLINE
5
1FA
100
AcDbEntity
8
1
62
256
6
ByLayer
370
-1
48
1
60
0
100
AcDbSpline
70
4
71
3
72
8
73
4
40
0
40
0
40
0
40
0
40
1
40
1
40
1
40
1
41
1
10
205.909548743835
20
21.698187648094
30
0
41
1
10
205.908697432104
20
21.751533441833
30
0
41
1
10
205.90828634977
20
21.8048878134867
30
0
41
1
10
205.908271814344
20
21.8582404223592
30
0
0
SPLINE
5
1FB
100
AcDbEntity
8
1
62
256
6
ByLayer
370
-1
48
1
60
0
100
AcDbSpline
70
4
71
3
72
14
73
10
40
0
40
0
40
0
40
0
40
0.136649739226088
40
0.273299478452176
40
0.546598956904353
40
0.614923826517397
40
0.683248696130441
40
0.819898435356529
40
1
40
1
40
1
40
1
41
1
10
219.26370456876
20
21.1262195849236
30
0
41
1
10
219.266148108932
20
21.1263052411746
30
0
41
1
10
219.271039376052
20
21.126355759659
30
0
41
1
10
219.280815118941
20
21.1259751211979
30
0
41
1
10
219.289329086086
20
21.1250118331323
30
0
41
1
10
219.296554203391
20
21.1237388074817
30
0
41
1
10
219.301348744602
20
21.1227715904021
30
0
41
1
10
219.308051249495
20
21.1211598794621
30
0
41
1
10
219.313481878881
20
21.1195218220565
30
0
41
1
10
219.316536434276
20
21.1184912095022
30
0
0
SPLINE
5
1FC
100
AcDbEntity
8
1
62
256
6
ByLayer
370
-1
48
1
60
0
100
AcDbSpline
70
4
71
3
72
17
73
13
40
0
40
0
40
0
40
0
40
0.0144631560763412
40
0.0301057427840141
40
0.0613909161993601
40
0.123961263030052
40
0.249101956691436
40
0.499383344014204
40
0.749664731336971
40
0.999946118659739
40
0.999946118659739
40
1
40
1
40
1
40
1
41
1
10
205.91329575854
20
21.5582337076652
30
0
41
1
10
205.91438650272
20
21.5582719427875
30
0
41
1
10
205.914820519348
20
21.5582871568763
30
0
41
1
10
205.916996470278
20
21.5583634330109
30
0
41
1
10
205.920546432319
20
21.5584878739524
30
0
41
1
10
205.927859117212
20
21.5587442139871
30
0
41
1
10
205.942342646457
20
21.5592519219554
30
0
41
1
10
205.963102971929
20
21.5599796577502
30
0
41
1
10
205.987987939991
20
21.560851979431
30
0
41
1
10
206.004581070711
20
21.5614336377094
30
0
41
1
10
206.012875317805
20
21.5617243855837
30
0
41
1
10
206.012885312666
20
21.5617247359452
30
0
41
1
10
206.012895307527
20
21.5617250863067
30
0
0
SPLINE
5
1FD
100
AcDbEntity
8
1
62
256
6
ByLayer
370
-1
48
1
60
0
100
AcDbSpline
70
4
71
3
72
17
73
13
40
0
40
0
40
0
40
0
40
0.0144631560763102
40
0.0301057427839836
40
0.0613909161993303
40
0.123961263030024
40
0.24910195669141
40
0.499383344014184
40
0.749664731336957
40
0.99994611865973
40
0.99994611865973
40
1
40
1
40
1
40
1
41
1
10
221.762801210278
20
8.65519303983601
30
0
41
1
10
221.761710466097
20
8.65515480471373
30
0
41
1
10
221.761276449469
20
8.65513959062491
30
0
41
1
10
221.759100498539
20
8.65506331449035
30
0
41
1
10
221.755550536498
20
8.65493887354884
30
0
41
1
10
221.748237851605
20
8.65468253351412
30
0
41
1
10
221.73375432236
20
8.65417482554582
30
0
41
1
10
221.712993996888
20
8.65344708975104
30
0
41
1
10
221.688109028826
20
8.6525747680702
30
0
41
1
10
221.671515898106
20
8.65199310979182
30
0
41
1
10
221.663221651012
20
8.65170236191747
30
0
41
1
10
221.663211656151
20
8.65170201155601
30
0
41
1
10
221.66320166129
20
8.65170166119455
30
0
0
SPLINE
5
1FE
100
AcDbEntity
8
1
62
256
6
ByLayer
370
-1
48
1
60
0
100
AcDbSpline
70
4
71
3
72
20
73
16
40
0
40
0
40
0
40
0
40
0.0006369940731739
40
0.0022970655115905
40
0.0039571369500072
40
0.0172377084573404
40
0.0437988514720069
40
0.150043423530673
40
0.362532567648005
40
0.468777139706671
40
0.521899425736003
40
0.575021711765336
40
0.787510855882668
40
0.893755427941334
40
1
40
1
40
1
40
1
41
1
10
206.012888361871
20
21.561724583245
30
0
41
1
10
206.012890781823
20
21.5615014676069
30
0
41
1
10
206.012907847694
20
21.5606961821119
30
0
41
1
10
206.012963070906
20
21.5593105198924
30
0
41
1
10
206.013161436246
20
21.5535087094761
30
0
41
1
10
206.013672218744
20
21.5389802463251
30
0
41
1
10
206.015442604396
20
21.4878770139763
30
0
41
1
10
206.019615441676
20
21.3670576984019
30
0
41
1
10
206.024649083254
20
21.2183755245949
30
0
41
1
10
206.028978296752
20
21.0882832851021
30
0
41
1
10
206.031424658457
20
21.0139486637935
30
0
41
1
10
206.035125391791
20
20.9024437965907
30
0
41
1
10
206.039531739788
20
20.7723476145521
30
0
41
1
10
206.044688274638
20
20.6236621330368
30
0
41
1
10
206.047308915055
20
20.5493191163563
30
0
41
1
10
206.048627680006
20
20.5121476547276
30
0
0
SPLINE
5
1FF
100
AcDbEntity
8
1
62
256
6
ByLayer
370
-1
48
1
60
0
100
AcDbSpline
70
4
71
3
72
25
73
21
40
0
40
0
40
0
40
0
40
0.125
40
0.1875
40
0.21875
40
0.234375
40
0.25
40
0.3125
40
0.34375
40
0.375
40
0.5
40
0.625
40
0.6875
40
0.71875
40
0.7265625
40
0.734375
40
0.75
40
0.8125
40
0.875
40
1
40
1
40
1
40
1
41
1
10
207.407600657341
20
7.2516516440231
30
0
41
1
10
207.390588263389
20
7.2518904586278
30
0
41
1
10
207.365092889499
20
7.25232043955853
30
0
41
1
10
207.335341525596
20
7.25291422812623
30
0
41
1
10
207.320498341527
20
7.25325256032775
30
0
41
1
10
207.312030030845
20
7.25346034681871
30
0
41
1
10
207.299344164337
20
7.2537878205836
30
0
41
1
10
207.284598939546
20
7.25421975158406
30
0
41
1
10
207.267740599212
20
7.25476490168987
30
0
41
1
10
207.242406833741
20
7.25562568117672
30
0
41
1
10
207.204073103472
20
7.2570464892116
30
0
41
1
10
207.161727283883
20
7.25884662462025
30
0
41
1
10
207.131875012964
20
7.2602193810757
30
0
41
1
10
207.118286903697
20
7.26088756094631
30
0
41
1
10
207.111700382075
20
7.2611964038625
30
0
41
1
10
207.108681787767
20
7.26141677623625
30
0
41
1
10
207.099367814022
20
7.26211457468602
30
0
41
1
10
207.08467113697
20
7.26373769055735
30
0
41
1
10
207.058553986895
20
7.26797433863865
30
0
41
1
10
207.039350043459
20
7.27263987379348
30
0
41
1
10
207.026820092691
20
7.27638451947342
30
0
0
SPLINE
5
200
100
AcDbEntity
8
1
62
256
6
ByLayer
370
-1
48
1
60
0
100
AcDbSpline
70
4
71
3
72
14
73
10
40
0
40
0
40
0
40
0
40
0.0107070020616676
40
0.0461693850894171
40
0.117094151144916
40
0.400793215366911
40
0.684492279588907
40
0.968191343810903
40
1
40
1
40
1
40
1
41
1
10
220.512563524188
20
9.66197929737689
30
0
41
1
10
220.511069455102
20
9.66192733135782
30
0
41
1
10
220.504626967304
20
9.66170328563669
30
0
41
1
10
220.488288413035
20
9.66113563974639
30
0
41
1
10
220.433895150951
20
9.65925050982432
30
0
41
1
10
220.34539526184
20
9.65620856205956
30
0
41
1
10
220.231085510731
20
9.65233369566977
30
0
41
1
10
220.154934320826
20
9.64979149048278
30
0
41
1
10
220.116650773983
20
9.64852590137724
30
0
41
1
10
220.112800353882
20
9.64839867927779
30
0
0
SPLINE
5
201
100
AcDbEntity
8
1
62
256
6
ByLayer
370
-1
48
1
60
0
100
AcDbSpline
70
4
71
3
72
8
73
4
40
0
40
0
40
0
40
0
40
1
40
1
40
1
40
1
41
1
10
220.404440821771
20
23.0654993102898
30
0
41
1
10
220.457583420823
20
23.0663536753005
30
0
41
1
10
220.510739200392
20
23.0667707822601
30
0
41
1
10
220.563884274862
20
23.0667808443578
30
0
0
SPLINE
5
202
100
AcDbEntity
8
1
62
256
6
ByLayer
370
-1
48
1
60
0
100
AcDbSpline
70
4
71
3
72
91
73
87
40
0
40
0
40
0
40
0
40
0.0276322771565352
40
0.0681475989416796
40
0.0782764293879657
40
0.0833408446111087
40
0.0839738965140016
40
0.0846069484168945
40
0.0849234743683409
40
0.0852400003197874
40
0.0858730522226803
40
0.0884052598342518
40
0.0985340902805379
40
0.108662920726824
40
0.11879175117311
40
0.128920581619396
40
0.149178242511968
40
0.169435903404541
40
0.179564733850827
40
0.18462914907397
40
0.189693564297113
40
0.190326616200006
40
0.190959668102898
40
0.192225771908684
40
0.192858823811577
40
0.19349187571447
40
0.194757979520256
40
0.197290187131827
40
0.199822394743399
40
0.204886809966542
40
0.209951225189685
40
0.220080055635971
40
0.222612263247542
40
0.223878367053328
40
0.225144470859114
40
0.230208886082257
40
0.270724207867401
40
0.290981868759974
40
0.311239529652546
40
0.331497190545118
40
0.341626020991404
40
0.346690436214547
40
0.349222643826119
40
0.350488747631904
40
0.351121799534797
40
0.35175485143769
40
0.352387903340583
40
0.353020955243476
40
0.354287059049262
40
0.356819266660833
40
0.361883681883976
40
0.372012512330262
40
0.392270173222834
40
0.412527834115407
40
0.432785495007979
40
0.473300816793123
40
0.475833024404695
40
0.478365232016266
40
0.479631335822052
40
0.480897439627838
40
0.483429647239409
40
0.493558477685695
40
0.503687308131981
40
0.508751723355125
40
0.511283930966696
40
0.512550034772482
40
0.513816138578268
40
0.514449190481161
40
0.523944969024554
40
0.53407379947084
40
0.554331460363412
40
0.564460290809698
40
0.574589121255984
40
0.594846782148556
40
0.615104443041129
40
0.6176366506527
40
0.618269702555593
40
0.618586228507039
40
0.618902754458486
40
0.619535806361379
40
0.620168858264272
40
0.625233273487415
40
0.635362103933701
40
0.675877425718845
40
0.837938712859422
40
1
40
1
40
1
40
1
41
1
10
219.805160754803
20
9.58542632404945
30
0
41
1
10
219.804629468818
20
9.5838396325872
30
0
41
1
10
219.80325391183
20
9.57994852292043
30
0
41
1
10
219.801490650951
20
9.57554785210954
30
0
41
1
10
219.800141066739
20
9.57245688416893
30
0
41
1
10
219.799749639656
20
9.57158235539845
30
0
41
1
10
219.799591869021
20
9.5712330892618
30
0
41
1
10
219.799552359731
20
9.57114580307677
30
0
41
1
10
219.799520712335
20
9.57107599236866
30
0
41
1
10
219.799489038302
20
9.57100619383064
30
0
41
1
10
219.799401824852
20
9.57081429809455
30
0
41
1
10
219.799067430355
20
9.57008224581097
30
0
41
1
10
219.798484612776
20
9.56883172043788
30
0
41
1
10
219.797687228767
20
9.5671740348767
30
0
41
1
10
219.796869672674
20
9.5655262802041
30
0
41
1
10
219.795752864195
20
9.56334284753959
30
0
41
1
10
219.79430703248
20
9.56063963035859
30
0
41
1
10
219.792795584733
20
9.55797283994806
30
0
41
1
10
219.791703549259
20
9.55612608321496
30
0
41
1
10
219.791069869311
20
9.55507663159722
30
0
41
1
10
219.790729816489
20
9.55452120010261
30
0
41
1
10
219.790528660562
20
9.55419517443468
30
0
41
1
10
219.790448098259
20
9.55406482634962
30
0
41
1
10
219.790367386139
20
9.55393457164547
30
0
41
1
10
219.790286524366
20
9.55380441053774
30
0
41
1
10
219.790205562879
20
9.55367431189944
30
0
41
1
10
219.790063618671
20
9.55344680345326
30
0
41
1
10
219.789860094607
20
9.55312226152427
30
0
41
1
10
219.789532866804
20
9.55260400199404
30
0
41
1
10
219.789120858667
20
9.55195807536887
30
0
41
1
10
219.788455330415
20
9.55092867815992
30
0
41
1
10
219.787864741177
20
9.55003336594916
30
0
41
1
10
219.787395351763
20
9.54933351205599
30
0
41
1
10
219.787224081832
20
9.54907941480437
30
0
41
1
10
219.786966594719
20
9.54869866486209
30
0
41
1
10
219.785369791806
20
9.54635682417353
30
0
41
1
10
219.783035322236
20
9.54312802683788
30
0
41
1
10
219.780019293609
20
9.53926364649672
30
0
41
1
10
219.777687197603
20
9.53642188861218
30
0
41
1
10
219.775686508086
20
9.53410233429719
30
0
41
1
10
219.774256543046
20
9.53250492167001
30
0
41
1
10
219.773534263383
20
9.53171288074654
30
0
41
1
10
219.773171308448
20
9.53131853870005
30
0
41
1
10
219.772989378351
20
9.53112178878908
30
0
41
1
10
219.772885289138
20
9.53100948080183
30
0
41
1
10
219.77280715769
20
9.53092531013189
30
0
41
1
10
219.772728961744
20
9.53084119983635
30
0
41
1
10
219.772624614555
20
9.53072913333455
30
0
41
1
10
219.772441781588
20
9.53053322858042
30
0
41
1
10
219.77207521553
20
9.53014226682259
30
0
41
1
10
219.771338494274
20
9.52936374434469
30
0
41
1
10
219.769850786013
20
9.52782038382725
30
0
41
1
10
219.767685248165
20
9.52565514026776
30
0
41
1
10
219.76502387886
20
9.52312160759433
30
0
41
1
10
219.761393968791
20
9.51983186764093
30
0
41
1
10
219.758465284982
20
9.5173675330191
30
0
41
1
10
219.756311942838
20
9.51564949699787
30
0
41
1
10
219.756012140017
20
9.51541180296132
30
0
41
1
10
219.755771862869
20
9.51522220241233
30
0
41
1
10
219.755531296334
20
9.51503297212801
30
0
41
1
10
219.754868546868
20
9.51451411815941
30
0
41
1
10
219.753777573016
20
9.51367344760686
30
0
41
1
10
219.752554042206
20
9.51275439007969
30
0
41
1
10
219.751691709194
20
9.51211901605186
30
0
41
1
10
219.751259088679
20
9.51180333063414
30
0
41
1
10
219.751011463147
20
9.51162351228521
30
0
41
1
10
219.750856525106
20
9.51151136499846
30
0
41
1
10
219.750298284449
20
9.51110828136217
30
0
41
1
10
219.749301464928
20
9.51039782182303
30
0
41
1
10
219.74732250979
20
9.50902266704244
30
0
41
1
10
219.745286719586
20
9.50766302604021
30
0
41
1
10
219.74322646324
20
9.50634128417187
30
0
41
1
10
219.741150215113
20
9.50504499422672
30
0
41
1
10
219.738525518449
20
9.50347270258999
30
0
41
1
10
219.736262577241
20
9.50219152472707
30
0
41
1
10
219.735021907396
20
9.50151157125836
30
0
41
1
10
219.734837291253
20
9.50141085195625
30
0
41
1
10
219.734770137167
20
9.50137426548471
30
0
41
1
10
219.734702969129
20
9.50133770483836
30
0
41
1
10
219.734618982939
20
9.50129205246324
30
0
41
1
10
219.734282898945
20
9.50110970138459
30
0
41
1
10
219.733441124795
20
9.50065673220959
30
0
41
1
10
219.730463561946
20
9.49908967785694
30
0
41
1
10
219.718914099698
20
9.49345750940628
30
0
41
1
10
219.69799155067
20
9.48627701219439
30
0
41
1
10
219.678510709666
20
9.48365907515478
30
0
41
1
10
219.66873654898
20
9.48331645015091
30
0
0
SPLINE
5
203
100
AcDbEntity
8
1
62
256
6
ByLayer
370
-1
48
1
60
0
100
AcDbSpline
70
4
71
3
72
14
73
10
40
0
40
0
40
0
40
0
40
0.0107070020616644
40
0.0461693850894139
40
0.117094151144913
40
0.400793215366909
40
0.684492279588904
40
0.9681913438109
40
1
40
1
40
1
40
1
41
1
10
208.421006426713
20
8.41370256889098
30
0
41
1
10
208.420943038723
20
8.4151906809756
30
0
41
1
10
208.420668773613
20
8.42160651099255
30
0
41
1
10
208.419958128867
20
8.43786176248216
30
0
41
1
10
208.417464546437
20
8.49184482040238
30
0
41
1
10
208.412712791956
20
8.57895480706665
30
0
41
1
10
208.40508233227
20
8.68991646244203
30
0
41
1
10
208.398920819614
20
8.76271569407419
30
0
41
1
10
208.395480319067
20
8.79895742425234
30
0
41
1
10
208.395132461908
20
8.80260058851528
30
0
0
SPLINE
5
204
100
AcDbEntity
8
1
62
256
6
ByLayer
370
-1
48
1
60
0
100
AcDbSpline
70
4
71
3
72
15
73
11
40
0
40
0
40
0
40
0
40
0.42499786374904
40
0.84999572749808
40
0.95624519343534
40
0.982807559919655
40
0.996088743161813
40
0.997748891067082
40
0.999409038972352
40
1
40
1
40
1
40
1
41
1
10
206.443229652152
20
9.16906176806057
30
0
41
1
10
206.448402242267
20
9.02037235928415
30
0
41
1
10
206.458744627518
20
8.72299655570308
30
0
41
1
10
206.470392739302
20
8.38843479137449
30
0
41
1
10
206.47717040789
20
8.19329222476648
30
0
41
1
10
206.47895612921
20
8.14217197214174
30
0
41
1
10
206.479454303845
20
8.12765905516059
30
0
41
1
10
206.479661886105
20
8.1218448926293
30
0
41
1
10
206.479701917516
20
8.12047759695756
30
0
41
1
10
206.479740111101
20
8.11969187636001
30
0
41
1
10
206.47975214471
20
8.11948554795902
30
0
0
SPLINE
5
205
100
AcDbEntity
8
1
62
256
6
ByLayer
370
-1
48
1
60
0
100
AcDbSpline
70
4
71
3
72
9
73
5
40
0
40
0
40
0
40
0
40
0.5
40
1
40
1
40
1
40
1
41
1
10
220.648803228611
20
22.9370422280278
30
0
41
1
10
220.704913696205
20
22.9205790945646
30
0
41
1
10
220.813957012307
20
22.8725447631684
30
0
41
1
10
220.905160564072
20
22.7984254784512
30
0
41
1
10
220.944306648926
20
22.7571640270425
30
0
0
SPLINE
5
206
100
AcDbEntity
8
1
62
256
6
ByLayer
370
-1
48
1
60
0
100
AcDbSpline
70
4
71
3
72
12
73
8
40
0
40
0
40
0
40
0
40
0.448044053330173
40
0.448044053330173
40
0.724021472165481
40
0.724021472165481
40
1
40
1
40
1
40
1
41
1
10
205.949831409632
20
20.5086577050573
30
0
41
1
10
205.944378315808
20
20.665410372184
30
0
41
1
10
205.939100369557
20
20.8221666308249
30
0
41
1
10
205.930414860981
20
21.0754750860347
30
0
41
1
10
205.927028030053
20
21.172028024304
30
0
41
1
10
205.920162148476
20
21.3651305897695
30
0
41
1
10
205.916677585953
20
21.4616807672312
30
0
41
1
10
205.91331885175
20
21.5582345171783
30
0
0
SPLINE
5
207
100
AcDbEntity
8
1
62
256
6
ByLayer
370
-1
48
1
60
0
100
AcDbSpline
70
4
71
3
72
25
73
21
40
0
40
0
40
0
40
0
40
0.125
40
0.1875
40
0.25
40
0.265625
40
0.2734375
40
0.28125
40
0.3125
40
0.375
40
0.5
40
0.625
40
0.65625
40
0.6875
40
0.75
40
0.765625
40
0.78125
40
0.8125
40
0.875
40
1
40
1
40
1
40
1
41
1
10
206.530745015765
20
7.74014340431594
30
0
41
1
10
206.526136980125
20
7.75239332163633
30
0
41
1
10
206.520148471324
20
7.77124782888097
30
0
41
1
10
206.514113723033
20
7.79704311156479
30
0
41
1
10
206.511479365523
20
7.81161290445155
30
0
41
1
10
206.510140782245
20
7.82087217388852
30
0
41
1
10
206.509712972433
20
7.82387037109748
30
0
41
1
10
206.508949996053
20
7.83044504579442
30
0
41
1
10
206.507345235834
20
7.84400276419618
30
0
41
1
10
206.50391416498
20
7.87379933651903
30
0
41
1
10
206.499193490362
20
7.91607343000118
30
0
41
1
10
206.495127492592
20
7.9543579948585
30
0
41
1
10
206.492518294386
20
7.97966390033079
30
0
41
1
10
206.490809510042
20
7.99650526083713
30
0
41
1
10
206.489359507578
20
8.01123808803817
30
0
41
1
10
206.488155861944
20
8.02391690048071
30
0
41
1
10
206.487363126298
20
8.03238138098678
30
0
41
1
10
206.485999333638
20
8.04721992483582
30
0
41
1
10
206.483349592653
20
8.07696859247994
30
0
41
1
10
206.481157282049
20
8.1024670623635
30
0
41
1
10
206.479742210032
20
8.11948495593956
30
0
0
SPLINE
5
208
100
AcDbEntity
8
1
62
256
6
ByLayer
370
-1
48
1
60
0
100
AcDbSpline
70
4
71
3
72
9
73
5
40
0
40
0
40
0
40
0
40
0.375000000000346
40
1
40
1
40
1
40
1
41
1
10
219.219436786643
20
23.0250621562598
30
0
41
1
10
219.21977605607
20
23.0125697709221
30
0
41
1
10
219.220680774541
20
22.9792567433547
30
0
41
1
10
219.221585493012
20
22.9459437157874
30
0
41
1
10
219.222150942056
20
22.9251230735579
30
0
0
SPLINE
5
209
100
AcDbEntity
8
1
62
256
6
ByLayer
370
-1
48
1
60
0
100
AcDbSpline
70
4
71
3
72
20
73
16
40
0
40
0
40
0
40
0
40
0.0006369940731597
40
0.0022970655115764
40
0.0039571369499931
40
0.0172377084573265
40
0.0437988514719934
40
0.150043423530661
40
0.362532567647996
40
0.468777139706663
40
0.521899425735997
40
0.57502171176533
40
0.787510855882665
40
0.893755427941333
40
1
40
1
40
1
40
1
41
1
10
220.268496427551
20
22.9617643368287
30
0
41
1
10
220.268274178027
20
22.9617619247901
30
0
41
1
10
220.267472018091
20
22.9617448551681
30
0
41
1
10
220.266091729138
20
22.9616895217995
30
0
41
1
10
220.260312386758
20
22.9614907906242
30
0
41
1
10
220.245839846371
20
22.9609786970302
30
0
41
1
10
220.194930130941
20
22.9592005988695
30
0
41
1
10
220.074543297087
20
22.954984445602
30
0
41
1
10
219.926318416365
20
22.9498226744519
30
0
41
1
10
219.796563194919
20
22.9453182982414
30
0
41
1
10
219.722399524226
20
22.9427502492737
30
0
41
1
10
219.611169166062
20
22.9388850068797
30
0
41
1
10
219.481444083724
20
22.934337398311
30
0
41
1
10
219.333253742419
20
22.929090243517
30
0
41
1
10
219.259180487074
20
22.9264464062125
30
0
41
1
10
219.222150942056
20
22.9251230735579
30
0
0
SPLINE
5
20A
100
AcDbEntity
8
1
62
256
6
ByLayer
370
-1
48
1
60
0
100
AcDbSpline
70
4
71
3
72
8
73
4
40
0
40
0
40
0
40
0
40
1
40
1
40
1
40
1
41
1
10
206.380945939658
20
8.11599500626932
30
0
41
1
10
206.382000598613
20
8.08567816055205
30
0
41
1
10
206.383192163857
20
8.05536580254432
30
0
41
1
10
206.384522033187
20
8.02505985923989
30
0
0
SPLINE
5
20B
100
AcDbEntity
8
1
62
256
6
ByLayer
370
-1
48
1
60
0
100
AcDbSpline
70
4
71
3
72
12
73
8
40
0
40
0
40
0
40
0
40
0.0285608994398991
40
0.0933235061439058
40
0.222848719551919
40
0.481899146367946
40
1
40
1
40
1
40
1
41
1
10
220.792920883452
20
21.0287051119032
30
0
41
1
10
220.797097378311
20
21.0288542631514
30
0
41
1
10
220.810734074668
20
21.0293413712881
30
0
41
1
10
220.843302858954
20
21.0305046666077
30
0
41
1
10
220.909552498219
20
21.0328710390835
30
0
41
1
10
221.042054741703
20
21.0376038508843
30
0
41
1
10
221.155627145473
20
21.0416605251343
30
0
41
1
10
221.231342288775
20
21.0443649794406
30
0
0
SPLINE
5
20C
100
AcDbEntity
8
1
62
256
6
ByLayer
370
-1
48
1
60
0
100
AcDbSpline
70
4
71
3
72
8
73
4
40
0
40
0
40
0
40
0
40
1
40
1
40
1
40
1
41
1
10
221.762778117066
20
8.65519223032288
30
0
41
1
10
221.763832756254
20
8.62487538208399
30
0
41
1
10
221.764751482388
20
8.59455347686452
30
0
41
1
10
221.765530272658
20
8.56422820615686
30
0
0
SPLINE
5
20D
100
AcDbEntity
8
1
62
256
6
ByLayer
370
-1
48
1
60
0
100
AcDbSpline
70
4
71
3
72
12
73
8
40
0
40
0
40
0
40
0
40
0.518100853439294
40
0.777151280158941
40
0.906676493518764
40
0.971439100198676
40
1
40
1
40
1
40
1
41
1
10
219.222150942056
20
22.9251230735579
30
0
41
1
10
219.226280697029
20
22.8476776350494
30
0
41
1
10
219.232475446917
20
22.731509737407
30
0
41
1
10
219.239702222631
20
22.595979605667
30
0
41
1
10
219.243316201606
20
22.5282157658523
30
0
41
1
10
219.245091830765
20
22.494903032889
30
0
41
1
10
219.245836307371
20
22.4809542132539
30
0
41
1
10
219.246063291551
20
22.4766831241383
30
0
0
SPLINE
5
20E
100
AcDbEntity
8
1
62
256
6
ByLayer
370
-1
48
1
60
0
100
AcDbSpline
70
4
71
3
72
11
73
7
40
0
40
0
40
0
40
0
40
0.486341095999812
40
0.729511643999718
40
0.972682191999623
40
1
40
1
40
1
40
1
41
1
10
219.66873654898
20
9.48331645015091
30
0
41
1
10
219.668908695751
20
9.47836798119104
30
0
41
1
10
219.669263769384
20
9.47094575947895
30
0
41
1
10
219.669899809546
20
9.46169972998206
30
0
41
1
10
219.670285361727
20
9.45715424070261
30
0
41
1
10
219.6704997595
20
9.45488137237379
30
0
41
1
10
219.670521487645
20
9.45465262950307
30
0
0
SPLINE
5
20F
100
AcDbEntity
8
1
62
256
6
ByLayer
370
-1
48
1
60
0
100
AcDbSpline
70
4
71
3
72
9
73
5
40
0
40
0
40
0
40
0
40
0.624999999999956
40
1
40
1
40
1
40
1
41
1
10
220.797925874643
20
7.72106499143661
30
0
41
1
10
220.798809037831
20
7.70024434920705
30
0
41
1
10
220.800222098932
20
7.66693132163974
30
0
41
1
10
220.801635160033
20
7.63361829407245
30
0
41
1
10
220.802165057946
20
7.62112590873468
30
0
0
SPLINE
5
210
100
AcDbEntity
8
1
62
256
6
ByLayer
370
-1
48
1
60
0
100
AcDbSpline
70
4
71
3
72
15
73
11
40
0
40
0
40
0
40
0
40
0.0355064919379648
40
0.118947470229814
40
0.285829426813512
40
0.619593339980909
40
0.786475296564607
40
0.869916274856456
40
0.953357253148305
40
1
40
1
40
1
40
1
41
1
10
207.96033968617
20
21.7267097608062
30
0
41
1
10
207.960225038676
20
21.7309058362754
30
0
41
1
10
207.959837865801
20
21.7449655538576
30
0
41
1
10
207.958849845693
20
21.7788016213782
30
0
41
1
10
207.956605223906
20
21.8480752215019
30
0
41
1
10
207.953524564835
20
21.9272592317295
30
0
41
1
10
207.95040021221
20
21.9960501929587
30
0
41
1
10
207.94849632017
20
22.0351476423845
30
0
41
1
10
207.94722746868
20
22.0600516707957
30
0
41
1
10
207.946428966337
20
22.0751600770966
30
0
41
1
10
207.946141277294
20
22.0805738528064
30
0
0
SPLINE
5
211
100
AcDbEntity
8
1
62
256
6
ByLayer
370
-1
48
1
60
0
100
AcDbSpline
70
4
71
3
72
15
73
11
40
0
40
0
40
0
40
0
40
0.250139710793304
40
0.500351579587119
40
0.750563448380934
40
0.875669382777841
40
0.938222349976295
40
0.969498833575522
40
0.985137075375135
40
1
40
1
40
1
40
1
41
1
10
221.458639421235
20
7.97254584000865
30
0
41
1
10
221.46719984726
20
7.96459148707314
30
0
41
1
10
221.484323168258
20
7.94868048705314
30
0
41
1
10
221.510004351243
20
7.92481751660333
30
0
41
1
10
221.531431727643
20
7.9049071857539
30
0
41
1
10
221.546379036402
20
7.89101813759603
30
0
41
1
10
221.553928207365
20
7.88400344346363
30
0
41
1
10
221.557589517972
20
7.88060135147765
30
0
41
1
10
221.559854734172
20
7.87849651124199
30
0
41
1
10
221.560457550235
20
7.87793637419907
30
0
41
1
10
221.561391360785
20
7.87706867688263
30
0
0
SPLINE
5
212
100
AcDbEntity
8
1
62
256
6
ByLayer
370
-1
48
1
60
0
100
AcDbSpline
70
4
71
3
72
16
73
12
40
0
40
0
40
0
40
0
40
0.0068174563922515
40
0.0525902990102861
40
0.144135984246355
40
0.235681669482424
40
0.418773039954563
40
0.601864410426701
40
0.784955780898839
40
0.968047151370977
40
1
40
1
40
1
40
1
41
1
10
208.43471112781
20
8.09060798844595
30
0
41
1
10
208.434680108605
20
8.09134234023156
30
0
41
1
10
208.434440593045
20
8.09700695821454
30
0
41
1
10
208.433780091072
20
8.11252831395703
30
0
41
1
10
208.43273435888
20
8.13717635499623
30
0
41
1
10
208.431062420439
20
8.17661430205831
30
0
41
1
10
208.428971196926
20
8.22591055596308
30
0
41
1
10
208.42646300879
20
8.28506747562324
30
0
41
1
10
208.423953526101
20
8.34422295801755
30
0
41
1
10
208.422131554054
20
8.38709786401392
30
0
41
1
10
208.421152984437
20
8.4102619436475
30
0
41
1
10
208.421006426713
20
8.41370256889098
30
0
0
SPLINE
5
213
100
AcDbEntity
8
1
62
256
6
ByLayer
370
-1
48
1
60
0
100
AcDbSpline
70
4
71
3
72
14
73
10
40
0
40
0
40
0
40
0
40
0.03180866377589
40
0.315507725074453
40
0.599206786373016
40
0.882905847671579
40
0.953830612996219
40
0.98929299565854
40
1
40
1
40
1
40
1
41
1
10
207.947154860359
20
9.22194218155573
30
0
41
1
10
207.943746678143
20
9.22181495943875
30
0
41
1
10
207.909822590275
20
9.22054937048972
30
0
41
1
10
207.840929365989
20
9.21800716540685
30
0
41
1
10
207.734160283308
20
9.21413229871854
30
0
41
1
10
207.64910316052
20
9.21109035101918
30
0
41
1
10
207.595941149063
20
9.20920522104873
30
0
41
1
10
207.579892914438
20
9.20863757522227
30
0
41
1
10
207.573552570202
20
9.20841352948912
30
0
41
1
10
207.572081740243
20
9.20836156345828
30
0
0
SPLINE
5
214
100
AcDbEntity
8
1
62
256
6
ByLayer
370
-1
48
1
60
0
100
AcDbSpline
70
4
71
3
72
8
73
4
40
0
40
0
40
0
40
0
40
1
40
1
40
1
40
1
41
1
10
206.783342759821
20
22.5887110452797
30
0
41
1
10
206.767087483806
20
22.5879923451023
30
0
41
1
10
206.750835518614
20
22.5871936867478
30
0
41
1
10
206.734587897961
20
22.586315394464
30
0
0
SPLINE
5
215
100
AcDbEntity
8
1
62
256
6
ByLayer
370
-1
48
1
60
0
100
AcDbSpline
70
4
71
3
72
8
73
4
40
0
40
0
40
0
40
0
40
1
40
1
40
1
40
1
41
1
10
221.289188395199
20
22.2373080596823
30
0
41
1
10
221.28633017595
20
22.2905835079725
30
0
41
1
10
221.283047237012
20
22.3438377280735
30
0
41
1
10
221.279339153494
20
22.3970603330692
30
0
0
SPLINE
5
216
100
AcDbEntity
8
1
62
256
6
ByLayer
370
-1
48
1
60
0
100
AcDbSpline
70
4
71
3
72
16
73
12
40
0
40
0
40
0
40
0
40
0.0068174563922301
40
0.0525902990102648
40
0.144135984246334
40
0.235681669482404
40
0.418773039954543
40
0.601864410426682
40
0.784955780898821
40
0.96804715137096
40
1
40
1
40
1
40
1
41
1
10
219.260262012127
20
22.1228187590552
30
0
41
1
10
219.260282086013
20
22.1220844072696
30
0
41
1
10
219.260436690616
20
22.1164197892866
30
0
41
1
10
219.260856098933
20
22.1008984335442
30
0
41
1
10
219.261525273196
20
22.076250392505
30
0
41
1
10
219.262597260322
20
22.0368124454429
30
0
41
1
10
219.263935861674
20
21.9875161915381
30
0
41
1
10
219.265543561824
20
21.928359271878
30
0
41
1
10
219.267149867423
20
21.8692037894836
30
0
41
1
10
219.26831095001
20
21.8263288834873
30
0
41
1
10
219.268944039089
20
21.8031648038537
30
0
41
1
10
219.269036865519
20
21.7997241786102
30
0
0
SPLINE
5
217
100
AcDbEntity
8
1
62
256
6
ByLayer
370
-1
48
1
60
0
100
AcDbSpline
70
4
71
3
72
8
73
4
40
0
40
0
40
0
40
0
40
1
40
1
40
1
40
1
41
1
10
208.368814528683
20
9.08720716257756
30
0
41
1
10
208.369168491426
20
9.07703227731756
30
0
41
1
10
208.36980078664
20
9.06688058918451
30
0
41
1
10
208.370599693389
20
9.05854581112339
30
0
0
SPLINE
5
218
100
AcDbEntity
8
1
62
256
6
ByLayer
370
-1
48
1
60
0
100
AcDbSpline
70
4
71
3
72
9
73
5
40
0
40
0
40
0
40
0
40
0.5
40
1
40
1
40
1
40
1
41
1
10
221.638343749597
20
8.26970492449155
30
0
41
1
10
221.621860396362
20
8.21329694052397
30
0
41
1
10
221.57383284081
20
8.10366041505401
30
0
41
1
10
221.499819477788
20
8.01193168321086
30
0
41
1
10
221.458632012936
20
7.97255272380414
30
0
0
SPLINE
5
219
100
AcDbEntity
8
1
62
256
6
ByLayer
370
-1
48
1
60
0
100
AcDbSpline
70
4
71
3
72
10
73
6
40
0
40
0
40
0
40
0
40
0.5
40
0.5
40
1
40
1
40
1
40
1
41
1
10
210.535108041599
20
11.8737896220739
30
0
41
1
10
210.526078688858
20
11.9255086828228
30
0
41
1
10
210.513530037045
20
11.979854739017
30
0
41
1
10
210.481512103858
20
12.0936216617366
30
0
41
1
10
210.461810751573
20
12.1532099873004
30
0
41
1
10
210.44042541566
20
12.2109788707015
30
0
0
SPLINE
5
21A
100
AcDbEntity
8
1
62
256
6
ByLayer
370
-1
48
1
60
0
100
AcDbSpline
70
4
71
3
72
15
73
11
40
0
40
0
40
0
40
0
40
0.250139710793278
40
0.50035157958703
40
0.750563448380783
40
0.875669382777659
40
0.938222349976097
40
0.969498833575316
40
0.985137075374925
40
1
40
1
40
1
40
1
41
1
10
220.944313560949
20
22.7571714090093
30
0
41
1
10
220.95230053122
20
22.7657014082058
30
0
41
1
10
220.96827677532
20
22.7827638667725
30
0
41
1
10
220.992237597415
20
22.8083537696112
30
0
41
1
10
221.012229571857
20
22.8297049854203
30
0
41
1
10
221.026175572951
20
22.8445991660768
30
0
41
1
10
221.033219031288
20
22.8521215045748
30
0
41
1
10
221.036635073771
20
22.8557698015692
30
0
41
1
10
221.038748545039
20
22.8580269663775
30
0
41
1
10
221.03931097896
20
22.8586276398157
30
0
41
1
10
221.040182234325
20
22.8595581312677
30
0
0
SPLINE
5
21B
100
AcDbEntity
8
1
62
256
6
ByLayer
370
-1
48
1
60
0
100
AcDbSpline
70
4
71
3
72
9
73
5
40
0
40
0
40
0
40
0
40
0.375000000002253
40
1
40
1
40
1
40
1
41
1
10
221.726265559186
20
9.70476904244387
30
0
41
1
10
221.713725396903
20
9.70433279873509
30
0
41
1
10
221.680284964147
20
9.70316948217834
30
0
41
1
10
221.646844531392
20
9.70200616562158
30
0
41
1
10
221.62594426092
20
9.70127909277363
30
0
0
SPLINE
5
21C
100
AcDbEntity
8
1
62
256
6
ByLayer
370
-1
48
1
60
0
100
AcDbSpline
70
4
71
3
72
12
73
8
40
0
40
0
40
0
40
0
40
0.518100853439256
40
0.777151280158884
40
0.906676493518698
40
0.971439100198605
40
1
40
1
40
1
40
1
41
1
10
221.62594426092
20
9.70127909277363
30
0
41
1
10
221.550229117619
20
9.69857463846728
30
0
41
1
10
221.436656788274
20
9.69451796609138
30
0
41
1
10
221.304154358623
20
9.6897851496017
30
0
41
1
10
221.237904998957
20
9.68741878417165
30
0
41
1
10
221.205335780622
20
9.68625547790271
30
0
41
1
10
221.191699267123
20
9.68576837438755
30
0
41
1
10
221.187522832812
20
9.68561922466907
30
0
0
SPLINE
5
21D
100
AcDbEntity
8
1
62
256
6
ByLayer
370
-1
48
1
60
0
100
AcDbSpline
70
4
71
3
72
9
73
5
40
0
40
0
40
0
40
0
40
0.624999999999655
40
1
40
1
40
1
40
1
41
1
10
206.876646066284
20
22.4923617560646
30
0
41
1
10
206.87608061724
20
22.5131823982941
30
0
41
1
10
206.875175898769
20
22.5464954258615
30
0
41
1
10
206.874271180298
20
22.5798084534288
30
0
41
1
10
206.873931910871
20
22.5923008387665
30
0
0
SPLINE
5
21E
100
AcDbEntity
8
1
62
256
6
ByLayer
370
-1
48
1
60
0
100
AcDbSpline
70
4
71
3
72
8
73
4
40
0
40
0
40
0
40
0
40
1
40
1
40
1
40
1
41
1
10
207.320459047819
20
7.14894949113429
30
0
41
1
10
207.304193768793
20
7.14852900249238
30
0
41
1
10
207.287926449724
20
7.14818899057781
30
0
41
1
10
207.271657372354
20
7.14792743718715
30
0
0
SPLINE
5
21F
100
AcDbEntity
8
1
62
256
6
ByLayer
370
-1
48
1
60
0
100
AcDbSpline
70
4
71
3
72
8
73
4
40
0
40
0
40
0
40
0
40
1
40
1
40
1
40
1
41
1
10
206.575443491104
20
22.5764285695085
30
0
41
1
10
206.53770209172
20
22.573778605592
30
0
41
1
10
206.500741739792
20
22.5669004874122
30
0
41
1
10
206.464559440682
20
22.5557989108262
30
0
0
SPLINE
5
220
100
AcDbEntity
8
1
62
256
6
ByLayer
370
-1
48
1
60
0
100
AcDbSpline
70
4
71
3
72
9
73
5
40
0
40
0
40
0
40
0
40
0.5
40
1
40
1
40
1
40
1
41
1
10
206.730280619303
20
7.45626272045874
30
0
41
1
10
206.68647503718
20
7.49264844065851
30
0
41
1
10
206.606334010456
20
7.57896482517995
30
0
41
1
10
206.55098562632
20
7.68501025286616
30
0
41
1
10
206.530745015765
20
7.74014340431594
30
0
0
SPLINE
5
221
100
AcDbEntity
8
1
62
256
6
ByLayer
370
-1
48
1
60
0
100
AcDbSpline
70
4
71
3
72
14
73
10
40
0
40
0
40
0
40
0
40
0.0107070020617411
40
0.0461693850894886
40
0.117094151144984
40
0.400793215366963
40
0.684492279588943
40
0.968191343810923
40
1
40
1
40
1
40
1
41
1
10
207.177479768044
20
20.5514474501243
30
0
41
1
10
207.178950597696
20
20.5514994161434
30
0
41
1
10
207.185290941592
20
20.5517234618645
30
0
41
1
10
207.201339178022
20
20.5522911077548
30
0
41
1
10
207.254501188113
20
20.5541762376769
30
0
41
1
10
207.339558312733
20
20.5572181854416
30
0
41
1
10
207.446327387177
20
20.5610930518314
30
0
41
1
10
207.515220614426
20
20.5636352570184
30
0
41
1
10
207.549144706489
20
20.564900846124
30
0
41
1
10
207.552552888234
20
20.5650280682234
30
0
0
SPLINE
5
222
100
AcDbEntity
8
1
62
256
6
ByLayer
370
-1
48
1
60
0
100
AcDbSpline
70
4
71
3
72
15
73
11
40
0
40
0
40
0
40
0
40
0.42499786374904
40
0.849995727498079
40
0.956245193435339
40
0.982807559919654
40
0.996088743161812
40
0.997748891067081
40
0.999409038972351
40
1
40
1
40
1
40
1
41
1
10
207.922228921759
20
22.5290137859845
30
0
41
1
10
207.774105321074
20
22.5238214374148
30
0
41
1
10
207.477861142936
20
22.5134395667426
30
0
41
1
10
207.144572414571
20
22.5017468882299
30
0
41
1
10
206.950172508561
20
22.4949434145878
30
0
41
1
10
206.899246727247
20
22.4931508152016
30
0
41
1
10
206.88478908792
20
22.4926507894413
30
0
41
1
10
206.878997009037
20
22.4924423730987
30
0
41
1
10
206.877634974406
20
22.4924022470645
30
0
41
1
10
206.876852160003
20
22.4923638235572
30
0
41
1
10
206.876646579338
20
22.4923517064316
30
0
0
SPLINE
5
223
100
AcDbEntity
8
1
62
256
6
ByLayer
370
-1
48
1
60
0
100
AcDbSpline
70
4
71
3
72
17
73
13
40
0
40
0
40
0
40
0
40
0.0524083454183778
40
0.147434401200709
40
0.337486512765371
40
0.717590735894694
40
0.907642847459356
40
0.955155875350522
40
0.978912389296104
40
0.990790646268896
40
0.996729774755292
40
1
40
1
40
1
40
1
41
1
10
207.552552888234
20
20.5650280682234
30
0
41
1
10
207.556744037047
20
20.5651845172601
30
0
41
1
10
207.56848365418
20
20.5656230580312
30
0
41
1
10
207.59543112342
20
20.5666292201904
30
0
41
1
10
207.648485001055
20
20.5686105137169
30
0
41
1
10
207.709142682294
20
20.5708756154853
30
0
41
1
10
207.758415933113
20
20.5727156656051
30
0
41
1
10
207.779268687579
20
20.5734943463462
30
0
41
1
10
207.785897478334
20
20.5737419166891
30
0
41
1
10
207.789221755149
20
20.5738660085625
30
0
41
1
10
207.79089366807
20
20.5739285091201
30
0
41
1
10
207.791629020062
20
20.5739559657426
30
0
41
1
10
207.791891580852
20
20.5739657602019
30
0
0
SPLINE
5
224
100
AcDbEntity
8
1
62
256
6
ByLayer
370
-1
48
1
60
0
100
AcDbSpline
70
4
71
3
72
14
73
10
40
0
40
0
40
0
40
0
40
0.136649739226087
40
0.273299478452174
40
0.546598956904348
40
0.614923826517392
40
0.683248696130436
40
0.819898435356523
40
1
40
1
40
1
40
1
41
1
10
219.812859721423
20
9.63845999870912
30
0
41
1
10
219.812945051726
20
9.63600712461113
30
0
41
1
10
219.812995377972
20
9.63109717364469
30
0
41
1
10
219.812616187955
20
9.6212840890062
30
0
41
1
10
219.811656565491
20
9.6127375998897
30
0
41
1
10
219.810388384088
20
9.60548488381056
30
0
41
1
10
219.809424847561
20
9.60067202823157
30
0
41
1
10
219.807819269668
20
9.59394392085852
30
0
41
1
10
219.806187445565
20
9.5884925473508
30
0
41
1
10
219.805160754803
20
9.58542632404945
30
0
0
SPLINE
5
225
100
AcDbEntity
8
1
62
256
6
ByLayer
370
-1
48
1
60
0
100
AcDbSpline
70
4
71
3
72
8
73
4
40
0
40
0
40
0
40
0
40
1
40
1
40
1
40
1
41
1
10
205.910565895591
20
21.6491985413446
30
0
41
1
10
205.910147437554
20
21.6655263832566
30
0
41
1
10
205.909809362477
20
21.6818564862874
30
0
41
1
10
205.909548743811
20
21.6981876480937
30
0
0
SPLINE
5
226
100
AcDbEntity
8
1
62
256
6
ByLayer
370
-1
48
1
60
0
100
AcDbSpline
70
4
71
3
72
8
73
4
40
0
40
0
40
0
40
0
40
1
40
1
40
1
40
1
41
1
10
220.941509138694
20
7.62711135303709
30
0
41
1
10
220.99458166624
20
7.62998029790876
30
0
41
1
10
221.047632935274
20
7.63327547330175
30
0
41
1
10
221.100653467347
20
7.63699817799287
30
0
0
SPLINE
5
227
100
AcDbEntity
8
1
62
256
6
ByLayer
370
-1
48
1
60
0
100
AcDbSpline
70
4
71
3
72
8
73
4
40
0
40
0
40
0
40
0
40
1
40
1
40
1
40
1
41
1
10
220.265019642118
20
23.0617141861801
30
0
41
1
10
220.295221141829
20
23.0627728376238
30
0
41
1
10
220.325426446934
20
23.0636962938981
30
0
41
1
10
220.355637120421
20
23.0644772563769
30
0
0
SPLINE
5
228
100
AcDbEntity
8
1
62
256
6
ByLayer
370
-1
48
1
60
0
100
AcDbSpline
70
4
71
3
72
11
73
7
40
0
40
0
40
0
40
0
40
0.486341095999808
40
0.729511643999712
40
0.972682191999616
40
1
40
1
40
1
40
1
41
1
10
208.214261348166
20
9.23188086212505
30
0
41
1
10
208.209331709625
20
9.23170805778116
30
0
41
1
10
208.202034601942
20
9.23144886808765
30
0
41
1
10
208.193138146725
20
9.23112598962288
30
0
41
1
10
208.188837378625
20
9.23096725763952
30
0
41
1
10
208.186708488737
20
9.23088788732852
30
0
41
1
10
208.186494386966
20
9.23087989945145
30
0
0
SPLINE
5
229
100
AcDbEntity
8
1
62
256
6
ByLayer
370
-1
48
1
60
0
100
AcDbSpline
70
4
71
3
72
8
73
4
40
0
40
0
40
0
40
0
40
1
40
1
40
1
40
1
41
1
10
219.812859721423
20
9.63845999870912
30
0
41
1
10
219.822995888172
20
9.63881531353189
30
0
41
1
10
219.833388085518
20
9.63916981829314
30
0
41
1
10
219.842200104676
20
9.6394608751566
30
0
0
SPLINE
5
22A
100
AcDbEntity
8
1
62
256
6
ByLayer
370
-1
48
1
60
0
100
AcDbSpline
70
4
71
3
72
15
73
11
40
0
40
0
40
0
40
0
40
0.250227978746473
40
0.500467923371436
40
0.750707867996399
40
0.875827840308881
40
0.938387826465122
40
0.969667819543242
40
0.985307816082302
40
1
40
1
40
1
40
1
41
1
10
206.037278182094
20
21.9437221457084
30
0
41
1
10
206.027591757686
20
21.9459715486856
30
0
41
1
10
206.008218445755
20
21.9504704621854
30
0
41
1
10
205.979163868414
20
21.9572175806285
30
0
41
1
10
205.954924159859
20
21.9628465795544
30
0
41
1
10
205.938014274397
20
21.9667734306917
30
0
41
1
10
205.929474995948
20
21.9687564408879
30
0
41
1
10
205.9253318603
20
21.9697185690446
30
0
41
1
10
205.922778636165
20
21.9703114844208
30
0
41
1
10
205.922170789542
20
21.9704526399127
30
0
41
1
10
205.921018113004
20
21.970720317017
30
0
0
SPLINE
5
22B
100
AcDbEntity
8
1
62
256
6
ByLayer
370
-1
48
1
60
0
100
AcDbSpline
70
4
71
3
72
8
73
4
40
0
40
0
40
0
40
0
40
1
40
1
40
1
40
1
41
1
10
207.271657372353
20
7.14792743721142
30
0
41
1
10
207.218514377628
20
7.14707307220067
30
0
41
1
10
207.165367472874
20
7.14665596524102
30
0
41
1
10
207.112213375169
20
7.14664590314342
30
0
0
SPLINE
5
22C
100
AcDbEntity
8
1
62
256
6
ByLayer
370
-1
48
1
60
0
100
AcDbSpline
70
4
71
3
72
11
73
7
40
0
40
0
40
0
40
0
40
0.486341095999904
40
0.729511643999856
40
0.972682191999808
40
1
40
1
40
1
40
1
41
1
10
207.963782548463
20
20.7301102973503
30
0
41
1
10
207.963610401692
20
20.7350587663102
30
0
41
1
10
207.963449068528
20
20.7424809880222
30
0
41
1
10
207.96344180906
20
20.7517270175191
30
0
41
1
10
207.963511105321
20
20.7562725067986
30
0
41
1
10
207.963567366528
20
20.7585453751274
30
0
41
1
10
207.963573179711
20
20.7587741179981
30
0
0
SPLINE
5
22D
100
AcDbEntity
8
1
62
256
6
ByLayer
370
-1
48
1
60
0
100
AcDbSpline
70
4
71
3
72
17
73
13
40
0
40
0
40
0
40
0
40
0.0524083454183529
40
0.14743440120069
40
0.337486512765364
40
0.717590735894713
40
0.907642847459387
40
0.955155875350555
40
0.97891238929614
40
0.990790646268932
40
0.996729774755328
40
1
40
1
40
1
40
1
41
1
10
208.395132461908
20
8.80260058851528
30
0
41
1
10
208.394704690966
20
8.807080702756
30
0
41
1
10
208.393497059119
20
8.81963886735338
30
0
41
1
10
208.390739121592
20
8.84845158178814
30
0
41
1
10
208.385298322612
20
8.90518840503975
30
0
41
1
10
208.379082320736
20
8.97005243299131
30
0
41
1
10
208.374030891604
20
9.02274457427413
30
0
41
1
10
208.371894282035
20
9.04504307320391
30
0
41
1
10
208.371213935121
20
9.05213256024862
30
0
41
1
10
208.370874588195
20
9.05568608656446
30
0
41
1
10
208.370701267254
20
9.05747586836196
30
0
41
1
10
208.370626004243
20
9.05826212315964
30
0
41
1
10
208.370599398527
20
9.05854259977539
30
0
0
SPLINE
5
22E
100
AcDbEntity
8
1
62
256
6
ByLayer
370
-1
48
1
60
0
100
AcDbSpline
70
4
71
3
72
9
73
5
40
0
40
0
40
0
40
0
40
0.5
40
1
40
1
40
1
40
1
41
1
10
220.944306648926
20
22.7571640270425
30
0
41
1
10
220.988018070696
20
22.7207783068427
30
0
41
1
10
221.068019511523
20
22.6344619223212
30
0
41
1
10
221.123335703055
20
22.528416494635
30
0
41
1
10
221.143584276462
20
22.4732833431852
30
0
0
SPLINE
5
22F
100
AcDbEntity
8
1
62
256
6
ByLayer
370
-1
48
1
60
0
100
AcDbSpline
70
4
71
3
72
8
73
4
40
0
40
0
40
0
40
0
40
1
40
1
40
1
40
1
41
1
10
221.561386758428
20
7.87707295339538
30
0
41
1
10
221.656496949279
20
7.97946219395678
30
0
41
1
10
221.723683693427
20
8.10630738073309
30
0
41
1
10
221.755060048602
20
8.24271079793689
30
0
0
SPLINE
5
230
100
AcDbEntity
8
1
62
256
6
ByLayer
370
-1
48
1
60
0
100
AcDbSpline
70
4
71
3
72
20
73
16
40
0
40
0
40
0
40
0
40
0.0006369940731718
40
0.0022970655115885
40
0.0039571369500051
40
0.0172377084573384
40
0.0437988514720049
40
0.150043423530671
40
0.362532567648003
40
0.468777139706669
40
0.521899425736002
40
0.575021711765336
40
0.787510855882668
40
0.893755427941334
40
1
40
1
40
1
40
1
41
1
10
221.663208607189
20
8.65170216425628
30
0
41
1
10
221.66320622142
20
8.6519252798943
30
0
41
1
10
221.663189277958
20
8.65273056538936
30
0
41
1
10
221.663134255553
20
8.65411622760877
30
0
41
1
10
221.662936671006
20
8.6599180380251
30
0
41
1
10
221.662427163659
20
8.67444650117613
30
0
41
1
10
221.660654885389
20
8.7255497335249
30
0
41
1
10
221.656427503606
20
8.84636904909928
30
0
41
1
10
221.651176887079
20
8.99505122290637
30
0
41
1
10
221.646531629179
20
9.12514346239917
30
0
41
1
10
221.643861437352
20
9.1994780837077
30
0
41
1
10
221.639861102727
20
9.31098295091056
30
0
41
1
10
221.635206843633
20
9.44107913294908
30
0
41
1
10
221.629909002911
20
9.58976461446437
30
0
41
1
10
221.627262089918
20
9.6641076311449
30
0
41
1
10
221.62594426092
20
9.70127909277363
30
0
0
SPLINE
5
231
100
AcDbEntity
8
1
62
256
6
ByLayer
370
-1
48
1
60
0
100
AcDbSpline
70
4
71
3
72
16
73
12
40
0
40
0
40
0
40
0
40
0.0068174563923401
40
0.0525902990103707
40
0.144135984246432
40
0.235681669482493
40
0.418773039954616
40
0.601864410426739
40
0.784955780898861
40
0.968047151370984
40
1
40
1
40
1
40
1
41
1
10
220.836893556062
20
9.67326200874464
30
0
41
1
10
220.836156526047
20
9.67323636461521
30
0
41
1
10
220.830471008167
20
9.67303855179637
30
0
41
1
10
220.814888169041
20
9.67249653411028
30
0
41
1
10
220.790145642275
20
9.67163580555075
30
0
41
1
10
220.750557792851
20
9.67025860209216
30
0
41
1
10
220.701072814995
20
9.66853713897274
30
0
41
1
10
220.641690761281
20
9.66647133381744
30
0
41
1
10
220.582308794811
20
9.66440557885258
30
0
41
1
10
220.539266596047
20
9.6629083541433
30
0
41
1
10
220.51601792246
20
9.66209944665792
30
0
41
1
10
220.512563524188
20
9.66197929737689
30
0
0
SPLINE
5
232
100
AcDbEntity
8
1
62
256
6
ByLayer
370
-1
48
1
60
0
100
AcDbSpline
70
4
71
3
72
8
73
4
40
0
40
0
40
0
40
0
40
1
40
1
40
1
40
1
41
1
10
221.258788002075
20
22.508367947752
30
0
41
1
10
221.218014432315
20
22.6422461904372
30
0
41
1
10
221.142175498247
20
22.7640821760731
30
0
41
1
10
221.040177940754
20
22.8595535457751
30
0
0
SPLINE
5
233
100
AcDbEntity
8
1
62
256
6
ByLayer
370
-1
48
1
60
0
100
AcDbSpline
70
4
71
3
72
91
73
87
40
0
40
0
40
0
40
0
40
0.0276322771564729
40
0.0681475989416198
40
0.0782764293879066
40
0.0833408446110499
40
0.0839738965139429
40
0.0846069484168358
40
0.0849234743682823
40
0.0852400003197287
40
0.0858730522226216
40
0.0884052598341933
40
0.0985340902804801
40
0.108662920726767
40
0.118791751173054
40
0.12892058161934
40
0.149178242511914
40
0.169435903404487
40
0.179564733850774
40
0.184629149073917
40
0.189693564297061
40
0.190326616199954
40
0.190959668102847
40
0.192225771908632
40
0.192858823811525
40
0.193491875714418
40
0.194757979520204
40
0.197290187131776
40
0.199822394743348
40
0.204886809966491
40
0.209951225189634
40
0.220080055635921
40
0.222612263247493
40
0.223878367053278
40
0.225144470859064
40
0.230208886082208
40
0.270724207867355
40
0.290981868759928
40
0.311239529652502
40
0.331497190545075
40
0.341626020991362
40
0.346690436214505
40
0.349222643826077
40
0.350488747631863
40
0.351121799534756
40
0.351754851437649
40
0.352387903340541
40
0.353020955243434
40
0.35428705904922
40
0.356819266660792
40
0.361883681883935
40
0.372012512330222
40
0.392270173222796
40
0.412527834115369
40
0.432785495007943
40
0.473300816793089
40
0.475833024404661
40
0.478365232016233
40
0.479631335822019
40
0.480897439627805
40
0.483429647239376
40
0.493558477685663
40
0.50368730813195
40
0.508751723355093
40
0.511283930966665
40
0.512550034772451
40
0.513816138578236
40
0.514449190481129
40
0.523944969024523
40
0.53407379947081
40
0.554331460363383
40
0.56446029080967
40
0.574589121255957
40
0.59484678214853
40
0.615104443041104
40
0.617636650652675
40
0.618269702555568
40
0.618586228507015
40
0.618902754458461
40
0.619535806361354
40
0.620168858264247
40
0.625233273487391
40
0.635362103933677
40
0.675877425718824
40
0.837938712859412
40
1
40
1
40
1
40
1
41
1
10
208.315982663167
20
9.09493553799894
30
0
41
1
10
208.314402009544
20
9.0954688534101
30
0
41
1
10
208.310525706725
20
9.09684966480202
30
0
41
1
10
208.306141781795
20
9.098619661051
30
0
41
1
10
208.303062575921
20
9.09997440045586
30
0
41
1
10
208.302191374996
20
9.10036732272633
30
0
41
1
10
208.301843437923
20
9.10052569602018
30
0
41
1
10
208.301756483888
20
9.10056535622905
30
0
41
1
10
208.30168693883
20
9.10059712451252
30
0
41
1
10
208.301617405897
20
9.10062891953521
30
0
41
1
10
208.301426240382
20
9.1007164661265
30
0
41
1
10
208.300696973778
20
9.1010521379564
30
0
41
1
10
208.299451207032
20
9.10163718180405
30
0
41
1
10
208.297799829465
20
9.10243761169014
30
0
41
1
10
208.296158344996
20
9.10325829071471
30
0
41
1
10
208.293983220952
20
9.1043793652201
30
0
41
1
10
208.291290290329
20
9.10583071977783
30
0
41
1
10
208.288633647861
20
9.10734794100989
30
0
41
1
10
208.286793918595
20
9.10844414788221
30
0
41
1
10
208.285748460457
20
9.10908024838432
30
0
41
1
10
208.285195142547
20
9.10942160015253
30
0
41
1
10
208.284870357505
20
9.10962352446259
30
0
41
1
10
208.284740505434
20
9.10970439450085
30
0
41
1
10
208.284610746388
20
9.10978541492818
30
0
41
1
10
208.284481080583
20
9.10986658557997
30
0
41
1
10
208.284351477009
20
9.10994785632656
30
0
41
1
10
208.284124834301
20
9.11009034273792
30
0
41
1
10
208.283801527352
20
9.11029464423072
30
0
41
1
10
208.283285239956
20
9.11062312199149
30
0
41
1
10
208.282641771277
20
9.11103670393229
30
0
41
1
10
208.281616291235
20
9.11170477439384
30
0
41
1
10
208.280724385957
20
9.11229761958668
30
0
41
1
10
208.28002719522
20
9.11276880199242
30
0
41
1
10
208.279774064885
20
9.11294072614714
30
0
41
1
10
208.279394763811
20
9.11319919681898
30
0
41
1
10
208.277061834533
20
9.11480209925938
30
0
41
1
10
208.273845323746
20
9.11714548612338
30
0
41
1
10
208.269995648539
20
9.12017303549052
30
0
41
1
10
208.267164704401
20
9.12251403972422
30
0
41
1
10
208.264853976691
20
9.12452237154994
30
0
41
1
10
208.263262642701
20
9.12595779882429
30
0
41
1
10
208.262473615732
20
9.12668283747806
30
0
41
1
10
208.262080774276
20
9.1270471788425
30
0
41
1
10
208.261884773058
20
9.12722980388207
30
0
41
1
10
208.261772892437
20
9.12733429069934
30
0
41
1
10
208.261689042061
20
9.12741272059705
30
0
41
1
10
208.261605251831
20
9.12749121523834
30
0
41
1
10
208.261493611776
20
9.12759596101708
30
0
41
1
10
208.261298452499
20
9.12777949237636
30
0
41
1
10
208.260908978468
20
9.1281474586566
30
0
41
1
10
208.260133418504
20
9.12888699406832
30
0
41
1
10
208.258595930939
20
9.13038038513341
30
0
41
1
10
208.256438926785
20
9.13255419498384
30
0
41
1
10
208.253915034968
20
9.13522573028769
30
0
41
1
10
208.250637813468
20
9.13886950602307
30
0
41
1
10
208.248182856384
20
9.14180937692882
30
0
41
1
10
208.246471358008
20
9.14397094448995
30
0
41
1
10
208.246234568469
20
9.14427189250841
30
0
41
1
10
208.246045689408
20
9.1445130874763
30
0
41
1
10
208.245857179202
20
9.1447545729369
30
0
41
1
10
208.245340299629
20
9.14541985399779
30
0
41
1
10
208.244502828082
20
9.14651499519252
30
0
41
1
10
208.243587267846
20
9.14774319969118
30
0
41
1
10
208.242954311608
20
9.14860882667514
30
0
41
1
10
208.242639827469
20
9.14904309973045
30
0
41
1
10
208.242460693383
20
9.14929167115224
30
0
41
1
10
208.24234897285
20
9.14944720103094
30
0
41
1
10
208.241947423069
20
9.15000757407682
30
0
41
1
10
208.241239667043
20
9.15100820128606
30
0
41
1
10
208.239869745142
20
9.15299471571143
30
0
41
1
10
208.238515277984
20
9.15503828230331
30
0
41
1
10
208.237198565742
20
9.15710640849349
30
0
41
1
10
208.235907208572
20
9.15919058755154
30
0
41
1
10
208.234340899979
20
9.16182531013058
30
0
41
1
10
208.233064597385
20
9.16409689540646
30
0
41
1
10
208.232387231344
20
9.16534230440863
30
0
41
1
10
208.23228689531
20
9.16552762575492
30
0
41
1
10
208.232250448061
20
9.16559503635858
30
0
41
1
10
208.232214026539
20
9.16566246096789
30
0
41
1
10
208.232168547885
20
9.16574676797185
30
0
41
1
10
208.231986890707
20
9.16608413575133
30
0
41
1
10
208.231535645216
20
9.16692912534188
30
0
41
1
10
208.229974553979
20
9.16991806199724
30
0
41
1
10
208.224363817629
20
9.18151164131527
30
0
41
1
10
208.217210644377
20
9.20251411108106
30
0
41
1
10
208.214602669379
20
9.22206936573298
30
0
41
1
10
208.214261348166
20
9.23188086212505
30
0
0
SPLINE
5
234
100
AcDbEntity
8
1
62
256
6
ByLayer
370
-1
48
1
60
0
100
AcDbSpline
70
4
71
3
72
15
73
11
40
0
40
0
40
0
40
0
40
0.250227978747851
40
0.500467923372391
40
0.75070786799693
40
0.8758278403092
40
0.938387826465335
40
0.969667819543402
40
0.985307816082436
40
1
40
1
40
1
40
1
41
1
10
207.026819774051
20
7.27638312171192
30
0
41
1
10
207.024598665101
20
7.26663988698459
30
0
41
1
10
207.020156341007
20
7.24715295169952
30
0
41
1
10
207.013494090928
20
7.21792797094244
30
0
41
1
10
207.007935896144
20
7.19354609789829
30
0
41
1
10
207.004058438749
20
7.17653703693554
30
0
41
1
10
207.002100371769
20
7.16794767611222
30
0
41
1
10
207.001150345703
20
7.16378024121346
30
0
41
1
10
207.00056488829
20
7.16121204256589
30
0
41
1
10
207.000425508317
20
7.1606006309581
30
0
41
1
10
207.000161198178
20
7.15944119403892
30
0
0
SPLINE
5
235
100
AcDbEntity
8
1
62
256
6
ByLayer
370
-1
48
1
60
0
100
AcDbSpline
70
4
71
3
72
9
73
5
40
0
40
0
40
0
40
0
40
0.5
40
1
40
1
40
1
40
1
41
1
10
206.037279571705
20
21.9437218230097
30
0
41
1
10
206.05359719101
20
22.0001298069772
30
0
41
1
10
206.101272727986
20
22.1097663324472
30
0
41
1
10
206.174933841887
20
22.2014950642904
30
0
41
1
10
206.215955255293
20
22.2408740236971
30
0
0
SPLINE
5
236
100
AcDbEntity
8
1
62
256
6
ByLayer
370
-1
48
1
60
0
100
AcDbSpline
70
4
71
3
72
16
73
12
40
0
40
0
40
0
40
0
40
0.0319528420423258
40
0.215044192449675
40
0.398135542857024
40
0.581226893264374
40
0.764318243671723
40
0.855863918875398
40
0.947409594079072
40
0.99318243168091
40
1
40
1
40
1
40
1
41
1
10
207.969114845249
20
21.4036148910089
30
0
41
1
10
207.969022018888
20
21.407055515932
30
0
41
1
10
207.968388931168
20
21.4302195953921
30
0
41
1
10
207.967227891275
20
21.4730944565937
30
0
41
1
10
207.965621392724
20
21.5322501371355
30
0
41
1
10
207.964013878574
20
21.5914068658892
30
0
41
1
10
207.962675240046
20
21.6407031571103
30
0
41
1
10
207.961603252879
20
21.680141105687
30
0
41
1
10
207.960934344192
20
21.7047889262996
30
0
41
1
10
207.960514308362
20
21.7203108137108
30
0
41
1
10
207.960359750648
20
21.7259754049229
30
0
41
1
10
207.96033968617
20
21.7267097608062
30
0
0
SPLINE
5
237
100
AcDbEntity
8
1
62
256
6
ByLayer
370
-1
48
1
60
0
100
AcDbSpline
70
4
71
3
72
9
73
5
40
0
40
0
40
0
40
0
40
0.5
40
1
40
1
40
1
40
1
41
1
10
221.458632012936
20
7.97255272380414
30
0
41
1
10
221.42233767121
20
7.92862707148913
30
0
41
1
10
221.336279953643
20
7.84824997860864
30
0
41
1
10
221.230621964523
20
7.79270633042412
30
0
41
1
10
221.175702592786
20
7.77238440739052
30
0
0
SPLINE
5
238
100
AcDbEntity
8
1
62
256
6
ByLayer
370
-1
48
1
60
0
100
AcDbSpline
70
4
71
3
72
17
73
13
40
0
40
0
40
0
40
0
40
0.0032703186403333
40
0.0092094466334081
40
0.0210877026195576
40
0.0448442145918566
40
0.0923572385364547
40
0.282409334314847
40
0.662513525871632
40
0.852565621650024
40
0.94759166953922
40
1
40
1
40
1
40
1
41
1
10
207.963573179711
20
20.7587741179981
30
0
41
1
10
207.963580303099
20
20.7590544160543
30
0
41
1
10
207.963600917492
20
20.7598403549166
30
0
41
1
10
207.963649338427
20
20.7616323494915
30
0
41
1
10
207.96374171483
20
20.7651843001868
30
0
41
1
10
207.963928634504
20
20.7722747860338
30
0
41
1
10
207.964513968171
20
20.7945723533529
30
0
41
1
10
207.965899137045
20
20.8472654525384
30
0
41
1
10
207.967602259195
20
20.9121289848786
30
0
41
1
10
207.969095537694
20
20.9688658742602
30
0
41
1
10
207.969848808589
20
20.9976785956779
30
0
41
1
10
207.970182696404
20
21.0102367585929
30
0
41
1
10
207.970298759909
20
21.014716871431
30
0
0
SPLINE
5
239
100
AcDbEntity
8
1
62
256
6
ByLayer
370
-1
48
1
60
0
100
AcDbSpline
70
4
71
3
72
8
73
4
40
0
40
0
40
0
40
0
40
1
40
1
40
1
40
1
41
1
10
206.114710210389
20
22.3363537941058
30
0
41
1
10
206.019605900369
20
22.2339645535444
30
0
41
1
10
205.952421053036
20
22.1071193667681
30
0
41
1
10
205.921036920218
20
21.9707159495643
30
0
0
SPLINE
5
23A
100
AcDbEntity
8
1
62
256
6
ByLayer
370
-1
48
1
60
0
100
AcDbSpline
70
4
71
3
72
8
73
4
40
0
40
0
40
0
40
0
40
1
40
1
40
1
40
1
41
1
10
205.908271814918
20
21.8582404223565
30
0
41
1
10
205.90826146781
20
21.8962197155689
30
0
41
1
10
205.912527569894
20
21.9337106865164
30
0
41
1
10
205.921036920332
20
21.9707159495376
30
0
0
SPLINE
5
23B
100
AcDbEntity
8
1
62
256
6
ByLayer
370
-1
48
1
60
0
100
AcDbSpline
70
4
71
3
72
9
73
5
40
0
40
0
40
0
40
0
40
0.624999999999577
40
1
40
1
40
1
40
1
41
1
10
221.194829730894
20
22.0939417915616
30
0
41
1
10
221.215730001366
20
22.0946688644096
30
0
41
1
10
221.249170434121
20
22.0958321809664
30
0
41
1
10
221.282610866876
20
22.0969954975231
30
0
41
1
10
221.295151029159
20
22.0974317412319
30
0
0
SPLINE
5
23C
100
AcDbEntity
8
1
62
256
6
ByLayer
370
-1
48
1
60
0
100
AcDbSpline
70
4
71
3
72
15
73
11
40
0
40
0
40
0
40
0
40
0.0466427416045672
40
0.130083711367129
40
0.21352468112969
40
0.380406620654813
40
0.714170499705058
40
0.881052439230181
40
0.964493408992742
40
1
40
1
40
1
40
1
41
1
10
219.246063291551
20
22.4766831241383
30
0
41
1
10
219.246351000089
20
22.4712694040774
30
0
41
1
10
219.247149562094
20
22.4561611678431
30
0
41
1
10
219.248418340376
20
22.4312569317708
30
0
41
1
10
219.250322232591
20
22.3921594788312
30
0
41
1
10
219.25344658511
20
22.3233685198435
30
0
41
1
10
219.256527102588
20
22.2441846256366
30
0
41
1
10
219.25877207839
20
22.1749107347318
30
0
41
1
10
219.259759553129
20
22.1410751038888
30
0
41
1
10
219.260147308646
20
22.1270148925966
30
0
41
1
10
219.260262012127
20
22.1228187590552
30
0
0
SPLINE
5
23D
100
AcDbEntity
8
1
62
256
6
ByLayer
370
-1
48
1
60
0
100
AcDbSpline
70
4
71
3
72
12
73
8
40
0
40
0
40
0
40
0
40
0.0285608994399063
40
0.0933235061439125
40
0.222848719551925
40
0.48189914636795
40
1
40
1
40
1
40
1
41
1
10
207.946141277294
20
22.0805738528064
30
0
41
1
10
207.945914308501
20
22.084844985726
30
0
41
1
10
207.94516987831
20
22.0987939377053
30
0
41
1
10
207.943394138363
20
22.1321063571207
30
0
41
1
10
207.939780230973
20
22.1998703986982
30
0
41
1
10
207.932553407523
20
22.3354003961674
30
0
41
1
10
207.926358676732
20
22.451568347476
30
0
41
1
10
207.922228921759
20
22.5290137859845
30
0
0
SPLINE
5
23E
100
AcDbEntity
8
1
62
256
6
ByLayer
370
-1
48
1
60
0
100
AcDbSpline
70
4
71
3
72
12
73
8
40
0
40
0
40
0
40
0
40
0.448044053330175
40
0.448044053330175
40
0.724021472165484
40
0.724021472165484
40
1
40
1
40
1
40
1
41
1
10
221.726265559185
20
9.70476904244387
30
0
41
1
10
221.731718653009
20
9.54801637531722
30
0
41
1
10
221.73710535841
20
9.39126011667628
30
0
41
1
10
221.745869397412
20
9.1379516614665
30
0
41
1
10
221.749238879761
20
9.04139872319726
30
0
41
1
10
221.756012769025
20
8.84829615773168
30
0
41
1
10
221.759419279494
20
8.75174598026999
30
0
41
1
10
221.762778117067
20
8.65519223032291
30
0
0
SPLINE
5
23F
100
AcDbEntity
8
1
62
256
6
ByLayer
370
-1
48
1
60
0
100
AcDbSpline
70
4
71
3
72
15
73
11
40
0
40
0
40
0
40
0
40
0.250244249035892
40
0.500488498071784
40
0.750732747107676
40
0.875854871625622
40
0.938415933884596
40
0.969696465014082
40
0.985336730578825
40
1
40
1
40
1
40
1
41
1
10
221.175702592786
20
7.77238440739052
30
0
41
1
10
221.178688837399
20
7.76282135983089
30
0
41
1
10
221.184661326623
20
7.74369526471162
30
0
41
1
10
221.19361832721
20
7.71501167253572
30
0
41
1
10
221.201090871744
20
7.69108185162466
30
0
41
1
10
221.206303800435
20
7.67438814716778
30
0
41
1
10
221.208936263542
20
7.6659580373944
30
0
41
1
10
221.210213496953
20
7.66186786882511
30
0
41
1
10
221.211000224612
20
7.65934847909037
30
0
41
1
10
221.211187621795
20
7.65874836476593
30
0
41
1
10
221.211541212866
20
7.65761603681781
30
0
0
SPLINE
5
240
100
AcDbEntity
8
1
62
256
6
ByLayer
370
-1
48
1
60
0
100
AcDbSpline
70
4
71
3
72
8
73
4
40
0
40
0
40
0
40
0
40
1
40
1
40
1
40
1
41
1
10
221.040177940276
20
22.8595535452691
30
0
41
1
10
220.938181262103
20
22.9550240899509
30
0
41
1
10
220.811819707965
20
23.0224665245161
30
0
41
1
10
220.675931458124
20
23.0539666359466
30
0
0
SPLINE
5
241
100
AcDbEntity
8
1
62
256
6
ByLayer
370
-1
48
1
60
0
100
AcDbSpline
70
4
71
3
72
9
73
5
40
0
40
0
40
0
40
0
40
0.374999999998876
40
1
40
1
40
1
40
1
41
1
10
205.949831409632
20
20.5086577050573
30
0
41
1
10
205.962180943429
20
20.5090939487662
30
0
41
1
10
205.995113033553
20
20.5102572653229
30
0
41
1
10
206.028045123678
20
20.5114205818796
30
0
41
1
10
206.048627680006
20
20.5121476547276
30
0
0
SPLINE
5
242
100
AcDbEntity
8
1
62
256
6
ByLayer
370
-1
48
1
60
0
100
AcDbSpline
70
4
71
3
72
25
73
21
40
0
40
0
40
0
40
0
40
0.125
40
0.1875
40
0.25
40
0.265625
40
0.2734375
40
0.28125
40
0.3125
40
0.375
40
0.5
40
0.625
40
0.65625
40
0.6875
40
0.75
40
0.765625
40
0.78125
40
0.8125
40
0.875
40
1
40
1
40
1
40
1
41
1
10
206.498626699441
20
22.4410423401107
30
0
41
1
10
206.510828046525
20
22.4456660146259
30
0
41
1
10
206.529610454663
20
22.4516770451981
30
0
41
1
10
206.555312092168
20
22.457739376148
30
0
41
1
10
206.569830784215
20
22.4603881546814
30
0
41
1
10
206.579058236504
20
22.4617352813507
30
0
41
1
10
206.582046246067
20
22.4621659513917
30
0
41
1
10
206.588598327392
20
22.4629342767314
30
0
41
1
10
206.602109505343
20
22.4645502369287
30
0
41
1
10
206.631803752051
20
22.4680055154998
30
0
41
1
10
206.673932705782
20
22.4727600083349
30
0
41
1
10
206.712085802529
20
22.4768558080778
30
0
41
1
10
206.737304867527
20
22.4794844652541
30
0
41
1
10
206.75408844411
20
22.4812061034888
30
0
41
1
10
206.768770726184
20
22.4826671835315
30
0
41
1
10
206.781406031153
20
22.4838801842349
30
0
41
1
10
206.789841463545
20
22.4846791218703
30
0
41
1
10
206.804629080548
20
22.4860536834444
30
0
41
1
10
206.834275636606
20
22.4887246794525
30
0
41
1
10
206.859686586349
20
22.4909349098857
30
0
41
1
10
206.876646066284
20
22.4923617560646
30
0
0
SPLINE
5
243
100
AcDbEntity
8
1
62
256
6
ByLayer
370
-1
48
1
60
0
100
AcDbSpline
70
4
71
3
72
8
73
4
40
0
40
0
40
0
40
0
40
1
40
1
40
1
40
1
41
1
10
220.355637120421
20
23.0644772563669
30
0
41
1
10
220.371903260483
20
23.0648977450088
30
0
41
1
10
220.388171865531
20
23.0652377569234
30
0
41
1
10
220.404440821771
20
23.065499310314
30
0
0
SPLINE
5
244
100
AcDbEntity
8
1
62
256
6
ByLayer
370
-1
48
1
60
0
100
AcDbSpline
70
4
71
3
72
15
73
11
40
0
40
0
40
0
40
0
40
0.250244249035862
40
0.500488498071723
40
0.750732747107585
40
0.875854871625516
40
0.938415933884482
40
0.969696465013964
40
0.985336730578706
40
1
40
1
40
1
40
1
41
1
10
206.530745015765
20
7.74014340431594
30
0
41
1
10
206.52129201168
20
7.73721968726872
30
0
41
1
10
206.502386003509
20
7.73137225317427
30
0
41
1
10
206.474032477886
20
7.72260279899163
30
0
41
1
10
206.450378021143
20
7.7152867185373
30
0
41
1
10
206.433876413737
20
7.71018294089762
30
0
41
1
10
206.425543310547
20
7.70760559769184
30
0
41
1
10
206.421500208183
20
7.70635510766786
30
0
41
1
10
206.419009809458
20
7.70558485292742
30
0
41
1
10
206.418416600742
20
7.70540137956604
30
0
41
1
10
206.417297302667
20
7.70505519217082
30
0
0
SPLINE
5
245
100
AcDbEntity
8
1
62
256
6
ByLayer
370
-1
48
1
60
0
100
AcDbSpline
70
4
71
3
72
25
73
21
40
0
40
0
40
0
40
0
40
0.125
40
0.1875
40
0.25
40
0.265625
40
0.2734375
40
0.28125
40
0.3125
40
0.375
40
0.5
40
0.625
40
0.65625
40
0.6875
40
0.75
40
0.765625
40
0.78125
40
0.8125
40
0.875
40
1
40
1
40
1
40
1
41
1
10
221.175702592786
20
7.77238440739052
30
0
41
1
10
221.163497334497
20
7.7677607328753
30
0
41
1
10
221.144714222331
20
7.76174970230309
30
0
41
1
10
221.119021612145
20
7.75568737135316
30
0
41
1
10
221.104511603339
20
7.75303859281979
30
0
41
1
10
221.095290985386
20
7.75169146615045
30
0
41
1
10
221.092305418622
20
7.75126079610948
30
0
41
1
10
221.085758187797
20
7.75049247076976
30
0
41
1
10
221.072257111368
20
7.74887651057256
30
0
41
1
10
221.042584983338
20
7.74542123200143
30
0
41
1
10
221.000487481482
20
7.7406667391663
30
0
41
1
10
220.96236281717
20
7.73657093942336
30
0
41
1
10
220.937162664444
20
7.73394228224714
30
0
41
1
10
220.920391692937
20
7.73222064401239
30
0
41
1
10
220.905720446319
20
7.73075956396971
30
0
41
1
10
220.893094619822
20
7.7295465632663
30
0
41
1
10
220.884665511009
20
7.72874762563089
30
0
41
1
10
220.869888970593
20
7.72737306405679
30
0
41
1
10
220.840264596686
20
7.72470206804866
30
0
41
1
10
220.814872665414
20
7.72249183761548
30
0
41
1
10
220.797925874643
20
7.72106499143661
30
0
0
SPLINE
5
246
100
AcDbEntity
8
1
62
256
6
ByLayer
370
-1
48
1
60
0
100
AcDbSpline
70
4
71
3
72
15
73
11
40
0
40
0
40
0
40
0
40
0.0466427416045738
40
0.130083711367136
40
0.213524681129699
40
0.380406620654824
40
0.714170499705074
40
0.881052439230199
40
0.964493408992761
40
1
40
1
40
1
40
1
41
1
10
208.445132793208
20
7.73674362336286
30
0
41
1
10
208.445043838001
20
7.74215734342383
30
0
41
1
10
208.444791232823
20
7.75726557965808
30
0
41
1
10
208.444327279684
20
7.78216981573041
30
0
41
1
10
208.443510936472
20
7.82126726867003
30
0
41
1
10
208.441849104992
20
7.89005822765765
30
0
41
1
10
208.439420341993
20
7.96924212186454
30
0
41
1
10
208.436845533436
20
8.03851601276941
30
0
41
1
10
208.435478868077
20
8.07235164361234
30
0
41
1
10
208.434888373556
20
8.08641185490455
30
0
41
1
10
208.43471112781
20
8.09060798844595
30
0
0
SPLINE
5
247
100
AcDbEntity
8
1
62
256
6
ByLayer
370
-1
48
1
60
0
100
AcDbSpline
70
4
71
3
72
8
73
4
40
0
40
0
40
0
40
0
40
1
40
1
40
1
40
1
41
1
10
221.100653467345
20
7.63699817799267
30
0
41
1
10
221.138395514726
20
7.63964814190919
30
0
41
1
10
221.175357288517
20
7.64652626008899
30
0
41
1
10
221.211537528135
20
7.65762783667495
30
0
0
SPLINE
5
248
100
AcDbEntity
8
1
62
256
6
ByLayer
370
-1
48
1
60
0
100
AcDbSpline
70
4
71
3
72
8
73
4
40
0
40
0
40
0
40
0
40
1
40
1
40
1
40
1
41
1
10
220.892754129578
20
7.62471570222149
30
0
41
1
10
220.909009541176
20
7.62543440239889
30
0
41
1
10
220.925261635341
20
7.62623306075338
30
0
41
1
10
220.941509138694
20
7.62711135303715
30
0
0
SPLINE
5
249
100
AcDbEntity
8
1
62
256
6
ByLayer
370
-1
48
1
60
0
100
AcDbSpline
70
4
71
3
72
8
73
4
40
0
40
0
40
0
40
0
40
1
40
1
40
1
40
1
41
1
10
221.766549450289
20
8.51523909940718
30
0
41
1
10
221.767400366347
20
8.46189330566821
30
0
41
1
10
221.767820323496
20
8.40853893401453
30
0
41
1
10
221.767825835687
20
8.35518632514203
30
0
0
SPLINE
5
24A
100
AcDbEntity
8
1
62
256
6
ByLayer
370
-1
48
1
60
0
100
AcDbSpline
70
4
71
3
72
15
73
11
40
0
40
0
40
0
40
0
40
0.250139710793389
40
0.500351579587119
40
0.750563448380849
40
0.875669382777714
40
0.938222349976147
40
0.969498833575363
40
0.985137075374971
40
1
40
1
40
1
40
1
41
1
10
206.215947955839
20
22.2408809074926
30
0
41
1
10
206.207513301915
20
22.248835260428
30
0
41
1
10
206.190641561392
20
22.2647462604481
30
0
41
1
10
206.165337693312
20
22.2886092308979
30
0
41
1
10
206.144225133738
20
22.3085195617473
30
0
41
1
10
206.129497434893
20
22.3224086099052
30
0
41
1
10
206.122059178397
20
22.3294233040376
30
0
41
1
10
206.118451660759
20
22.3328253960236
30
0
41
1
10
206.116219725729
20
22.3349302362593
30
0
41
1
10
206.115625766403
20
22.3354903733022
30
0
41
1
10
206.114705675651
20
22.3363580706186
30
0
0
SPLINE
5
24B
100
AcDbEntity
8
1
62
256
6
ByLayer
370
-1
48
1
60
0
100
AcDbSpline
70
4
71
3
72
8
73
4
40
0
40
0
40
0
40
0
40
1
40
1
40
1
40
1
41
1
10
205.913318851751
20
21.5582345171783
30
0
41
1
10
205.912264245028
20
21.5885513654172
30
0
41
1
10
205.911343086673
20
21.6188732706367
30
0
41
1
10
205.910565895581
20
21.6491985413444
30
0
0
SPLINE
5
24C
100
AcDbEntity
8
1
62
256
6
ByLayer
370
-1
48
1
60
0
100
AcDbSpline
70
4
71
3
72
17
73
13
40
0
40
0
40
0
40
0
40
0.0032703186403148
40
0.0092094466333896
40
0.0210877026195392
40
0.0448442145918384
40
0.0923572385364368
40
0.28240933431483
40
0.662513525871617
40
0.852565621650011
40
0.947591669539208
40
1
40
1
40
1
40
1
41
1
10
219.670521487645
20
9.45465262950307
30
0
41
1
10
219.670548112986
20
9.4543723314469
30
0
41
1
10
219.670623409681
20
9.45358639258458
30
0
41
1
10
219.67079651002
20
9.4517943980097
30
0
41
1
10
219.671136016131
20
9.44824244731444
30
0
41
1
10
219.671816261823
20
9.44115196146737
30
0
41
1
10
219.673952965924
20
9.4188543941483
30
0
41
1
10
219.679004297792
20
9.36616129496278
30
0
41
1
10
219.685220350204
20
9.30129776262257
30
0
41
1
10
219.690661141517
20
9.24456087324097
30
0
41
1
10
219.693419079715
20
9.21574815182328
30
0
41
1
10
219.694626711395
20
9.20318998890829
30
0
41
1
10
219.695054482203
20
9.19870987607021
30
0
0
SPLINE
5
24D
100
AcDbEntity
8
1
62
256
6
ByLayer
370
-1
48
1
60
0
100
AcDbSpline
70
4
71
3
72
8
73
4
40
0
40
0
40
0
40
0
40
1
40
1
40
1
40
1
41
1
10
219.26370456876
20
21.1262195849236
30
0
41
1
10
219.263350606018
20
21.1363944701836
30
0
41
1
10
219.263276589705
20
21.1465461583167
30
0
41
1
10
219.263495597845
20
21.1548809363778
30
0
0
SPLINE
5
24E
100
AcDbEntity
8
1
62
256
6
ByLayer
370
-1
48
1
60
0
100
AcDbSpline
70
4
71
3
72
15
73
11
40
0
40
0
40
0
40
0
40
0.250227978748338
40
0.500467923372728
40
0.750707867997118
40
0.875827840309312
40
0.93838782646541
40
0.969667819543458
40
0.985307816082483
40
1
40
1
40
1
40
1
41
1
10
220.648803552913
20
22.9370436257892
30
0
41
1
10
220.651064130602
20
22.9467868605166
30
0
41
1
10
220.655585394061
20
22.9662737958016
30
0
41
1
10
220.662366031222
20
22.9954987765588
30
0
41
1
10
220.668022994209
20
23.0198806496029
30
0
41
1
10
220.67196935338
20
23.0368897105656
30
0
41
1
10
220.673962214887
20
23.045479071389
30
0
41
1
10
220.674929122759
20
23.0496465062878
30
0
41
1
10
220.675524983654
20
23.0522147049353
30
0
41
1
10
220.675666840386
20
23.0528261165431
30
0
41
1
10
220.675935847272
20
23.0539855534623
30
0
0
SPLINE
5
24F
100
AcDbEntity
8
1
62
256
6
ByLayer
370
-1
48
1
60
0
100
AcDbSpline
70
4
71
3
72
11
73
7
40
0
40
0
40
0
40
0
40
0.486341095999247
40
0.729511643998871
40
0.972682191998494
40
1
40
1
40
1
40
1
41
1
10
219.418257749277
20
20.9815458853761
30
0
41
1
10
219.423187387819
20
20.98171868972
30
0
41
1
10
219.430678235971
20
20.9819778794136
30
0
41
1
10
219.440203471881
20
20.9823007578783
30
0
41
1
10
219.444959088422
20
20.9824594898617
30
0
41
1
10
219.44735863729
20
20.9825388601727
30
0
41
1
10
219.44760028039
20
20.9825468480497
30
0
0
SPLINE
5
250
100
AcDbEntity
8
1
62
256
6
ByLayer
370
-1
48
1
60
0
100
AcDbSpline
70
4
71
3
72
8
73
4
40
0
40
0
40
0
40
0
40
1
40
1
40
1
40
1
41
1
10
207.819659376021
20
20.5749667487921
30
0
41
1
10
207.809523209271
20
20.5746114339693
30
0
41
1
10
207.799689290827
20
20.5742569292081
30
0
41
1
10
207.791895186557
20
20.5739658723446
30
0
0
SPLINE
5
251
100
AcDbEntity
8
1
62
256
6
ByLayer
370
-1
48
1
60
0
100
AcDbSpline
70
4
71
3
72
12
73
8
40
0
40
0
40
0
40
0
40
0.518100853439296
40
0.777151280158944
40
0.906676493518768
40
0.97143910019868
40
1
40
1
40
1
40
1
41
1
10
208.452420998871
20
7.28830367394332
30
0
41
1
10
208.451162427761
20
7.36574911245182
30
0
41
1
10
208.449274706624
20
7.48191701009418
30
0
41
1
10
208.447071868949
20
7.61744714183419
30
0
41
1
10
208.445971126534
20
7.68521098164891
30
0
41
1
10
208.445428996619
20
7.71852371461225
30
0
41
1
10
208.445202973346
20
7.73247253424728
30
0
41
1
10
208.445132793208
20
7.73674362336286
30
0
0
SPLINE
5
252
100
AcDbEntity
8
1
62
256
6
ByLayer
370
-1
48
1
60
0
100
AcDbSpline
70
4
71
3
72
17
73
13
40
0
40
0
40
0
40
0
40
0.0032703186403139
40
0.0092094466333884
40
0.0210877026195373
40
0.0448442145918351
40
0.0923572385364308
40
0.282409334314814
40
0.662513525871579
40
0.852565621649962
40
0.947591669539153
40
1
40
1
40
1
40
1
41
1
10
208.186494386966
20
9.23087989945145
30
0
41
1
10
208.186232029893
20
9.23087011122766
30
0
41
1
10
208.185497037309
20
9.23084266563779
30
0
41
1
10
208.183822622452
20
9.23078008780831
30
0
41
1
10
208.180500129258
20
9.23065605095684
30
0
41
1
10
208.173870207533
20
9.23040844573501
30
0
41
1
10
208.153018508074
20
9.22962979752643
30
0
41
1
10
208.10374417241
20
9.22778971395596
30
0
41
1
10
208.043087052675
20
9.22552462949469
30
0
41
1
10
207.990033099192
20
9.22354333365891
30
0
41
1
10
207.963085623425
20
9.22253717125585
30
0
41
1
10
207.951346007859
20
9.22209863054346
30
0
41
1
10
207.947154860359
20
9.22194218155573
30
0
0
SPLINE
5
253
100
AcDbEntity
8
1
62
256
6
ByLayer
370
-1
48
1
60
0
100
AcDbSpline
70
4
71
3
72
8
73
4
40
0
40
0
40
0
40
0
40
1
40
1
40
1
40
1
41
1
10
206.635919028541
20
7.35387320223205
30
0
41
1
10
206.737921587545
20
7.25840265755028
30
0
41
1
10
206.864285038498
20
7.1909602229851
30
0
41
1
10
207.000165510696
20
7.15946011155461
30
0
0
SPLINE
5
254
100
AcDbEntity
8
1
62
256
6
ByLayer
370
-1
48
1
60
0
100
AcDbSpline
70
4
71
3
72
8
73
4
40
0
40
0
40
0
40
0
40
1
40
1
40
1
40
1
41
1
10
207.112213375167
20
7.14664590372468
30
0
41
1
10
207.074375393016
20
7.14663874097502
30
0
41
1
10
207.037030408038
20
7.15091780468151
30
0
41
1
10
207.000165510722
20
7.15946011167037
30
0
0
SPLINE
5
255
100
AcDbEntity
8
1
62
256
6
ByLayer
370
-1
48
1
60
0
100
AcDbSpline
70
4
71
3
72
8
73
4
40
0
40
0
40
0
40
0
40
1
40
1
40
1
40
1
41
1
10
206.734587897961
20
22.5863153944641
30
0
41
1
10
206.681514987257
20
22.5834464495924
30
0
41
1
10
206.62846311286
20
22.5801512741994
30
0
41
1
10
206.575443491102
20
22.5764285695083
30
0
0
SPLINE
5
256
100
AcDbEntity
8
1
62
256
6
ByLayer
370
-1
48
1
60
0
100
AcDbSpline
70
4
71
3
72
14
73
10
40
0
40
0
40
0
40
0
40
0.136649739226086
40
0.273299478452173
40
0.546598956904345
40
0.614923826517388
40
0.683248696130431
40
0.819898435356518
40
1
40
1
40
1
40
1
41
1
10
207.819659376021
20
20.5749667487921
30
0
41
1
10
207.819574045718
20
20.5774196228901
30
0
41
1
10
207.819523719471
20
20.5823295738565
30
0
41
1
10
207.819902909488
20
20.592142658495
30
0
41
1
10
207.820862531952
20
20.6006891476115
30
0
41
1
10
207.822130713356
20
20.6079418636906
30
0
41
1
10
207.823094249882
20
20.6127547192696
30
0
41
1
10
207.824699827775
20
20.6194828266427
30
0
41
1
10
207.826331651878
20
20.6249342001504
30
0
41
1
10
207.82735834264
20
20.6280004234517
30
0
0
SPLINE
5
257
100
AcDbEntity
8
1
62
256
6
ByLayer
370
-1
48
1
60
0
100
AcDbSpline
70
4
71
3
72
15
73
11
40
0
40
0
40
0
40
0
40
0.2502442490359
40
0.500488498071799
40
0.750732747107699
40
0.875854871625649
40
0.938415933884623
40
0.969696465014111
40
0.985336730578855
40
1
40
1
40
1
40
1
41
1
10
206.498626699441
20
22.4410423401107
30
0
41
1
10
206.495787761211
20
22.4506053876703
30
0
41
1
10
206.490109884751
20
22.4697314827896
30
0
41
1
10
206.481594717814
20
22.4984150749655
30
0
41
1
10
206.474490781229
20
22.5223448958765
30
0
41
1
10
206.46953499747
20
22.5390386003334
30
0
41
1
10
206.467032389304
20
22.5474687101068
30
0
41
1
10
206.465818159651
20
22.5515588786761
30
0
41
1
10
206.465070239933
20
22.5540782684108
30
0
41
1
10
206.464892086736
20
22.5546783827353
30
0
41
1
10
206.464555937712
20
22.5558107106834
30
0
0
SPLINE
5
258
100
AcDbEntity
8
1
62
256
6
ByLayer
370
-1
48
1
60
0
100
AcDbSpline
70
4
71
3
72
9
73
5
40
0
40
0
40
0
40
0
40
0.5
40
1
40
1
40
1
40
1
41
1
10
207.026820092691
20
7.27638451947342
30
0
41
1
10
206.970543891167
20
7.29284765293656
30
0
41
1
10
206.861148556489
20
7.34088198433275
30
0
41
1
10
206.769592755603
20
7.41500126905004
30
0
41
1
10
206.730280619303
20
7.45626272045874
30
0
0
SPLINE
5
259
100
AcDbEntity
8
1
62
256
6
ByLayer
370
-1
48
1
60
0
100
AcDbSpline
70
4
71
3
72
8
73
4
40
0
40
0
40
0
40
0
40
1
40
1
40
1
40
1
41
1
10
221.211537528135
20
7.65762783667483
30
0
41
1
10
221.344905293691
20
7.6985561209159
30
0
41
1
10
221.466275747111
20
7.77468283059085
30
0
41
1
10
221.56138675894
20
7.87707295292356
30
0
0
SPLINE
5
25A
100
AcDbEntity
8
1
62
256
6
ByLayer
370
-1
48
1
60
0
100
AcDbSpline
70
4
71
3
72
91
73
87
40
0
40
0
40
0
40
0
40
0.0276322771565375
40
0.0681475989416818
40
0.0782764293879679
40
0.0833408446111109
40
0.0839738965140038
40
0.0846069484168967
40
0.0849234743683431
40
0.0852400003197896
40
0.0858730522226824
40
0.0884052598342539
40
0.09853409028054
40
0.108662920726826
40
0.118791751173112
40
0.128920581619398
40
0.14917824251197
40
0.169435903404543
40
0.179564733850829
40
0.184629149073972
40
0.189693564297115
40
0.190326616200007
40
0.1909596681029
40
0.192225771908686
40
0.192858823811579
40
0.193491875714472
40
0.194757979520258
40
0.197290187131829
40
0.199822394743401
40
0.204886809966544
40
0.209951225189687
40
0.220080055635973
40
0.222612263247544
40
0.22387836705333
40
0.225144470859116
40
0.230208886082259
40
0.270724207867403
40
0.290981868759975
40
0.311239529652547
40
0.33149719054512
40
0.341626020991406
40
0.346690436214549
40
0.34922264382612
40
0.350488747631906
40
0.351121799534799
40
0.351754851437692
40
0.352387903340585
40
0.353020955243477
40
0.354287059049263
40
0.356819266660835
40
0.361883681883978
40
0.372012512330264
40
0.392270173222836
40
0.412527834115408
40
0.43278549500798
40
0.473300816793125
40
0.475833024404696
40
0.478365232016268
40
0.479631335822053
40
0.480897439627839
40
0.483429647239411
40
0.493558477685697
40
0.503687308131983
40
0.508751723355126
40
0.511283930966697
40
0.512550034772483
40
0.513816138578269
40
0.514449190481162
40
0.523944969024555
40
0.534073799470841
40
0.554331460363413
40
0.564460290809699
40
0.574589121255985
40
0.594846782148557
40
0.615104443041129
40
0.617636650652701
40
0.618269702555594
40
0.61858622850704
40
0.618902754458487
40
0.61953580636138
40
0.620168858264272
40
0.625233273487416
40
0.635362103933702
40
0.675877425718846
40
0.837938712859423
40
1
40
1
40
1
40
1
41
1
10
219.316536434276
20
21.1184912095022
30
0
41
1
10
219.318117087899
20
21.1179578940911
30
0
41
1
10
219.321993390718
20
21.1165770826992
30
0
41
1
10
219.326377315648
20
21.1148070864502
30
0
41
1
10
219.329456521523
20
21.1134523470453
30
0
41
1
10
219.330327722447
20
21.1130594247749
30
0
41
1
10
219.330675659521
20
21.112901051481
30
0
41
1
10
219.330762613555
20
21.1128613912721
30
0
41
1
10
219.330832158613
20
21.1128296229887
30
0
41
1
10
219.330901691546
20
21.112797827966
30
0
41
1
10
219.331092857061
20
21.1127102813747
30
0
41
1
10
219.331822123665
20
21.1123746095448
30
0
41
1
10
219.333067890411
20
21.1117895656971
30
0
41
1
10
219.334719267978
20
21.1109891358111
30
0
41
1
10
219.336360752447
20
21.1101684567865
30
0
41
1
10
219.338535876491
20
21.1090473822811
30
0
41
1
10
219.341228807115
20
21.1075960277234
30
0
41
1
10
219.343885449582
20
21.1060788064913
30
0
41
1
10
219.345725178849
20
21.104982599619
30
0
41
1
10
219.346770636986
20
21.1043464991169
30
0
41
1
10
219.347323954896
20
21.1040051473487
30
0
41
1
10
219.347648739938
20
21.1038032230386
30
0
41
1
10
219.347778592009
20
21.1037223530003
30
0
41
1
10
219.347908351055
20
21.103641332573
30
0
41
1
10
219.34803801686
20
21.1035601619212
30
0
41
1
10
219.348167620434
20
21.1034788911746
30
0
41
1
10
219.348394263142
20
21.1033364047633
30
0
41
1
10
219.348717570091
20
21.1031321032705
30
0
41
1
10
219.349233857487
20
21.1028036255097
30
0
41
1
10
219.349877326167
20
21.1023900435689
30
0
41
1
10
219.350902806208
20
21.1017219731073
30
0
41
1
10
219.351794711486
20
21.1011291279145
30
0
41
1
10
219.352491902224
20
21.1006579455088
30
0
41
1
10
219.352745032558
20
21.100486021354
30
0
41
1
10
219.353124333632
20
21.1002275506822
30
0
41
1
10
219.35545726291
20
21.0986246482418
30
0
41
1
10
219.358673773697
20
21.0962812613778
30
0
41
1
10
219.362523448904
20
21.0932537120107
30
0
41
1
10
219.365354393042
20
21.090912707777
30
0
41
1
10
219.367665120753
20
21.0889043759512
30
0
41
1
10
219.369256454742
20
21.0874689486769
30
0
41
1
10
219.370045481711
20
21.0867439100232
30
0
41
1
10
219.370438323167
20
21.0863795686587
30
0
41
1
10
219.370634324385
20
21.0861969436191
30
0
41
1
10
219.370746205007
20
21.0860924568019
30
0
41
1
10
219.370830055382
20
21.0860140269042
30
0
41
1
10
219.370913845612
20
21.0859355322629
30
0
41
1
10
219.371025485667
20
21.0858307864841
30
0
41
1
10
219.371220644945
20
21.0856472551248
30
0
41
1
10
219.371610118975
20
21.0852792888446
30
0
41
1
10
219.37238567894
20
21.0845397534329
30
0
41
1
10
219.373923166504
20
21.0830463623678
30
0
41
1
10
219.376080170658
20
21.0808725525174
30
0
41
1
10
219.378604062475
20
21.0782010172135
30
0
41
1
10
219.381881283975
20
21.0745572414782
30
0
41
1
10
219.384336241059
20
21.0716173705724
30
0
41
1
10
219.386047739435
20
21.0694558030112
30
0
41
1
10
219.386284528974
20
21.0691548549928
30
0
41
1
10
219.386473408036
20
21.0689136600249
30
0
41
1
10
219.386661918241
20
21.0686721745643
30
0
41
1
10
219.387178797814
20
21.0680068935034
30
0
41
1
10
219.388016269361
20
21.0669117523087
30
0
41
1
10
219.388931829597
20
21.06568354781
30
0
41
1
10
219.389564785835
20
21.064817920826
30
0
41
1
10
219.389879269975
20
21.0643836477707
30
0
41
1
10
219.39005840406
20
21.064135076349
30
0
41
1
10
219.390170124593
20
21.0639795464703
30
0
41
1
10
219.390571674374
20
21.0634191734244
30
0
41
1
10
219.3912794304
20
21.0624185462151
30
0
41
1
10
219.392649352302
20
21.0604320317898
30
0
41
1
10
219.394003819459
20
21.0583884651979
30
0
41
1
10
219.395320531701
20
21.0563203390077
30
0
41
1
10
219.396611888871
20
21.0542361599496
30
0
41
1
10
219.398178197464
20
21.0516014373706
30
0
41
1
10
219.399454500058
20
21.0493298520947
30
0
41
1
10
219.400131866099
20
21.0480844430926
30
0
41
1
10
219.400232202133
20
21.0478991217463
30
0
41
1
10
219.400268649382
20
21.0478317111426
30
0
41
1
10
219.400305070904
20
21.0477642865333
30
0
41
1
10
219.400350549559
20
21.0476799795293
30
0
41
1
10
219.400532206736
20
21.0473426117499
30
0
41
1
10
219.400983452227
20
21.0464976221593
30
0
41
1
10
219.402544543465
20
21.043508685504
30
0
41
1
10
219.408155279814
20
21.0319151061859
30
0
41
1
10
219.415308453066
20
21.0109126364201
30
0
41
1
10
219.417916428065
20
20.9913573817682
30
0
41
1
10
219.418257749277
20
20.9815458853761
30
0
0
SPLINE
5
25B
100
AcDbEntity
8
1
62
256
6
ByLayer
370
-1
48
1
60
0
100
AcDbSpline
70
4
71
3
72
8
73
4
40
0
40
0
40
0
40
0
40
1
40
1
40
1
40
1
41
1
10
207.411077326699
20
7.15171256132106
30
0
41
1
10
207.380875859453
20
7.15065390987741
30
0
41
1
10
207.350668122127
20
7.14973045360316
30
0
41
1
10
207.320459047819
20
7.14894949112426
30
0
0
SPLINE
5
25C
100
AcDbEntity
8
1
62
256
6
ByLayer
370
-1
48
1
60
0
100
AcDbSpline
70
4
71
3
72
20
73
16
40
0
40
0
40
0
40
0
40
0.0006369940731816
40
0.0022970655115982
40
0.0039571369500149
40
0.017237708457348
40
0.0437988514720143
40
0.150043423530679
40
0.36253256764801
40
0.468777139706675
40
0.521899425736007
40
0.57502171176534
40
0.78751085588267
40
0.893755427941335
40
1
40
1
40
1
40
1
41
1
10
207.407600541509
20
7.25166241067254
30
0
41
1
10
207.407822825216
20
7.25166482271115
30
0
41
1
10
207.408625107562
20
7.25168189233304
30
0
41
1
10
207.410005597322
20
7.25173722570167
30
0
41
1
10
207.415785720494
20
7.25193595687699
30
0
41
1
10
207.430259536032
20
7.25244805047095
30
0
41
1
10
207.481167358844
20
7.25422614863172
30
0
41
1
10
207.601499648195
20
7.25844230189924
30
0
41
1
10
207.749507553967
20
7.26360407304927
30
0
41
1
10
207.878946731012
20
7.26810844925976
30
0
41
1
10
207.952886571583
20
7.27067649822752
30
0
41
1
10
208.063817328457
20
7.27454174062146
30
0
41
1
10
208.193294499697
20
7.27908934919017
30
0
41
1
10
208.34134353513
20
7.28433650398415
30
0
41
1
10
208.415390517899
20
7.28698034128865
30
0
41
1
10
208.452420998871
20
7.28830367394332
30
0
0
SPLINE
5
25D
100
AcDbEntity
8
1
62
256
6
ByLayer
370
-1
48
1
60
0
100
AcDbSpline
70
4
71
3
72
17
73
13
40
0
40
0
40
0
40
0
40
0.0524083454183553
40
0.147434401200691
40
0.337486512765362
40
0.717590735894704
40
0.907642847459375
40
0.955155875350543
40
0.978912389296127
40
0.990790646268919
40
0.996729774755315
40
1
40
1
40
1
40
1
41
1
10
219.270220780208
20
21.4108261589859
30
0
41
1
10
219.270104716668
20
21.4063460447452
30
0
41
1
10
219.269770828803
20
21.3937878801478
30
0
41
1
10
219.269017558093
20
21.3649751657131
30
0
41
1
10
219.267524267326
20
21.3082383424615
30
0
41
1
10
219.265821230194
20
21.2433743145099
30
0
41
1
10
219.264435897409
20
21.1906821732271
30
0
41
1
10
219.263850723092
20
21.1683836742973
30
0
41
1
10
219.263663632704
20
21.1612941872526
30
0
41
1
10
219.263571525111
20
21.1577406609367
30
0
41
1
10
219.263522729618
20
21.1559508791392
30
0
41
1
10
219.263502170891
20
21.1551646243415
30
0
41
1
10
219.263495079551
20
21.1548841477258
30
0
0
SPLINE
5
25E
100
AcDbEntity
8
1
62
256
6
ByLayer
370
-1
48
1
60
0
100
AcDbSpline
70
4
71
3
72
25
73
21
40
0
40
0
40
0
40
0
40
0.125
40
0.1875
40
0.21875
40
0.234375
40
0.25
40
0.3125
40
0.34375
40
0.375
40
0.5
40
0.625
40
0.6875
40
0.71875
40
0.7265625
40
0.734375
40
0.75
40
0.8125
40
0.875
40
1
40
1
40
1
40
1
41
1
10
220.268496311476
20
22.9617751034781
30
0
41
1
10
220.285506077863
20
22.9615362888734
30
0
41
1
10
220.310997112069
20
22.9611063079427
30
0
41
1
10
220.340743473753
20
22.960512519375
30
0
41
1
10
220.355583639822
20
22.9601741871734
30
0
41
1
10
220.364050012428
20
22.9599664006825
30
0
41
1
10
220.376732710298
20
22.9596389269176
30
0
41
1
10
220.391473373744
20
22.9592069959171
30
0
41
1
10
220.408326588165
20
22.9586618458113
30
0
41
1
10
220.433653366487
20
22.9578010663245
30
0
41
1
10
220.471981724045
20
22.9563802582896
30
0
41
1
10
220.51431773894
20
22.954580122881
30
0
41
1
10
220.544166356704
20
22.9532073664255
30
0
41
1
10
220.557748619621
20
22.9525391865549
30
0
41
1
10
220.564337250977
20
22.9522303436387
30
0
41
1
10
220.567336292724
20
22.9520099712649
30
0
41
1
10
220.576611878485
20
22.9513121728152
30
0
41
1
10
220.591237258993
20
22.9496890569439
30
0
41
1
10
220.617229090634
20
22.9454524088625
30
0
41
1
10
220.636337322551
20
22.9407868737077
30
0
41
1
10
220.648803228611
20
22.9370422280278
30
0
0
SPLINE
5
25F
100
AcDbEntity
8
1
62
256
6
ByLayer
370
-1
48
1
60
0
100
AcDbSpline
70
4
71
3
72
12
73
8
40
0
40
0
40
0
40
0
40
0.0285608994399116
40
0.0933235061439175
40
0.222848719551929
40
0.481899146367953
40
1
40
1
40
1
40
1
41
1
10
219.745054820676
20
8.13285289469476
30
0
41
1
10
219.745125019248
20
8.12858176177519
30
0
41
1
10
219.745351098143
20
8.11463280979584
30
0
41
1
10
219.745893095456
20
8.08132039038045
30
0
41
1
10
219.746993923494
20
8.01355634880298
30
0
41
1
10
219.74919670409
20
7.87802635133377
30
0
41
1
10
219.751084448058
20
7.76185840002518
30
0
41
1
10
219.752343019168
20
7.68441296151664
30
0
0
SPLINE
5
260
100
AcDbEntity
8
1
62
256
6
ByLayer
370
-1
48
1
60
0
100
AcDbSpline
70
4
71
3
72
16
73
12
40
0
40
0
40
0
40
0
40
0.031952842042208
40
0.215044192449583
40
0.398135542856959
40
0.581226893264334
40
0.764318243671709
40
0.855863918875397
40
0.947409594079084
40
0.993182431680928
40
1
40
1
40
1
40
1
41
1
10
220.11796155204
20
21.0050651840429
30
0
41
1
10
220.121415950052
20
21.0051853333128
30
0
41
1
10
220.144664624819
20
21.0059942407921
30
0
41
1
10
220.187706820094
20
21.0074914639371
30
0
41
1
10
220.247088797898
20
21.0095572258214
30
0
41
1
10
220.306470840791
20
21.0116230243101
30
0
41
1
10
220.355955819943
20
21.0133444887327
30
0
41
1
10
220.395543670888
20
21.0147216922441
30
0
41
1
10
220.420286235974
20
21.0155824131062
30
0
41
1
10
220.435868995728
20
21.0161244493586
30
0
41
1
10
220.441554532897
20
21.0163222612426
30
0
41
1
10
220.442291576546
20
21.0163479055151
30
0
0
SPLINE
5
261
100
AcDbEntity
8
1
62
256
6
ByLayer
370
-1
48
1
60
0
100
AcDbSpline
70
4
71
3
72
8
73
4
40
0
40
0
40
0
40
0
40
1
40
1
40
1
40
1
41
1
10
206.464559440682
20
22.5557989108264
30
0
41
1
10
206.331189615132
20
22.5148706265853
30
0
41
1
10
206.209815342698
20
22.4387439169104
30
0
41
1
10
206.114710209893
20
22.3363537945777
30
0
0
SPLINE
5
262
100
AcDbEntity
8
1
62
256
6
ByLayer
370
-1
48
1
60
0
100
AcDbSpline
70
4
71
3
72
15
73
11
40
0
40
0
40
0
40
0
40
0.424997863749055
40
0.84999572749811
40
0.956245193435374
40
0.982807559919689
40
0.996088743161847
40
0.997748891067117
40
0.999409038972387
40
1
40
1
40
1
40
1
41
1
10
219.752343019168
20
7.68441296151664
30
0
41
1
10
219.900466619853
20
7.68960531008639
30
0
41
1
10
220.196710839452
20
7.6999871807586
30
0
41
1
10
220.529999422704
20
7.71167985927124
30
0
41
1
10
220.724399497148
20
7.71848333291342
30
0
41
1
10
220.775325165093
20
7.72027593229961
30
0
41
1
10
220.789782907667
20
7.72077595805987
30
0
41
1
10
220.795574904559
20
7.72098437440249
30
0
41
1
10
220.796937055327
20
7.72102450043667
30
0
41
1
10
220.797719702311
20
7.72106292394398
30
0
41
1
10
220.797925208163
20
7.72107504106955
30
0
0
SPLINE
5
263
100
AcDbEntity
8
1
62
256
6
ByLayer
370
-1
48
1
60
0
100
AcDbSpline
70
4
71
3
72
8
73
4
40
0
40
0
40
0
40
0
40
1
40
1
40
1
40
1
41
1
10
206.386908641457
20
7.97611868781885
30
0
41
1
10
206.389766477548
20
7.92284323952873
30
0
41
1
10
206.393048811122
20
7.86958901942768
30
0
41
1
10
206.396757804955
20
7.81636641443197
30
0
0
SPLINE
5
264
100
AcDbEntity
8
1
62
256
6
ByLayer
370
-1
48
1
60
0
100
AcDbSpline
70
4
71
3
72
15
73
11
40
0
40
0
40
0
40
0
40
0.250139710793434
40
0.500351579587144
40
0.750563448380855
40
0.875669382777711
40
0.938222349976138
40
0.969498833575352
40
0.985137075374959
40
1
40
1
40
1
40
1
41
1
10
206.730273816125
20
7.4562553384919
30
0
41
1
10
206.722412617954
20
7.44772533929535
30
0
41
1
10
206.706687954331
20
7.43066288072868
30
0
41
1
10
206.683104447141
20
7.40507297789006
30
0
41
1
10
206.663427289524
20
7.38372176208088
30
0
41
1
10
206.649700898344
20
7.36882758142437
30
0
41
1
10
206.642768354474
20
7.36130524292636
30
0
41
1
10
206.63940610496
20
7.35765694593198
30
0
41
1
10
206.637325914862
20
7.35539978112365
30
0
41
1
10
206.636772337678
20
7.35479910768549
30
0
41
1
10
206.635914802111
20
7.35386861623354
30
0
0
SPLINE
5
265
100
AcDbEntity
8
1
62
256
6
ByLayer
370
-1
48
1
60
0
100
AcDbSpline
70
4
71
3
72
14
73
10
40
0
40
0
40
0
40
0
40
0.0318086637759081
40
0.315507725074471
40
0.599206786373034
40
0.882905847671597
40
0.953830612996238
40
0.989292995658559
40
1
40
1
40
1
40
1
41
1
10
207.970298759908
20
21.0147168714311
30
0
41
1
10
207.970393141118
20
21.0183600361971
30
0
41
1
10
207.971312095237
20
21.0546017618929
30
0
41
1
10
207.972408545333
20
21.1274009905434
30
0
41
1
10
207.972318762293
20
21.2383626544673
30
0
41
1
10
207.971009772336
20
21.3254726392593
30
0
41
1
10
207.969747441864
20
21.379455698564
30
0
41
1
10
207.969327115005
20
21.3957109482259
30
0
41
1
10
207.969154993787
20
21.402126778587
30
0
41
1
10
207.969114845249
20
21.4036148910089
30
0
0
SPLINE
5
266
100
AcDbEntity
8
1
62
256
6
ByLayer
370
-1
48
1
60
0
100
AcDbSpline
70
4
71
3
72
8
73
4
40
0
40
0
40
0
40
0
40
1
40
1
40
1
40
1
41
1
10
220.563884274855
20
23.0667808437765
30
0
41
1
10
220.601715833775
20
23.0667880065262
30
0
41
1
10
220.639067461766
20
23.0625089428197
30
0
41
1
10
220.675931458096
20
23.0539666358309
30
0
0
SPLINE
5
267
100
AcDbEntity
8
1
62
256
6
ByLayer
370
-1
48
1
60
0
100
AcDbSpline
70
4
71
3
72
8
73
4
40
0
40
0
40
0
40
0
40
1
40
1
40
1
40
1
41
1
10
221.765530272648
20
8.5642282061566
30
0
41
1
10
221.765949591722
20
8.54790036424458
30
0
41
1
10
221.766288952778
20
8.53157026121383
30
0
41
1
10
221.766549450314
20
8.51523909940755
30
0
0
SPLINE
5
268
100
AcDbEntity
8
1
62
256
6
ByLayer
370
-1
48
1
60
0
100
AcDbSpline
70
4
71
3
72
14
73
10
40
0
40
0
40
0
40
0
40
0.136649739226058
40
0.273299478452115
40
0.54659895690423
40
0.614923826517259
40
0.683248696130288
40
0.819898435356345
40
1
40
1
40
1
40
1
41
1
10
208.368814528683
20
9.08720716257756
30
0
41
1
10
208.366370988511
20
9.08712150632661
30
0
41
1
10
208.361479721391
20
9.08707098784217
30
0
41
1
10
208.351703978502
20
9.08745162630333
30
0
41
1
10
208.343190011357
20
9.08841491436888
30
0
41
1
10
208.335964894052
20
9.08968794001947
30
0
41
1
10
208.331170352842
20
9.09065515709912
30
0
41
1
10
208.324467847948
20
9.09226686803905
30
0
41
1
10
208.319037218563
20
9.09390492544472
30
0
41
1
10
208.315982663167
20
9.09493553799894
30
0
0
SPLINE
5
269
100
AcDbEntity
8
1
62
256
6
ByLayer
370
-1
48
1
60
0
100
AcDbSpline
70
4
71
3
72
15
73
11
40
0
40
0
40
0
40
0
40
0.0355064919379497
40
0.118947470229801
40
0.285829426813504
40
0.619593339980909
40
0.786475296564612
40
0.869916274856463
40
0.953357253148314
40
1
40
1
40
1
40
1
41
1
10
207.252680972203
20
9.19707884198613
30
0
41
1
10
207.248532189166
20
9.19693231180187
30
0
41
1
10
207.234627908023
20
9.19644133564509
30
0
41
1
10
207.201109662087
20
9.19525975413069
30
0
41
1
10
207.132264929203
20
9.19284066670889
30
0
41
1
10
207.053056223244
20
9.19007550014032
30
0
41
1
10
206.983795771844
20
9.18767326684011
30
0
41
1
10
206.944303325567
20
9.186307953821
30
0
41
1
10
206.919091571499
20
9.18543828598544
30
0
41
1
10
206.903767744411
20
9.18491068881161
30
0
41
1
10
206.898275214518
20
9.18472163559798
30
0
0
SPLINE
5
26A
100
AcDbEntity
8
1
62
256
6
ByLayer
370
-1
48
1
60
0
100
AcDbSpline
70
4
71
3
72
17
73
13
40
0
40
0
40
0
40
0
40
0.052408345418355
40
0.147434401200691
40
0.337486512765362
40
0.717590735894703
40
0.907642847459374
40
0.955155875350542
40
0.978912389296126
40
0.990790646268918
40
0.996729774755314
40
1
40
1
40
1
40
1
41
1
10
220.112800353882
20
9.64839867927779
30
0
41
1
10
220.108065370587
20
9.6482422302411
30
0
41
1
10
220.094784233742
20
9.64780368946995
30
0
41
1
10
220.064325556266
20
9.64679752731075
30
0
41
1
10
220.004337588882
20
9.6448162337843
30
0
41
1
10
219.935760868636
20
9.64255113201588
30
0
41
1
10
219.880050855901
20
9.64071108189611
30
0
41
1
10
219.856476317548
20
9.63993240115499
30
0
41
1
10
219.848980089491
20
9.63968483081209
30
0
41
1
10
219.845224358156
20
9.63956073893871
30
0
41
1
10
219.843330328802
20
9.63949823838112
30
0
41
1
10
219.842499155072
20
9.63947078175858
30
0
41
1
10
219.842202897227
20
9.63946098729934
30
0
0
SPLINE
5
26B
100
AcDbEntity
8
1
62
256
6
ByLayer
370
-1
48
1
60
0
100
AcDbSpline
70
4
71
3
72
17
73
13
40
0
40
0
40
0
40
0
40
0.0144631560763692
40
0.0301057427840128
40
0.0613909161992998
40
0.123961263029874
40
0.249101956691022
40
0.499383344013318
40
0.749664731335614
40
0.99994611865791
40
0.99994611865791
40
1
40
1
40
1
40
1
41
1
10
220.265018835685
20
23.0617373676036
30
0
41
1
10
220.265056925311
20
23.0606424569573
30
0
41
1
10
220.265072081506
20
23.0602067824567
30
0
41
1
10
220.265148067387
20
23.0580225197476
30
0
41
1
10
220.265272034793
20
23.0544589974278
30
0
41
1
10
220.265527399377
20
23.0471183792672
30
0
41
1
10
220.266033175363
20
23.0325795252934
30
0
41
1
10
220.266758141903
20
23.0117398987508
30
0
41
1
10
220.267627144137
20
22.9867598741536
30
0
41
1
10
220.26820658903
20
22.9701033603699
30
0
41
1
10
220.268496231183
20
22.9617774115561
30
0
41
1
10
220.268496578886
20
22.9617674166022
30
0
41
1
10
220.26849692659
20
22.9617574216483
30
0
0
SPLINE
5
26C
100
AcDbEntity
8
1
62
256
6
ByLayer
370
-1
48
1
60
0
100
AcDbSpline
70
4
71
3
72
15
73
11
40
0
40
0
40
0
40
0
40
0.0466427416044826
40
0.13008371136706
40
0.213524681129638
40
0.380406620654793
40
0.714170499705103
40
0.881052439230259
40
0.964493408992836
40
1
40
1
40
1
40
1
41
1
10
221.187522832812
20
9.68561922466907
30
0
41
1
10
221.182229090256
20
9.68543017339871
30
0
41
1
10
221.167451323836
20
9.68490258216374
30
0
41
1
10
221.143044268472
20
9.6840329070765
30
0
41
1
10
221.104639367646
20
9.68266759393467
30
0
41
1
10
221.036841439545
20
9.68026536071275
30
0
41
1
10
220.958284741202
20
9.6775001981957
30
0
41
1
10
220.889109541988
20
9.67508110061962
30
0
41
1
10
220.855213070626
20
9.67389953435435
30
0
41
1
10
220.841104993181
20
9.67340854095681
30
0
41
1
10
220.836893556062
20
9.67326200874464
30
0
0
SPLINE
5
26D
100
AcDbEntity
8
1
62
256
6
ByLayer
370
-1
48
1
60
0
100
AcDbSpline
70
4
71
3
72
8
73
4
40
0
40
0
40
0
40
0
40
1
40
1
40
1
40
1
41
1
10
220.802165057946
20
7.62112590873468
30
0
41
1
10
220.832366538912
20
7.62218459631569
30
0
41
1
10
220.86256338363
20
7.62338087939415
30
0
41
1
10
220.892754129578
20
7.62471570222149
30
0
0
SPLINE
5
26E
100
AcDbEntity
8
1
62
256
6
ByLayer
370
-1
48
1
60
0
100
AcDbSpline
70
4
71
3
72
8
73
4
40
0
40
0
40
0
40
0
40
1
40
1
40
1
40
1
41
1
10
221.279339153494
20
22.3970603330669
30
0
41
1
10
221.276699597489
20
22.4349462237013
30
0
41
1
10
221.269848363557
20
22.4720484718166
30
0
41
1
10
221.258788002075
20
22.508367947752
30
0
0
SPLINE
5
26F
100
AcDbEntity
8
1
62
256
6
ByLayer
370
-1
48
1
60
0
100
AcDbSpline
70
4
71
3
72
12
73
8
40
0
40
0
40
0
40
0
40
0.0285608994399679
40
0.0933235061439701
40
0.222848719551974
40
0.481899146367983
40
1
40
1
40
1
40
1
41
1
10
206.898275214518
20
9.18472163559798
30
0
41
1
10
206.893941949438
20
9.18457248434981
30
0
41
1
10
206.879786901784
20
9.18408537621309
30
0
41
1
10
206.845984374865
20
9.18292208089349
30
0
41
1
10
206.777221656249
20
9.18055570841773
30
0
41
1
10
206.63969536991
20
9.17582289661689
30
0
41
1
10
206.521815979317
20
9.1717662223669
30
0
41
1
10
206.443229652152
20
9.16906176806057
30
0
0
SPLINE
5
270
100
AcDbEntity
8
1
62
256
6
ByLayer
370
-1
48
1
60
0
100
AcDbSpline
70
4
71
3
72
8
73
4
40
0
40
0
40
0
40
0
40
1
40
1
40
1
40
1
41
1
10
221.295151029159
20
22.0974317412319
30
0
41
1
10
221.294096370204
20
22.1277485869491
30
0
41
1
10
221.292904473728
20
22.1580609449569
30
0
41
1
10
221.291574856212
20
22.1883668882613
30
0
0
SPLINE
5
271
100
AcDbEntity
8
1
62
256
6
ByLayer
370
-1
48
1
60
0
100
AcDbSpline
70
4
71
3
72
9
73
5
40
0
40
0
40
0
40
0
40
0.375000000000631
40
1
40
1
40
1
40
1
41
1
10
208.456660182174
20
7.18836459124131
30
0
41
1
10
208.456130284261
20
7.20085697657908
30
0
41
1
10
208.45471722316
20
7.23417000414642
30
0
41
1
10
208.453304162059
20
7.26748303171377
30
0
41
1
10
208.452420998871
20
7.28830367394332
30
0
0
SPLINE
5
272
100
AcDbEntity
8
1
62
256
6
ByLayer
370
-1
48
1
60
0
100
AcDbSpline
70
4
71
3
72
91
73
87
40
0
40
0
40
0
40
0
40
0.0276322771565335
40
0.0681475989416779
40
0.078276429387964
40
0.0833408446111071
40
0.083973896514
40
0.0846069484168929
40
0.0849234743683393
40
0.0852400003197857
40
0.0858730522226786
40
0.0884052598342501
40
0.0985340902805363
40
0.108662920726822
40
0.118791751173109
40
0.128920581619395
40
0.149178242511967
40
0.169435903404539
40
0.179564733850825
40
0.184629149073968
40
0.189693564297111
40
0.190326616200004
40
0.190959668102897
40
0.192225771908683
40
0.192858823811576
40
0.193491875714469
40
0.194757979520254
40
0.197290187131826
40
0.199822394743397
40
0.20488680996654
40
0.209951225189684
40
0.22008005563597
40
0.222612263247541
40
0.223878367053327
40
0.225144470859113
40
0.230208886082256
40
0.2707242078674
40
0.290981868759973
40
0.311239529652545
40
0.331497190545117
40
0.341626020991403
40
0.346690436214546
40
0.349222643826118
40
0.350488747631903
40
0.351121799534796
40
0.351754851437689
40
0.352387903340582
40
0.353020955243475
40
0.354287059049261
40
0.356819266660832
40
0.361883681883975
40
0.372012512330261
40
0.392270173222833
40
0.412527834115406
40
0.432785495007978
40
0.473300816793122
40
0.475833024404694
40
0.478365232016266
40
0.479631335822051
40
0.480897439627837
40
0.483429647239409
40
0.493558477685695
40
0.503687308131981
40
0.508751723355124
40
0.511283930966695
40
0.512550034772481
40
0.513816138578267
40
0.51444919048116
40
0.523944969024553
40
0.534073799470839
40
0.554331460363411
40
0.564460290809697
40
0.574589121255983
40
0.594846782148556
40
0.615104443041128
40
0.617636650652699
40
0.618269702555592
40
0.618586228507039
40
0.618902754458485
40
0.619535806361378
40
0.620168858264271
40
0.625233273487414
40
0.6353621039337
40
0.675877425718845
40
0.837938712859422
40
1
40
1
40
1
40
1
41
1
10
207.82735834264
20
20.6280004234517
30
0
41
1
10
207.827889628625
20
20.629587114914
30
0
41
1
10
207.829265185613
20
20.6334782245808
30
0
41
1
10
207.831028446492
20
20.6378788953917
30
0
41
1
10
207.832378030704
20
20.6409698633323
30
0
41
1
10
207.832769457787
20
20.6418443921027
30
0
41
1
10
207.832927228423
20
20.6421936582394
30
0
41
1
10
207.832966737712
20
20.6422809444244
30
0
41
1
10
207.832998385108
20
20.6423507551325
30
0
41
1
10
207.833030059141
20
20.6424205536706
30
0
41
1
10
207.833117272591
20
20.6426124494066
30
0
41
1
10
207.833451667088
20
20.6433445016902
30
0
41
1
10
207.834034484668
20
20.6445950270633
30
0
41
1
10
207.834831868676
20
20.6462527126245
30
0
41
1
10
207.835649424769
20
20.6479004672971
30
0
41
1
10
207.836766233248
20
20.6500838999616
30
0
41
1
10
207.838212064963
20
20.6527871171426
30
0
41
1
10
207.83972351271
20
20.6554539075531
30
0
41
1
10
207.840815548185
20
20.6573006642862
30
0
41
1
10
207.841449228132
20
20.658350115904
30
0
41
1
10
207.841789280954
20
20.6589055473986
30
0
41
1
10
207.841990436881
20
20.6592315730665
30
0
41
1
10
207.842070999184
20
20.6593619211516
30
0
41
1
10
207.842151711305
20
20.6594921758557
30
0
41
1
10
207.842232573077
20
20.6596223369635
30
0
41
1
10
207.842313534564
20
20.6597524356017
30
0
41
1
10
207.842455478772
20
20.6599799440479
30
0
41
1
10
207.842659002836
20
20.6603044859769
30
0
41
1
10
207.84298623064
20
20.6608227455072
30
0
41
1
10
207.843398238776
20
20.6614686721323
30
0
41
1
10
207.844063767028
20
20.6624980693413
30
0
41
1
10
207.844654356266
20
20.663393381552
30
0
41
1
10
207.84512374568
20
20.6640932354452
30
0
41
1
10
207.845295015612
20
20.6643473326968
30
0
41
1
10
207.845552502725
20
20.6647280826391
30
0
41
1
10
207.847149305637
20
20.6670699233277
30
0
41
1
10
207.849483775207
20
20.6702987206633
30
0
41
1
10
207.852499803834
20
20.6741631010045
30
0
41
1
10
207.85483189984
20
20.677004858889
30
0
41
1
10
207.856832589357
20
20.679324413204
30
0
41
1
10
207.858262554397
20
20.6809218258312
30
0
41
1
10
207.85898483406
20
20.6817138667546
30
0
41
1
10
207.859347788996
20
20.6821082088011
30
0
41
1
10
207.859529719092
20
20.6823049587121
30
0
41
1
10
207.859633808305
20
20.6824172666994
30
0
41
1
10
207.859711939754
20
20.6825014373693
30
0
41
1
10
207.859790135699
20
20.6825855476648
30
0
41
1
10
207.859894482888
20
20.6826976141666
30
0
41
1
10
207.860077315855
20
20.6828935189208
30
0
41
1
10
207.860443881913
20
20.6832844806786
30
0
41
1
10
207.861180603169
20
20.6840630031565
30
0
41
1
10
207.86266831143
20
20.6856063636739
30
0
41
1
10
207.864833849278
20
20.6877716072334
30
0
41
1
10
207.867495218583
20
20.6903051399069
30
0
41
1
10
207.871125128652
20
20.6935948798603
30
0
41
1
10
207.874053812462
20
20.6960592144821
30
0
41
1
10
207.876207154605
20
20.6977772505033
30
0
41
1
10
207.876506957426
20
20.6980149445399
30
0
41
1
10
207.876747234574
20
20.6982045450889
30
0
41
1
10
207.87698780111
20
20.6983937753732
30
0
41
1
10
207.877650550575
20
20.6989126293418
30
0
41
1
10
207.878741524427
20
20.6997532998944
30
0
41
1
10
207.879965055237
20
20.7006723574215
30
0
41
1
10
207.880827388249
20
20.7013077314493
30
0
41
1
10
207.881260008764
20
20.7016234168671
30
0
41
1
10
207.881507634296
20
20.701803235216
30
0
41
1
10
207.881662572337
20
20.7019153825027
30
0
41
1
10
207.882220812994
20
20.702318466139
30
0
41
1
10
207.883217632515
20
20.7030289256782
30
0
41
1
10
207.885196587653
20
20.7044040804588
30
0
41
1
10
207.887232377857
20
20.705763721461
30
0
41
1
10
207.889292634203
20
20.7070854633293
30
0
41
1
10
207.89136888233
20
20.7083817532745
30
0
41
1
10
207.893993578994
20
20.7099540449112
30
0
41
1
10
207.896256520203
20
20.7112352227741
30
0
41
1
10
207.897497190047
20
20.7119151762428
30
0
41
1
10
207.89768180619
20
20.7120158955449
30
0
41
1
10
207.897748960276
20
20.7120524820165
30
0
41
1
10
207.897816128314
20
20.7120890426628
30
0
41
1
10
207.897900114505
20
20.712134695038
30
0
41
1
10
207.898236198498
20
20.7123170461166
30
0
41
1
10
207.899077972648
20
20.7127700152916
30
0
41
1
10
207.902055535497
20
20.7143370696442
30
0
41
1
10
207.913604997745
20
20.7199692380949
30
0
41
1
10
207.934527546773
20
20.7271497353068
30
0
41
1
10
207.954008387777
20
20.7297676723464
30
0
41
1
10
207.963782548463
20
20.7301102973503
30
0
0
SPLINE
5
273
100
AcDbEntity
8
1
62
256
6
ByLayer
370
-1
48
1
60
0
100
AcDbSpline
70
4
71
3
72
17
73
13
40
0
40
0
40
0
40
0
40
0.0144631560763646
40
0.0301057427840078
40
0.0613909161992943
40
0.123961263029867
40
0.249101956691013
40
0.499383344013304
40
0.749664731335596
40
0.999946118657887
40
0.999946118657887
40
1
40
1
40
1
40
1
41
1
10
207.411078133132
20
7.15168937989759
30
0
41
1
10
207.411040043506
20
7.15278429054385
30
0
41
1
10
207.411024887311
20
7.15321996504451
30
0
41
1
10
207.41094890143
20
7.15540422775362
30
0
41
1
10
207.410824934024
20
7.15896775007334
30
0
41
1
10
207.41056956944
20
7.16630836823399
30
0
41
1
10
207.410063793454
20
7.18084722220783
30
0
41
1
10
207.409338826914
20
7.2016868487504
30
0
41
1
10
207.408469824681
20
7.22666687334763
30
0
41
1
10
207.407890379787
20
7.24332338713128
30
0
41
1
10
207.407600737634
20
7.25164933594505
30
0
41
1
10
207.407600389931
20
7.25165933089895
30
0
41
1
10
207.407600042227
20
7.25166932585284
30
0
0
SPLINE
5
274
100
AcDbEntity
8
1
62
256
6
ByLayer
370
-1
48
1
60
0
100
AcDbSpline
70
4
71
3
72
12
73
8
40
0
40
0
40
0
40
0
40
0.448044053330153
40
0.448044053330153
40
0.724021472165466
40
0.724021472165466
40
1
40
1
40
1
40
1
41
1
10
219.219436786643
20
23.0250621562599
30
0
41
1
10
219.375592962546
20
23.0305360800158
30
0
41
1
10
219.531807095872
20
23.0358887744599
30
0
41
1
10
219.784190901147
20
23.0446468754677
30
0
41
1
10
219.880367752046
20
23.0480379361157
30
0
41
1
10
220.072689507795
20
23.0548838723905
30
0
41
1
10
220.168833256655
20
23.0583425702768
30
0
41
1
10
220.265019642118
20
23.061714186181
30
0
0
SPLINE
5
275
100
AcDbEntity
8
1
62
256
6
ByLayer
370
-1
48
1
60
0
100
AcDbSpline
70
4
71
3
72
8
73
4
40
0
40
0
40
0
40
0
40
1
40
1
40
1
40
1
41
1
10
221.291574856212
20
22.1883668882613
30
0
41
1
10
221.290858958697
20
22.2046843248405
30
0
41
1
10
221.290063403965
20
22.2209984346321
30
0
41
1
10
221.289188395199
20
22.2373080596823
30
0
0
SPLINE
5
276
100
AcDbEntity
8
1
62
256
6
ByLayer
370
-1
48
1
60
0
100
AcDbSpline
70
4
71
3
72
15
73
11
40
0
40
0
40
0
40
0
40
0.424997863749041
40
0.849995727498081
40
0.956245193435341
40
0.982807559919656
40
0.996088743161814
40
0.997748891067083
40
0.999409038972353
40
1
40
1
40
1
40
1
41
1
10
221.231342288775
20
21.0443649794406
30
0
41
1
10
221.226169698659
20
21.193054388217
30
0
41
1
10
221.21582735487
20
21.4904301917981
30
0
41
1
10
221.204179097973
20
21.8249919561267
30
0
41
1
10
221.197401597819
20
22.0201345227347
30
0
41
1
10
221.19561576313
20
22.0712547753594
30
0
41
1
10
221.195117691742
20
22.0857676923406
30
0
41
1
10
221.194910027491
20
22.0915818548719
30
0
41
1
10
221.194870112217
20
22.0929491505436
30
0
41
1
10
221.194831751213
20
22.0937348711412
30
0
41
1
10
221.19481964279
20
22.0939411995422
30
0
0
SPLINE
5
277
100
AcDbEntity
8
1
62
256
6
ByLayer
370
-1
48
1
60
0
100
AcDbSpline
70
4
71
3
72
16
73
12
40
0
40
0
40
0
40
0
40
0.0319528420423016
40
0.215044192449652
40
0.398135542857003
40
0.581226893264353
40
0.764318243671704
40
0.855863918875379
40
0.947409594079054
40
0.993182431680892
40
1
40
1
40
1
40
1
41
1
10
207.572081740243
20
9.20836156345828
30
0
41
1
10
207.568681073642
20
9.20824141418842
30
0
41
1
10
207.54577788212
20
9.2074325067091
30
0
41
1
10
207.503396658574
20
9.20593528356409
30
0
41
1
10
207.444917485743
20
9.20386952167976
30
0
41
1
10
207.386436289554
20
9.20180372319109
30
0
41
1
10
207.337703860806
20
9.20008225876853
30
0
41
1
10
207.2987159612
20
9.19870505525708
30
0
41
1
10
207.274350469858
20
9.197844334395
30
0
41
1
10
207.259007585725
20
9.19730229814263
30
0
41
1
10
207.253407051429
20
9.19710448625864
30
0
41
1
10
207.252680972203
20
9.19707884198613
30
0
0
SPLINE
5
278
100
AcDbEntity
8
1
62
256
6
ByLayer
370
-1
48
1
60
0
100
AcDbSpline
70
4
71
3
72
8
73
4
40
0
40
0
40
0
40
0
40
1
40
1
40
1
40
1
41
1
10
221.767825835103
20
8.35518632514473
30
0
41
1
10
221.767829758981
20
8.31720703193233
30
0
41
1
10
221.76357029991
20
8.27971606098478
30
0
41
1
10
221.755060048485
20
8.24271079796361
30
0
0
SPLINE
5
279
100
AcDbEntity
8
1
62
256
6
ByLayer
370
-1
48
1
60
0
100
AcDbSpline
70
4
71
3
72
25
73
21
40
0
40
0
40
0
40
0
40
0.125
40
0.1875
40
0.21875
40
0.234375
40
0.25
40
0.3125
40
0.34375
40
0.375
40
0.5
40
0.625
40
0.6875
40
0.71875
40
0.7265625
40
0.734375
40
0.75
40
0.8125
40
0.875
40
1
40
1
40
1
40
1
41
1
10
221.663219332747
20
8.65170228065261
30
0
41
1
10
221.662980113121
20
8.63462622092038
30
0
41
1
10
221.662549598556
20
8.60903563697468
30
0
41
1
10
221.661955568423
20
8.57917313835796
30
0
41
1
10
221.661617014678
20
8.56427477050173
30
0
41
1
10
221.661409049839
20
8.555775084988
30
0
41
1
10
221.661081237892
20
8.54304235090135
30
0
41
1
10
221.660648669846
20
8.52824309113169
30
0
41
1
10
221.660103031245
20
8.51132292742284
30
0
41
1
10
221.65924203371
20
8.48589589800307
30
0
41
1
10
221.657823945922
20
8.44741843572871
30
0
41
1
10
221.656025758226
20
8.40491578306177
30
0
41
1
10
221.654656398946
20
8.37495131487188
30
0
41
1
10
221.653987838526
20
8.36131423557609
30
0
41
1
10
221.653681225718
20
8.35470149561527
30
0
41
1
10
221.653451915646
20
8.35168118439125
30
0
41
1
10
221.652737578538
20
8.34235090008988
30
0
41
1
10
221.651084990841
20
8.3276338685618
30
0
41
1
10
221.646801805268
20
8.30147985378164
30
0
41
1
10
221.642106168123
20
8.28225059296156
30
0
41
1
10
221.638343749597
20
8.26970492449155
30
0
0
SPLINE
5
27A
100
AcDbEntity
8
1
62
256
6
ByLayer
370
-1
48
1
60
0
100
AcDbSpline
70
4
71
3
72
15
73
11
40
0
40
0
40
0
40
0
40
0.250244249035894
40
0.500488498071788
40
0.750732747107683
40
0.87585487162563
40
0.938415933884603
40
0.96969646501409
40
0.985336730578833
40
1
40
1
40
1
40
1
41
1
10
221.143584276462
20
22.4732833431852
30
0
41
1
10
221.15318458693
20
22.4762070602325
30
0
41
1
10
221.172385207865
20
22.4820544943269
30
0
41
1
10
221.201180567138
20
22.4908239485096
30
0
41
1
10
221.225203631831
20
22.4981400289639
30
0
41
1
10
221.241962384168
20
22.5032438066036
30
0
41
1
10
221.250425342299
20
22.5058211498094
30
0
41
1
10
221.254531448421
20
22.5070716398333
30
0
41
1
10
221.257060655088
20
22.5078418945738
30
0
41
1
10
221.257663107789
20
22.5080253679352
30
0
41
1
10
221.258799847911
20
22.5083715553304
30
0
0
SPLINE
5
27B
100
AcDbEntity
8
1
62
256
6
ByLayer
370
-1
48
1
60
0
100
AcDbSpline
70
4
71
3
72
16
73
12
40
0
40
0
40
0
40
0
40
0.0319528420423147
40
0.215044192449668
40
0.398135542857021
40
0.581226893264374
40
0.764318243671727
40
0.855863918875404
40
0.94740959407908
40
0.993182431680919
40
1
40
1
40
1
40
1
41
1
10
219.720928447035
20
8.80981185649227
30
0
41
1
10
219.721075004805
20
8.80637123156922
30
0
41
1
10
219.72205357577
20
8.78320715210904
30
0
41
1
10
219.723875587394
20
8.7403322909075
30
0
41
1
10
219.726384890917
20
8.68117661036567
30
0
41
1
10
219.728893251771
20
8.622019881612
30
0
41
1
10
219.730984440703
20
8.57272359039087
30
0
41
1
10
219.732656379209
20
8.53328564181416
30
0
41
1
10
219.733702361641
20
8.50863782120163
30
0
41
1
10
219.734362273092
20
8.49311593379036
30
0
41
1
10
219.734601833679
20
8.48745134257825
30
0
41
1
10
219.734632862578
20
8.48671698669494
30
0
0
SPLINE
5
27C
100
AcDbEntity
8
1
62
256
6
ByLayer
370
-1
48
1
60
0
100
AcDbSpline
70
4
71
3
72
15
73
11
40
0
40
0
40
0
40
0
40
0.035506491937973
40
0.118947470229822
40
0.28582942681352
40
0.619593339980915
40
0.786475296564612
40
0.869916274856461
40
0.95335725314831
40
1
40
1
40
1
40
1
41
1
10
219.734632862578
20
8.48671698669494
30
0
41
1
10
219.734810160269
20
8.48252091122578
30
0
41
1
10
219.735401203082
20
8.46846119364363
30
0
41
1
10
219.736767353454
20
8.434625126123
30
0
41
1
10
219.739342495795
20
8.36535152599927
30
0
41
1
10
219.741771125274
20
8.28616751577169
30
0
41
1
10
219.743432956804
20
8.21737655454248
30
0
41
1
10
219.744249299945
20
8.17827910511673
30
0
41
1
10
219.744713165428
20
8.15337507670549
30
0
41
1
10
219.744965842101
20
8.13826667040462
30
0
41
1
10
219.745054820676
20
8.13285289469476
30
0
0
SPLINE
5
27D
100
AcDbEntity
8
1
62
256
6
ByLayer
370
-1
48
1
60
0
100
AcDbSpline
70
4
71
3
72
15
73
11
40
0
40
0
40
0
40
0
40
0.0466427416046436
40
0.13008371136719
40
0.213524681129736
40
0.380406620654829
40
0.714170499705015
40
0.881052439230108
40
0.964493408992654
40
1
40
1
40
1
40
1
41
1
10
206.503673251947
20
20.5278075228321
30
0
41
1
10
206.509165747834
20
20.5279965741025
30
0
41
1
10
206.524489471082
20
20.5285241653374
30
0
41
1
10
206.549701351588
20
20.5293938404247
30
0
41
1
10
206.589193801417
20
20.5307591535665
30
0
41
1
10
206.658454250557
20
20.5331613867884
30
0
41
1
10
206.73766270338
20
20.5359265493055
30
0
41
1
10
206.806508069837
20
20.5383456468816
30
0
41
1
10
206.84002535058
20
20.5395272131468
30
0
41
1
10
206.853930689021
20
20.5400182065444
30
0
41
1
10
206.858079583875
20
20.5401647387565
30
0
0
SPLINE
5
27E
100
AcDbEntity
8
1
62
256
6
ByLayer
370
-1
48
1
60
0
100
AcDbSpline
70
4
71
3
72
8
73
4
40
0
40
0
40
0
40
0
40
1
40
1
40
1
40
1
41
1
10
206.873931910871
20
22.5923008387665
30
0
41
1
10
206.843730429905
20
22.5912421511855
30
0
41
1
10
206.813533253955
20
22.590045868107
30
0
41
1
10
206.783342759821
20
22.5887110452797
30
0
0
SPLINE
5
27F
100
AcDbEntity
8
1
62
256
6
ByLayer
370
-1
48
1
60
0
100
AcDbSpline
70
4
71
3
72
25
73
21
40
0
40
0
40
0
40
0
40
0.125
40
0.1875
40
0.21875
40
0.234375
40
0.25
40
0.3125
40
0.34375
40
0.375
40
0.5
40
0.625
40
0.6875
40
0.71875
40
0.7265625
40
0.734375
40
0.75
40
0.8125
40
0.875
40
1
40
1
40
1
40
1
41
1
10
206.012877636071
20
21.5617244668486
30
0
41
1
10
206.013114228131
20
21.5788005265808
30
0
41
1
10
206.013540403013
20
21.6043911105265
30
0
41
1
10
206.014129430926
20
21.6342536091433
30
0
41
1
10
206.014464966672
20
21.6491519769995
30
0
41
1
10
206.014670993434
20
21.6576516625132
30
0
41
1
10
206.014995636743
20
21.6703843965999
30
0
41
1
10
206.015423643443
20
21.6851836563696
30
0
41
1
10
206.015964156132
20
21.7021038200784
30
0
41
1
10
206.016818166519
20
21.7275308494982
30
0
41
1
10
206.018230881594
20
21.7660083117725
30
0
41
1
10
206.020019264597
20
21.8085109644394
30
0
41
1
10
206.021384970723
20
21.8384754326293
30
0
41
1
10
206.022047684792
20
21.8521125119251
30
0
41
1
10
206.022356407335
20
21.8587252518859
30
0
41
1
10
206.022566164844
20
21.86174556311
30
0
41
1
10
206.023242113968
20
21.8710758474113
30
0
41
1
10
206.024823405122
20
21.8857928789394
30
0
41
1
10
206.028981272261
20
21.9119468937196
30
0
41
1
10
206.033581197887
20
21.9311761545397
30
0
41
1
10
206.037279571705
20
21.9437218230097
30
0
0
SPLINE
5
280
100
AcDbEntity
8
1
62
256
6
ByLayer
370
-1
48
1
60
0
100
AcDbSpline
70
4
71
3
72
14
73
10
40
0
40
0
40
0
40
0
40
0.0318086637758498
40
0.315507725074402
40
0.599206786372955
40
0.882905847671507
40
0.953830612996145
40
0.989292995658464
40
1
40
1
40
1
40
1
41
1
10
219.718198381753
20
20.9914845659455
30
0
41
1
10
219.722048802385
20
20.9916117880625
30
0
41
1
10
219.760332344493
20
20.9928773770115
30
0
41
1
10
219.83648353142
20
20.9954195820943
30
0
41
1
10
219.950793291324
20
20.9992944487826
30
0
41
1
10
220.039293178537
20
21.002336396482
30
0
41
1
10
220.093686442013
20
21.0042215264525
30
0
41
1
10
220.110024994446
20
21.0047891722789
30
0
41
1
10
220.116467482589
20
21.0050132180121
30
0
41
1
10
220.11796155204
20
21.0050651840429
30
0
0
SPLINE
5
281
100
AcDbEntity
8
SK1
62
256
6
ByLayer
370
-1
48
1
60
0
100
AcDbSpline
70
4
71
3
72
28
73
24
40
0
40
0
40
0
40
0
40
0.0625
40
0.0625
40
0.125
40
0.125
40
0.1875
40
0.1875
40
0.25
40
0.25
40
0.3125
40
0.3125
40
0.375
40
0.375
40
0.4375
40
0.4375
40
0.5
40
0.5
40
0.625
40
0.625
40
0.75
40
0.75
40
1
40
1
40
1
40
1
41
1
10
-77.6338144512151
20
-9.8067508950777
30
0
41
1
10
-77.6543579611202
20
-9.78895998994784
30
0
41
1
10
-77.6759742207358
20
-9.77252139976983
30
0
41
1
10
-77.722047757932
20
-9.74322562431684
30
0
41
1
10
-77.7466515021883
20
-9.73034655008655
30
0
41
1
10
-77.7978350200696
20
-9.71031034137371
30
0
41
1
10
-77.8240756138441
20
-9.70323109189889
30
0
41
1
10
-77.8780393772639
20
-9.6957878232482
30
0
41
1
10
-77.9058291361522
20
-9.69556645816945
30
0
41
1
10
-77.9596871329427
20
-9.70210490207472
30
0
41
1
10
-77.9864847496244
20
-9.70890522195111
30
0
41
1
10
-78.037569321387
20
-9.72811272586878
30
0
41
1
10
-78.0617557835843
20
-9.74036263557792
30
0
41
1
10
-78.1080225163778
20
-9.76897310396529
30
0
41
1
10
-78.1301520272264
20
-9.78542501141285
30
0
41
1
10
-78.1715088706165
20
-9.8205825368494
30
0
41
1
10
-78.1909321556219
20
-9.83940079115041
30
0
41
1
10
-78.2463112147692
20
-9.89871031654829
30
0
41
1
10
-78.2795961287113
20
-9.94232448617103
30
0
41
1
10
-78.3396100313876
20
-10.0324563718159
30
0
41
1
10
-78.366506987321
20
-10.0791581867371
30
0
41
1
10
-78.4406180649772
20
-10.2227246318282
30
0
41
1
10
-78.4815513469768
20
-10.3236034091323
30
0
41
1
10
-78.516222729729
20
-10.4258292340309
30
0
0
SPLINE
5
282
100
AcDbEntity
8
SK1
62
256
6
ByLayer
370
-1
48
1
60
0
100
AcDbSpline
70
4
71
3
72
8
73
4
40
0
40
0
40
0
40
0
40
1
40
1
40
1
40
1
41
1
10
-79
20
-10.6704826507519
30
0
41
1
10
-79.3659007463117
20
-9.81334662849696
30
0
41
1
10
-79.7018274913942
20
-8.94238761528712
30
0
41
1
10
-80
20
-8.05401763097143
30
0
0
SPLINE
5
283
100
AcDbEntity
8
SK1
62
256
6
ByLayer
370
-1
48
1
60
0
100
AcDbSpline
70
4
71
3
72
20
73
16
40
0
40
0
40
0
40
0
40
0.25
40
0.25
40
0.375
40
0.375
40
0.5
40
0.5
40
0.625
40
0.625
40
0.75
40
0.75
40
0.875
40
0.875
40
1
40
1
40
1
40
1
41
1
10
-78.516222729729
20
10.4258292340311
30
0
41
1
10
-78.481648532285
20
10.3238899523136
30
0
41
1
10
-78.4407178893849
20
10.222863184314
30
0
41
1
10
-78.366182383801
20
10.0785569359928
30
0
41
1
10
-78.3389517594226
20
10.0313738170425
30
0
41
1
10
-78.2789242561791
20
9.9414114685452
30
0
41
1
10
-78.2462023973559
20
9.89858010737444
30
0
41
1
10
-78.1723924001263
20
9.81955890101548
30
0
41
1
10
-78.1310509912521
20
9.78321524627549
30
0
41
1
10
-78.0387498131119
20
9.72613440999527
30
0
41
1
10
-77.987439503438
20
9.70551112784312
30
0
41
1
10
-77.8785037156704
20
9.69221220969743
30
0
41
1
10
-77.8229596875428
20
9.70044596670573
30
0
41
1
10
-77.7211757832574
20
9.74034844732952
30
0
41
1
10
-77.6748225543307
20
9.77123742754159
30
0
41
1
10
-77.6338144512148
20
9.80675089507758
30
0
0
SPLINE
5
284
100
AcDbEntity
8
SK1
62
256
6
ByLayer
370
-1
48
1
60
0
100
AcDbSpline
70
4
71
3
72
8
73
4
40
0
40
0
40
0
40
0
40
1
40
1
40
1
40
1
41
1
10
-78.5162227297291
20
-10.4258292340309
30
0
41
1
10
-78.5439189315756
20
-10.5074892906994
30
0
41
1
10
-78.5718462461953
20
-10.5890396904415
30
0
41
1
10
-78.6
20
-10.6704826507519
30
0
0
SPLINE
5
285
100
AcDbEntity
8
SK1
62
256
6
ByLayer
370
-1
48
1
60
0
100
AcDbSpline
70
4
71
3
72
8
73
4
40
0
40
0
40
0
40
0
40
1
40
1
40
1
40
1
41
1
10
-76.6000000000001
20
-10.670482650752
30
0
41
1
10
-76.9485917454248
20
-10.3890222754873
30
0
41
1
10
-77.293445384311
20
-10.1015142440092
30
0
41
1
10
-77.6338144512152
20
-9.80675089507795
30
0
0
SPLINE
5
286
100
AcDbEntity
8
SK1
62
256
6
ByLayer
370
-1
48
1
60
0
100
AcDbSpline
70
4
71
3
72
8
73
4
40
0
40
0
40
0
40
0
40
1
40
1
40
1
40
1
41
1
10
-80
20
8.0540176309716
30
0
41
1
10
-79.7018274913942
20
8.94238761528729
30
0
41
1
10
-79.3659007463117
20
9.81334662849713
30
0
41
1
10
-79
20
10.6704826507521
30
0
0
SPLINE
5
287
100
AcDbEntity
8
SK1
62
256
6
ByLayer
370
-1
48
1
60
0
100
AcDbSpline
70
4
71
3
72
8
73
4
40
0
40
0
40
0
40
0
40
1
40
1
40
1
40
1
41
1
10
-77.6338144512152
20
9.8067508950781
30
0
41
1
10
-77.293445384311
20
10.1015142440094
30
0
41
1
10
-76.9485917454248
20
10.3890222754875
30
0
41
1
10
-76.6
20
10.6704826507522
30
0
0
SPLINE
5
288
100
AcDbEntity
8
SK1
62
256
6
ByLayer
370
-1
48
1
60
0
100
AcDbSpline
70
4
71
3
72
8
73
4
40
0
40
0
40
0
40
0
40
1
40
1
40
1
40
1
41
1
10
-78.6
20
10.6704826507521
30
0
41
1
10
-78.5718462461953
20
10.5890396904417
30
0
41
1
10
-78.5439189315755
20
10.5074892906996
30
0
41
1
10
-78.516222729729
20
10.4258292340311
30
0
0
SPLINE
5
289
100
AcDbEntity
8
SK1
62
256
6
ByLayer
370
-1
48
1
60
0
100
AcDbSpline
70
4
71
3
72
74
73
70
40
0
40
0
40
0
40
0
40
0.0078125
40
0.0078125
40
0.015625
40
0.015625
40
0.0234375000000001
40
0.0234375000000001
40
0.0312500000000001
40
0.0312500000000001
40
0.0468750000000002
40
0.0468750000000002
40
0.0625000000000004
40
0.0625000000000004
40
0.0781250000000005
40
0.0781250000000005
40
0.0937500000000007
40
0.0937500000000007
40
0.125000000000001
40
0.125000000000001
40
0.156250000000001
40
0.156250000000001
40
0.187500000000001
40
0.187500000000001
40
0.250000000000001
40
0.250000000000001
40
0.3125
40
0.3125
40
0.375
40
0.375
40
0.4375
40
0.4375
40
0.5
40
0.5
40
0.5625
40
0.5625
40
0.625
40
0.625
40
0.6875
40
0.6875
40
0.71875
40
0.71875
40
0.75
40
0.75
40
0.8125
40
0.8125
40
0.84375
40
0.84375
40
0.875
40
0.875
40
0.90625
40
0.90625
40
0.921874999999999
40
0.921874999999999
40
0.937499999999999
40
0.937499999999999
40
0.953124999999999
40
0.953124999999999
40
0.960937499999999
40
0.960937499999999
40
0.96875
40
0.96875
40
0.9765625
40
0.9765625
40
0.984375
40
0.984375
40
0.9921875
40
0.9921875
40
1
40
1
40
1
40
1
41
1
10
-6.5
20
-10.670482650752
30
0
41
1
10
-6.43582469560522
20
-10.670482650752
30
0
41
1
10
-6.37081264331925
20
-10.6660189653216
30
0
41
1
10
-6.24392038992224
20
-10.6486969876231
30
0
41
1
10
-6.18157921432717
20
-10.6358875710277
30
0
41
1
10
-6.05894945950163
20
-10.6025434279042
30
0
41
1
10
-5.99828531584174
20
-10.5818434566541
30
0
41
1
10
-5.88083692317713
20
-10.5339153969847
30
0
41
1
10
-5.82427185750652
20
-10.5068475724891
30
0
41
1
10
-5.66013950429971
20
-10.4175987193405
30
0
41
1
10
-5.55767796670693
20
-10.3470965653228
30
0
41
1
10
-5.36621601012163
20
-10.1903902962456
30
0
41
1
10
-5.27880357186177
20
-10.1056422220725
30
0
41
1
10
-5.11622750836628
20
-9.92648705790921
30
0
41
1
10
-5.04111152798336
20
-9.8320448969433
30
0
41
1
10
-4.90065886276918
20
-9.63522912882672
30
0
41
1
10
-4.83542500373019
20
-9.53286259528852
30
0
41
1
10
-4.65471203118301
20
-9.22109644529974
30
0
41
1
10
-4.55256385540466
20
-9.0051958714954
30
0
41
1
10
-4.37262453777106
20
-8.56162021481845
30
0
41
1
10
-4.29501129112501
20
-8.33388009499919
30
0
41
1
10
-4.15784189524743
20
-7.86879502034912
30
0
41
1
10
-4.09907903740438
20
-7.63402615605699
30
0
41
1
10
-3.94435252661108
20
-6.92518666874861
30
0
41
1
10
-3.86941590197452
20
-6.4460789539506
30
0
41
1
10
-3.75181901250798
20
-5.47739344626228
30
0
41
1
10
-3.70948261237385
20
-4.98778106711202
30
0
41
1
10
-3.64452511166275
20
-3.99941572019102
30
0
41
1
10
-3.62198013028762
20
-3.50007827001653
30
0
41
1
10
-3.58892377607327
20
-2.4954364308274
30
0
41
1
10
-3.57852544151933
20
-1.9938019826163
30
0
41
1
10
-3.56516453260045
20
-0.991813220234803
30
0
41
1
10
-3.56222270481226
20
-0.49145923809175
30
0
41
1
10
-3.56229115849558
20
0.508003221132356
30
0
41
1
10
-3.56530396713819
20
1.0071116342211
30
0
41
1
10
-3.57872854634991
20
2.00406630022576
30
0
41
1
10
-3.58912588826433
20
2.50191273366485
30
0
41
1
10
-3.62186596237336
20
3.49627385340571
30
0
41
1
10
-3.64416085648716
20
3.99278917523472
30
0
41
1
10
-3.69293036786834
20
4.73646313788097
30
0
41
1
10
-3.71182176597955
20
4.98464599195373
30
0
41
1
10
-3.75616257191399
20
5.47799266038496
30
0
41
1
10
-3.78158287580703
20
5.72301013604627
30
0
41
1
10
-3.8703237062345
20
6.45266121988658
30
0
41
1
10
-3.94563979261514
20
6.93197513305708
30
0
41
1
10
-4.09993208028902
20
7.63748203830275
30
0
41
1
10
-4.15833437396446
20
7.87039260799332
30
0
41
1
10
-4.29410155537133
20
8.33086753859507
30
0
41
1
10
-4.37155898125485
20
8.5589040944626
30
0
41
1
10
-4.55298151088468
20
9.00631450635206
30
0
41
1
10
-4.65571371792436
20
9.22299836195256
30
0
41
1
10
-4.83609280283841
20
9.53392693237404
30
0
41
1
10
-4.90064241103281
20
9.63520102478984
30
0
41
1
10
-5.04103051650716
20
9.83193642265834
30
0
41
1
10
-5.11703382242627
20
9.92748901775266
30
0
41
1
10
-5.2803556517932
20
10.1072375093538
30
0
41
1
10
-5.36794028451175
20
10.1919346295056
30
0
41
1
10
-5.51111419186552
20
10.3089173634913
30
0
41
1
10
-5.56098716244992
20
10.346308238641
30
0
41
1
10
-5.66357783518524
20
10.4159186649603
30
0
41
1
10
-5.71645596113865
20
10.4482905987006
30
0
41
1
10
-5.82577658750921
20
10.5075946315751
30
0
41
1
10
-5.88221687926884
20
10.5345300782901
30
0
41
1
10
-5.99920669180636
20
10.5821668732083
30
0
41
1
10
-6.05997126142915
20
10.6028655288242
30
0
41
1
10
-6.18253580232604
20
10.6361026919536
30
0
41
1
10
-6.24472496658316
20
10.6488298146219
30
0
41
1
10
-6.37103256116305
20
10.6660258041167
30
0
41
1
10
-6.43568437547606
20
10.6704826507524
30
0
41
1
10
-6.50000000000006
20
10.6704826507524
30
0
0
LINE
5
45
100
AcDbEntity
8
80
62
256
6
ByLayer
370
-1
48
1
60
0
100
AcDbLine
10
0
20
0
30
0
11
-7
21
0
31
0
39
0
210
0
220
0
230
1
0
LINE
5
46
100
AcDbEntity
8
81
62
256
6
ByLayer
370
-1
48
1
60
0
100
AcDbLine
10
222
20
0
30
0
11
229
21
0
31
0
39
0
210
0
220
0
230
1
0
LINE
5
47
100
AcDbEntity
8
SK1
62
256
6
ByLayer
370
-1
48
1
60
0
100
AcDbLine
10
-2
20
-24.996
30
0
11
-1.552821
21
-24.787477
31
0
39
0
210
0
220
0
230
1
0
LINE
5
49
100
AcDbEntity
8
SK1
62
256
6
ByLayer
370
-1
48
1
60
0
100
AcDbLine
10
-1.552821
20
24.787477
30
0
11
-2
21
24.996
31
0
39
0
210
0
220
0
230
1
0
LINE
5
4A
100
AcDbEntity
8
SK1
62
256
6
ByLayer
370
-1
48
1
60
0
100
AcDbLine
10
-2
20
24.996
30
0
11
-76.6
21
24.996
31
0
39
0
210
0
220
0
230
1
0
LINE
5
4B
100
AcDbEntity
8
SK1
62
256
6
ByLayer
370
-1
48
1
60
0
100
AcDbLine
10
-76.6
20
-24.996
30
0
11
-2
21
-24.996
31
0
39
0
210
0
220
0
230
1
0
LINE
5
4C
100
AcDbEntity
8
SK1
62
256
6
ByLayer
370
-1
48
1
60
0
100
AcDbLine
10
-0.15
20
24.75
30
0
11
-1.383773
21
24.75
31
0
39
0
210
0
220
0
230
1
0
LINE
5
4D
100
AcDbEntity
8
SK1
62
256
6
ByLayer
370
-1
48
1
60
0
100
AcDbLine
10
-1.383773
20
-24.75
30
0
11
-0.15
21
-24.75
31
0
39
0
210
0
220
0
230
1
0
LINE
5
4E
100
AcDbEntity
8
SK1
62
256
6
ByLayer
370
-1
48
1
60
0
100
AcDbLine
10
-76.6
20
24.996
30
0
11
-77.633814
21
24.639667
31
0
39
0
210
0
220
0
230
1
0
LINE
5
4F
100
AcDbEntity
8
SK1
62
256
6
ByLayer
370
-1
48
1
60
0
100
AcDbLine
10
-77.633814
20
-24.639667
30
0
11
-76.6
21
-24.996
31
0
39
0
210
0
220
0
230
1
0
LINE
5
50
100
AcDbEntity
8
SK1
62
256
6
ByLayer
370
-1
48
1
60
0
100
AcDbLine
10
-78.6
20
24.996
30
0
11
-79
21
24.996
31
0
39
0
210
0
220
0
230
1
0
LINE
5
51
100
AcDbEntity
8
SK1
62
256
6
ByLayer
370
-1
48
1
60
0
100
AcDbLine
10
-79
20
-24.996
30
0
11
-78.6
21
-24.996
31
0
39
0
210
0
220
0
230
1
0
LINE
5
52
100
AcDbEntity
8
SK1
62
256
6
ByLayer
370
-1
48
1
60
0
100
AcDbLine
10
-79
20
24.996
30
0
11
-80
21
23.996
31
0
39
0
210
0
220
0
230
1
0
LINE
5
53
100
AcDbEntity
8
SK1
62
256
6
ByLayer
370
-1
48
1
60
0
100
AcDbLine
10
-80
20
-23.996
30
0
11
-79
21
-24.996
31
0
39
0
210
0
220
0
230
1
0
LINE
5
54
100
AcDbEntity
8
SK1
62
256
6
ByLayer
370
-1
48
1
60
0
100
AcDbLine
10
-78.6
20
-24.996
30
0
11
-78.516223
21
-24.892544
31
0
39
0
210
0
220
0
230
1
0
LINE
5
55
100
AcDbEntity
8
SK1
62
256
6
ByLayer
370
-1
48
1
60
0
100
AcDbLine
10
-78.516223
20
24.892544
30
0
11
-78.6
21
24.996
31
0
39
0
210
0
220
0
230
1
0
LINE
5
56
100
AcDbEntity
8
1
62
256
6
ByLayer
370
-1
48
1
60
0
100
AcDbLine
10
5
20
31.25
30
0
11
0.2
21
31.25
31
0
39
0
210
0
220
0
230
1
0
LINE
5
58
100
AcDbEntity
8
1
62
256
6
ByLayer
370
-1
48
1
60
0
100
AcDbLine
10
0.2
20
-31.25
30
0
11
5
21
-31.25
31
0
39
0
210
0
220
0
230
1
0
LINE
5
59
100
AcDbEntity
8
1
62
256
6
ByLayer
370
-1
48
1
60
0
100
AcDbLine
10
0.2
20
31.25
30
0
11
0
21
31.05
31
0
39
0
210
0
220
0
230
1
0
LINE
5
5A
100
AcDbEntity
8
1
62
256
6
ByLayer
370
-1
48
1
60
0
100
AcDbLine
10
0
20
-31.05
30
0
11
0.2
21
-31.25
31
0
39
0
210
0
220
0
230
1
0
LINE
5
5B
100
AcDbEntity
8
1
62
256
6
ByLayer
370
-1
48
1
60
0
100
AcDbLine
10
110.617615
20
22.372623
30
0
11
38
21
22.685
31
0
39
0
210
0
220
0
230
1
0
LINE
5
5C
100
AcDbEntity
8
1
62
256
6
ByLayer
370
-1
48
1
60
0
100
AcDbLine
10
38
20
22.685
30
0
11
33
21
22.685
31
0
39
0
210
0
220
0
230
1
0
LINE
5
5D
100
AcDbEntity
8
1
62
256
6
ByLayer
370
-1
48
1
60
0
100
AcDbLine
10
33
20
-22.685
30
0
11
38
21
-22.685
31
0
39
0
210
0
220
0
230
1
0
LINE
5
5E
100
AcDbEntity
8
1
62
256
6
ByLayer
370
-1
48
1
60
0
100
AcDbLine
10
38
20
-22.685
30
0
11
101.675644
21
-22.411088
31
0
39
0
210
0
220
0
230
1
0
LINE
5
5F
100
AcDbEntity
8
SK4
62
256
6
ByLayer
370
-1
48
0.05
60
0
100
AcDbLine
10
222
20
0
30
0
11
-80
21
0
31
0
39
0
210
0
220
0
230
1
0
LINE
5
61
100
AcDbEntity
8
4
62
256
6
ByLayer
370
-1
48
0.05
60
0
100
AcDbLine
10
222
20
0
30
0
11
0
21
0
31
0
39
0
210
0
220
0
230
1
0
LINE
5
63
100
AcDbEntity
8
1
62
256
6
ByLayer
370
-1
48
1
60
0
100
AcDbLine
10
220.256321
20
-11.043552
30
0
11
218.477846
21
-10.124756
31
0
39
0
210
0
220
0
230
1
0
LINE
5
64
100
AcDbEntity
8
1
62
256
6
ByLayer
370
-1
48
1
60
0
100
AcDbLine
10
38
20
22.685
30
0
11
38
21
10.976068
31
0
39
0
210
0
220
0
230
1
0
LINE
5
65
100
AcDbEntity
8
1
62
256
6
ByLayer
370
-1
48
1
60
0
100
AcDbLine
10
33
20
22.685
30
0
11
33
21
12.449697
31
0
39
0
210
0
220
0
230
1
0
LINE
5
66
100
AcDbEntity
8
1
62
256
6
ByLayer
370
-1
48
1
60
0
100
AcDbLine
10
219.888896
20
-22.264027
30
0
11
220.749407
21
-12.56787
31
0
39
0
210
0
220
0
230
1
0
LINE
5
67
100
AcDbEntity
8
1
62
256
6
ByLayer
370
-1
48
1
60
0
100
AcDbLine
10
199.351263
20
8.397853
30
0
11
199.281415
21
8.397853
31
0
39
0
210
0
220
0
230
1
0
LINE
5
68
100
AcDbEntity
8
1
62
256
6
ByLayer
370
-1
48
1
60
0
100
AcDbLine
10
202.178586
20
22.280053
30
0
11
202.178586
21
14.2
31
0
39
0
210
0
220
0
230
1
0
LINE
5
69
100
AcDbEntity
8
1
62
256
6
ByLayer
370
-1
48
1
60
0
100
AcDbLine
10
205.895712
20
14.68063
30
0
11
205.911008
21
14.68063
31
0
39
0
210
0
220
0
230
1
0
LINE
5
6A
100
AcDbEntity
8
1
62
256
6
ByLayer
370
-1
48
1
60
0
100
AcDbLine
10
205.22771
20
-22.264027
30
0
11
219.888896
21
-22.264027
31
0
39
0
210
0
220
0
230
1
0
LINE
5
6B
100
AcDbEntity
8
1
62
256
6
ByLayer
370
-1
48
1
60
0
100
AcDbLine
10
219.636663
20
0.75142
30
0
11
220.256321
21
-11.043552
31
0
39
0
210
0
220
0
230
1
0
LINE
5
6C
100
AcDbEntity
8
1
62
256
6
ByLayer
370
-1
48
1
60
0
100
AcDbLine
10
217.473665
20
2.16201
30
0
11
219.868007
21
7.326481
31
0
39
0
210
0
220
0
230
1
0
LINE
5
6D
100
AcDbEntity
8
1
62
256
6
ByLayer
370
-1
48
1
60
0
100
AcDbLine
10
219.858071
20
1.993878
30
0
11
220.564103
21
7.612745
31
0
39
0
210
0
220
0
230
1
0
LINE
5
6E
100
AcDbEntity
8
1
62
256
6
ByLayer
370
-1
48
1
60
0
100
AcDbLine
10
38
20
-22.685
30
0
11
38
21
-16.059006
31
0
39
0
210
0
220
0
230
1
0
LINE
5
6F
100
AcDbEntity
8
1
62
256
6
ByLayer
370
-1
48
1
60
0
100
AcDbLine
10
196.72768
20
9.515752
30
0
11
199.351263
21
8.397853
31
0
39
0
210
0
220
0
230
1
0
LINE
5
70
100
AcDbEntity
8
1
62
256
6
ByLayer
370
-1
48
1
60
0
100
AcDbLine
10
202.070981
20
14.100426
30
0
11
181.66224
21
16.018149
31
0
39
0
210
0
220
0
230
1
0
LINE
5
71
100
AcDbEntity
8
1
62
256
6
ByLayer
370
-1
48
1
60
0
100
AcDbLine
10
204.566138
20
1.395164
30
0
11
206.233374
21
7.130802
31
0
39
0
210
0
220
0
230
1
0
LINE
5
72
100
AcDbEntity
8
1
62
256
6
ByLayer
370
-1
48
1
60
0
100
AcDbLine
10
206.022666
20
22.263119
30
0
11
206.024144
21
22.21678
31
0
39
0
210
0
220
0
230
1
0
LINE
5
73
100
AcDbEntity
8
1
62
256
6
ByLayer
370
-1
48
1
60
0
100
AcDbLine
10
220.186434
20
7.321643
30
0
11
219.868007
21
7.326481
31
0
39
0
210
0
220
0
230
1
0
LINE
5
74
100
AcDbEntity
8
1
62
256
6
ByLayer
370
-1
48
1
60
0
100
AcDbLine
10
219.868007
20
7.326481
30
0
11
219.334535
21
7.355369
31
0
39
0
210
0
220
0
230
1
0
LINE
5
75
100
AcDbEntity
8
1
62
256
6
ByLayer
370
-1
48
1
60
0
100
AcDbLine
10
205.850643
20
13.367287
30
0
11
206.015785
21
8.620181
31
0
39
0
210
0
220
0
230
1
0
LINE
5
76
100
AcDbEntity
8
1
62
256
6
ByLayer
370
-1
48
1
60
0
100
AcDbLine
10
219.744573
20
2.054644
30
0
11
219.758358
21
2.054164
31
0
39
0
210
0
220
0
230
1
0
LINE
5
77
100
AcDbEntity
8
1
62
256
6
ByLayer
370
-1
48
1
60
0
100
AcDbLine
10
219.701341
20
1.951516
30
0
11
219.839846
21
1.946691
31
0
39
0
210
0
220
0
230
1
0
LINE
5
78
100
AcDbEntity
8
1
62
256
6
ByLayer
370
-1
48
1
60
0
100
AcDbLine
10
219.646497
20
1.315328
30
0
11
219.636663
21
0.75142
31
0
39
0
210
0
220
0
230
1
0
LINE
5
79
100
AcDbEntity
8
1
62
256
6
ByLayer
370
-1
48
1
60
0
100
AcDbLine
10
5
20
31.25
30
0
11
5
21
-31.25
31
0
39
0
210
0
220
0
230
1
0
LINE
5
7A
100
AcDbEntity
8
1
62
256
6
ByLayer
370
-1
48
1
60
0
100
AcDbLine
10
205.895712
20
14.68063
30
0
11
205.652941
21
22.294138
31
0
39
0
210
0
220
0
230
1
0
LINE
5
7B
100
AcDbEntity
8
1
62
256
6
ByLayer
370
-1
48
1
60
0
100
AcDbLine
10
0.2
20
31.25
30
0
11
0.2
21
-31.25
31
0
39
0
210
0
220
0
230
1
0
LINE
5
7C
100
AcDbEntity
8
1
62
256
6
ByLayer
370
-1
48
1
60
0
100
AcDbLine
10
202.178586
20
14.2
30
0
11
203.113211
21
14.2
31
0
39
0
210
0
220
0
230
1
0
LINE
5
7D
100
AcDbEntity
8
1
62
256
6
ByLayer
370
-1
48
1
60
0
100
AcDbLine
10
205.658446
20
8.620181
30
0
11
206.015785
21
8.620181
31
0
39
0
210
0
220
0
230
1
0
LINE
5
7E
100
AcDbEntity
8
1
62
256
6
ByLayer
370
-1
48
1
60
0
100
AcDbLine
10
219.636663
20
0.75142
30
0
11
217.467857
21
1.871869
31
0
39
0
210
0
220
0
230
1
0
LINE
5
7F
100
AcDbEntity
8
1
62
256
6
ByLayer
370
-1
48
1
60
0
100
AcDbLine
10
208.770285
20
6.985048
30
0
11
219.334535
21
7.355369
31
0
39
0
210
0
220
0
230
1
0
LINE
5
80
100
AcDbEntity
8
1
62
256
6
ByLayer
370
-1
48
1
60
0
100
AcDbLine
10
199.732383
20
9.134257
30
0
11
195.295171
21
11.024936
31
0
39
0
210
0
220
0
230
1
0
LINE
5
81
100
AcDbEntity
8
1
62
256
6
ByLayer
370
-1
48
1
60
0
100
AcDbLine
10
220.256321
20
-11.043552
30
0
11
220.209344
21
-11.572884
31
0
39
0
210
0
220
0
230
1
0
LINE
5
82
100
AcDbEntity
8
1
62
256
6
ByLayer
370
-1
48
1
60
0
100
AcDbLine
10
220.232352
20
-12.469603
30
0
11
220.749407
21
-12.56787
31
0
39
0
210
0
220
0
230
1
0
LINE
5
83
100
AcDbEntity
8
1
62
256
6
ByLayer
370
-1
48
1
60
0
100
AcDbLine
10
127.5
20
21.824006
30
0
11
127.5
21
-12.646699
31
0
39
0
210
0
220
0
230
1
0
LINE
5
84
100
AcDbEntity
8
1
62
256
6
ByLayer
370
-1
48
1
60
0
100
AcDbLine
10
205.668387
20
22.289443
30
0
11
205.911008
21
14.68063
31
0
39
0
210
0
220
0
230
1
0
LINE
5
85
100
AcDbEntity
8
1
62
256
6
ByLayer
370
-1
48
1
60
0
100
AcDbLine
10
219.839846
20
1.946691
30
0
11
219.858071
21
1.993878
31
0
39
0
210
0
220
0
230
1
0
LINE
5
86
100
AcDbEntity
8
1
62
256
6
ByLayer
370
-1
48
1
60
0
100
AcDbLine
10
203.113211
20
22.287934
30
0
11
203.113211
21
14.2
31
0
39
0
210
0
220
0
230
1
0
LINE
5
87
100
AcDbEntity
8
1
62
256
6
ByLayer
370
-1
48
1
60
0
100
AcDbLine
10
219.758358
20
2.054164
30
0
11
219.858071
21
1.993878
31
0
39
0
210
0
220
0
230
1
0
LINE
5
88
100
AcDbEntity
8
1
62
256
6
ByLayer
370
-1
48
1
60
0
100
AcDbLine
10
219.334535
20
7.355369
30
0
11
219.545265
21
7.355369
31
0
39
0
210
0
220
0
230
1
0
LINE
5
89
100
AcDbEntity
8
1
62
256
6
ByLayer
370
-1
48
1
60
0
100
AcDbLine
10
206.116388
20
14.877234
30
0
11
206.145738
21
14.877234
31
0
39
0
210
0
220
0
230
1
0
LINE
5
8A
100
AcDbEntity
8
1
62
256
6
ByLayer
370
-1
48
1
60
0
100
AcDbLine
10
198.097318
20
4.795142
30
0
11
197.486092
21
2.692399
31
0
39
0
210
0
220
0
230
1
0
LINE
5
8B
100
AcDbEntity
8
1
62
256
6
ByLayer
370
-1
48
1
60
0
100
AcDbLine
10
205.493304
20
13.367287
30
0
11
205.658446
21
8.620181
31
0
39
0
210
0
220
0
230
1
0
LINE
5
8C
100
AcDbEntity
8
1
62
256
6
ByLayer
370
-1
48
1
60
0
100
AcDbLine
10
0
20
31.05
30
0
11
0
21
-31.05
31
0
39
0
210
0
220
0
230
1
0
LINE
5
8D
100
AcDbEntity
8
1
62
256
6
ByLayer
370
-1
48
1
60
0
100
AcDbLine
10
33
20
-22.685
30
0
11
33
21
-15.032329
31
0
39
0
210
0
220
0
230
1
0
LINE
5
8E
100
AcDbEntity
8
1
62
256
6
ByLayer
370
-1
48
1
60
0
100
AcDbLine
10
206.226006
20
7.14044
30
0
11
206.271294
21
7.14044
31
0
39
0
210
0
220
0
230
1
0
LINE
5
8F
100
AcDbEntity
8
1
62
256
6
ByLayer
370
-1
48
1
60
0
100
AcDbLine
10
219.545339
20
7.355369
30
0
11
220.186434
21
7.321643
31
0
39
0
210
0
220
0
230
1
0
LINE
5
90
100
AcDbEntity
8
1
62
256
6
ByLayer
370
-1
48
1
60
0
100
AcDbLine
10
205.493304
20
13.367287
30
0
11
205.850643
21
13.367287
31
0
39
0
210
0
220
0
230
1
0
LINE
5
91
100
AcDbEntity
8
1
62
256
6
ByLayer
370
-1
48
1
60
0
100
AcDbLine
10
220.428022
20
0.719869
30
0
11
220.896876
21
-0.565158
31
0
39
0
210
0
220
0
230
1
0
LINE
5
92
100
AcDbEntity
8
1
62
256
6
ByLayer
370
-1
48
1
60
0
100
AcDbLine
10
221.999513
20
-8.479657
30
0
11
221.741822
21
-8.324192
31
0
39
0
210
0
220
0
230
1
0
LINE
5
93
100
AcDbEntity
8
1
62
256
6
ByLayer
370
-1
48
1
60
0
100
AcDbLine
10
221.019175
20
-8.152529
30
0
11
220.951839
21
-10.076082
31
0
39
0
210
0
220
0
230
1
0
LINE
5
94
100
AcDbEntity
8
1
62
256
6
ByLayer
370
-1
48
1
60
0
100
AcDbLine
10
220.998964
20
-0.894901
30
0
11
221.248628
21
-0.987385
31
0
39
0
210
0
220
0
230
1
0
LINE
5
95
100
AcDbEntity
8
1
62
256
6
ByLayer
370
-1
48
1
60
0
100
AcDbLine
10
221.528525
20
-6.315132
30
0
11
221.271031
21
-6.182105
31
0
39
0
210
0
220
0
230
1
0
LINE
5
96
100
AcDbEntity
8
1
62
256
6
ByLayer
370
-1
48
1
60
0
100
AcDbLine
10
220.230515
20
-11.334354
30
0
11
220.420906
21
-11.968947
31
0
39
0
210
0
220
0
230
1
0
LINE
5
97
100
AcDbEntity
8
1
62
256
6
ByLayer
370
-1
48
1
60
0
100
AcDbLine
10
220.234123
20
1.454931
30
0
11
220.355464
21
1.524305
31
0
39
0
210
0
220
0
230
1
0
LINE
5
98
100
AcDbEntity
8
1
62
256
6
ByLayer
370
-1
48
1
60
0
100
AcDbLine
10
220.217396
20
-0.665378
30
0
11
220.896876
21
-0.565158
31
0
39
0
210
0
220
0
230
1
0
LINE
5
99
100
AcDbEntity
8
1
62
256
6
ByLayer
370
-1
48
1
60
0
100
AcDbLine
10
220.281276
20
-0.978594
30
0
11
221.003373
21
-1.087332
31
0
39
0
210
0
220
0
230
1
0
LINE
5
9A
100
AcDbEntity
8
1
62
256
6
ByLayer
370
-1
48
1
60
0
100
AcDbLine
10
220.420906
20
-11.968947
30
0
11
220.183179
21
-12.055261
31
0
39
0
210
0
220
0
230
1
0
LINE
5
9B
100
AcDbEntity
8
1
62
256
6
ByLayer
370
-1
48
1
60
0
100
AcDbLine
10
221.733037
20
-11.102705
30
0
11
221.900049
21
-11.320983
31
0
39
0
210
0
220
0
230
1
0
LINE
5
9C
100
AcDbEntity
8
1
62
256
6
ByLayer
370
-1
48
1
60
0
100
AcDbLine
10
220.88846
20
-7.482596
30
0
11
221.548886
21
-7.335364
31
0
39
0
210
0
220
0
230
1
0
LINE
5
9D
100
AcDbEntity
8
1
62
256
6
ByLayer
370
-1
48
1
60
0
100
AcDbLine
10
221.20714
20
-11.824777
30
0
11
221.374153
21
-12.043054
31
0
39
0
210
0
220
0
230
1
0
LINE
5
9E
100
AcDbEntity
8
1
62
256
6
ByLayer
370
-1
48
1
60
0
100
AcDbLine
10
220.548934
20
-6.073368
30
0
11
220.281276
21
-0.978594
31
0
39
0
210
0
220
0
230
1
0
LINE
5
9F
100
AcDbEntity
8
1
62
256
6
ByLayer
370
-1
48
1
60
0
100
AcDbLine
10
219.748542
20
0.619649
30
0
11
220.217396
21
-0.665378
31
0
39
0
210
0
220
0
230
1
0
LINE
5
A0
100
AcDbEntity
8
1
62
256
6
ByLayer
370
-1
48
1
60
0
100
AcDbLine
10
219.981687
20
-0.994257
30
0
11
220.249345
21
-6.08903
31
0
39
0
210
0
220
0
230
1
0
LINE
5
A1
100
AcDbEntity
8
1
62
256
6
ByLayer
370
-1
48
1
60
0
100
AcDbLine
10
221.528525
20
-6.315132
30
0
11
221.248628
21
-0.987385
31
0
39
0
210
0
220
0
230
1
0
LINE
5
A2
100
AcDbEntity
8
1
62
256
6
ByLayer
370
-1
48
1
60
0
100
AcDbLine
10
221.374153
20
-12.043054
30
0
11
220.221291
21
-12.461639
31
0
39
0
210
0
220
0
230
1
0
LINE
5
A3
100
AcDbEntity
8
1
62
256
6
ByLayer
370
-1
48
1
60
0
100
AcDbLine
10
220.969495
20
-0.750412
30
0
11
221.219159
21
-0.842896
31
0
39
0
210
0
220
0
230
1
0
LINE
5
A4
100
AcDbEntity
8
1
62
256
6
ByLayer
370
-1
48
1
60
0
100
AcDbLine
10
221.019175
20
-8.152529
30
0
11
221.741822
21
-8.324192
31
0
39
0
210
0
220
0
230
1
0
LINE
5
A5
100
AcDbEntity
8
1
62
256
6
ByLayer
370
-1
48
1
60
0
100
AcDbLine
10
221.999513
20
-8.479657
30
0
11
221.900049
21
-11.320983
31
0
39
0
210
0
220
0
230
1
0
LINE
5
A6
100
AcDbEntity
8
1
62
256
6
ByLayer
370
-1
48
1
60
0
100
AcDbLine
10
219.935488
20
-0.767734
30
0
11
219.679633
21
-0.066491
31
0
39
0
210
0
220
0
230
1
0
LINE
5
A7
100
AcDbEntity
8
1
62
256
6
ByLayer
370
-1
48
1
60
0
100
AcDbLine
10
221.741822
20
-8.324192
30
0
11
221.674486
21
-10.247744
31
0
39
0
210
0
220
0
230
1
0
LINE
5
A8
100
AcDbEntity
8
1
62
256
6
ByLayer
370
-1
48
1
60
0
100
AcDbLine
10
221.003373
20
-1.087332
30
0
11
221.271031
21
-6.182105
31
0
39
0
210
0
220
0
230
1
0
LINE
5
A9
100
AcDbEntity
8
1
62
256
6
ByLayer
370
-1
48
1
60
0
100
AcDbLine
10
219.748542
20
0.619649
30
0
11
220.428022
21
0.719869
31
0
39
0
210
0
220
0
230
1
0
LINE
5
AA
100
AcDbEntity
8
1
62
256
6
ByLayer
370
-1
48
1
60
0
100
AcDbLine
10
220.951839
20
-10.076082
30
0
11
221.674486
21
-10.247744
31
0
39
0
210
0
220
0
230
1
0
LINE
5
AB
100
AcDbEntity
8
1
62
256
6
ByLayer
370
-1
48
1
60
0
100
AcDbLine
10
220.355464
20
1.524305
30
0
11
221.219159
21
-0.842896
31
0
39
0
210
0
220
0
230
1
0
LINE
5
AC
100
AcDbEntity
8
1
62
256
6
ByLayer
370
-1
48
1
60
0
100
AcDbLine
10
220.548934
20
-6.073368
30
0
11
221.271031
21
-6.182105
31
0
39
0
210
0
220
0
230
1
0
LINE
5
AD
100
AcDbEntity
8
1
62
256
6
ByLayer
370
-1
48
1
60
0
100
AcDbLine
10
221.784389
20
-7.377114
30
0
11
221.548886
21
-7.335364
31
0
39
0
210
0
220
0
230
1
0
LINE
5
AE
100
AcDbEntity
8
1
62
256
6
ByLayer
370
-1
48
1
60
0
100
AcDbLine
10
220.652021
20
-10.065637
30
0
11
220.719357
21
-8.142085
31
0
39
0
210
0
220
0
230
1
0
LINE
5
AF
100
AcDbEntity
8
1
62
256
6
ByLayer
370
-1
48
1
60
0
100
AcDbLine
10
209.447864
20
19.630716
30
0
11
209.605012
21
19.048766
31
0
39
0
210
0
220
0
230
1
0
LINE
5
B0
100
AcDbEntity
8
1
62
256
6
ByLayer
370
-1
48
1
60
0
100
AcDbLine
10
220.802165
20
7.621126
30
0
11
208.45666
21
7.188365
31
0
39
0
210
0
220
0
230
1
0
LINE
5
B1
100
AcDbEntity
8
1
62
256
6
ByLayer
370
-1
48
1
60
0
100
AcDbLine
10
207.177478
20
20.551447
30
0
11
207.57208
21
9.208362
31
0
39
0
210
0
220
0
230
1
0
LINE
5
B2
100
AcDbEntity
8
1
62
256
6
ByLayer
370
-1
48
1
60
0
100
AcDbLine
10
210.400381
20
11.728761
30
0
11
210.535108
21
11.87379
31
0
39
0
210
0
220
0
230
1
0
LINE
5
B3
100
AcDbEntity
8
1
62
256
6
ByLayer
370
-1
48
1
60
0
100
AcDbLine
10
206.048628
20
20.512148
30
0
11
206.44323
21
9.169062
31
0
39
0
210
0
220
0
230
1
0
LINE
5
B4
100
AcDbEntity
8
1
62
256
6
ByLayer
370
-1
48
1
60
0
100
AcDbLine
10
218.656515
20
13.770126
30
0
11
218.760815
21
10.771953
31
0
39
0
210
0
220
0
230
1
0
LINE
5
B5
100
AcDbEntity
8
1
62
256
6
ByLayer
370
-1
48
1
60
0
100
AcDbLine
10
220.836894
20
9.673262
30
0
11
220.442292
21
21.016348
31
0
39
0
210
0
220
0
230
1
0
LINE
5
B6
100
AcDbEntity
8
1
62
256
6
ByLayer
370
-1
48
1
60
0
100
AcDbLine
10
209.946372
20
18.357314
30
0
11
209.968656
21
18.352898
31
0
39
0
210
0
220
0
230
1
0
LINE
5
B7
100
AcDbEntity
8
1
62
256
6
ByLayer
370
-1
48
1
60
0
100
AcDbLine
10
210.315967
20
18.75517
30
0
11
210.32191
21
18.733163
31
0
39
0
210
0
220
0
230
1
0
LINE
5
B8
100
AcDbEntity
8
1
62
256
6
ByLayer
370
-1
48
1
60
0
100
AcDbLine
10
221.625944
20
9.701279
30
0
11
221.231342
21
21.044365
31
0
39
0
210
0
220
0
230
1
0
LINE
5
B9
100
AcDbEntity
8
1
62
256
6
ByLayer
370
-1
48
1
60
0
100
AcDbLine
10
210.315967
20
18.75517
30
0
11
210.896611
21
18.211643
31
0
39
0
210
0
220
0
230
1
0
LINE
5
BA
100
AcDbEntity
8
1
62
256
6
ByLayer
370
-1
48
1
60
0
100
AcDbLine
10
208.748794
20
18.641535
30
0
11
210.111221
21
17.366198
31
0
39
0
210
0
220
0
230
1
0
LINE
5
BB
100
AcDbEntity
8
1
62
256
6
ByLayer
370
-1
48
1
60
0
100
AcDbLine
10
209.946372
20
18.357314
30
0
11
210.527016
21
17.813786
31
0
39
0
210
0
220
0
230
1
0
LINE
5
BC
100
AcDbEntity
8
1
62
256
6
ByLayer
370
-1
48
1
60
0
100
AcDbLine
10
209.73392
20
11.908702
30
0
11
210.208593
21
12.41967
31
0
39
0
210
0
220
0
230
1
0
LINE
5
BD
100
AcDbEntity
8
1
62
256
6
ByLayer
370
-1
48
1
60
0
100
AcDbLine
10
219.668737
20
9.483316
30
0
11
208.368815
21
9.087207
31
0
39
0
210
0
220
0
230
1
0
LINE
5
BE
100
AcDbEntity
8
1
62
256
6
ByLayer
370
-1
48
1
60
0
100
AcDbLine
10
206.503672
20
20.527807
30
0
11
206.898274
21
9.184722
31
0
39
0
210
0
220
0
230
1
0
LINE
5
BF
100
AcDbEntity
8
1
62
256
6
ByLayer
370
-1
48
1
60
0
100
AcDbLine
10
218.128116
20
20.25043
30
0
11
215.141353
21
20.145732
31
0
39
0
210
0
220
0
230
1
0
LINE
5
C0
100
AcDbEntity
8
1
62
256
6
ByLayer
370
-1
48
1
60
0
100
AcDbLine
10
218.472569
20
10.461666
30
0
11
215.485805
21
10.356968
31
0
39
0
210
0
220
0
230
1
0
LINE
5
C1
100
AcDbEntity
8
1
62
256
6
ByLayer
370
-1
48
1
60
0
100
AcDbLine
10
219.745055
20
8.132852
30
0
11
208.445133
21
7.736742
31
0
39
0
210
0
220
0
230
1
0
LINE
5
C2
100
AcDbEntity
8
1
62
256
6
ByLayer
370
-1
48
1
60
0
100
AcDbLine
10
219.270221
20
21.410825
30
0
11
207.970299
21
21.014716
31
0
39
0
210
0
220
0
230
1
0
LINE
5
C3
100
AcDbEntity
8
1
62
256
6
ByLayer
370
-1
48
1
60
0
100
AcDbLine
10
209.761644
20
11.489864
30
0
11
210.133215
21
11.142045
31
0
39
0
210
0
220
0
230
1
0
LINE
5
C4
100
AcDbEntity
8
1
62
256
6
ByLayer
370
-1
48
1
60
0
100
AcDbLine
10
221.295151
20
22.097432
30
0
11
221.726266
21
9.704769
31
0
39
0
210
0
220
0
230
1
0
LINE
5
C5
100
AcDbEntity
8
1
62
256
6
ByLayer
370
-1
48
1
60
0
100
AcDbLine
10
209.73392
20
11.908702
30
0
11
209.734335
21
11.908313
31
0
39
0
210
0
220
0
230
1
0
LINE
5
C6
100
AcDbEntity
8
1
62
256
6
ByLayer
370
-1
48
1
60
0
100
AcDbLine
10
209.949979
20
19.934568
30
0
11
211.312406
21
18.659231
31
0
39
0
210
0
220
0
230
1
0
LINE
5
C7
100
AcDbEntity
8
1
62
256
6
ByLayer
370
-1
48
1
60
0
100
AcDbLine
10
219.81286
20
9.63846
30
0
11
219.418258
21
20.981546
31
0
39
0
210
0
220
0
230
1
0
LINE
5
C8
100
AcDbEntity
8
1
62
256
6
ByLayer
370
-1
48
1
60
0
100
AcDbLine
10
221.187525
20
9.685619
30
0
11
220.792923
21
21.028705
31
0
39
0
210
0
220
0
230
1
0
LINE
5
C9
100
AcDbEntity
8
1
62
256
6
ByLayer
370
-1
48
1
60
0
100
AcDbLine
10
218.551853
20
16.778699
30
0
11
218.447553
21
19.776872
31
0
39
0
210
0
220
0
230
1
0
LINE
5
CA
100
AcDbEntity
8
1
62
256
6
ByLayer
370
-1
48
1
60
0
100
AcDbLine
10
209.015727
20
19.165536
30
0
11
209.605012
21
19.048766
31
0
39
0
210
0
220
0
230
1
0
LINE
5
CB
100
AcDbEntity
8
1
62
256
6
ByLayer
370
-1
48
1
60
0
100
AcDbLine
10
220.1128
20
9.648399
30
0
11
219.718198
21
20.991485
31
0
39
0
210
0
220
0
230
1
0
LINE
5
CC
100
AcDbEntity
8
1
62
256
6
ByLayer
370
-1
48
1
60
0
100
AcDbLine
10
219.246064
20
22.476684
30
0
11
207.946142
21
22.080575
31
0
39
0
210
0
220
0
230
1
0
LINE
5
CD
100
AcDbEntity
8
1
62
256
6
ByLayer
370
-1
48
1
60
0
100
AcDbLine
10
215.488292
20
10.172757
30
0
11
218.475055
21
10.277455
31
0
39
0
210
0
220
0
230
1
0
LINE
5
CE
100
AcDbEntity
8
1
62
256
6
ByLayer
370
-1
48
1
60
0
100
AcDbLine
10
219.263496
20
21.154881
30
0
11
207.963574
21
20.758772
31
0
39
0
210
0
220
0
230
1
0
LINE
5
CF
100
AcDbEntity
8
1
62
256
6
ByLayer
370
-1
48
1
60
0
100
AcDbLine
10
218.138447
20
20.066219
30
0
11
215.151683
21
19.961521
31
0
39
0
210
0
220
0
230
1
0
LINE
5
D0
100
AcDbEntity
8
1
62
256
6
ByLayer
370
-1
48
1
60
0
100
AcDbLine
10
219.222151
20
22.925123
30
0
11
207.922229
21
22.529014
31
0
39
0
210
0
220
0
230
1
0
LINE
5
D1
100
AcDbEntity
8
1
62
256
6
ByLayer
370
-1
48
1
60
0
100
AcDbLine
10
207.819659
20
20.574967
30
0
11
208.214261
21
9.231881
31
0
39
0
210
0
220
0
230
1
0
LINE
5
D2
100
AcDbEntity
8
1
62
256
6
ByLayer
370
-1
48
1
60
0
100
AcDbLine
10
206.858079
20
20.540165
30
0
11
207.252681
21
9.197079
31
0
39
0
210
0
220
0
230
1
0
LINE
5
D3
100
AcDbEntity
8
1
62
256
6
ByLayer
370
-1
48
1
60
0
100
AcDbLine
10
206.873932
20
22.592301
30
0
11
219.219437
21
23.025062
31
0
39
0
210
0
220
0
230
1
0
LINE
5
D4
100
AcDbEntity
8
1
62
256
6
ByLayer
370
-1
48
1
60
0
100
AcDbLine
10
207.791895
20
20.573966
30
0
11
208.186497
21
9.23088
31
0
39
0
210
0
220
0
230
1
0
LINE
5
D5
100
AcDbEntity
8
1
62
256
6
ByLayer
370
-1
48
1
60
0
100
AcDbLine
10
219.8422
20
9.639461
30
0
11
219.447598
21
20.982547
31
0
39
0
210
0
220
0
230
1
0
LINE
5
D6
100
AcDbEntity
8
1
62
256
6
ByLayer
370
-1
48
1
60
0
100
AcDbLine
10
209.979319
20
11.687283
30
0
11
209.965723
21
11.70001
31
0
39
0
210
0
220
0
230
1
0
LINE
5
D7
100
AcDbEntity
8
1
62
256
6
ByLayer
370
-1
48
1
60
0
100
AcDbLine
10
220.512564
20
9.661979
30
0
11
220.117962
21
21.005065
31
0
39
0
210
0
220
0
230
1
0
LINE
5
D8
100
AcDbEntity
8
1
62
256
6
ByLayer
370
-1
48
1
60
0
100
AcDbLine
10
208.452421
20
7.288304
30
0
11
219.752343
21
7.684413
31
0
39
0
210
0
220
0
230
1
0
LINE
5
D9
100
AcDbEntity
8
1
62
256
6
ByLayer
370
-1
48
1
60
0
100
AcDbLine
10
219.260262
20
22.122819
30
0
11
207.960339
21
21.72671
31
0
39
0
210
0
220
0
230
1
0
LINE
5
DA
100
AcDbEntity
8
1
62
256
6
ByLayer
370
-1
48
1
60
0
100
AcDbLine
10
219.720928
20
8.809811
30
0
11
208.421006
21
8.413702
31
0
39
0
210
0
220
0
230
1
0
LINE
5
DB
100
AcDbEntity
8
1
62
256
6
ByLayer
370
-1
48
1
60
0
100
AcDbLine
10
219.734633
20
8.486717
30
0
11
208.434711
21
8.090608
31
0
39
0
210
0
220
0
230
1
0
LINE
5
DC
100
AcDbEntity
8
1
62
256
6
ByLayer
370
-1
48
1
60
0
100
AcDbLine
10
218.940403
20
10.778386
30
0
11
218.836103
21
13.776558
31
0
39
0
210
0
220
0
230
1
0
LINE
5
DD
100
AcDbEntity
8
1
62
256
6
ByLayer
370
-1
48
1
60
0
100
AcDbLine
10
219.670522
20
9.454655
30
0
11
208.3706
21
9.058546
31
0
39
0
210
0
220
0
230
1
0
LINE
5
DE
100
AcDbEntity
8
1
62
256
6
ByLayer
370
-1
48
1
60
0
100
AcDbLine
10
207.552554
20
20.565028
30
0
11
207.947156
21
9.221942
31
0
39
0
210
0
220
0
230
1
0
LINE
5
DF
100
AcDbEntity
8
1
62
256
6
ByLayer
370
-1
48
1
60
0
100
AcDbLine
10
219.269036
20
21.799725
30
0
11
207.969114
21
21.403616
31
0
39
0
210
0
220
0
230
1
0
LINE
5
E0
100
AcDbEntity
8
1
62
256
6
ByLayer
370
-1
48
1
60
0
100
AcDbLine
10
218.731441
20
16.785132
30
0
11
218.627141
21
19.783305
31
0
39
0
210
0
220
0
230
1
0
LINE
5
E1
100
AcDbEntity
8
1
62
256
6
ByLayer
370
-1
48
1
60
0
100
AcDbLine
10
206.380946
20
8.115995
30
0
11
205.949831
21
20.508658
31
0
39
0
210
0
220
0
230
1
0
LINE
5
E2
100
AcDbEntity
8
1
62
256
6
ByLayer
370
-1
48
1
60
0
100
AcDbLine
10
210.400381
20
11.728761
30
0
11
210.54901
21
11.589633
31
0
39
0
210
0
220
0
230
1
0
LINE
5
E3
100
AcDbEntity
8
1
62
256
6
ByLayer
370
-1
48
1
60
0
100
AcDbLine
10
219.695055
20
9.198711
30
0
11
208.395133
21
8.802601
31
0
39
0
210
0
220
0
230
1
0
LINE
5
E4
100
AcDbEntity
8
1
62
256
6
ByLayer
370
-1
48
1
60
0
100
AcDbLine
10
219.263705
20
21.12622
30
0
11
207.963783
21
20.73011
31
0
39
0
210
0
220
0
230
1
0
LINE
5
E5
100
AcDbEntity
8
SK1
62
256
6
ByLayer
370
-1
48
1
60
0
100
AcDbLine
10
-78.6
20
-10.670483
30
0
11
-79
21
-10.670483
31
0
39
0
210
0
220
0
230
1
0
LINE
5
E6
100
AcDbEntity
8
SK1
62
256
6
ByLayer
370
-1
48
1
60
0
100
AcDbLine
10
-76.6
20
10.670483
30
0
11
-6.5
21
10.670483
31
0
39
0
210
0
220
0
230
1
0
LINE
5
E7
100
AcDbEntity
8
SK1
62
256
6
ByLayer
370
-1
48
1
60
0
100
AcDbLine
10
-1.552821
20
24.787477
30
0
11
-1.552821
21
-24.787477
31
0
39
0
210
0
220
0
230
1
0
LINE
5
E8
100
AcDbEntity
8
SK1
62
256
6
ByLayer
370
-1
48
1
60
0
100
AcDbLine
10
-76.6
20
10.670483
30
0
11
-76.6
21
24.996
31
0
39
0
210
0
220
0
230
1
0
LINE
5
E9
100
AcDbEntity
8
SK1
62
256
6
ByLayer
370
-1
48
1
60
0
100
AcDbLine
10
-76.6
20
-24.996
30
0
11
-76.6
21
-10.670483
31
0
39
0
210
0
220
0
230
1
0
LINE
5
EA
100
AcDbEntity
8
SK1
62
256
6
ByLayer
370
-1
48
1
60
0
100
AcDbLine
10
-78.516223
20
-10.425829
30
0
11
-78.516223
21
-24.892544
31
0
39
0
210
0
220
0
230
1
0
LINE
5
EB
100
AcDbEntity
8
SK1
62
256
6
ByLayer
370
-1
48
1
60
0
100
AcDbLine
10
-78.516223
20
24.892544
30
0
11
-78.516223
21
10.425829
31
0
39
0
210
0
220
0
230
1
0
LINE
5
EC
100
AcDbEntity
8
SK1
62
256
6
ByLayer
370
-1
48
1
60
0
100
AcDbLine
10
-79
20
10.670483
30
0
11
-78.6
21
10.670483
31
0
39
0
210
0
220
0
230
1
0
LINE
5
ED
100
AcDbEntity
8
SK1
62
256
6
ByLayer
370
-1
48
1
60
0
100
AcDbLine
10
-78.6
20
-24.996
30
0
11
-78.6
21
-10.670483
31
0
39
0
210
0
220
0
230
1
0
LINE
5
EE
100
AcDbEntity
8
SK1
62
256
6
ByLayer
370
-1
48
1
60
0
100
AcDbLine
10
-78.6
20
10.670483
30
0
11
-78.6
21
24.996
31
0
39
0
210
0
220
0
230
1
0
LINE
5
EF
100
AcDbEntity
8
SK1
62
256
6
ByLayer
370
-1
48
1
60
0
100
AcDbLine
10
-80
20
8.054018
30
0
11
-80
21
-8.054018
31
0
39
0
210
0
220
0
230
1
0
LINE
5
F0
100
AcDbEntity
8
SK1
62
256
6
ByLayer
370
-1
48
1
60
0
100
AcDbLine
10
-79
20
-10.670483
30
0
11
-79
21
-24.996
31
0
39
0
210
0
220
0
230
1
0
LINE
5
F1
100
AcDbEntity
8
SK1
62
256
6
ByLayer
370
-1
48
1
60
0
100
AcDbLine
10
-79
20
24.996
30
0
11
-79
21
10.670483
31
0
39
0
210
0
220
0
230
1
0
LINE
5
F2
100
AcDbEntity
8
SK1
62
256
6
ByLayer
370
-1
48
1
60
0
100
AcDbLine
10
-0.15
20
24.75
30
0
11
-0.15
21
-24.75
31
0
39
0
210
0
220
0
230
1
0
LINE
5
F3
100
AcDbEntity
8
SK1
62
256
6
ByLayer
370
-1
48
1
60
0
100
AcDbLine
10
-77.633814
20
-9.806751
30
0
11
-77.633814
21
-24.639667
31
0
39
0
210
0
220
0
230
1
0
LINE
5
F4
100
AcDbEntity
8
SK1
62
256
6
ByLayer
370
-1
48
1
60
0
100
AcDbLine
10
-77.633814
20
24.639667
30
0
11
-77.633814
21
9.806751
31
0
39
0
210
0
220
0
230
1
0
LINE
5
F5
100
AcDbEntity
8
SK1
62
256
6
ByLayer
370
-1
48
1
60
0
100
AcDbLine
10
-6.5
20
-10.670483
30
0
11
-76.6
21
-10.670483
31
0
39
0
210
0
220
0
230
1
0
LINE
5
F6
100
AcDbEntity
8
SK1
62
256
6
ByLayer
370
-1
48
1
60
0
100
AcDbLine
10
-6.5
20
10.670483
30
0
11
-6.5
21
-10.670483
31
0
39
0
210
0
220
0
230
1
0
LINE
5
F7
100
AcDbEntity
8
SK1
62
256
6
ByLayer
370
-1
48
1
60
0
100
AcDbLine
10
-1.383773
20
24.75
30
0
11
-1.383773
21
-24.75
31
0
39
0
210
0
220
0
230
1
0
LINE
5
F8
100
AcDbEntity
8
SK1
62
256
6
ByLayer
370
-1
48
1
60
0
100
AcDbLine
10
-80
20
-8.054018
30
0
11
-80
21
-23.996
31
0
39
0
210
0
220
0
230
1
0
LINE
5
F9
100
AcDbEntity
8
SK1
62
256
6
ByLayer
370
-1
48
1
60
0
100
AcDbLine
10
-80
20
23.996
30
0
11
-80
21
8.054018
31
0
39
0
210
0
220
0
230
1
0
LINE
5
FA
100
AcDbEntity
8
SK1
62
256
6
ByLayer
370
-1
48
1
60
0
100
AcDbLine
10
-2
20
-24.996
30
0
11
-2
21
24.996
31
0
39
0
210
0
220
0
230
1
0
MTEXT
5
28A
100
AcDbEntity
8
SK6
62
256
6
ByLayer
370
-1
48
1
60
0
100
AcDbMText
10
0.79375
20
-80.79375
30
0
210
0
220
0
230
1
1
\W00.751;\fsimplex.shx,bigfont.shx;880-D4600L50-04 
40
3.175
41
0
44
1.084337
50
0
71
7
72
5
7
DEFAULT
0
DIMENSION
5
2BA
100
AcDbEntity
8
SK2
62
256
6
ByLayer
370
-3
48
1
60
0
100
AcDbDimension
2
DimnDraft3D1
10
222
20
-70.11955
30
0
11
71
21
-70.11955
31
0
70
32
71
5
72
1
41
1
210
0
220
0
230
1
3
Standard
100
AcDbAlignedDimension
13
-80
23
-26.5875
33
0
14
222
24
-24.5875
34
0
50
0
100
AcDbRotatedDimension
1001
ACAD
1000
DSTYLE
1002
{
1070
   279
1070
     0
1070
   172
1070
     1
1070
   173
1070
     1
1070
   340
1005
28B
1070
   271
1070
     1
1070
   272
1070
     2
1070
    77
1070
     1
1070
    73
1070
     0
1070
   171
1070
     3
1070
   274
1070
     4
1070
   177
1070
   150
1070
   176
1070
     9
1070
   178
1070
    43
1070
    78
1070
     8
1070
    48
1040
-0.005
1070
    41
1041
4.175
1070
   147
1041
2.25
1070
    42
1041
1.5875
1070
    44
1041
3.175
1070
   140
1041
4.5
1070
   343
1005
0
1070
   344
1005
0
1002
}
0
DIMENSION
5
2C4
100
AcDbEntity
8
SK2
62
256
6
ByLayer
370
-3
48
1
60
0
100
AcDbDimension
2
DimnDraft3D2
10
0
20
-58.1508
30
0
11
-40
21
-58.1508
31
0
70
32
71
5
72
1
41
1
210
0
220
0
230
1
3
Standard
100
AcDbAlignedDimension
13
-80
23
-26.5875
33
0
14
0
24
-32.8375
34
0
50
0
100
AcDbRotatedDimension
1001
ACAD
1000
DSTYLE
1002
{
1070
   279
1070
     0
1070
   172
1070
     1
1070
   173
1070
     1
1070
   340
1005
28B
1070
   271
1070
     1
1070
   272
1070
     2
1070
    77
1070
     1
1070
    73
1070
     0
1070
   171
1070
     3
1070
   274
1070
     4
1070
   177
1070
   150
1070
   176
1070
     9
1070
   178
1070
    43
1070
    78
1070
     8
1070
    48
1040
-0.005
1070
    41
1041
4.175
1070
   147
1041
2.25
1070
    42
1041
1.5875
1070
    44
1041
3.175
1070
   140
1041
4.5
1070
   343
1005
0
1070
   344
1005
0
1002
}
0
DIMENSION
5
2CF
100
AcDbEntity
8
2
62
256
6
ByLayer
370
-3
48
1
60
0
100
AcDbDimension
2
DimnDraft3D3
10
222
20
-58.1508
30
0
11
111
21
-58.1508
31
0
70
32
71
5
72
1
41
1
210
0
220
0
230
1
3
Standard
100
AcDbAlignedDimension
13
0
23
-32.8375
33
0
14
222
24
-24.5875
34
0
50
0
100
AcDbRotatedDimension
1001
ACAD
1000
DSTYLE
1002
{
1070
   279
1070
     0
1070
   172
1070
     1
1070
   173
1070
     1
1070
   340
1005
28B
1070
   271
1070
     1
1070
   272
1070
     2
1070
    77
1070
     1
1070
    73
1070
     0
1070
   171
1070
     3
1070
   274
1070
     4
1070
   177
1070
   150
1070
   176
1070
     9
1070
   178
1070
    43
1070
    78
1070
     8
1070
    48
1040
-0.005
1070
    41
1041
4.175
1070
   147
1041
2.25
1070
    42
1041
1.5875
1070
    44
1041
3.175
1070
   140
1041
4.5
1070
   343
1005
0
1070
   344
1005
0
1002
}
0
DIMENSION
5
2D9
100
AcDbEntity
8
SK2
62
256
6
ByLayer
370
-3
48
1
60
0
100
AcDbDimension
2
DimnDraft3D4
10
222
20
-48.1508
30
0
11
127.5
21
-48.1508
31
0
70
32
71
5
72
1
41
1
210
0
220
0
230
1
3
Standard
100
AcDbAlignedDimension
13
33
23
-11.5875
33
0
14
222
24
-24.5875
34
0
50
0
100
AcDbRotatedDimension
1001
ACAD
1000
DSTYLE
1002
{
1070
   279
1070
     0
1070
   172
1070
     1
1070
   173
1070
     1
1070
   340
1005
28B
1070
   271
1070
     1
1070
   272
1070
     2
1070
    77
1070
     1
1070
    73
1070
     0
1070
   171
1070
     3
1070
   274
1070
     4
1070
   177
1070
   150
1070
   176
1070
     9
1070
   178
1070
    43
1070
    78
1070
     8
1070
    48
1040
-0.005
1070
    41
1041
4.175
1070
   147
1041
2.25
1070
    42
1041
1.5875
1070
    44
1041
3.175
1070
   140
1041
4.5
1070
   343
1005
0
1070
   344
1005
0
1002
}
0
DIMENSION
5
2E4
100
AcDbEntity
8
SK2
62
256
6
ByLayer
370
-3
48
1
60
0
100
AcDbDimension
2
DimnDraft3D5
10
-91.9
20
-25
30
0
11
-92.1
21
4.121053
31
0
70
33
71
5
72
1
41
1
210
0
220
0
230
1
3
Standard
100
AcDbAlignedDimension
13
-81.5875
23
25
33
0
14
-81.5875
24
-25
34
0
1001
ACAD
1000
DSTYLE
1002
{
1070
   279
1070
     0
1070
    74
1070
     0
1070
   173
1070
     1
1070
   340
1005
28B
1070
   271
1070
     2
1070
   272
1070
     2
1070
    77
1070
     1
1070
    73
1070
     0
1070
   171
1070
     3
1070
   274
1070
     4
1070
   177
1070
   150
1070
   176
1070
     9
1070
   178
1070
    43
1070
    78
1070
     8
1070
    48
1040
-0.005
1070
    41
1041
4.175
1070
   147
1041
2.25
1070
    42
1041
1.5875
1070
    44
1041
3.175
1070
   140
1041
4.5
1070
   343
1005
0
1070
   344
1005
0
1002
}
0
DIMENSION
5
2EF
100
AcDbEntity
8
SK2
62
256
6
ByLayer
370
-3
48
1
60
0
100
AcDbDimension
2
DimnDraft3D6
10
-101.9
20
31.25
30
0
11
-102.1
21
1.586842
31
0
70
33
71
5
72
1
41
1
210
0
220
0
230
1
3
Standard
100
AcDbAlignedDimension
13
-1.5875
23
-31.25
33
0
14
-1.5875
24
31.25
34
0
1001
ACAD
1000
DSTYLE
1002
{
1070
   279
1070
     0
1070
    74
1070
     0
1070
   173
1070
     1
1070
   340
1005
28B
1070
   271
1070
     1
1070
   272
1070
     2
1070
    77
1070
     1
1070
    73
1070
     0
1070
   171
1070
     3
1070
   274
1070
     4
1070
   177
1070
   150
1070
   176
1070
     9
1070
   178
1070
    43
1070
    78
1070
     8
1070
    48
1040
-0.005
1070
    41
1041
4.175
1070
   147
1041
2.25
1070
    42
1041
1.5875
1070
    44
1041
3.175
1070
   140
1041
4.5
1070
   343
1005
0
1070
   344
1005
0
1002
}
0
DIMENSION
5
2FA
100
AcDbEntity
8
2
62
256
6
ByLayer
370
-3
48
1
60
0
100
AcDbDimension
2
DimnDraft3D7
10
252.15
20
-23
30
0
11
245.6
21
3.884211
31
0
70
33
71
5
72
1
41
1
210
0
220
0
230
1
3
Standard
100
AcDbAlignedDimension
13
223.5875
23
23
33
0
14
223.5875
24
-23
34
0
1001
ACAD
1000
DSTYLE
1002
{
1070
   279
1070
     0
1070
    74
1070
     0
1070
   173
1070
     1
1070
   340
1005
28B
1070
   271
1070
     2
1070
   272
1070
     2
1070
    77
1070
     1
1070
    73
1070
     0
1070
   171
1070
     3
1070
   274
1070
     4
1070
   177
1070
   150
1070
   176
1070
     9
1070
   178
1070
    43
1070
    78
1070
     8
1070
    48
1040
-0.005
1070
    41
1041
4.175
1070
   147
1041
2.25
1070
    42
1041
1.5875
1070
    44
1041
3.175
1070
   140
1041
4.5
1070
   343
1005
0
1070
   344
1005
0
1002
}
0
ENDSEC
0
SECTION
2
OBJECTS
0
DICTIONARY
5
32b
330
0
100
AcDbDictionary
280
0
281
1
3
ACAD_GROUP
350
32c
3
ACAD_MLINESTYLE
350
32d
0
DICTIONARY
5
32c
330
0
100
AcDbDictionary
280
0
281
1
0
DICTIONARY
5
32d
330
0
100
AcDbDictionary
280
0
281
1
3
Standard
350
18
0
MLINESTYLE
5
18
330
32d
100
AcDbMlineStyle
2
Standard
70
0
3

62
256
51
90
52
90
71
2
49
-0.5
62
256
6
ByLayer
49
0.5
62
256
6
ByLayer
0
RASTERVARIABLES
5
319
330

100
AcDbRasterVariables
90
0
70
1
71
1
72
1
0
ENDSEC
0
EOF
