0
SECTION
2
HEADER
9
$ACADVER
1
AC1015
9
$DWGCODEPAGE
3
ANSI_1252
9
$HANDSEED
5
373
9
$ANGBASE
50
0
9
$ANGDIR
70
0
9
$ATTMODE
70
1
9
$AUNITS
70
0
9
$AUPREC
70
0
9
$CECOLOR
62
256
9
$CELTSCALE
40
1
9
$CELTYPE
6
ByLayer
9
$CELWEIGHT
370
-1
9
$CLAYER
8
0
9
$CMLJUST
70
0
9
$CMLSCALE
40
1
9
$CMLSTYLE
2
Standard
9
$DIMSTYLE
2
Standard
9
$TEXTSIZE
40
0.2
9
$TEXTSTYLE
7
Standard
9
$LUNITS
70
2
9
$LUPREC
70
4
9
$EXTNAMES
290
1
9
$INSUNITS
70
4
9
$LTSCALE
40
1
9
$LWDISPLAY
290
0
9
$PDMODE
70
0
9
$PDSIZE
40
0
9
$PLINEGEN
70
0
0
ENDSEC
0
SECTION
2
CLASSES
0
CLASS
1
RASTERVARIABLES
2
AcDbRasterVariables
3
ISM
90
0
280
0
281
0
0
ENDSEC
0
SECTION
2
TABLES
0
TABLE
2
VPORT
5
369
100
AcDbSymbolTable
0
VPORT
5
1
100
AcDbSymbolTableRecord
100
AcDbViewportTableRecord
2
*Active
70
0
10
0
20
0
11
1
21
1
12
-1
22
1
13
0
23
0
14
0.5
24
0.5
15
10
25
10
16
0
26
0
36
1
17
0
27
0
37
0
0
ENDTAB
0
TABLE
2
LTYPE
5
36a
100
AcDbSymbolTable
0
LTYPE
5
14
100
AcDbSymbolTableRecord
100
AcDbLinetypeTableRecord
70
0
2
ByBlock
3

72
65
73
0
40
0
0
LTYPE
5
15
100
AcDbSymbolTableRecord
100
AcDbLinetypeTableRecord
70
0
2
ByLayer
3

72
65
73
0
40
0
0
LTYPE
5
16
100
AcDbSymbolTableRecord
100
AcDbLinetypeTableRecord
70
0
2
CONTINUOUS
3
Solid line
72
65
73
0
40
0
0
LTYPE
5
3B
100
AcDbSymbolTableRecord
100
AcDbLinetypeTableRecord
70
0
2
DASHED
3
__ __ __ __ __ __ __ __ __
72
65
73
2
40
25.72
49
12.86
74
0
49
-12.86
74
0
0
LTYPE
5
3C
100
AcDbSymbolTableRecord
100
AcDbLinetypeTableRecord
70
0
2
HIDDEN
3
_ _ _ _ _ _ _ _ _ _ _ _ _ _ _
72
65
73
2
40
0.5
49
0.25
74
0
49
-0.25
74
0
0
LTYPE
5
3D
100
AcDbSymbolTableRecord
100
AcDbLinetypeTableRecord
70
0
2
PHANTOM
3
____ _ _ ____ _ _ _____ _ _ ____
72
65
73
6
40
50.5
49
18
74
0
49
-6.5
74
0
49
6.5
74
0
49
-6.5
74
0
49
6.5
74
0
49
-6.5
74
0
0
LTYPE
5
3E
100
AcDbSymbolTableRecord
100
AcDbLinetypeTableRecord
70
0
2
CENTER
3
____ _ ____ _ ____ _ ____
72
65
73
4
40
47.5
49
22
74
0
49
-8.5
74
0
49
8.5
74
0
49
-8.5
74
0
0
LTYPE
5
3F
100
AcDbSymbolTableRecord
100
AcDbLinetypeTableRecord
70
0
2
DOT
3
.........................
72
65
73
2
40
10
49
0
74
0
49
-10
74
0
0
LTYPE
5
40
100
AcDbSymbolTableRecord
100
AcDbLinetypeTableRecord
70
0
2
DASHDOT
3
_._._._._._._._._._._._._._._._.
72
65
73
4
40
70
49
31
74
0
49
-13
74
0
49
13
74
0
49
-13
74
0
0
ENDTAB
0
TABLE
2
LAYER
5
36b
100
AcDbSymbolTable
0
LAYER
5
10
100
AcDbSymbolTableRecord
100
AcDbLayerTableRecord
2
0
70
0
62
7
6
CONTINUOUS
290
1
370
-3
390
0
0
LAYER
5
42
100
AcDbSymbolTableRecord
100
AcDbLayerTableRecord
2
81
70
0
62
-3
6
CONTINUOUS
290
1
370
-3
390
0
0
LAYER
5
44
100
AcDbSymbolTableRecord
100
AcDbLayerTableRecord
2
80
70
0
62
-6
6
CONTINUOUS
290
1
370
-3
390
0
0
LAYER
5
48
100
AcDbSymbolTableRecord
100
AcDbLayerTableRecord
2
1
70
0
62
4
6
CONTINUOUS
290
1
370
-3
390
0
0
LAYER
5
62
100
AcDbSymbolTableRecord
100
AcDbLayerTableRecord
2
4
70
0
62
-2
6
CENTER
290
1
370
-3
390
0
0
LAYER
5
302
100
AcDbSymbolTableRecord
100
AcDbLayerTableRecord
2
2
70
0
62
7
6
CONTINUOUS
290
1
370
-3
390
0
0
LAYER
5
355
100
AcDbSymbolTableRecord
100
AcDbLayerTableRecord
2
SK1
70
0
62
4
6
CONTINUOUS
290
1
370
-3
390
0
0
LAYER
5
356
100
AcDbSymbolTableRecord
100
AcDbLayerTableRecord
2
SK4
70
0
62
2
6
CENTER
290
1
370
-3
390
0
0
LAYER
5
357
100
AcDbSymbolTableRecord
100
AcDbLayerTableRecord
2
SK6
70
0
62
5
6
CONTINUOUS
290
1
370
-3
390
0
0
LAYER
5
358
100
AcDbSymbolTableRecord
100
AcDbLayerTableRecord
2
SK2
70
0
62
7
6
CONTINUOUS
290
1
370
-3
390
0
0
ENDTAB
0
TABLE
2
STYLE
5
36c
100
AcDbSymbolTable
0
STYLE
5
11
100
AcDbSymbolTableRecord
100
AcDbTextStyleTableRecord
2
Standard
3
txt
70
0
71
0
40
0
41
1
42
0
50
0
0
STYLE
5
2C6
100
AcDbSymbolTableRecord
100
AcDbTextStyleTableRecord
2
DEFAULT
3
simplex.shx
70
0
71
0
40
0
41
1
42
0
50
0
0
STYLE
5
2E9
100
AcDbSymbolTableRecord
100
AcDbTextStyleTableRecord
2
DWGDirectTextStyle
3
SIMPLEX
70
0
71
0
40
0
41
1
42
0
50
0
0
ENDTAB
0
TABLE
2
DIMSTYLE
5
36d
100
AcDbSymbolTable
100
AcDbDimStyleTable
0
DIMSTYLE
105
27
100
AcDbSymbolTableRecord
100
AcDbDimStyleTableRecord
2
Standard
70
0
3
<>
41
0.18
42
0.0625
44
0.18
140
0.18
147
0.09
73
0
74
0
77
1
271
2
275
0
278
52
280
0
340
11
0
ENDTAB
0
TABLE
2
VIEW
5
36e
100
AcDbSymbolTable
0
ENDTAB
0
TABLE
2
UCS
5
36f
100
AcDbSymbolTable
0
ENDTAB
0
TABLE
2
APPID
5
370
100
AcDbSymbolTable
0
APPID
5
12
100
AcDbSymbolTableRecord
100
AcDbRegAppTableRecord
2
ACAD
70
0
0
ENDTAB
0
TABLE
2
BLOCK_RECORD
5
371
100
AcDbSymbolTable
0
BLOCK_RECORD
5
1F
100
AcDbSymbolTableRecord
100
AcDbBlockTableRecord
2
*Model_Space
340
0
70
0
0
BLOCK_RECORD
5
1B
100
AcDbSymbolTableRecord
100
AcDbBlockTableRecord
2
*Paper_Space
340
0
70
0
0
BLOCK_RECORD
5
23
100
AcDbSymbolTableRecord
100
AcDbBlockTableRecord
2
*Paper_Space0
340
0
70
0
0
BLOCK_RECORD
5
2EB
100
AcDbSymbolTableRecord
100
AcDbBlockTableRecord
2
DimnDraft3D1
340
0
70
0
0
BLOCK_RECORD
5
2F6
100
AcDbSymbolTableRecord
100
AcDbBlockTableRecord
2
DimnDraft3D2
340
0
70
0
0
BLOCK_RECORD
5
300
100
AcDbSymbolTableRecord
100
AcDbBlockTableRecord
2
DimnDraft3D3
340
0
70
0
0
BLOCK_RECORD
5
30B
100
AcDbSymbolTableRecord
100
AcDbBlockTableRecord
2
DimnDraft3D4
340
0
70
0
0
BLOCK_RECORD
5
315
100
AcDbSymbolTableRecord
100
AcDbBlockTableRecord
2
DimnDraft3D5
340
0
70
0
0
BLOCK_RECORD
5
320
100
AcDbSymbolTableRecord
100
AcDbBlockTableRecord
2
DimnDraft3D6
340
0
70
0
0
BLOCK_RECORD
5
32B
100
AcDbSymbolTableRecord
100
AcDbBlockTableRecord
2
DimnDraft3D7
340
0
70
0
0
ENDTAB
0
ENDSEC
0
SECTION
2
BLOCKS
0
BLOCK
5
20
100
AcDbEntity
8
0
100
AcDbBlockBegin
2
*Model_Space
70
0
10
0
20
0
30
0
3
*Model_Space
0
ENDBLK
5
21
100
AcDbEntity
8
0
100
AcDbBlockEnd
0
BLOCK
5
1C
100
AcDbEntity
8
0
100
AcDbBlockBegin
2
*Paper_Space
70
0
10
0
20
0
30
0
3
*Paper_Space
0
ENDBLK
5
1D
100
AcDbEntity
8
0
100
AcDbBlockEnd
0
BLOCK
5
24
100
AcDbEntity
8
0
100
AcDbBlockBegin
2
*Paper_Space0
70
0
10
0
20
0
30
0
3
*Paper_Space0
0
ENDBLK
5
25
100
AcDbEntity
8
0
100
AcDbBlockEnd
0
BLOCK
5
2F3
100
AcDbEntity
8
0
100
AcDbBlockBegin
2
DimnDraft3D1
70
0
10
0
20
0
30
0
3
DimnDraft3D1
0
MTEXT
5
2EC
100
AcDbEntity
8
SK2
62
256
6
ByLayer
370
-1
48
1
60
0
100
AcDbMText
10
53.344079
20
-67.0258
30
0
210
0
220
0
230
1
1
\W01.000;\fsimplex.shx,bigfont.shx;(282) 
40
4.5
41
0
44
1.084337
50
0
71
7
72
5
7
DEFAULT
0
LINE
5
2EE
100
AcDbEntity
8
SK2
62
256
6
ByLayer
370
-1
48
1
60
0
100
AcDbLine
10
-80
20
-26.5875
30
0
11
-80
21
-73.29455
31
0
39
0
210
0
220
0
230
1
0
LINE
5
2EF
100
AcDbEntity
8
SK2
62
256
6
ByLayer
370
-1
48
1
60
0
100
AcDbLine
10
202
20
-22.5875
30
0
11
202
21
-73.29455
31
0
39
0
210
0
220
0
230
1
0
LINE
5
2F0
100
AcDbEntity
8
SK2
62
256
6
ByLayer
370
-1
48
1
60
0
100
AcDbLine
10
-80
20
-70.11955
30
0
11
202
21
-70.11955
31
0
39
0
210
0
220
0
230
1
0
SOLID
5
2F1
100
AcDbEntity
8
SK2
62
256
6
ByLayer
370
-1
48
1
60
0
100
AcDbTrace
10
-80
20
-70.11955
30
0
11
-75.825003
21
-69.193975
31
0
12
-75.824997
22
-71.045125
32
0
13
-80
23
-70.11955
33
0
39
0
210
0
220
0
230
1
0
SOLID
5
2F2
100
AcDbEntity
8
SK2
62
256
6
ByLayer
370
-1
48
1
60
0
100
AcDbTrace
10
202
20
-70.11955
30
0
11
197.825003
21
-71.045125
31
0
12
197.824997
22
-69.193975
32
0
13
202
23
-70.11955
33
0
39
0
210
0
220
0
230
1
0
ENDBLK
5
2F4
100
AcDbEntity
8
0
100
AcDbBlockEnd
0
BLOCK
5
2FD
100
AcDbEntity
8
0
100
AcDbBlockBegin
2
DimnDraft3D2
70
0
10
0
20
0
30
0
3
DimnDraft3D2
0
MTEXT
5
2F7
100
AcDbEntity
8
SK2
62
256
6
ByLayer
370
-1
48
1
60
0
100
AcDbMText
10
-41.503947
20
-57.0258
30
0
210
0
220
0
230
1
1
\W01.000;\fsimplex.shx,bigfont.shx;80 
40
4.5
41
0
44
1.084337
50
0
71
7
72
5
7
DEFAULT
0
LINE
5
2F8
100
AcDbEntity
8
SK2
62
256
6
ByLayer
370
-1
48
1
60
0
100
AcDbLine
10
-80
20
-26.5875
30
0
11
-80
21
-61.3258
31
0
39
0
210
0
220
0
230
1
0
LINE
5
2F9
100
AcDbEntity
8
SK2
62
256
6
ByLayer
370
-1
48
1
60
0
100
AcDbLine
10
0
20
-32.8375
30
0
11
0
21
-61.3258
31
0
39
0
210
0
220
0
230
1
0
LINE
5
2FA
100
AcDbEntity
8
SK2
62
256
6
ByLayer
370
-1
48
1
60
0
100
AcDbLine
10
-80
20
-58.1508
30
0
11
0
21
-58.1508
31
0
39
0
210
0
220
0
230
1
0
SOLID
5
2FB
100
AcDbEntity
8
SK2
62
256
6
ByLayer
370
-1
48
1
60
0
100
AcDbTrace
10
-80
20
-58.1508
30
0
11
-75.825003
21
-57.225225
31
0
12
-75.824997
22
-59.076375
32
0
13
-80
23
-58.1508
33
0
39
0
210
0
220
0
230
1
0
SOLID
5
2FC
100
AcDbEntity
8
SK2
62
256
6
ByLayer
370
-1
48
1
60
0
100
AcDbTrace
10
0
20
-58.1508
30
0
11
-4.174997
21
-59.076375
31
0
12
-4.175003
22
-57.225225
32
0
13
0
23
-58.1508
33
0
39
0
210
0
220
0
230
1
0
ENDBLK
5
2FE
100
AcDbEntity
8
0
100
AcDbBlockEnd
0
BLOCK
5
308
100
AcDbEntity
8
0
100
AcDbBlockBegin
2
DimnDraft3D3
70
0
10
0
20
0
30
0
3
DimnDraft3D3
0
MTEXT
5
301
100
AcDbEntity
8
2
62
256
6
ByLayer
370
-1
48
1
60
0
100
AcDbMText
10
97.844079
20
-57.0258
30
0
210
0
220
0
230
1
1
\W01.000;\fsimplex.shx,bigfont.shx;202 
40
4.5
41
0
44
1.084337
50
0
71
7
72
5
7
DEFAULT
0
LINE
5
303
100
AcDbEntity
8
2
62
256
6
ByLayer
370
-1
48
1
60
0
100
AcDbLine
10
0
20
-32.8375
30
0
11
0
21
-61.3258
31
0
39
0
210
0
220
0
230
1
0
LINE
5
304
100
AcDbEntity
8
2
62
256
6
ByLayer
370
-1
48
1
60
0
100
AcDbLine
10
202
20
-22.5875
30
0
11
202
21
-61.3258
31
0
39
0
210
0
220
0
230
1
0
LINE
5
305
100
AcDbEntity
8
2
62
256
6
ByLayer
370
-1
48
1
60
0
100
AcDbLine
10
0
20
-58.1508
30
0
11
202
21
-58.1508
31
0
39
0
210
0
220
0
230
1
0
SOLID
5
306
100
AcDbEntity
8
2
62
256
6
ByLayer
370
-1
48
1
60
0
100
AcDbTrace
10
0
20
-58.1508
30
0
11
4.174997
21
-57.225225
31
0
12
4.175003
22
-59.076375
32
0
13
0
23
-58.1508
33
0
39
0
210
0
220
0
230
1
0
SOLID
5
307
100
AcDbEntity
8
2
62
256
6
ByLayer
370
-1
48
1
60
0
100
AcDbTrace
10
202
20
-58.1508
30
0
11
197.825003
21
-59.076375
31
0
12
197.824997
22
-57.225225
32
0
13
202
23
-58.1508
33
0
39
0
210
0
220
0
230
1
0
ENDBLK
5
309
100
AcDbEntity
8
0
100
AcDbBlockEnd
0
BLOCK
5
312
100
AcDbEntity
8
0
100
AcDbBlockBegin
2
DimnDraft3D4
70
0
10
0
20
0
30
0
3
DimnDraft3D4
0
MTEXT
5
30C
100
AcDbEntity
8
SK2
62
256
6
ByLayer
370
-1
48
1
60
0
100
AcDbMText
10
113.406579
20
-47.0258
30
0
210
0
220
0
230
1
1
\W01.000;\fsimplex.shx,bigfont.shx;172 
40
4.5
41
0
44
1.084337
50
0
71
7
72
5
7
DEFAULT
0
LINE
5
30D
100
AcDbEntity
8
SK2
62
256
6
ByLayer
370
-1
48
1
60
0
100
AcDbLine
10
30
20
-11.5875
30
0
11
30
21
-51.3258
31
0
39
0
210
0
220
0
230
1
0
LINE
5
30E
100
AcDbEntity
8
SK2
62
256
6
ByLayer
370
-1
48
1
60
0
100
AcDbLine
10
202
20
-22.5875
30
0
11
202
21
-51.3258
31
0
39
0
210
0
220
0
230
1
0
LINE
5
30F
100
AcDbEntity
8
SK2
62
256
6
ByLayer
370
-1
48
1
60
0
100
AcDbLine
10
30
20
-48.1508
30
0
11
202
21
-48.1508
31
0
39
0
210
0
220
0
230
1
0
SOLID
5
310
100
AcDbEntity
8
SK2
62
256
6
ByLayer
370
-1
48
1
60
0
100
AcDbTrace
10
30
20
-48.1508
30
0
11
34.174997
21
-47.225225
31
0
12
34.175003
22
-49.076375
32
0
13
30
23
-48.1508
33
0
39
0
210
0
220
0
230
1
0
SOLID
5
311
100
AcDbEntity
8
SK2
62
256
6
ByLayer
370
-1
48
1
60
0
100
AcDbTrace
10
202
20
-48.1508
30
0
11
197.825003
21
-49.076375
31
0
12
197.824997
22
-47.225225
32
0
13
202
23
-48.1508
33
0
39
0
210
0
220
0
230
1
0
ENDBLK
5
313
100
AcDbEntity
8
0
100
AcDbBlockEnd
0
BLOCK
5
31D
100
AcDbEntity
8
0
100
AcDbBlockBegin
2
DimnDraft3D5
70
0
10
0
20
0
30
0
3
DimnDraft3D5
0
MTEXT
5
316
100
AcDbEntity
8
SK2
62
256
6
ByLayer
370
-1
48
1
60
0
100
AcDbMText
10
-90.975
20
5.246053
30
0
210
0
220
0
230
1
1
\W01.000;\fsimplex.shx,bigfont.shx;50 
40
4.5
41
0
44
1.084337
50
90
71
7
72
5
7
DEFAULT
0
MTEXT
5
317
100
AcDbEntity
8
SK2
62
256
6
ByLayer
370
-1
48
1
60
0
100
AcDbMText
10
-90.975
20
-8.253947
30
0
210
0
220
0
230
1
1
\W01.000;\fsimplex.shx,bigfont.shx;%%c 
40
4.5
41
0
44
1.084337
50
90
71
7
72
5
7
DEFAULT
0
LINE
5
318
100
AcDbEntity
8
SK2
62
256
6
ByLayer
370
-1
48
1
60
0
100
AcDbLine
10
-81.5875
20
25
30
0
11
-91.9
21
25
31
0
39
0
210
0
220
0
230
1
0
LINE
5
319
100
AcDbEntity
8
SK2
62
256
6
ByLayer
370
-1
48
1
60
0
100
AcDbLine
10
-81.5875
20
-25
30
0
11
-91.9
21
-25
31
0
39
0
210
0
220
0
230
1
0
LINE
5
31A
100
AcDbEntity
8
SK2
62
256
6
ByLayer
370
-1
48
1
60
0
100
AcDbLine
10
-88.725
20
25
30
0
11
-88.725
21
-25
31
0
39
0
210
0
220
0
230
1
0
SOLID
5
31B
100
AcDbEntity
8
SK2
62
256
6
ByLayer
370
-1
48
1
60
0
100
AcDbTrace
10
-88.725
20
25
30
0
11
-87.799425
21
20.825003
31
0
12
-89.650575
22
20.824997
32
0
13
-88.725
23
25
33
0
39
0
210
0
220
0
230
1
0
SOLID
5
31C
100
AcDbEntity
8
SK2
62
256
6
ByLayer
370
-1
48
1
60
0
100
AcDbTrace
10
-88.725
20
-25
30
0
11
-89.650575
21
-20.825003
31
0
12
-87.799425
22
-20.824997
32
0
13
-88.725
23
-25
33
0
39
0
210
0
220
0
230
1
0
ENDBLK
5
31E
100
AcDbEntity
8
0
100
AcDbBlockEnd
0
BLOCK
5
328
100
AcDbEntity
8
0
100
AcDbBlockBegin
2
DimnDraft3D6
70
0
10
0
20
0
30
0
3
DimnDraft3D6
0
MTEXT
5
321
100
AcDbEntity
8
SK2
62
256
6
ByLayer
370
-1
48
1
60
0
100
AcDbMText
10
-100.975
20
2.711842
30
0
210
0
220
0
230
1
1
\W01.000;\fsimplex.shx,bigfont.shx;62.5 
40
4.5
41
0
44
1.084337
50
90
71
7
72
5
7
DEFAULT
0
MTEXT
5
322
100
AcDbEntity
8
SK2
62
256
6
ByLayer
370
-1
48
1
60
0
100
AcDbMText
10
-100.975
20
-10.788158
30
0
210
0
220
0
230
1
1
\W01.000;\fsimplex.shx,bigfont.shx;%%c 
40
4.5
41
0
44
1.084337
50
90
71
7
72
5
7
DEFAULT
0
LINE
5
323
100
AcDbEntity
8
SK2
62
256
6
ByLayer
370
-1
48
1
60
0
100
AcDbLine
10
-1.5875
20
-31.25
30
0
11
-101.9
21
-31.25
31
0
39
0
210
0
220
0
230
1
0
LINE
5
324
100
AcDbEntity
8
SK2
62
256
6
ByLayer
370
-1
48
1
60
0
100
AcDbLine
10
-1.5875
20
31.25
30
0
11
-101.9
21
31.25
31
0
39
0
210
0
220
0
230
1
0
LINE
5
325
100
AcDbEntity
8
SK2
62
256
6
ByLayer
370
-1
48
1
60
0
100
AcDbLine
10
-98.725
20
-31.25
30
0
11
-98.725
21
31.25
31
0
39
0
210
0
220
0
230
1
0
SOLID
5
326
100
AcDbEntity
8
SK2
62
256
6
ByLayer
370
-1
48
1
60
0
100
AcDbTrace
10
-98.725
20
-31.25
30
0
11
-99.650575
21
-27.075003
31
0
12
-97.799425
22
-27.074997
32
0
13
-98.725
23
-31.25
33
0
39
0
210
0
220
0
230
1
0
SOLID
5
327
100
AcDbEntity
8
SK2
62
256
6
ByLayer
370
-1
48
1
60
0
100
AcDbTrace
10
-98.725
20
31.25
30
0
11
-97.799425
21
27.075003
31
0
12
-99.650575
22
27.074997
32
0
13
-98.725
23
31.25
33
0
39
0
210
0
220
0
230
1
0
ENDBLK
5
329
100
AcDbEntity
8
0
100
AcDbBlockEnd
0
BLOCK
5
333
100
AcDbEntity
8
0
100
AcDbBlockBegin
2
DimnDraft3D7
70
0
10
0
20
0
30
0
3
DimnDraft3D7
0
MTEXT
5
32C
100
AcDbEntity
8
2
62
256
6
ByLayer
370
-1
48
1
60
0
100
AcDbMText
10
226.725
20
5.009211
30
0
210
0
220
0
230
1
1
\W01.000;\fsimplex.shx,bigfont.shx;42 
40
4.5
41
0
44
1.084337
50
90
71
7
72
5
7
DEFAULT
0
MTEXT
5
32D
100
AcDbEntity
8
2
62
256
6
ByLayer
370
-1
48
1
60
0
100
AcDbMText
10
226.725
20
-8.490789
30
0
210
0
220
0
230
1
1
\W01.000;\fsimplex.shx,bigfont.shx;%%c 
40
4.5
41
0
44
1.084337
50
90
71
7
72
5
7
DEFAULT
0
LINE
5
32E
100
AcDbEntity
8
2
62
256
6
ByLayer
370
-1
48
1
60
0
100
AcDbLine
10
203.5875
20
21
30
0
11
232.15
21
21
31
0
39
0
210
0
220
0
230
1
0
LINE
5
32F
100
AcDbEntity
8
2
62
256
6
ByLayer
370
-1
48
1
60
0
100
AcDbLine
10
203.5875
20
-21
30
0
11
232.15
21
-21
31
0
39
0
210
0
220
0
230
1
0
LINE
5
330
100
AcDbEntity
8
2
62
256
6
ByLayer
370
-1
48
1
60
0
100
AcDbLine
10
228.975
20
21
30
0
11
228.975
21
-21
31
0
39
0
210
0
220
0
230
1
0
SOLID
5
331
100
AcDbEntity
8
2
62
256
6
ByLayer
370
-1
48
1
60
0
100
AcDbTrace
10
228.975
20
21
30
0
11
229.900575
21
16.825003
31
0
12
228.049425
22
16.824997
32
0
13
228.975
23
21
33
0
39
0
210
0
220
0
230
1
0
SOLID
5
332
100
AcDbEntity
8
2
62
256
6
ByLayer
370
-1
48
1
60
0
100
AcDbTrace
10
228.975
20
-21
30
0
11
228.049425
21
-16.825003
31
0
12
229.900575
22
-16.824997
32
0
13
228.975
23
-21
33
0
39
0
210
0
220
0
230
1
0
ENDBLK
5
334
100
AcDbEntity
8
0
100
AcDbBlockEnd
0
ENDSEC
0
SECTION
2
ENTITIES
0
ARC
5
102
100
AcDbEntity
8
SK1
62
256
6
ByLayer
370
-1
48
1
60
0
100
AcDbCircle
39
0
10
1.383773
20
25.15
30
0
40
0.4
210
0
220
0
230
-1
100
AcDbArc
50
270
51
295
0
ARC
5
103
100
AcDbEntity
8
SK1
62
256
6
ByLayer
370
-1
48
1
60
0
100
AcDbCircle
39
0
10
1.383773
20
-25.15
30
0
40
0.4
210
0
220
0
230
-1
100
AcDbArc
50
65
51
90
0
ARC
5
104
100
AcDbEntity
8
SK1
62
256
6
ByLayer
370
-1
48
1
60
0
100
AcDbCircle
39
0
10
0.15
20
25.15
30
0
40
0.4
210
0
220
0
230
-1
100
AcDbArc
50
247.975687
51
270
0
ARC
5
105
100
AcDbEntity
8
SK1
62
256
6
ByLayer
370
-1
48
1
60
0
100
AcDbCircle
39
0
10
0.15
20
-25.15
30
0
40
0.4
210
0
220
0
230
-1
100
AcDbArc
50
90
51
112.024313
0
ARC
5
106
100
AcDbEntity
8
SK1
62
256
6
ByLayer
370
-1
48
1
60
0
100
AcDbCircle
39
0
10
77.894506
20
25.396
30
0
40
0.8
210
0
220
0
230
-1
100
AcDbArc
50
250.982048
51
321
0
ARC
5
107
100
AcDbEntity
8
SK1
62
256
6
ByLayer
370
-1
48
1
60
0
100
AcDbCircle
39
0
10
77.894506
20
-25.396
30
0
40
0.8
210
0
220
0
230
-1
100
AcDbArc
50
39
51
109.017952
0
ELLIPSE
5
108
100
AcDbEntity
8
1
62
256
6
ByLayer
370
-1
48
1
60
0
100
AcDbEllipse
10
192.132865
20
11.21417
30
0
11
-1.09330676022895E-15
21
-1.02
31
0
210
0
220
0
230
1
40
0.996195
41
0.920472169598899
42
3.03460218402553
0
ELLIPSE
5
109
100
AcDbEntity
8
1
62
256
6
ByLayer
370
-1
48
1
60
0
100
AcDbEllipse
10
190.692227
20
12.931372
30
0
11
-2.25092568282431E-15
21
-2.1
31
0
210
0
220
0
230
1
40
0.996195
41
-2.15719865040108
42
-1.53588974175501
0
ELLIPSE
5
13F
100
AcDbEntity
8
1
62
256
6
ByLayer
370
-1
48
1
60
0
100
AcDbEllipse
10
182.997449
20
14.70033
30
0
11
-0.814259535328615
21
-9.86645738900881
31
0
210
0
220
0
230
1
40
0.161435
41
1.40474288547941
42
1.58411842155689
0
ELLIPSE
5
140
100
AcDbEntity
8
1
62
256
6
ByLayer
370
-1
48
1
60
0
100
AcDbEllipse
10
190.808695
20
9.583413
30
0
11
-2.25092568282431E-15
21
-2.1
31
0
210
0
220
0
230
1
40
0.996195
41
-1.535889741755
42
-0.132996608383595
0
ELLIPSE
5
141
100
AcDbEntity
8
1
62
256
6
ByLayer
370
-1
48
1
60
0
100
AcDbEllipse
10
184.608953
20
14.8
30
0
11
1.17145334231627E-16
21
0.0999999999999994
31
0
210
0
220
0
230
1
40
0.986796
41
3.06033363801618
42
-1.5707963267949
0
ELLIPSE
5
142
100
AcDbEntity
8
1
62
256
6
ByLayer
370
-1
48
1
60
0
100
AcDbEllipse
10
195.098144
20
-4.568103
30
0
11
1.425
21
0
31
0
210
0
220
0
230
1
40
0.997564
41
0.0721587694856029
42
3.06953293300307
0
ELLIPSE
5
143
100
AcDbEntity
8
1
62
256
6
ByLayer
370
-1
48
1
60
0
100
AcDbEllipse
10
195.098144
20
-4.568103
30
0
11
1.425
21
0
31
0
210
0
220
0
230
1
40
0.997564
41
3.14159237282315
42
0
0
ELLIPSE
5
144
100
AcDbEntity
8
1
62
256
6
ByLayer
370
-1
48
1
60
0
100
AcDbEllipse
10
195.568136
20
14.270787
30
0
11
2.34290668463255E-15
21
2
31
0
210
0
220
0
230
1
40
0.996195
41
0.0503637830432939
42
1.49510350031179
0
ELLIPSE
5
145
100
AcDbEntity
8
1
62
256
6
ByLayer
370
-1
48
1
60
0
100
AcDbEllipse
10
186.885615
20
0
30
0
11
-145.941202364898
21
1.45124596279359
31
0
210
0
220
0
230
-1
40
0.139428
41
-1.56855926896613
42
-1.45906376392164
0
ELLIPSE
5
146
100
AcDbEntity
8
1
62
256
6
ByLayer
370
-1
48
1
60
0
100
AcDbEllipse
10
161.309246
20
16.488346
30
0
11
-23.5600774124473
21
11.5936898530139
31
0
210
0
220
0
230
-1
40
0.102302
41
-2.56069886808262
42
-2.09614464266553
0
ELLIPSE
5
147
100
AcDbEntity
8
1
62
256
6
ByLayer
370
-1
48
1
60
0
100
AcDbEllipse
10
168.5
20
27.2
30
0
11
-3.40132540963316
21
-15.6342891397715
31
0
210
0
220
0
230
-1
40
1
41
-0.0215360093744341
42
0.0317606120201529
0
ELLIPSE
5
148
100
AcDbEntity
8
1
62
256
6
ByLayer
370
-1
48
1
60
0
100
AcDbEllipse
10
200.065272
20
8.969266
30
0
11
-0.034390939832115
21
0.802863850628019
31
0
210
0
220
0
230
-1
40
0.118727
41
2.37795505340428
42
-3.13481466334298
0
ELLIPSE
5
149
100
AcDbEntity
8
1
62
256
6
ByLayer
370
-1
48
1
60
0
100
AcDbEllipse
10
195.367677
20
14.270787
30
0
11
-2.14373874554696E-15
21
-2
31
0
210
0
220
0
230
1
40
0.996195
41
1.57079654872778
42
-2.28776637790648
0
ELLIPSE
5
14A
100
AcDbEntity
8
1
62
256
6
ByLayer
370
-1
48
1
60
0
100
AcDbEllipse
10
195.367677
20
14.270787
30
0
11
-2.14373874554696E-15
21
-2
31
0
210
0
220
0
230
1
40
0.996195
41
1.43845662458553
42
1.57079604872776
0
ELLIPSE
5
14B
100
AcDbEntity
8
1
62
256
6
ByLayer
370
-1
48
1
60
0
100
AcDbEllipse
10
55.643084
20
25.210638
30
0
11
-130.88825719694
21
10.7310088084451
31
0
210
0
220
0
230
-1
40
0.075382
41
-2.968397325866
42
-2.77671103866381
0
ELLIPSE
5
14C
100
AcDbEntity
8
1
62
256
6
ByLayer
370
-1
48
1
60
0
100
AcDbEllipse
10
189.514431
20
9.538043
30
0
11
-0.799516360141551
21
-0.0278134835287917
31
0
210
0
220
0
230
1
40
0.003042
41
0.087213571465873
42
1.03850214476361
0
ELLIPSE
5
14D
100
AcDbEntity
8
1
62
256
6
ByLayer
370
-1
48
1
60
0
100
AcDbEllipse
10
200.507823
20
0
30
0
11
-1.25921158488905
21
20.3994537841605
31
0
210
0
220
0
230
-1
40
0.118552
41
-2.03053084262808
42
-1.52040716565755
0
ELLIPSE
5
14E
100
AcDbEntity
8
1
62
256
6
ByLayer
370
-1
48
1
60
0
100
AcDbEllipse
10
15.7
20
9.146914
30
0
11
-10
21
1.01063905508236E-14
31
0
210
0
220
0
230
1
40
0.805824
41
-1.61405326118724
42
-0.0833294091303751
0
ELLIPSE
5
14F
100
AcDbEntity
8
1
62
256
6
ByLayer
370
-1
48
1
60
0
100
AcDbEllipse
10
195.098144
20
-4.935226
30
0
11
-1.75
21
1.76861834639414E-15
31
0
210
0
220
0
230
1
40
0.997564
41
-2.00728153348336
42
-1.13440943792853
0
ELLIPSE
5
150
100
AcDbEntity
8
1
62
256
6
ByLayer
370
-1
48
1
60
0
100
AcDbEllipse
10
187.903809
20
23.798546
30
0
11
1.78060908032074E-14
21
15.2
31
0
210
0
220
0
230
1
40
0.996195
41
2.7401669256311
42
-3.1066860685499
0
ELLIPSE
5
151
100
AcDbEntity
8
1
62
256
6
ByLayer
370
-1
48
1
60
0
100
AcDbEllipse
10
187.834084
20
23.798546
30
0
11
-1.71499099643757E-14
21
-16
31
0
210
0
220
0
230
1
40
0.996195
41
-0.401425727958692
42
-6.79213922309397E-06
0
ELLIPSE
5
152
100
AcDbEntity
8
1
62
256
6
ByLayer
370
-1
48
1
60
0
100
AcDbEllipse
10
189.475792
20
15.018578
30
0
11
-0.773306844492356
21
-0.824449191009601
31
0
210
0
220
0
230
-1
40
0.04503
41
-0.75707583990978
42
-0.704857699262672
0
ELLIPSE
5
153
100
AcDbEntity
8
1
62
256
6
ByLayer
370
-1
48
1
60
0
100
AcDbEllipse
10
195.568136
20
14.270787
30
0
11
2.05004334905348E-15
21
1.75
31
0
210
0
220
0
230
1
40
0.996195
41
-1.92834881270219
42
0
0
ELLIPSE
5
154
100
AcDbEntity
8
1
62
256
6
ByLayer
370
-1
48
1
60
0
100
AcDbEllipse
10
195.568136
20
14.270787
30
0
11
2.05004334905348E-15
21
1.75
31
0
210
0
220
0
230
1
40
0.996195
41
0
42
1.57079639567442
0
ELLIPSE
5
155
100
AcDbEntity
8
1
62
256
6
ByLayer
370
-1
48
1
60
0
100
AcDbEllipse
10
195.568136
20
14.270787
30
0
11
2.05004334905348E-15
21
1.75
31
0
210
0
220
0
230
1
40
0.996195
41
1.57079612015634
42
2.65012947763562
0
ELLIPSE
5
156
100
AcDbEntity
8
1
62
256
6
ByLayer
370
-1
48
1
60
0
100
AcDbEllipse
10
164.077059
20
16.261792
30
0
11
-28.6819468556421
21
12.2954176100133
31
0
210
0
220
0
230
-1
40
0.010928
41
2.11889365552821
42
2.22077997131288
0
ELLIPSE
5
157
100
AcDbEntity
8
1
62
256
6
ByLayer
370
-1
48
1
60
0
100
AcDbEllipse
10
49.299628
20
0
30
0
11
-362.806563188024
21
-19.7280355169817
31
0
210
0
220
0
230
-1
40
0.014313
41
-1.99218555132789
42
-1.95930541782491
0
ELLIPSE
5
158
100
AcDbEntity
8
1
62
256
6
ByLayer
370
-1
48
1
60
0
100
AcDbEllipse
10
181.917571
20
9.806872
30
0
11
-0.313595748497236
21
-0.735973984950867
31
0
210
0
220
0
230
1
40
0.080227
41
0.0341712377316146
42
1.60496756452651
0
ELLIPSE
5
159
100
AcDbEntity
8
1
62
256
6
ByLayer
370
-1
48
1
60
0
100
AcDbEllipse
10
200.113639
20
0.091068
30
0
11
-0.034932465041838
21
0.801666824620748
31
0
210
0
220
0
230
-1
40
0.119654
41
-1.49162946093474
42
0.079166865867552
0
ELLIPSE
5
15A
100
AcDbEntity
8
1
62
256
6
ByLayer
370
-1
48
1
60
0
100
AcDbEllipse
10
199.37484
20
-13.084539
30
0
11
-0.207089423437247
21
-2.53761015150729
31
0
210
0
220
0
230
-1
40
0.124545
41
0
42
6.28318530717959
0
ELLIPSE
5
15B
100
AcDbEntity
8
1
62
256
6
ByLayer
370
-1
48
1
60
0
100
AcDbEllipse
10
189.124334
20
-8.5E-05
30
0
11
-0.660520780927003
21
20.4000034346542
31
0
210
0
220
0
230
-1
40
0.087398
41
0.0155344195011165
42
0.0241054728418443
0
ELLIPSE
5
15C
100
AcDbEntity
8
1
62
256
6
ByLayer
370
-1
48
1
60
0
100
AcDbEllipse
10
189.397962
20
12.886003
30
0
11
-0.799516360141551
21
-0.0278134835287917
31
0
210
0
220
0
230
1
40
0.003042
41
0.087213571465873
42
1.03850214476361
0
ELLIPSE
5
15D
100
AcDbEntity
8
1
62
256
6
ByLayer
370
-1
48
1
60
0
100
AcDbEllipse
10
195.098144
20
-4.363223
30
0
11
1.85
21
0
31
0
210
0
220
0
230
1
40
0.997564
41
0.0683297157142016
42
2.97724821198422
0
ELLIPSE
5
15E
100
AcDbEntity
8
1
62
256
6
ByLayer
370
-1
48
1
60
0
100
AcDbEllipse
10
182.997449
20
14.70033
30
0
11
-0.814259535328615
21
-9.86645738900881
31
0
210
0
220
0
230
1
40
0.161435
41
0.170793700558649
42
0.854503076153048
0
ELLIPSE
5
15F
100
AcDbEntity
8
1
62
256
6
ByLayer
370
-1
48
1
60
0
100
AcDbEllipse
10
183.10208
20
7.813415
30
0
11
-16.8180305544538
21
-0.529067686003387
31
0
210
0
220
0
230
-1
40
0.01063
41
-1.89665228066014
42
-1.88747966610639
0
ELLIPSE
5
160
100
AcDbEntity
8
1
62
256
6
ByLayer
370
-1
48
1
60
0
100
AcDbEllipse
10
202.907121
20
0
30
0
11
-48.713377473739
21
19.7573188332027
31
0
210
0
220
0
230
-1
40
0.104287
41
-1.12219047433287
42
-0.709411188428
0
ELLIPSE
5
161
100
AcDbEntity
8
1
62
256
6
ByLayer
370
-1
48
1
60
0
100
AcDbEllipse
10
171.339693
20
11.645763
30
0
11
-8.73892656192953
21
3.82024640253812
31
0
210
0
220
0
230
1
40
0.267282
41
1.60691831720327
42
1.77350324112767
0
ELLIPSE
5
162
100
AcDbEntity
8
1
62
256
6
ByLayer
370
-1
48
1
60
0
100
AcDbEllipse
10
195.098144
20
-4.363223
30
0
11
-1.425
21
1.44016065349237E-15
31
0
210
0
220
0
230
1
40
0.997564
41
0
42
6.28318530717959
0
ELLIPSE
5
163
100
AcDbEntity
8
1
62
256
6
ByLayer
370
-1
48
1
60
0
100
AcDbEllipse
10
201.962434
20
0
30
0
11
-1.65478614369844
21
-20.3989157084291
31
0
210
0
220
0
230
-1
40
0.127103
41
0.0452866200007683
42
1.09343358678005
0
ELLIPSE
5
164
100
AcDbEntity
8
1
62
256
6
ByLayer
370
-1
48
1
60
0
100
AcDbEllipse
10
188.362538
20
8.607805
30
0
11
0.0280261150489101
21
-0.799508934831416
31
0
210
0
220
0
230
1
40
0.087103
41
0.0631426160417683
42
1.56774302595899
0
ELLIPSE
5
165
100
AcDbEntity
8
1
62
256
6
ByLayer
370
-1
48
1
60
0
100
AcDbEllipse
10
190.933776
20
9.583413
30
0
11
-1.83236116208167
21
-1.6316690051163
31
0
210
0
220
0
230
-1
40
0.721468
41
-1.30152588459619
42
-0.090620283245817
0
ELLIPSE
5
166
100
AcDbEntity
8
1
62
256
6
ByLayer
370
-1
48
1
60
0
100
AcDbEllipse
10
190.378466
20
12.931372
30
0
11
2.46005201886418E-15
21
2.1
31
0
210
0
220
0
230
1
40
0.996195
41
0.939111162055025
42
1.60570291183478
0
ELLIPSE
5
167
100
AcDbEntity
8
1
62
256
6
ByLayer
370
-1
48
1
60
0
100
AcDbEllipse
10
195.977768
20
14.270787
30
0
11
2.05004334905348E-15
21
1.75
31
0
210
0
220
0
230
1
40
0.996195
41
0.117809954735436
42
1.57079669158491
0
ELLIPSE
5
168
100
AcDbEntity
8
1
62
256
6
ByLayer
370
-1
48
1
60
0
100
AcDbEllipse
10
195.977768
20
14.270787
30
0
11
2.05004334905348E-15
21
1.75
31
0
210
0
220
0
230
1
40
0.996195
41
1.57079612015634
42
2.93090943872902
0
ELLIPSE
5
169
100
AcDbEntity
8
1
62
256
6
ByLayer
370
-1
48
1
60
0
100
AcDbEllipse
10
191.453892
20
1E-05
30
0
11
-233.173012031058
21
-2.6420826775709E-13
31
0
210
0
220
0
230
-1
40
0.087489
41
1.5463718660244
42
1.55809166892262
0
ELLIPSE
5
16A
100
AcDbEntity
8
1
62
256
6
ByLayer
370
-1
48
1
60
0
100
AcDbEllipse
10
200.515458
20
0
30
0
11
-0.879066941141017
21
20.3997273164574
31
0
210
0
220
0
230
-1
40
0.119945
41
-1.52255636072296
42
-1.40161683247727
0
ELLIPSE
5
16B
100
AcDbEntity
8
1
62
256
6
ByLayer
370
-1
48
1
60
0
100
AcDbEllipse
10
200.618467
20
-10.36081
30
0
11
-0.0766931515648377
21
-0.877709776623775
31
0
210
0
220
0
230
-1
40
0.115977
41
0.0117126501970938
42
1.58250897699843
0
ELLIPSE
5
16C
100
AcDbEntity
8
1
62
256
6
ByLayer
370
-1
48
1
60
0
100
AcDbEllipse
10
190.494934
20
9.583413
30
0
11
2.46005201886418E-15
21
2.1
31
0
210
0
220
0
230
1
40
0.996195
41
1.60570291183478
42
2.05006495228011
0
ELLIPSE
5
16D
100
AcDbEntity
8
1
62
256
6
ByLayer
370
-1
48
1
60
0
100
AcDbEllipse
10
189.156348
20
0
30
0
11
-124.286930829511
21
-1.40829482851714E-13
31
0
210
0
220
0
230
-1
40
0.164136
41
1.41500928300541
42
1.53499476623285
0
ELLIPSE
5
16E
100
AcDbEntity
8
1
62
256
6
ByLayer
370
-1
48
1
60
0
100
AcDbEllipse
10
199.153513
20
10.867314
30
0
11
2.9286333557907E-16
21
0.250000000000001
31
0
210
0
220
0
230
1
40
0.996195
41
-3.10668606854989
42
-1.53588974175495
0
ELLIPSE
5
16F
100
AcDbEntity
8
1
62
256
6
ByLayer
370
-1
48
1
60
0
100
AcDbEllipse
10
199.052244
20
13.665608
30
0
11
-4.03443321277419E-16
21
-0.376392246597645
31
0
210
0
220
0
230
1
40
0.996195
41
1.60570291183476
42
-1.79625641922177
0
ELLIPSE
5
170
100
AcDbEntity
8
1
62
256
6
ByLayer
370
-1
48
1
60
0
100
AcDbEllipse
10
196.02736
20
18.155008
30
0
11
0.0448731734378583
21
0.194900996163734
31
0
210
0
220
0
230
1
40
0.08495
41
-2.23532153831605
42
-1.55124030652268
0
ELLIPSE
5
171
100
AcDbEntity
8
1
62
256
6
ByLayer
370
-1
48
1
60
0
100
AcDbEllipse
10
195.216864
20
14.54865
30
0
11
3.16169255543626E-15
21
2.69894876836046
31
0
210
0
220
0
230
1
40
0.996195
41
0
42
6.28318530717959
0
ELLIPSE
5
172
100
AcDbEntity
8
1
62
256
6
ByLayer
370
-1
48
1
60
0
100
AcDbEllipse
10
198.981538
20
15.698105
30
0
11
-4.03443321277419E-16
21
-0.376392246597645
31
0
210
0
220
0
230
1
40
0.996195
41
-1.27552306428833
42
1.60570291183476
0
ELLIPSE
5
173
100
AcDbEntity
8
1
62
256
6
ByLayer
370
-1
48
1
60
0
100
AcDbEllipse
10
192.030955
20
11.104467
30
0
11
5.62297604311812E-16
21
0.48
31
0
210
0
220
0
230
1
40
0.996195
41
1.74759996643897
42
-2.42145532631389
0
ELLIPSE
5
174
100
AcDbEntity
8
1
62
256
6
ByLayer
370
-1
48
1
60
0
100
AcDbEllipse
10
198.888113
20
18.496399
30
0
11
-2.67967343193372E-16
21
-0.250000000000001
31
0
210
0
220
0
230
1
40
0.996195
41
1.60570291183485
42
-3.1066860685498
0
ELLIPSE
5
175
100
AcDbEntity
8
1
62
256
6
ByLayer
370
-1
48
1
60
0
100
AcDbEllipse
10
199.216926
20
15.70683
30
0
11
0.199879090035388
21
0.0069533708821979
31
0
210
0
220
0
230
1
40
0.003042
41
-1.48358275532868
42
-0.799501523532183
0
ELLIPSE
5
176
100
AcDbEntity
8
1
62
256
6
ByLayer
370
-1
48
1
60
0
100
AcDbEllipse
10
195.406483
20
14.54865
30
0
11
-2.14373874554696E-15
21
-2
31
0
210
0
220
0
230
1
40
0.996195
41
-3.14159250506939
42
0
0
ELLIPSE
5
177
100
AcDbEntity
8
1
62
256
6
ByLayer
370
-1
48
1
60
0
100
AcDbEllipse
10
195.406483
20
14.54865
30
0
11
-2.14373874554696E-15
21
-2
31
0
210
0
220
0
230
1
40
0.996195
41
0
42
0.373555078115227
0
ELLIPSE
5
178
100
AcDbEntity
8
1
62
256
6
ByLayer
370
-1
48
1
60
0
100
AcDbEllipse
10
198.98546
20
15.698105
30
0
11
-2.67967343193369E-16
21
-0.249999999999999
31
0
210
0
220
0
230
1
40
0.996195
41
-1.27552306428819
42
1.60570291183485
0
ELLIPSE
5
179
100
AcDbEntity
8
1
62
256
6
ByLayer
370
-1
48
1
60
0
100
AcDbEllipse
10
191.295456
20
10.972554
30
0
11
3.16292402425394E-16
21
0.27
31
0
210
0
220
0
230
1
40
0.996195
41
-1.39399268715084
42
1.74759996643906
0
ELLIPSE
5
17A
100
AcDbEntity
8
1
62
256
6
ByLayer
370
-1
48
1
60
0
100
AcDbEllipse
10
196.357127
20
10.519748
30
0
11
-0.00700652876222976
21
0.199877233707854
31
0
210
0
220
0
230
1
40
0.087103
41
-2.25793085942449
42
-1.5738496276308
0
ELLIPSE
5
17B
100
AcDbEntity
8
1
62
256
6
ByLayer
370
-1
48
1
60
0
100
AcDbEllipse
10
191.639269
20
18.615402
30
0
11
3.16292402425394E-16
21
0.27
31
0
210
0
220
0
230
1
40
0.996195
41
-0.75049157835764
42
1.83550459668071
0
ELLIPSE
5
17C
100
AcDbEntity
8
1
62
256
6
ByLayer
370
-1
48
1
60
0
100
AcDbEllipse
10
191.26408
20
10.972554
30
0
11
0.443036966151022
21
0.0788558597930302
31
0
210
0
220
0
230
1
40
0.015329
41
-2.12838464107794
42
-0.841382423493102
0
ELLIPSE
5
17D
100
AcDbEntity
8
1
62
256
6
ByLayer
370
-1
48
1
60
0
100
AcDbEllipse
10
191.773632
20
11.52107
30
0
11
0.307524634367037
21
0.328524883772021
31
0
210
0
220
0
230
1
40
0.063742
41
-2.15470096795558
42
-1.5477987720853
0
ELLIPSE
5
17E
100
AcDbEntity
8
1
62
256
6
ByLayer
370
-1
48
1
60
0
100
AcDbEllipse
10
191.762445
20
11.509027
30
0
11
0.329692102348112
21
-0.306272946322855
31
0
210
0
220
0
230
1
40
0.05944
41
1.47029936263283
42
2.15039938434846
0
ELLIPSE
5
17F
100
AcDbEntity
8
1
62
256
6
ByLayer
370
-1
48
1
60
0
100
AcDbEllipse
10
192.84141
20
17.490104
30
0
11
-2.8940473064884E-16
21
-0.27
31
0
210
0
220
0
230
1
40
0.996195
41
-0.75049157835764
42
2.39110107523213
0
ELLIPSE
5
180
100
AcDbEntity
8
1
62
256
6
ByLayer
370
-1
48
1
60
0
100
AcDbEllipse
10
196.074344
20
18.648528
30
0
11
0.00700652876222752
21
-0.199877233707854
31
0
210
0
220
0
230
1
40
0.087103
41
1.56774302595899
42
2.25182425775547
0
ELLIPSE
5
181
100
AcDbEntity
8
1
62
256
6
ByLayer
370
-1
48
1
60
0
100
AcDbEllipse
10
199.384979
20
10.876039
30
0
11
0.199879090035388
21
0.0069533708821979
31
0
210
0
220
0
230
1
40
0.003042
41
-1.48358275532896
42
-0.799501523532794
0
ELLIPSE
5
182
100
AcDbEntity
8
1
62
256
6
ByLayer
370
-1
48
1
60
0
100
AcDbEllipse
10
196.361945
20
10.769595
30
0
11
-4.03443321277421E-16
21
-0.376392246597646
31
0
210
0
220
0
230
1
40
0.996195
41
-2.84631939108317
42
0.0349065850398532
0
ELLIPSE
5
183
100
AcDbEntity
8
1
62
256
6
ByLayer
370
-1
48
1
60
0
100
AcDbEllipse
10
199.056166
20
13.665608
30
0
11
2.92863335579068E-16
21
0.249999999999999
31
0
210
0
220
0
230
1
40
0.996195
41
-1.53588974175495
42
1.34533623436813
0
ELLIPSE
5
184
100
AcDbEntity
8
1
62
256
6
ByLayer
370
-1
48
1
60
0
100
AcDbEllipse
10
191.859902
20
17.682164
30
0
11
-0.622555845485633
21
0.581525141382486
31
0
210
0
220
0
230
-1
40
0.031444
41
0.960945087845429
42
1.60444619668975
0
ELLIPSE
5
185
100
AcDbEntity
8
1
62
256
6
ByLayer
370
-1
48
1
60
0
100
AcDbEllipse
10
195.288155
20
14.54865
30
0
11
-2.71334196247261E-15
21
-2.53141103887668
31
0
210
0
220
0
230
1
40
0.996195
41
0
42
6.28318530717959
0
ELLIPSE
5
186
100
AcDbEntity
8
1
62
256
6
ByLayer
370
-1
48
1
60
0
100
AcDbEllipse
10
196.096545
20
18.398681
30
0
11
-4.03443321277421E-16
21
-0.376392246597646
31
0
210
0
220
0
230
1
40
0.996195
41
-3.10668606854986
42
-0.225460092426993
0
ELLIPSE
5
187
100
AcDbEntity
8
1
62
256
6
ByLayer
370
-1
48
1
60
0
100
AcDbEllipse
10
195.216864
20
14.54865
30
0
11
4.18631474685054E-15
21
3.57360775340235
31
0
210
0
220
0
230
1
40
0.996195
41
-2.84631939108317
42
-1.79625641922174
0
ELLIPSE
5
188
100
AcDbEntity
8
1
62
256
6
ByLayer
370
-1
48
1
60
0
100
AcDbEllipse
10
191.891278
20
17.682164
30
0
11
-2.8940473064884E-16
21
-0.27
31
0
210
0
220
0
230
1
40
0.996195
41
-0.194895099806177
42
1.83550459668061
0
ELLIPSE
5
189
100
AcDbEntity
8
1
62
256
6
ByLayer
370
-1
48
1
60
0
100
AcDbEllipse
10
195.220786
20
14.54865
30
0
11
-3.96591667926188E-15
21
-3.7
31
0
210
0
220
0
230
1
40
0.996195
41
0.295273262506632
42
1.34533623436805
0
ELLIPSE
5
18A
100
AcDbEntity
8
1
62
256
6
ByLayer
370
-1
48
1
60
0
100
AcDbEllipse
10
195.569844
20
14.54865
30
0
11
2.34290668463255E-15
21
2
31
0
210
0
220
0
230
1
40
0.996195
41
0.0349502378747951
42
1.57079654872776
0
ELLIPSE
5
18B
100
AcDbEntity
8
1
62
256
6
ByLayer
370
-1
48
1
60
0
100
AcDbEllipse
10
195.569844
20
14.54865
30
0
11
2.34290668463255E-15
21
2
31
0
210
0
220
0
230
1
40
0.996195
41
1.57079654872776
42
3.10055573146276
0
ELLIPSE
5
18C
100
AcDbEntity
8
1
62
256
6
ByLayer
370
-1
48
1
60
0
100
AcDbEllipse
10
198.795989
20
13.721497
30
0
11
0.19497528358439
21
-0.0445492849682989
31
0
210
0
220
0
230
1
40
0.019484
41
1.48572768328066
42
2.16980891507525
0
ELLIPSE
5
18D
100
AcDbEntity
8
1
62
256
6
ByLayer
370
-1
48
1
60
0
100
AcDbEllipse
10
196.275962
20
11.008776
30
0
11
0.0584036501431938
21
-0.191282549256202
31
0
210
0
220
0
230
1
40
0.083384
41
1.54534251077267
42
2.22942374256879
0
ELLIPSE
5
18E
100
AcDbEntity
8
1
62
256
6
ByLayer
370
-1
48
1
60
0
100
AcDbEllipse
10
191.859902
20
17.682164
30
0
11
0.434438947393044
21
0.117314964893762
31
0
210
0
220
0
230
1
40
0.022802
41
-1.48655483674051
42
-0.843053727947114
0
ELLIPSE
5
18F
100
AcDbEntity
8
1
62
256
6
ByLayer
370
-1
48
1
60
0
100
AcDbEllipse
10
190.914901
20
17.869421
30
0
11
-1.45591769633278
21
0.746910916770204
31
0
210
0
220
0
230
-1
40
0.010943
41
1.59212368585524
42
2.23562479424077
0
ELLIPSE
5
190
100
AcDbEntity
8
1
62
256
6
ByLayer
370
-1
48
1
60
0
100
AcDbEllipse
10
198.86199
20
18.746247
30
0
11
-0.00700652876222976
21
0.199877233707854
31
0
210
0
220
0
230
1
40
0.087103
41
-1.5738496276308
42
-0.889768395835263
0
ELLIPSE
5
191
100
AcDbEntity
8
1
62
256
6
ByLayer
370
-1
48
1
60
0
100
AcDbEllipse
10
192.030955
20
11.104467
30
0
11
1.1948824091626E-15
21
1.02
31
0
210
0
220
0
230
1
40
0.996195
41
1.74759996643896
42
-2.42145532631398
0
ELLIPSE
5
192
100
AcDbEntity
8
1
62
256
6
ByLayer
370
-1
48
1
60
0
100
AcDbEllipse
10
196.365867
20
10.769595
30
0
11
2.9286333557907E-16
21
0.250000000000001
31
0
210
0
220
0
230
1
40
0.996195
41
0.29527326250656
42
-3.10668606854989
0
ELLIPSE
5
193
100
AcDbEntity
8
1
62
256
6
ByLayer
370
-1
48
1
60
0
100
AcDbEllipse
10
192.810034
20
17.490104
30
0
11
0.307524634367037
21
0.328524883772021
31
0
210
0
220
0
230
1
40
0.063742
41
-2.15470096795564
42
-0.867698750369066
0
ELLIPSE
5
194
100
AcDbEntity
8
1
62
256
6
ByLayer
370
-1
48
1
60
0
100
AcDbEllipse
10
192.132865
20
11.21417
30
0
11
-2.8940473064884E-16
21
-0.27
31
0
210
0
220
0
230
1
40
0.996195
41
-0.750491578357515
42
2.39110107523229
0
ELLIPSE
5
195
100
AcDbEntity
8
1
62
256
6
ByLayer
370
-1
48
1
60
0
100
AcDbEllipse
10
191.773623
20
11.521072
30
0
11
-0.0222123472210857
21
0.636077855667088
31
0
210
0
220
0
230
-1
40
0.061598
41
1.57295146995773
42
1.6095463043674
0
ELLIPSE
5
196
100
AcDbEntity
8
1
62
256
6
ByLayer
370
-1
48
1
60
0
100
AcDbEllipse
10
191.607893
20
18.615402
30
0
11
-0.84436865622767
21
1.40519245726125
31
0
210
0
220
0
230
-1
40
0.020508
41
1.58311883831181
42
2.22661994676711
0
ELLIPSE
5
197
100
AcDbEntity
8
1
62
256
6
ByLayer
370
-1
48
1
60
0
100
AcDbEllipse
10
191.538221
20
11.668254
30
0
11
2.07347241589981E-15
21
1.77
31
0
210
0
220
0
230
1
40
0.996195
41
-2.421455326314
42
-2.2211204839909
0
ELLIPSE
5
198
100
AcDbEntity
8
1
62
256
6
ByLayer
370
-1
48
1
60
0
100
AcDbEllipse
10
192.101489
20
11.21417
30
0
11
-0.307524634367036
21
-0.328524883772022
31
0
210
0
220
0
230
1
40
0.063742
41
0.986891685634157
42
2.27389390322002
0
ELLIPSE
5
199
100
AcDbEntity
8
1
62
256
6
ByLayer
370
-1
48
1
60
0
100
AcDbEllipse
10
191.538221
20
11.668254
30
0
11
1.44088761104902E-15
21
1.23
31
0
210
0
220
0
230
1
40
0.996195
41
-2.42145532631401
42
-2.2211204839909
0
ELLIPSE
5
19A
100
AcDbEntity
8
1
62
256
6
ByLayer
370
-1
48
1
60
0
100
AcDbEllipse
10
199.119579
20
18.505124
30
0
11
0.199879090035388
21
0.0069533708821979
31
0
210
0
220
0
230
1
40
0.003042
41
-1.48358275532896
42
-0.799501523532692
0
ELLIPSE
5
19B
100
AcDbEntity
8
1
62
256
6
ByLayer
370
-1
48
1
60
0
100
AcDbEllipse
10
190.914901
20
17.869421
30
0
11
0.0874689691203328
21
0.441417239628253
31
0
210
0
220
0
230
1
40
0.085506
41
-1.55385457642579
42
-0.910353467633157
0
ELLIPSE
5
19C
100
AcDbEntity
8
1
62
256
6
ByLayer
370
-1
48
1
60
0
100
AcDbEllipse
10
198.884191
20
18.496399
30
0
11
-4.03443321277421E-16
21
-0.376392246597646
31
0
210
0
220
0
230
1
40
0.996195
41
1.60570291183476
42
-3.10668606854978
0
ELLIPSE
5
19D
100
AcDbEntity
8
1
62
256
6
ByLayer
370
-1
48
1
60
0
100
AcDbEllipse
10
195.216864
20
14.54865
30
0
11
4.18631474685054E-15
21
3.57360775340235
31
0
210
0
220
0
230
1
40
0.996195
41
-1.27552306428826
42
-0.225460092426846
0
ELLIPSE
5
19E
100
AcDbEntity
8
1
62
256
6
ByLayer
370
-1
48
1
60
0
100
AcDbEllipse
10
190.946277
20
17.869421
30
0
11
3.16292402425394E-16
21
0.27
31
0
210
0
220
0
230
1
40
0.996195
41
-0.194895099806086
42
2.39110107523227
0
ELLIPSE
5
19F
100
AcDbEntity
8
1
62
256
6
ByLayer
370
-1
48
1
60
0
100
AcDbEllipse
10
199.144773
20
10.617466
30
0
11
0.00700652876222752
21
-0.199877233707854
31
0
210
0
220
0
230
1
40
0.087103
41
0.883661794164364
42
1.56774302595899
0
ELLIPSE
5
1A0
100
AcDbEntity
8
1
62
256
6
ByLayer
370
-1
48
1
60
0
100
AcDbEllipse
10
195.261613
20
14.54865
30
0
11
-2.85443725674398E-15
21
-2.66304582372577
31
0
210
0
220
0
230
1
40
0.996195
41
2.21550992406688
42
0
0
ELLIPSE
5
1A1
100
AcDbEntity
8
1
62
256
6
ByLayer
370
-1
48
1
60
0
100
AcDbEllipse
10
195.261613
20
14.54865
30
0
11
-2.85443725674398E-15
21
-2.66304582372577
31
0
210
0
220
0
230
1
40
0.996195
41
0
42
0.926082659473384
0
ELLIPSE
5
1A2
100
AcDbEntity
8
1
62
256
6
ByLayer
370
-1
48
1
60
0
100
AcDbEllipse
10
190.914901
20
17.869421
30
0
11
0.307524634367037
21
0.328524883772021
31
0
210
0
220
0
230
1
40
0.063742
41
-2.15470096795586
42
-1.51119985916239
0
ELLIPSE
5
1A3
100
AcDbEntity
8
1
62
256
6
ByLayer
370
-1
48
1
60
0
100
AcDbEllipse
10
192.132865
20
11.21417
30
0
11
-5.14497298931271E-16
21
-0.48
31
0
210
0
220
0
230
1
40
0.996195
41
0.920472169598852
42
2.7754978497279
0
ELLIPSE
5
1A4
100
AcDbEntity
8
1
62
256
6
ByLayer
370
-1
48
1
60
0
100
AcDbEllipse
10
192.492312
20
10.540681
30
0
11
-0.297408541509673
21
0.337710170763466
31
0
210
0
220
0
230
1
40
0.065516
41
-2.27193125321725
42
-0.984929035630892
0
ELLIPSE
5
1A5
100
AcDbEntity
8
1
62
256
6
ByLayer
370
-1
48
1
60
0
100
AcDbEllipse
10
199.149591
20
10.867314
30
0
11
-4.03443321277421E-16
21
-0.376392246597646
31
0
210
0
220
0
230
1
40
0.996195
41
0.0349065850399337
42
1.60570291183476
0
ELLIPSE
5
1A6
100
AcDbEntity
8
1
62
256
6
ByLayer
370
-1
48
1
60
0
100
AcDbEllipse
10
191.805008
20
11.52107
30
0
11
3.16292402425394E-16
21
0.27
31
0
210
0
220
0
230
1
40
0.996195
41
0.881327184779182
42
2.39110107523229
0
ELLIPSE
5
1A7
100
AcDbEntity
8
1
62
256
6
ByLayer
370
-1
48
1
60
0
100
AcDbEllipse
10
192.148419
20
16.744123
30
0
11
-2.8940473064884E-16
21
-0.27
31
0
210
0
220
0
230
1
40
0.996195
41
-0.750491578357659
42
2.39110107523227
0
ELLIPSE
5
1A8
100
AcDbEntity
8
1
62
256
6
ByLayer
370
-1
48
1
60
0
100
AcDbEllipse
10
191.773632
20
11.52107
30
0
11
-0.634800953908773
21
-0.0221675770657473
31
0
210
0
220
0
230
-1
40
0.002159
41
-2.27604469519651
42
-1.63254358722975
0
ELLIPSE
5
1A9
100
AcDbEntity
8
1
62
256
6
ByLayer
370
-1
48
1
60
0
100
AcDbEllipse
10
192.181274
20
11.959882
30
0
11
0.329692102348112
21
-0.306272946322855
31
0
210
0
220
0
230
1
40
0.05944
41
1.50689827555575
42
2.15039938434967
0
ELLIPSE
5
1AA
100
AcDbEntity
8
1
62
256
6
ByLayer
370
-1
48
1
60
0
100
AcDbEllipse
10
195.220786
20
14.54865
30
0
11
4.33437736657022E-15
21
3.7
31
0
210
0
220
0
230
1
40
0.996195
41
-1.27552306428828
42
-0.225460092426851
0
ELLIPSE
5
1AB
100
AcDbEntity
8
1
62
256
6
ByLayer
370
-1
48
1
60
0
100
AcDbEllipse
10
191.859902
20
17.682164
30
0
11
0.0874689691203328
21
0.441417239628253
31
0
210
0
220
0
230
1
40
0.085506
41
-2.19735568521937
42
-1.55385457642579
0
ELLIPSE
5
1AC
100
AcDbEntity
8
1
62
256
6
ByLayer
370
-1
48
1
60
0
100
AcDbEllipse
10
192.117043
20
16.744123
30
0
11
0.307524634367037
21
0.328524883772021
31
0
210
0
220
0
230
1
40
0.063742
41
-2.15470096795513
42
-0.867698750369644
0
ELLIPSE
5
1AD
100
AcDbEntity
8
1
62
256
6
ByLayer
370
-1
48
1
60
0
100
AcDbEllipse
10
198.729758
20
15.625355
30
0
11
0.191406102844321
21
0.0579974464433487
31
0
210
0
220
0
230
1
40
0.025362
41
-2.17136982970193
42
-1.48728859790635
0
ELLIPSE
5
1AE
100
AcDbEntity
8
1
62
256
6
ByLayer
370
-1
48
1
60
0
100
AcDbEllipse
10
191.607893
20
18.615402
30
0
11
0.307524634367037
21
0.328524883772021
31
0
210
0
220
0
230
1
40
0.063742
41
-1.51119985916239
42
-0.867698750369066
0
ELLIPSE
5
1AF
100
AcDbEntity
8
1
62
256
6
ByLayer
370
-1
48
1
60
0
100
AcDbEllipse
10
192.21265
20
11.959882
30
0
11
3.16292402425394E-16
21
0.27
31
0
210
0
220
0
230
1
40
0.996195
41
-0.106990469564192
42
0.820304748434656
0
ELLIPSE
5
1B0
100
AcDbEntity
8
1
62
256
6
ByLayer
370
-1
48
1
60
0
100
AcDbEllipse
10
199.287632
20
13.674333
30
0
11
0.199879090035388
21
0.0069533708821979
31
0
210
0
220
0
230
1
40
0.003042
41
-1.48358275532896
42
-0.799501523532692
0
ELLIPSE
5
1B1
100
AcDbEntity
8
1
62
256
6
ByLayer
370
-1
48
1
60
0
100
AcDbEllipse
10
191.762445
20
11.509027
30
0
11
-0.329471318935308
21
0.306067845909912
31
0
210
0
220
0
230
1
40
0.05944
41
-1.63469437803419
42
-0.992087287820921
0
ELLIPSE
5
1B2
100
AcDbEntity
8
1
62
256
6
ByLayer
370
-1
48
1
60
0
100
AcDbEllipse
10
196.100467
20
18.398681
30
0
11
-2.67967343193372E-16
21
-0.250000000000001
31
0
210
0
220
0
230
1
40
0.996195
41
-3.10668606855002
42
-0.225460092426742
0
ELLIPSE
5
1B3
100
AcDbEntity
8
1
62
256
6
ByLayer
370
-1
48
1
60
0
100
AcDbEllipse
10
192.181274
20
11.959882
30
0
11
-0.048235363267179
21
-0.447407364412437
31
0
210
0
220
0
230
1
40
0.086657
41
1.58013866027564
42
2.22363976906935
0
ELLIPSE
5
1B4
100
AcDbEntity
8
1
62
256
6
ByLayer
370
-1
48
1
60
0
100
AcDbEllipse
10
192.696133
20
10.760087
30
0
11
-0.358649081170716
21
0.271791899392534
31
0
210
0
220
0
230
1
40
0.052768
41
-2.28381636720067
42
-0.99681414961437
0
ELLIPSE
5
1B5
100
AcDbEntity
8
1
62
256
6
ByLayer
370
-1
48
1
60
0
100
AcDbEllipse
10
191.607893
20
18.615402
30
0
11
0.434438947393044
21
0.117314964893762
31
0
210
0
220
0
230
1
40
0.022802
41
-2.13005594553387
42
-1.48655483674063
0
ELLIPSE
5
1B6
100
AcDbEntity
8
1
62
256
6
ByLayer
370
-1
48
1
60
0
100
AcDbEllipse
10
200.000853
20
-7.44368
30
0
11
-1.71515057494323
21
1.7333981563846E-15
31
0
210
0
220
0
230
1
40
0.997564
41
3.10668606854993
42
-2.6785858919147
0
ELLIPSE
5
1B7
100
AcDbEntity
8
1
62
256
6
ByLayer
370
-1
48
1
60
0
100
AcDbEllipse
10
201.478759
20
-7.500849
30
0
11
-0.249846962761144
21
0.00874615338486086
31
0
210
0
220
0
230
1
40
0.069714
41
-3.01697920025207
42
-2.80709278034881
0
ELLIPSE
5
1B8
100
AcDbEntity
8
1
62
256
6
ByLayer
370
-1
48
1
60
0
100
AcDbEllipse
10
200.916802
20
-6.860239
30
0
11
-0.357711019788724
21
-0.179005101384599
31
0
210
0
220
0
230
1
40
0.062412
41
0.418624757056924
42
1.53957434280956
0
ELLIPSE
5
1B9
100
AcDbEntity
8
1
62
256
6
ByLayer
370
-1
48
1
60
0
100
AcDbEllipse
10
200.967002
20
-8.979214
30
0
11
-0.39975514041783
21
0.0139938454157774
31
0
210
0
220
0
230
1
40
0.069714
41
0.446930345650327
42
1.57323673249303
0
ELLIPSE
5
1BA
100
AcDbEntity
8
1
62
256
6
ByLayer
370
-1
48
1
60
0
100
AcDbEllipse
10
200.240293
20
-8.981801
30
0
11
-0.72715143767036
21
7.34887641868954E-16
31
0
210
0
220
0
230
1
40
0.997564
41
2.04837645952059
42
3.10668606854992
0
ELLIPSE
5
1BB
100
AcDbEntity
8
1
62
256
6
ByLayer
370
-1
48
1
60
0
100
AcDbEllipse
10
199.964759
20
0.321109
30
0
11
0.600000000000001
21
0
31
0
210
0
220
0
230
1
40
0.997564
41
0.349065850398916
42
1.2908843823154
0
ELLIPSE
5
1BC
100
AcDbEntity
8
1
62
256
6
ByLayer
370
-1
48
1
60
0
100
AcDbEllipse
10
201.323962
20
-6.790479
30
0
11
-0.223569387367953
21
-0.111878188365375
31
0
210
0
220
0
230
1
40
0.062412
41
-3.0506415899345
42
-2.84075517003219
0
ELLIPSE
5
1BD
100
AcDbEntity
8
1
62
256
6
ByLayer
370
-1
48
1
60
0
100
AcDbEllipse
10
195.34196
20
-5.363094
30
0
11
2
21
0
31
0
210
0
220
0
230
1
40
0.997564
41
1.22276661401008
42
2.5126848753598
0
ELLIPSE
5
1BE
100
AcDbEntity
8
1
62
256
6
ByLayer
370
-1
48
1
60
0
100
AcDbEllipse
10
201.309261
20
-10.243195
30
0
11
0.600000000000001
21
0
31
0
210
0
220
0
230
1
40
0.997564
41
-1.22173047639596
42
-0.0349065850399371
0
ELLIPSE
5
1BF
100
AcDbEntity
8
1
62
256
6
ByLayer
370
-1
48
1
60
0
100
AcDbEllipse
10
200.811622
20
-1.825827
30
0
11
0.249655711836595
21
0.0131158509965143
31
0
210
0
220
0
230
1
40
0.069661
41
0.118513377407891
42
0.328399797311088
0
ELLIPSE
5
1C0
100
AcDbEntity
8
1
62
256
6
ByLayer
370
-1
48
1
60
0
100
AcDbEllipse
10
200.810707
20
-1.623166
30
0
11
0.249753943357905
21
-0.0110890836941717
31
0
210
0
220
0
230
1
40
0.662171
41
0.158058401897134
42
0.427157403838313
0
ELLIPSE
5
1C1
100
AcDbEntity
8
1
62
256
6
ByLayer
370
-1
48
1
60
0
100
AcDbEllipse
10
200.000853
20
-7.344269
30
0
11
-1.02373473796844
21
1.03462630823541E-15
31
0
210
0
220
0
230
1
40
0.997564
41
3.10668606854992
42
-2.67858589191473
0
ELLIPSE
5
1C2
100
AcDbEntity
8
1
62
256
6
ByLayer
370
-1
48
1
60
0
100
AcDbEllipse
10
200.3936
20
-7.351934
30
0
11
-0.299809486263426
21
0.0106898057260548
31
0
210
0
220
0
230
1
40
0.071044
41
-2.68992827922799
42
-2.3915241003807
0
ELLIPSE
5
1C3
100
AcDbEntity
8
1
62
256
6
ByLayer
370
-1
48
1
60
0
100
AcDbEllipse
10
200.000853
20
-7.44724
30
0
11
1.72694386744699
21
0
31
0
210
0
220
0
230
1
40
0.997564
41
-0.0349065850398717
42
0.463006761675084
0
ELLIPSE
5
1C4
100
AcDbEntity
8
1
62
256
6
ByLayer
370
-1
48
1
60
0
100
AcDbEllipse
10
200.225844
20
0.399266
30
0
11
0.245905071924186
21
0.0450632400295533
31
0
210
0
220
0
230
1
40
0.870739
41
0.200409976058102
42
0.61099246713313
0
ELLIPSE
5
1C5
100
AcDbEntity
8
1
62
256
6
ByLayer
370
-1
48
1
60
0
100
AcDbEllipse
10
201.538273
20
-10.097289
30
0
11
-0.244655809288996
21
-0.0514153185456071
31
0
210
0
220
0
230
1
40
0.879812
41
2.27069982083934
42
2.87768784125838
0
ELLIPSE
5
1C6
100
AcDbEntity
8
1
62
256
6
ByLayer
370
-1
48
1
60
0
100
AcDbEllipse
10
200.352811
20
-7.16233
30
0
11
-0.26845875855505
21
-0.133902557686854
31
0
210
0
220
0
230
1
40
0.065342
41
-2.72288428857766
42
-2.42324090310932
0
ELLIPSE
5
1C7
100
AcDbEntity
8
1
62
256
6
ByLayer
370
-1
48
1
60
0
100
AcDbEllipse
10
200.357173
20
-1.716588
30
0
11
-0.399449138938552
21
-0.0209853615944227
31
0
210
0
220
0
230
1
40
0.069661
41
0.89855871845698
42
1.56713665656312
0
ELLIPSE
5
1C8
100
AcDbEntity
8
1
62
256
6
ByLayer
370
-1
48
1
60
0
100
AcDbEllipse
10
200.81981
20
-1.730733
30
0
11
0.500000000000012
21
0
31
0
210
0
220
0
230
1
40
0.997564
41
0.0523598775598372
42
0.349065850398894
0
ELLIPSE
5
1C9
100
AcDbEntity
8
1
62
256
6
ByLayer
370
-1
48
1
60
0
100
AcDbEllipse
10
200.798138
20
-1.551225
30
0
11
0.232434865925165
21
0.0920545115806412
31
0
210
0
220
0
230
1
40
0.206674
41
-0.318675503860957
42
-0.100220024638908
0
ELLIPSE
5
1CA
100
AcDbEntity
8
1
62
256
6
ByLayer
370
-1
48
1
60
0
100
AcDbEllipse
10
201.421797
20
-9.128055
30
0
11
-0.249846962761144
21
0.00874615338486086
31
0
210
0
220
0
230
1
40
0.069714
41
-3.01697920025207
42
-2.80709278034877
0
ELLIPSE
5
1CB
100
AcDbEntity
8
1
62
256
6
ByLayer
370
-1
48
1
60
0
100
AcDbEllipse
10
195.34196
20
-5.497331
30
0
11
2
21
0
31
0
210
0
220
0
230
1
40
0.997564
41
1.10721507969208
42
2.54645746397026
0
ELLIPSE
5
1CC
100
AcDbEntity
8
1
62
256
6
ByLayer
370
-1
48
1
60
0
100
AcDbEllipse
10
200.000853
20
-7.602368
30
0
11
1.99999999999999
21
0
31
0
210
0
220
0
230
1
40
0.997564
41
-0.0349065850398734
42
0.463006761675076
0
ELLIPSE
5
1CD
100
AcDbEntity
8
1
62
256
6
ByLayer
370
-1
48
1
60
0
100
AcDbEllipse
10
200.240293
20
-8.981801
30
0
11
-0.927151437670361
21
9.37015452885428E-16
31
0
210
0
220
0
230
1
40
0.997564
41
2.0483764595206
42
3.10668606854992
0
ELLIPSE
5
1CE
100
AcDbEntity
8
1
62
256
6
ByLayer
370
-1
48
1
60
0
100
AcDbEllipse
10
200.312176
20
0.03729
30
0
11
0.239505994938122
21
0.0716720195662172
31
0
210
0
220
0
230
1
40
0.554236
41
0.117880887624332
42
0.362140757013227
0
ELLIPSE
5
1CF
100
AcDbEntity
8
1
62
256
6
ByLayer
370
-1
48
1
60
0
100
AcDbEllipse
10
204.027064
20
-5.442254
30
0
11
-2.773056132553
21
2.80255882949372E-15
31
0
210
0
220
0
230
1
40
0.997564
41
0.0523598775598451
42
0.463006761675059
0
ELLIPSE
5
1D0
100
AcDbEntity
8
1
62
256
6
ByLayer
370
-1
48
1
60
0
100
AcDbEllipse
10
199.631018
20
-1.782454
30
0
11
-0.92715143767036
21
9.37015452885427E-16
31
0
210
0
220
0
230
1
40
0.997564
41
-3.08923277602994
42
-2.66401252086409
0
ELLIPSE
5
1D1
100
AcDbEntity
8
1
62
256
6
ByLayer
370
-1
48
1
60
0
100
AcDbEllipse
10
204.027064
20
-5.339284
30
0
11
3.27626526203155
21
0
31
0
210
0
220
0
230
1
40
0.997564
41
-3.08923277602995
42
-2.67858589191473
0
ELLIPSE
5
1D2
100
AcDbEntity
8
1
62
256
6
ByLayer
370
-1
48
1
60
0
100
AcDbEllipse
10
201.010012
20
-5.602111
30
0
11
0.249655711836595
21
0.0131158509965143
31
0
210
0
220
0
230
1
40
0.069661
41
0.118513377407815
42
0.328399797311015
0
ELLIPSE
5
1D3
100
AcDbEntity
8
1
62
256
6
ByLayer
370
-1
48
1
60
0
100
AcDbEllipse
10
200.940607
20
-10.505829
30
0
11
-0.0592144354721259
21
0.242886085710395
31
0
210
0
220
0
230
1
40
0.512695
41
-2.9224662321055
42
-2.67820636271654
0
ELLIPSE
5
1D4
100
AcDbEntity
8
1
62
256
6
ByLayer
370
-1
48
1
60
0
100
AcDbEllipse
10
204.027064
20
-5.438694
30
0
11
2.78484942505676
21
0
31
0
210
0
220
0
230
1
40
0.997564
41
-3.08923277602994
42
-2.67858589191473
0
ELLIPSE
5
1D5
100
AcDbEntity
8
1
62
256
6
ByLayer
370
-1
48
1
60
0
100
AcDbEllipse
10
200.000853
20
-7.344269
30
0
11
-1.22373473796845
21
1.2367541192519E-15
31
0
210
0
220
0
230
1
40
0.997564
41
3.10668606854992
42
-2.67858589191473
0
ELLIPSE
5
1D6
100
AcDbEntity
8
1
62
256
6
ByLayer
370
-1
48
1
60
0
100
AcDbEllipse
10
200.276808
20
-1.421144
30
0
11
-0.355060563388639
21
-0.184206395996833
31
0
210
0
220
0
230
1
40
0.061951
41
1.01222687071474
42
1.53866682760994
0
ELLIPSE
5
1D7
100
AcDbEntity
8
1
62
256
6
ByLayer
370
-1
48
1
60
0
100
AcDbEllipse
10
201.023964
20
-7.352008
30
0
11
-0.39975514041783
21
0.0139938454157774
31
0
210
0
220
0
230
1
40
0.069714
41
0.451619045778182
42
1.57323673249303
0
ELLIPSE
5
1D8
100
AcDbEntity
8
1
62
256
6
ByLayer
370
-1
48
1
60
0
100
AcDbEllipse
10
200.335092
20
-8.979368
30
0
11
-0.299804926425985
21
0.0108169353658748
31
0
210
0
220
0
230
1
40
0.07194
41
-2.69458703470421
42
-2.40485831912951
0
ELLIPSE
5
1D9
100
AcDbEntity
8
1
62
256
6
ByLayer
370
-1
48
1
60
0
100
AcDbEllipse
10
204.027064
20
-5.597383
30
0
11
2.50000000000001
21
0
31
0
210
0
220
0
230
1
40
0.997564
41
-3.08923277602995
42
-2.67858589191473
0
ELLIPSE
5
1DA
100
AcDbEntity
8
1
62
256
6
ByLayer
370
-1
48
1
60
0
100
AcDbEllipse
10
201.333867
20
-10.450033
30
0
11
-0.0138692297638048
21
0.249614992469921
31
0
210
0
220
0
230
1
40
0.839027
41
-2.79146272521819
42
-2.38088023414328
0
ELLIPSE
5
1DB
100
AcDbEntity
8
1
62
256
6
ByLayer
370
-1
48
1
60
0
100
AcDbEllipse
10
200.555563
20
-5.492872
30
0
11
-0.399449138938552
21
-0.0209853615944227
31
0
210
0
220
0
230
1
40
0.069661
41
0.898561908726667
42
1.56713665656312
0
ELLIPSE
5
1DC
100
AcDbEntity
8
1
62
256
6
ByLayer
370
-1
48
1
60
0
100
AcDbEllipse
10
200.574515
20
-9.598116
30
0
11
-0.183499052386941
21
0.355426641901102
31
0
210
0
220
0
230
1
40
0.032062
41
1.31694742633469
42
1.6328193577967
0
ELLIPSE
5
1DD
100
AcDbEntity
8
1
62
256
6
ByLayer
370
-1
48
1
60
0
100
AcDbEllipse
10
199.631018
20
-1.782454
30
0
11
-0.72715143767036
21
7.34887641868954E-16
31
0
210
0
220
0
230
1
40
0.997564
41
-3.08923277602995
42
-2.66401252086407
0
ELLIPSE
5
1DE
100
AcDbEntity
8
1
62
256
6
ByLayer
370
-1
48
1
60
0
100
AcDbEllipse
10
204.027064
20
-5.339284
30
0
11
3.47626526203155
21
0
31
0
210
0
220
0
230
1
40
0.997564
41
-3.08923277602994
42
-2.67858589191472
0
ELLIPSE
5
1DF
100
AcDbEntity
8
1
62
256
6
ByLayer
370
-1
48
1
60
0
100
AcDbEllipse
10
200.722394
20
-1.333533
30
0
11
0.239505994938122
21
0.0716720195662172
31
0
210
0
220
0
230
1
40
0.554236
41
0.117880887624259
42
0.362140757013264
0
POINT
5
41
100
AcDbEntity
8
81
62
256
6
ByLayer
370
-1
48
1
60
0
100
AcDbPoint
10
202
20
0
30
0
39
0
210
0
220
0
230
1
50
360
0
POINT
5
43
100
AcDbEntity
8
80
62
256
6
ByLayer
370
-1
48
1
60
0
100
AcDbPoint
10
0
20
0
30
0
39
0
210
0
220
0
230
1
50
360
0
SPLINE
5
1E0
100
AcDbEntity
8
1
62
256
6
ByLayer
370
-1
48
1
60
0
100
AcDbSpline
70
4
71
3
72
21
73
17
40
0
40
0
40
0
40
0
40
0.0689405877714474
40
0.139037474975485
40
0.209897789505366
40
0.281101845955342
40
0.352217602363576
40
0.422816207813298
40
0.492487266196252
40
0.56172266204346
40
0.63416739676857
40
0.706207142657455
40
0.778569660186201
40
0.85163409009768
40
0.925489344353623
40
1
40
1
40
1
40
1
41
1
10
30
20
20.73
30
0
41
1
10
29.3558183695823
20
20.7301975568801
30
0
41
1
10
28.0652126405667
20
20.7991791929414
30
0
41
1
10
26.132417174671
20
21.1136253890589
30
0
41
1
10
24.2268377885658
20
21.6423924211297
30
0
41
1
10
22.3819292281164
20
22.3814326984191
30
0
41
1
10
20.6307941743317
20
23.317043832042
30
0
41
1
10
19.0090373151173
20
24.4347796035692
30
0
41
1
10
17.5155978036803
20
25.6966846533436
30
0
41
1
10
16.2147170028053
20
27.176161407688
30
0
41
1
10
14.6821445479653
20
28.4575558470461
30
0
41
1
10
12.9485893259093
20
29.5032937974825
30
0
41
1
10
11.0816121920691
20
30.2989572343785
30
0
41
1
10
9.1136623449338
20
30.8546933373813
30
0
41
1
10
7.07341400579318
20
31.1793592639094
30
0
41
1
10
5.6963016937579
20
31.2516006375384
30
0
41
1
10
5.00000000000003
20
31.25
30
0
0
SPLINE
5
1E1
100
AcDbEntity
8
1
62
256
6
ByLayer
370
-1
48
1
60
0
100
AcDbSpline
70
4
71
3
72
20
73
16
40
0
40
0
40
0
40
0
40
0.0796407491043674
40
0.158516346371495
40
0.236487083032283
40
0.313718290104085
40
0.37425525485937
40
0.435150507383956
40
0.496148679047332
40
0.557244271403607
40
0.645818814312864
40
0.735227621493618
40
0.824619501440223
40
0.913144222227417
40
1
40
1
40
1
40
1
41
1
10
4.99999999999997
20
-31.25
30
0
41
1
10
5.74466404338403
20
-31.251975735059
30
0
41
1
10
7.21526796359765
20
-31.169285974416
30
0
41
1
10
9.39094213159541
20
-30.7977628428159
30
0
41
1
10
11.4791756378946
20
-30.160281408589
30
0
41
1
10
13.3063389777637
20
-29.3110467329744
30
0
41
1
10
14.8623684789096
20
-28.3063874617185
30
0
41
1
10
16.1673120142537
20
-27.2112291058495
30
0
41
1
10
17.2946217615626
20
-25.9318472783668
30
0
41
1
10
18.7584465555579
20
-24.6231843596355
30
0
41
1
10
20.5740148133382
20
-23.327118300348
30
0
41
1
10
22.7881093290509
20
-22.1751278732821
30
0
41
1
10
25.1379498566566
20
-21.3394578963201
30
0
41
1
10
27.5609335275065
20
-20.8399655963597
30
0
41
1
10
29.1864727739987
20
-20.7304981019781
30
0
41
1
10
30
20
-20.73
30
0
0
SPLINE
5
1E2
100
AcDbEntity
8
1
62
256
6
ByLayer
370
-1
48
1
60
0
100
AcDbSpline
70
4
71
3
72
21
73
17
40
0
40
0
40
0
40
0
40
0.0358131454747856
40
0.110580332528495
40
0.185323684373519
40
0.259965025529453
40
0.334453740995464
40
0.408768254454371
40
0.482917891103205
40
0.556939062437472
40
0.630887842334014
40
0.704825165528415
40
0.778802272338547
40
0.852881566471599
40
0.927110213745108
40
1
40
1
40
1
40
1
41
1
10
195.30132728824
20
16.5348295610816
30
0
41
1
10
195.367914239668
20
16.5432346131813
30
0
41
1
10
195.572473936984
20
16.5561401705253
30
0
41
1
10
195.915971362381
20
16.4948865294506
30
0
41
1
10
196.307973562658
20
16.3475642230256
30
0
41
1
10
196.66067877106
20
16.1176289582102
30
0
41
1
10
196.957954282204
20
15.8195749451682
30
0
41
1
10
197.18683393405
20
15.4655660052353
30
0
41
1
10
197.337334299866
20
15.0716405950901
30
0
41
1
10
197.403056668049
20
14.655111450827
30
0
41
1
10
197.381329605332
20
14.2342568181415
30
0
41
1
10
197.273323308422
20
13.827455554971
30
0
41
1
10
197.083784805917
20
13.4522674293058
30
0
41
1
10
196.821391400465
20
13.1252507551939
30
0
41
1
10
196.498244791698
20
12.861068790721
30
0
41
1
10
196.25533999638
20
12.736257417211
30
0
41
1
10
196.127058588862
20
12.6860491424271
30
0
0
SPLINE
5
1E3
100
AcDbEntity
8
1
62
256
6
ByLayer
370
-1
48
1
60
0
100
AcDbSpline
70
4
71
3
72
15
73
11
40
0
40
0
40
0
40
0
40
0.0255517627175762
40
0.17558768741496
40
0.32540006437004
40
0.474994759667263
40
0.624414400266567
40
0.773729861978332
40
0.923023907465681
40
1
40
1
40
1
40
1
41
1
10
193.714343604135
20
-4.34074008646334
30
0
41
1
10
193.728203330561
20
-4.32142124171082
30
0
41
1
10
193.825840600289
20
-4.19035137457573
30
0
41
1
10
194.036607103409
20
-3.97008650947538
30
0
41
1
10
194.385457260846
20
-3.73273151675616
30
0
41
1
10
194.776176710036
20
-3.57307822510398
30
0
41
1
10
195.191520616924
20
-3.49801290208995
30
0
41
1
10
195.613244754353
20
-3.51068936109118
30
0
41
1
10
195.956709332448
20
-3.59431060886459
30
0
41
1
10
196.152118577489
20
-3.67628008760011
30
0
41
1
10
196.216883608252
20
-3.70763364612122
30
0
0
SPLINE
5
1E4
100
AcDbEntity
8
1
62
256
6
ByLayer
370
-1
48
1
60
0
100
AcDbSpline
70
4
71
3
72
8
73
4
40
0
40
0
40
0
40
0
40
1
40
1
40
1
40
1
41
1
10
181.04500629288
20
5.27337930475667
30
0
41
1
10
180.812334017302
20
5.33576135202335
30
0
41
1
10
180.58206234359
20
5.40243114242696
30
0
41
1
10
180.353949863002
20
5.4736704672718
30
0
0
SPLINE
5
1E5
100
AcDbEntity
8
1
62
256
6
ByLayer
370
-1
48
1
60
0
100
AcDbSpline
70
4
71
3
72
8
73
4
40
0
40
0
40
0
40
0
40
1
40
1
40
1
40
1
41
1
10
20.5344046192236
20
14.5358326769216
30
0
41
1
10
24.4311299471171
20
11.3561344180414
30
0
41
1
10
28.2842025319968
20
8.18618394287364
30
0
41
1
10
32.0994163599836
20
5.04575730842663
30
0
0
SPLINE
5
1E6
100
AcDbEntity
8
1
62
256
6
ByLayer
370
-1
48
1
60
0
100
AcDbSpline
70
4
71
3
72
8
73
4
40
0
40
0
40
0
40
0
40
1
40
1
40
1
40
1
41
1
10
184.707632223837
20
20.3869275286611
30
0
41
1
10
185.064038766659
20
20.389022788736
30
0
41
1
10
185.414551503713
20
20.3915705429844
30
0
41
1
10
185.759332661362
20
20.3939154516603
30
0
0
SPLINE
5
1E7
100
AcDbEntity
8
1
62
256
6
ByLayer
370
-1
48
1
60
0
100
AcDbSpline
70
4
71
3
72
12
73
8
40
0
40
0
40
0
40
0
40
0.249999999999986
40
0.249999999999986
40
0.499999999999972
40
0.499999999999972
40
1
40
1
40
1
40
1
41
1
10
188.705440428613
20
14.1714337116698
30
0
41
1
10
188.709635327029
20
14.1714337116698
30
0
41
1
10
188.717806162061
20
14.1771103918675
30
0
41
1
10
188.741191675153
20
14.1979087279469
30
0
41
1
10
188.756624543561
20
14.2132502295929
30
0
41
1
10
188.810406400103
20
14.2679429385044
30
0
41
1
10
188.856876001527
20
14.3162988609433
30
0
41
1
10
188.910814987746
20
14.3680300691928
30
0
0
SPLINE
5
1E8
100
AcDbEntity
8
1
62
256
6
ByLayer
370
-1
48
1
60
0
100
AcDbSpline
70
4
71
3
72
8
73
4
40
0
40
0
40
0
40
0
40
1
40
1
40
1
40
1
41
1
10
186.616557973917
20
5.49362277835775
30
0
41
1
10
185.971429088773
20
5.29346250278331
30
0
41
1
10
185.300488512099
20
5.13066104025768
30
0
41
1
10
184.608315432278
20
5.01326841513708
30
0
0
SPLINE
5
1E9
100
AcDbEntity
8
1
62
256
6
ByLayer
370
-1
48
1
60
0
100
AcDbSpline
70
4
71
3
72
12
73
8
40
0
40
0
40
0
40
0
40
0.104898575169476
40
0.104898575169476
40
0.403265716779651
40
0.403265716779651
40
1
40
1
40
1
40
1
41
1
10
200.114942573653
20
8.38253812770722
30
0
41
1
10
200.113997034091
20
8.36832613991126
30
0
41
1
10
200.112970525224
20
8.35472508558317
30
0
41
1
10
200.108777370027
20
8.30475658546581
30
0
41
1
10
200.10508583625
20
8.27249713780432
30
0
41
1
10
200.093292127083
20
8.19524612849287
30
0
41
1
10
200.0842268984
20
8.16772252623625
30
0
41
1
10
200.075318038949
20
8.16763987726208
30
0
0
SPLINE
5
1EA
100
AcDbEntity
8
1
62
256
6
ByLayer
370
-1
48
1
60
0
100
AcDbSpline
70
4
71
3
72
8
73
4
40
0
40
0
40
0
40
0
40
1
40
1
40
1
40
1
41
1
10
27.5504346352284
20
-13.1532518257015
30
0
41
1
10
27.0830523050021
20
-12.9128329815909
30
0
41
1
10
26.6214649671518
20
-12.6613984612378
30
0
41
1
10
26.1662394545373
20
-12.3978560620421
30
0
0
SPLINE
5
1EB
100
AcDbEntity
8
1
62
256
6
ByLayer
370
-1
48
1
60
0
100
AcDbSpline
70
4
71
3
72
18
73
14
40
0
40
0
40
0
40
0
40
0.25000000000001
40
0.25000000000001
40
0.50000000000002
40
0.50000000000002
40
0.625000000000015
40
0.625000000000015
40
0.75000000000001
40
0.75000000000001
40
0.875000000000005
40
0.875000000000005
40
1
40
1
40
1
40
1
41
1
10
185.759332661367
20
14.799999999999
30
0
41
1
10
185.759332661367
20
14.5945568505935
30
0
41
1
10
185.72816631838
20
14.3934356140767
30
0
41
1
10
185.603762339205
20
14.0024549573922
30
0
41
1
10
185.513441848721
20
13.8213811614141
30
0
41
1
10
185.335717120381
20
13.5714292283076
30
0
41
1
10
185.269995564031
20
13.4929360149939
30
0
41
1
10
185.128502897922
20
13.3483927189248
30
0
41
1
10
185.052372649086
20
13.2818262361027
30
0
41
1
10
184.889109020536
20
13.1603529401224
30
0
41
1
10
184.801952776192
20
13.105658559885
30
0
41
1
10
184.622668710189
20
13.0118878662459
30
0
41
1
10
184.529819525745
20
12.9722269982494
30
0
41
1
10
184.433737650866
20
12.9398481386054
30
0
0
SPLINE
5
1EC
100
AcDbEntity
8
1
62
256
6
ByLayer
370
-1
48
1
60
0
100
AcDbSpline
70
4
71
3
72
12
73
8
40
0
40
0
40
0
40
0
40
0.0678162858797165
40
0.0678162858797165
40
0.533908142939858
40
0.533908142939858
40
1
40
1
40
1
40
1
41
1
10
94.2673001445314
20
20.4885402624809
30
0
41
1
10
94.7581002363816
20
20.4865374494585
30
0
41
1
10
95.2488964195543
20
20.4831926775196
30
0
41
1
10
99.1128794013183
20
20.4462968061958
30
0
41
1
10
102.486204669931
20
20.3506068520696
30
0
41
1
10
109.23804866636
20
20.0341956798715
30
0
41
1
10
112.616583618435
20
19.8135072962168
30
0
41
1
10
116
20
19.5324802347475
30
0
0
SPLINE
5
1ED
100
AcDbEntity
8
1
62
256
6
ByLayer
370
-1
48
1
60
0
100
AcDbSpline
70
4
71
3
72
8
73
4
40
0
40
0
40
0
40
0
40
1
40
1
40
1
40
1
41
1
10
32.099416359984
20
9.83200709366349
30
0
41
1
10
33.0662805367808
20
9.59178077278477
30
0
41
1
10
34.0331310061324
20
9.34905028001185
30
0
41
1
10
35
20
9.10391768783222
30
0
0
SPLINE
5
1EE
100
AcDbEntity
8
1
62
256
6
ByLayer
370
-1
48
1
60
0
100
AcDbSpline
70
4
71
3
72
16
73
12
40
0
40
0
40
0
40
0
40
0.249999999999991
40
0.249999999999991
40
0.499999999999983
40
0.499999999999983
40
0.624999999999984
40
0.624999999999984
40
0.749999999999985
40
0.749999999999985
40
1
40
1
40
1
40
1
41
1
10
169.872278481478
20
20.1529503060244
30
0
41
1
10
169.630977815379
20
19.7348549014427
30
0
41
1
10
169.365178471424
20
19.3364696046551
30
0
41
1
10
168.778103706832
20
18.5843316013715
30
0
41
1
10
168.456771256371
20
18.230624777513
30
0
41
1
10
167.930721824059
20
17.7355050322908
30
0
41
1
10
167.747287504824
20
17.5757767523839
30
0
41
1
10
167.372160910645
20
17.2730510867963
30
0
41
1
10
167.180009144626
20
17.1295118139342
30
0
41
1
10
166.590959223573
20
16.7203684325421
30
0
41
1
10
166.18148172987
20
16.4762127006909
30
0
41
1
10
165.75832879429
20
16.255374254142
30
0
0
SPLINE
5
1EF
100
AcDbEntity
8
1
62
256
6
ByLayer
370
-1
48
1
60
0
100
AcDbSpline
70
4
71
3
72
90
73
86
40
0
40
0
40
0
40
0
40
0.0092300565212342
40
0.0196807803807268
40
0.0353568661699658
40
0.0405822280997121
40
0.051032951959205
40
0.0614836758186976
40
0.0771597616079363
40
0.0823851235376826
40
0.0928358473971752
40
0.103286571256668
40
0.118962657045907
40
0.124188018975653
40
0.134638742835146
40
0.145089466694638
40
0.160765552483877
40
0.165990914413624
40
0.176441638273116
40
0.186892362132609
40
0.202568447921848
40
0.207793809851594
40
0.218244533711087
40
0.22869525757058
40
0.244371343359819
40
0.249596705289565
40
0.260047429149057
40
0.27049815300855
40
0.286174238797789
40
0.291399600727535
40
0.301850324587028
40
0.312301048446521
40
0.32797713423576
40
0.333202496165506
40
0.343653220024998
40
0.354103943884491
40
0.36978002967373
40
0.375005391603476
40
0.385456115462969
40
0.395906839322462
40
0.411582925111701
40
0.416808287041447
40
0.427259010900939
40
0.437709734760432
40
0.458611182479417
40
0.46906190633891
40
0.479512630198402
40
0.500414077917388
40
0.51086480177688
40
0.521315525636373
40
0.542216973355358
40
0.563118421074343
40
0.584019868793329
40
0.594470592652821
40
0.604921316512314
40
0.61014667844206
40
0.615372040371806
40
0.623210083266426
40
0.625822764231299
40
0.631048126161045
40
0.636273488090792
40
0.646724211950284
40
0.657174935809777
40
0.66762565966927
40
0.70942855510724
40
0.730330002826225
40
0.751231450545211
40
0.761682174404704
40
0.772132898264196
40
0.793034345983181
40
0.803485069842674
40
0.813935793702166
40
0.834837241421152
40
0.845287965280644
40
0.855738689140137
40
0.876640136859122
40
0.887090860718615
40
0.897541584578107
40
0.918443032297093
40
0.928893756156585
40
0.939344480016078
40
0.960245927735063
40
0.970696651594556
40
0.981147375454048
40
1
40
1
40
1
40
1
41
1
10
16.8507031254553
20
16.6883404636919
30
0
41
1
10
16.8103503125165
20
16.6568575680763
30
0
41
1
10
16.7238248707811
20
16.5883840585657
30
0
41
1
10
16.5666134687792
20
16.4602120932204
30
0
41
1
10
16.425240577558
20
16.3404732447341
30
0
41
1
10
16.2824275854403
20
16.2158521836354
30
0
41
1
10
16.1625446804058
20
16.1089468351587
30
0
41
1
10
15.9932109270948
20
15.9536090711652
30
0
41
1
10
15.8466025388047
20
15.8144207530706
30
0
41
1
10
15.6989894048055
20
15.670439463509
30
0
41
1
10
15.5753853669095
20
15.5474678565259
30
0
41
1
10
15.4013852910478
20
15.3698102447719
30
0
41
1
10
15.2513833629438
20
15.2117266284901
30
0
41
1
10
15.1008905380042
20
15.0490997223366
30
0
41
1
10
14.9752139375142
20
14.9107588362075
30
0
41
1
10
14.7989401438172
20
14.7119482223778
30
0
41
1
10
14.6476803902763
20
14.5361759679455
30
0
41
1
10
14.4965046298628
20
14.3562774511051
30
0
41
1
10
14.3706228121866
20
14.2038173278754
30
0
41
1
10
14.1947505067631
20
13.9857974337901
30
0
41
1
10
14.044583078185
20
13.7942075062822
30
0
41
1
10
13.895110436904
20
13.5990691842009
30
0
41
1
10
13.7710321816199
20
13.4342828757515
30
0
41
1
10
13.5984027189925
20
13.1997443078851
30
0
41
1
10
13.451784538729
20
12.9948296097307
30
0
41
1
10
13.3064775263096
20
12.7870858636577
30
0
41
1
10
13.1862560007369
20
12.6122554753285
30
0
41
1
10
13.0197361297974
20
12.3645450998949
30
0
41
1
10
12.8791057908107
20
12.1493263384514
30
0
41
1
10
12.7403756406379
20
11.9321064814293
30
0
41
1
10
12.6260005096786
20
11.7499049513454
30
0
41
1
10
12.4683296915655
20
11.4928738998693
30
0
41
1
10
12.3359759750682
20
11.2707553008239
30
0
41
1
10
12.2060520441887
20
11.0475299039645
30
0
41
1
10
12.0993414732993
20
10.8608874532717
30
0
41
1
10
11.9529834377147
20
10.5986949499092
30
0
41
1
10
11.8309223006088
20
10.373287365187
30
0
41
1
10
11.7117339684437
20
10.147685709861
30
0
41
1
10
11.6142395944767
20
9.95963446379753
30
0
41
1
10
11.4812561575977
20
9.6965258912017
30
0
41
1
10
11.3711304965207
20
9.47145364485502
30
0
41
1
10
11.2642139507857
20
9.24707038068811
30
0
41
1
10
11.1771477351313
20
9.06058358114771
30
0
41
1
10
11.0422425633165
20
8.76353675680275
30
0
41
1
10
10.9140408126655
20
8.46888848463439
30
0
41
1
10
10.7927470058096
20
8.17743970423678
30
0
41
1
10
10.6760872239277
20
7.88835396311211
30
0
41
1
10
10.5664215731724
20
7.60315784803564
30
0
41
1
10
10.4638362408752
20
7.32254149328472
30
0
41
1
10
10.3659633881423
20
7.04516457621529
30
0
41
1
10
10.2524437225197
20
6.70486662077704
30
0
41
1
10
10.1302879677959
20
6.30790376447533
30
0
41
1
10
10.0400182942698
20
5.98729354628077
30
0
41
1
10
9.97460077992957
20
5.73733862108131
30
0
41
1
10
9.936531230047
20
5.5840094083739
30
0
41
1
10
9.90775570991684
20
5.46318386451972
30
0
41
1
10
9.88352076267685
20
5.35840638614621
30
0
41
1
10
9.86371994634101
20
5.26947320430762
30
0
41
1
10
9.84464987890701
20
5.18107735707622
30
0
41
1
10
9.82920511419951
20
5.10771591566626
30
0
41
1
10
9.80542998495085
20
4.99085263684586
30
0
41
1
10
9.77743509433563
20
4.8454978327384
30
0
41
1
10
9.74649756043658
20
4.67145851640333
30
0
41
1
10
9.6901917996459
20
4.3247613229957
30
0
41
1
10
9.64149408303749
20
3.92608537625369
30
0
41
1
10
9.61207736108611
20
3.48437671004569
30
0
41
1
10
9.60514198917019
20
3.21541612722479
30
0
41
1
10
9.60677433397302
20
3.00529621443616
30
0
41
1
10
9.61327043071373
20
2.79880440735309
30
0
41
1
10
9.62717714093239
20
2.59814836391877
30
0
41
1
10
9.64872443577144
20
2.40411529431387
30
0
41
1
10
9.67540782050963
20
2.21474709655229
30
0
41
1
10
9.70985889032494
20
2.03275054049129
30
0
41
1
10
9.75220474567408
20
1.85887429400216
30
0
41
1
10
9.7998164225605
20
1.69063361057763
30
0
41
1
10
9.85533077852477
20
1.53117930677504
30
0
41
1
10
9.9187557071109
20
1.38117745264449
30
0
41
1
10
9.98741427619757
20
1.23765775941467
30
0
41
1
10
10.0638631941638
20
1.10413209921489
30
0
41
1
10
10.1479822372672
20
0.981142055403211
30
0
41
1
10
10.237132478754
20
0.865303481549887
30
0
41
1
10
10.3337061902536
20
0.760383701183628
30
0
41
1
10
10.4374567166415
20
0.666765891403429
30
0
41
1
10
10.5405575764311
20
0.584965697011683
30
0
41
1
10
10.6210197840565
20
0.532206392953469
30
0
41
1
10
10.6745455743328
20
0.501432056842617
30
0
0
SPLINE
5
1F0
100
AcDbEntity
8
1
62
256
6
ByLayer
370
-1
48
1
60
0
100
AcDbSpline
70
4
71
4
72
10
73
5
40
0
40
0
40
0
40
0
40
0
40
1
40
1
40
1
40
1
40
1
41
0.978778759610522
10
174.125539515142
20
7.66649133028398
30
0
41
0.979513097599754
10
174.266839518131
20
8.40026598715766
30
0
41
0.981829887261618
10
174.386393648856
20
9.21407015591423
30
0
41
0.985563092890701
10
174.480068759322
20
10.0817102401432
30
0
41
0.989461798648371
10
174.547999677565
20
10.9660096562389
30
0
0
SPLINE
5
1F1
100
AcDbEntity
8
1
62
256
6
ByLayer
370
-1
48
1
60
0
100
AcDbSpline
70
4
71
3
72
8
73
4
40
0
40
0
40
0
40
0
40
1
40
1
40
1
40
1
41
1
10
7.52926665805111
20
4.50106582289047
30
0
41
1
10
7.45223375694519
20
4.71031967920516
30
0
41
1
10
7.37903938860362
20
4.91971954618472
30
0
41
1
10
7.30960077353305
20
5.12897910662062
30
0
0
SPLINE
5
1F2
100
AcDbEntity
8
1
62
256
6
ByLayer
370
-1
48
1
60
0
100
AcDbSpline
70
4
71
3
72
8
73
4
40
0
40
0
40
0
40
0
40
1
40
1
40
1
40
1
41
1
10
16.8489160914993
20
-4.88172204444589
30
0
41
1
10
16.8489160914993
20
-7.40813336427402
30
0
41
1
10
16.8489160914993
20
-9.93454468410212
30
0
41
1
10
16.8489160914992
20
-12.4609560039302
30
0
0
SPLINE
5
1F3
100
AcDbEntity
8
1
62
256
6
ByLayer
370
-1
48
1
60
0
100
AcDbSpline
70
4
71
3
72
8
73
4
40
0
40
0
40
0
40
0
40
1
40
1
40
1
40
1
41
1
10
30
20
10.7153477533703
30
0
41
1
10
30.7090441230168
20
10.4413545765958
30
0
41
1
10
31.4085023975686
20
10.1467406034671
30
0
41
1
10
32.0994163599837
20
9.83200709366372
30
0
0
SPLINE
5
1F4
100
AcDbEntity
8
1
62
256
6
ByLayer
370
-1
48
1
60
0
100
AcDbSpline
70
4
71
1
72
4
73
2
40
0
40
0
40
1
40
1
41
1
10
32.0994163599836
20
5.04575730842663
30
0
41
1
10
32.0994163599837
20
9.83200709366366
30
0
0
SPLINE
5
1F5
100
AcDbEntity
8
1
62
256
6
ByLayer
370
-1
48
1
60
0
100
AcDbSpline
70
4
71
2
72
6
73
3
40
0
40
0
40
0
40
1
40
1
40
1
41
1
10
26.1662394545373
20
-12.3978560625995
30
0
41
1
10
26.1662394545373
20
-13.4008982270075
30
0
41
1
10
26.1662394545373
20
-14.4039403914155
30
0
0
SPLINE
5
1F6
100
AcDbEntity
8
1
62
256
6
ByLayer
370
-1
48
1
60
0
100
AcDbSpline
70
4
71
3
72
12
73
8
40
0
40
0
40
0
40
0
40
0.25
40
0.25
40
0.5
40
0.5
40
1
40
1
40
1
40
1
41
1
10
188.506978442816
20
20.3953830776438
30
0
41
1
10
188.512270266957
20
20.3941059838589
30
0
41
1
10
188.52416636129
20
20.3926013044667
30
0
41
1
10
188.560651680706
20
20.3892207707289
30
0
41
1
10
188.585658064984
20
20.3873225555534
30
0
41
1
10
188.676788768981
20
20.3815127685327
30
0
41
1
10
188.760797497176
20
20.3773594926972
30
0
41
1
10
188.861100932486
20
20.373986231047
30
0
0
SPLINE
5
1F7
100
AcDbEntity
8
1
62
256
6
ByLayer
370
-1
48
1
60
0
100
AcDbSpline
70
4
71
3
72
30
73
26
40
0
40
0
40
0
40
0
40
0.0624999999999609
40
0.0624999999999609
40
0.0937499999999417
40
0.0937499999999417
40
0.109374999999944
40
0.109374999999944
40
0.124999999999946
40
0.124999999999946
40
0.156249999999939
40
0.156249999999939
40
0.187499999999932
40
0.187499999999932
40
0.249999999999927
40
0.249999999999927
40
0.312499999999921
40
0.312499999999921
40
0.374999999999915
40
0.374999999999915
40
0.499999999999923
40
0.499999999999923
40
0.749999999999961
40
0.749999999999961
40
1
40
1
40
1
40
1
41
1
10
177.625788696575
20
11.6652937835917
30
0
41
1
10
177.564087182781
20
11.6582894333189
30
0
41
1
10
177.503136390943
20
11.6476217871685
30
0
41
1
10
177.414783369341
20
11.6165791972691
30
0
41
1
10
177.385986940079
20
11.603606890123
30
0
41
1
10
177.347185120263
20
11.5776077598638
30
0
41
1
10
177.335230690353
20
11.567988090851
30
0
41
1
10
177.313887002975
20
11.5462557563818
30
0
41
1
10
177.304440053461
20
11.5339340745269
30
0
41
1
10
177.282680077551
20
11.4947814766135
30
0
41
1
10
177.276869374214
20
11.4649512096441
30
0
41
1
10
177.27954862341
20
11.4073814738246
30
0
41
1
10
177.287177028181
20
11.3797212363542
30
0
41
1
10
177.319137520064
20
11.300526241849
30
0
41
1
10
177.351637050878
20
11.2533307419367
30
0
41
1
10
177.423299632277
20
11.1646061957902
30
0
41
1
10
177.462668628437
20
11.1236761456612
30
0
41
1
10
177.545075458749
20
11.0454199442705
30
0
41
1
10
177.588203602706
20
11.0081797583862
30
0
41
1
10
177.72137831608
20
10.9002127298715
30
0
41
1
10
177.815381934904
20
10.8330451304109
30
0
41
1
10
178.103057893435
20
10.6422333671651
30
0
41
1
10
178.30336747263
20
10.5283040955821
30
0
41
1
10
178.713303197925
20
10.3149429767975
30
0
41
1
10
178.923200603398
20
10.2159186103668
30
0
41
1
10
179.136881908024
20
10.1226249568982
30
0
0
SPLINE
5
1F8
100
AcDbEntity
8
1
62
256
6
ByLayer
370
-1
48
1
60
0
100
AcDbSpline
70
4
71
3
72
18
73
14
40
0
40
0
40
0
40
0
40
0.125000000000001
40
0.125000000000001
40
0.250000000000001
40
0.250000000000001
40
0.375000000000002
40
0.375000000000002
40
0.500000000000002
40
0.500000000000002
40
0.750000000000001
40
0.750000000000001
40
1
40
1
40
1
40
1
41
1
10
189.260752704525
20
7.83880363082616
30
0
41
1
10
189.266056745494
20
7.83880363082616
30
0
41
1
10
189.261309421446
20
7.84536641422162
30
0
41
1
10
189.236082910961
20
7.86979533592958
30
0
41
1
10
189.216408687657
20
7.88703151032769
30
0
41
1
10
189.168556473012
20
7.92979847178219
30
0
41
1
10
189.140644490413
20
7.95510727831393
30
0
41
1
10
189.081571173714
20
8.01156939965074
30
0
41
1
10
189.050147658414
20
8.04292837547163
30
0
41
1
10
188.952500567825
20
8.14690721831599
30
0
41
1
10
188.885777622901
20
8.22635073610641
30
0
41
1
10
188.75503272975
20
8.40900910363629
30
0
41
1
10
188.69423918222
20
8.50761836866226
30
0
41
1
10
188.638627067358
20
8.61503903675768
30
0
0
SPLINE
5
1F9
100
AcDbEntity
8
1
62
256
6
ByLayer
370
-1
48
1
60
0
100
AcDbSpline
70
4
71
3
72
8
73
4
40
0
40
0
40
0
40
0
40
1
40
1
40
1
40
1
41
1
10
10.6745455743308
20
0.501432056843782
30
0
41
1
10
12.7397088144831
20
-1.29549011859348
30
0
41
1
10
14.8016508801492
20
-3.09347334367055
30
0
41
1
10
16.8489160914993
20
-4.88172204444589
30
0
0
SPLINE
5
1FA
100
AcDbEntity
8
1
62
256
6
ByLayer
370
-1
48
1
60
0
100
AcDbSpline
70
4
71
3
72
16
73
12
40
0
40
0
40
0
40
0
40
0.25
40
0.25
40
0.499999999999999
40
0.499999999999999
40
0.624999999999999
40
0.624999999999999
40
0.75
40
0.75
40
1
40
1
40
1
40
1
41
1
10
184.608315432279
20
5.01326841513733
30
0
41
1
10
184.36681851502
20
4.97231051327438
30
0
41
1
10
184.104898085791
20
4.94629236188186
30
0
41
1
10
183.550817229208
20
4.92457685800534
30
0
41
1
10
183.258536668781
20
4.92891298794211
30
0
41
1
10
182.801504832225
20
4.96007143052705
30
0
41
1
10
182.64553671287
20
4.97465243648051
30
0
41
1
10
182.331445476284
20
5.01202825264932
30
0
41
1
10
182.173089706431
20
5.03481229256533
30
0
41
1
10
181.694728301322
20
5.11555072705553
30
0
41
1
10
181.371461356848
20
5.18585303984096
30
0
41
1
10
181.045006292881
20
5.27337930475659
30
0
0
SPLINE
5
1FB
100
AcDbEntity
8
1
62
256
6
ByLayer
370
-1
48
1
60
0
100
AcDbSpline
70
4
71
3
72
30
73
26
40
0
40
0
40
0
40
0
40
0.125
40
0.125
40
0.25
40
0.25
40
0.375
40
0.375
40
0.4375
40
0.4375
40
0.5
40
0.5
40
0.625
40
0.625
40
0.6875
40
0.6875
40
0.75
40
0.75
40
0.875
40
0.875
40
0.9375
40
0.9375
40
0.96875
40
0.96875
40
1
40
1
40
1
40
1
41
1
10
8.14891609149922
20
0.849642174969119
30
0
41
1
10
8.42156804989102
20
0.121854225206846
30
0
41
1
10
8.70554327111805
20
-0.5935319494439
30
0
41
1
10
9.29645762240401
20
-1.99933222914362
30
0
41
1
10
9.60338731368296
20
-2.68975484743791
30
0
41
1
10
10.2418859080306
20
-4.04425508347117
30
0
41
1
10
10.5734282229888
20
-4.70835630290955
30
0
41
1
10
11.0918724811232
20
-5.68248028701768
30
0
41
1
10
11.2685165042472
20
-6.00401174542588
30
0
41
1
10
11.628342618376
20
-6.63687214045189
30
0
41
1
10
11.8103454826421
20
-6.94615772028811
30
0
41
1
10
12.36313807795
20
-7.85178708754225
30
0
41
1
10
12.740618244409
20
-8.42612111525338
30
0
41
1
10
13.3236482886869
20
-9.23719025944365
30
0
41
1
10
13.5208129150401
20
-9.49909523359977
30
0
41
1
10
13.9217056251427
20
-10.0041279317031
30
0
41
1
10
14.1260581093965
20
-10.2478602786105
30
0
41
1
10
14.7399910969152
20
-10.9351676593586
30
0
41
1
10
15.1531911576411
20
-11.3395520277169
30
0
41
1
10
15.7830330859782
20
-11.8456459544695
30
0
41
1
10
15.994674573182
20
-11.9974468948755
30
0
41
1
10
16.3155603692497
20
-12.1948168366388
30
0
41
1
10
16.4225417681768
20
-12.2551683493111
30
0
41
1
10
16.6358798633976
20
-12.3637885941312
30
0
41
1
10
16.7422833640617
20
-12.4104217526257
30
0
41
1
10
16.8489160914992
20
-12.4609560039302
30
0
0
SPLINE
5
1FC
100
AcDbEntity
8
1
62
256
6
ByLayer
370
-1
48
1
60
0
100
AcDbSpline
70
4
71
3
72
32
73
28
40
0
40
0
40
0
40
0
40
0.0239936196612026
40
0.0937083611139732
40
0.163423102566746
40
0.233137844019516
40
0.302852585472288
40
0.372567326925058
40
0.442282068377831
40
0.459710753741023
40
0.477139439104216
40
0.511996809830602
40
0.546854180556987
40
0.581711551283373
40
0.616568922009758
40
0.633997607372951
40
0.651426292736144
40
0.68628366346253
40
0.703712348825722
40
0.721141034188915
40
0.755998404915301
40
0.790855775641686
40
0.860570517094457
40
0.895427887820843
40
0.930285258547229
40
0.965142629273614
40
1
40
1
40
1
40
1
41
0.999999999999999
10
63.947903700476
20
1.25509120723254
30
0
41
0.999999999999999
10
63.693230484639
20
1.2873767905848
30
0
41
0.999999999999999
10
62.6985826586049
20
1.41338935731796
30
0
41
0.999999999999999
10
60.9638972328245
20
1.63255602271551
30
0
41
0.999999999999999
10
58.7437438063823
20
1.91139128342562
30
0
41
0.999999999999999
10
56.5234747362008
20
2.18850175532498
30
0
41
0.999999999999999
10
54.3031251867863
20
2.46354551760774
30
0
41
0.999999999999999
10
52.0827291204933
20
2.73623664295218
30
0
41
0.999999999999999
10
50.4174550608942
20
2.93879465673516
30
0
41
0.999999999999999
10
49.3072432949752
20
3.07290067731302
30
0
41
0.999999999999999
10
48.5670227276381
20
3.16203195164491
30
0
41
0.999999999999999
10
47.6415307725349
20
3.27306550124453
30
0
41
0.999999999999999
10
46.5311428237966
20
3.40572353514949
30
0
41
0.999999999999999
10
45.4212938188353
20
3.53744091473658
30
0
41
0.999999999999999
10
44.4964283063257
20
3.64630763570262
30
0
41
0.999999999999999
10
43.7561289603395
20
3.73305387861263
30
0
41
0.999999999999999
10
43.0155019075119
20
3.81958883491877
30
0
41
0.999999999999999
10
42.2749933842013
20
3.90583555618122
30
0
41
0.999999999999999
10
41.5349037401317
20
3.99159425487568
30
0
41
0.999999999999999
10
40.7951415548789
20
4.07693032291261
30
0
41
0.999999999999999
10
39.8703958416166
20
4.18289624329202
30
0
41
0.999999999999999
10
38.3898955538675
20
4.35121523648354
30
0
41
0.999999999999999
10
36.9093306337364
20
4.51786189078135
30
0
41
0.999999999999999
10
35.429332653521
20
4.68241781423007
30
0
41
0.999999999999999
10
34.319577444706
20
4.80465970869216
30
0
41
0.999999999999999
10
33.2097231392687
20
4.92577863047788
30
0
41
0.999999999999999
10
32.4695602749533
20
5.00587402620568
30
0
41
0.999999999999999
10
32.0994163599865
20
5.04575730842615
30
0
0
SPLINE
5
1FD
100
AcDbEntity
8
1
62
256
6
ByLayer
370
-1
48
1
60
0
100
AcDbSpline
70
4
71
3
72
18
73
14
40
0
40
0
40
0
40
0
40
0.337239632615414
40
0.337239632615414
40
0.505859448923121
40
0.505859448923121
40
0.674479265230829
40
0.674479265230829
40
0.843099081538536
40
0.843099081538536
40
0.927408989692402
40
0.927408989692402
40
1
40
1
40
1
40
1
41
1
10
194.43615333113
20
14.2062232548768
30
0
41
1
10
194.46157873515
20
13.9942528163298
30
0
41
1
10
194.521619686614
20
13.7834965033015
30
0
41
1
10
194.672791342935
20
13.4717910001342
30
0
41
1
10
194.733066645038
20
13.3699516216575
30
0
41
1
10
194.873579938488
20
13.1744207967588
30
0
41
1
10
194.953984403176
20
13.080253592875
30
0
41
1
10
195.139067414424
20
12.9012969277681
30
0
41
1
10
195.24171306129
20
12.8186179585896
30
0
41
1
10
195.41095812611
20
12.7082778859853
30
0
41
1
10
195.470020766055
20
12.6737106744341
30
0
41
1
10
195.585422567855
20
12.6140600935376
30
0
41
1
10
195.640711347733
20
12.588516100135
30
0
41
1
10
195.697202842695
20
12.5654992714926
30
0
0
SPLINE
5
1FE
100
AcDbEntity
8
1
62
256
6
ByLayer
370
-1
48
1
60
0
100
AcDbSpline
70
4
71
3
72
20
73
16
40
0
40
0
40
0
40
0
40
0.0072473348294002
40
0.0072473348294002
40
0.106522601346467
40
0.106522601346467
40
0.205797867863533
40
0.205797867863533
40
0.40434840089765
40
0.40434840089765
40
0.602898933931767
40
0.602898933931767
40
0.801449466965883
40
0.801449466965883
40
1
40
1
40
1
40
1
41
1
10
194.923558934147
20
15.6550764780464
30
0
41
1
10
194.920608916214
20
15.6522045380088
30
0
41
1
10
194.917673507668
20
15.6493250496321
30
0
41
1
10
194.874740347257
20
15.6068921855162
30
0
41
1
10
194.83746501058
20
15.5658959671166
30
0
41
1
10
194.767879519858
20
15.4811546220378
30
0
41
1
10
194.735642320662
20
15.4374543830864
30
0
41
1
10
194.647210540856
20
15.3045748921733
30
0
41
1
10
194.598592324623
20
15.2129123488442
30
0
41
1
10
194.519005284111
20
15.0237853981752
30
0
41
1
10
194.488074324965
20
14.9263149553071
30
0
41
1
10
194.443245609127
20
14.7254517868392
30
0
41
1
10
194.429665655525
20
14.6232725537051
30
0
41
1
10
194.419789731057
20
14.4167195925567
30
0
41
1
10
194.42344062912
20
14.3122084741503
30
0
41
1
10
194.43615333113
20
14.2062232548768
30
0
0
SPLINE
5
1FF
100
AcDbEntity
8
1
62
256
6
ByLayer
370
-1
48
1
60
0
100
AcDbSpline
70
4
71
3
72
8
73
4
40
0
40
0
40
0
40
0
40
1
40
1
40
1
40
1
41
1
10
165.436137570193
20
11.4960913460594
30
0
41
1
10
167.153998505957
20
10.708678954459
30
0
41
1
10
168.886688060858
20
9.93430657601181
30
0
41
1
10
170.634873087551
20
9.1735606285888
30
0
0
SPLINE
5
200
100
AcDbEntity
8
1
62
256
6
ByLayer
370
-1
48
1
60
0
100
AcDbSpline
70
4
71
3
72
14
73
10
40
0
40
0
40
0
40
0
40
0.25
40
0.25
40
0.5
40
0.5
40
0.75
40
0.75
40
1
40
1
40
1
40
1
41
1
10
174.547999677526
20
10.9660096557323
30
0
41
1
10
173.769381306733
20
11.1316459175141
30
0
41
1
10
172.998995615626
20
11.3166043786343
30
0
41
1
10
171.475527340283
20
11.7304619844269
30
0
41
1
10
170.72244437512
20
11.9593868248559
30
0
41
1
10
169.231842747584
20
12.4619028750475
30
0
41
1
10
168.494335734481
20
12.7355707061178
30
0
41
1
10
167.030732227777
20
13.322967697931
30
0
41
1
10
166.304355163768
20
13.6361185261779
30
0
41
1
10
165.579362721784
20
13.9605262334227
30
0
0
SPLINE
5
201
100
AcDbEntity
8
1
62
256
6
ByLayer
370
-1
48
1
60
0
100
AcDbSpline
70
4
71
3
72
8
73
4
40
0
40
0
40
0
40
0
40
1
40
1
40
1
40
1
41
1
10
162.925314085413
20
12.2025709885421
30
0
41
1
10
163.473977510683
20
11.9986276148902
30
0
41
1
10
164.033686127534
20
11.824769863877
30
0
41
1
10
164.603918934602
20
11.6816060002374
30
0
0
SPLINE
5
202
100
AcDbEntity
8
1
62
256
6
ByLayer
370
-1
48
1
60
0
100
AcDbSpline
70
4
71
3
72
14
73
10
40
0
40
0
40
0
40
0
40
0.250000000000016
40
0.250000000000016
40
0.375000000000017
40
0.375000000000017
40
0.500000000000019
40
0.500000000000019
40
1
40
1
40
1
40
1
41
1
10
182.107978965927
20
8.83579161267258
30
0
41
1
10
182.602714390566
20
8.64931589656558
30
0
41
1
10
183.107905935797
20
8.48645067232843
30
0
41
1
10
183.881930617283
20
8.27885126152026
30
0
41
1
10
184.142553041738
20
8.21585626306359
30
0
41
1
10
184.663301413782
20
8.10357017458063
30
0
41
1
10
184.924164640879
20
8.05407025293331
30
0
41
1
10
186.230896715892
20
7.83929053796876
30
0
41
1
10
187.283943633203
20
7.77121874573763
30
0
41
1
10
188.344837392851
20
7.80829244868599
30
0
0
SPLINE
5
203
100
AcDbEntity
8
1
62
256
6
ByLayer
370
-1
48
1
60
0
100
AcDbSpline
70
4
71
3
72
10
73
6
40
0
40
0
40
0
40
0
40
0.5
40
0.5
40
1
40
1
40
1
40
1
41
1
10
8.14891609149925
20
0.84964217496892
30
0
41
1
10
7.95565510896074
20
1.56295152600774
30
0
41
1
10
7.79532488922354
20
2.27687474126245
30
0
41
1
10
7.5207732109225
20
3.70390174838059
30
0
41
1
10
7.40671987047332
20
4.41701782680821
30
0
41
1
10
7.30960077353302
20
5.12897910662062
30
0
0
SPLINE
5
204
100
AcDbEntity
8
1
62
256
6
ByLayer
370
-1
48
1
60
0
100
AcDbSpline
70
4
71
3
72
26
73
22
40
0
40
0
40
0
40
0
40
0.0510332897705553
40
0.0510332897705553
40
0.156474035351604
40
0.156474035351604
40
0.367355526513703
40
0.367355526513703
40
0.472796272094752
40
0.472796272094752
40
0.578237017675802
40
0.578237017675802
40
0.683677763256852
40
0.683677763256852
40
0.736398136047376
40
0.736398136047376
40
0.789118508837901
40
0.789118508837901
40
0.894559254418951
40
0.894559254418951
40
1
40
1
40
1
40
1
41
1
10
137.930399980506
20
16.9427784367026
30
0
41
1
10
138.472987165074
20
17.0267334580882
30
0
41
1
10
139.015597919893
20
17.109282121735
30
0
41
1
10
140.679468770739
20
17.3578954400769
30
0
41
1
10
141.800868770562
20
17.5192539448711
30
0
41
1
10
145.165426359239
20
17.9852490373416
30
0
41
1
10
147.408563182754
20
18.2724024473175
30
0
41
1
10
150.77536360991
20
18.6641043792856
30
0
41
1
10
151.898052031359
20
18.7880674586974
30
0
41
1
10
154.144597284924
20
19.0223791840327
30
0
41
1
10
155.268698805528
20
19.1327564385602
30
0
41
1
10
157.516366526742
20
19.3403504161534
30
0
41
1
10
158.639644914964
20
19.4377520533136
30
0
41
1
10
160.325045024299
20
19.5728289066197
30
0
41
1
10
160.886863847373
20
19.6160969088733
30
0
41
1
10
162.010222875283
20
19.6994212400558
30
0
41
1
10
162.571783817698
20
19.7394499520347
30
0
41
1
10
164.256480050177
20
19.8542661280265
30
0
41
1
10
165.379789226757
20
19.9236788615362
30
0
41
1
10
167.625976148883
20
20.048863854104
30
0
41
1
10
168.749009070394
20
20.1044865695813
30
0
41
1
10
169.872278481478
20
20.1529503060248
30
0
0
SPLINE
5
205
100
AcDbEntity
8
1
62
256
6
ByLayer
370
-1
48
1
60
0
100
AcDbSpline
70
4
71
3
72
16
73
12
40
0
40
0
40
0
40
0
40
0.250000000000008
40
0.250000000000008
40
0.500000000000017
40
0.500000000000017
40
0.625000000000015
40
0.625000000000015
40
0.750000000000014
40
0.750000000000014
40
1
40
1
40
1
40
1
41
1
10
186.995351124366
20
2.66740681173846
30
0
41
1
10
186.38614066114
20
2.63069959549901
30
0
41
1
10
185.780856199088
20
2.63122601863742
30
0
41
1
10
184.577925261698
20
2.70471557543252
30
0
41
1
10
183.980278868938
20
2.7776799445287
30
0
41
1
10
183.089683560248
20
2.9425775525786
30
0
41
1
10
182.793800651387
20
3.00681241048369
30
0
41
1
10
182.20406435855
20
3.15435808430132
30
0
41
1
10
181.910049657549
20
3.23778519791026
30
0
41
1
10
181.0406923277
20
3.51446692514719
30
0
41
1
10
180.474808476461
20
3.73473278820782
30
0
41
1
10
179.923089639912
20
3.99142138790964
30
0
0
SPLINE
5
206
100
AcDbEntity
8
1
62
256
6
ByLayer
370
-1
48
1
60
0
100
AcDbSpline
70
4
71
3
72
26
73
22
40
0
40
0
40
0
40
0
40
0.125
40
0.125
40
0.25
40
0.25
40
0.375
40
0.375
40
0.4375
40
0.4375
40
0.5
40
0.5
40
0.625
40
0.625
40
0.75
40
0.75
40
0.8125
40
0.8125
40
0.875
40
0.875
40
1
40
1
40
1
40
1
41
1
10
16.8489160914993
20
-12.4609560039302
30
0
41
1
10
17.0913948759716
20
-12.6912874446031
30
0
41
1
10
17.3547368201247
20
-12.8839019545805
30
0
41
1
10
17.9217195560381
20
-13.2159043911847
30
0
41
1
10
18.2253680404969
20
-13.3551583636834
30
0
41
1
10
18.872958403476
20
-13.5949379209016
30
0
41
1
10
19.2168991846688
20
-13.695387884571
30
0
41
1
10
19.7639972965707
20
-13.8246953870924
30
0
41
1
10
19.951025534925
20
-13.8640628747322
30
0
41
1
10
20.3317640365356
20
-13.9360720381719
30
0
41
1
10
20.52585993943
20
-13.968804978903
30
0
41
1
10
21.1193505585428
20
-14.0588952128656
30
0
41
1
10
21.5299185824757
20
-14.1082036193484
30
0
41
1
10
22.3816988957201
20
-14.1924807192899
30
0
41
1
10
22.8229062623659
20
-14.2274181776448
30
0
41
1
10
23.5090744894894
20
-14.2732094291153
30
0
41
1
10
23.7417062175787
20
-14.2873457400159
30
0
41
1
10
24.2115690507855
20
-14.3138141478491
30
0
41
1
10
24.449240223477
20
-14.326176185193
30
0
41
1
10
25.1705908474891
20
-14.3615426397644
30
0
41
1
10
25.662585163705
20
-14.3828490754371
30
0
41
1
10
26.1662394557192
20
-14.403940391573
30
0
0
SPLINE
5
207
100
AcDbEntity
8
1
62
256
6
ByLayer
370
-1
48
1
60
0
100
AcDbSpline
70
4
71
3
72
8
73
4
40
0
40
0
40
0
40
0
40
1
40
1
40
1
40
1
41
1
10
186.356791957531
20
-20.3450166275306
30
0
41
1
10
186.904985072942
20
-20.350638888854
30
0
41
1
10
187.443106092003
20
-20.3592551843996
30
0
41
1
10
187.97115246564
20
-20.3684796454424
30
0
0
SPLINE
5
208
100
AcDbEntity
8
1
62
256
6
ByLayer
370
-1
48
1
60
0
100
AcDbSpline
70
4
71
2
72
6
73
3
40
0
40
0
40
0
40
1
40
1
40
1
41
1
10
8.14891609149916
20
3.1431653646182
30
0
41
1
10
8.14891609149916
20
1.99640376979374
30
0
41
1
10
8.14891609149919
20
0.84964217496929
30
0
0
SPLINE
5
209
100
AcDbEntity
8
1
62
256
6
ByLayer
370
-1
48
1
60
0
100
AcDbSpline
70
4
71
3
72
16
73
12
40
0
40
0
40
0
40
0
40
0.25
40
0.25
40
0.375
40
0.375
40
0.500000000000001
40
0.500000000000001
40
0.75
40
0.75
40
1
40
1
40
1
40
1
41
1
10
30
20
10.7153477533703
30
0
41
1
10
29.206196298759
20
11.0220942459764
30
0
41
1
10
28.4042652775099
20
11.3248061682595
30
0
41
1
10
27.1915578982873
20
11.7822932416589
30
0
41
1
10
26.7856974030788
20
11.9353897191307
30
0
41
1
10
25.9712634783183
20
12.2447651779108
30
0
41
1
10
25.5666162835209
20
12.3995650438916
30
0
41
1
10
24.3630214977268
20
12.866671732309
30
0
41
1
10
23.5737534222498
20
13.1818966520526
30
0
41
1
10
22.0278394027433
20
13.8363775629064
30
0
41
1
10
21.2711591219612
20
14.1755904508082
30
0
41
1
10
20.5344046192236
20
14.5358326769216
30
0
0
SPLINE
5
20A
100
AcDbEntity
8
1
62
256
6
ByLayer
370
-1
48
1
60
0
100
AcDbSpline
70
4
71
3
72
8
73
4
40
0
40
0
40
0
40
0
40
1
40
1
40
1
40
1
41
1
10
182.107978965927
20
8.83579161267258
30
0
41
1
10
182.608894077723
20
8.56922460662722
30
0
41
1
10
183.124946306507
20
8.33016262758278
30
0
41
1
10
183.664163516125
20
8.12293402469564
30
0
0
SPLINE
5
20B
100
AcDbEntity
8
1
62
256
6
ByLayer
370
-1
48
1
60
0
100
AcDbSpline
70
4
71
3
72
10
73
6
40
0
40
0
40
0
40
0
40
0.5
40
0.5
40
1
40
1
40
1
40
1
41
1
10
16.1324344552884
20
17.1976188305813
30
0
41
1
10
16.2570636034738
20
17.1220248485416
30
0
41
1
10
16.3789895705565
20
17.0416468593433
30
0
41
1
10
16.6174494446082
20
16.8713686600145
30
0
41
1
10
16.7329710136193
20
16.7809208147759
30
0
41
1
10
16.8507031081145
20
16.6883403736418
30
0
0
SPLINE
5
20C
100
AcDbEntity
8
1
62
256
6
ByLayer
370
-1
48
1
60
0
100
AcDbSpline
70
4
71
3
72
32
73
28
40
0
40
0
40
0
40
0
40
0.0807020345722618
40
0.0807020345722618
40
0.161404069144524
40
0.161404069144524
40
0.242106103716785
40
0.242106103716785
40
0.322808138289047
40
0.322808138289047
40
0.403510172861309
40
0.403510172861309
40
0.484212207433571
40
0.484212207433571
40
0.564914242005833
40
0.564914242005833
40
0.645616276578094
40
0.645616276578094
40
0.726318311150356
40
0.726318311150356
40
0.807020345722618
40
0.807020345722618
40
0.88772238029488
40
0.88772238029488
40
0.968424414867142
40
0.968424414867142
40
1
40
1
40
1
40
1
41
1
10
32.0994163599865
20
5.04575730842609
30
0
41
1
10
31.7412619833193
20
4.89492623109436
30
0
41
1
10
31.373539879775
20
4.69371552160354
30
0
41
1
10
30.6312936149884
20
4.19728344369585
30
0
41
1
10
30.2567834885462
20
3.9020714620894
30
0
41
1
10
29.5135503138471
20
3.22755702078743
30
0
41
1
10
29.1448413190513
20
2.8482673151814
30
0
41
1
10
28.4256050109474
20
2.0183443073845
30
0
41
1
10
28.0750912973545
20
1.56772669783365
30
0
41
1
10
27.4040289778983
20
0.610292978011017
30
0
41
1
10
27.08349306085
20
0.103494971421895
30
0
41
1
10
26.4831624838976
20
-0.949265334515246
30
0
41
1
10
26.2033791753737
20
-1.49520772769319
30
0
41
1
10
25.693960447891
20
-2.60790609149584
30
0
41
1
10
25.4643346613013
20
-3.17464102260874
30
0
41
1
10
25.0629518892492
20
-4.30987409874993
30
0
41
1
10
24.8912024933528
20
-4.87835077816771
30
0
41
1
10
24.6113481550187
20
-5.99795771696728
30
0
41
1
10
24.5032485042206
20
-6.54906680620616
30
0
41
1
10
24.3543299006816
20
-7.61541203045059
30
0
41
1
10
24.3135137637756
20
-8.13062800241502
30
0
41
1
10
24.3005367925572
20
-9.10786632694837
30
0
41
1
10
24.3283762036205
20
-9.56987020135833
30
0
41
1
10
24.4517770854957
20
-10.4251517686598
30
0
41
1
10
24.5473362229759
20
-10.8184132894177
30
0
41
1
10
24.7251607175911
20
-11.3085369356874
30
0
41
1
10
24.7801071140962
20
-11.4400987169938
30
0
41
1
10
24.8398299392693
20
-11.5650732084103
30
0
0
SPLINE
5
20D
100
AcDbEntity
8
1
62
256
6
ByLayer
370
-1
48
1
60
0
100
AcDbSpline
70
4
71
3
72
36
73
32
40
0
40
0
40
0
40
0
40
0.029734505751691
40
0.029734505751691
40
0.0701622346787039
40
0.0701622346787039
40
0.110589963605717
40
0.110589963605717
40
0.191445421459743
40
0.191445421459743
40
0.272300879313769
40
0.272300879313769
40
0.353156337167794
40
0.353156337167794
40
0.43401179502182
40
0.43401179502182
40
0.514867252875846
40
0.514867252875846
40
0.595722710729872
40
0.595722710729872
40
0.676578168583898
40
0.676578168583898
40
0.757433626437923
40
0.757433626437923
40
0.797861355364936
40
0.797861355364936
40
0.838289084291949
40
0.838289084291949
40
0.919144542145974
40
0.919144542145974
40
1
40
1
40
1
40
1
41
1
10
134.511520161769
20
-15.9866767808412
30
0
41
1
10
133.462990157764
20
-16.1504707209956
30
0
41
1
10
132.414359066154
20
-16.3094015549817
30
0
41
1
10
129.939603419922
20
-16.672554233632
30
0
41
1
10
128.513211423063
20
-16.872578584914
30
0
41
1
10
125.661388861121
20
-17.2533672550534
30
0
41
1
10
124.235746959073
20
-17.434167870286
30
0
41
1
10
119.959170330702
20
-17.9471351572591
30
0
41
1
10
117.108599458249
20
-18.2498637786754
30
0
41
1
10
111.405973060258
20
-18.7719139072415
30
0
41
1
10
108.553184331862
20
-18.9927072703755
30
0
41
1
10
102.850991901571
20
-19.3465507497503
30
0
41
1
10
100.000969639542
20
-19.4778877969281
30
0
41
1
10
94.2996119440864
20
-19.6505664475504
30
0
41
1
10
91.447317093977
20
-19.6923181800535
30
0
41
1
10
85.7444563221389
20
-19.6888807573421
30
0
41
1
10
82.8939340803443
20
-19.6439232531074
30
0
41
1
10
77.1925943002641
20
-19.4653024748893
30
0
41
1
10
74.3412480112684
20
-19.3319638257076
30
0
41
1
10
68.6375933317396
20
-18.9780094906074
30
0
41
1
10
65.7871224442121
20
-18.7576636802416
30
0
41
1
10
60.086274574638
20
-18.2319435961826
30
0
41
1
10
57.2358201466893
20
-17.9271381505162
30
0
41
1
10
52.9583254804132
20
-17.4099111579812
30
0
41
1
10
51.5323206506193
20
-17.2275462704279
30
0
41
1
10
48.681549247432
20
-16.8437001505781
30
0
41
1
10
47.256514713081
20
-16.6422551044926
30
0
41
1
10
42.9820585787627
20
-16.0096611529364
30
0
41
1
10
40.133126481237
20
-15.551599180864
30
0
41
1
10
34.434270499673
20
-14.5661588307729
30
0
41
1
10
31.5842907420483
20
-14.0392226002122
30
0
41
1
10
28.7324052296862
20
-13.4812146938433
30
0
0
SPLINE
5
20E
100
AcDbEntity
8
1
62
256
6
ByLayer
370
-1
48
1
60
0
100
AcDbSpline
70
4
71
3
72
22
73
18
40
0
40
0
40
0
40
0
40
0.25
40
0.25
40
0.375
40
0.375
40
0.4375
40
0.4375
40
0.5
40
0.5
40
0.625
40
0.625
40
0.75
40
0.75
40
0.875
40
0.875
40
1
40
1
40
1
40
1
41
1
10
35
20
9.10391768783222
30
0
41
1
10
41.7583595514681
20
7.37986289940815
30
0
41
1
10
48.4998289584585
20
5.55256475391479
30
0
41
1
10
58.6132369834392
20
2.74983198029045
30
0
41
1
10
61.9846132534391
20
1.80545285983854
30
0
41
1
10
67.0457042874602
20
0.386887881032465
30
0
41
1
10
68.7334326528592
20
-0.086197309633917
30
0
41
1
10
72.1106463905321
20
-1.03151158992981
30
0
41
1
10
73.8006205544028
20
-1.50369610633646
30
0
41
1
10
78.8714428384728
20
-2.91371248198945
30
0
41
1
10
82.2478362973001
20
-3.84403848735508
30
0
41
1
10
88.9970387410658
20
-5.66867957701771
30
0
41
1
10
92.3698072385868
20
-6.56318252886632
30
0
41
1
10
99.1150239955788
20
-8.30506969595496
30
0
41
1
10
102.487383467095
20
-9.15265802917347
30
0
41
1
10
109.238066508538
20
-10.7798955699804
30
0
41
1
10
112.616816465116
20
-11.558315823508
30
0
41
1
10
116
20
-12.2984672766948
30
0
0
SPLINE
5
20F
100
AcDbEntity
8
1
62
256
6
ByLayer
370
-1
48
1
60
0
100
AcDbSpline
70
4
71
3
72
16
73
12
40
0
40
0
40
0
40
0
40
0.25
40
0.25
40
0.500000000000001
40
0.500000000000001
40
0.625000000000001
40
0.625000000000001
40
0.750000000000001
40
0.750000000000001
40
1
40
1
40
1
40
1
41
1
10
10.6745454199815
20
0.50143144175405
30
0
41
1
10
10.4544363354804
20
0.630062406112955
30
0
41
1
10
10.2361968347847
20
0.782909094216279
30
0
41
1
10
9.80267227173755
20
1.13543770604872
30
0
41
1
10
9.5873899606994
20
1.33511738698365
30
0
41
1
10
9.26625796893097
20
1.67099766571931
30
0
41
1
10
9.15931907843282
20
1.78932260988552
30
0
41
1
10
8.94926585031348
20
2.0346552417119
30
0
41
1
10
8.84575409967778
20
2.16205142600029
30
0
41
1
10
8.53961876246041
20
2.5582877171133
30
0
41
1
10
8.34136581462798
20
2.84108889817938
30
0
41
1
10
8.14891609149913
20
3.14316536461811
30
0
0
SPLINE
5
210
100
AcDbEntity
8
1
62
256
6
ByLayer
370
-1
48
1
60
0
100
AcDbSpline
70
4
71
3
72
20
73
16
40
0
40
0
40
0
40
0
40
0.125
40
0.125
40
0.250000000000001
40
0.250000000000001
40
0.500000000000003
40
0.500000000000003
40
0.625000000000003
40
0.625000000000003
40
0.687500000000003
40
0.687500000000003
40
0.750000000000002
40
0.750000000000002
40
1
40
1
40
1
40
1
41
1
10
116
20
-12.2984672766948
30
0
41
1
10
118.270328106917
20
-12.8011876085794
30
0
41
1
10
120.538440303654
20
-13.286539478356
30
0
41
1
10
125.072360583829
20
-14.2165210013957
30
0
41
1
10
127.338107979458
20
-14.661360822607
30
0
41
1
10
134.13350032011
20
-15.9310628390272
30
0
41
1
10
138.661542137986
20
-16.6903836805618
30
0
41
1
10
145.458005706603
20
-17.6818291823853
30
0
41
1
10
147.724317761668
20
-17.9876024519363
30
0
41
1
10
151.125482298136
20
-18.4081324347922
30
0
41
1
10
152.25950936304
20
-18.5419067015831
30
0
41
1
10
154.528482545886
20
-18.79612126593
30
0
41
1
10
155.663657442637
20
-18.9166013025401
30
0
41
1
10
161.33787248686
20
-19.4849669777777
30
0
41
1
10
165.873654239695
20
-19.8300793664907
30
0
41
1
10
170.412054685896
20
-20.0596160322688
30
0
0
SPLINE
5
211
100
AcDbEntity
8
1
62
256
6
ByLayer
370
-1
48
1
60
0
100
AcDbSpline
70
4
71
3
72
38
73
34
40
0
40
0
40
0
40
0
40
0.125
40
0.125
40
0.187500000000001
40
0.187500000000001
40
0.250000000000001
40
0.250000000000001
40
0.375000000000007
40
0.375000000000007
40
0.500000000000013
40
0.500000000000013
40
0.531250000000012
40
0.531250000000012
40
0.562500000000011
40
0.562500000000011
40
0.625000000000009
40
0.625000000000009
40
0.687500000000007
40
0.687500000000007
40
0.718750000000006
40
0.718750000000006
40
0.750000000000005
40
0.750000000000005
40
0.812500000000002
40
0.812500000000002
40
0.875
40
0.875
40
0.937499999999998
40
0.937499999999998
40
0.968749999999999
40
0.968749999999999
40
1
40
1
40
1
40
1
41
1
10
183.664163516125
20
8.12293402469558
30
0
41
1
10
184.032963386034
20
7.98119915343588
30
0
41
1
10
184.394133602727
20
7.84931948354068
30
0
41
1
10
184.920493944561
20
7.66212413966079
30
0
41
1
10
185.093413414785
20
7.60147011027129
30
0
41
1
10
185.427268583305
20
7.48478614861543
30
0
41
1
10
185.588966010211
20
7.42848549270383
30
0
41
1
10
186.056873322749
20
7.26398465717929
30
0
41
1
10
186.346220751323
20
7.16029222961839
30
0
41
1
10
186.865946632355
20
6.95400239221897
30
0
41
1
10
187.088389177102
20
6.85439789343118
30
0
41
1
10
187.309031181737
20
6.72702475743554
30
0
41
1
10
187.350278114165
20
6.70139720358833
30
0
41
1
10
187.426622801005
20
6.64963225438714
30
0
41
1
10
187.461831215524
20
6.62339567642405
30
0
41
1
10
187.556508529813
20
6.54449237320912
30
0
41
1
10
187.605175298203
20
6.49163497990872
30
0
41
1
10
187.67247910036
20
6.38432818797395
30
0
41
1
10
187.691124514709
20
6.32987792795456
30
0
41
1
10
187.694978764253
20
6.24646545010623
30
0
41
1
10
187.692186331178
20
6.21833760113051
30
0
41
1
10
187.678561119248
20
6.16244411884193
30
0
41
1
10
187.667749451497
20
6.13455994026518
30
0
41
1
10
187.623598323111
20
6.05110810980685
30
0
41
1
10
187.578571158555
20
5.99572489034213
30
0
41
1
10
187.458092368279
20
5.88593785218501
30
0
41
1
10
187.381918641578
20
5.83119608146501
30
0
41
1
10
187.204273541148
20
5.72645278577832
30
0
41
1
10
187.102730136555
20
5.67619445915327
30
0
41
1
10
186.93309053142
20
5.60462688040013
30
0
41
1
10
186.873648313381
20
5.5814102975599
30
0
41
1
10
186.749179686075
20
5.53639325395429
30
0
41
1
10
186.683975767455
20
5.51454009339983
30
0
41
1
10
186.61655797392
20
5.493622778359
30
0
0
SPLINE
5
212
100
AcDbEntity
8
1
62
256
6
ByLayer
370
-1
48
1
60
0
100
AcDbSpline
70
4
71
3
72
93
73
89
40
-0.0312499999999994
40
-0.0312499999999994
40
0
40
0
40
0.0312500000000083
40
0.0312500000000083
40
0.0468750000000129
40
0.0468750000000129
40
0.0625000000000175
40
0.0625000000000175
40
0.0937500000000244
40
0.0937500000000244
40
0.125000000000031
40
0.125000000000031
40
0.156250000000038
40
0.156250000000038
40
0.171875000000041
40
0.171875000000041
40
0.187500000000045
40
0.187500000000045
40
0.218750000000058
40
0.218750000000058
40
0.250000000000071
40
0.250000000000071
40
0.265625000000074
40
0.265625000000074
40
0.281250000000077
40
0.281250000000077
40
0.312500000000076
40
0.312500000000076
40
0.328125000000076
40
0.328125000000076
40
0.343750000000075
40
0.343750000000075
40
0.375000000000069
40
0.375000000000069
40
0.406250000000062
40
0.406250000000062
40
0.42187500000006
40
0.42187500000006
40
0.437500000000059
40
0.437500000000059
40
0.468750000000053
40
0.468750000000053
40
0.484375000000049
40
0.484375000000049
40
0.500000000000046
40
0.500000000000046
40
0.531250000000039
40
0.531250000000039
40
0.562500000000032
40
0.562500000000032
40
0.578125000000028
40
0.578125000000028
40
0.593750000000025
40
0.593750000000025
40
0.625000000000017
40
0.625000000000017
40
0.640625000000016
40
0.640625000000016
40
0.656250000000014
40
0.656250000000014
40
0.687500000000006
40
0.687500000000006
40
0.718749999999997
40
0.718749999999997
40
0.749999999999989
40
0.749999999999989
40
0.765624999999988
40
0.765624999999988
40
0.781249999999988
40
0.796874999999987
40
0.796874999999987
40
0.812499999999986
40
0.812499999999986
40
0.843749999999991
40
0.843749999999991
40
0.859374999999991
40
0.859374999999991
40
0.87499999999999
40
0.87499999999999
40
0.906249999999995
40
0.906249999999995
40
0.937499999999999
40
0.937499999999999
40
0.953125
40
0.953125
40
0.968750000000001
40
0.968750000000001
40
1
40
1
40
1.03125000000001
40
1.03125000000001
41
1
10
193.256955238021
20
-4.23025662064788
30
0
41
1
10
193.244403596763
20
-3.98667003275355
30
0
41
1
10
193.249746917549
20
-3.86598506374372
30
0
41
1
10
193.274760319531
20
-3.68659138344583
30
0
41
1
10
193.285950849873
20
-3.62706800322687
30
0
41
1
10
193.314205673492
20
-3.50859277445275
30
0
41
1
10
193.331385764179
20
-3.44936397273423
30
0
41
1
10
193.390939314393
20
-3.27606006692218
30
0
41
1
10
193.441328160538
20
-3.16551699773294
30
0
41
1
10
193.563492225069
20
-2.95450356538893
30
0
41
1
10
193.636240008342
20
-2.85315996831011
30
0
41
1
10
193.798182470625
20
-2.66930317098516
30
0
41
1
10
193.887600907594
20
-2.58591395394359
30
0
41
1
10
194.034671864086
20
-2.47398125369534
30
0
41
1
10
194.086163451382
20
-2.43872015830533
30
0
41
1
10
194.191484667592
20
-2.37415477128081
30
0
41
1
10
194.245446419908
20
-2.34470669027348
30
0
41
1
10
194.411157669727
20
-2.26470968557456
30
0
41
1
10
194.526915439723
20
-2.22236584977475
30
0
41
1
10
194.768163004068
20
-2.16117012678623
30
0
41
1
10
194.889884231724
20
-2.14322701625071
30
0
41
1
10
195.07405275222
20
-2.13462407237495
30
0
41
1
10
195.135708746228
20
-2.13483169098012
30
0
41
1
10
195.259568542263
20
-2.14156857132207
30
0
41
1
10
195.321650711494
20
-2.14813561734391
30
0
41
1
10
195.504482238244
20
-2.17686874212458
30
0
41
1
10
195.623261490353
20
-2.20802281589721
30
0
41
1
10
195.796762970461
20
-2.27274302463135
30
0
41
1
10
195.854117379419
20
-2.29750535635736
30
0
41
1
10
195.965054593897
20
-2.35222178162527
30
0
41
1
10
196.018770914153
20
-2.38218430205742
30
0
41
1
10
196.174799964938
20
-2.47966828932547
30
0
41
1
10
196.272250901321
20
-2.55491118865947
30
0
41
1
10
196.452254049707
20
-2.72533486905678
30
0
41
1
10
196.532245700909
20
-2.81801137034637
30
0
41
1
10
196.637941761266
20
-2.96761401642104
30
0
41
1
10
196.670774149578
20
-3.019259509065
30
0
41
1
10
196.731553592834
20
-3.12615911016741
30
0
41
1
10
196.759404350128
20
-3.18132291637664
30
0
41
1
10
196.833920973247
20
-3.34864417738476
30
0
41
1
10
196.872302795382
20
-3.46373795642606
30
0
41
1
10
196.913242385885
20
-3.64154831491254
30
0
41
1
10
196.924130312037
20
-3.70200641043056
30
0
41
1
10
196.939934291425
20
-3.82284631373167
30
0
41
1
10
196.944886653322
20
-3.88319547345625
30
0
41
1
10
196.951184660079
20
-4.06403244310641
30
0
41
1
10
196.94404936932
20
-4.18431017777624
30
0
41
1
10
196.90671544962
20
-4.42430424522928
30
0
41
1
10
196.876787095462
20
-4.54155808473928
30
0
41
1
10
196.816265871083
20
-4.71090871403149
30
0
41
1
10
196.793446220774
20
-4.76641016585157
30
0
41
1
10
196.742425914121
20
-4.87549607817849
30
0
41
1
10
196.714078862074
20
-4.9293222078943
30
0
41
1
10
196.621669067323
20
-5.08602301857098
30
0
41
1
10
196.550976021257
20
-5.1832745797968
30
0
41
1
10
196.431424736443
20
-5.31854119346664
30
0
41
1
10
196.389306262497
20
-5.36184901969273
30
0
41
1
10
196.300346947615
20
-5.44477832945927
30
0
41
1
10
196.253323580063
20
-5.48449953150146
30
0
41
1
10
196.108131951605
20
-5.59534517912806
30
0
41
1
10
196.005017997981
20
-5.65915016356647
30
0
41
1
10
195.785846987485
20
-5.76626578752928
30
0
41
1
10
195.668505035665
20
-5.80969645268382
30
0
41
1
10
195.430875223543
20
-5.87093128425357
30
0
41
1
10
195.3096448138
20
-5.88945527351692
30
0
41
1
10
195.124042789979
20
-5.89848244841721
30
0
41
1
10
195.061454819128
20
-5.89828952225014
30
0
41
1
10
194.938110506028
20
-5.8915640918913
30
0
41
1
10
194.815817838901
20
-5.87856958625545
30
0
41
1
10
194.695584592547
20
-5.85328748496281
30
0
41
1
10
194.576389062432
20
-5.82180307411321
30
0
41
1
10
194.517013513056
20
-5.80282536388839
30
0
41
1
10
194.344091069811
20
-5.73770474607139
30
0
41
1
10
194.234867144146
20
-5.68337500548239
30
0
41
1
10
194.079719194389
20
-5.58610767255882
30
0
41
1
10
194.029214745179
20
-5.55083532004028
30
0
41
1
10
193.932531946586
20
-5.47592768414867
30
0
41
1
10
193.886426273475
20
-5.43639823716489
30
0
41
1
10
193.75453543165
20
-5.3118109514707
30
0
41
1
10
193.675115398742
20
-5.2208113084279
30
0
41
1
10
193.533365006938
20
-5.02268379696892
30
0
41
1
10
193.473065714703
20
-4.91836167963169
30
0
41
1
10
193.3978827353
20
-4.75475027716703
30
0
41
1
10
193.375368957054
20
-4.69899245352485
30
0
41
1
10
193.3355126828
20
-4.58498571294709
30
0
41
1
10
193.318131588768
20
-4.52651489553267
30
0
41
1
10
193.274692000771
20
-4.35000790035966
30
0
41
1
10
193.256955238021
20
-4.23025662064788
30
0
41
1
10
193.244403596763
20
-3.98667003275355
30
0
0
SPLINE
5
213
100
AcDbEntity
8
1
62
256
6
ByLayer
370
-1
48
1
60
0
100
AcDbSpline
70
4
71
3
72
8
73
4
40
0
40
0
40
0
40
0
40
1
40
1
40
1
40
1
41
1
10
181.541580758976
20
9.07046802575246
30
0
41
1
10
181.728338862162
20
8.98856510418278
30
0
41
1
10
181.917089557631
20
8.91033698140251
30
0
41
1
10
182.107978965927
20
8.83579161267258
30
0
0
SPLINE
5
214
100
AcDbEntity
8
1
62
256
6
ByLayer
370
-1
48
1
60
0
100
AcDbSpline
70
4
71
3
72
10
73
6
40
0
40
0
40
0
40
0
40
0.5
40
0.5
40
1
40
1
40
1
40
1
41
1
10
20.5344046192236
20
14.5358326769216
30
0
41
1
10
19.8555693972177
20
14.8672940695532
30
0
41
1
10
19.2087519350482
20
15.2060540324316
30
0
41
1
10
17.9802284112697
20
15.9181317921237
30
0
41
1
10
17.3984756583981
20
16.2913479131029
30
0
41
1
10
16.8507031254767
20
16.6883404637086
30
0
0
SPLINE
5
215
100
AcDbEntity
8
1
62
256
6
ByLayer
370
-1
48
1
60
0
100
AcDbSpline
70
4
71
3
72
12
73
8
40
0
40
0
40
0
40
0
40
0.25
40
0.25
40
0.5
40
0.5
40
1
40
1
40
1
40
1
41
1
10
7.52926665804807
20
4.50106582289897
30
0
41
1
10
7.57369921668641
20
4.38036824942674
30
0
41
1
10
7.62018915538843
20
4.26076888816283
30
0
41
1
10
7.71644250654734
20
4.02623461475628
30
0
41
1
10
7.76628336336819
20
3.91106663131279
30
0
41
1
10
7.92107581905995
20
3.57166447506569
30
0
41
1
10
8.03129299102278
20
3.35351755784782
30
0
41
1
10
8.14891615553063
20
3.14316525010699
30
0
0
SPLINE
5
216
100
AcDbEntity
8
1
62
256
6
ByLayer
370
-1
48
1
60
0
100
AcDbSpline
70
4
71
4
72
19
73
14
40
0
40
0
40
0
40
0
40
0
40
0.42091830797511
40
0.42091830797511
40
0.42091830797511
40
0.631377461962665
40
0.631377461962665
40
0.631377461962665
40
0.84183661595022
40
0.84183661595022
40
0.84183661595022
40
1
40
1
40
1
40
1
40
1
41
1
10
32.0994163599865
20
5.04575730842615
30
0
41
1
10
32.0994163599865
20
4.05547508828633
30
0
41
0.974581796258695
10
31.9702505025742
20
2.20157504855222
30
0
41
0.974581796258695
10
31.6362551802731
20
-0.494586464127068
30
0
41
0.987290898129348
10
31.0311083631049
20
-4.51775706111857
30
0
41
0.993645449064674
10
30.8162368554143
20
-5.82964042178309
30
0
41
1
10
30.6002781387032
20
-7.04434983896491
30
0
41
1
10
30.1997218613019
20
-9.15213847484569
30
0
41
0.993645449064674
10
29.9837631445908
20
-10.2102449119363
30
0
41
0.987290898129348
10
29.7688916369001
20
-11.1597352839374
30
0
41
0.979870833793868
10
29.417490608921
20
-12.5217838325358
30
0
41
0.977883436099162
10
29.2754666250203
20
-13.0053403941954
30
0
41
0.977991375644483
10
29.1496817528325
20
-13.3546947315398
30
0
41
0.979742407922755
10
29.0437484375588
20
-13.565264441017
30
0
0
SPLINE
5
217
100
AcDbEntity
8
1
62
256
6
ByLayer
370
-1
48
1
60
0
100
AcDbSpline
70
4
71
3
72
38
73
34
40
0
40
0
40
0
40
0
40
0.125000000000001
40
0.125000000000001
40
0.187500000000001
40
0.187500000000001
40
0.250000000000001
40
0.250000000000001
40
0.312500000000001
40
0.312500000000001
40
0.375000000000002
40
0.375000000000002
40
0.406250000000002
40
0.406250000000002
40
0.437500000000002
40
0.437500000000002
40
0.468750000000002
40
0.468750000000002
40
0.500000000000002
40
0.500000000000002
40
0.531250000000002
40
0.531250000000002
40
0.562500000000002
40
0.562500000000002
40
0.625000000000001
40
0.625000000000001
40
0.6875
40
0.6875
40
0.75
40
0.75
40
0.875
40
0.875
40
1
40
1
40
1
40
1
41
1
10
165.579362721784
20
13.9605262334227
30
0
41
1
10
165.450129071667
20
14.018353584034
30
0
41
1
10
165.323521372193
20
14.0807468753716
30
0
41
1
10
165.14003681824
20
14.1855994871744
30
0
41
1
10
165.079960964807
20
14.2224532962605
30
0
41
1
10
164.962787725391
20
14.3014027767597
30
0
41
1
10
164.905713013939
20
14.3434939327742
30
0
41
1
10
164.797561649345
20
14.4338737254785
30
0
41
1
10
164.746261751111
20
14.4822286949911
30
0
41
1
10
164.652255234099
20
14.5887762382097
30
0
41
1
10
164.610591173469
20
14.6457634311347
30
0
41
1
10
164.560381521118
20
14.7395570369447
30
0
41
1
10
164.545648885073
20
14.772511129328
30
0
41
1
10
164.522192590576
20
14.8398153634875
30
0
41
1
10
164.513354290176
20
14.8742985983093
30
0
41
1
10
164.502187332635
20
14.9451428681935
30
0
41
1
10
164.499950008534
20
14.9816679363582
30
0
41
1
10
164.502425899634
20
15.053483285378
30
0
41
1
10
164.507040635139
20
15.0891588142718
30
0
41
1
10
164.522575122394
20
15.1600797397327
30
0
41
1
10
164.533512142166
20
15.1951420068837
30
0
41
1
10
164.559993235928
20
15.26245246002
30
0
41
1
10
164.575606851418
20
15.2950496125518
30
0
41
1
10
164.628267727478
20
15.3902472557786
30
0
41
1
10
164.67102457175
20
15.4499634303174
30
0
41
1
10
164.763467684375
20
15.5606793307483
30
0
41
1
10
164.813639307826
20
15.6124055059366
30
0
41
1
10
164.919349618712
20
15.7109191132737
30
0
41
1
10
164.974900479327
20
15.7576292394671
30
0
41
1
10
165.144872270824
20
15.8903700790125
30
0
41
1
10
165.263500097793
20
15.9701064886613
30
0
41
1
10
165.506781203218
20
16.1195953734622
30
0
41
1
10
165.631526444882
20
16.1891976274302
30
0
41
1
10
165.75832879429
20
16.2553742541468
30
0
0
SPLINE
5
218
100
AcDbEntity
8
1
62
256
6
ByLayer
370
-1
48
1
60
0
100
AcDbSpline
70
4
71
3
72
16
73
12
40
0
40
0
40
0
40
0
40
0.15312566507183
40
0.15312566507183
40
0.435417110047904
40
0.435417110047904
40
0.717708555023977
40
0.717708555023977
40
0.858854277511988
40
0.858854277511988
40
1
40
1
40
1
40
1
41
1
10
192.038276793676
20
8.09967672234703
30
0
41
1
10
192.017145092805
20
8.08019345531781
30
0
41
1
10
191.996195136594
20
8.06174692574919
30
0
41
1
10
191.937454559344
20
8.01213574339425
30
0
41
1
10
191.900315855654
20
7.98334484539376
30
0
41
1
10
191.830784714564
20
7.93332084977706
30
0
41
1
10
191.798938311439
20
7.91251770306027
30
0
41
1
10
191.761771049316
20
7.89051565924663
30
0
41
1
10
191.751176539441
20
7.8847349822243
30
0
41
1
10
191.735135957026
20
7.87701167990082
30
0
41
1
10
191.72956514553
20
7.87499076293906
30
0
41
1
10
191.726768881739
20
7.87499076293906
30
0
0
SPLINE
5
219
100
AcDbEntity
8
1
62
256
6
ByLayer
370
-1
48
1
60
0
100
AcDbSpline
70
4
71
3
72
24
73
20
40
0
40
0
40
0
40
0
40
0.125
40
0.125
40
0.25
40
0.25
40
0.375
40
0.375
40
0.4375
40
0.4375
40
0.5
40
0.5
40
0.625
40
0.625
40
0.75
40
0.75
40
0.875
40
0.875
40
1
40
1
40
1
40
1
41
1
10
35
20
-15.7315158593786
30
0
41
1
10
38.3787153417833
20
-16.3394397978975
30
0
41
1
10
41.753167357447
20
-16.8958275557692
30
0
41
1
10
48.4983851684852
20
-17.8963227327369
30
0
41
1
10
51.8691660987598
20
-18.3404265310992
30
0
41
1
10
58.6115874134141
20
-19.1096370432826
30
0
41
1
10
61.9831903214409
20
-19.4348264137531
30
0
41
1
10
67.0442948591079
20
-19.829704304135
30
0
41
1
10
68.7319593621596
20
-19.9458361807126
30
0
41
1
10
72.1091387659032
20
-20.1465422935595
30
0
41
1
10
73.7990815593887
20
-20.2311327502314
30
0
41
1
10
78.869736699427
20
-20.4368008409995
30
0
41
1
10
82.2460942340646
20
-20.5095340556365
30
0
41
1
10
88.995224648912
20
-20.5264646372428
30
0
41
1
10
92.3680093878414
20
-20.4707043233688
30
0
41
1
10
99.1140753617547
20
-20.2324494410193
30
0
41
1
10
102.487276048988
20
-20.0498697534549
30
0
41
1
10
109.238684598772
20
-19.5610700931875
30
0
41
1
10
112.61691347551
20
-19.254863216538
30
0
41
1
10
116
20
-18.8896323051347
30
0
0
SPLINE
5
21A
100
AcDbEntity
8
1
62
256
6
ByLayer
370
-1
48
1
60
0
100
AcDbSpline
70
4
71
3
72
8
73
4
40
0
40
0
40
0
40
0
40
1
40
1
40
1
40
1
41
1
10
28.7324052296877
20
-13.4812146938435
30
0
41
1
10
28.3337434666127
20
-13.3949563252888
30
0
41
1
10
27.9398313158071
20
-13.2855576955913
30
0
41
1
10
27.5504341870416
20
-13.1532543594375
30
0
0
SPLINE
5
21B
100
AcDbEntity
8
1
62
256
6
ByLayer
370
-1
48
1
60
0
100
AcDbSpline
70
4
71
3
72
22
73
18
40
0
40
0
40
0
40
0
40
0.0403561058935766
40
0.1059168640367
40
0.237038380322947
40
0.368159896609193
40
0.466501033823878
40
0.499281412895439
40
0.564842171038562
40
0.630402929181685
40
0.761524445467933
40
0.827085203611056
40
0.892645961754179
40
0.92542634082574
40
0.958206719897302
40
0.990987098968863
40
1
40
1
40
1
40
1
41
1
10
165.579362721784
20
13.9605262334227
30
0
41
1
10
165.465511378384
20
13.9549486487692
30
0
41
1
10
165.166671850574
20
13.9401839250501
30
0
41
1
10
164.49745833896
20
13.9063937842083
30
0
41
1
10
163.571472518024
20
13.8577584294918
30
0
41
1
10
162.553606303617
20
13.80152296701
30
0
41
1
10
161.813997017496
20
13.7588990293547
30
0
41
1
10
161.259675282721
20
13.7261980164426
30
0
41
1
10
160.797560490665
20
13.6984860561228
30
0
41
1
10
160.057160535529
20
13.6531064697854
30
0
41
1
10
159.315878839841
20
13.6061782922306
30
0
41
1
10
158.574211170117
20
13.5576996393501
30
0
41
1
10
158.110461197671
20
13.5267441046971
30
0
41
1
10
157.739919044034
20
13.5016172503234
30
0
41
1
10
157.462938285411
20
13.4826244161483
30
0
41
1
10
157.253185920148
20
13.4680933777049
30
0
41
1
10
157.135521720898
20
13.4598919623075
30
0
41
1
10
157.110142703555
20
13.4581206501494
30
0
0
SPLINE
5
21C
100
AcDbEntity
8
1
62
256
6
ByLayer
370
-1
48
1
60
0
100
AcDbSpline
70
4
71
3
72
8
73
4
40
0
40
0
40
0
40
0
40
1
40
1
40
1
40
1
41
1
10
30
20
-14.7749663651558
30
0
41
1
10
28.7213087705952
20
-14.5213984243907
30
0
41
1
10
27.4414789283977
20
-14.3982617275965
30
0
41
1
10
26.1662394545373
20
-14.4039403915239
30
0
0
SPLINE
5
21D
100
AcDbEntity
8
1
62
256
6
ByLayer
370
-1
48
1
60
0
100
AcDbSpline
70
4
71
3
72
26
73
22
40
0
40
0
40
0
40
0
40
0.125
40
0.125
40
0.25
40
0.25
40
0.3125
40
0.3125
40
0.375
40
0.375
40
0.499999999999999
40
0.499999999999999
40
0.624999999999999
40
0.624999999999999
40
0.687499999999999
40
0.687499999999999
40
0.749999999999999
40
0.749999999999999
40
0.875
40
0.875
40
1
40
1
40
1
40
1
41
1
10
16.8489160914993
20
-4.88172204444587
30
0
41
1
10
17.1076320734315
20
-5.10954962996098
30
0
41
1
10
17.3897047876445
20
-5.35310052556864
30
0
41
1
10
17.9964554987114
20
-5.87931508835544
30
0
41
1
10
18.3211252199688
20
-6.1619903640123
30
0
41
1
10
18.8385469674724
20
-6.61600608607421
30
0
41
1
10
19.0168475436722
20
-6.77294340854104
30
0
41
1
10
19.3788215535614
20
-7.09201607378054
30
0
41
1
10
19.5626140439958
20
-7.25424647219796
30
0
41
1
10
20.1221943666942
20
-7.74753294595681
30
0
41
1
10
20.506125456107
20
-8.08518204164696
30
0
41
1
10
21.2964871589663
20
-8.76947714219492
30
0
41
1
10
21.7029324971177
20
-9.11611483874958
30
0
41
1
10
22.3314010708369
20
-9.63637288450087
30
0
41
1
10
22.5442284554638
20
-9.8099843908152
30
0
41
1
10
22.973371446502
20
-10.153716029672
30
0
41
1
10
23.1900656287218
20
-10.3241577713931
30
0
41
1
10
23.8471678656607
20
-10.8299049126844
30
0
41
1
10
24.2945794321527
20
-11.1596266765511
30
0
41
1
10
25.2120915592508
20
-11.797169485437
30
0
41
1
10
25.6821805954051
20
-12.1050079681095
30
0
41
1
10
26.1662394557192
20
-12.3978560627569
30
0
0
SPLINE
5
21E
100
AcDbEntity
8
1
62
256
6
ByLayer
370
-1
48
1
60
0
100
AcDbSpline
70
4
71
3
72
8
73
4
40
0
40
0
40
0
40
0
40
1
40
1
40
1
40
1
41
1
10
29.9999999999999
20
-14.7749663651558
30
0
41
1
10
31.6667332689763
20
-15.1054840953945
30
0
41
1
10
33.3332986921132
20
-15.4245791246249
30
0
41
1
10
35
20
-15.7315158593786
30
0
0
SPLINE
5
21F
100
AcDbEntity
8
1
62
256
6
ByLayer
370
-1
48
1
60
0
100
AcDbSpline
70
4
71
3
72
16
73
12
40
0
40
0
40
0
40
0
40
0.25
40
0.25
40
0.499999999999999
40
0.499999999999999
40
0.749999999999999
40
0.749999999999999
40
0.874999999999999
40
0.874999999999999
40
1
40
1
40
1
40
1
41
1
10
116
20
19.5324802347475
30
0
41
1
10
119.915504675034
20
19.2191105568336
30
0
41
1
10
123.825499444342
20
18.8234825386997
30
0
41
1
10
131.64070115896
20
17.8775805859929
30
0
41
1
10
135.545767159568
20
17.3269702111413
30
0
41
1
10
143.358406051624
20
16.0845852852638
30
0
41
1
10
147.266018021798
20
15.3929195285362
30
0
41
1
10
153.134763907262
20
14.2624301958892
30
0
41
1
10
155.092784265128
20
13.8699965167751
30
0
41
1
10
159.009046447264
20
13.0568745375992
30
0
41
1
10
160.967059259576
20
12.6362489988041
30
0
41
1
10
162.925314085413
20
12.202570988542
30
0
0
SPLINE
5
220
100
AcDbEntity
8
1
62
256
6
ByLayer
370
-1
48
1
60
0
100
AcDbSpline
70
4
71
3
72
52
73
48
40
0
40
0
40
0
40
0
40
0.0625000000000005
40
0.0625000000000005
40
0.125000000000001
40
0.125000000000001
40
0.156250000000001
40
0.156250000000001
40
0.187500000000001
40
0.187500000000001
40
0.250000000000002
40
0.250000000000002
40
0.281250000000002
40
0.281250000000002
40
0.312500000000002
40
0.312500000000002
40
0.375000000000002
40
0.375000000000002
40
0.406250000000002
40
0.406250000000002
40
0.421875000000002
40
0.421875000000002
40
0.437500000000002
40
0.437500000000002
40
0.500000000000002
40
0.500000000000002
40
0.531250000000002
40
0.531250000000002
40
0.562500000000002
40
0.562500000000002
40
0.625000000000002
40
0.625000000000002
40
0.656250000000001
40
0.656250000000001
40
0.687500000000001
40
0.687500000000001
40
0.750000000000001
40
0.750000000000001
40
0.781250000000001
40
0.781250000000001
40
0.812500000000001
40
0.812500000000001
40
0.875000000000001
40
0.875000000000001
40
0.9375
40
0.9375
40
1
40
1
40
1
40
1
41
1
10
16.1324344552972
20
17.197618830576
30
0
41
1
10
15.7792502021775
20
17.4118432273229
30
0
41
1
10
15.410098221652
20
17.5977352291074
30
0
41
1
10
14.6431624074431
20
17.9065360629978
30
0
41
1
10
14.2453817066098
20
18.0294995141746
30
0
41
1
10
13.6291641276744
20
18.1604499949401
30
0
41
1
10
13.4197623296842
20
18.1951797510819
30
0
41
1
10
13.0020893012916
20
18.2447410999974
30
0
41
1
10
12.793106128812
20
18.2597907097652
30
0
41
1
10
12.1666492595899
20
18.275665991724
30
0
41
1
10
11.7496711540436
20
18.2473554944925
30
0
41
1
10
11.1286790230944
20
18.1441166587062
30
0
41
1
10
10.9224254206172
20
18.0995436910461
30
0
41
1
10
10.5119986296039
20
17.9891984259563
30
0
41
1
10
10.3108097712174
20
17.9242148474884
30
0
41
1
10
9.72067989375719
20
17.7011225795808
30
0
41
1
10
9.34465666751103
20
17.5149107867666
30
0
41
1
10
8.80878044541163
20
17.1803879193463
30
0
41
1
10
8.63486060654063
20
17.0596391534018
30
0
41
1
10
8.38144292934967
20
16.8643963719175
30
0
41
1
10
8.29826047237808
20
16.7969732438986
30
0
41
1
10
8.13603221540504
20
16.6587661705803
30
0
41
1
10
8.05677628604664
20
16.5878248783145
30
0
41
1
10
7.66968282221103
20
16.2241441522986
30
0
41
1
10
7.38925777625735
20
15.9046599915862
30
0
41
1
10
7.01227445638264
20
15.3844909358771
30
0
41
1
10
6.89391768317111
20
15.2042424232667
30
0
41
1
10
6.67213254718178
20
14.8299277472113
30
0
41
1
10
6.5696509954
20
14.63736463398
30
0
41
1
10
6.28888672924151
20
14.048472583511
30
0
41
1
10
6.13607298831744
20
13.6392257044756
30
0
41
1
10
5.95666247965104
20
13.0015837917753
30
0
41
1
10
5.9051957253815
20
12.7850536781077
30
0
41
1
10
5.81905154255708
20
12.3439911853917
30
0
41
1
10
5.78468164220214
20
12.1207695677062
30
0
41
1
10
5.70756051547042
20
11.4490652890858
30
0
41
1
10
5.69019229632707
20
10.9961851724096
30
0
41
1
10
5.71264140587593
20
10.3094290207678
30
0
41
1
10
5.72824058833365
20
10.0792639863391
30
0
41
1
10
5.77560190105859
20
9.61639085064877
30
0
41
1
10
5.80748627087465
20
9.38330528768358
30
0
41
1
10
5.92556389357333
20
8.69006031436712
30
0
41
1
10
6.03428970813866
20
8.23270217541415
30
0
41
1
10
6.30757571042849
20
7.32639638703671
30
0
41
1
10
6.47216308180117
20
6.87745583124132
30
0
41
1
10
6.85581990339946
20
5.98707385876619
30
0
41
1
10
7.07188116872743
20
5.55269571559697
30
0
41
1
10
7.30960077353302
20
5.12897910662062
30
0
0
SPLINE
5
221
100
AcDbEntity
8
1
62
256
6
ByLayer
370
-1
48
1
60
0
100
AcDbSpline
70
4
71
3
72
10
73
6
40
0
40
0
40
0
40
0
40
0.643603976312609
40
0.643603976312609
40
1
40
1
40
1
40
1
41
1
10
116
20
-18.8896323051346
30
0
41
1
10
120.235633813747
20
-18.4454959619326
30
0
41
1
10
124.464617123646
20
-17.9081103674176
30
0
41
1
10
131.031733455359
20
-16.9407782341792
30
0
41
1
10
133.371447176559
20
-16.5697846131671
30
0
41
1
10
135.71113399194
20
-16.1741889214791
30
0
0
SPLINE
5
222
100
AcDbEntity
8
1
62
256
6
ByLayer
370
-1
48
1
60
0
100
AcDbSpline
70
4
71
3
72
24
73
20
40
0
40
0
40
0
40
0
40
0.0239981543075531
40
0.0239981543075531
40
0.081410027583579
40
0.081410027583579
40
0.311057520687684
40
0.311057520687684
40
0.540705013791789
40
0.540705013791789
40
0.655528760343842
40
0.655528760343842
40
0.770352506895895
40
0.770352506895895
40
0.885176253447947
40
0.885176253447947
40
0.942588126723974
40
0.942588126723974
40
1
40
1
40
1
40
1
41
1
10
176.67405948807
20
6.7389438764751
30
0
41
1
10
176.668424855765
20
6.76536907561322
30
0
41
1
10
176.662628419984
20
6.79213334393981
30
0
41
1
10
176.642398091048
20
6.88407755876318
30
0
41
1
10
176.627156116902
20
6.95092965001388
30
0
41
1
10
176.546445894971
20
7.29203059987279
30
0
41
1
10
176.467344480889
20
7.58875644626386
30
0
41
1
10
176.269761792327
20
8.22308417044178
30
0
41
1
10
176.151732813565
20
8.56087725327535
30
0
41
1
10
175.928168945436
20
9.09184057565869
30
0
41
1
10
175.845873370698
20
9.27243071279977
30
0
41
1
10
175.662554637988
20
9.63389645816278
30
0
41
1
10
175.561180830081
20
9.81577579752488
30
0
41
1
10
175.331428716479
20
10.1744742882281
30
0
41
1
10
175.204371442316
20
10.3497502248716
30
0
41
1
10
174.984710689139
20
10.5977549977855
30
0
41
1
10
174.906580157438
20
10.677889717953
30
0
41
1
10
174.736895136415
20
10.8303040601128
30
0
41
1
10
174.645540416489
20
10.9022329268154
30
0
41
1
10
174.547999677565
20
10.966009656239
30
0
0
SPLINE
5
223
100
AcDbEntity
8
1
62
256
6
ByLayer
370
-1
48
1
60
0
100
AcDbSpline
70
4
71
3
72
9
73
5
40
0
40
0
40
0
40
0
40
0.406250000000383
40
1
40
1
40
1
40
1
41
1
10
199.872244054725
20
21.0399317586337
30
0
41
1
10
199.872536969342
20
21.0291462236658
30
0
41
1
10
199.873257989937
20
21.0025972145138
30
0
41
1
10
199.873979010533
20
20.9760482053618
30
0
41
1
10
199.874407116511
20
20.9602847311779
30
0
0
SPLINE
5
224
100
AcDbEntity
8
1
62
256
6
ByLayer
370
-1
48
1
60
0
100
AcDbSpline
70
4
71
3
72
8
73
4
40
0
40
0
40
0
40
0
40
1
40
1
40
1
40
1
41
1
10
189.896346150242
20
19.2398116676844
30
0
41
1
10
189.776094255796
20
19.2353210760771
30
0
41
1
10
189.628984607823
20
19.2299945534884
30
0
41
1
10
189.474386329525
20
19.2245334140312
30
0
0
SPLINE
5
225
100
AcDbEntity
8
1
62
256
6
ByLayer
370
-1
48
1
60
0
100
AcDbSpline
70
4
71
3
72
9
73
5
40
0
40
0
40
0
40
0
40
0.406250000001876
40
1
40
1
40
1
40
1
41
1
10
201.705233395471
20
9.89735876623845
30
0
41
1
10
201.694406611382
20
9.89698212705798
30
0
41
1
10
201.667756065932
20
9.89605501522917
30
0
41
1
10
201.641105520482
20
9.89512790340032
30
0
41
1
10
201.625281759121
20
9.89457743075195
30
0
0
SPLINE
5
226
100
AcDbEntity
8
1
62
256
6
ByLayer
370
-1
48
1
60
0
100
AcDbSpline
70
4
71
3
72
15
73
11
40
0
40
0
40
0
40
0
40
0.013895631330621
40
0.101457951273492
40
0.189020271216364
40
0.364144911102107
40
0.714394190873592
40
0.889518830759335
40
0.977081150702206
40
1
40
1
40
1
40
1
41
1
10
199.891276817291
20
20.5645968883322
30
0
41
1
10
199.891305821279
20
20.5635364088841
30
0
41
1
10
199.891517249955
20
20.555793706865
30
0
41
1
10
199.891909126563
20
20.5413707908861
30
0
41
1
10
199.89263399765
20
20.5146468128055
30
0
41
1
10
199.893904099023
20
20.4678782437036
30
0
41
1
10
199.895356035517
20
20.4144281431921
30
0
41
1
10
199.896625451387
20
20.3676601280904
30
0
41
1
10
199.897218365272
20
20.3458668055063
30
0
41
1
10
199.897446299837
20
20.3374376368949
30
0
41
1
10
199.89749340148
20
20.3356892324235
30
0
0
SPLINE
5
227
100
AcDbEntity
8
1
62
256
6
ByLayer
370
-1
48
1
60
0
100
AcDbSpline
70
4
71
3
72
15
73
11
40
0
40
0
40
0
40
0
40
0.0229190021791616
40
0.110481321488111
40
0.285605960106009
40
0.635855237341806
40
0.810979875959704
40
0.898542195268654
40
0.986104514577603
40
1
40
1
40
1
40
1
41
1
10
200.288293889454
20
9.101880355585
30
0
41
1
10
200.288368442299
20
9.10013194659803
30
0
41
1
10
200.288727003038
20
9.09170279413823
30
0
41
1
10
200.289650278398
20
9.06990936101323
30
0
41
1
10
200.291634851238
20
9.02314141136279
30
0
41
1
10
200.293901716111
20
8.96969127718089
30
0
41
1
10
200.295885581037
20
8.92292271306121
30
0
41
1
10
200.297020049571
20
8.89619873133427
30
0
41
1
10
200.297631457866
20
8.88177560713831
30
0
41
1
10
200.297959020776
20
8.87403323004148
30
0
41
1
10
200.298003838589
20
8.87297280383115
30
0
0
SPLINE
5
228
100
AcDbEntity
8
1
62
256
6
ByLayer
370
-1
48
1
60
0
100
AcDbSpline
70
4
71
3
72
17
73
13
40
0
40
0
40
0
40
0
40
0.0285647612451779
40
0.114009773641726
40
0.284899798434821
40
0.455789823227916
40
0.626679848021011
40
0.797569872814107
40
0.883014885210654
40
0.925737391408928
40
0.968459897607202
40
1
40
1
40
1
40
1
41
1
10
190.191844620815
20
19.5579122947359
30
0
41
1
10
190.191940271911
20
19.5615910328243
30
0
41
1
10
190.192317191285
20
19.5763038809864
30
0
41
1
10
190.193123246536
20
19.6139044055777
30
0
41
1
10
190.19392298042
20
19.6725988796357
30
0
41
1
10
190.194204677178
20
19.7462642363415
30
0
41
1
10
190.193811560076
20
19.8225419444493
30
0
41
1
10
190.192921662476
20
19.8877853538431
30
0
41
1
10
190.19200842944
20
19.9340601679349
30
0
41
1
10
190.191405134911
20
19.9606353329877
30
0
41
1
10
190.190954100478
20
19.9788800723269
30
0
41
1
10
190.190644792704
20
19.9904876987832
30
0
41
1
10
190.190511963356
20
19.9954191070414
30
0
0
SPLINE
5
229
100
AcDbEntity
8
1
62
256
6
ByLayer
370
-1
48
1
60
0
100
AcDbSpline
70
4
71
3
72
8
73
4
40
0
40
0
40
0
40
0
40
1
40
1
40
1
40
1
41
1
10
188.748537387205
20
19.8821784500206
30
0
41
1
10
188.749387773723
20
19.851854244954
30
0
41
1
10
188.75037661327
20
19.8215335587786
30
0
41
1
10
188.751502621894
20
19.7912182184651
30
0
0
SPLINE
5
22A
100
AcDbEntity
8
1
62
256
6
ByLayer
370
-1
48
1
60
0
100
AcDbSpline
70
4
71
3
72
10
73
6
40
0
40
0
40
0
40
0
40
0.5
40
0.5
40
1
40
1
40
1
40
1
41
1
10
201.310489718746
20
8.45507358116311
30
0
41
1
10
201.360716330005
20
8.47050453242181
30
0
41
1
10
201.40784130544
20
8.49209849539531
30
0
41
1
10
201.496074258584
20
8.54724418760509
30
0
41
1
10
201.536981933573
20
8.58089659521033
30
0
41
1
10
201.57282965411
20
8.61937142830266
30
0
0
SPLINE
5
22B
100
AcDbEntity
8
1
62
256
6
ByLayer
370
-1
48
1
60
0
100
AcDbSpline
70
4
71
3
72
8
73
4
40
0
40
0
40
0
40
0
40
1
40
1
40
1
40
1
41
1
10
201.329783599141
20
20.5323135022165
30
0
41
1
10
201.327106676152
20
20.5701724229161
30
0
41
1
10
201.320237271056
20
20.6072498037978
30
0
41
1
10
201.309174999976
20
20.6435456222521
30
0
0
SPLINE
5
22C
100
AcDbEntity
8
1
62
256
6
ByLayer
370
-1
48
1
60
0
100
AcDbSpline
70
4
71
3
72
8
73
4
40
0
40
0
40
0
40
0
40
1
40
1
40
1
40
1
41
1
10
201.234204201635
20
9.88075968527781
30
0
41
1
10
201.346128457721
20
9.88465327544637
30
0
41
1
10
201.458035639886
20
9.88859872607219
30
0
41
1
10
201.564777918929
20
9.89241454294233
30
0
0
SPLINE
5
22D
100
AcDbEntity
8
1
62
256
6
ByLayer
370
-1
48
1
60
0
100
AcDbSpline
70
4
71
3
72
15
73
11
40
0
40
0
40
0
40
0
40
0.0229190021792684
40
0.110481321488229
40
0.285605960106149
40
0.635855237341989
40
0.810979875959909
40
0.898542195268869
40
0.986104514577829
40
1
40
1
40
1
40
1
41
1
10
200.665445700234
20
19.616826637615
30
0
41
1
10
200.66720118539
20
19.6168876934022
30
0
41
1
10
200.675663590729
20
19.6171820458923
30
0
41
1
10
200.697539221167
20
19.6179430893469
30
0
41
1
10
200.744486819415
20
19.6195762621363
30
0
41
1
10
200.79814100743
20
19.6214427819514
30
0
41
1
10
200.845088488519
20
19.6230759761985
30
0
41
1
10
200.871915575146
20
19.6240091982043
30
0
41
1
10
200.886393473304
20
19.6245128647997
30
0
41
1
10
200.8941646103
20
19.6247832345657
30
0
41
1
10
200.895228929097
20
19.6248202654649
30
0
0
SPLINE
5
22E
100
AcDbEntity
8
1
62
256
6
ByLayer
370
-1
48
1
60
0
100
AcDbSpline
70
4
71
3
72
14
73
10
40
0
40
0
40
0
40
0
40
0.0138067085561028
40
0.0298030682372614
40
0.0617957875995787
40
0.317737542498117
40
0.829621052295193
40
0.957591929744462
40
1
40
1
40
1
40
1
41
1
10
190.355756317819
20
9.50024854216051
30
0
41
1
10
190.355197300085
20
9.50022769613639
30
0
41
1
10
190.354001273909
20
9.5001830298371
30
0
41
1
10
190.351521118242
20
9.50009040871831
30
0
41
1
10
190.339339825118
20
9.49963539474157
30
0
41
1
10
190.307203066681
20
9.49843547652168
30
0
41
1
10
190.271254699899
20
9.4970929622952
30
0
41
1
10
190.24386424741
20
9.49607011985543
30
0
41
1
10
190.237020381864
20
9.49581457121349
30
0
41
1
10
190.235314839975
20
9.49575089955536
30
0
0
SPLINE
5
22F
100
AcDbEntity
8
1
62
256
6
ByLayer
370
-1
48
1
60
0
100
AcDbSpline
70
4
71
3
72
10
73
6
40
0
40
0
40
0
40
0
40
0.0485494410334902
40
0.36569962735566
40
1
40
1
40
1
40
1
41
1
10
190.170777066932
20
20.5580756831324
30
0
41
1
10
190.170723029546
20
20.5590786130228
30
0
41
1
10
190.170315659459
20
20.5666322920694
30
0
41
1
10
190.169196997556
20
20.5872742764167
30
0
41
1
10
190.168134413663
20
20.6069191391509
30
0
41
1
10
190.167425661516
20
20.6200146870038
30
0
0
SPLINE
5
230
100
AcDbEntity
8
1
62
256
6
ByLayer
370
-1
48
1
60
0
100
AcDbSpline
70
4
71
3
72
8
73
4
40
0
40
0
40
0
40
0
40
1
40
1
40
1
40
1
41
1
10
189.131616473707
20
8.86460261087404
30
0
41
1
10
189.132665434283
20
8.83428564300141
30
0
41
1
10
189.133861065769
20
8.80397331393826
30
0
41
1
10
189.135203216447
20
8.77366778837231
30
0
0
SPLINE
5
231
100
AcDbEntity
8
1
62
256
6
ByLayer
370
-1
48
1
60
0
100
AcDbSpline
70
4
71
3
72
15
73
11
40
0
40
0
40
0
40
0
40
0.250148781622265
40
0.50029756324453
40
0.750446344866796
40
0.875520735677928
40
0.938057931083494
40
0.969326528786278
40
0.984960827637669
40
1
40
1
40
1
40
1
41
1
10
201.063349670506
20
20.8194272709823
30
0
41
1
10
201.070184553375
20
20.8267268531013
30
0
41
1
10
201.083854319113
20
20.8413260173393
30
0
41
1
10
201.104354911183
20
20.8632204313598
30
0
41
1
10
201.121458344496
20
20.8814867160031
30
0
41
1
10
201.133388965502
20
20.894228492188
30
0
41
1
10
201.139415124034
20
20.9006643653272
30
0
41
1
10
201.142336931257
20
20.9037848243266
30
0
41
1
10
201.14415143585
20
20.9057226959098
30
0
41
1
10
201.144672274951
20
20.9062789465228
30
0
41
1
10
201.145368266369
20
20.9070222579458
30
0
0
SPLINE
5
232
100
AcDbEntity
8
1
62
256
6
ByLayer
370
-1
48
1
60
0
100
AcDbSpline
70
4
71
3
72
15
73
11
40
0
40
0
40
0
40
0
40
0.0204519912453704
40
0.0504132324411391
40
0.110335714832677
40
0.230180679615752
40
0.469870609181901
40
0.709560538748051
40
0.949250468314201
40
1
40
1
40
1
40
1
41
1
10
200.298003838589
20
8.87297280383115
30
0
41
1
10
200.298100230369
20
8.87069209529122
30
0
41
1
10
200.298337322799
20
8.86506975444658
30
0
41
1
10
200.298849103574
20
8.85275775693356
30
0
41
1
10
200.299791625645
20
8.82932843346325
30
0
41
1
10
200.301569145986
20
8.78240272661091
30
0
41
1
10
200.303786736949
20
8.71530600156498
30
0
41
1
10
200.30592555024
20
8.63511755891685
30
0
41
1
10
200.307111520535
20
8.57654904441532
30
0
41
1
10
200.307619163806
20
8.54477250900194
30
0
41
1
10
200.307706258031
20
8.53922377949405
30
0
0
SPLINE
5
233
100
AcDbEntity
8
1
62
256
6
ByLayer
370
-1
48
1
60
0
100
AcDbSpline
70
4
71
3
72
10
73
6
40
0
40
0
40
0
40
0
40
0.634300400238777
40
0.951450600358166
40
1
40
1
40
1
40
1
41
1
10
188.850808173191
20
19.2027220318745
30
0
41
1
10
188.864107073941
20
19.2031793384647
30
0
41
1
10
188.884056363047
20
19.2038653521897
30
0
41
1
10
188.905020366251
20
19.2045861860505
30
0
41
1
10
188.912689893815
20
19.2048499662964
30
0
41
1
10
188.9137081539
20
19.2048849893474
30
0
0
SPLINE
5
234
100
AcDbEntity
8
1
62
256
6
ByLayer
370
-1
48
1
60
0
100
AcDbSpline
70
4
71
3
72
12
73
8
40
0
40
0
40
0
40
0
40
0.341077853836657
40
0.341077853836657
40
0.670538966398354
40
0.670538966398354
40
1
40
1
40
1
40
1
41
1
10
200.46127158732
20
21.0605796246883
30
0
41
1
10
200.394357389253
20
21.0581226633121
30
0
41
1
10
200.327465887672
20
21.0556207013545
30
0
41
1
10
200.195841661008
20
21.0509375674879
30
0
41
1
10
200.131104509398
20
21.0487714673963
30
0
41
1
10
200.001651773472
20
21.0444010274493
30
0
41
1
10
199.936932043896
20
21.0421993418311
30
0
41
1
10
199.872244054725
20
21.0399317586337
30
0
0
SPLINE
5
235
100
AcDbEntity
8
1
62
256
6
ByLayer
370
-1
48
1
60
0
100
AcDbSpline
70
4
71
3
72
12
73
8
40
0
40
0
40
0
40
0
40
0.521734132299745
40
0.782601198449617
40
0.913034731524553
40
0.978251498062021
40
1
40
1
40
1
40
1
41
1
10
200.308664306555
20
8.47728477562265
30
0
41
1
10
200.411102892479
20
8.4808756746335
30
0
41
1
10
200.564760407025
20
8.48626038543014
30
0
41
1
10
200.744028545028
20
8.4925492462649
30
0
41
1
10
200.833661872306
20
8.49568297804854
30
0
41
1
10
200.876346547881
20
8.49719244934073
30
0
41
1
10
200.893421803199
20
8.49777602876458
30
0
41
1
10
200.897691743147
20
8.49792835368567
30
0
0
SPLINE
5
236
100
AcDbEntity
8
1
62
256
6
ByLayer
370
-1
48
1
60
0
100
AcDbSpline
70
4
71
3
72
14
73
10
40
0
40
0
40
0
40
0
40
0.0138067085560164
40
0.0298030682371758
40
0.0617957875994948
40
0.317737542498046
40
0.829621052295149
40
0.957591929744425
40
1
40
1
40
1
40
1
41
1
10
190.188461099829
20
19.4291166619221
30
0
41
1
10
190.188475995841
20
19.4297136139489
30
0
41
1
10
190.188509681525
20
19.4309926894079
30
0
41
1
10
190.188579486123
20
19.4336450112257
30
0
41
1
10
190.188925223286
20
19.4466749067101
30
0
41
1
10
190.189823520148
20
19.4810360687731
30
0
41
1
10
190.190836032012
20
19.5194806461972
30
0
41
1
10
190.19160554576
20
19.5487710213704
30
0
41
1
10
190.191797212618
20
19.5560889770069
30
0
41
1
10
190.191844620815
20
19.5579122947359
30
0
0
SPLINE
5
237
100
AcDbEntity
8
1
62
256
6
ByLayer
370
-1
48
1
60
0
100
AcDbSpline
70
4
71
3
72
8
73
4
40
0
40
0
40
0
40
0
40
1
40
1
40
1
40
1
41
1
10
188.747403694493
20
19.9311677058714
30
0
41
1
10
188.747701555707
20
19.914836335538
30
0
41
1
10
188.748079505747
20
19.8985061913802
30
0
41
1
10
188.748537387202
20
19.8821784500205
30
0
0
SPLINE
5
238
100
AcDbEntity
8
1
62
256
6
ByLayer
370
-1
48
1
60
0
100
AcDbSpline
70
4
71
3
72
8
73
4
40
0
40
0
40
0
40
0
40
1
40
1
40
1
40
1
41
1
10
189.485649530786
20
20.6754166365809
30
0
41
1
10
189.469396551821
20
20.6746933614108
30
0
41
1
10
189.453147485518
20
20.6738889557095
30
0
41
1
10
189.436903530124
20
20.6730035045382
30
0
0
SPLINE
5
239
100
AcDbEntity
8
1
62
256
6
ByLayer
370
-1
48
1
60
0
100
AcDbSpline
70
4
71
3
72
8
73
4
40
0
40
0
40
0
40
0
40
1
40
1
40
1
40
1
41
1
10
189.717013476356
20
8.03130459709203
30
0
41
1
10
189.770144743735
20
8.0312604445468
30
0
41
1
10
189.823335810338
20
8.03176854684469
30
0
41
1
10
189.876515329504
20
8.03270709873004
30
0
0
SPLINE
5
23A
100
AcDbEntity
8
1
62
256
6
ByLayer
370
-1
48
1
60
0
100
AcDbSpline
70
4
71
3
72
8
73
4
40
0
40
0
40
0
40
0
40
1
40
1
40
1
40
1
41
1
10
199.891277468953
20
20.5645962719814
30
0
41
1
10
199.888249399832
20
20.6760941062281
30
0
41
1
10
199.883673155701
20
20.7890770296638
30
0
41
1
10
199.87775924783
20
20.8983477280385
30
0
0
SPLINE
5
23B
100
AcDbEntity
8
1
62
256
6
ByLayer
370
-1
48
1
60
0
100
AcDbSpline
70
4
71
3
72
12
73
8
40
0
40
0
40
0
40
0
40
0.011277954937372
40
0.093671458692591
40
0.17606496244781
40
0.340851969958248
40
1
40
1
40
1
40
1
41
1
10
190.539860575283
20
9.32791218363033
30
0
41
1
10
190.539851643959
20
9.32800704410067
30
0
41
1
10
190.539777550144
20
9.32879587981299
30
0
41
1
10
190.539639806657
20
9.33029520184201
30
0
41
1
10
190.539390952093
20
9.33318574459514
30
0
41
1
10
190.538750027957
20
9.34149268132782
30
0
41
1
10
190.538308932917
20
9.34986905030019
30
0
41
1
10
190.538075620004
20
9.35657577911752
30
0
0
SPLINE
5
23C
100
AcDbEntity
8
1
62
256
6
ByLayer
370
-1
48
1
60
0
100
AcDbSpline
70
4
71
3
72
10
73
6
40
0
40
0
40
0
40
0
40
0.634300400238567
40
0.95145060035785
40
1
40
1
40
1
40
1
41
1
10
201.625281759121
20
9.89457743075195
30
0
41
1
10
201.612489230201
20
9.89412012416173
30
0
41
1
10
201.593298303003
20
9.89343411043666
30
0
41
1
10
201.573135442122
20
9.8927132765759
30
0
41
1
10
201.565755101874
20
9.89244949633004
30
0
41
1
10
201.564775136933
20
9.89241447327902
30
0
0
SPLINE
5
23D
100
AcDbEntity
8
1
62
256
6
ByLayer
370
-1
48
1
60
0
100
AcDbSpline
70
4
71
3
72
23
73
19
40
0
40
0
40
0
40
0
40
0.0074200078967445
40
0.0149215578681564
40
0.0299246578109803
40
0.0599308576966279
40
0.119943257467923
40
0.239968057010514
40
0.480017656095696
40
0.600042455638287
40
0.630048655523935
40
0.660054855409583
40
0.690061055295231
40
0.720067255180878
40
0.840092054723469
40
0.96011685426606
40
0.990123054151708
40
1
40
1
40
1
40
1
41
1
10
201.484922465992
20
8.70105513316642
30
0
41
1
10
201.486002871389
20
8.70221878636411
30
0
41
1
10
201.488167904508
20
8.70456810941019
30
0
41
1
10
201.492469824206
20
8.70931483966388
30
0
41
1
10
201.499916649469
20
8.71773720230649
30
0
41
1
10
201.514395862608
20
8.73494394975558
30
0
41
1
10
201.541665799381
20
8.77073974948402
30
0
41
1
10
201.589182087288
20
8.84737437536668
30
0
41
1
10
201.625651340971
20
8.94449128901181
30
0
41
1
10
201.639595621037
20
9.02709922809723
30
0
41
1
10
201.642838015625
20
9.06555202072033
30
0
41
1
10
201.643899349298
20
9.08481578935971
30
0
41
1
10
201.64486633104
20
9.10408360891438
30
0
41
1
10
201.646519902988
20
9.14263145576939
30
0
41
1
10
201.6478492153
20
9.20049794885398
30
0
41
1
10
201.647410200237
20
9.25837599586546
30
0
41
1
10
201.646498252266
20
9.29263156425637
30
0
41
1
10
201.646227462752
20
9.30117395687077
30
0
41
1
10
201.64615869461
20
9.30328940508986
30
0
0
SPLINE
5
23E
100
AcDbEntity
8
1
62
256
6
ByLayer
370
-1
48
1
60
0
100
AcDbSpline
70
4
71
3
72
15
73
11
40
0
40
0
40
0
40
0
40
0.0144496252550579
40
0.0300932819970412
40
0.0613805954810076
40
0.12395522244894
40
0.249104476384806
40
0.499402984256538
40
0.749701492128269
40
1
40
1
40
1
40
1
41
1
10
190.016033726455
20
8.03671978895974
30
0
41
1
10
190.016004813242
20
8.03755091775855
30
0
41
1
10
190.015991776876
20
8.03792565643397
30
0
41
1
10
190.015930975265
20
8.03967343758876
30
0
41
1
10
190.015831816792
20
8.04252381127083
30
0
41
1
10
190.015627514824
20
8.04839660191516
30
0
41
1
10
190.015222900903
20
8.0600274876837
30
0
41
1
10
190.014642924008
20
8.07669929420337
30
0
41
1
10
190.013947723137
20
8.09668328755973
30
0
41
1
10
190.013484167222
20
8.11000849858664
30
0
41
1
10
190.013252389265
20
8.11667110410011
30
0
0
SPLINE
5
23F
100
AcDbEntity
8
1
62
256
6
ByLayer
370
-1
48
1
60
0
100
AcDbSpline
70
4
71
3
72
25
73
21
40
0
40
0
40
0
40
0
40
0.0099904601134639
40
0.039988278919145
40
0.159979554141869
40
0.279970829364594
40
0.309968648170275
40
0.339966466975956
40
0.369964285781637
40
0.399962104587318
40
0.519953379810042
40
0.639944655032766
40
0.759935930255491
40
0.879927205478215
40
0.939922843089577
40
0.969920661895258
40
0.984919571298099
40
0.992419025999519
40
0.999918480700939
40
1
40
1
40
1
40
1
41
1
10
189.210348181041
20
8.86738379311339
30
0
41
1
10
189.210423892029
20
8.86524343828103
30
0
41
1
10
189.210733231427
20
8.85667658981433
30
0
41
1
10
189.212132254044
20
8.82240955689716
30
0
41
1
10
189.215605481616
20
8.76463079375316
30
0
41
1
10
189.220845916356
20
8.70698631398901
30
0
41
1
10
189.225097195414
20
8.66863875217484
30
0
41
1
10
189.227365859231
20
8.64948121241483
30
0
41
1
10
189.229745136706
20
8.63033635170271
30
0
41
1
10
189.235636575759
20
8.59220257974812
30
0
41
1
10
189.24925779415
20
8.53583542385684
30
0
41
1
10
189.276882986805
20
8.46365317270363
30
0
41
1
10
189.313499260799
20
8.39561651267081
30
0
41
1
10
189.351158299461
20
8.34342677385237
30
0
41
1
10
189.380842033364
20
8.30965636351561
30
0
41
1
10
189.39647701265
20
8.29352038178806
30
0
41
1
10
189.404487424123
20
8.285647337223
30
0
41
1
10
189.409120265585
20
8.28120566434569
30
0
41
1
10
189.411466313445
20
8.27899183195603
30
0
41
1
10
189.412651741082
20
8.27788419800623
30
0
41
1
10
189.412664488854
20
8.27787228806821
30
0
0
SPLINE
5
240
100
AcDbEntity
8
1
62
256
6
ByLayer
370
-1
48
1
60
0
100
AcDbSpline
70
4
71
3
72
10
73
6
40
0
40
0
40
0
40
0
40
0.5
40
0.5
40
1
40
1
40
1
40
1
41
1
10
201.57282965403
20
8.61937142837701
30
0
41
1
10
201.608665783455
20
8.6579444830779
30
0
41
1
10
201.638740904186
20
8.7003144737638
30
0
41
1
10
201.687703258418
20
8.79243602045466
30
0
41
1
10
201.706360197452
20
8.842164645623
30
0
41
1
10
201.718208165114
20
8.89354660089569
30
0
0
SPLINE
5
241
100
AcDbEntity
8
1
62
256
6
ByLayer
370
-1
48
1
60
0
100
AcDbSpline
70
4
71
3
72
8
73
4
40
0
40
0
40
0
40
0
40
1
40
1
40
1
40
1
41
1
10
201.342108631391
20
20.3236316742541
30
0
41
1
10
201.34139023044
20
20.3399488670017
30
0
41
1
10
201.340591531109
20
20.3562626575671
30
0
41
1
10
201.339712606807
20
20.3725718317539
30
0
0
SPLINE
5
242
100
AcDbEntity
8
1
62
256
6
ByLayer
370
-1
48
1
60
0
100
AcDbSpline
70
4
71
3
72
10
73
6
40
0
40
0
40
0
40
0
40
0.0485494410335031
40
0.365699627355669
40
1
40
1
40
1
40
1
41
1
10
200.307706258031
20
8.53922377949405
30
0
41
1
10
200.307722000266
20
8.53822084960359
30
0
41
1
10
200.307840183221
20
8.53066717055697
30
0
41
1
10
200.30815770329
20
8.51002518620967
30
0
41
1
10
200.308461925866
20
8.49038032347556
30
0
41
1
10
200.308664306555
20
8.47728477562265
30
0
0
SPLINE
5
243
100
AcDbEntity
8
1
62
256
6
ByLayer
370
-1
48
1
60
0
100
AcDbSpline
70
4
71
3
72
10
73
6
40
0
40
0
40
0
40
0
40
0.5
40
0.5
40
1
40
1
40
1
40
1
41
1
10
192.304037687393
20
11.6623619630854
30
0
41
1
10
192.296070611446
20
11.707996428452
30
0
41
1
10
192.28499827161
20
11.7559488309763
30
0
41
1
10
192.256747154093
20
11.8563314098466
30
0
41
1
10
192.239363607958
20
11.9089093441675
30
0
41
1
10
192.220494193918
20
11.959881888345
30
0
0
SPLINE
5
244
100
AcDbEntity
8
1
62
256
6
ByLayer
370
-1
48
1
60
0
100
AcDbSpline
70
4
71
3
72
8
73
4
40
0
40
0
40
0
40
0
40
1
40
1
40
1
40
1
41
1
10
190.591022838682
20
8.53270319064501
30
0
41
1
10
190.595752317325
20
8.42120535639827
30
0
41
1
10
190.599036947184
20
8.30822243296259
30
0
41
1
10
190.600725632384
20
8.19895173458795
30
0
0
SPLINE
5
245
100
AcDbEntity
8
1
62
256
6
ByLayer
370
-1
48
1
60
0
100
AcDbSpline
70
4
71
3
72
14
73
10
40
0
40
0
40
0
40
0
40
0.0424082128911396
40
0.1703790602422
40
0.682262449646441
40
0.938204144348562
40
0.970196856186327
40
0.986193212105209
40
1
40
1
40
1
40
1
41
1
10
190.552205200032
20
9.19911705298981
30
0
41
1
10
190.55203093197
20
9.20094037140402
30
0
41
1
10
190.551330108928
20
9.20825829743873
30
0
41
1
10
190.548522654045
20
9.23754823162957
30
0
41
1
10
190.544835924651
20
9.2759992516356
30
0
41
1
10
190.541545760805
20
9.31034777498181
30
0
41
1
10
190.540294305703
20
9.32338686854453
30
0
41
1
10
190.540039362831
20
9.32603267071963
30
0
41
1
10
190.539916893651
20
9.32731402071448
30
0
41
1
10
190.539860575283
20
9.32791218363033
30
0
0
SPLINE
5
246
100
AcDbEntity
8
1
62
256
6
ByLayer
370
-1
48
1
60
0
100
AcDbSpline
70
4
71
3
72
8
73
4
40
0
40
0
40
0
40
0
40
1
40
1
40
1
40
1
41
1
10
201.728635316722
20
9.21512101260586
30
0
41
1
10
201.727828775518
20
9.24544521767245
30
0
41
1
10
201.726884392796
20
9.27576590384783
30
0
41
1
10
201.725802690178
20
9.30608124416131
30
0
0
SPLINE
5
247
100
AcDbEntity
8
1
62
256
6
ByLayer
370
-1
48
1
60
0
100
AcDbSpline
70
4
71
3
72
10
73
6
40
0
40
0
40
0
40
0
40
0.5
40
0.5
40
1
40
1
40
1
40
1
41
1
10
201.309174999967
20
20.6435456222542
30
0
41
1
10
201.293810904557
20
20.6939559235082
30
0
41
1
10
201.272291556807
20
20.7412684938828
30
0
41
1
10
201.217311062346
20
20.8298833013818
30
0
41
1
10
201.183748648331
20
20.8709854464233
30
0
41
1
10
201.145368265006
20
20.90702225649
30
0
0
SPLINE
5
248
100
AcDbEntity
8
1
62
256
6
ByLayer
370
-1
48
1
60
0
100
AcDbSpline
70
4
71
3
72
15
73
11
40
0
40
0
40
0
40
0
40
0.0144496252551604
40
0.030093281997142
40
0.0613805954811051
40
0.123955222449031
40
0.249104476384884
40
0.499402984256589
40
0.749701492128295
40
1
40
1
40
1
40
1
41
1
10
201.725802738953
20
9.3060812458711
30
0
41
1
10
201.72497477285
20
9.30605222221391
30
0
41
1
10
201.724601460169
20
9.306039136051
30
0
41
1
10
201.722860329849
20
9.30597810218816
30
0
41
1
10
201.720020802699
20
9.30587856494586
30
0
41
1
10
201.714170359796
20
9.3056734825775
30
0
41
1
10
201.70258373306
20
9.30526732309659
30
0
41
1
10
201.685975367797
20
9.30468513078409
30
0
41
1
10
201.666067419569
20
9.30398727435858
30
0
41
1
10
201.652792914993
20
9.30352194773587
30
0
41
1
10
201.646155662705
20
9.30328928442452
30
0
0
SPLINE
5
249
100
AcDbEntity
8
1
62
256
6
ByLayer
370
-1
48
1
60
0
100
AcDbSpline
70
4
71
3
72
15
73
11
40
0
40
0
40
0
40
0
40
0.250148781622275
40
0.50029756324455
40
0.750446344866825
40
0.875520735677962
40
0.938057931083531
40
0.969326528786315
40
0.984960827637707
40
1
40
1
40
1
40
1
41
1
10
188.99109153813
20
20.3962443888678
30
0
41
1
10
188.983873548122
20
20.4030513593163
30
0
41
1
10
188.969437568108
20
20.4166653002132
30
0
41
1
10
188.947787881997
20
20.4370821715895
30
0
41
1
10
188.929725771334
20
20.4541157575871
30
0
41
1
10
188.917126418155
20
20.4659976561036
30
0
41
1
10
188.910762482898
20
20.4719992048984
30
0
41
1
10
188.90767690327
20
20.4749090799911
30
0
41
1
10
188.905760692521
20
20.4767161744774
30
0
41
1
10
188.905210659478
20
20.4772348865656
30
0
41
1
10
188.904475656523
20
20.4779280356813
30
0
0
SPLINE
5
24A
100
AcDbEntity
8
1
62
256
6
ByLayer
370
-1
48
1
60
0
100
AcDbSpline
70
4
71
3
72
9
73
5
40
0
40
0
40
0
40
0
40
0.406249999997964
40
1
40
1
40
1
40
1
41
1
10
188.772071916601
20
19.199940696388
30
0
41
1
10
188.782734118014
20
19.2003173355684
30
0
41
1
10
188.808979536878
20
19.2012444473972
30
0
41
1
10
188.835224955741
20
19.2021715592261
30
0
41
1
10
188.850808173191
20
19.2027220318745
30
0
0
SPLINE
5
24B
100
AcDbEntity
8
1
62
256
6
ByLayer
370
-1
48
1
60
0
100
AcDbSpline
70
4
71
3
72
9
73
5
40
0
40
0
40
0
40
0
40
0.59374999999987
40
1
40
1
40
1
40
1
41
1
10
201.265737202015
20
20.2299155162659
30
0
41
1
10
201.281560963376
20
20.2304659889142
30
0
41
1
10
201.308211508826
20
20.2313931007431
30
0
41
1
10
201.334862054276
20
20.2323202125719
30
0
41
1
10
201.345688838365
20
20.2326968517524
30
0
0
SPLINE
5
24C
100
AcDbEntity
8
1
62
256
6
ByLayer
370
-1
48
1
60
0
100
AcDbSpline
70
4
71
3
72
8
73
4
40
0
40
0
40
0
40
0
40
1
40
1
40
1
40
1
41
1
10
200.554686610483
20
9.85748779494202
30
0
41
1
10
200.690643477505
20
9.86197838654934
30
0
41
1
10
200.847436271508
20
9.867304909138
30
0
41
1
10
201.004420942382
20
9.87276604859522
30
0
0
SPLINE
5
24D
100
AcDbEntity
8
1
62
256
6
ByLayer
370
-1
48
1
60
0
100
AcDbSpline
70
4
71
3
72
14
73
10
40
0
40
0
40
0
40
0
40
0.0424082128910855
40
0.170379060242139
40
0.682262449646353
40
0.93820414434846
40
0.970196856186224
40
0.986193212105105
40
1
40
1
40
1
40
1
41
1
10
189.89633955284
20
19.2398114622216
30
0
41
1
10
189.898045094307
20
19.2398751339037
30
0
41
1
10
189.904888925554
20
19.2401306815119
30
0
41
1
10
189.932278882694
20
19.2411535085522
30
0
41
1
10
189.968234485244
20
19.2424962477586
30
0
41
1
10
190.000357050738
20
19.2436957246247
30
0
41
1
10
190.012548674004
20
19.2441510598054
30
0
41
1
10
190.015021507093
20
19.2442434532533
30
0
41
1
10
190.016220087442
20
19.2442881989811
30
0
41
1
10
190.016780464622
20
19.2443090872904
30
0
0
SPLINE
5
24E
100
AcDbEntity
8
1
62
256
6
ByLayer
370
-1
48
1
60
0
100
AcDbSpline
70
4
71
3
72
10
73
6
40
0
40
0
40
0
40
0
40
0.0485494410334945
40
0.365699627355663
40
1
40
1
40
1
40
1
41
1
10
201.225799934259
20
19.6364750382122
30
0
41
1
10
201.226779900123
20
19.6365100612957
30
0
41
1
10
201.234160241574
20
19.6367738415805
30
0
41
1
10
201.254323106022
20
19.6374946755577
30
0
41
1
10
201.273514033464
20
19.638180689281
30
0
41
1
10
201.286306563075
20
19.6386379958889
30
0
0
SPLINE
5
24F
100
AcDbEntity
8
1
62
256
6
ByLayer
370
-1
48
1
60
0
100
AcDbSpline
70
4
71
3
72
25
73
21
40
0
40
0
40
0
40
0
40
0.0099904601134753
40
0.0399882789191573
40
0.159979554141885
40
0.279970829364613
40
0.309968648170295
40
0.339966466975977
40
0.369964285781659
40
0.399962104587341
40
0.519953379810069
40
0.639944655032797
40
0.759935930255525
40
0.879927205478253
40
0.939922843089617
40
0.969920661895299
40
0.98491957129814
40
0.99241902599956
40
0.999918480700981
40
1
40
1
40
1
40
1
41
1
10
200.897691743147
20
8.49792835368567
30
0
41
1
10
200.899823891893
20
8.49800441550229
30
0
41
1
10
200.908357845307
20
8.4983152332639
30
0
41
1
10
200.942492353946
20
8.49972173592022
30
0
41
1
10
201.000047893091
20
8.50321160184694
30
0
41
1
10
201.057469603537
20
8.50847548191027
30
0
41
1
10
201.095668973252
20
8.51274527687619
30
0
41
1
10
201.114752476113
20
8.51502374763871
30
0
41
1
10
201.133823334381
20
8.51741326843046
30
0
41
1
10
201.171809697142
20
8.52332951928258
30
0
41
1
10
201.22795891006
20
8.53700623061647
30
0
41
1
10
201.299861952308
20
8.56474149798476
30
0
41
1
10
201.367635150294
20
8.6015022196373
30
0
41
1
10
201.41962255669
20
8.63930885868433
30
0
41
1
10
201.453261581565
20
8.66910886948114
30
0
41
1
10
201.469335075237
20
8.68480466176845
30
0
41
1
10
201.477177152898
20
8.69284668315379
30
0
41
1
10
201.481602004767
20
8.6974971401101
30
0
41
1
10
201.483806398565
20
8.69985316765698
30
0
41
1
10
201.484910592891
20
8.70104234521563
30
0
41
1
10
201.484922465992
20
8.70105513316642
30
0
0
SPLINE
5
250
100
AcDbEntity
8
1
62
256
6
ByLayer
370
-1
48
1
60
0
100
AcDbSpline
70
4
71
3
72
15
73
11
40
0
40
0
40
0
40
0
40
0.0218721291688735
40
0.0870806538909486
40
0.217497703335099
40
0.478331802223399
40
0.543540326945474
40
0.608748851667549
40
0.7391659011117
40
1
40
1
40
1
40
1
41
1
10
201.64615869461
20
9.30328940508986
30
0
41
1
10
201.646018544869
20
9.30760069678456
30
0
41
1
10
201.645432316849
20
9.32476463091658
30
0
41
1
10
201.644005631673
20
9.36763768349667
30
0
41
1
10
201.640917929959
20
9.45761674776278
30
0
41
1
10
201.637737778963
20
9.5475878183627
30
0
41
1
10
201.634933527155
20
9.62467854119217
30
0
41
1
10
201.633075666506
20
9.67607958888902
30
0
41
1
10
201.629840281289
20
9.76604123729524
30
0
41
1
10
201.627094439673
20
9.84316335590421
30
0
41
1
10
201.625281759121
20
9.89457743075195
30
0
0
SPLINE
5
251
100
AcDbEntity
8
1
62
256
6
ByLayer
370
-1
48
1
60
0
100
AcDbSpline
70
4
71
3
72
10
73
6
40
0
40
0
40
0
40
0
40
0.5
40
0.5
40
1
40
1
40
1
40
1
41
1
10
201.145368264931
20
20.9070222564103
30
0
41
1
10
201.106940495444
20
20.9429967766512
30
0
41
1
10
201.064717910846
20
20.9732006567834
30
0
41
1
10
200.972906572109
20
21.0223905356997
30
0
41
1
10
200.923340722271
20
21.0411452993731
30
0
41
1
10
200.872130350548
20
21.0530625560971
30
0
0
SPLINE
5
252
100
AcDbEntity
8
1
62
256
6
ByLayer
370
-1
48
1
60
0
100
AcDbSpline
70
4
71
3
72
8
73
4
40
0
40
0
40
0
40
0
40
1
40
1
40
1
40
1
41
1
10
200.991662317052
20
8.4218828260455
30
0
41
1
10
201.007919539894
20
8.42260610121554
30
0
41
1
10
201.024173896925
20
8.42341050691687
30
0
41
1
10
201.040424167241
20
8.42429595808821
30
0
0
SPLINE
5
253
100
AcDbEntity
8
1
62
256
6
ByLayer
370
-1
48
1
60
0
100
AcDbSpline
70
4
71
3
72
10
73
6
40
0
40
0
40
0
40
0
40
0.04854944103319
40
0.36569962735546
40
1
40
1
40
1
40
1
41
1
10
189.252683390704
20
9.46082442441426
30
0
41
1
10
189.25166512969
20
9.46078940133074
30
0
41
1
10
189.243995601106
20
9.46052562104595
30
0
41
1
10
189.223031594824
20
9.45980478706866
30
0
41
1
10
189.203082306065
20
9.45911877334544
30
0
41
1
10
189.189783404997
20
9.45866146673748
30
0
0
SPLINE
5
254
100
AcDbEntity
8
1
62
256
6
ByLayer
370
-1
48
1
60
0
100
AcDbSpline
70
4
71
3
72
14
73
10
40
0
40
0
40
0
40
0
40
0.0424082128909368
40
0.170379060241993
40
0.682262449646218
40
0.938204144348331
40
0.970196856186095
40
0.986193212104977
40
1
40
1
40
1
40
1
41
1
10
200.554691735668
20
9.85748800040477
30
0
41
1
10
200.552764516861
20
9.85742432872271
30
0
41
1
10
200.545028189874
20
9.8571687811145
30
0
41
1
10
200.514061192718
20
9.85614595407418
30
0
41
1
10
200.473407390736
20
9.85480321486784
30
0
41
1
10
200.43709432254
20
9.85360373800168
30
0
41
1
10
200.423306994055
20
9.85314840282101
30
0
41
1
10
200.420508358947
20
9.85305600937312
30
0
41
1
10
200.419153991153
20
9.8530112636453
30
0
41
1
10
200.418522594883
20
9.85299037533599
30
0
0
SPLINE
5
255
100
AcDbEntity
8
1
62
256
6
ByLayer
370
-1
48
1
60
0
100
AcDbSpline
70
4
71
3
72
8
73
4
40
0
40
0
40
0
40
0
40
1
40
1
40
1
40
1
41
1
10
189.436903530124
20
20.6730035045383
30
0
41
1
10
189.383842427713
20
20.6701111661797
30
0
41
1
10
189.330800453589
20
20.6667932935246
30
0
41
1
10
189.277835283319
20
20.6629707608797
30
0
0
SPLINE
5
256
100
AcDbEntity
8
1
62
256
6
ByLayer
370
-1
48
1
60
0
100
AcDbSpline
70
4
71
2
72
9
73
6
40
0
40
0
40
0
40
0.25
40
0.5
40
0.75
40
1
40
1
40
1
41
1
10
200.245057091184
20
9.69684587196696
30
0
41
1
10
200.274733869641
20
9.69800835908526
30
0
41
1
10
200.328348457302
20
9.72226952044548
30
0
41
1
10
200.369068370469
20
9.76574467403066
30
0
41
1
10
200.390114754409
20
9.82155284110209
30
0
41
1
10
200.389180263626
20
9.8519894205252
30
0
0
SPLINE
5
257
100
AcDbEntity
8
1
62
256
6
ByLayer
370
-1
48
1
60
0
100
AcDbSpline
70
4
71
2
72
9
73
6
40
0
40
0
40
0
40
0.25
40
0.5
40
0.75
40
1
40
1
40
1
41
1
10
190.383522439487
20
9.50124947866502
30
0
41
1
10
190.384680502991
20
9.47145933973579
30
0
41
1
10
190.408849343307
20
9.41763995305942
30
0
41
1
10
190.452159060808
20
9.37676449643951
30
0
41
1
10
190.507754860954
20
9.35563771873197
30
0
41
1
10
190.538075620004
20
9.35657577911752
30
0
0
SPLINE
5
258
100
AcDbEntity
8
1
62
256
6
ByLayer
370
-1
48
1
60
0
100
AcDbSpline
70
4
71
3
72
15
73
11
40
0
40
0
40
0
40
0
40
0.250148781622276
40
0.500297563244552
40
0.750446344866827
40
0.875520735677965
40
0.938057931083534
40
0.969326528786319
40
0.984960827637711
40
1
40
1
40
1
40
1
41
1
10
201.484922213992
20
8.7010550737586
30
0
41
1
10
201.492247833995
20
8.69424810331014
30
0
41
1
10
201.506899074001
20
8.68063416241318
30
0
41
1
10
201.528871586221
20
8.6602172910369
30
0
41
1
10
201.547203027389
20
8.64318370503932
30
0
41
1
10
201.559990253969
20
8.63130180652277
30
0
41
1
10
201.56644908411
20
8.62530025772799
30
0
41
1
10
201.569580673904
20
8.62239038263533
30
0
41
1
10
201.571525457948
20
8.62058328814902
30
0
41
1
10
201.572083692728
20
8.6200645760608
30
0
41
1
10
201.572829655571
20
8.61937142694515
30
0
0
SPLINE
5
259
100
AcDbEntity
8
1
62
256
6
ByLayer
370
-1
48
1
60
0
100
AcDbSpline
70
4
71
3
72
8
73
4
40
0
40
0
40
0
40
0
40
1
40
1
40
1
40
1
41
1
10
190.55220573146
20
9.19912293667315
30
0
41
1
10
190.564531721298
20
9.07052921801565
30
0
41
1
10
190.574679547875
20
8.91799756804932
30
0
41
1
10
190.581313102336
20
8.76161099533959
30
0
0
SPLINE
5
25A
100
AcDbEntity
8
1
62
256
6
ByLayer
370
-1
48
1
60
0
100
AcDbSpline
70
4
71
3
72
14
73
10
40
0
40
0
40
0
40
0
40
0.0424082128911183
40
0.170379060242181
40
0.682262449646433
40
0.938204144348558
40
0.970196856186324
40
0.986193212105207
40
1
40
1
40
1
40
1
41
1
10
199.898826088476
20
19.8981824096366
30
0
41
1
10
199.898778679198
20
19.8963590912224
30
0
41
1
10
199.8985870065
20
19.8890411651877
30
0
41
1
10
199.897817421367
20
19.8597512309968
30
0
41
1
10
199.896805951329
20
19.8213002109908
30
0
41
1
10
199.895905612473
20
19.7869516876446
30
0
41
1
10
199.895561362356
20
19.7739125940819
30
0
41
1
10
199.89549050321
20
19.7712667919068
30
0
41
1
10
199.895457184944
20
19.7699854419119
30
0
41
1
10
199.895442484222
20
19.7693872789961
30
0
0
SPLINE
5
25B
100
AcDbEntity
8
1
62
256
6
ByLayer
370
-1
48
1
60
0
100
AcDbSpline
70
4
71
3
72
15
73
11
40
0
40
0
40
0
40
0
40
0.0204519912453812
40
0.0504132324411495
40
0.110335714832686
40
0.23018067961576
40
0.469870609181906
40
0.709560538748053
40
0.9492504683142
40
1
40
1
40
1
40
1
41
1
10
200.895228929097
20
19.6248202654649
30
0
41
1
10
200.897518009605
20
19.6248999095621
30
0
41
1
10
200.903160458826
20
19.6250962460308
30
0
41
1
10
200.915509077887
20
19.6255261904579
30
0
41
1
10
200.93897671116
20
19.6263443604622
30
0
41
1
10
200.985868925758
20
19.6279830422544
30
0
41
1
10
201.052593765287
20
19.6303261115235
30
0
41
1
10
201.131826293637
20
19.6331263536451
30
0
41
1
10
201.189320432783
20
19.6351716112396
30
0
41
1
10
201.220378253683
20
19.636281272308
30
0
41
1
10
201.225799934259
20
19.6364750382122
30
0
0
SPLINE
5
25C
100
AcDbEntity
8
1
62
256
6
ByLayer
370
-1
48
1
60
0
100
AcDbSpline
70
4
71
3
72
12
73
8
40
0
40
0
40
0
40
0
40
0.341077853836671
40
0.341077853836671
40
0.670538966398327
40
0.670538966398327
40
1
40
1
40
1
40
1
41
1
10
190.016033724752
20
8.03671983793808
30
0
41
1
10
190.083046163782
20
8.0391767993143
30
0
41
1
10
190.150076314535
20
8.04167876127192
30
0
41
1
10
190.2817615618
20
8.04636189513849
30
0
41
1
10
190.346407649328
20
8.04852799523013
30
0
41
1
10
190.475712664974
20
8.05289843517716
30
0
41
1
10
190.540373268175
20
8.05510012079532
30
0
41
1
10
190.605061257346
20
8.05736770399272
30
0
0
SPLINE
5
25D
100
AcDbEntity
8
1
62
256
6
ByLayer
370
-1
48
1
60
0
100
AcDbSpline
70
4
71
3
72
9
73
5
40
0
40
0
40
0
40
0
40
0.593749999999986
40
1
40
1
40
1
40
1
41
1
10
189.578398112736
20
20.5993667722743
30
0
41
1
10
189.577970006758
20
20.6151302464583
30
0
41
1
10
189.577248986163
20
20.6416792556102
30
0
41
1
10
189.576527965567
20
20.6682282647622
30
0
41
1
10
189.57623505095
20
20.6790137997301
30
0
0
SPLINE
5
25E
100
AcDbEntity
8
1
62
256
6
ByLayer
370
-1
48
1
60
0
100
AcDbSpline
70
4
71
3
72
15
73
11
40
0
40
0
40
0
40
0
40
0.0229190021792272
40
0.11048132148818
40
0.285605960106085
40
0.635855237341895
40
0.8109798759598
40
0.898542195268753
40
0.986104514577706
40
1
40
1
40
1
40
1
41
1
10
189.813360152576
20
9.48047282501139
30
0
41
1
10
189.811632126207
20
9.48041176922419
30
0
41
1
10
189.803300377566
20
9.48011741673412
30
0
41
1
10
189.781755002939
20
9.4793563732795
30
0
41
1
10
189.735522634222
20
9.47772320049012
30
0
41
1
10
189.682683341668
20
9.47585668067501
30
0
41
1
10
189.636449631531
20
9.47422348642789
30
0
41
1
10
189.610032140342
20
9.47329026442208
30
0
41
1
10
189.595773558792
20
9.47278659782668
30
0
41
1
10
189.588118865759
20
9.47251622806075
30
0
41
1
10
189.587070402619
20
9.4724791971615
30
0
0
SPLINE
5
25F
100
AcDbEntity
8
1
62
256
6
ByLayer
370
-1
48
1
60
0
100
AcDbSpline
70
4
71
3
72
12
73
8
40
0
40
0
40
0
40
0
40
0.659147749652355
40
0.823934687065444
40
0.906328155771988
40
0.988721624478532
40
1
40
1
40
1
40
1
41
1
10
200.245057091184
20
9.69684587196696
30
0
41
1
10
200.245290404199
20
9.6901391428961
30
0
41
1
10
200.245731207807
20
9.68175958800444
30
0
41
1
10
200.246372643144
20
9.67345821439574
30
0
41
1
10
200.24662087974
20
9.67056098063421
30
0
41
1
10
200.246758903607
20
9.66906468993332
30
0
41
1
10
200.246833147452
20
9.66827747328111
30
0
41
1
10
200.246842096777
20
9.66818280070424
30
0
0
SPLINE
5
260
100
AcDbEntity
8
1
62
256
6
ByLayer
370
-1
48
1
60
0
100
AcDbSpline
70
4
71
3
72
8
73
4
40
0
40
0
40
0
40
0
40
1
40
1
40
1
40
1
41
1
10
201.718208165114
20
8.89354660089492
30
0
41
1
10
201.726744057991
20
8.93056483714966
30
0
41
1
10
201.731024140523
20
8.96807381289389
30
0
41
1
10
201.731041368123
20
9.00607533898005
30
0
0
SPLINE
5
261
100
AcDbEntity
8
1
62
256
6
ByLayer
370
-1
48
1
60
0
100
AcDbSpline
70
4
71
3
72
8
73
4
40
0
40
0
40
0
40
0
40
1
40
1
40
1
40
1
41
1
10
200.872130350549
20
21.0530625560969
30
0
41
1
10
200.835235732019
20
21.0616483684234
30
0
41
1
10
200.797850942449
20
21.0659634178232
30
0
41
1
10
200.759979923199
20
21.0659948655344
30
0
0
SPLINE
5
262
100
AcDbEntity
8
1
62
256
6
ByLayer
370
-1
48
1
60
0
100
AcDbSpline
70
4
71
3
72
8
73
4
40
0
40
0
40
0
40
0
40
1
40
1
40
1
40
1
41
1
10
201.731041368123
20
9.00607533898005
30
0
41
1
10
201.73106555565
20
9.05942943179488
30
0
41
1
10
201.730595732869
20
9.11278719476013
30
0
41
1
10
201.729698701792
20
9.16613175675502
30
0
0
SPLINE
5
263
100
AcDbEntity
8
1
62
256
6
ByLayer
370
-1
48
1
60
0
100
AcDbSpline
70
4
71
3
72
10
73
6
40
0
40
0
40
0
40
0
40
0.5
40
0.5
40
1
40
1
40
1
40
1
41
1
10
189.168398493572
20
8.45375384037217
30
0
41
1
10
189.183778861823
20
8.40334353911823
30
0
41
1
10
189.205283096922
20
8.35603096874362
30
0
41
1
10
189.260174294865
20
8.2674161612446
30
0
41
1
10
189.293660580919
20
8.22631401620308
30
0
41
1
10
189.331937047067
20
8.19027720613641
30
0
0
SPLINE
5
264
100
AcDbEntity
8
1
62
256
6
ByLayer
370
-1
48
1
60
0
100
AcDbSpline
70
4
71
3
72
12
73
8
40
0
40
0
40
0
40
0
40
0.521734132299738
40
0.782601198449608
40
0.913034731524542
40
0.978251498062009
40
1
40
1
40
1
40
1
41
1
10
189.189783404997
20
9.45866146673748
30
0
41
1
10
189.193360639559
20
9.35583158206339
30
0
41
1
10
189.198724456148
20
9.20158671547446
30
0
41
1
10
189.204990139813
20
9.02163455903155
30
0
41
1
10
189.208111229339
20
8.93165812680328
30
0
41
1
10
189.209615491721
20
8.88881093982909
30
0
41
1
10
189.210196558705
20
8.87167016695136
30
0
41
1
10
189.210348181041
20
8.86738379311339
30
0
0
SPLINE
5
265
100
AcDbEntity
8
1
62
256
6
ByLayer
370
-1
48
1
60
0
100
AcDbSpline
70
4
71
3
72
8
73
4
40
0
40
0
40
0
40
0
40
1
40
1
40
1
40
1
41
1
10
188.745952031432
20
20.0912241236463
30
0
41
1
10
188.745888249896
20
20.0378700308315
30
0
41
1
10
188.746430764746
20
19.9845122678663
30
0
41
1
10
188.747403694493
20
19.9311677058714
30
0
0
SPLINE
5
266
100
AcDbEntity
8
1
62
256
6
ByLayer
370
-1
48
1
60
0
100
AcDbSpline
70
4
71
2
72
9
73
6
40
0
40
0
40
0
40
0.25
40
0.5
40
0.75
40
1
40
1
40
1
41
1
10
200.050205001211
20
19.5960499839614
30
0
41
1
10
200.049046937707
20
19.6258401228906
30
0
41
1
10
200.02487809739
20
19.679659509567
30
0
41
1
10
199.98156837989
20
19.7205349661869
30
0
41
1
10
199.925972579743
20
19.7416617438944
30
0
41
1
10
199.895651820694
20
19.7407236835089
30
0
0
SPLINE
5
267
100
AcDbEntity
8
1
62
256
6
ByLayer
370
-1
48
1
60
0
100
AcDbSpline
70
4
71
3
72
15
73
11
40
0
40
0
40
0
40
0
40
0.0138956313306266
40
0.101457951273498
40
0.18902027121637
40
0.364144911102113
40
0.7143941908736
40
0.889518830759343
40
0.977081150702215
40
1
40
1
40
1
40
1
41
1
10
190.591022229902
20
8.53270257429423
30
0
41
1
10
190.590977450216
20
8.53376305374232
30
0
41
1
10
190.590650174431
20
8.54150575576139
30
0
41
1
10
190.590038565541
20
8.5559286717403
30
0
41
1
10
190.588904095254
20
8.58265264982094
30
0
41
1
10
190.58692023738
20
8.6294212189228
30
0
41
1
10
190.584653341929
20
8.6828713194343
30
0
41
1
10
190.582668837097
20
8.72963933453605
30
0
41
1
10
190.581745463764
20
8.75143265712012
30
0
41
1
10
190.581386932426
20
8.75986182573152
30
0
41
1
10
190.58131238748
20
8.7616102302029
30
0
0
SPLINE
5
268
100
AcDbEntity
8
1
62
256
6
ByLayer
370
-1
48
1
60
0
100
AcDbSpline
70
4
71
3
72
15
73
11
40
0
40
0
40
0
40
0
40
0.0218721291688775
40
0.0870806538909523
40
0.217497703335102
40
0.478331802223401
40
0.543540326945476
40
0.608748851667551
40
0.739165901111701
40
1
40
1
40
1
40
1
41
1
10
188.831146392399
20
19.7940100575366
30
0
41
1
10
188.831295012271
20
19.7896987658418
30
0
41
1
10
188.831913920376
20
19.7725348317098
30
0
41
1
10
188.833392433002
20
19.7296617791297
30
0
41
1
10
188.836466404971
20
19.6396827148636
30
0
41
1
10
188.839379605331
20
19.5497116442637
30
0
41
1
10
188.84178091682
20
19.4726209214342
30
0
41
1
10
188.843418944956
20
19.4212198737374
30
0
41
1
10
188.846353012115
20
19.3312582253312
30
0
41
1
10
188.848994540117
20
19.2541361067222
30
0
41
1
10
188.850808173191
20
19.2027220318745
30
0
0
SPLINE
5
269
100
AcDbEntity
8
1
62
256
6
ByLayer
370
-1
48
1
60
0
100
AcDbSpline
70
4
71
3
72
8
73
4
40
0
40
0
40
0
40
0
40
1
40
1
40
1
40
1
41
1
10
189.248096106001
20
19.2165397773486
30
0
41
1
10
189.137873259436
20
19.21264618718
30
0
41
1
10
189.024674462998
20
19.2087007365542
30
0
41
1
10
188.913706961286
20
19.2048849196841
30
0
0
SPLINE
5
26A
100
AcDbEntity
8
1
62
256
6
ByLayer
370
-1
48
1
60
0
100
AcDbSpline
70
4
71
3
72
12
73
8
40
0
40
0
40
0
40
0
40
0.659147749652472
40
0.823934687065591
40
0.90632815577215
40
0.988721624478709
40
1
40
1
40
1
40
1
41
1
10
190.188670349514
20
19.4004535906594
30
0
41
1
10
190.188437036684
20
19.4071603197303
30
0
41
1
10
190.188294826301
20
19.415539874622
30
0
41
1
10
190.18835868717
20
19.4238412482307
30
0
41
1
10
190.188405346494
20
19.4267384819922
30
0
41
1
10
190.188439264782
20
19.4282347726931
30
0
41
1
10
190.188458737422
20
19.4290219893453
30
0
41
1
10
190.188461099829
20
19.4291166619221
30
0
0
SPLINE
5
26B
100
AcDbEntity
8
1
62
256
6
ByLayer
370
-1
48
1
60
0
100
AcDbSpline
70
4
71
3
72
15
73
11
40
0
40
0
40
0
40
0
40
0.0138956313305309
40
0.101457951273399
40
0.189020271216268
40
0.364144911102004
40
0.714394190873478
40
0.889518830759215
40
0.977081150702083
40
1
40
1
40
1
40
1
41
1
10
189.248094861774
20
19.2165397558251
30
0
41
1
10
189.249143417929
20
19.2165767885835
30
0
41
1
10
189.256798733075
20
19.216847169696
30
0
41
1
10
189.271056899363
20
19.2173508290203
30
0
41
1
10
189.297474385038
20
19.2182840508987
30
0
41
1
10
189.343708107364
20
19.2199172453198
30
0
41
1
10
189.396547334628
20
19.221783763959
30
0
41
1
10
189.442779838832
20
19.223416939034
30
0
41
1
10
189.46432500152
20
19.2241779786284
30
0
41
1
10
189.472656796213
20
19.2244723316825
30
0
41
1
10
189.474384825826
20
19.224533387312
30
0
0
SPLINE
5
26C
100
AcDbEntity
8
1
62
256
6
ByLayer
370
-1
48
1
60
0
100
AcDbSpline
70
4
71
3
72
17
73
13
40
0
40
0
40
0
40
0
40
0.0285647612452577
40
0.114009773641802
40
0.28489979843489
40
0.455789823227979
40
0.626679848021067
40
0.797569872814156
40
0.8830148852107
40
0.925737391408972
40
0.968459897607244
40
1
40
1
40
1
40
1
41
1
10
190.235314839975
20
9.49575089955536
30
0
41
1
10
190.231873727211
20
9.49562243519054
30
0
41
1
10
190.218105614128
20
9.4951086512113
30
0
41
1
10
190.182762268877
20
9.49379561195923
30
0
41
1
10
190.127132735536
20
9.49174595576017
30
0
41
1
10
190.056592056498
20
9.48917350481906
30
0
41
1
10
189.982865031167
20
9.48650982855679
30
0
41
1
10
189.919249675294
20
9.48423147849644
30
0
41
1
10
189.873847520735
20
9.48261552638024
30
0
41
1
10
189.847694681476
20
9.48168750116722
30
0
41
1
10
189.829703030348
20
9.48105038083028
30
0
41
1
10
189.818234071419
20
9.48064503358245
30
0
41
1
10
189.813360152576
20
9.48047282501139
30
0
0
SPLINE
5
26D
100
AcDbEntity
8
1
62
256
6
ByLayer
370
-1
48
1
60
0
100
AcDbSpline
70
4
71
3
72
8
73
4
40
0
40
0
40
0
40
0
40
1
40
1
40
1
40
1
41
1
10
201.729698701792
20
9.16613175675502
30
0
41
1
10
201.729424076859
20
9.18246312708837
30
0
41
1
10
201.729069590144
20
9.19879327124619
30
0
41
1
10
201.728635316726
20
9.21512101260589
30
0
0
SPLINE
5
26E
100
AcDbEntity
8
1
62
256
6
ByLayer
370
-1
48
1
60
0
100
AcDbSpline
70
4
71
3
72
8
73
4
40
0
40
0
40
0
40
0
40
1
40
1
40
1
40
1
41
1
10
201.345688838365
20
20.2326968517524
30
0
41
1
10
201.344636339225
20
20.263013819625
30
0
41
1
10
201.34344290002
20
20.2933261486881
30
0
41
1
10
201.342108631391
20
20.3236316742541
30
0
0
SPLINE
5
26F
100
AcDbEntity
8
1
62
256
6
ByLayer
370
-1
48
1
60
0
100
AcDbSpline
70
4
71
3
72
12
73
8
40
0
40
0
40
0
40
0
40
0.0112779549361875
40
0.0936714586915052
40
0.176064962446823
40
0.340851969957458
40
1
40
1
40
1
40
1
41
1
10
200.418522594883
20
9.85299037533599
30
0
41
1
10
200.418422464056
20
9.85298706273539
30
0
41
1
10
200.417589978213
20
9.8529595159853
30
0
41
1
10
200.416010776313
20
9.85290715850635
30
0
41
1
10
200.412982934254
20
9.85280621852917
30
0
41
1
10
200.404355664551
20
9.85251613390633
30
0
41
1
10
200.395861471316
20
9.85222362465626
30
0
41
1
10
200.389180263626
20
9.8519894205252
30
0
0
SPLINE
5
270
100
AcDbEntity
8
1
62
256
6
ByLayer
370
-1
48
1
60
0
100
AcDbSpline
70
4
71
3
72
12
73
8
40
0
40
0
40
0
40
0
40
0.0112779549373608
40
0.0936714586925808
40
0.176064962447801
40
0.340851969958241
40
1
40
1
40
1
40
1
41
1
10
199.895442484222
20
19.7693872789961
30
0
41
1
10
199.895440152888
20
19.7692924185257
30
0
41
1
10
199.895420942926
20
19.7685035828134
30
0
41
1
10
199.895387515925
20
19.7670042607844
30
0
41
1
10
199.895339773102
20
19.7641137180313
30
0
41
1
10
199.895276810492
20
19.7558067812986
30
0
41
1
10
199.89541850778
20
19.7474304123262
30
0
41
1
10
199.895651820694
20
19.7407236835089
30
0
0
SPLINE
5
271
100
AcDbEntity
8
1
62
256
6
ByLayer
370
-1
48
1
60
0
100
AcDbSpline
70
4
71
3
72
15
73
11
40
0
40
0
40
0
40
0
40
0.0229190021791436
40
0.110481321488098
40
0.285605960106006
40
0.635855237341823
40
0.810979875959731
40
0.898542195268685
40
0.986104514577639
40
1
40
1
40
1
40
1
41
1
10
190.190511963356
20
19.9954191070414
30
0
41
1
10
190.190464869298
20
19.9971675160284
30
0
41
1
10
190.190236965257
20
20.0055966684882
30
0
41
1
10
190.189643945708
20
20.0273901016132
30
0
41
1
10
190.1883746024
20
20.0741580512636
30
0
41
1
10
190.186922632986
20
20.1276081854455
30
0
41
1
10
190.185652539012
20
20.1743767495652
30
0
41
1
10
190.184927665917
20
20.2011007312921
30
0
41
1
10
190.184535574229
20
20.2155238554881
30
0
41
1
10
190.184324455284
20
20.2232662325849
30
0
41
1
10
190.184295493126
20
20.2243266587953
30
0
0
SPLINE
5
272
100
AcDbEntity
8
1
62
256
6
ByLayer
370
-1
48
1
60
0
100
AcDbSpline
70
4
71
3
72
15
73
11
40
0
40
0
40
0
40
0
40
0.014449625254868
40
0.0300932819968542
40
0.0613805954808267
40
0.123955222448772
40
0.249104476384661
40
0.499402984256441
40
0.74970149212822
40
1
40
1
40
1
40
1
41
1
10
188.751502573118
20
19.7912182167553
30
0
41
1
10
188.752330539221
20
19.7912472404125
30
0
41
1
10
188.752703851903
20
19.7912603265754
30
0
41
1
10
188.754444982223
20
19.7913213604383
30
0
41
1
10
188.757284509372
20
19.7914208976805
30
0
41
1
10
188.763134952275
20
19.7916259800489
30
0
41
1
10
188.774721579012
20
19.7920321395298
30
0
41
1
10
188.791329944274
20
19.7926143318423
30
0
41
1
10
188.811237892503
20
19.7933121882678
30
0
41
1
10
188.824512397079
20
19.7937775148905
30
0
41
1
10
188.831149649366
20
19.7940101782019
30
0
0
SPLINE
5
273
100
AcDbEntity
8
1
62
256
6
ByLayer
370
-1
48
1
60
0
100
AcDbSpline
70
4
71
3
72
8
73
4
40
0
40
0
40
0
40
0
40
1
40
1
40
1
40
1
41
1
10
189.576235050951
20
20.6790137997301
30
0
41
1
10
189.546031679011
20
20.6779590562547
30
0
41
1
10
189.515835793653
20
20.6767599579781
30
0
41
1
10
189.485649530786
20
20.6754166365811
30
0
0
SPLINE
5
274
100
AcDbEntity
8
1
62
256
6
ByLayer
370
-1
48
1
60
0
100
AcDbSpline
70
4
71
3
72
10
73
6
40
0
40
0
40
0
40
0
40
0.634300400238575
40
0.951450600357863
40
1
40
1
40
1
40
1
41
1
10
199.874407116511
20
20.9602847311779
30
0
41
1
10
199.875115868827
20
20.947189183832
30
0
41
1
10
199.876178453016
20
20.9275443210458
30
0
41
1
10
199.877297115048
20
20.9069023400336
30
0
41
1
10
199.877704485189
20
20.8993486621025
30
0
41
1
10
199.877758522538
20
20.8983457331424
30
0
0
SPLINE
5
275
100
AcDbEntity
8
1
62
256
6
ByLayer
370
-1
48
1
60
0
100
AcDbSpline
70
4
71
3
72
8
73
4
40
0
40
0
40
0
40
0
40
1
40
1
40
1
40
1
41
1
10
189.137615090557
20
8.72472763087248
30
0
41
1
10
189.140506736584
20
8.67145349038469
30
0
41
1
10
189.143821823174
20
8.61819902750958
30
0
41
1
10
189.147675214971
20
8.56498596040998
30
0
0
SPLINE
5
276
100
AcDbEntity
8
1
62
256
6
ByLayer
370
-1
48
1
60
0
100
AcDbSpline
70
4
71
3
72
15
73
11
40
0
40
0
40
0
40
0
40
0.0218721291688893
40
0.0870806538909633
40
0.217497703335112
40
0.478331802223408
40
0.543540326945482
40
0.608748851667556
40
0.739165901111704
40
1
40
1
40
1
40
1
41
1
10
200.464052690069
20
20.9806315149739
30
0
41
1
10
200.459762039206
20
20.9804865786409
30
0
41
1
10
200.442679759068
20
20.9798817088663
30
0
41
1
10
200.399995765122
20
20.9784235612733
30
0
41
1
10
200.310352233488
20
20.9753309561357
30
0
41
1
10
200.220590054657
20
20.9722726426516
30
0
41
1
10
200.143591215143
20
20.9696599188001
30
0
41
1
10
200.092275847694
20
20.9679052975436
30
0
41
1
10
200.002505871491
20
20.9648087882032
30
0
41
1
10
199.92562506902
20
20.9621048139556
30
0
41
1
10
199.874407116511
20
20.9602847311779
30
0
0
SPLINE
5
277
100
AcDbEntity
8
1
62
256
6
ByLayer
370
-1
48
1
60
0
100
AcDbSpline
70
4
71
3
72
8
73
4
40
0
40
0
40
0
40
0
40
1
40
1
40
1
40
1
41
1
10
201.040424167241
20
8.42429595808812
30
0
41
1
10
201.093505897429
20
8.42718829644667
30
0
41
1
10
201.146567550437
20
8.43050616910173
30
0
41
1
10
201.199623530794
20
8.43432870174672
30
0
0
SPLINE
5
278
100
AcDbEntity
8
1
62
256
6
ByLayer
370
-1
48
1
60
0
100
AcDbSpline
70
4
71
3
72
9
73
5
40
0
40
0
40
0
40
0
40
0.593750000000192
40
1
40
1
40
1
40
1
41
1
10
200.897691819576
20
8.49793269035209
30
0
41
1
10
200.898360469465
20
8.48216921616813
30
0
41
1
10
200.899486616647
20
8.45562020701618
30
0
41
1
10
200.900612763828
20
8.42907119786426
30
0
41
1
10
200.901070261121
20
8.4182856628963
30
0
0
SPLINE
5
279
100
AcDbEntity
8
1
62
256
6
ByLayer
370
-1
48
1
60
0
100
AcDbSpline
70
4
71
3
72
9
73
5
40
0
40
0
40
0
40
0
40
0.593750000002462
40
1
40
1
40
1
40
1
41
1
10
189.210352730297
20
8.86738394636055
30
0
41
1
10
189.194769512847
20
8.86683347371218
30
0
41
1
10
189.168524093984
20
8.86590636188333
30
0
41
1
10
189.14227867512
20
8.86497925005452
30
0
41
1
10
189.131616473707
20
8.86460261087404
30
0
0
SPLINE
5
27A
100
AcDbEntity
8
1
62
256
6
ByLayer
370
-1
48
1
60
0
100
AcDbSpline
70
4
71
3
72
12
73
8
40
0
40
0
40
0
40
0
40
0.659147749652722
40
0.823934687065903
40
0.906328155772493
40
0.988721624479083
40
1
40
1
40
1
40
1
41
1
10
200.050205001211
20
19.5960499839614
30
0
41
1
10
200.056886209246
20
19.5962841881013
30
0
41
1
10
200.065383174013
20
19.5965768086061
30
0
41
1
10
200.074005606492
20
19.5968666989604
30
0
41
1
10
200.077039263364
20
19.5969678725928
30
0
41
1
10
200.078615831305
20
19.5970201242154
30
0
41
1
10
200.079446910603
20
19.5970476144267
30
0
41
1
10
200.079546878788
20
19.5970509204659
30
0
0
SPLINE
5
27B
100
AcDbEntity
8
1
62
256
6
ByLayer
370
-1
48
1
60
0
100
AcDbSpline
70
4
71
3
72
17
73
13
40
0
40
0
40
0
40
0
40
0.0285647612451903
40
0.114009773641738
40
0.284899798434832
40
0.455789823227927
40
0.626679848021022
40
0.797569872814117
40
0.883014885210664
40
0.925737391408938
40
0.968459897607211
40
1
40
1
40
1
40
1
41
1
10
200.259186673197
20
9.53938716789051
30
0
41
1
10
200.259538275331
20
9.53570842980213
30
0
41
1
10
200.260938852457
20
9.52099558164002
30
0
41
1
10
200.264360993191
20
9.48339505704871
30
0
41
1
10
200.269244440352
20
9.42470058299074
30
0
41
1
10
200.274651461087
20
9.35103522628489
30
0
41
1
10
200.279565424325
20
9.27475751817707
30
0
41
1
10
200.283214887226
20
9.20951410878334
30
0
41
1
10
200.285521260051
20
9.16323929469149
30
0
41
1
10
200.286766953116
20
9.13666412963866
30
0
41
1
10
200.287585310487
20
9.11841939029949
30
0
41
1
10
200.288083612271
20
9.10681176384324
30
0
41
1
10
200.288293889454
20
9.101880355585
30
0
0
SPLINE
5
27C
100
AcDbEntity
8
1
62
256
6
ByLayer
370
-1
48
1
60
0
100
AcDbSpline
70
4
71
3
72
8
73
4
40
0
40
0
40
0
40
0
40
1
40
1
40
1
40
1
41
1
10
189.925353320267
20
8.03380983386069
30
0
41
1
10
189.955584055236
20
8.03464146231948
30
0
41
1
10
189.985811590458
20
8.0356117657515
30
0
41
1
10
190.016033724752
20
8.03671983792165
30
0
0
SPLINE
5
27D
100
AcDbEntity
8
1
62
256
6
ByLayer
370
-1
48
1
60
0
100
AcDbSpline
70
4
71
3
72
8
73
4
40
0
40
0
40
0
40
0
40
1
40
1
40
1
40
1
41
1
10
201.339712606807
20
20.3725718317539
30
0
41
1
10
201.336841588558
20
20.4258459722417
30
0
41
1
10
201.333546180852
20
20.4791004351168
30
0
41
1
10
201.329783599141
20
20.5323135022164
30
0
0
SPLINE
5
27E
100
AcDbEntity
8
1
62
256
6
ByLayer
370
-1
48
1
60
0
100
AcDbSpline
70
4
71
3
72
17
73
13
40
0
40
0
40
0
40
0
40
0.0285647612453135
40
0.114009773641854
40
0.284899798434937
40
0.455789823228018
40
0.6266798480211
40
0.797569872814182
40
0.883014885210723
40
0.925737391408994
40
0.968459897607264
40
1
40
1
40
1
40
1
41
1
10
200.215716454037
20
19.601548563071
30
0
41
1
10
200.219604820032
20
19.6016770274359
30
0
41
1
10
200.235150429614
20
19.6021908114151
30
0
41
1
10
200.27472197085
20
19.6035038506671
30
0
41
1
10
200.336034685237
20
19.6055535068662
30
0
41
1
10
200.412264081766
20
19.6081259578073
30
0
41
1
10
200.490511953234
20
19.6107896340696
30
0
41
1
10
200.556886874408
20
19.6130679841299
30
0
41
1
10
200.603682168756
20
19.6146839362462
30
0
41
1
10
200.630477406551
20
19.6156119614592
30
0
41
1
10
200.648836380617
20
19.6162490817961
30
0
41
1
10
200.660494333555
20
19.616654429044
30
0
41
1
10
200.665445700234
20
19.616826637615
30
0
0
SPLINE
5
27F
100
AcDbEntity
8
1
62
256
6
ByLayer
370
-1
48
1
60
0
100
AcDbSpline
70
4
71
3
72
12
73
8
40
0
40
0
40
0
40
0
40
0.52173413229972
40
0.78260119844958
40
0.91303473152451
40
0.978251498061975
40
1
40
1
40
1
40
1
41
1
10
190.167425661516
20
20.6200146870038
30
0
41
1
10
190.064987075604
20
20.6164237879929
30
0
41
1
10
189.911328753543
20
20.6110390771963
30
0
41
1
10
189.732062123229
20
20.6047502163615
30
0
41
1
10
189.642427361029
20
20.6016164845779
30
0
41
1
10
189.599743755621
20
20.6001070132857
30
0
41
1
10
189.582667916814
20
20.5995234338618
30
0
41
1
10
189.57839773098
20
20.5993711089407
30
0
0
SPLINE
5
280
100
AcDbEntity
8
1
62
256
6
ByLayer
370
-1
48
1
60
0
100
AcDbSpline
70
4
71
3
72
23
73
19
40
0
40
0
40
0
40
0
40
0.0074200078967038
40
0.0149215578681165
40
0.0299246578109418
40
0.0599308576965925
40
0.119943257467894
40
0.239968057010496
40
0.480017656095701
40
0.600042455638304
40
0.630048655523955
40
0.660054855409605
40
0.690061055295256
40
0.720067255180906
40
0.840092054723509
40
0.960116854266111
40
0.990123054151762
40
1
40
1
40
1
40
1
41
1
10
189.412664488854
20
8.27787228806821
30
0
41
1
10
189.413824485933
20
8.27678853058012
30
0
41
1
10
189.416168864162
20
8.27461923771298
30
0
41
1
10
189.420903750929
20
8.27030712839149
30
0
41
1
10
189.429305744313
20
8.26284358245644
30
0
41
1
10
189.44646976367
20
8.24833189675019
30
0
41
1
10
189.482174891631
20
8.22100350926866
30
0
41
1
10
189.55860789946
20
8.17339606048122
30
0
41
1
10
189.655457202978
20
8.13688983865251
30
0
41
1
10
189.737835358706
20
8.12297718151666
30
0
41
1
10
189.776181088698
20
8.11976181333549
30
0
41
1
10
189.795391088035
20
8.11871603531432
30
0
41
1
10
189.814604946542
20
8.11776479263023
30
0
41
1
10
189.853044760465
20
8.11614370521761
30
0
41
1
10
189.910749121765
20
8.11486760465019
30
0
41
1
10
189.968464980806
20
8.11536657391454
30
0
41
1
10
190.002624515923
20
8.11631645597879
30
0
41
1
10
190.011142920594
20
8.1165968308436
30
0
41
1
10
190.01325239694
20
8.11666794765247
30
0
0
SPLINE
5
281
100
AcDbEntity
8
1
62
256
6
ByLayer
370
-1
48
1
60
0
100
AcDbSpline
70
4
71
3
72
15
73
11
40
0
40
0
40
0
40
0
40
0.0138956313305368
40
0.101457951273423
40
0.189020271216309
40
0.364144911102081
40
0.714394190873625
40
0.889518830759397
40
0.977081150702283
40
1
40
1
40
1
40
1
41
1
10
201.234204185419
20
9.88075970680126
30
0
41
1
10
201.233139853566
20
9.88072267404289
30
0
41
1
10
201.225368691312
20
9.88045229293044
30
0
41
1
10
201.210890792741
20
9.87994863360615
30
0
41
1
10
201.184063707865
20
9.87901541172769
30
0
41
1
10
201.137116229038
20
9.87738221730663
30
0
41
1
10
201.083462042818
20
9.87551569866736
30
0
41
1
10
201.036514449652
20
9.87388252359241
30
0
41
1
10
201.014638827516
20
9.87312148399798
30
0
41
1
10
201.006176436049
20
9.8728271309439
30
0
41
1
10
201.004420963133
20
9.87276607531436
30
0
0
SPLINE
5
282
100
AcDbEntity
8
1
62
256
6
ByLayer
370
-1
48
1
60
0
100
AcDbSpline
70
4
71
3
72
8
73
4
40
0
40
0
40
0
40
0
40
1
40
1
40
1
40
1
41
1
10
200.759979923199
20
21.0659948655344
30
0
41
1
10
200.706809061811
20
21.0660390180796
30
0
41
1
10
200.653690687277
20
21.0655309157817
30
0
41
1
10
200.600587066781
20
21.0645923638964
30
0
0
SPLINE
5
283
100
AcDbEntity
8
1
62
256
6
ByLayer
370
-1
48
1
60
0
100
AcDbSpline
70
4
71
3
72
8
73
4
40
0
40
0
40
0
40
0
40
1
40
1
40
1
40
1
41
1
10
199.898827029265
20
19.8981765259533
30
0
41
1
10
199.902206012003
20
20.0267702446108
30
0
41
1
10
199.901741331456
20
20.1793018945771
30
0
41
1
10
199.897494169571
20
20.3356884672868
30
0
0
SPLINE
5
284
100
AcDbEntity
8
1
62
256
6
ByLayer
370
-1
48
1
60
0
100
AcDbSpline
70
4
71
3
72
15
73
11
40
0
40
0
40
0
40
0
40
0.250148781622281
40
0.500297563244563
40
0.750446344866845
40
0.875520735677986
40
0.938057931083556
40
0.969326528786341
40
0.984960827637734
40
1
40
1
40
1
40
1
41
1
10
189.412664081615
20
8.27787219164409
30
0
41
1
10
189.405936828742
20
8.27057260952509
30
0
41
1
10
189.392482322997
20
8.25597344528711
30
0
41
1
10
189.372304557034
20
8.23407903126656
30
0
41
1
10
189.355470454226
20
8.21581274662327
30
0
41
1
10
189.343727706621
20
8.2030709704384
30
0
41
1
10
189.337796442974
20
8.19663509729921
30
0
41
1
10
189.334920645918
20
8.19351463829975
30
0
41
1
10
189.333134714619
20
8.19157676671659
30
0
41
1
10
189.332622077255
20
8.19102051610363
30
0
41
1
10
189.331937045725
20
8.19027720468065
30
0
0
SPLINE
5
285
100
AcDbEntity
8
1
62
256
6
ByLayer
370
-1
48
1
60
0
100
AcDbSpline
70
4
71
2
72
9
73
6
40
0
40
0
40
0
40
0.25
40
0.5
40
0.75
40
1
40
1
40
1
41
1
10
190.188670349514
20
19.4004535906594
30
0
41
1
10
190.158993571057
20
19.3992911035411
30
0
41
1
10
190.105378983395
20
19.3750299421809
30
0
41
1
10
190.064659070229
20
19.3315547885957
30
0
41
1
10
190.043612686289
20
19.2757466215243
30
0
41
1
10
190.044547177071
20
19.2453100421012
30
0
0
SPLINE
5
286
100
AcDbEntity
8
1
62
256
6
ByLayer
370
-1
48
1
60
0
100
AcDbSpline
70
4
71
3
72
14
73
10
40
0
40
0
40
0
40
0
40
0.0138067085559824
40
0.0298030682371426
40
0.0617957875994631
40
0.317737542498027
40
0.829621052295155
40
0.957591929744437
40
1
40
1
40
1
40
1
41
1
10
200.246842096777
20
9.66818280070424
30
0
41
1
10
200.246898526186
20
9.6675858486775
30
0
41
1
10
200.247021204531
20
9.66630677321848
30
0
41
1
10
200.247275546465
20
9.66365445140073
30
0
41
1
10
200.24852784865
20
9.65062455591629
30
0
41
1
10
200.25181684985
20
9.61626339385327
30
0
41
1
10
200.255504172822
20
9.57781881642924
30
0
41
1
10
200.258311587001
20
9.548528441256
30
0
41
1
10
200.259012406264
20
9.54121048561956
30
0
41
1
10
200.259186673197
20
9.53938716789051
30
0
0
SPLINE
5
287
100
AcDbEntity
8
1
62
256
6
ByLayer
370
-1
48
1
60
0
100
AcDbSpline
70
4
71
3
72
8
73
4
40
0
40
0
40
0
40
0
40
1
40
1
40
1
40
1
41
1
10
189.876515329504
20
8.03270709873013
30
0
41
1
10
189.892796172184
20
8.03299443520535
30
0
41
1
10
189.909075906875
20
8.0333620524778
30
0
41
1
10
189.925353320268
20
8.03380983385748
30
0
0
SPLINE
5
288
100
AcDbEntity
8
1
62
256
6
ByLayer
370
-1
48
1
60
0
100
AcDbSpline
70
4
71
3
72
15
73
11
40
0
40
0
40
0
40
0
40
0.0144496252550588
40
0.030093281997042
40
0.0613805954810084
40
0.123955222448941
40
0.249104476384807
40
0.499402984256538
40
0.749701492128269
40
1
40
1
40
1
40
1
41
1
10
200.461271585616
20
21.0605796736667
30
0
41
1
10
200.461300498829
20
21.0597485448679
30
0
41
1
10
200.461313535196
20
21.0593738061924
30
0
41
1
10
200.461374336806
20
21.0576260250376
30
0
41
1
10
200.461473495279
20
21.0547756513556
30
0
41
1
10
200.461677797247
20
21.0489028607113
30
0
41
1
10
200.462082411169
20
21.0372719749427
30
0
41
1
10
200.462662388064
20
21.020600168423
30
0
41
1
10
200.463357588935
20
21.0006161750667
30
0
41
1
10
200.463821144849
20
20.9872909640397
30
0
41
1
10
200.464052922806
20
20.9806283585263
30
0
0
SPLINE
5
289
100
AcDbEntity
8
1
62
256
6
ByLayer
370
-1
48
1
60
0
100
AcDbSpline
70
4
71
3
72
8
73
4
40
0
40
0
40
0
40
0
40
1
40
1
40
1
40
1
41
1
10
189.277835283319
20
20.6629707608797
30
0
41
1
10
189.240152731073
20
20.6602511852535
30
0
41
1
10
189.203235618415
20
20.6533362892952
30
0
41
1
10
189.167083774795
20
20.6422258814715
30
0
0
SPLINE
5
28A
100
AcDbEntity
8
1
62
256
6
ByLayer
370
-1
48
1
60
0
100
AcDbSpline
70
4
71
3
72
10
73
6
40
0
40
0
40
0
40
0
40
0.634300400238613
40
0.951450600357919
40
1
40
1
40
1
40
1
41
1
10
190.601682815801
20
8.13701473144855
30
0
41
1
10
190.601480435316
20
8.15011027879441
30
0
41
1
10
190.601176213034
20
8.16975514158062
30
0
41
1
10
190.600858693325
20
8.19039712259277
30
0
41
1
10
190.600740510501
20
8.19795080052387
30
0
41
1
10
190.600724768295
20
8.19895372948395
30
0
0
SPLINE
5
28B
100
AcDbEntity
8
1
62
256
6
ByLayer
370
-1
48
1
60
0
100
AcDbSpline
70
4
71
3
72
8
73
4
40
0
40
0
40
0
40
0
40
1
40
1
40
1
40
1
41
1
10
188.758885024615
20
20.2037528617315
30
0
41
1
10
188.750314636055
20
20.1667346254767
30
0
41
1
10
188.745997459919
20
20.1292256497325
30
0
41
1
10
188.745952031432
20
20.0912241236463
30
0
0
SPLINE
5
28C
100
AcDbEntity
8
1
62
256
6
ByLayer
370
-1
48
1
60
0
100
AcDbSpline
70
4
71
3
72
10
73
6
40
0
40
0
40
0
40
0
40
0.5
40
0.5
40
1
40
1
40
1
40
1
41
1
10
189.33193704714
20
8.19027720621611
30
0
41
1
10
189.370361822817
20
8.15430268597518
30
0
41
1
10
189.412556758379
20
8.12409880584295
30
0
41
1
10
189.504287412428
20
8.07490892692664
30
0
41
1
10
189.553800348063
20
8.05615416325327
30
0
41
1
10
189.60496283918
20
8.04423690652936
30
0
0
SPLINE
5
28D
100
AcDbEntity
8
1
62
256
6
ByLayer
370
-1
48
1
60
0
100
AcDbSpline
70
4
71
3
72
9
73
5
40
0
40
0
40
0
40
0
40
0.406250000000481
40
1
40
1
40
1
40
1
41
1
10
190.605061257346
20
8.05736770399264
30
0
41
1
10
190.604603760054
20
8.06815323896063
30
0
41
1
10
190.603477612872
20
8.09470224811261
30
0
41
1
10
190.60235146569
20
8.12125125726459
30
0
41
1
10
190.601682815801
20
8.13701473144855
30
0
0
SPLINE
5
28E
100
AcDbEntity
8
1
62
256
6
ByLayer
370
-1
48
1
60
0
100
AcDbSpline
70
4
71
3
72
15
73
11
40
0
40
0
40
0
40
0
40
0.0204519912454221
40
0.0504132324411873
40
0.110335714832718
40
0.230180679615779
40
0.469870609181901
40
0.709560538748023
40
0.949250468314145
40
1
40
1
40
1
40
1
41
1
10
189.587070402619
20
9.4724791971615
30
0
41
1
10
189.584815423616
20
9.47239955306429
30
0
41
1
10
189.579255980556
20
9.47220321659566
30
0
41
1
10
189.567074306327
20
9.47177327216852
30
0
41
1
10
189.543861603957
20
9.47095510216423
30
0
41
1
10
189.497259537814
20
9.46931642037197
30
0
41
1
10
189.430301573843
20
9.46697335110295
30
0
41
1
10
189.349767499365
20
9.46417310898127
30
0
41
1
10
189.290570351267
20
9.46212785138684
30
0
41
1
10
189.258316939962
20
9.46101819031838
30
0
41
1
10
189.252683390704
20
9.46082442441426
30
0
0
SPLINE
5
28F
100
AcDbEntity
8
1
62
256
6
ByLayer
370
-1
48
1
60
0
100
AcDbSpline
70
4
71
3
72
23
73
19
40
0
40
0
40
0
40
0
40
0.0074200078966797
40
0.0149215578680922
40
0.0299246578109171
40
0.0599308576965669
40
0.119943257467866
40
0.239968057010466
40
0.480017656095664
40
0.600042455638264
40
0.630048655523913
40
0.660054855409563
40
0.690061055295213
40
0.720067255180863
40
0.840092054723462
40
0.960116854266061
40
0.990123054151711
40
1
40
1
40
1
40
1
41
1
10
188.991091982244
20
20.39624432946
30
0
41
1
10
188.990013120714
20
20.3950806762623
30
0
41
1
10
188.987856077727
20
20.3927313532162
30
0
41
1
10
188.983566596538
20
20.3879846229625
30
0
41
1
10
188.976143132022
20
20.3795622603199
30
0
41
1
10
188.961709416439
20
20.3623555128708
30
0
41
1
10
188.934530563779
20
20.3265597131424
30
0
41
1
10
188.887194275543
20
20.2499250872597
30
0
41
1
10
188.850928919959
20
20.1528081736146
30
0
41
1
10
188.837153769475
20
20.0702002345292
30
0
41
1
10
188.833989898594
20
20.0317474419061
30
0
41
1
10
188.832967635227
20
20.0124836732667
30
0
41
1
10
188.832039371131
20
19.993215853712
30
0
41
1
10
188.830463105709
20
19.954668006857
30
0
41
1
10
188.829249928781
20
19.8968015137724
30
0
41
1
10
188.82980505479
20
19.8389234667609
30
0
41
1
10
188.830785641772
20
19.80466789837
30
0
41
1
10
188.831073468165
20
19.7961255057556
30
0
41
1
10
188.831146392399
20
19.7940100575366
30
0
0
SPLINE
5
290
100
AcDbEntity
8
1
62
256
6
ByLayer
370
-1
48
1
60
0
100
AcDbSpline
70
4
71
3
72
10
73
6
40
0
40
0
40
0
40
0
40
0.5
40
0.5
40
1
40
1
40
1
40
1
41
1
10
189.167083774793
20
20.6422258814633
30
0
41
1
10
189.116873436375
20
20.6267949302046
30
0
41
1
10
189.069733348289
20
20.6052009672311
30
0
41
1
10
188.981411098627
20
20.5500552750213
30
0
41
1
10
188.940427295676
20
20.5164028674161
30
0
41
1
10
188.904475657964
20
20.4779280343238
30
0
0
SPLINE
5
291
100
AcDbEntity
8
1
62
256
6
ByLayer
370
-1
48
1
60
0
100
AcDbSpline
70
4
71
3
72
8
73
4
40
0
40
0
40
0
40
0
40
1
40
1
40
1
40
1
41
1
10
200.600587066781
20
21.0645923638963
30
0
41
1
10
200.584329460383
20
21.0643050274211
30
0
41
1
10
200.568073189016
20
21.0639374101486
30
0
41
1
10
200.55181938366
20
21.0634896287689
30
0
0
SPLINE
5
292
100
AcDbEntity
8
1
62
256
6
ByLayer
370
-1
48
1
60
0
100
AcDbSpline
70
4
71
3
72
8
73
4
40
0
40
0
40
0
40
0
40
1
40
1
40
1
40
1
41
1
10
200.55181938366
20
21.0634896287657
30
0
41
1
10
200.521632494006
20
21.0626580003069
30
0
41
1
10
200.491449415608
20
21.0616876968749
30
0
41
1
10
200.461271587319
20
21.0605796247048
30
0
0
SPLINE
5
293
100
AcDbEntity
8
1
62
256
6
ByLayer
370
-1
48
1
60
0
100
AcDbSpline
70
4
71
3
72
10
73
6
40
0
40
0
40
0
40
0
40
0.5
40
0.5
40
1
40
1
40
1
40
1
41
1
10
188.904475658042
20
20.4779280342494
30
0
41
1
10
188.868636534806
20
20.4393549795485
30
0
41
1
10
188.838533765039
20
20.3969849888626
30
0
41
1
10
188.789490726118
20
20.3048634421718
30
0
41
1
10
188.770780872881
20
20.2551348170034
30
0
41
1
10
188.758885024615
20
20.2037528617307
30
0
0
SPLINE
5
294
100
AcDbEntity
8
1
62
256
6
ByLayer
370
-1
48
1
60
0
100
AcDbSpline
70
4
71
3
72
23
73
19
40
0
40
0
40
0
40
0
40
0.0074200078967323
40
0.0149215578681444
40
0.0299246578109687
40
0.0599308576966173
40
0.119943257467914
40
0.239968057010509
40
0.480017656095697
40
0.600042455638291
40
0.63004865552394
40
0.660054855409589
40
0.690061055295237
40
0.720067255180886
40
0.84009205472348
40
0.960116854266074
40
0.990123054151723
40
1
40
1
40
1
40
1
41
1
10
201.063349959381
20
20.8194271745582
30
0
41
1
10
201.062191506169
20
20.8205109320463
30
0
41
1
10
201.059855118072
20
20.8226802249134
30
0
41
1
10
201.055132669815
20
20.8269923342349
30
0
41
1
10
201.046754037179
20
20.83445588017
30
0
41
1
10
201.029635515376
20
20.8489675658762
30
0
41
1
10
200.99402147153
20
20.8762959533578
30
0
41
1
10
200.91776846337
20
20.9239034021452
30
0
41
1
10
200.821123057952
20
20.9604096239739
30
0
41
1
10
200.738914031805
20
20.9743222811098
30
0
41
1
10
200.700646825521
20
20.9775376492909
30
0
41
1
10
200.681475896491
20
20.9785834273121
30
0
41
1
10
200.662300755629
20
20.9795346699962
30
0
41
1
10
200.623938248232
20
20.9811557574088
30
0
41
1
10
200.566350022316
20
20.9824318579762
30
0
41
1
10
200.50875027422
20
20.9819328887118
30
0
41
1
10
200.474659378115
20
20.9809830066476
30
0
41
1
10
200.466158010323
20
20.9807026317828
30
0
41
1
10
200.464052690069
20
20.9806315149739
30
0
0
SPLINE
5
295
100
AcDbEntity
8
1
62
256
6
ByLayer
370
-1
48
1
60
0
100
AcDbSpline
70
4
71
3
72
12
73
8
40
0
40
0
40
0
40
0
40
0.341077853836652
40
0.341077853836652
40
0.670538966398329
40
0.670538966398329
40
1
40
1
40
1
40
1
41
1
10
201.725802690161
20
9.30608124416074
30
0
41
1
10
201.723404198747
20
9.37330035170766
30
0
41
1
10
201.720981082096
20
9.44051695735237
30
0
41
1
10
201.716346279268
20
9.57267459402408
30
0
41
1
10
201.7141428898
20
9.63761332507005
30
0
41
1
10
201.709715220556
20
9.76748640714263
30
0
41
1
10
201.707492349829
20
9.83242367945775
30
0
41
1
10
201.70523339547
20
9.89735876623845
30
0
0
SPLINE
5
296
100
AcDbEntity
8
1
62
256
6
ByLayer
370
-1
48
1
60
0
100
AcDbSpline
70
4
71
3
72
8
73
4
40
0
40
0
40
0
40
0
40
1
40
1
40
1
40
1
41
1
10
189.135203216448
20
8.77366778837231
30
0
41
1
10
189.135925861276
20
8.7573505956247
30
0
41
1
10
189.136729851334
20
8.74103680505934
30
0
41
1
10
189.137615090557
20
8.72472763087248
30
0
0
SPLINE
5
297
100
AcDbEntity
8
1
62
256
6
ByLayer
370
-1
48
1
60
0
100
AcDbSpline
70
4
71
3
72
12
73
8
40
0
40
0
40
0
40
0
40
0.659147749652768
40
0.823934687065961
40
0.906328155772557
40
0.988721624479153
40
1
40
1
40
1
40
1
41
1
10
190.383522439487
20
9.50124947866502
30
0
41
1
10
190.376841231638
20
9.50101527452509
30
0
41
1
10
190.368642860095
20
9.50072265402028
30
0
41
1
10
190.360725723822
20
9.500432763666
30
0
41
1
10
190.35798696287
20
9.50033159003365
30
0
41
1
10
190.356582337084
20
9.50027933841099
30
0
41
1
10
190.355844974272
20
9.50025184819975
30
0
41
1
10
190.355756317819
20
9.50024854216051
30
0
0
SPLINE
5
298
100
AcDbEntity
8
1
62
256
6
ByLayer
370
-1
48
1
60
0
100
AcDbSpline
70
4
71
3
72
25
73
21
40
0
40
0
40
0
40
0
40
0.0099904601134316
40
0.0399882789191129
40
0.159979554141838
40
0.279970829364564
40
0.309968648170245
40
0.339966466975926
40
0.369964285781608
40
0.399962104587289
40
0.519953379810014
40
0.639944655032739
40
0.759935930255465
40
0.87992720547819
40
0.939922843089553
40
0.969920661895234
40
0.984919571298075
40
0.992419025999495
40
0.999918480700915
40
1
40
1
40
1
40
1
41
1
10
189.57839773098
20
20.5993711089407
30
0
41
1
10
189.576265459453
20
20.5992950471241
30
0
41
1
10
189.567730914823
20
20.5989842293625
30
0
41
1
10
189.53359215044
20
20.5975777267062
30
0
41
1
10
189.476029894572
20
20.5940878607795
30
0
41
1
10
189.418601354787
20
20.5888239807161
30
0
41
1
10
189.380397448974
20
20.5845541857502
30
0
41
1
10
189.36131167276
20
20.5822757149877
30
0
41
1
10
189.342238513554
20
20.5798861941959
30
0
41
1
10
189.304247553436
20
20.5739699433438
30
0
41
1
10
189.248091442664
20
20.5602932320099
30
0
41
1
10
189.176179333121
20
20.5325579646416
30
0
41
1
10
189.108397011106
20
20.4957972429891
30
0
41
1
10
189.056402135291
20
20.4579906039421
30
0
41
1
10
189.022757352706
20
20.4281905931453
30
0
41
1
10
189.006681687487
20
20.412494800858
30
0
41
1
10
188.998837594641
20
20.4044527794726
30
0
41
1
10
188.994412904568
20
20.3998023225163
30
0
41
1
10
188.992206482188
20
20.3974462949694
30
0
41
1
10
188.991103838378
20
20.3962571174108
30
0
41
1
10
188.991091982244
20
20.39624432946
30
0
0
SPLINE
5
299
100
AcDbEntity
8
1
62
256
6
ByLayer
370
-1
48
1
60
0
100
AcDbSpline
70
4
71
3
72
12
73
8
40
0
40
0
40
0
40
0
40
0.341077853836653
40
0.341077853836653
40
0.670538966398331
40
0.670538966398331
40
1
40
1
40
1
40
1
41
1
10
188.75150262191
20
19.7912182184656
30
0
41
1
10
188.753999354289
20
19.7239991109188
30
0
41
1
10
188.756561120111
20
19.656782505274
30
0
41
1
10
188.76125694354
20
19.5246248686023
30
0
41
1
10
188.763369268926
20
19.4596861375564
30
0
41
1
10
188.76764921789
20
19.3298130554838
30
0
41
1
10
188.769812962242
20
19.2648757831687
30
0
41
1
10
188.772071916601
20
19.199940696388
30
0
0
SPLINE
5
29A
100
AcDbEntity
8
1
62
256
6
ByLayer
370
-1
48
1
60
0
100
AcDbSpline
70
4
71
3
72
8
73
4
40
0
40
0
40
0
40
0
40
1
40
1
40
1
40
1
41
1
10
189.60496283918
20
8.04423690652953
30
0
41
1
10
189.641822962028
20
8.03565109420305
30
0
41
1
10
189.679170657993
20
8.0313360448032
30
0
41
1
10
189.717013476356
20
8.03130459709206
30
0
0
SPLINE
5
29B
100
AcDbEntity
8
1
62
256
6
ByLayer
370
-1
48
1
60
0
100
AcDbSpline
70
4
71
3
72
12
73
8
40
0
40
0
40
0
40
0
40
0.0112779549368391
40
0.0936714586921025
40
0.176064962447366
40
0.340851969957893
40
1
40
1
40
1
40
1
41
1
10
190.016780464622
20
19.2443090872904
30
0
41
1
10
190.016869332791
20
19.244312399891
30
0
41
1
10
190.017608514856
20
19.2443399466411
30
0
41
1
10
190.019016546269
20
19.2443923041201
30
0
41
1
10
190.021747790941
20
19.2444932440972
30
0
41
1
10
190.029671173898
20
19.2447833287201
30
0
41
1
10
190.037865969382
20
19.2450758379701
30
0
41
1
10
190.044547177071
20
19.2453100421012
30
0
0
SPLINE
5
29C
100
AcDbEntity
8
1
62
256
6
ByLayer
370
-1
48
1
60
0
100
AcDbSpline
70
4
71
3
72
8
73
4
40
0
40
0
40
0
40
0
40
1
40
1
40
1
40
1
41
1
10
189.147675214971
20
8.56498596040987
30
0
41
1
10
189.150416745622
20
8.52712703971031
30
0
41
1
10
189.157324505909
20
8.49004965882858
30
0
41
1
10
189.168398493564
20
8.45375384037433
30
0
0
SPLINE
5
29D
100
AcDbEntity
8
1
62
256
6
ByLayer
370
-1
48
1
60
0
100
AcDbSpline
70
4
71
3
72
15
73
11
40
0
40
0
40
0
40
0
40
0.0218721291689318
40
0.087080653891003
40
0.217497703335146
40
0.47833180222343
40
0.543540326945502
40
0.608748851667573
40
0.739165901111715
40
1
40
1
40
1
40
1
41
1
10
190.01325239694
20
8.11666794765247
30
0
41
1
10
190.017551517934
20
8.11681288398546
30
0
41
1
10
190.034666478157
20
8.11741775376012
30
0
41
1
10
190.077402299553
20
8.11887590135311
30
0
41
1
10
190.167032101441
20
8.12196850649067
30
0
41
1
10
190.256527329638
20
8.12502681997478
30
0
41
1
10
190.333123228833
20
8.12763954382632
30
0
41
1
10
190.384218763768
20
8.12939416508283
30
0
41
1
10
190.473687421913
20
8.1324906744232
30
0
41
1
10
190.55046391077
20
8.13519464867082
30
0
41
1
10
190.601682815801
20
8.13701473144855
30
0
0
SPLINE
5
29E
100
AcDbEntity
8
1
62
256
6
ByLayer
370
-1
48
1
60
0
100
AcDbSpline
70
4
71
3
72
15
73
11
40
0
40
0
40
0
40
0
40
0.0204519912453937
40
0.0504132324411616
40
0.110335714832697
40
0.230180679615769
40
0.469870609181913
40
0.709560538748056
40
0.9492504683142
40
1
40
1
40
1
40
1
41
1
10
190.184295493126
20
20.2243266587953
30
0
41
1
10
190.184233202852
20
20.2266073673352
30
0
41
1
10
190.184079116583
20
20.2322297081798
30
0
41
1
10
190.18373428064
20
20.2445417056928
30
0
41
1
10
190.183046689471
20
20.2679710291632
30
0
41
1
10
190.181559317586
20
20.3148967360155
30
0
41
1
10
190.179108602182
20
20.3819934610614
30
0
41
1
10
190.175668242763
20
20.4621819037096
30
0
41
1
10
190.172779263515
20
20.5207504182111
30
0
41
1
10
190.171076029839
20
20.5525269536245
30
0
41
1
10
190.170777066932
20
20.5580756831324
30
0
0
SPLINE
5
29F
100
AcDbEntity
8
1
62
256
6
ByLayer
370
-1
48
1
60
0
100
AcDbSpline
70
4
71
3
72
25
73
21
40
0
40
0
40
0
40
0
40
0.0099904601134659
40
0.0399882789191478
40
0.159979554141875
40
0.279970829364603
40
0.309968648170285
40
0.339966466975967
40
0.369964285781649
40
0.39996210458733
40
0.519953379810058
40
0.639944655032786
40
0.759935930255513
40
0.879927205478241
40
0.939922843089604
40
0.969920661895286
40
0.984919571298127
40
0.992419025999548
40
0.999918480700968
40
1
40
1
40
1
40
1
41
1
10
201.265741293087
20
20.229915669513
30
0
41
1
10
201.265665459318
20
20.2320560243454
30
0
41
1
10
201.265355528703
20
20.2406228728121
30
0
41
1
10
201.263952250342
20
20.2748899057292
30
0
41
1
10
201.260472306047
20
20.3326686688733
30
0
41
1
10
201.255225041967
20
20.3903131486374
30
0
41
1
10
201.250969226811
20
20.4286607104515
30
0
41
1
10
201.248698289641
20
20.4478182502116
30
0
41
1
10
201.246316711229
20
20.4669631109237
30
0
41
1
10
201.240420674819
20
20.5050968828783
30
0
41
1
10
201.226792558573
20
20.5614640387695
30
0
41
1
10
201.199158298624
20
20.6336462899228
30
0
41
1
10
201.162532900601
20
20.7016829499556
30
0
41
1
10
201.12486639252
20
20.753872688774
30
0
41
1
10
201.095176900906
20
20.7876430991108
30
0
41
1
10
201.079539750074
20
20.8037790808384
30
0
41
1
10
201.071527323415
20
20.8116521254034
30
0
41
1
10
201.06689464375
20
20.8160937982807
30
0
41
1
10
201.064546567308
20
20.8183076306704
30
0
41
1
10
201.063362690187
20
20.8194152646202
30
0
41
1
10
201.063349959381
20
20.8194271745582
30
0
0
SPLINE
5
2A0
100
AcDbEntity
8
1
62
256
6
ByLayer
370
-1
48
1
60
0
100
AcDbSpline
70
4
71
3
72
8
73
4
40
0
40
0
40
0
40
0
40
1
40
1
40
1
40
1
41
1
10
200.901070261121
20
8.41828566289627
30
0
41
1
10
200.931270094496
20
8.41934040637167
30
0
41
1
10
200.961468172136
20
8.42053950464833
30
0
41
1
10
200.991662317052
20
8.42188282604533
30
0
0
SPLINE
5
2A1
100
AcDbEntity
8
1
62
256
6
ByLayer
370
-1
48
1
60
0
100
AcDbSpline
70
4
71
3
72
12
73
8
40
0
40
0
40
0
40
0
40
0.521734132299739
40
0.782601198449609
40
0.913034731524544
40
0.978251498062011
40
1
40
1
40
1
40
1
41
1
10
201.286306563075
20
19.6386379958889
30
0
41
1
10
201.282729328525
20
19.741467880563
30
0
41
1
10
201.277364704421
20
19.895712747152
30
0
41
1
10
201.271100528445
20
20.0756649035949
30
0
41
1
10
201.267978003995
20
20.1656413358231
30
0
41
1
10
201.266474811781
20
20.2084885227973
30
0
41
1
10
201.265893161308
20
20.225629295675
30
0
41
1
10
201.265741293087
20
20.229915669513
30
0
0
SPLINE
5
2A2
100
AcDbEntity
8
1
62
256
6
ByLayer
370
-1
48
1
60
0
100
AcDbSpline
70
4
71
3
72
8
73
4
40
0
40
0
40
0
40
0
40
1
40
1
40
1
40
1
41
1
10
201.199623530794
20
8.43432870174672
30
0
41
1
10
201.237370690701
20
8.4370482773729
30
0
41
1
10
201.27432615855
20
8.44396317333124
30
0
41
1
10
201.310489718744
20
8.45507358115486
30
0
0
SPLINE
5
2A3
100
AcDbEntity
8
1
62
256
6
ByLayer
370
-1
48
1
60
0
100
AcDbSpline
70
4
71
3
72
14
73
10
40
0
40
0
40
0
40
0
40
0.0138067085560948
40
0.02980306823726
40
0.0617957875995904
40
0.317737542498233
40
0.829621052295519
40
0.957591929744841
40
1
40
1
40
1
40
1
41
1
10
200.079546878788
20
19.5970509204659
30
0
41
1
10
200.080177221943
20
19.59707176649
30
0
41
1
10
200.081529612148
20
19.5971164327893
30
0
41
1
10
200.084333914346
20
19.5972090539081
30
0
41
1
10
200.098113246818
20
19.5976640678848
30
0
41
1
10
200.134437303317
20
19.5988639861047
30
0
41
1
10
200.175085504935
20
19.6002065003312
30
0
41
1
10
200.206052885351
20
19.601229342771
30
0
41
1
10
200.213789237017
20
19.6014848914129
30
0
41
1
10
200.215716454037
20
19.601548563071
30
0
0
SPLINE
5
2A4
100
AcDbEntity
8
1
62
256
6
ByLayer
370
-1
48
1
60
0
100
AcDbSpline
70
4
71
3
72
10
73
6
40
0
40
0
40
0
40
0
40
0.5
40
0.5
40
1
40
1
40
1
40
1
41
1
10
201.024830588728
20
-1.47885658695401
30
0
41
1
10
201.007998841118
20
-1.43451537156494
30
0
41
1
10
200.991416138054
20
-1.38947493711166
30
0
41
1
10
200.959935537709
20
-1.30112563961333
30
0
41
1
10
200.945483116524
20
-1.25909246973461
30
0
41
1
10
200.93229229588
20
-1.21948191627945
30
0
0
SPLINE
5
2A5
100
AcDbEntity
8
1
62
256
6
ByLayer
370
-1
48
1
60
0
100
AcDbSpline
70
4
71
3
72
22
73
18
40
0
40
0
40
0
40
0
40
0.125000000000022
40
0.125000000000022
40
0.250000000000044
40
0.250000000000044
40
0.312500000000016
40
0.312500000000016
40
0.374999999999988
40
0.374999999999988
40
0.49999999999999
40
0.49999999999999
40
0.624999999999993
40
0.624999999999993
40
0.749999999999995
40
0.749999999999995
40
1
40
1
40
1
40
1
41
1
10
201.488304580322
20
-10.6228171828646
30
0
41
1
10
201.506372127211
20
-10.6205831870482
30
0
41
1
10
201.525301018501
20
-10.61690196603
30
0
41
1
10
201.565958052465
20
-10.6040007633403
30
0
41
1
10
201.587635680282
20
-10.5949537846113
30
0
41
1
10
201.622427629852
20
-10.5724412469314
30
0
41
1
10
201.634415960558
20
-10.5632829167495
30
0
41
1
10
201.656951421151
20
-10.5422595065111
30
0
41
1
10
201.667707217791
20
-10.5301269270623
30
0
41
1
10
201.694988481157
20
-10.4931370643698
30
0
41
1
10
201.706856766951
20
-10.4681059917108
30
0
41
1
10
201.723163319623
20
-10.4231394360196
30
0
41
1
10
201.728028373452
20
-10.4022012409494
30
0
41
1
10
201.734481863292
20
-10.362896259674
30
0
41
1
10
201.736018996346
20
-10.3445354888176
30
0
41
1
10
201.73773683209
20
-10.2917113458318
30
0
41
1
10
201.735054647112
20
-10.2594831283
30
0
41
1
10
201.730467494851
20
-10.2288166100972
30
0
0
SPLINE
5
2A6
100
AcDbEntity
8
1
62
256
6
ByLayer
370
-1
48
1
60
0
100
AcDbSpline
70
4
71
3
72
10
73
6
40
0
40
0
40
0
40
0
40
0.5
40
0.5
40
1
40
1
40
1
40
1
41
1
10
201.041061831135
20
-1.56474413507414
30
0
41
1
10
201.041059087841
20
-1.55215236763203
30
0
41
1
10
201.03997891765
20
-1.53824761611605
30
0
41
1
10
201.034674494499
20
-1.50890323768152
30
0
41
1
10
201.030368410577
20
-1.49344531280212
30
0
41
1
10
201.024830588728
20
-1.47885658695401
30
0
0
SPLINE
5
2A7
100
AcDbEntity
8
1
62
256
6
ByLayer
370
-1
48
1
60
0
100
AcDbSpline
70
4
71
3
72
10
73
6
40
0
40
0
40
0
40
0
40
0.5
40
0.5
40
1
40
1
40
1
40
1
41
1
10
200.594521475858
20
-7.03286267788658
30
0
41
1
10
200.619288720445
20
-7.0824106516032
30
0
41
1
10
200.63737257308
20
-7.13390970880019
30
0
41
1
10
200.660702326767
20
-7.24065557466972
30
0
41
1
10
200.665811008596
20
-7.296245377167
30
0
41
1
10
200.663861822064
20
-7.35157926278723
30
0
0
SPLINE
5
2A8
100
AcDbEntity
8
1
62
256
6
ByLayer
370
-1
48
1
60
0
100
AcDbSpline
70
4
71
3
72
18
73
14
40
0
40
0
40
0
40
0
40
0.25
40
0.25
40
0.499999999999999
40
0.499999999999999
40
0.624999999999999
40
0.624999999999999
40
0.75
40
0.75
40
0.875
40
0.875
40
1
40
1
40
1
40
1
41
1
10
201.730467494851
20
-10.2288166100972
30
0
41
1
10
201.720418519043
20
-10.1616361281712
30
0
41
1
10
201.710800177646
20
-10.0922612110955
30
0
41
1
10
201.692795829087
20
-9.94587810198121
30
0
41
1
10
201.684402349697
20
-9.86907616793724
30
0
41
1
10
201.67334846332
20
-9.74317646083267
30
0
41
1
10
201.669918908668
20
-9.69930502447093
30
0
41
1
10
201.663844707381
20
-9.60670711853376
30
0
41
1
10
201.661184209129
20
-9.55797050073795
30
0
41
1
10
201.657033466408
20
-9.4517360026841
30
0
41
1
10
201.655538984171
20
-9.39396777637131
30
0
41
1
10
201.654777910801
20
-9.26813230838059
30
0
41
1
10
201.655580958407
20
-9.19960291854071
30
0
41
1
10
201.657996534899
20
-9.13059836041282
30
0
0
SPLINE
5
2A9
100
AcDbEntity
8
1
62
256
6
ByLayer
370
-1
48
1
60
0
100
AcDbSpline
70
4
71
3
72
10
73
6
40
0
40
0
40
0
40
0
40
0.5
40
0.5
40
1
40
1
40
1
40
1
41
1
10
200.955565624421
20
-1.24674681301528
30
0
41
1
10
200.965278565448
20
-1.27920449480666
30
0
41
1
10
200.976541787672
20
-1.3144573178279
30
0
41
1
10
201.002295896587
20
-1.38882327031794
30
0
41
1
10
201.016595346456
20
-1.4272856037187
30
0
41
1
10
201.031309810538
20
-1.46443918182436
30
0
0
SPLINE
5
2AA
100
AcDbEntity
8
1
62
256
6
ByLayer
370
-1
48
1
60
0
100
AcDbSpline
70
4
71
3
72
22
73
18
40
0
40
0
40
0
40
0
40
0.125000000000053
40
0.125000000000053
40
0.250000000000106
40
0.250000000000106
40
0.312500000000133
40
0.312500000000133
40
0.375000000000159
40
0.375000000000159
40
0.500000000000127
40
0.500000000000127
40
0.625000000000095
40
0.625000000000095
40
0.750000000000064
40
0.750000000000064
40
1
40
1
40
1
40
1
41
1
10
200.404749489933
20
0.559012882276789
30
0
41
1
10
200.40073251659
20
0.575263225147978
30
0
41
1
10
200.395324700562
20
0.592432584768034
30
0
41
1
10
200.379237900681
20
0.629844169684617
30
0
41
1
10
200.368719305245
20
0.650022997952505
30
0
41
1
10
200.344680545132
20
0.683262530860617
30
0
41
1
10
200.335142843044
20
0.694865520052986
30
0
41
1
10
200.313805643195
20
0.717084272131643
30
0
41
1
10
200.301743443094
20
0.727913630452804
30
0
41
1
10
200.265587282802
20
0.756050215022412
30
0
41
1
10
200.241862134019
20
0.769253307415966
30
0
41
1
10
200.199816476142
20
0.788543457067419
30
0
41
1
10
200.180550540037
20
0.79511584968796
30
0
41
1
10
200.144698126757
20
0.805093521823125
30
0
41
1
10
200.128122617655
20
0.808452549360197
30
0
41
1
10
200.080757322084
20
0.815740427436424
30
0
41
1
10
200.052304701136
20
0.816909681864445
30
0
41
1
10
200.025484987761
20
0.816245839977626
30
0
0
SPLINE
5
2AB
100
AcDbEntity
8
1
62
256
6
ByLayer
370
-1
48
1
60
0
100
AcDbSpline
70
4
71
3
72
22
73
18
40
0
40
0
40
0
40
0
40
0.0624999999999989
40
0.0624999999999989
40
0.124999999999998
40
0.124999999999998
40
0.187499999999997
40
0.187499999999997
40
0.249999999999996
40
0.249999999999996
40
0.374999999999996
40
0.374999999999996
40
0.499999999999997
40
0.499999999999997
40
0.749999999999998
40
0.749999999999998
40
1
40
1
40
1
40
1
41
1
10
201.669782643247
20
-9.13456863401964
30
0
41
1
10
201.668630016446
20
-9.16749514385214
30
0
41
1
10
201.668280292339
20
-9.19975140217935
30
0
41
1
10
201.66887499206
20
-9.26312235462518
30
0
41
1
10
201.669789972541
20
-9.29263440761673
30
0
41
1
10
201.672383479222
20
-9.34897161960998
30
0
41
1
10
201.674072092976
20
-9.37572813099996
30
0
41
1
10
201.677840172458
20
-9.42593127974519
30
0
41
1
10
201.679935739713
20
-9.4496510011721
30
0
41
1
10
201.686641734051
20
-9.51807103868785
30
0
41
1
10
201.691674878619
20
-9.56018725809176
30
0
41
1
10
201.702266578163
20
-9.64018953548529
30
0
41
1
10
201.707804939074
20
-9.67781714110245
30
0
41
1
10
201.724851350206
20
-9.78647841073348
30
0
41
1
10
201.73678114561
20
-9.8533843214872
30
0
41
1
10
201.761163404173
20
-9.98208062865956
30
0
41
1
10
201.773631437383
20
-10.0437186360701
30
0
41
1
10
201.786258268824
20
-10.1038024350672
30
0
0
SPLINE
5
2AC
100
AcDbEntity
8
1
62
256
6
ByLayer
370
-1
48
1
60
0
100
AcDbSpline
70
4
71
3
72
12
73
8
40
0
40
0
40
0
40
0
40
0.07541455802555
40
0.07541455802555
40
0.537707279012775
40
0.537707279012775
40
1
40
1
40
1
40
1
41
1
10
200.501336640215
20
-9.14187034357363
30
0
41
1
10
200.503947058812
20
-9.13812716036668
30
0
41
1
10
200.506472694288
20
-9.13433269093821
30
0
41
1
10
200.523847488143
20
-9.10694869676428
30
0
41
1
10
200.535828198725
20
-9.08101233141548
30
0
41
1
10
200.552302180931
20
-9.02771223219204
30
0
41
1
10
200.557025806875
20
-8.99996969131001
30
0
41
1
10
200.557987381143
20
-8.97172972547807
30
0
0
SPLINE
5
2AD
100
AcDbEntity
8
1
62
256
6
ByLayer
370
-1
48
1
60
0
100
AcDbSpline
70
4
71
3
72
10
73
6
40
0
40
0
40
0
40
0
40
0.5
40
0.5
40
1
40
1
40
1
40
1
41
1
10
201.047641248584
20
-1.80780319224209
30
0
41
1
10
201.04529889102
20
-1.76321722179102
30
0
41
1
10
201.043640985644
20
-1.72031743951595
30
0
41
1
10
201.041513220955
20
-1.63818705003942
30
0
41
1
10
201.041069594684
20
-1.60037897066724
30
0
41
1
10
201.041061831135
20
-1.56474413507411
30
0
0
SPLINE
5
2AE
100
AcDbEntity
8
1
62
256
6
ByLayer
370
-1
48
1
60
0
100
AcDbSpline
70
4
71
3
72
10
73
6
40
0
40
0
40
0
40
0
40
0.5
40
0.5
40
1
40
1
40
1
40
1
41
1
10
201.058503442254
20
-1.60808577269012
30
0
41
1
10
201.057230173274
20
-1.63676297971094
30
0
41
1
10
201.05643706638
20
-1.66750076404847
30
0
41
1
10
201.056510108348
20
-1.73609689653117
30
0
41
1
10
201.057400072524
20
-1.77232941324468
30
0
41
1
10
201.05941837879
20
-1.81074717872417
30
0
0
SPLINE
5
2AF
100
AcDbEntity
8
1
62
256
6
ByLayer
370
-1
48
1
60
0
100
AcDbSpline
70
4
71
3
72
10
73
6
40
0
40
0
40
0
40
0
40
0.5
40
0.5
40
1
40
1
40
1
40
1
41
1
10
200.613658255308
20
-7.34455953050298
30
0
41
1
10
200.615417094601
20
-7.2934449126559
30
0
41
1
10
200.610805699768
20
-7.24318936675763
30
0
41
1
10
200.589259850189
20
-7.14434012833806
30
0
41
1
10
200.572131357664
20
-7.0957013976174
30
0
41
1
10
200.54917285978
20
-7.04997112980908
30
0
0
SPLINE
5
2B0
100
AcDbEntity
8
1
62
256
6
ByLayer
370
-1
48
1
60
0
100
AcDbSpline
70
4
71
3
72
12
73
8
40
0
40
0
40
0
40
0
40
0.25
40
0.25
40
0.5
40
0.5
40
1
40
1
40
1
40
1
41
1
10
201.049238129828
20
-10.7095314473003
30
0
41
1
10
201.094817670046
20
-10.696889752304
30
0
41
1
10
201.136959997516
20
-10.6863809096807
30
0
41
1
10
201.216980162452
20
-10.668053227388
30
0
41
1
10
201.254968226526
20
-10.6602322536094
30
0
41
1
10
201.362860704711
20
-10.6399222598213
30
0
41
1
10
201.427401179212
20
-10.6303476984418
30
0
41
1
10
201.488304580322
20
-10.6228171828646
30
0
0
SPLINE
5
2B1
100
AcDbEntity
8
1
62
256
6
ByLayer
370
-1
48
1
60
0
100
AcDbSpline
70
4
71
3
72
10
73
6
40
0
40
0
40
0
40
0
40
0.857750003386306
40
0.857750003386306
40
1
40
1
40
1
40
1
41
1
10
200.663861822064
20
-7.3515792627872
30
0
41
1
10
200.647403897942
20
-7.81679404523155
30
0
41
1
10
200.630887592837
20
-8.28199814194275
30
0
41
1
10
200.611584773144
20
-8.8243430405447
30
0
41
1
10
200.608837827332
20
-8.90149138938961
30
0
41
1
10
200.606089838717
20
-8.97863953816744
30
0
0
SPLINE
5
2B2
100
AcDbEntity
8
1
62
256
6
ByLayer
370
-1
48
1
60
0
100
AcDbSpline
70
4
71
3
72
18
73
14
40
0
40
0
40
0
40
0
40
0.0244808134694805
40
0.0244808134694805
40
0.219584650775584
40
0.219584650775584
40
0.414688488081688
40
0.414688488081688
40
0.609792325387792
40
0.609792325387792
40
0.804896162693896
40
0.804896162693896
40
1
40
1
40
1
40
1
41
1
10
200.111133811129
20
0.841991239116538
30
0
41
1
10
200.114658604043
20
0.840916534638467
30
0
41
1
10
200.118198664819
20
0.839800722049006
30
0
41
1
10
200.150077790397
20
0.829410034802464
30
0
41
1
10
200.179330573402
20
0.817584347437787
30
0
41
1
10
200.241029278521
20
0.784753702378907
30
0
41
1
10
200.273125944575
20
0.763546394210664
30
0
41
1
10
200.33207816946
20
0.713082360915678
30
0
41
1
10
200.358693640059
20
0.683913810069527
30
0
41
1
10
200.401428154224
20
0.625119221495424
30
0
41
1
10
200.417788326864
20
0.595709674990587
30
0
41
1
10
200.443121794573
20
0.539396978815233
30
0
41
1
10
200.452275682107
20
0.512143736649818
30
0
41
1
10
200.459016142433
20
0.486052724406022
30
0
0
SPLINE
5
2B3
100
AcDbEntity
8
1
62
256
6
ByLayer
370
-1
48
1
60
0
100
AcDbSpline
70
4
71
3
72
8
73
4
40
0
40
0
40
0
40
0
40
1
40
1
40
1
40
1
41
1
10
201.031309810538
20
-1.46443918182436
30
0
41
1
10
201.049334543321
20
-1.51191344129748
30
0
41
1
10
201.058240182972
20
-1.56195832517034
30
0
41
1
10
201.058503442254
20
-1.60808577269015
30
0
0
SPLINE
5
2B4
100
AcDbEntity
8
1
62
256
6
ByLayer
370
-1
48
1
60
0
100
AcDbSpline
70
4
71
3
72
12
73
8
40
0
40
0
40
0
40
0
40
0.499999999999955
40
0.499999999999955
40
0.749999999999977
40
0.749999999999977
40
1
40
1
40
1
40
1
41
1
10
201.41873464982
20
-10.6805113407485
30
0
41
1
10
201.364565440702
20
-10.6835211167237
30
0
41
1
10
201.307359382847
20
-10.6881583200069
30
0
41
1
10
201.211721106627
20
-10.7003815230456
30
0
41
1
10
201.178016814983
20
-10.7053770244519
30
0
41
1
10
201.105659495811
20
-10.7182783300085
30
0
41
1
10
201.067413647596
20
-10.7260833536166
30
0
41
1
10
201.02547504363
20
-10.7363077794048
30
0
0
SPLINE
5
2B5
100
AcDbEntity
8
1
62
256
6
ByLayer
370
-1
48
1
60
0
100
AcDbSpline
70
4
71
3
72
20
73
16
40
0
40
0
40
0
40
0
40
0.249999999999998
40
0.249999999999998
40
0.374999999999998
40
0.374999999999998
40
0.499999999999999
40
0.499999999999999
40
0.624999999999999
40
0.624999999999999
40
0.749999999999999
40
0.749999999999999
40
0.875
40
0.875
40
1
40
1
40
1
40
1
41
1
10
201.786258268824
20
-10.1038024350639
30
0
41
1
10
201.792422344605
20
-10.15260334944
30
0
41
1
10
201.794692036495
20
-10.2038234674848
30
0
41
1
10
201.786849200546
20
-10.28731767362
30
0
41
1
10
201.782230679919
20
-10.3166022410129
30
0
41
1
10
201.767198203817
20
-10.3765829509089
30
0
41
1
10
201.756911948573
20
-10.4073289645253
30
0
41
1
10
201.726543574424
20
-10.4714136214423
30
0
41
1
10
201.706206780556
20
-10.5043521553385
30
0
41
1
10
201.656216002739
20
-10.5637558060677
30
0
41
1
10
201.626637756076
20
-10.5899687980223
30
0
41
1
10
201.566028174045
20
-10.6309318614988
30
0
41
1
10
201.535256191824
20
-10.645964704866
30
0
41
1
10
201.475794207277
20
-10.6682320195559
30
0
41
1
10
201.446736404475
20
-10.6756298313902
30
0
41
1
10
201.41873464982
20
-10.6805113407485
30
0
0
SPLINE
5
2B6
100
AcDbEntity
8
1
62
256
6
ByLayer
370
-1
48
1
60
0
100
AcDbSpline
70
4
71
3
72
12
73
8
40
0
40
0
40
0
40
0
40
0.499999999999999
40
0.499999999999999
40
0.75
40
0.75
40
1
40
1
40
1
40
1
41
1
10
200.459016142433
20
0.486052724405994
30
0
41
1
10
200.467854542287
20
0.437822562739967
30
0
41
1
10
200.478140950707
20
0.386380003930299
30
0
41
1
10
200.498257247377
20
0.298818789088017
30
0
41
1
10
200.505795687785
20
0.26772117514389
30
0
41
1
10
200.523400861221
20
0.200201097325873
30
0
41
1
10
200.533350122425
20
0.164168415771456
30
0
41
1
10
200.545347764094
20
0.124075962365964
30
0
0
SPLINE
5
2B7
100
AcDbEntity
8
1
62
256
6
ByLayer
370
-1
48
1
60
0
100
AcDbSpline
70
4
71
3
72
12
73
8
40
0
40
0
40
0
40
0
40
0.360402975382796
40
0.360402975382796
40
0.720805950765593
40
0.720805950765593
40
1
40
1
40
1
40
1
41
1
10
200.606089838717
20
-8.97863953816744
30
0
41
1
10
200.60494630564
20
-9.01115807919334
30
0
41
1
10
200.599549543495
20
-9.0427563196846
30
0
41
1
10
200.580559398277
20
-9.10417923919289
30
0
41
1
10
200.566780554279
20
-9.13400026560296
30
0
41
1
10
200.536269619172
20
-9.18210438656371
30
0
41
1
10
200.520587192109
20
-9.20196331708541
30
0
41
1
10
200.503161142724
20
-9.21993235921408
30
0
0
SPLINE
5
2B8
100
AcDbEntity
8
1
62
256
6
ByLayer
370
-1
48
1
60
0
100
AcDbSpline
70
4
71
3
72
10
73
6
40
0
40
0
40
0
40
0
40
0.367626034333035
40
0.367626034333035
40
1
40
1
40
1
40
1
41
1
10
200.557987381143
20
-8.97172972547807
30
0
41
1
10
200.564776900937
20
-8.77233191151495
30
0
41
1
10
200.571575975201
20
-8.57293442093589
30
0
41
1
10
200.590103591664
20
-8.0305433558211
30
0
41
1
10
200.60185603164
20
-7.68755058991002
30
0
41
1
10
200.613658255308
20
-7.34455953050292
30
0
0
SPLINE
5
2B9
100
AcDbEntity
8
1
62
256
6
ByLayer
370
-1
48
1
60
0
100
AcDbSpline
70
4
71
3
72
10
73
6
40
0
40
0
40
0
40
0
40
0.439971762230479
40
0.439971762230479
40
1
40
1
40
1
40
1
41
1
10
200.339536846793
20
-6.3777720043631
30
0
41
1
10
200.367753940002
20
-6.4762110122951
30
0
41
1
10
200.399989928176
20
-6.57374749414936
30
0
41
1
10
200.482587335422
20
-6.79334075393308
30
0
41
1
10
200.535523041195
20
-6.91472819866749
30
0
41
1
10
200.594521475858
20
-7.03286267788658
30
0
0
SPLINE
5
2BA
100
AcDbEntity
8
1
62
256
6
ByLayer
370
-1
48
1
60
0
100
AcDbSpline
70
4
71
3
72
10
73
6
40
0
40
0
40
0
40
0
40
0.811452480134469
40
0.811452480134469
40
1
40
1
40
1
40
1
41
1
10
200.54917285978
20
-7.04997112980908
30
0
41
1
10
200.48935516513
20
-6.93082225474558
30
0
41
1
10
200.435928680204
20
-6.80907753400041
30
0
41
1
10
200.377904667355
20
-6.65586968821475
30
0
41
1
10
200.367303630782
20
-6.6268240781493
30
0
41
1
10
200.357049361189
20
-6.5976452838708
30
0
0
SPLINE
5
2BB
100
AcDbEntity
8
1
62
256
6
ByLayer
370
-1
48
1
60
0
100
AcDbSpline
70
4
71
3
72
12
73
8
40
0
40
0
40
0
40
0
40
0.25
40
0.25
40
0.5
40
0.5
40
1
40
1
40
1
40
1
41
1
10
200.522074435553
20
0.151340859101794
30
0
41
1
10
200.507735856566
20
0.19514741391805
30
0
41
1
10
200.495164234754
20
0.2351549294454
30
0
41
1
10
200.472255967167
20
0.310455387376379
30
0
41
1
10
200.461901255355
20
0.345842399959508
30
0
41
1
10
200.433640169437
20
0.445589807944572
30
0
41
1
10
200.418290195833
20
0.504235044634186
30
0
41
1
10
200.404749489933
20
0.559012882276789
30
0
0
SPLINE
5
2BC
100
AcDbEntity
8
SK1
62
256
6
ByLayer
370
-1
48
1
60
0
100
AcDbSpline
70
4
71
3
72
8
73
4
40
0
40
0
40
0
40
0
40
1
40
1
40
1
40
1
41
1
10
-76.6000000000001
20
-10.670482650752
30
0
41
1
10
-76.9485917454248
20
-10.3890222754873
30
0
41
1
10
-77.293445384311
20
-10.1015142440092
30
0
41
1
10
-77.6338144512152
20
-9.80675089507793
30
0
0
SPLINE
5
2BD
100
AcDbEntity
8
SK1
62
256
6
ByLayer
370
-1
48
1
60
0
100
AcDbSpline
70
4
71
3
72
8
73
4
40
0
40
0
40
0
40
0
40
1
40
1
40
1
40
1
41
1
10
-79
20
-10.6704826507519
30
0
41
1
10
-79.3659007463117
20
-9.81334662849696
30
0
41
1
10
-79.7018274913942
20
-8.94238761528712
30
0
41
1
10
-80
20
-8.05401763097143
30
0
0
SPLINE
5
2BE
100
AcDbEntity
8
SK1
62
256
6
ByLayer
370
-1
48
1
60
0
100
AcDbSpline
70
4
71
3
72
8
73
4
40
0
40
0
40
0
40
0
40
1
40
1
40
1
40
1
41
1
10
-78.6
20
10.6704826507521
30
0
41
1
10
-78.5718462461953
20
10.5890396904417
30
0
41
1
10
-78.5439189315755
20
10.5074892906996
30
0
41
1
10
-78.516222729729
20
10.4258292340311
30
0
0
SPLINE
5
2BF
100
AcDbEntity
8
SK1
62
256
6
ByLayer
370
-1
48
1
60
0
100
AcDbSpline
70
4
71
3
72
8
73
4
40
0
40
0
40
0
40
0
40
1
40
1
40
1
40
1
41
1
10
-80
20
8.0540176309716
30
0
41
1
10
-79.7018274913942
20
8.94238761528729
30
0
41
1
10
-79.3659007463117
20
9.81334662849713
30
0
41
1
10
-79
20
10.6704826507521
30
0
0
SPLINE
5
2C0
100
AcDbEntity
8
SK1
62
256
6
ByLayer
370
-1
48
1
60
0
100
AcDbSpline
70
4
71
3
72
8
73
4
40
0
40
0
40
0
40
0
40
1
40
1
40
1
40
1
41
1
10
-77.6338144512152
20
9.8067508950781
30
0
41
1
10
-77.293445384311
20
10.1015142440094
30
0
41
1
10
-76.9485917454248
20
10.3890222754875
30
0
41
1
10
-76.6
20
10.6704826507522
30
0
0
SPLINE
5
2C1
100
AcDbEntity
8
SK1
62
256
6
ByLayer
370
-1
48
1
60
0
100
AcDbSpline
70
4
71
3
72
20
73
16
40
0
40
0
40
0
40
0
40
0.25
40
0.25
40
0.375
40
0.375
40
0.5
40
0.5
40
0.625
40
0.625
40
0.75
40
0.75
40
0.875
40
0.875
40
1
40
1
40
1
40
1
41
1
10
-78.516222729729
20
10.4258292340311
30
0
41
1
10
-78.481648532285
20
10.3238899523136
30
0
41
1
10
-78.4407178893849
20
10.222863184314
30
0
41
1
10
-78.366182383801
20
10.0785569359928
30
0
41
1
10
-78.3389517594226
20
10.0313738170425
30
0
41
1
10
-78.2789242561791
20
9.9414114685452
30
0
41
1
10
-78.2462023973559
20
9.89858010737444
30
0
41
1
10
-78.1723924001263
20
9.81955890101548
30
0
41
1
10
-78.1310509912521
20
9.78321524627549
30
0
41
1
10
-78.0387498131119
20
9.72613440999527
30
0
41
1
10
-77.987439503438
20
9.70551112784312
30
0
41
1
10
-77.8785037156704
20
9.69221220969743
30
0
41
1
10
-77.8229596875428
20
9.70044596670573
30
0
41
1
10
-77.7211757832574
20
9.74034844732952
30
0
41
1
10
-77.6748225543307
20
9.77123742754159
30
0
41
1
10
-77.6338144512148
20
9.80675089507758
30
0
0
SPLINE
5
2C2
100
AcDbEntity
8
SK1
62
256
6
ByLayer
370
-1
48
1
60
0
100
AcDbSpline
70
4
71
3
72
8
73
4
40
0
40
0
40
0
40
0
40
1
40
1
40
1
40
1
41
1
10
-78.5162227297291
20
-10.4258292340309
30
0
41
1
10
-78.5439189315756
20
-10.5074892906994
30
0
41
1
10
-78.5718462461953
20
-10.5890396904415
30
0
41
1
10
-78.6
20
-10.6704826507519
30
0
0
SPLINE
5
2C3
100
AcDbEntity
8
SK1
62
256
6
ByLayer
370
-1
48
1
60
0
100
AcDbSpline
70
4
71
3
72
28
73
24
40
0
40
0
40
0
40
0
40
0.0625
40
0.0625
40
0.125
40
0.125
40
0.1875
40
0.1875
40
0.25
40
0.25
40
0.3125
40
0.3125
40
0.375
40
0.375
40
0.4375
40
0.4375
40
0.5
40
0.5
40
0.625
40
0.625
40
0.75
40
0.75
40
1
40
1
40
1
40
1
41
1
10
-77.6338144512151
20
-9.8067508950777
30
0
41
1
10
-77.6543579611202
20
-9.78895998994784
30
0
41
1
10
-77.6759742207358
20
-9.77252139976983
30
0
41
1
10
-77.722047757932
20
-9.74322562431684
30
0
41
1
10
-77.7466515021883
20
-9.73034655008655
30
0
41
1
10
-77.7978350200696
20
-9.71031034137371
30
0
41
1
10
-77.8240756138441
20
-9.70323109189889
30
0
41
1
10
-77.8780393772639
20
-9.6957878232482
30
0
41
1
10
-77.9058291361522
20
-9.69556645816948
30
0
41
1
10
-77.9596871329427
20
-9.70210490207472
30
0
41
1
10
-77.9864847496244
20
-9.70890522195111
30
0
41
1
10
-78.037569321387
20
-9.72811272586878
30
0
41
1
10
-78.0617557835843
20
-9.74036263557792
30
0
41
1
10
-78.1080225163778
20
-9.76897310396529
30
0
41
1
10
-78.1301520272264
20
-9.78542501141285
30
0
41
1
10
-78.1715088706165
20
-9.8205825368494
30
0
41
1
10
-78.1909321556219
20
-9.83940079115041
30
0
41
1
10
-78.2463112147692
20
-9.89871031654829
30
0
41
1
10
-78.2795961287113
20
-9.942324486171
30
0
41
1
10
-78.3396100313876
20
-10.0324563718159
30
0
41
1
10
-78.366506987321
20
-10.0791581867371
30
0
41
1
10
-78.4406180649772
20
-10.2227246318282
30
0
41
1
10
-78.4815513469768
20
-10.3236034091323
30
0
41
1
10
-78.516222729729
20
-10.4258292340309
30
0
0
SPLINE
5
2C4
100
AcDbEntity
8
SK1
62
256
6
ByLayer
370
-1
48
1
60
0
100
AcDbSpline
70
4
71
3
72
74
73
70
40
0
40
0
40
0
40
0
40
0.0078125
40
0.0078125
40
0.015625
40
0.015625
40
0.0234375000000001
40
0.0234375000000001
40
0.0312500000000001
40
0.0312500000000001
40
0.0468750000000002
40
0.0468750000000002
40
0.0625000000000004
40
0.0625000000000004
40
0.0781250000000005
40
0.0781250000000005
40
0.0937500000000007
40
0.0937500000000007
40
0.125000000000001
40
0.125000000000001
40
0.156250000000001
40
0.156250000000001
40
0.187500000000001
40
0.187500000000001
40
0.250000000000001
40
0.250000000000001
40
0.3125
40
0.3125
40
0.375
40
0.375
40
0.4375
40
0.4375
40
0.5
40
0.5
40
0.5625
40
0.5625
40
0.625
40
0.625
40
0.6875
40
0.6875
40
0.71875
40
0.71875
40
0.75
40
0.75
40
0.8125
40
0.8125
40
0.84375
40
0.84375
40
0.875
40
0.875
40
0.90625
40
0.90625
40
0.921874999999999
40
0.921874999999999
40
0.937499999999999
40
0.937499999999999
40
0.953124999999999
40
0.953124999999999
40
0.960937499999999
40
0.960937499999999
40
0.96875
40
0.96875
40
0.9765625
40
0.9765625
40
0.984375
40
0.984375
40
0.9921875
40
0.9921875
40
1
40
1
40
1
40
1
41
1
10
-6.5
20
-10.670482650752
30
0
41
1
10
-6.43582469560522
20
-10.670482650752
30
0
41
1
10
-6.37081264331925
20
-10.6660189653216
30
0
41
1
10
-6.24392038992224
20
-10.6486969876232
30
0
41
1
10
-6.18157921432717
20
-10.6358875710276
30
0
41
1
10
-6.05894945950163
20
-10.6025434279042
30
0
41
1
10
-5.99828531584174
20
-10.5818434566541
30
0
41
1
10
-5.88083692317713
20
-10.5339153969847
30
0
41
1
10
-5.82427185750652
20
-10.5068475724891
30
0
41
1
10
-5.66013950429971
20
-10.4175987193405
30
0
41
1
10
-5.55767796670693
20
-10.3470965653228
30
0
41
1
10
-5.36621601012163
20
-10.1903902962456
30
0
41
1
10
-5.27880357186177
20
-10.1056422220725
30
0
41
1
10
-5.11622750836628
20
-9.92648705790921
30
0
41
1
10
-5.04111152798336
20
-9.8320448969433
30
0
41
1
10
-4.90065886276918
20
-9.63522912882672
30
0
41
1
10
-4.83542500373019
20
-9.53286259528852
30
0
41
1
10
-4.65471203118301
20
-9.22109644529974
30
0
41
1
10
-4.55256385540466
20
-9.0051958714954
30
0
41
1
10
-4.37262453777106
20
-8.56162021481845
30
0
41
1
10
-4.29501129112501
20
-8.33388009499919
30
0
41
1
10
-4.15784189524743
20
-7.86879502034912
30
0
41
1
10
-4.09907903740438
20
-7.63402615605699
30
0
41
1
10
-3.94435252661108
20
-6.92518666874861
30
0
41
1
10
-3.86941590197452
20
-6.4460789539506
30
0
41
1
10
-3.75181901250798
20
-5.47739344626228
30
0
41
1
10
-3.70948261237385
20
-4.98778106711202
30
0
41
1
10
-3.64452511166275
20
-3.99941572019102
30
0
41
1
10
-3.62198013028762
20
-3.50007827001653
30
0
41
1
10
-3.58892377607327
20
-2.4954364308274
30
0
41
1
10
-3.57852544151933
20
-1.9938019826163
30
0
41
1
10
-3.56516453260045
20
-0.991813220234803
30
0
41
1
10
-3.56222270481226
20
-0.49145923809175
30
0
41
1
10
-3.56229115849558
20
0.508003221132356
30
0
41
1
10
-3.56530396713819
20
1.0071116342211
30
0
41
1
10
-3.57872854634991
20
2.00406630022576
30
0
41
1
10
-3.58912588826433
20
2.50191273366485
30
0
41
1
10
-3.62186596237336
20
3.49627385340571
30
0
41
1
10
-3.64416085648716
20
3.99278917523472
30
0
41
1
10
-3.69293036786834
20
4.73646313788097
30
0
41
1
10
-3.71182176597955
20
4.98464599195373
30
0
41
1
10
-3.75616257191399
20
5.47799266038496
30
0
41
1
10
-3.78158287580703
20
5.72301013604627
30
0
41
1
10
-3.8703237062345
20
6.45266121988658
30
0
41
1
10
-3.94563979261514
20
6.93197513305708
30
0
41
1
10
-4.09993208028902
20
7.63748203830272
30
0
41
1
10
-4.15833437396446
20
7.87039260799332
30
0
41
1
10
-4.29410155537133
20
8.33086753859507
30
0
41
1
10
-4.37155898125485
20
8.5589040944626
30
0
41
1
10
-4.55298151088468
20
9.00631450635206
30
0
41
1
10
-4.65571371792436
20
9.22299836195256
30
0
41
1
10
-4.83609280283841
20
9.53392693237404
30
0
41
1
10
-4.90064241103281
20
9.63520102478984
30
0
41
1
10
-5.04103051650716
20
9.83193642265832
30
0
41
1
10
-5.11703382242627
20
9.92748901775266
30
0
41
1
10
-5.2803556517932
20
10.1072375093538
30
0
41
1
10
-5.36794028451175
20
10.1919346295056
30
0
41
1
10
-5.51111419186552
20
10.3089173634913
30
0
41
1
10
-5.56098716244992
20
10.346308238641
30
0
41
1
10
-5.66357783518524
20
10.4159186649603
30
0
41
1
10
-5.71645596113865
20
10.4482905987006
30
0
41
1
10
-5.82577658750921
20
10.5075946315751
30
0
41
1
10
-5.88221687926884
20
10.5345300782901
30
0
41
1
10
-5.99920669180636
20
10.5821668732083
30
0
41
1
10
-6.05997126142915
20
10.6028655288242
30
0
41
1
10
-6.18253580232604
20
10.6361026919536
30
0
41
1
10
-6.24472496658316
20
10.6488298146219
30
0
41
1
10
-6.37103256116305
20
10.6660258041167
30
0
41
1
10
-6.43568437547606
20
10.6704826507524
30
0
41
1
10
-6.50000000000006
20
10.6704826507524
30
0
0
LINE
5
45
100
AcDbEntity
8
80
62
256
6
ByLayer
370
-1
48
1
60
0
100
AcDbLine
10
0
20
0
30
0
11
-7
21
0
31
0
39
0
210
0
220
0
230
1
0
LINE
5
46
100
AcDbEntity
8
81
62
256
6
ByLayer
370
-1
48
1
60
0
100
AcDbLine
10
202
20
0
30
0
11
209
21
0
31
0
39
0
210
0
220
0
230
1
0
LINE
5
47
100
AcDbEntity
8
1
62
256
6
ByLayer
370
-1
48
1
60
0
100
AcDbLine
10
5
20
31.25
30
0
11
0.2
21
31.25
31
0
39
0
210
0
220
0
230
1
0
LINE
5
49
100
AcDbEntity
8
1
62
256
6
ByLayer
370
-1
48
1
60
0
100
AcDbLine
10
0.2
20
-31.25
30
0
11
5
21
-31.25
31
0
39
0
210
0
220
0
230
1
0
LINE
5
4A
100
AcDbEntity
8
1
62
256
6
ByLayer
370
-1
48
1
60
0
100
AcDbLine
10
0.2
20
31.25
30
0
11
0
21
31.05
31
0
39
0
210
0
220
0
230
1
0
LINE
5
4B
100
AcDbEntity
8
1
62
256
6
ByLayer
370
-1
48
1
60
0
100
AcDbLine
10
0
20
-31.05
30
0
11
0.2
21
-31.25
31
0
39
0
210
0
220
0
230
1
0
LINE
5
4C
100
AcDbEntity
8
1
62
256
6
ByLayer
370
-1
48
1
60
0
100
AcDbLine
10
94.266273
20
20.488545
30
0
11
35
21
20.73
31
0
39
0
210
0
220
0
230
1
0
LINE
5
4D
100
AcDbEntity
8
1
62
256
6
ByLayer
370
-1
48
1
60
0
100
AcDbLine
10
35
20
20.73
30
0
11
30
21
20.73
31
0
39
0
210
0
220
0
230
1
0
LINE
5
4E
100
AcDbEntity
8
1
62
256
6
ByLayer
370
-1
48
1
60
0
100
AcDbLine
10
30
20
-20.73
30
0
11
35
21
-20.73
31
0
39
0
210
0
220
0
230
1
0
LINE
5
4F
100
AcDbEntity
8
1
62
256
6
ByLayer
370
-1
48
1
60
0
100
AcDbLine
10
35
20
-20.73
30
0
11
87.376576
21
-20.516614
31
0
39
0
210
0
220
0
230
1
0
LINE
5
50
100
AcDbEntity
8
SK1
62
256
6
ByLayer
370
-1
48
1
60
0
100
AcDbLine
10
-2
20
24.996
30
0
11
-76.6
21
24.996
31
0
39
0
210
0
220
0
230
1
0
LINE
5
52
100
AcDbEntity
8
SK1
62
256
6
ByLayer
370
-1
48
1
60
0
100
AcDbLine
10
-76.6
20
-24.996
30
0
11
-2
21
-24.996
31
0
39
0
210
0
220
0
230
1
0
LINE
5
53
100
AcDbEntity
8
SK1
62
256
6
ByLayer
370
-1
48
1
60
0
100
AcDbLine
10
-2
20
-24.996
30
0
11
-1.552821
21
-24.787477
31
0
39
0
210
0
220
0
230
1
0
LINE
5
54
100
AcDbEntity
8
SK1
62
256
6
ByLayer
370
-1
48
1
60
0
100
AcDbLine
10
-1.552821
20
24.787477
30
0
11
-2
21
24.996
31
0
39
0
210
0
220
0
230
1
0
LINE
5
55
100
AcDbEntity
8
SK1
62
256
6
ByLayer
370
-1
48
1
60
0
100
AcDbLine
10
-0.15
20
24.75
30
0
11
-1.383773
21
24.75
31
0
39
0
210
0
220
0
230
1
0
LINE
5
56
100
AcDbEntity
8
SK1
62
256
6
ByLayer
370
-1
48
1
60
0
100
AcDbLine
10
-1.383773
20
-24.75
30
0
11
-0.15
21
-24.75
31
0
39
0
210
0
220
0
230
1
0
LINE
5
57
100
AcDbEntity
8
SK1
62
256
6
ByLayer
370
-1
48
1
60
0
100
AcDbLine
10
-78.6
20
-24.996
30
0
11
-78.516223
21
-24.892544
31
0
39
0
210
0
220
0
230
1
0
LINE
5
58
100
AcDbEntity
8
SK1
62
256
6
ByLayer
370
-1
48
1
60
0
100
AcDbLine
10
-78.516223
20
24.892544
30
0
11
-78.6
21
24.996
31
0
39
0
210
0
220
0
230
1
0
LINE
5
59
100
AcDbEntity
8
SK1
62
256
6
ByLayer
370
-1
48
1
60
0
100
AcDbLine
10
-76.6
20
24.996
30
0
11
-77.633814
21
24.639667
31
0
39
0
210
0
220
0
230
1
0
LINE
5
5A
100
AcDbEntity
8
SK1
62
256
6
ByLayer
370
-1
48
1
60
0
100
AcDbLine
10
-77.633814
20
-24.639667
30
0
11
-76.6
21
-24.996
31
0
39
0
210
0
220
0
230
1
0
LINE
5
5B
100
AcDbEntity
8
SK1
62
256
6
ByLayer
370
-1
48
1
60
0
100
AcDbLine
10
-79
20
24.996
30
0
11
-80
21
23.996
31
0
39
0
210
0
220
0
230
1
0
LINE
5
5C
100
AcDbEntity
8
SK1
62
256
6
ByLayer
370
-1
48
1
60
0
100
AcDbLine
10
-80
20
-23.996
30
0
11
-79
21
-24.996
31
0
39
0
210
0
220
0
230
1
0
LINE
5
5D
100
AcDbEntity
8
SK1
62
256
6
ByLayer
370
-1
48
1
60
0
100
AcDbLine
10
-78.6
20
24.996
30
0
11
-79
21
24.996
31
0
39
0
210
0
220
0
230
1
0
LINE
5
5E
100
AcDbEntity
8
SK1
62
256
6
ByLayer
370
-1
48
1
60
0
100
AcDbLine
10
-79
20
-24.996
30
0
11
-78.6
21
-24.996
31
0
39
0
210
0
220
0
230
1
0
LINE
5
5F
100
AcDbEntity
8
SK4
62
256
6
ByLayer
370
-1
48
0.05
60
0
100
AcDbLine
10
202
20
0
30
0
11
-80
21
0
31
0
39
0
210
0
220
0
230
1
0
LINE
5
61
100
AcDbEntity
8
4
62
256
6
ByLayer
370
-1
48
0.05
60
0
100
AcDbLine
10
202
20
0
30
0
11
0
21
0
31
0
39
0
210
0
220
0
230
1
0
LINE
5
63
100
AcDbEntity
8
1
62
256
6
ByLayer
370
-1
48
1
60
0
100
AcDbLine
10
200.042837
20
0.822316
30
0
11
200.115714
21
0.819777
31
0
39
0
210
0
220
0
230
1
0
LINE
5
64
100
AcDbEntity
8
1
62
256
6
ByLayer
370
-1
48
1
60
0
100
AcDbLine
10
35
20
-20.73
30
0
11
35
21
-15.731516
31
0
39
0
210
0
220
0
230
1
0
LINE
5
65
100
AcDbEntity
8
1
62
256
6
ByLayer
370
-1
48
1
60
0
100
AcDbLine
10
181.987296
20
9.806872
30
0
11
177.625789
21
11.665294
31
0
39
0
210
0
220
0
230
1
0
LINE
5
66
100
AcDbEntity
8
1
62
256
6
ByLayer
370
-1
48
1
60
0
100
AcDbLine
10
187.971152
20
-20.36848
30
0
11
200.191967
21
-20.36848
31
0
39
0
210
0
220
0
230
1
0
LINE
5
67
100
AcDbEntity
8
1
62
256
6
ByLayer
370
-1
48
1
60
0
100
AcDbLine
10
189.215465
20
7.838804
30
0
11
189.260753
21
7.838804
31
0
39
0
210
0
220
0
230
1
0
LINE
5
68
100
AcDbEntity
8
1
62
256
6
ByLayer
370
-1
48
1
60
0
100
AcDbLine
10
188.4042
20
9.510124
30
0
11
188.717961
21
9.510124
31
0
39
0
210
0
220
0
230
1
0
LINE
5
69
100
AcDbEntity
8
1
62
256
6
ByLayer
370
-1
48
1
60
0
100
AcDbLine
10
188.601492
20
12.858083
30
0
11
188.717961
21
9.510124
31
0
39
0
210
0
220
0
230
1
0
LINE
5
6A
100
AcDbEntity
8
1
62
256
6
ByLayer
370
-1
48
1
60
0
100
AcDbLine
10
35
20
20.73
30
0
11
35
21
9.103918
31
0
39
0
210
0
220
0
230
1
0
LINE
5
6B
100
AcDbEntity
8
1
62
256
6
ByLayer
370
-1
48
1
60
0
100
AcDbLine
10
188.638627
20
8.615039
30
0
11
188.432263
21
8.607805
31
0
39
0
210
0
220
0
230
1
0
LINE
5
6C
100
AcDbEntity
8
1
62
256
6
ByLayer
370
-1
48
1
60
0
100
AcDbLine
10
30
20
20.73
30
0
11
30
21
10.715348
31
0
39
0
210
0
220
0
230
1
0
LINE
5
6D
100
AcDbEntity
8
1
62
256
6
ByLayer
370
-1
48
1
60
0
100
AcDbLine
10
188.690145
20
14.171434
30
0
11
188.491588
21
20.398354
31
0
39
0
210
0
220
0
230
1
0
LINE
5
6E
100
AcDbEntity
8
1
62
256
6
ByLayer
370
-1
48
1
60
0
100
AcDbLine
10
184.707632
20
14.8
30
0
11
185.759333
21
14.8
31
0
39
0
210
0
220
0
230
1
0
LINE
5
6F
100
AcDbEntity
8
1
62
256
6
ByLayer
370
-1
48
1
60
0
100
AcDbLine
10
199.899381
20
8.166581
30
0
11
200.011364
21
8.16764
31
0
39
0
210
0
220
0
230
1
0
LINE
5
70
100
AcDbEntity
8
1
62
256
6
ByLayer
370
-1
48
1
60
0
100
AcDbLine
10
197.955529
20
3.330841
30
0
11
199.899381
21
8.166581
31
0
39
0
210
0
220
0
230
1
0
LINE
5
71
100
AcDbEntity
8
1
62
256
6
ByLayer
370
-1
48
1
60
0
100
AcDbLine
10
200.011364
20
8.16764
30
0
11
200.075244
21
8.16764
31
0
39
0
210
0
220
0
230
1
0
LINE
5
72
100
AcDbEntity
8
1
62
256
6
ByLayer
370
-1
48
1
60
0
100
AcDbLine
10
200.129244
20
0.864761
30
0
11
200.43336
21
8.401822
31
0
39
0
210
0
220
0
230
1
0
LINE
5
73
100
AcDbEntity
8
1
62
256
6
ByLayer
370
-1
48
1
60
0
100
AcDbLine
10
188.690145
20
14.171434
30
0
11
188.70544
21
14.171434
31
0
39
0
210
0
220
0
230
1
0
LINE
5
74
100
AcDbEntity
8
1
62
256
6
ByLayer
370
-1
48
1
60
0
100
AcDbLine
10
200.544762
20
-10.035336
30
0
11
198.899246
21
-9.185228
31
0
39
0
210
0
220
0
230
1
0
LINE
5
75
100
AcDbEntity
8
1
62
256
6
ByLayer
370
-1
48
1
60
0
100
AcDbLine
10
200.072961
20
0.891023
30
0
11
200.086402
21
0.890555
31
0
39
0
210
0
220
0
230
1
0
LINE
5
76
100
AcDbEntity
8
1
62
256
6
ByLayer
370
-1
48
1
60
0
100
AcDbLine
10
200.540587
20
-11.238356
30
0
11
200.994587
21
-11.324639
31
0
39
0
210
0
220
0
230
1
0
LINE
5
77
100
AcDbEntity
8
1
62
256
6
ByLayer
370
-1
48
1
60
0
100
AcDbLine
10
181.606176
20
9.070468
30
0
11
181.541581
21
9.070468
31
0
39
0
210
0
220
0
230
1
0
LINE
5
78
100
AcDbEntity
8
1
62
256
6
ByLayer
370
-1
48
1
60
0
100
AcDbLine
10
5
20
31.25
30
0
11
5
21
-31.25
31
0
39
0
210
0
220
0
230
1
0
LINE
5
79
100
AcDbEntity
8
1
62
256
6
ByLayer
370
-1
48
1
60
0
100
AcDbLine
10
185.759333
20
20.393915
30
0
11
185.759333
21
14.8
31
0
39
0
210
0
220
0
230
1
0
LINE
5
7A
100
AcDbEntity
8
1
62
256
6
ByLayer
370
-1
48
1
60
0
100
AcDbLine
10
189.215465
20
7.838804
30
0
11
188.491193
21
7.813415
31
0
39
0
210
0
220
0
230
1
0
LINE
5
7B
100
AcDbEntity
8
1
62
256
6
ByLayer
370
-1
48
1
60
0
100
AcDbLine
10
188.506978
20
20.395383
30
0
11
188.70544
21
14.171434
31
0
39
0
210
0
220
0
230
1
0
LINE
5
7C
100
AcDbEntity
8
1
62
256
6
ByLayer
370
-1
48
1
60
0
100
AcDbLine
10
186.995351
20
2.667407
30
0
11
188.491193
21
7.813415
31
0
39
0
210
0
220
0
230
1
0
LINE
5
7D
100
AcDbEntity
8
1
62
256
6
ByLayer
370
-1
48
1
60
0
100
AcDbLine
10
116
20
19.53248
30
0
11
116
21
-12.298467
31
0
39
0
210
0
220
0
230
1
0
LINE
5
7E
100
AcDbEntity
8
1
62
256
6
ByLayer
370
-1
48
1
60
0
100
AcDbLine
10
184.707632
20
20.386928
30
0
11
184.707632
21
14.8
31
0
39
0
210
0
220
0
230
1
0
LINE
5
7F
100
AcDbEntity
8
1
62
256
6
ByLayer
370
-1
48
1
60
0
100
AcDbLine
10
179.136882
20
10.122625
30
0
11
181.606176
21
9.070468
31
0
39
0
210
0
220
0
230
1
0
LINE
5
80
100
AcDbEntity
8
1
62
256
6
ByLayer
370
-1
48
1
60
0
100
AcDbLine
10
200.015254
20
0.150301
30
0
11
200.025589
21
-0.153062
31
0
39
0
210
0
220
0
230
1
0
LINE
5
81
100
AcDbEntity
8
1
62
256
6
ByLayer
370
-1
48
1
60
0
100
AcDbLine
10
200.025589
20
-0.153062
30
0
11
200.544762
21
-10.035336
31
0
39
0
210
0
220
0
230
1
0
LINE
5
82
100
AcDbEntity
8
1
62
256
6
ByLayer
370
-1
48
1
60
0
100
AcDbLine
10
180.35395
20
5.47367
30
0
11
179.92309
21
3.991421
31
0
39
0
210
0
220
0
230
1
0
LINE
5
83
100
AcDbEntity
8
1
62
256
6
ByLayer
370
-1
48
1
60
0
100
AcDbLine
10
200.115714
20
0.819777
30
0
11
200.129244
21
0.864761
31
0
39
0
210
0
220
0
230
1
0
LINE
5
84
100
AcDbEntity
8
1
62
256
6
ByLayer
370
-1
48
1
60
0
100
AcDbLine
10
188.910815
20
14.36803
30
0
11
188.940166
21
14.36803
31
0
39
0
210
0
220
0
230
1
0
LINE
5
85
100
AcDbEntity
8
1
62
256
6
ByLayer
370
-1
48
1
60
0
100
AcDbLine
10
30
20
-20.73
30
0
11
30
21
-14.774966
31
0
39
0
210
0
220
0
230
1
0
LINE
5
86
100
AcDbEntity
8
1
62
256
6
ByLayer
370
-1
48
1
60
0
100
AcDbLine
10
0
20
31.05
30
0
11
0
21
-31.05
31
0
39
0
210
0
220
0
230
1
0
LINE
5
87
100
AcDbEntity
8
1
62
256
6
ByLayer
370
-1
48
1
60
0
100
AcDbLine
10
200.075318
20
8.16764
30
0
11
200.099016
21
8.166393
31
0
39
0
210
0
220
0
230
1
0
LINE
5
88
100
AcDbEntity
8
1
62
256
6
ByLayer
370
-1
48
1
60
0
100
AcDbLine
10
0.2
20
31.25
30
0
11
0.2
21
-31.25
31
0
39
0
210
0
220
0
230
1
0
LINE
5
89
100
AcDbEntity
8
1
62
256
6
ByLayer
370
-1
48
1
60
0
100
AcDbLine
10
191.581093
20
7.874991
30
0
11
199.899381
21
8.166581
31
0
39
0
210
0
220
0
230
1
0
LINE
5
8A
100
AcDbEntity
8
1
62
256
6
ByLayer
370
-1
48
1
60
0
100
AcDbLine
10
188.287731
20
12.858083
30
0
11
188.4042
21
9.510124
31
0
39
0
210
0
220
0
230
1
0
LINE
5
8B
100
AcDbEntity
8
1
62
256
6
ByLayer
370
-1
48
1
60
0
100
AcDbLine
10
200.099016
20
8.166393
30
0
11
200.011364
21
8.16764
31
0
39
0
210
0
220
0
230
1
0
LINE
5
8C
100
AcDbEntity
8
1
62
256
6
ByLayer
370
-1
48
1
60
0
100
AcDbLine
10
188.287731
20
12.858083
30
0
11
188.601492
21
12.858083
31
0
39
0
210
0
220
0
230
1
0
LINE
5
8D
100
AcDbEntity
8
1
62
256
6
ByLayer
370
-1
48
1
60
0
100
AcDbLine
10
200.544762
20
-10.035336
30
0
11
200.517579
21
-10.341636
31
0
39
0
210
0
220
0
230
1
0
LINE
5
8E
100
AcDbEntity
8
1
62
256
6
ByLayer
370
-1
48
1
60
0
100
AcDbLine
10
200.086402
20
0.890555
30
0
11
200.129244
21
0.864761
31
0
39
0
210
0
220
0
230
1
0
LINE
5
8F
100
AcDbEntity
8
1
62
256
6
ByLayer
370
-1
48
1
60
0
100
AcDbLine
10
184.600943
20
14.70033
30
0
11
165.758329
21
16.255374
31
0
39
0
210
0
220
0
230
1
0
LINE
5
90
100
AcDbEntity
8
1
62
256
6
ByLayer
370
-1
48
1
60
0
100
AcDbLine
10
200.025589
20
-0.153062
30
0
11
198.029064
21
0.878383
31
0
39
0
210
0
220
0
230
1
0
LINE
5
91
100
AcDbEntity
8
1
62
256
6
ByLayer
370
-1
48
1
60
0
100
AcDbLine
10
200.191967
20
-20.36848
30
0
11
200.994587
21
-11.324639
31
0
39
0
210
0
220
0
230
1
0
LINE
5
92
100
AcDbEntity
8
1
62
256
6
ByLayer
370
-1
48
1
60
0
100
AcDbLine
10
190.601683
20
8.137015
30
0
11
200.308664
21
8.477285
31
0
39
0
210
0
220
0
230
1
0
LINE
5
93
100
AcDbEntity
8
1
62
256
6
ByLayer
370
-1
48
1
60
0
100
AcDbLine
10
199.872244
20
21.039932
30
0
11
189.576235
21
20.679014
31
0
39
0
210
0
220
0
230
1
0
LINE
5
94
100
AcDbEntity
8
1
62
256
6
ByLayer
370
-1
48
1
60
0
100
AcDbLine
10
188.850808
20
19.202722
30
0
11
189.189783
21
9.458661
31
0
39
0
210
0
220
0
230
1
0
LINE
5
95
100
AcDbEntity
8
1
62
256
6
ByLayer
370
-1
48
1
60
0
100
AcDbLine
10
200.050205
20
19.59605
30
0
11
200.38918
21
9.851989
31
0
39
0
210
0
220
0
230
1
0
LINE
5
96
100
AcDbEntity
8
1
62
256
6
ByLayer
370
-1
48
1
60
0
100
AcDbLine
10
199.524322
20
10.88045
30
0
11
199.426976
21
13.678744
31
0
39
0
210
0
220
0
230
1
0
LINE
5
97
100
AcDbEntity
8
1
62
256
6
ByLayer
370
-1
48
1
60
0
100
AcDbLine
10
191.597107
20
11.693167
30
0
11
192.015936
21
12.144021
31
0
39
0
210
0
220
0
230
1
0
LINE
5
98
100
AcDbEntity
8
1
62
256
6
ByLayer
370
-1
48
1
60
0
100
AcDbLine
10
190.591023
20
8.532703
30
0
11
200.298004
21
8.872973
31
0
39
0
210
0
220
0
230
1
0
LINE
5
99
100
AcDbEntity
8
1
62
256
6
ByLayer
370
-1
48
1
60
0
100
AcDbLine
10
190.581313
20
8.761611
30
0
11
200.288295
21
9.101881
31
0
39
0
210
0
220
0
230
1
0
LINE
5
9A
100
AcDbEntity
8
1
62
256
6
ByLayer
370
-1
48
1
60
0
100
AcDbLine
10
192.145638
20
17.772222
30
0
11
192.150882
21
17.752804
31
0
39
0
210
0
220
0
230
1
0
LINE
5
9B
100
AcDbEntity
8
1
62
256
6
ByLayer
370
-1
48
1
60
0
100
AcDbLine
10
190.016783
20
19.244309
30
0
11
190.355758
21
9.500249
31
0
39
0
210
0
220
0
230
1
0
LINE
5
9C
100
AcDbEntity
8
1
62
256
6
ByLayer
370
-1
48
1
60
0
100
AcDbLine
10
198.871105
20
18.872562
30
0
11
196.083459
21
18.774844
31
0
39
0
210
0
220
0
230
1
0
LINE
5
9D
100
AcDbEntity
8
1
62
256
6
ByLayer
370
-1
48
1
60
0
100
AcDbLine
10
198.879421
20
18.746247
30
0
11
196.091775
21
18.648528
31
0
39
0
210
0
220
0
230
1
0
LINE
5
9E
100
AcDbEntity
8
1
62
256
6
ByLayer
370
-1
48
1
60
0
100
AcDbLine
10
190.998368
20
18.134309
30
0
11
191.518325
21
18.031277
31
0
39
0
210
0
220
0
230
1
0
LINE
5
9F
100
AcDbEntity
8
1
62
256
6
ByLayer
370
-1
48
1
60
0
100
AcDbLine
10
191.813636
20
11.497798
30
0
11
191.801639
21
11.509027
31
0
39
0
210
0
220
0
230
1
0
LINE
5
A0
100
AcDbEntity
8
1
62
256
6
ByLayer
370
-1
48
1
60
0
100
AcDbLine
10
190.18867
20
19.400454
30
0
11
199.895652
21
19.740724
31
0
39
0
210
0
220
0
230
1
0
LINE
5
A1
100
AcDbEntity
8
1
62
256
6
ByLayer
370
-1
48
1
60
0
100
AcDbLine
10
192.185161
20
11.534396
30
0
11
192.316304
21
11.411636
31
0
39
0
210
0
220
0
230
1
0
LINE
5
A2
100
AcDbEntity
8
1
62
256
6
ByLayer
370
-1
48
1
60
0
100
AcDbLine
10
191.819525
20
17.421172
30
0
11
192.331858
21
16.941589
31
0
39
0
210
0
220
0
230
1
0
LINE
5
A3
100
AcDbEntity
8
1
62
256
6
ByLayer
370
-1
48
1
60
0
100
AcDbLine
10
190.383522
20
9.501249
30
0
11
190.044547
21
19.24531
31
0
39
0
210
0
220
0
230
1
0
LINE
5
A4
100
AcDbEntity
8
1
62
256
6
ByLayer
370
-1
48
1
60
0
100
AcDbLine
10
190.191846
20
19.557906
30
0
11
199.898827
21
19.898177
31
0
39
0
210
0
220
0
230
1
0
LINE
5
A5
100
AcDbEntity
8
1
62
256
6
ByLayer
370
-1
48
1
60
0
100
AcDbLine
10
189.474386
20
19.224533
30
0
11
189.813362
21
9.480473
31
0
39
0
210
0
220
0
230
1
0
LINE
5
A6
100
AcDbEntity
8
1
62
256
6
ByLayer
370
-1
48
1
60
0
100
AcDbLine
10
192.185161
20
11.534396
30
0
11
192.304038
21
11.662362
31
0
39
0
210
0
220
0
230
1
0
LINE
5
A7
100
AcDbEntity
8
1
62
256
6
ByLayer
370
-1
48
1
60
0
100
AcDbLine
10
201.004421
20
9.872766
30
0
11
200.665446
21
19.616827
31
0
39
0
210
0
220
0
230
1
0
LINE
5
A8
100
AcDbEntity
8
1
62
256
6
ByLayer
370
-1
48
1
60
0
100
AcDbLine
10
190.188461
20
19.429115
30
0
11
199.895443
21
19.769385
31
0
39
0
210
0
220
0
230
1
0
LINE
5
A9
100
AcDbEntity
8
1
62
256
6
ByLayer
370
-1
48
1
60
0
100
AcDbLine
10
191.822708
20
18.812867
30
0
11
193.024849
21
17.68757
31
0
39
0
210
0
220
0
230
1
0
LINE
5
AA
100
AcDbEntity
8
1
62
256
6
ByLayer
370
-1
48
1
60
0
100
AcDbLine
10
199.234357
20
15.70683
30
0
11
199.13701
21
18.505124
31
0
39
0
210
0
220
0
230
1
0
LINE
5
AB
100
AcDbEntity
8
1
62
256
6
ByLayer
370
-1
48
1
60
0
100
AcDbLine
10
191.621569
20
11.323604
30
0
11
191.949426
21
11.016705
31
0
39
0
210
0
220
0
230
1
0
LINE
5
AC
100
AcDbEntity
8
1
62
256
6
ByLayer
370
-1
48
1
60
0
100
AcDbLine
10
192.145638
20
17.772222
30
0
11
192.657971
21
17.292639
31
0
39
0
210
0
220
0
230
1
0
LINE
5
AD
100
AcDbEntity
8
1
62
256
6
ByLayer
370
-1
48
1
60
0
100
AcDbLine
10
189.248096
20
19.21654
30
0
11
189.587071
21
9.472479
31
0
39
0
210
0
220
0
230
1
0
LINE
5
AE
100
AcDbEntity
8
1
62
256
6
ByLayer
370
-1
48
1
60
0
100
AcDbLine
10
190.552206
20
9.199123
30
0
11
200.259187
21
9.539393
31
0
39
0
210
0
220
0
230
1
0
LINE
5
AF
100
AcDbEntity
8
1
62
256
6
ByLayer
370
-1
48
1
60
0
100
AcDbLine
10
190.170778
20
20.558078
30
0
11
199.877759
21
20.898348
31
0
39
0
210
0
220
0
230
1
0
LINE
5
B0
100
AcDbEntity
8
1
62
256
6
ByLayer
370
-1
48
1
60
0
100
AcDbLine
10
191.597107
20
11.693167
30
0
11
191.597473
21
11.692824
31
0
39
0
210
0
220
0
230
1
0
LINE
5
B1
100
AcDbEntity
8
1
62
256
6
ByLayer
370
-1
48
1
60
0
100
AcDbLine
10
200.418521
20
9.85299
30
0
11
200.079545
21
19.597051
31
0
39
0
210
0
220
0
230
1
0
LINE
5
B2
100
AcDbEntity
8
1
62
256
6
ByLayer
370
-1
48
1
60
0
100
AcDbLine
10
196.375031
20
10.393432
30
0
11
199.162677
21
10.491151
31
0
39
0
210
0
220
0
230
1
0
LINE
5
B3
100
AcDbEntity
8
1
62
256
6
ByLayer
370
-1
48
1
60
0
100
AcDbLine
10
201.564778
20
9.892415
30
0
11
201.225803
21
19.636475
31
0
39
0
210
0
220
0
230
1
0
LINE
5
B4
100
AcDbEntity
8
1
62
256
6
ByLayer
370
-1
48
1
60
0
100
AcDbLine
10
201.234204
20
9.88076
30
0
11
200.895229
21
19.62482
31
0
39
0
210
0
220
0
230
1
0
LINE
5
B5
100
AcDbEntity
8
1
62
256
6
ByLayer
370
-1
48
1
60
0
100
AcDbLine
10
190.600726
20
8.198952
30
0
11
200.307707
21
8.539222
31
0
39
0
210
0
220
0
230
1
0
LINE
5
B6
100
AcDbEntity
8
1
62
256
6
ByLayer
370
-1
48
1
60
0
100
AcDbLine
10
190.184296
20
20.224326
30
0
11
199.891277
21
20.564596
31
0
39
0
210
0
220
0
230
1
0
LINE
5
B7
100
AcDbEntity
8
1
62
256
6
ByLayer
370
-1
48
1
60
0
100
AcDbLine
10
190.762839
20
17.671955
30
0
11
191.96498
21
16.546658
31
0
39
0
210
0
220
0
230
1
0
LINE
5
B8
100
AcDbEntity
8
1
62
256
6
ByLayer
370
-1
48
1
60
0
100
AcDbLine
10
190.190513
20
19.995418
30
0
11
199.897494
21
20.335688
31
0
39
0
210
0
220
0
230
1
0
LINE
5
B9
100
AcDbEntity
8
1
62
256
6
ByLayer
370
-1
48
1
60
0
100
AcDbLine
10
189.896346
20
19.239812
30
0
11
190.235321
21
9.495751
31
0
39
0
210
0
220
0
230
1
0
LINE
5
BA
100
AcDbEntity
8
1
62
256
6
ByLayer
370
-1
48
1
60
0
100
AcDbLine
10
199.356269
20
15.711241
30
0
11
199.258923
21
18.509535
31
0
39
0
210
0
220
0
230
1
0
LINE
5
BB
100
AcDbEntity
8
1
62
256
6
ByLayer
370
-1
48
1
60
0
100
AcDbLine
10
200.245057
20
9.696846
30
0
11
190.538076
21
9.356576
31
0
39
0
210
0
220
0
230
1
0
LINE
5
BC
100
AcDbEntity
8
1
62
256
6
ByLayer
370
-1
48
1
60
0
100
AcDbLine
10
201.705233
20
9.897359
30
0
11
201.345689
21
20.232697
31
0
39
0
210
0
220
0
230
1
0
LINE
5
BD
100
AcDbEntity
8
1
62
256
6
ByLayer
370
-1
48
1
60
0
100
AcDbLine
10
191.819525
20
17.421172
30
0
11
191.839188
21
17.417276
31
0
39
0
210
0
220
0
230
1
0
LINE
5
BE
100
AcDbEntity
8
1
62
256
6
ByLayer
370
-1
48
1
60
0
100
AcDbLine
10
200.554687
20
9.857488
30
0
11
200.215711
21
19.601548
31
0
39
0
210
0
220
0
230
1
0
LINE
5
BF
100
AcDbEntity
8
1
62
256
6
ByLayer
370
-1
48
1
60
0
100
AcDbLine
10
188.913707
20
19.204885
30
0
11
189.252682
21
9.460824
31
0
39
0
210
0
220
0
230
1
0
LINE
5
C0
100
AcDbEntity
8
1
62
256
6
ByLayer
370
-1
48
1
60
0
100
AcDbLine
10
190.539861
20
9.327914
30
0
11
200.246842
21
9.668185
31
0
39
0
210
0
220
0
230
1
0
LINE
5
C1
100
AcDbEntity
8
1
62
256
6
ByLayer
370
-1
48
1
60
0
100
AcDbLine
10
191.379665
20
18.544762
30
0
11
191.518325
21
18.031277
31
0
39
0
210
0
220
0
230
1
0
LINE
5
C2
100
AcDbEntity
8
1
62
256
6
ByLayer
370
-1
48
1
60
0
100
AcDbLine
10
199.305063
20
13.674333
30
0
11
199.40241
21
10.876039
31
0
39
0
210
0
220
0
230
1
0
LINE
5
C3
100
AcDbEntity
8
1
62
256
6
ByLayer
370
-1
48
1
60
0
100
AcDbLine
10
190.167426
20
20.620015
30
0
11
199.874407
21
20.960285
31
0
39
0
210
0
220
0
230
1
0
LINE
5
C4
100
AcDbEntity
8
1
62
256
6
ByLayer
370
-1
48
1
60
0
100
AcDbLine
10
190.605061
20
8.057368
30
0
11
200.90107
21
8.418286
31
0
39
0
210
0
220
0
230
1
0
LINE
5
C5
100
AcDbEntity
8
1
62
256
6
ByLayer
370
-1
48
1
60
0
100
AcDbLine
10
201.625282
20
9.894577
30
0
11
201.286306
21
19.638638
31
0
39
0
210
0
220
0
230
1
0
LINE
5
C6
100
AcDbEntity
8
1
62
256
6
ByLayer
370
-1
48
1
60
0
100
AcDbLine
10
188.772072
20
19.199941
30
0
11
189.131616
21
8.864603
31
0
39
0
210
0
220
0
230
1
0
LINE
5
C7
100
AcDbEntity
8
1
62
256
6
ByLayer
370
-1
48
1
60
0
100
AcDbLine
10
199.162204
20
10.617466
30
0
11
196.374559
21
10.519748
31
0
39
0
210
0
220
0
230
1
0
LINE
5
C8
100
AcDbEntity
8
1
62
256
6
ByLayer
370
-1
48
1
60
0
100
AcDbLine
10
201.726745
20
-7.507362
30
0
11
201.669783
21
-9.134569
31
0
39
0
210
0
220
0
230
1
0
LINE
5
C9
100
AcDbEntity
8
1
62
256
6
ByLayer
370
-1
48
1
60
0
100
AcDbLine
10
200.45443
20
-1.357344
30
0
11
200.047668
21
-0.573304
31
0
39
0
210
0
220
0
230
1
0
LINE
5
CA
100
AcDbEntity
8
1
62
256
6
ByLayer
370
-1
48
1
60
0
100
AcDbLine
10
200.932292
20
-1.219482
30
0
11
200.45443
21
-1.357344
31
0
39
0
210
0
220
0
230
1
0
LINE
5
CB
100
AcDbEntity
8
1
62
256
6
ByLayer
370
-1
48
1
60
0
100
AcDbLine
10
200.755289
20
-5.510333
30
0
11
200.556899
21
-1.734049
31
0
39
0
210
0
220
0
230
1
0
LINE
5
CC
100
AcDbEntity
8
1
62
256
6
ByLayer
370
-1
48
1
60
0
100
AcDbLine
10
200.536088
20
-9.870506
30
0
11
200.666441
21
-9.803208
31
0
39
0
210
0
220
0
230
1
0
LINE
5
CD
100
AcDbEntity
8
1
62
256
6
ByLayer
370
-1
48
1
60
0
100
AcDbLine
10
201.53049
20
-5.727904
30
0
11
201.257808
21
-5.587031
31
0
39
0
210
0
220
0
230
1
0
LINE
5
CE
100
AcDbEntity
8
1
62
256
6
ByLayer
370
-1
48
1
60
0
100
AcDbLine
10
201.319124
20
-1.704629
30
0
11
201.058503
21
-1.608086
31
0
39
0
210
0
220
0
230
1
0
LINE
5
CF
100
AcDbEntity
8
1
62
256
6
ByLayer
370
-1
48
1
60
0
100
AcDbLine
10
201.714959
20
-7.503392
30
0
11
201.223842
21
-7.386873
31
0
39
0
210
0
220
0
230
1
0
LINE
5
D0
100
AcDbEntity
8
1
62
256
6
ByLayer
370
-1
48
1
60
0
100
AcDbLine
10
200.932292
20
-1.219482
30
0
11
200.522074
21
0.151341
31
0
39
0
210
0
220
0
230
1
0
LINE
5
D1
100
AcDbEntity
8
1
62
256
6
ByLayer
370
-1
48
1
60
0
100
AcDbLine
10
201.657997
20
-9.130598
30
0
11
201.714959
21
-7.503392
31
0
39
0
210
0
220
0
230
1
0
LINE
5
D2
100
AcDbEntity
8
1
62
256
6
ByLayer
370
-1
48
1
60
0
100
AcDbLine
10
201.514473
20
-10.805637
30
0
11
201.418735
21
-10.680511
31
0
39
0
210
0
220
0
230
1
0
LINE
5
D3
100
AcDbEntity
8
1
62
256
6
ByLayer
370
-1
48
1
60
0
100
AcDbLine
10
201.16688
20
-9.01408
30
0
11
201.223842
21
-7.386873
31
0
39
0
210
0
220
0
230
1
0
LINE
5
D4
100
AcDbEntity
8
1
62
256
6
ByLayer
370
-1
48
1
60
0
100
AcDbLine
10
201.246031
20
-5.584087
30
0
11
201.047641
21
-1.807803
31
0
39
0
210
0
220
0
230
1
0
LINE
5
D5
100
AcDbEntity
8
1
62
256
6
ByLayer
370
-1
48
1
60
0
100
AcDbLine
10
201.53049
20
-5.727904
30
0
11
201.319124
21
-1.704629
31
0
39
0
210
0
220
0
230
1
0
LINE
5
D6
100
AcDbEntity
8
1
62
256
6
ByLayer
370
-1
48
1
60
0
100
AcDbLine
10
200.524605
20
-9.651786
30
0
11
200.574515
21
-9.626018
31
0
39
0
210
0
220
0
230
1
0
LINE
5
D7
100
AcDbEntity
8
1
62
256
6
ByLayer
370
-1
48
1
60
0
100
AcDbLine
10
201.657997
20
-9.130598
30
0
11
201.16688
21
-9.01408
31
0
39
0
210
0
220
0
230
1
0
LINE
5
D8
100
AcDbEntity
8
1
62
256
6
ByLayer
370
-1
48
1
60
0
100
AcDbLine
10
200.528574
20
0.525821
30
0
11
200.459016
21
0.486053
31
0
39
0
210
0
220
0
230
1
0
LINE
5
D9
100
AcDbEntity
8
1
62
256
6
ByLayer
370
-1
48
1
60
0
100
AcDbLine
10
201.908896
20
-10.264084
30
0
11
201.999634
21
-7.671997
31
0
39
0
210
0
220
0
230
1
0
LINE
5
DA
100
AcDbEntity
8
1
62
256
6
ByLayer
370
-1
48
1
60
0
100
AcDbLine
10
200.522074
20
0.151341
30
0
11
200.020154
21
0.006538
31
0
39
0
210
0
220
0
230
1
0
LINE
5
DB
100
AcDbEntity
8
1
62
256
6
ByLayer
370
-1
48
1
60
0
100
AcDbLine
10
201.79028
20
-6.711264
30
0
11
201.545973
21
-6.677796
31
0
39
0
210
0
220
0
230
1
0
LINE
5
DC
100
AcDbEntity
8
1
62
256
6
ByLayer
370
-1
48
1
60
0
100
AcDbLine
10
200.509101
20
-11.170672
30
0
11
201.514473
21
-10.805637
31
0
39
0
210
0
220
0
230
1
0
LINE
5
DD
100
AcDbEntity
8
1
62
256
6
ByLayer
370
-1
48
1
60
0
100
AcDbLine
10
200.491164
20
-10.845587
30
0
11
201.049238
21
-10.709531
31
0
39
0
210
0
220
0
230
1
0
LINE
5
DE
100
AcDbEntity
8
1
62
256
6
ByLayer
370
-1
48
1
60
0
100
AcDbLine
10
201.049238
20
-10.709531
30
0
11
200.666441
21
-9.803208
31
0
39
0
210
0
220
0
230
1
0
LINE
5
DF
100
AcDbEntity
8
1
62
256
6
ByLayer
370
-1
48
1
60
0
100
AcDbLine
10
201.289656
20
-1.56014
30
0
11
200.528574
21
0.525821
31
0
39
0
210
0
220
0
230
1
0
LINE
5
E0
100
AcDbEntity
8
1
62
256
6
ByLayer
370
-1
48
1
60
0
100
AcDbLine
10
200.967002
20
-9.007117
30
0
11
201.023964
21
-7.37991
31
0
39
0
210
0
220
0
230
1
0
LINE
5
E1
100
AcDbEntity
8
1
62
256
6
ByLayer
370
-1
48
1
60
0
100
AcDbLine
10
200.276808
20
-1.449047
30
0
11
200.073034
21
-1.056268
31
0
39
0
210
0
220
0
230
1
0
LINE
5
E2
100
AcDbEntity
8
1
62
256
6
ByLayer
370
-1
48
1
60
0
100
AcDbLine
10
201.999634
20
-7.671997
30
0
11
201.726745
21
-7.507362
31
0
39
0
210
0
220
0
230
1
0
LINE
5
E3
100
AcDbEntity
8
1
62
256
6
ByLayer
370
-1
48
1
60
0
100
AcDbLine
10
201.289656
20
-1.56014
30
0
11
201.03131
21
-1.464439
31
0
39
0
210
0
220
0
230
1
0
LINE
5
E4
100
AcDbEntity
8
1
62
256
6
ByLayer
370
-1
48
1
60
0
100
AcDbLine
10
200.545348
20
0.124076
30
0
11
200.955566
21
-1.246747
31
0
39
0
210
0
220
0
230
1
0
LINE
5
E5
100
AcDbEntity
8
1
62
256
6
ByLayer
370
-1
48
1
60
0
100
AcDbLine
10
201.908896
20
-10.264084
30
0
11
201.786258
21
-10.103802
31
0
39
0
210
0
220
0
230
1
0
LINE
5
E6
100
AcDbEntity
8
1
62
256
6
ByLayer
370
-1
48
1
60
0
100
AcDbLine
10
201.025475
20
-10.736308
30
0
11
200.491039
21
-10.866601
31
0
39
0
210
0
220
0
230
1
0
LINE
5
E7
100
AcDbEntity
8
1
62
256
6
ByLayer
370
-1
48
1
60
0
100
AcDbLine
10
201.535421
20
-6.67949
30
0
11
201.095745
21
-6.799032
31
0
39
0
210
0
220
0
230
1
0
LINE
5
E8
100
AcDbEntity
8
1
62
256
6
ByLayer
370
-1
48
1
60
0
100
AcDbLine
10
201.246031
20
-5.584087
30
0
11
200.755289
21
-5.510333
31
0
39
0
210
0
220
0
230
1
0
LINE
5
E9
100
AcDbEntity
8
1
62
256
6
ByLayer
370
-1
48
1
60
0
100
AcDbLine
10
200.555563
20
-5.520774
30
0
11
200.357173
21
-1.744491
31
0
39
0
210
0
220
0
230
1
0
LINE
5
EA
100
AcDbEntity
8
1
62
256
6
ByLayer
370
-1
48
1
60
0
100
AcDbLine
10
201.047641
20
-1.807803
30
0
11
200.556899
21
-1.734049
31
0
39
0
210
0
220
0
230
1
0
LINE
5
EB
100
AcDbEntity
8
1
62
256
6
ByLayer
370
-1
48
1
60
0
100
AcDbLine
10
201.059418
20
-1.810747
30
0
11
201.257808
21
-5.587031
31
0
39
0
210
0
220
0
230
1
0
LINE
5
EC
100
AcDbEntity
8
SK1
62
256
6
ByLayer
370
-1
48
1
60
0
100
AcDbLine
10
-6.5
20
-10.670483
30
0
11
-76.6
21
-10.670483
31
0
39
0
210
0
220
0
230
1
0
LINE
5
ED
100
AcDbEntity
8
SK1
62
256
6
ByLayer
370
-1
48
1
60
0
100
AcDbLine
10
-76.6
20
10.670483
30
0
11
-76.6
21
24.996
31
0
39
0
210
0
220
0
230
1
0
LINE
5
EE
100
AcDbEntity
8
SK1
62
256
6
ByLayer
370
-1
48
1
60
0
100
AcDbLine
10
-76.6
20
-24.996
30
0
11
-76.6
21
-10.670483
31
0
39
0
210
0
220
0
230
1
0
LINE
5
EF
100
AcDbEntity
8
SK1
62
256
6
ByLayer
370
-1
48
1
60
0
100
AcDbLine
10
-2
20
-24.996
30
0
11
-2
21
24.996
31
0
39
0
210
0
220
0
230
1
0
LINE
5
F0
100
AcDbEntity
8
SK1
62
256
6
ByLayer
370
-1
48
1
60
0
100
AcDbLine
10
-79
20
-10.670483
30
0
11
-79
21
-24.996
31
0
39
0
210
0
220
0
230
1
0
LINE
5
F1
100
AcDbEntity
8
SK1
62
256
6
ByLayer
370
-1
48
1
60
0
100
AcDbLine
10
-79
20
24.996
30
0
11
-79
21
10.670483
31
0
39
0
210
0
220
0
230
1
0
LINE
5
F2
100
AcDbEntity
8
SK1
62
256
6
ByLayer
370
-1
48
1
60
0
100
AcDbLine
10
-0.15
20
24.75
30
0
11
-0.15
21
-24.75
31
0
39
0
210
0
220
0
230
1
0
LINE
5
F3
100
AcDbEntity
8
SK1
62
256
6
ByLayer
370
-1
48
1
60
0
100
AcDbLine
10
-77.633814
20
-9.806751
30
0
11
-77.633814
21
-24.639667
31
0
39
0
210
0
220
0
230
1
0
LINE
5
F4
100
AcDbEntity
8
SK1
62
256
6
ByLayer
370
-1
48
1
60
0
100
AcDbLine
10
-77.633814
20
24.639667
30
0
11
-77.633814
21
9.806751
31
0
39
0
210
0
220
0
230
1
0
LINE
5
F5
100
AcDbEntity
8
SK1
62
256
6
ByLayer
370
-1
48
1
60
0
100
AcDbLine
10
-1.552821
20
24.787477
30
0
11
-1.552821
21
-24.787477
31
0
39
0
210
0
220
0
230
1
0
LINE
5
F6
100
AcDbEntity
8
SK1
62
256
6
ByLayer
370
-1
48
1
60
0
100
AcDbLine
10
-80
20
8.054018
30
0
11
-80
21
-8.054018
31
0
39
0
210
0
220
0
230
1
0
LINE
5
F7
100
AcDbEntity
8
SK1
62
256
6
ByLayer
370
-1
48
1
60
0
100
AcDbLine
10
-76.6
20
10.670483
30
0
11
-6.5
21
10.670483
31
0
39
0
210
0
220
0
230
1
0
LINE
5
F8
100
AcDbEntity
8
SK1
62
256
6
ByLayer
370
-1
48
1
60
0
100
AcDbLine
10
-78.6
20
-10.670483
30
0
11
-79
21
-10.670483
31
0
39
0
210
0
220
0
230
1
0
LINE
5
F9
100
AcDbEntity
8
SK1
62
256
6
ByLayer
370
-1
48
1
60
0
100
AcDbLine
10
-78.6
20
-24.996
30
0
11
-78.6
21
-10.670483
31
0
39
0
210
0
220
0
230
1
0
LINE
5
FA
100
AcDbEntity
8
SK1
62
256
6
ByLayer
370
-1
48
1
60
0
100
AcDbLine
10
-78.6
20
10.670483
30
0
11
-78.6
21
24.996
31
0
39
0
210
0
220
0
230
1
0
LINE
5
FB
100
AcDbEntity
8
SK1
62
256
6
ByLayer
370
-1
48
1
60
0
100
AcDbLine
10
-79
20
10.670483
30
0
11
-78.6
21
10.670483
31
0
39
0
210
0
220
0
230
1
0
LINE
5
FC
100
AcDbEntity
8
SK1
62
256
6
ByLayer
370
-1
48
1
60
0
100
AcDbLine
10
-6.5
20
10.670483
30
0
11
-6.5
21
-10.670483
31
0
39
0
210
0
220
0
230
1
0
LINE
5
FD
100
AcDbEntity
8
SK1
62
256
6
ByLayer
370
-1
48
1
60
0
100
AcDbLine
10
-78.516223
20
-10.425829
30
0
11
-78.516223
21
-24.892544
31
0
39
0
210
0
220
0
230
1
0
LINE
5
FE
100
AcDbEntity
8
SK1
62
256
6
ByLayer
370
-1
48
1
60
0
100
AcDbLine
10
-78.516223
20
24.892544
30
0
11
-78.516223
21
10.425829
31
0
39
0
210
0
220
0
230
1
0
LINE
5
FF
100
AcDbEntity
8
SK1
62
256
6
ByLayer
370
-1
48
1
60
0
100
AcDbLine
10
-1.383773
20
24.75
30
0
11
-1.383773
21
-24.75
31
0
39
0
210
0
220
0
230
1
0
LINE
5
100
100
AcDbEntity
8
SK1
62
256
6
ByLayer
370
-1
48
1
60
0
100
AcDbLine
10
-80
20
-8.054018
30
0
11
-80
21
-23.996
31
0
39
0
210
0
220
0
230
1
0
LINE
5
101
100
AcDbEntity
8
SK1
62
256
6
ByLayer
370
-1
48
1
60
0
100
AcDbLine
10
-80
20
23.996
30
0
11
-80
21
8.054018
31
0
39
0
210
0
220
0
230
1
0
POLYLINE
5
10A
100
AcDbEntity
8
1
62
256
6
ByLayer
370
-1
48
1
60
0
100
AcDb3dPolyline
10
0
20
0
30
0
70
8
75
0
210
0
220
0
230
1
0
VERTEX
5
10B
100
AcDbEntity
8
1
62
256
100
AcDbVertex
100
AcDb3dPolylineVertex
10
200.075244
20
8.16764
30
0
70
32
0
VERTEX
5
10C
100
AcDbEntity
8
1
62
256
100
AcDbVertex
100
AcDb3dPolylineVertex
10
200.075246
20
8.16764
30
0
70
32
0
VERTEX
5
10D
100
AcDbEntity
8
1
62
256
100
AcDbVertex
100
AcDb3dPolylineVertex
10
200.075247
20
8.16764
30
0
70
32
0
VERTEX
5
10E
100
AcDbEntity
8
1
62
256
100
AcDbVertex
100
AcDb3dPolylineVertex
10
200.075249
20
8.16764
30
0
70
32
0
VERTEX
5
10F
100
AcDbEntity
8
1
62
256
100
AcDbVertex
100
AcDb3dPolylineVertex
10
200.075251
20
8.16764
30
0
70
32
0
VERTEX
5
110
100
AcDbEntity
8
1
62
256
100
AcDbVertex
100
AcDb3dPolylineVertex
10
200.075252
20
8.16764
30
0
70
32
0
VERTEX
5
111
100
AcDbEntity
8
1
62
256
100
AcDbVertex
100
AcDb3dPolylineVertex
10
200.075254
20
8.16764
30
0
70
32
0
VERTEX
5
112
100
AcDbEntity
8
1
62
256
100
AcDbVertex
100
AcDb3dPolylineVertex
10
200.075255
20
8.16764
30
0
70
32
0
VERTEX
5
113
100
AcDbEntity
8
1
62
256
100
AcDbVertex
100
AcDb3dPolylineVertex
10
200.075257
20
8.16764
30
0
70
32
0
VERTEX
5
114
100
AcDbEntity
8
1
62
256
100
AcDbVertex
100
AcDb3dPolylineVertex
10
200.075258
20
8.16764
30
0
70
32
0
VERTEX
5
115
100
AcDbEntity
8
1
62
256
100
AcDbVertex
100
AcDb3dPolylineVertex
10
200.07526
20
8.16764
30
0
70
32
0
VERTEX
5
116
100
AcDbEntity
8
1
62
256
100
AcDbVertex
100
AcDb3dPolylineVertex
10
200.075261
20
8.16764
30
0
70
32
0
VERTEX
5
117
100
AcDbEntity
8
1
62
256
100
AcDbVertex
100
AcDb3dPolylineVertex
10
200.075263
20
8.16764
30
0
70
32
0
VERTEX
5
118
100
AcDbEntity
8
1
62
256
100
AcDbVertex
100
AcDb3dPolylineVertex
10
200.075265
20
8.16764
30
0
70
32
0
VERTEX
5
119
100
AcDbEntity
8
1
62
256
100
AcDbVertex
100
AcDb3dPolylineVertex
10
200.075266
20
8.16764
30
0
70
32
0
VERTEX
5
11A
100
AcDbEntity
8
1
62
256
100
AcDbVertex
100
AcDb3dPolylineVertex
10
200.075268
20
8.16764
30
0
70
32
0
VERTEX
5
11B
100
AcDbEntity
8
1
62
256
100
AcDbVertex
100
AcDb3dPolylineVertex
10
200.075269
20
8.16764
30
0
70
32
0
VERTEX
5
11C
100
AcDbEntity
8
1
62
256
100
AcDbVertex
100
AcDb3dPolylineVertex
10
200.075271
20
8.16764
30
0
70
32
0
VERTEX
5
11D
100
AcDbEntity
8
1
62
256
100
AcDbVertex
100
AcDb3dPolylineVertex
10
200.075272
20
8.16764
30
0
70
32
0
VERTEX
5
11E
100
AcDbEntity
8
1
62
256
100
AcDbVertex
100
AcDb3dPolylineVertex
10
200.075274
20
8.16764
30
0
70
32
0
VERTEX
5
11F
100
AcDbEntity
8
1
62
256
100
AcDbVertex
100
AcDb3dPolylineVertex
10
200.075275
20
8.16764
30
0
70
32
0
VERTEX
5
120
100
AcDbEntity
8
1
62
256
100
AcDbVertex
100
AcDb3dPolylineVertex
10
200.075277
20
8.16764
30
0
70
32
0
VERTEX
5
121
100
AcDbEntity
8
1
62
256
100
AcDbVertex
100
AcDb3dPolylineVertex
10
200.075278
20
8.16764
30
0
70
32
0
VERTEX
5
122
100
AcDbEntity
8
1
62
256
100
AcDbVertex
100
AcDb3dPolylineVertex
10
200.07528
20
8.16764
30
0
70
32
0
VERTEX
5
123
100
AcDbEntity
8
1
62
256
100
AcDbVertex
100
AcDb3dPolylineVertex
10
200.075281
20
8.16764
30
0
70
32
0
VERTEX
5
124
100
AcDbEntity
8
1
62
256
100
AcDbVertex
100
AcDb3dPolylineVertex
10
200.075283
20
8.16764
30
0
70
32
0
VERTEX
5
125
100
AcDbEntity
8
1
62
256
100
AcDbVertex
100
AcDb3dPolylineVertex
10
200.075284
20
8.16764
30
0
70
32
0
VERTEX
5
126
100
AcDbEntity
8
1
62
256
100
AcDbVertex
100
AcDb3dPolylineVertex
10
200.075286
20
8.16764
30
0
70
32
0
VERTEX
5
127
100
AcDbEntity
8
1
62
256
100
AcDbVertex
100
AcDb3dPolylineVertex
10
200.075287
20
8.16764
30
0
70
32
0
VERTEX
5
128
100
AcDbEntity
8
1
62
256
100
AcDbVertex
100
AcDb3dPolylineVertex
10
200.075288
20
8.16764
30
0
70
32
0
VERTEX
5
129
100
AcDbEntity
8
1
62
256
100
AcDbVertex
100
AcDb3dPolylineVertex
10
200.07529
20
8.16764
30
0
70
32
0
VERTEX
5
12A
100
AcDbEntity
8
1
62
256
100
AcDbVertex
100
AcDb3dPolylineVertex
10
200.075291
20
8.16764
30
0
70
32
0
VERTEX
5
12B
100
AcDbEntity
8
1
62
256
100
AcDbVertex
100
AcDb3dPolylineVertex
10
200.075293
20
8.16764
30
0
70
32
0
VERTEX
5
12C
100
AcDbEntity
8
1
62
256
100
AcDbVertex
100
AcDb3dPolylineVertex
10
200.075294
20
8.16764
30
0
70
32
0
VERTEX
5
12D
100
AcDbEntity
8
1
62
256
100
AcDbVertex
100
AcDb3dPolylineVertex
10
200.075296
20
8.16764
30
0
70
32
0
VERTEX
5
12E
100
AcDbEntity
8
1
62
256
100
AcDbVertex
100
AcDb3dPolylineVertex
10
200.075297
20
8.16764
30
0
70
32
0
VERTEX
5
12F
100
AcDbEntity
8
1
62
256
100
AcDbVertex
100
AcDb3dPolylineVertex
10
200.075299
20
8.16764
30
0
70
32
0
VERTEX
5
130
100
AcDbEntity
8
1
62
256
100
AcDbVertex
100
AcDb3dPolylineVertex
10
200.0753
20
8.16764
30
0
70
32
0
VERTEX
5
131
100
AcDbEntity
8
1
62
256
100
AcDbVertex
100
AcDb3dPolylineVertex
10
200.075301
20
8.16764
30
0
70
32
0
VERTEX
5
132
100
AcDbEntity
8
1
62
256
100
AcDbVertex
100
AcDb3dPolylineVertex
10
200.075303
20
8.16764
30
0
70
32
0
VERTEX
5
133
100
AcDbEntity
8
1
62
256
100
AcDbVertex
100
AcDb3dPolylineVertex
10
200.075304
20
8.16764
30
0
70
32
0
VERTEX
5
134
100
AcDbEntity
8
1
62
256
100
AcDbVertex
100
AcDb3dPolylineVertex
10
200.075306
20
8.16764
30
0
70
32
0
VERTEX
5
135
100
AcDbEntity
8
1
62
256
100
AcDbVertex
100
AcDb3dPolylineVertex
10
200.075307
20
8.16764
30
0
70
32
0
VERTEX
5
136
100
AcDbEntity
8
1
62
256
100
AcDbVertex
100
AcDb3dPolylineVertex
10
200.075308
20
8.16764
30
0
70
32
0
VERTEX
5
137
100
AcDbEntity
8
1
62
256
100
AcDbVertex
100
AcDb3dPolylineVertex
10
200.07531
20
8.16764
30
0
70
32
0
VERTEX
5
138
100
AcDbEntity
8
1
62
256
100
AcDbVertex
100
AcDb3dPolylineVertex
10
200.075311
20
8.16764
30
0
70
32
0
VERTEX
5
139
100
AcDbEntity
8
1
62
256
100
AcDbVertex
100
AcDb3dPolylineVertex
10
200.075313
20
8.16764
30
0
70
32
0
VERTEX
5
13A
100
AcDbEntity
8
1
62
256
100
AcDbVertex
100
AcDb3dPolylineVertex
10
200.075314
20
8.16764
30
0
70
32
0
VERTEX
5
13B
100
AcDbEntity
8
1
62
256
100
AcDbVertex
100
AcDb3dPolylineVertex
10
200.075315
20
8.16764
30
0
70
32
0
VERTEX
5
13C
100
AcDbEntity
8
1
62
256
100
AcDbVertex
100
AcDb3dPolylineVertex
10
200.075317
20
8.16764
30
0
70
32
0
VERTEX
5
13D
100
AcDbEntity
8
1
62
256
100
AcDbVertex
100
AcDb3dPolylineVertex
10
200.075318
20
8.16764
30
0
70
32
0
SEQEND
5
13E
100
AcDbEntity
8
1
0
MTEXT
5
2C5
100
AcDbEntity
8
SK6
62
256
6
ByLayer
370
-1
48
1
60
0
100
AcDbMText
10
0.79375
20
-80.79375
30
0
210
0
220
0
230
1
1
\W00.751;\fsimplex.shx,bigfont.shx;880-D4200L50-04 
40
3.175
41
0
44
1.084337
50
0
71
7
72
5
7
DEFAULT
0
DIMENSION
5
2F5
100
AcDbEntity
8
SK2
62
256
6
ByLayer
370
-3
48
1
60
0
100
AcDbDimension
2
DimnDraft3D1
10
202
20
-70.11955
30
0
11
61
21
-70.11955
31
0
70
32
71
5
72
1
41
1
210
0
220
0
230
1
3
Standard
100
AcDbAlignedDimension
13
-80
23
-26.5875
33
0
14
202
24
-22.5875
34
0
50
0
100
AcDbRotatedDimension
1001
ACAD
1000
DSTYLE
1002
{
1070
   279
1070
     0
1070
   172
1070
     1
1070
   173
1070
     1
1070
   340
1005
2C6
1070
   271
1070
     1
1070
   272
1070
     2
1070
    77
1070
     1
1070
    73
1070
     0
1070
   171
1070
     3
1070
   274
1070
     4
1070
   177
1070
   150
1070
   176
1070
     9
1070
   178
1070
    43
1070
    78
1070
     8
1070
    48
1040
-0.005
1070
    41
1041
4.175
1070
   147
1041
2.25
1070
    42
1041
1.5875
1070
    44
1041
3.175
1070
   140
1041
4.5
1070
   343
1005
0
1070
   344
1005
0
1002
}
0
DIMENSION
5
2FF
100
AcDbEntity
8
SK2
62
256
6
ByLayer
370
-3
48
1
60
0
100
AcDbDimension
2
DimnDraft3D2
10
0
20
-58.1508
30
0
11
-40
21
-58.1508
31
0
70
32
71
5
72
1
41
1
210
0
220
0
230
1
3
Standard
100
AcDbAlignedDimension
13
-80
23
-26.5875
33
0
14
0
24
-32.8375
34
0
50
0
100
AcDbRotatedDimension
1001
ACAD
1000
DSTYLE
1002
{
1070
   279
1070
     0
1070
   172
1070
     1
1070
   173
1070
     1
1070
   340
1005
2C6
1070
   271
1070
     1
1070
   272
1070
     2
1070
    77
1070
     1
1070
    73
1070
     0
1070
   171
1070
     3
1070
   274
1070
     4
1070
   177
1070
   150
1070
   176
1070
     9
1070
   178
1070
    43
1070
    78
1070
     8
1070
    48
1040
-0.005
1070
    41
1041
4.175
1070
   147
1041
2.25
1070
    42
1041
1.5875
1070
    44
1041
3.175
1070
   140
1041
4.5
1070
   343
1005
0
1070
   344
1005
0
1002
}
0
DIMENSION
5
30A
100
AcDbEntity
8
2
62
256
6
ByLayer
370
-3
48
1
60
0
100
AcDbDimension
2
DimnDraft3D3
10
202
20
-58.1508
30
0
11
101
21
-58.1508
31
0
70
32
71
5
72
1
41
1
210
0
220
0
230
1
3
Standard
100
AcDbAlignedDimension
13
0
23
-32.8375
33
0
14
202
24
-22.5875
34
0
50
0
100
AcDbRotatedDimension
1001
ACAD
1000
DSTYLE
1002
{
1070
   279
1070
     0
1070
   172
1070
     1
1070
   173
1070
     1
1070
   340
1005
2C6
1070
   271
1070
     1
1070
   272
1070
     2
1070
    77
1070
     1
1070
    73
1070
     0
1070
   171
1070
     3
1070
   274
1070
     4
1070
   177
1070
   150
1070
   176
1070
     9
1070
   178
1070
    43
1070
    78
1070
     8
1070
    48
1040
-0.005
1070
    41
1041
4.175
1070
   147
1041
2.25
1070
    42
1041
1.5875
1070
    44
1041
3.175
1070
   140
1041
4.5
1070
   343
1005
0
1070
   344
1005
0
1002
}
0
DIMENSION
5
314
100
AcDbEntity
8
SK2
62
256
6
ByLayer
370
-3
48
1
60
0
100
AcDbDimension
2
DimnDraft3D4
10
202
20
-48.1508
30
0
11
116
21
-48.1508
31
0
70
32
71
5
72
1
41
1
210
0
220
0
230
1
3
Standard
100
AcDbAlignedDimension
13
30
23
-11.5875
33
0
14
202
24
-22.5875
34
0
50
0
100
AcDbRotatedDimension
1001
ACAD
1000
DSTYLE
1002
{
1070
   279
1070
     0
1070
   172
1070
     1
1070
   173
1070
     1
1070
   340
1005
2C6
1070
   271
1070
     1
1070
   272
1070
     2
1070
    77
1070
     1
1070
    73
1070
     0
1070
   171
1070
     3
1070
   274
1070
     4
1070
   177
1070
   150
1070
   176
1070
     9
1070
   178
1070
    43
1070
    78
1070
     8
1070
    48
1040
-0.005
1070
    41
1041
4.175
1070
   147
1041
2.25
1070
    42
1041
1.5875
1070
    44
1041
3.175
1070
   140
1041
4.5
1070
   343
1005
0
1070
   344
1005
0
1002
}
0
DIMENSION
5
31F
100
AcDbEntity
8
SK2
62
256
6
ByLayer
370
-3
48
1
60
0
100
AcDbDimension
2
DimnDraft3D5
10
-91.9
20
-25
30
0
11
-92.1
21
4.121053
31
0
70
33
71
5
72
1
41
1
210
0
220
0
230
1
3
Standard
100
AcDbAlignedDimension
13
-81.5875
23
25
33
0
14
-81.5875
24
-25
34
0
1001
ACAD
1000
DSTYLE
1002
{
1070
   279
1070
     0
1070
    74
1070
     0
1070
   173
1070
     1
1070
   340
1005
2C6
1070
   271
1070
     2
1070
   272
1070
     2
1070
    77
1070
     1
1070
    73
1070
     0
1070
   171
1070
     3
1070
   274
1070
     4
1070
   177
1070
   150
1070
   176
1070
     9
1070
   178
1070
    43
1070
    78
1070
     8
1070
    48
1040
-0.005
1070
    41
1041
4.175
1070
   147
1041
2.25
1070
    42
1041
1.5875
1070
    44
1041
3.175
1070
   140
1041
4.5
1070
   343
1005
0
1070
   344
1005
0
1002
}
0
DIMENSION
5
32A
100
AcDbEntity
8
SK2
62
256
6
ByLayer
370
-3
48
1
60
0
100
AcDbDimension
2
DimnDraft3D6
10
-101.9
20
31.25
30
0
11
-102.1
21
1.586842
31
0
70
33
71
5
72
1
41
1
210
0
220
0
230
1
3
Standard
100
AcDbAlignedDimension
13
-1.5875
23
-31.25
33
0
14
-1.5875
24
31.25
34
0
1001
ACAD
1000
DSTYLE
1002
{
1070
   279
1070
     0
1070
    74
1070
     0
1070
   173
1070
     1
1070
   340
1005
2C6
1070
   271
1070
     1
1070
   272
1070
     2
1070
    77
1070
     1
1070
    73
1070
     0
1070
   171
1070
     3
1070
   274
1070
     4
1070
   177
1070
   150
1070
   176
1070
     9
1070
   178
1070
    43
1070
    78
1070
     8
1070
    48
1040
-0.005
1070
    41
1041
4.175
1070
   147
1041
2.25
1070
    42
1041
1.5875
1070
    44
1041
3.175
1070
   140
1041
4.5
1070
   343
1005
0
1070
   344
1005
0
1002
}
0
DIMENSION
5
335
100
AcDbEntity
8
2
62
256
6
ByLayer
370
-3
48
1
60
0
100
AcDbDimension
2
DimnDraft3D7
10
232.15
20
-21
30
0
11
225.6
21
3.884211
31
0
70
33
71
5
72
1
41
1
210
0
220
0
230
1
3
Standard
100
AcDbAlignedDimension
13
203.5875
23
21
33
0
14
203.5875
24
-21
34
0
1001
ACAD
1000
DSTYLE
1002
{
1070
   279
1070
     0
1070
    74
1070
     0
1070
   173
1070
     1
1070
   340
1005
2C6
1070
   271
1070
     2
1070
   272
1070
     2
1070
    77
1070
     1
1070
    73
1070
     0
1070
   171
1070
     3
1070
   274
1070
     4
1070
   177
1070
   150
1070
   176
1070
     9
1070
   178
1070
    43
1070
    78
1070
     8
1070
    48
1040
-0.005
1070
    41
1041
4.175
1070
   147
1041
2.25
1070
    42
1041
1.5875
1070
    44
1041
3.175
1070
   140
1041
4.5
1070
   343
1005
0
1070
   344
1005
0
1002
}
0
ENDSEC
0
SECTION
2
OBJECTS
0
DICTIONARY
5
366
330
0
100
AcDbDictionary
280
0
281
1
3
ACAD_GROUP
350
367
3
ACAD_MLINESTYLE
350
368
0
DICTIONARY
5
367
330
0
100
AcDbDictionary
280
0
281
1
0
DICTIONARY
5
368
330
0
100
AcDbDictionary
280
0
281
1
3
Standard
350
18
0
MLINESTYLE
5
18
330
368
100
AcDbMlineStyle
2
Standard
70
0
3

62
256
51
90
52
90
71
2
49
-0.5
62
256
6
ByLayer
49
0.5
62
256
6
ByLayer
0
RASTERVARIABLES
5
354
330

100
AcDbRasterVariables
90
0
70
1
71
1
72
1
0
ENDSEC
0
EOF
