0
SECTION
2
HEADER
9
$ACADVER
1
AC1015
9
$DWGCODEPAGE
3
ANSI_1252
9
$HANDSEED
5
350
9
$ANGBASE
50
0
9
$ANGDIR
70
0
9
$ATTMODE
70
1
9
$AUNITS
70
0
9
$AUPREC
70
0
9
$CECOLOR
62
256
9
$CELTSCALE
40
1
9
$CELTYPE
6
ByLayer
9
$CELWEIGHT
370
-1
9
$CLAYER
8
0
9
$CMLJUST
70
0
9
$CMLSCALE
40
1
9
$CMLSTYLE
2
Standard
9
$DIMSTYLE
2
Standard
9
$TEXTSIZE
40
0.2
9
$TEXTSTYLE
7
Standard
9
$LUNITS
70
2
9
$LUPREC
70
4
9
$EXTNAMES
290
1
9
$INSUNITS
70
4
9
$LTSCALE
40
1
9
$LWDISPLAY
290
0
9
$PDMODE
70
0
9
$PDSIZE
40
0
9
$PLINEGEN
70
0
0
ENDSEC
0
SECTION
2
CLASSES
0
CLASS
1
RASTERVARIABLES
2
AcDbRasterVariables
3
ISM
90
0
280
0
281
0
0
ENDSEC
0
SECTION
2
TABLES
0
TABLE
2
VPORT
5
346
100
AcDbSymbolTable
0
VPORT
5
1
100
AcDbSymbolTableRecord
100
AcDbViewportTableRecord
2
*Active
70
0
10
0
20
0
11
1
21
1
12
-1
22
1
13
0
23
0
14
0.5
24
0.5
15
10
25
10
16
0
26
0
36
1
17
0
27
0
37
0
0
ENDTAB
0
TABLE
2
LTYPE
5
347
100
AcDbSymbolTable
0
LTYPE
5
14
100
AcDbSymbolTableRecord
100
AcDbLinetypeTableRecord
70
0
2
ByBlock
3

72
65
73
0
40
0
0
LTYPE
5
15
100
AcDbSymbolTableRecord
100
AcDbLinetypeTableRecord
70
0
2
ByLayer
3

72
65
73
0
40
0
0
LTYPE
5
16
100
AcDbSymbolTableRecord
100
AcDbLinetypeTableRecord
70
0
2
CONTINUOUS
3
Solid line
72
65
73
0
40
0
0
LTYPE
5
3B
100
AcDbSymbolTableRecord
100
AcDbLinetypeTableRecord
70
0
2
DASHED
3
__ __ __ __ __ __ __ __ __
72
65
73
2
40
25.72
49
12.86
74
0
49
-12.86
74
0
0
LTYPE
5
3C
100
AcDbSymbolTableRecord
100
AcDbLinetypeTableRecord
70
0
2
HIDDEN
3
_ _ _ _ _ _ _ _ _ _ _ _ _ _ _
72
65
73
2
40
0.5
49
0.25
74
0
49
-0.25
74
0
0
LTYPE
5
3D
100
AcDbSymbolTableRecord
100
AcDbLinetypeTableRecord
70
0
2
PHANTOM
3
____ _ _ ____ _ _ _____ _ _ ____
72
65
73
6
40
50.5
49
18
74
0
49
-6.5
74
0
49
6.5
74
0
49
-6.5
74
0
49
6.5
74
0
49
-6.5
74
0
0
LTYPE
5
3E
100
AcDbSymbolTableRecord
100
AcDbLinetypeTableRecord
70
0
2
CENTER
3
____ _ ____ _ ____ _ ____
72
65
73
4
40
47.5
49
22
74
0
49
-8.5
74
0
49
8.5
74
0
49
-8.5
74
0
0
LTYPE
5
3F
100
AcDbSymbolTableRecord
100
AcDbLinetypeTableRecord
70
0
2
DOT
3
.........................
72
65
73
2
40
10
49
0
74
0
49
-10
74
0
0
LTYPE
5
40
100
AcDbSymbolTableRecord
100
AcDbLinetypeTableRecord
70
0
2
DASHDOT
3
_._._._._._._._._._._._._._._._.
72
65
73
4
40
70
49
31
74
0
49
-13
74
0
49
13
74
0
49
-13
74
0
0
ENDTAB
0
TABLE
2
LAYER
5
348
100
AcDbSymbolTable
0
LAYER
5
10
100
AcDbSymbolTableRecord
100
AcDbLayerTableRecord
2
0
70
0
62
7
6
CONTINUOUS
290
1
370
-3
390
0
0
LAYER
5
42
100
AcDbSymbolTableRecord
100
AcDbLayerTableRecord
2
81
70
0
62
-3
6
CONTINUOUS
290
1
370
-3
390
0
0
LAYER
5
44
100
AcDbSymbolTableRecord
100
AcDbLayerTableRecord
2
80
70
0
62
-6
6
CONTINUOUS
290
1
370
-3
390
0
0
LAYER
5
48
100
AcDbSymbolTableRecord
100
AcDbLayerTableRecord
2
1
70
0
62
4
6
CONTINUOUS
290
1
370
-3
390
0
0
LAYER
5
5D
100
AcDbSymbolTableRecord
100
AcDbLayerTableRecord
2
4
70
0
62
-2
6
CENTER
290
1
370
-3
390
0
0
LAYER
5
2EA
100
AcDbSymbolTableRecord
100
AcDbLayerTableRecord
2
2
70
0
62
7
6
CONTINUOUS
290
1
370
-3
390
0
0
LAYER
5
332
100
AcDbSymbolTableRecord
100
AcDbLayerTableRecord
2
SK4
70
0
62
2
6
CENTER
290
1
370
-3
390
0
0
LAYER
5
333
100
AcDbSymbolTableRecord
100
AcDbLayerTableRecord
2
SK1
70
0
62
4
6
CONTINUOUS
290
1
370
-3
390
0
0
LAYER
5
334
100
AcDbSymbolTableRecord
100
AcDbLayerTableRecord
2
SK6
70
0
62
5
6
CONTINUOUS
290
1
370
-3
390
0
0
LAYER
5
335
100
AcDbSymbolTableRecord
100
AcDbLayerTableRecord
2
SK2
70
0
62
7
6
CONTINUOUS
290
1
370
-3
390
0
0
ENDTAB
0
TABLE
2
STYLE
5
349
100
AcDbSymbolTable
0
STYLE
5
11
100
AcDbSymbolTableRecord
100
AcDbTextStyleTableRecord
2
Standard
3
txt
70
0
71
0
40
0
41
1
42
0
50
0
0
STYLE
5
2AE
100
AcDbSymbolTableRecord
100
AcDbTextStyleTableRecord
2
DEFAULT
3
simplex.shx
70
0
71
0
40
0
41
1
42
0
50
0
0
STYLE
5
2D1
100
AcDbSymbolTableRecord
100
AcDbTextStyleTableRecord
2
DWGDirectTextStyle
3
SIMPLEX
70
0
71
0
40
0
41
1
42
0
50
0
0
ENDTAB
0
TABLE
2
DIMSTYLE
5
34a
100
AcDbSymbolTable
100
AcDbDimStyleTable
0
DIMSTYLE
105
27
100
AcDbSymbolTableRecord
100
AcDbDimStyleTableRecord
2
Standard
70
0
3
<>
41
0.18
42
0.0625
44
0.18
140
0.18
147
0.09
73
0
74
0
77
1
271
2
275
0
278
52
280
0
340
11
0
ENDTAB
0
TABLE
2
VIEW
5
34b
100
AcDbSymbolTable
0
ENDTAB
0
TABLE
2
UCS
5
34c
100
AcDbSymbolTable
0
ENDTAB
0
TABLE
2
APPID
5
34d
100
AcDbSymbolTable
0
APPID
5
12
100
AcDbSymbolTableRecord
100
AcDbRegAppTableRecord
2
ACAD
70
0
0
ENDTAB
0
TABLE
2
BLOCK_RECORD
5
34e
100
AcDbSymbolTable
0
BLOCK_RECORD
5
1F
100
AcDbSymbolTableRecord
100
AcDbBlockTableRecord
2
*Model_Space
340
0
70
0
0
BLOCK_RECORD
5
1B
100
AcDbSymbolTableRecord
100
AcDbBlockTableRecord
2
*Paper_Space
340
0
70
0
0
BLOCK_RECORD
5
23
100
AcDbSymbolTableRecord
100
AcDbBlockTableRecord
2
*Paper_Space0
340
0
70
0
0
BLOCK_RECORD
5
2D3
100
AcDbSymbolTableRecord
100
AcDbBlockTableRecord
2
DimnDraft3D1
340
0
70
0
0
BLOCK_RECORD
5
2DE
100
AcDbSymbolTableRecord
100
AcDbBlockTableRecord
2
DimnDraft3D2
340
0
70
0
0
BLOCK_RECORD
5
2E8
100
AcDbSymbolTableRecord
100
AcDbBlockTableRecord
2
DimnDraft3D3
340
0
70
0
0
BLOCK_RECORD
5
2F3
100
AcDbSymbolTableRecord
100
AcDbBlockTableRecord
2
DimnDraft3D4
340
0
70
0
0
BLOCK_RECORD
5
2FD
100
AcDbSymbolTableRecord
100
AcDbBlockTableRecord
2
DimnDraft3D5
340
0
70
0
0
BLOCK_RECORD
5
308
100
AcDbSymbolTableRecord
100
AcDbBlockTableRecord
2
DimnDraft3D6
340
0
70
0
0
ENDTAB
0
ENDSEC
0
SECTION
2
BLOCKS
0
BLOCK
5
20
100
AcDbEntity
8
0
100
AcDbBlockBegin
2
*Model_Space
70
0
10
0
20
0
30
0
3
*Model_Space
0
ENDBLK
5
21
100
AcDbEntity
8
0
100
AcDbBlockEnd
0
BLOCK
5
1C
100
AcDbEntity
8
0
100
AcDbBlockBegin
2
*Paper_Space
70
0
10
0
20
0
30
0
3
*Paper_Space
0
ENDBLK
5
1D
100
AcDbEntity
8
0
100
AcDbBlockEnd
0
BLOCK
5
24
100
AcDbEntity
8
0
100
AcDbBlockBegin
2
*Paper_Space0
70
0
10
0
20
0
30
0
3
*Paper_Space0
0
ENDBLK
5
25
100
AcDbEntity
8
0
100
AcDbBlockEnd
0
BLOCK
5
2DB
100
AcDbEntity
8
0
100
AcDbBlockBegin
2
DimnDraft3D1
70
0
10
0
20
0
30
0
3
DimnDraft3D1
0
MTEXT
5
2D4
100
AcDbEntity
8
SK2
62
256
6
ByLayer
370
-1
48
1
60
0
100
AcDbMText
10
73.344079
20
-67.225
30
0
210
0
220
0
230
1
1
\W01.000;\fsimplex.shx,bigfont.shx;(238) 
40
4.5
41
0
44
1.084337
50
0
71
7
72
5
7
DEFAULT
0
LINE
5
2D6
100
AcDbEntity
8
SK2
62
256
6
ByLayer
370
-1
48
1
60
0
100
AcDbLine
10
-38
20
-4.5875
30
0
11
-38
21
-73.49375
31
0
39
0
210
0
220
0
230
1
0
LINE
5
2D7
100
AcDbEntity
8
SK2
62
256
6
ByLayer
370
-1
48
1
60
0
100
AcDbLine
10
200
20
-22.5875
30
0
11
200
21
-73.49375
31
0
39
0
210
0
220
0
230
1
0
LINE
5
2D8
100
AcDbEntity
8
SK2
62
256
6
ByLayer
370
-1
48
1
60
0
100
AcDbLine
10
-38
20
-70.31875
30
0
11
200
21
-70.31875
31
0
39
0
210
0
220
0
230
1
0
SOLID
5
2D9
100
AcDbEntity
8
SK2
62
256
6
ByLayer
370
-1
48
1
60
0
100
AcDbTrace
10
-38
20
-70.31875
30
0
11
-33.825003
21
-69.393175
31
0
12
-33.824997
22
-71.244325
32
0
13
-38
23
-70.31875
33
0
39
0
210
0
220
0
230
1
0
SOLID
5
2DA
100
AcDbEntity
8
SK2
62
256
6
ByLayer
370
-1
48
1
60
0
100
AcDbTrace
10
200
20
-70.31875
30
0
11
195.825003
21
-71.244325
31
0
12
195.824997
22
-69.393175
32
0
13
200
23
-70.31875
33
0
39
0
210
0
220
0
230
1
0
ENDBLK
5
2DC
100
AcDbEntity
8
0
100
AcDbBlockEnd
0
BLOCK
5
2E5
100
AcDbEntity
8
0
100
AcDbBlockBegin
2
DimnDraft3D2
70
0
10
0
20
0
30
0
3
DimnDraft3D2
0
MTEXT
5
2DF
100
AcDbEntity
8
SK2
62
256
6
ByLayer
370
-1
48
1
60
0
100
AcDbMText
10
-20.503947
20
-57.225
30
0
210
0
220
0
230
1
1
\W01.000;\fsimplex.shx,bigfont.shx;38 
40
4.5
41
0
44
1.084337
50
0
71
7
72
5
7
DEFAULT
0
LINE
5
2E0
100
AcDbEntity
8
SK2
62
256
6
ByLayer
370
-1
48
1
60
0
100
AcDbLine
10
-38
20
-4.5875
30
0
11
-38
21
-61.525
31
0
39
0
210
0
220
0
230
1
0
LINE
5
2E1
100
AcDbEntity
8
SK2
62
256
6
ByLayer
370
-1
48
1
60
0
100
AcDbLine
10
0
20
-33.0875
30
0
11
0
21
-61.525
31
0
39
0
210
0
220
0
230
1
0
LINE
5
2E2
100
AcDbEntity
8
SK2
62
256
6
ByLayer
370
-1
48
1
60
0
100
AcDbLine
10
-38
20
-58.35
30
0
11
0
21
-58.35
31
0
39
0
210
0
220
0
230
1
0
SOLID
5
2E3
100
AcDbEntity
8
SK2
62
256
6
ByLayer
370
-1
48
1
60
0
100
AcDbTrace
10
-38
20
-58.35
30
0
11
-33.825003
21
-57.424425
31
0
12
-33.824997
22
-59.275575
32
0
13
-38
23
-58.35
33
0
39
0
210
0
220
0
230
1
0
SOLID
5
2E4
100
AcDbEntity
8
SK2
62
256
6
ByLayer
370
-1
48
1
60
0
100
AcDbTrace
10
0
20
-58.35
30
0
11
-4.174997
21
-59.275575
31
0
12
-4.175003
22
-57.424425
32
0
13
0
23
-58.35
33
0
39
0
210
0
220
0
230
1
0
ENDBLK
5
2E6
100
AcDbEntity
8
0
100
AcDbBlockEnd
0
BLOCK
5
2F0
100
AcDbEntity
8
0
100
AcDbBlockBegin
2
DimnDraft3D3
70
0
10
0
20
0
30
0
3
DimnDraft3D3
0
MTEXT
5
2E9
100
AcDbEntity
8
2
62
256
6
ByLayer
370
-1
48
1
60
0
100
AcDbMText
10
96.844079
20
-57.225
30
0
210
0
220
0
230
1
1
\W01.000;\fsimplex.shx,bigfont.shx;200 
40
4.5
41
0
44
1.084337
50
0
71
7
72
5
7
DEFAULT
0
LINE
5
2EB
100
AcDbEntity
8
2
62
256
6
ByLayer
370
-1
48
1
60
0
100
AcDbLine
10
0
20
-33.0875
30
0
11
0
21
-61.525
31
0
39
0
210
0
220
0
230
1
0
LINE
5
2EC
100
AcDbEntity
8
2
62
256
6
ByLayer
370
-1
48
1
60
0
100
AcDbLine
10
200
20
-22.5875
30
0
11
200
21
-61.525
31
0
39
0
210
0
220
0
230
1
0
LINE
5
2ED
100
AcDbEntity
8
2
62
256
6
ByLayer
370
-1
48
1
60
0
100
AcDbLine
10
0
20
-58.35
30
0
11
200
21
-58.35
31
0
39
0
210
0
220
0
230
1
0
SOLID
5
2EE
100
AcDbEntity
8
2
62
256
6
ByLayer
370
-1
48
1
60
0
100
AcDbTrace
10
0
20
-58.35
30
0
11
4.174997
21
-57.424425
31
0
12
4.175003
22
-59.275575
32
0
13
0
23
-58.35
33
0
39
0
210
0
220
0
230
1
0
SOLID
5
2EF
100
AcDbEntity
8
2
62
256
6
ByLayer
370
-1
48
1
60
0
100
AcDbTrace
10
200
20
-58.35
30
0
11
195.825003
21
-59.275575
31
0
12
195.824997
22
-57.424425
32
0
13
200
23
-58.35
33
0
39
0
210
0
220
0
230
1
0
ENDBLK
5
2F1
100
AcDbEntity
8
0
100
AcDbBlockEnd
0
BLOCK
5
2FA
100
AcDbEntity
8
0
100
AcDbBlockBegin
2
DimnDraft3D4
70
0
10
0
20
0
30
0
3
DimnDraft3D4
0
MTEXT
5
2F4
100
AcDbEntity
8
SK2
62
256
6
ByLayer
370
-1
48
1
60
0
100
AcDbMText
10
132.406579
20
-47.225
30
0
210
0
220
0
230
1
1
\W01.000;\fsimplex.shx,bigfont.shx;130 
40
4.5
41
0
44
1.084337
50
0
71
7
72
5
7
DEFAULT
0
LINE
5
2F5
100
AcDbEntity
8
SK2
62
256
6
ByLayer
370
-1
48
1
60
0
100
AcDbLine
10
70
20
-11.5875
30
0
11
70
21
-51.525
31
0
39
0
210
0
220
0
230
1
0
LINE
5
2F6
100
AcDbEntity
8
SK2
62
256
6
ByLayer
370
-1
48
1
60
0
100
AcDbLine
10
200
20
-22.5875
30
0
11
200
21
-51.525
31
0
39
0
210
0
220
0
230
1
0
LINE
5
2F7
100
AcDbEntity
8
SK2
62
256
6
ByLayer
370
-1
48
1
60
0
100
AcDbLine
10
70
20
-48.35
30
0
11
200
21
-48.35
31
0
39
0
210
0
220
0
230
1
0
SOLID
5
2F8
100
AcDbEntity
8
SK2
62
256
6
ByLayer
370
-1
48
1
60
0
100
AcDbTrace
10
70
20
-48.35
30
0
11
74.174997
21
-47.424425
31
0
12
74.175003
22
-49.275575
32
0
13
70
23
-48.35
33
0
39
0
210
0
220
0
230
1
0
SOLID
5
2F9
100
AcDbEntity
8
SK2
62
256
6
ByLayer
370
-1
48
1
60
0
100
AcDbTrace
10
200
20
-48.35
30
0
11
195.825003
21
-49.275575
31
0
12
195.824997
22
-47.424425
32
0
13
200
23
-48.35
33
0
39
0
210
0
220
0
230
1
0
ENDBLK
5
2FB
100
AcDbEntity
8
0
100
AcDbBlockEnd
0
BLOCK
5
305
100
AcDbEntity
8
0
100
AcDbBlockBegin
2
DimnDraft3D5
70
0
10
0
20
0
30
0
3
DimnDraft3D5
0
MTEXT
5
2FE
100
AcDbEntity
8
SK2
62
256
6
ByLayer
370
-1
48
1
60
0
100
AcDbMText
10
-59.164798
20
5.246053
30
0
210
0
220
0
230
1
1
\W01.000;\fsimplex.shx,bigfont.shx;63 
40
4.5
41
0
44
1.084337
50
90
71
7
72
5
7
DEFAULT
0
MTEXT
5
2FF
100
AcDbEntity
8
SK2
62
256
6
ByLayer
370
-1
48
1
60
0
100
AcDbMText
10
-59.164798
20
-8.253947
30
0
210
0
220
0
230
1
1
\W01.000;\fsimplex.shx,bigfont.shx;%%c 
40
4.5
41
0
44
1.084337
50
90
71
7
72
5
7
DEFAULT
0
LINE
5
300
100
AcDbEntity
8
SK2
62
256
6
ByLayer
370
-1
48
1
60
0
100
AcDbLine
10
-1.5875
20
-31.5
30
0
11
-60.089798
21
-31.5
31
0
39
0
210
0
220
0
230
1
0
LINE
5
301
100
AcDbEntity
8
SK2
62
256
6
ByLayer
370
-1
48
1
60
0
100
AcDbLine
10
-1.5875
20
31.5
30
0
11
-60.089798
21
31.5
31
0
39
0
210
0
220
0
230
1
0
LINE
5
302
100
AcDbEntity
8
SK2
62
256
6
ByLayer
370
-1
48
1
60
0
100
AcDbLine
10
-56.914798
20
-31.5
30
0
11
-56.914798
21
31.5
31
0
39
0
210
0
220
0
230
1
0
SOLID
5
303
100
AcDbEntity
8
SK2
62
256
6
ByLayer
370
-1
48
1
60
0
100
AcDbTrace
10
-56.914798
20
-31.5
30
0
11
-57.840373
21
-27.325003
31
0
12
-55.989223
22
-27.324997
32
0
13
-56.914798
23
-31.5
33
0
39
0
210
0
220
0
230
1
0
SOLID
5
304
100
AcDbEntity
8
SK2
62
256
6
ByLayer
370
-1
48
1
60
0
100
AcDbTrace
10
-56.914798
20
31.5
30
0
11
-55.989223
21
27.325003
31
0
12
-57.840373
22
27.324997
32
0
13
-56.914798
23
31.5
33
0
39
0
210
0
220
0
230
1
0
ENDBLK
5
306
100
AcDbEntity
8
0
100
AcDbBlockEnd
0
BLOCK
5
310
100
AcDbEntity
8
0
100
AcDbBlockBegin
2
DimnDraft3D6
70
0
10
0
20
0
30
0
3
DimnDraft3D6
0
MTEXT
5
309
100
AcDbEntity
8
2
62
256
6
ByLayer
370
-1
48
1
60
0
100
AcDbMText
10
224.725
20
5.009211
30
0
210
0
220
0
230
1
1
\W01.000;\fsimplex.shx,bigfont.shx;42 
40
4.5
41
0
44
1.084337
50
90
71
7
72
5
7
DEFAULT
0
MTEXT
5
30A
100
AcDbEntity
8
2
62
256
6
ByLayer
370
-1
48
1
60
0
100
AcDbMText
10
224.725
20
-8.490789
30
0
210
0
220
0
230
1
1
\W01.000;\fsimplex.shx,bigfont.shx;%%c 
40
4.5
41
0
44
1.084337
50
90
71
7
72
5
7
DEFAULT
0
LINE
5
30B
100
AcDbEntity
8
2
62
256
6
ByLayer
370
-1
48
1
60
0
100
AcDbLine
10
201.5875
20
21
30
0
11
230.15
21
21
31
0
39
0
210
0
220
0
230
1
0
LINE
5
30C
100
AcDbEntity
8
2
62
256
6
ByLayer
370
-1
48
1
60
0
100
AcDbLine
10
201.5875
20
-21
30
0
11
230.15
21
-21
31
0
39
0
210
0
220
0
230
1
0
LINE
5
30D
100
AcDbEntity
8
2
62
256
6
ByLayer
370
-1
48
1
60
0
100
AcDbLine
10
226.975
20
21
30
0
11
226.975
21
-21
31
0
39
0
210
0
220
0
230
1
0
SOLID
5
30E
100
AcDbEntity
8
2
62
256
6
ByLayer
370
-1
48
1
60
0
100
AcDbTrace
10
226.975
20
21
30
0
11
227.900575
21
16.825003
31
0
12
226.049425
22
16.824997
32
0
13
226.975
23
21
33
0
39
0
210
0
220
0
230
1
0
SOLID
5
30F
100
AcDbEntity
8
2
62
256
6
ByLayer
370
-1
48
1
60
0
100
AcDbTrace
10
226.975
20
-21
30
0
11
226.049425
21
-16.825003
31
0
12
227.900575
22
-16.824997
32
0
13
226.975
23
-21
33
0
39
0
210
0
220
0
230
1
0
ENDBLK
5
311
100
AcDbEntity
8
0
100
AcDbBlockEnd
0
ENDSEC
0
SECTION
2
ENTITIES
0
ARC
5
FD
100
AcDbEntity
8
1
62
256
6
ByLayer
370
-1
48
1
60
0
100
AcDbCircle
39
0
10
-46.015785
20
30.55
30
0
40
0.8
210
0
220
0
230
-1
100
AcDbArc
50
270
51
345
0
ARC
5
FE
100
AcDbEntity
8
1
62
256
6
ByLayer
370
-1
48
1
60
0
100
AcDbCircle
39
0
10
-46.015785
20
-30.55
30
0
40
0.8
210
0
220
0
230
-1
100
AcDbArc
50
15
51
90
0
ELLIPSE
5
FF
100
AcDbEntity
8
1
62
256
6
ByLayer
370
-1
48
1
60
0
100
AcDbEllipse
10
199.957552
20
0
30
0
11
-1.67756230079836
21
-20.3988982339758
31
0
210
0
220
0
230
-1
40
0.126383
41
0.034516212961432
42
1.08460958367285
0
ELLIPSE
5
100
100
AcDbEntity
8
1
62
256
6
ByLayer
370
-1
48
1
60
0
100
AcDbEllipse
10
187.435984
20
14.998574
30
0
11
-0.773306871601872
21
-0.824449221763938
31
0
210
0
220
0
230
-1
40
0.04503
41
-0.757075829028811
42
-0.704857689682125
0
ELLIPSE
5
101
100
AcDbEntity
8
1
62
256
6
ByLayer
370
-1
48
1
60
0
100
AcDbEllipse
10
183.004099
20
0
30
0
11
-104.264669197042
21
1.29475919420988
31
0
210
0
220
0
230
-1
40
0.195261
41
-1.58939825588276
42
-1.43576988617667
0
ELLIPSE
5
102
100
AcDbEntity
8
1
62
256
6
ByLayer
370
-1
48
1
60
0
100
AcDbEllipse
10
55.7
20
12.571103
30
0
11
-10
21
1.01063905508236E-14
31
0
210
0
220
0
230
1
40
0.722124
41
-1.52085244626204
42
-0.0174049248616153
0
ELLIPSE
5
103
100
AcDbEntity
8
1
62
256
6
ByLayer
370
-1
48
1
60
0
100
AcDbEllipse
10
193.327869
20
14.250784
30
0
11
-2.14373874554696E-15
21
-2
31
0
210
0
220
0
230
1
40
0.996195
41
1.57079654872778
42
-2.28776637790648
0
ELLIPSE
5
104
100
AcDbEntity
8
1
62
256
6
ByLayer
370
-1
48
1
60
0
100
AcDbEllipse
10
193.327869
20
14.250784
30
0
11
-2.14373874554696E-15
21
-2
31
0
210
0
220
0
230
1
40
0.996195
41
1.43845662458553
42
1.57079604872776
0
ELLIPSE
5
105
100
AcDbEntity
8
1
62
256
6
ByLayer
370
-1
48
1
60
0
100
AcDbEllipse
10
193.098144
20
-4.495967
30
0
11
1.85
21
0
31
0
210
0
220
0
230
1
40
0.998135
41
0.0676426755951594
42
2.99973060462584
0
ELLIPSE
5
106
100
AcDbEntity
8
1
62
256
6
ByLayer
370
-1
48
1
60
0
100
AcDbEllipse
10
26.347154
20
0
30
0
11
-14.7536831606552
21
-31.0932549155798
31
0
210
0
220
0
230
-1
40
0.341999
41
0.157806186645431
42
1.09123958575286
0
ELLIPSE
5
107
100
AcDbEntity
8
1
62
256
6
ByLayer
370
-1
48
1
60
0
100
AcDbEllipse
10
198.508629
20
0
30
0
11
-0.952800127465761
21
20.3996794772156
31
0
210
0
220
0
230
-1
40
0.12002
41
-1.53085856262946
42
-1.4021604532655
0
ELLIPSE
5
108
100
AcDbEntity
8
1
62
256
6
ByLayer
370
-1
48
1
60
0
100
AcDbEllipse
10
179.877763
20
9.786868
30
0
11
-0.313595748497236
21
-0.735973984950867
31
0
210
0
220
0
230
1
40
0.080227
41
0.0341712377316146
42
1.60496756452651
0
ELLIPSE
5
109
100
AcDbEntity
8
1
62
256
6
ByLayer
370
-1
48
1
60
0
100
AcDbEllipse
10
193.528328
20
14.250784
30
0
11
2.34290668463255E-15
21
2
31
0
210
0
220
0
230
1
40
0.996195
41
0.0503637830432939
42
1.49510350031179
0
ELLIPSE
5
10A
100
AcDbEntity
8
1
62
256
6
ByLayer
370
-1
48
1
60
0
100
AcDbEllipse
10
188.338658
20
12.911368
30
0
11
2.46005201886418E-15
21
2.1
31
0
210
0
220
0
230
1
40
0.996195
41
0.93911116205501
42
1.60570291183478
0
ELLIPSE
5
10B
100
AcDbEntity
8
1
62
256
6
ByLayer
370
-1
48
1
60
0
100
AcDbEllipse
10
47.60377
20
0
30
0
11
-362.806594279079
21
-19.7280369275212
31
0
210
0
220
0
230
-1
40
0.014313
41
-1.99120491064038
42
-1.95828027077099
0
ELLIPSE
5
10C
100
AcDbEntity
8
1
62
256
6
ByLayer
370
-1
48
1
60
0
100
AcDbEllipse
10
181.180494
20
14.700231
30
0
11
-0.686728770000716
21
-9.8761532793114
31
0
210
0
220
0
230
1
40
0.199545
41
0.0748284667233953
42
0.829146254503315
0
ELLIPSE
5
10D
100
AcDbEntity
8
1
62
256
6
ByLayer
370
-1
48
1
60
0
100
AcDbEllipse
10
198.618467
20
-10.398136
30
0
11
-0.0775054657222443
21
-0.878086631922185
31
0
210
0
220
0
230
-1
40
0.115224
41
0.00370845515475244
42
1.57450478196079
0
ELLIPSE
5
10E
100
AcDbEntity
8
1
62
256
6
ByLayer
370
-1
48
1
60
0
100
AcDbEllipse
10
26.347154
20
0
30
0
11
-14.7536831606552
21
31.0932549155797
31
0
210
0
220
0
230
-1
40
0.341999
41
-1.09123958575286
42
-0.157806186645432
0
ELLIPSE
5
10F
100
AcDbEntity
8
1
62
256
6
ByLayer
370
-1
48
1
60
0
100
AcDbEllipse
10
193.93796
20
14.250784
30
0
11
2.05004334905348E-15
21
1.75
31
0
210
0
220
0
230
1
40
0.996195
41
0.117809954735435
42
1.57079669158491
0
ELLIPSE
5
110
100
AcDbEntity
8
1
62
256
6
ByLayer
370
-1
48
1
60
0
100
AcDbEllipse
10
193.93796
20
14.250784
30
0
11
2.05004334905348E-15
21
1.75
31
0
210
0
220
0
230
1
40
0.996195
41
1.57079612015634
42
2.93090943872902
0
ELLIPSE
5
111
100
AcDbEntity
8
1
62
256
6
ByLayer
370
-1
48
1
60
0
100
AcDbEllipse
10
162.708902
20
15.984631
30
0
11
-27.5041596598471
21
11.8310580962906
31
0
210
0
220
0
230
-1
40
0.011466
41
2.15820590034942
42
2.22342337310923
0
ELLIPSE
5
112
100
AcDbEntity
8
1
62
256
6
ByLayer
370
-1
48
1
60
0
100
AcDbEllipse
10
188.652419
20
12.911368
30
0
11
-2.25092568282431E-15
21
-2.1
31
0
210
0
220
0
230
1
40
0.996195
41
-2.15719865040108
42
-1.53588974175501
0
ELLIPSE
5
113
100
AcDbEntity
8
1
62
256
6
ByLayer
370
-1
48
1
60
0
100
AcDbEllipse
10
160.47104
20
16.137121
30
0
11
-21.4674864585985
21
11.1461651231752
31
0
210
0
220
0
230
-1
40
0.113086
41
-2.60478869664148
42
-1.77999917801831
0
ELLIPSE
5
114
100
AcDbEntity
8
1
62
256
6
ByLayer
370
-1
48
1
60
0
100
AcDbEllipse
10
200.821554
20
0
30
0
11
-48.7133774725942
21
19.7573188328355
31
0
210
0
220
0
230
-1
40
0.104287
41
-1.12324671938517
42
-0.706967650410984
0
ELLIPSE
5
115
100
AcDbEntity
8
1
62
256
6
ByLayer
370
-1
48
1
60
0
100
AcDbEllipse
10
197.371964
20
-13.097437
30
0
11
-0.209644401796263
21
-2.53003269824635
31
0
210
0
220
0
230
-1
40
0.124352
41
0
42
6.28318530717959
0
ELLIPSE
5
116
100
AcDbEntity
8
1
62
256
6
ByLayer
370
-1
48
1
60
0
100
AcDbEllipse
10
181.064447
20
7.793411
30
0
11
-16.8142494948297
21
-0.52897067010924
31
0
210
0
220
0
230
-1
40
0.010628
41
-1.89659185301392
42
-1.8874173634601
0
ELLIPSE
5
117
100
AcDbEntity
8
1
62
256
6
ByLayer
370
-1
48
1
60
0
100
AcDbEllipse
10
193.098144
20
-4.495967
30
0
11
-1.425
21
1.44016065349237E-15
31
0
210
0
220
0
230
1
40
0.998135
41
0
42
6.28318530717959
0
ELLIPSE
5
118
100
AcDbEntity
8
1
62
256
6
ByLayer
370
-1
48
1
60
0
100
AcDbEllipse
10
186.781894
20
0
30
0
11
-99.935136460614
21
-1.13236472190059E-13
31
0
210
0
220
0
230
-1
40
0.204132
41
1.38153194174525
42
1.53559938847299
0
ELLIPSE
5
119
100
AcDbEntity
8
1
62
256
6
ByLayer
370
-1
48
1
60
0
100
AcDbEllipse
10
189.414084
20
0
30
0
11
-233.173066987221
21
-2.64208330027902E-13
31
0
210
0
220
0
230
-1
40
0.087489
41
1.54886665665583
42
1.55808893623776
0
ELLIPSE
5
11A
100
AcDbEntity
8
1
62
256
6
ByLayer
370
-1
48
1
60
0
100
AcDbEllipse
10
186.32273
20
8.587801
30
0
11
0.0280261150489094
21
-0.799508934831416
31
0
210
0
220
0
230
1
40
0.087103
41
0.0631426160417683
42
1.56774302595899
0
ELLIPSE
5
11B
100
AcDbEntity
8
1
62
256
6
ByLayer
370
-1
48
1
60
0
100
AcDbEllipse
10
193.098144
20
-4.675272
30
0
11
1.425
21
0
31
0
210
0
220
0
230
1
40
0.998135
41
0.0631266638635702
42
3.07856469988978
0
ELLIPSE
5
11C
100
AcDbEntity
8
1
62
256
6
ByLayer
370
-1
48
1
60
0
100
AcDbEllipse
10
193.098144
20
-4.675272
30
0
11
1.425
21
0
31
0
210
0
220
0
230
1
40
0.998135
41
-3.14159232533694
42
0
0
ELLIPSE
5
11D
100
AcDbEntity
8
1
62
256
6
ByLayer
370
-1
48
1
60
0
100
AcDbEllipse
10
-2.347154
20
0
30
0
11
-14.7536831606564
21
-31.0932549155813
31
0
210
0
220
0
230
-1
40
0.341999
41
-2.98378646694437
42
-2.05035306783697
0
ELLIPSE
5
11E
100
AcDbEntity
8
1
62
256
6
ByLayer
370
-1
48
1
60
0
100
AcDbEllipse
10
188.455126
20
9.563409
30
0
11
2.46005201886418E-15
21
2.1
31
0
210
0
220
0
230
1
40
0.996195
41
1.60570291183478
42
2.05006495228011
0
ELLIPSE
5
11F
100
AcDbEntity
8
1
62
256
6
ByLayer
370
-1
48
1
60
0
100
AcDbEllipse
10
198.502905
20
0
30
0
11
-1.2378371197018
21
20.3994673552715
31
0
210
0
220
0
230
-1
40
0.119092
41
-2.03936357022468
42
-1.52923788858361
0
ELLIPSE
5
120
100
AcDbEntity
8
1
62
256
6
ByLayer
370
-1
48
1
60
0
100
AcDbEllipse
10
187.358154
20
12.865999
30
0
11
-0.799516360141551
21
-0.0278134835287907
31
0
210
0
220
0
230
1
40
0.003042
41
0.0872135714651397
42
1.03850214476358
0
ELLIPSE
5
121
100
AcDbEntity
8
1
62
256
6
ByLayer
370
-1
48
1
60
0
100
AcDbEllipse
10
186.839404
20
8.736636
30
0
11
-11.1962980191649
21
0.588986049616106
31
0
210
0
220
0
230
-1
40
0.000362
41
-3.13574976872024
42
-3.13471602798227
0
ELLIPSE
5
122
100
AcDbEntity
8
1
62
256
6
ByLayer
370
-1
48
1
60
0
100
AcDbEllipse
10
187.083879
20
3.8E-05
30
0
11
-0.660517005331016
21
20.3998805708134
31
0
210
0
220
0
230
-1
40
0.087398
41
0.0155372028230488
42
0.0241082823105993
0
ELLIPSE
5
123
100
AcDbEntity
8
1
62
256
6
ByLayer
370
-1
48
1
60
0
100
AcDbEllipse
10
185.794276
20
23.778542
30
0
11
-1.71499099643757E-14
21
-16
31
0
210
0
220
0
230
1
40
0.996195
41
-0.401425727958692
42
-6.79213922309397E-06
0
ELLIPSE
5
124
100
AcDbEntity
8
1
62
256
6
ByLayer
370
-1
48
1
60
0
100
AcDbEllipse
10
193.528328
20
14.250784
30
0
11
2.05004334905348E-15
21
1.75
31
0
210
0
220
0
230
1
40
0.996195
41
-1.92834881270219
42
0
0
ELLIPSE
5
125
100
AcDbEntity
8
1
62
256
6
ByLayer
370
-1
48
1
60
0
100
AcDbEllipse
10
193.528328
20
14.250784
30
0
11
2.05004334905348E-15
21
1.75
31
0
210
0
220
0
230
1
40
0.996195
41
0
42
1.57079639567442
0
ELLIPSE
5
126
100
AcDbEntity
8
1
62
256
6
ByLayer
370
-1
48
1
60
0
100
AcDbEllipse
10
193.528328
20
14.250784
30
0
11
2.05004334905348E-15
21
1.75
31
0
210
0
220
0
230
1
40
0.996195
41
1.57079612015634
42
2.65012947763562
0
ELLIPSE
5
127
100
AcDbEntity
8
1
62
256
6
ByLayer
370
-1
48
1
60
0
100
AcDbEllipse
10
198.112272
20
0.059771
30
0
11
-0.0378370041576948
21
0.80176591056426
31
0
210
0
220
0
230
-1
40
0.119717
41
-1.49990852005551
42
0.0708878067310803
0
ELLIPSE
5
128
100
AcDbEntity
8
1
62
256
6
ByLayer
370
-1
48
1
60
0
100
AcDbEllipse
10
183.16723
20
14.8
30
0
11
1.17145334231631E-16
21
0.100000000000003
31
0
210
0
220
0
230
1
40
0.979794
41
3.07356871940041
42
-1.5707963267949
0
ELLIPSE
5
129
100
AcDbEntity
8
1
62
256
6
ByLayer
370
-1
48
1
60
0
100
AcDbEllipse
10
-2.347154
20
0
30
0
11
-14.753683160657
21
31.093254915582
31
0
210
0
220
0
230
-1
40
0.341999
41
2.05035306783699
42
2.98378646694437
0
ELLIPSE
5
12A
100
AcDbEntity
8
1
62
256
6
ByLayer
370
-1
48
1
60
0
100
AcDbEllipse
10
185.864001
20
23.778542
30
0
11
1.78060908032074E-14
21
15.2
31
0
210
0
220
0
230
1
40
0.996195
41
2.7401669256311
42
-3.1066860685499
0
ELLIPSE
5
12B
100
AcDbEntity
8
1
62
256
6
ByLayer
370
-1
48
1
60
0
100
AcDbEllipse
10
187.474623
20
9.51804
30
0
11
-0.799516360141551
21
-0.0278134835287907
31
0
210
0
220
0
230
1
40
0.003042
41
0.087213571465873
42
1.03850214476361
0
ELLIPSE
5
12C
100
AcDbEntity
8
1
62
256
6
ByLayer
370
-1
48
1
60
0
100
AcDbEllipse
10
188.768887
20
9.563409
30
0
11
-2.25092568282431E-15
21
-2.1
31
0
210
0
220
0
230
1
40
0.996195
41
-1.53588974175501
42
-0.132996608383595
0
ELLIPSE
5
12D
100
AcDbEntity
8
1
62
256
6
ByLayer
370
-1
48
1
60
0
100
AcDbEllipse
10
98.183502
20
20.471347
30
0
11
-86.6214504005688
21
5.96334773101598
31
0
210
0
220
0
230
-1
40
0.114018
41
-2.94390586592626
42
-2.7236042212576
0
ELLIPSE
5
12E
100
AcDbEntity
8
1
62
256
6
ByLayer
370
-1
48
1
60
0
100
AcDbEllipse
10
181.180494
20
14.700231
30
0
11
-0.686728770000716
21
-9.8761532793114
31
0
210
0
220
0
230
1
40
0.199545
41
1.37913453058826
42
1.58467061948264
0
ELLIPSE
5
12F
100
AcDbEntity
8
1
62
256
6
ByLayer
370
-1
48
1
60
0
100
AcDbEllipse
10
188.893968
20
9.563409
30
0
11
-1.83236116208167
21
-1.63166900511984
31
0
210
0
220
0
230
-1
40
0.721468
41
-1.3015258845947
42
-0.0906202832451351
0
ELLIPSE
5
130
100
AcDbEntity
8
1
62
256
6
ByLayer
370
-1
48
1
60
0
100
AcDbEllipse
10
166.5
20
27.2
30
0
11
-15.9999999716119
21
-1.81295950152671E-14
31
0
210
0
220
0
230
-1
40
1
41
-1.39466322635359
42
-1.31454802277282
0
ELLIPSE
5
131
100
AcDbEntity
8
1
62
256
6
ByLayer
370
-1
48
1
60
0
100
AcDbEllipse
10
198.027341
20
8.949164
30
0
11
-0.0372688212895958
21
0.803011237314439
31
0
210
0
220
0
230
-1
40
0.118778
41
2.3777579156686
42
-3.13438183129109
0
ELLIPSE
5
132
100
AcDbEntity
8
1
62
256
6
ByLayer
370
-1
48
1
60
0
100
AcDbEllipse
10
193.530036
20
14.528646
30
0
11
2.34290668463255E-15
21
2
31
0
210
0
220
0
230
1
40
0.996195
41
0.0349502378747978
42
1.57079654872776
0
ELLIPSE
5
133
100
AcDbEntity
8
1
62
256
6
ByLayer
370
-1
48
1
60
0
100
AcDbEllipse
10
193.530036
20
14.528646
30
0
11
2.34290668463255E-15
21
2
31
0
210
0
220
0
230
1
40
0.996195
41
1.57079654872776
42
3.10055573146277
0
ELLIPSE
5
134
100
AcDbEntity
8
1
62
256
6
ByLayer
370
-1
48
1
60
0
100
AcDbEllipse
10
194.322137
20
10.749591
30
0
11
-4.03443321277421E-16
21
-0.376392246597646
31
0
210
0
220
0
230
1
40
0.996195
41
-2.84631939108306
42
0.0349065850398532
0
ELLIPSE
5
135
100
AcDbEntity
8
1
62
256
6
ByLayer
370
-1
48
1
60
0
100
AcDbEllipse
10
188.875093
20
17.849417
30
0
11
0.0874689691203328
21
0.441417239628253
31
0
210
0
220
0
230
1
40
0.085506
41
-1.55385457642579
42
-0.910353467632269
0
ELLIPSE
5
136
100
AcDbEntity
8
1
62
256
6
ByLayer
370
-1
48
1
60
0
100
AcDbEllipse
10
189.85147
20
17.662161
30
0
11
-2.8940473064884E-16
21
-0.27
31
0
210
0
220
0
230
1
40
0.996195
41
-0.194895099806086
42
1.83550459668071
0
ELLIPSE
5
137
100
AcDbEntity
8
1
62
256
6
ByLayer
370
-1
48
1
60
0
100
AcDbEllipse
10
190.656325
20
10.740083
30
0
11
-0.358649081170716
21
0.271791899392534
31
0
210
0
220
0
230
1
40
0.052768
41
-2.28381636720067
42
-0.99681414961413
0
ELLIPSE
5
138
100
AcDbEntity
8
1
62
256
6
ByLayer
370
-1
48
1
60
0
100
AcDbEllipse
10
190.093057
20
11.194167
30
0
11
-5.14497298931271E-16
21
-0.48
31
0
210
0
220
0
230
1
40
0.996195
41
0.920472169598922
42
2.77549784972785
0
ELLIPSE
5
139
100
AcDbEntity
8
1
62
256
6
ByLayer
370
-1
48
1
60
0
100
AcDbEllipse
10
197.016358
20
13.645604
30
0
11
2.92863335579068E-16
21
0.249999999999999
31
0
210
0
220
0
230
1
40
0.996195
41
-1.53588974175495
42
1.34533623436813
0
ELLIPSE
5
13A
100
AcDbEntity
8
1
62
256
6
ByLayer
370
-1
48
1
60
0
100
AcDbEllipse
10
196.68995
20
15.605351
30
0
11
0.191406102844321
21
0.0579974464433487
31
0
210
0
220
0
230
1
40
0.025362
41
-2.17136982970182
42
-1.48728859790621
0
ELLIPSE
5
13B
100
AcDbEntity
8
1
62
256
6
ByLayer
370
-1
48
1
60
0
100
AcDbEllipse
10
189.599461
20
18.595398
30
0
11
3.16292402425394E-16
21
0.27
31
0
210
0
220
0
230
1
40
0.996195
41
-0.750491578357659
42
1.83550459668071
0
ELLIPSE
5
13C
100
AcDbEntity
8
1
62
256
6
ByLayer
370
-1
48
1
60
0
100
AcDbEllipse
10
189.991147
20
11.084464
30
0
11
1.1948824091626E-15
21
1.02
31
0
210
0
220
0
230
1
40
0.996195
41
1.74759996643896
42
-2.42145532631401
0
ELLIPSE
5
13D
100
AcDbEntity
8
1
62
256
6
ByLayer
370
-1
48
1
60
0
100
AcDbEllipse
10
190.141466
20
11.939878
30
0
11
-0.048235363267179
21
-0.447407364412437
31
0
210
0
220
0
230
1
40
0.086657
41
1.58013866027564
42
2.22363976906849
0
ELLIPSE
5
13E
100
AcDbEntity
8
1
62
256
6
ByLayer
370
-1
48
1
60
0
100
AcDbEllipse
10
189.991147
20
11.084464
30
0
11
5.62297604311812E-16
21
0.48
31
0
210
0
220
0
230
1
40
0.996195
41
1.74759996643897
42
-2.42145532631398
0
ELLIPSE
5
13F
100
AcDbEntity
8
1
62
256
6
ByLayer
370
-1
48
1
60
0
100
AcDbEllipse
10
194.326059
20
10.749591
30
0
11
2.9286333557907E-16
21
0.250000000000001
31
0
210
0
220
0
230
1
40
0.996195
41
0.295273262506744
42
-3.10668606855002
0
ELLIPSE
5
140
100
AcDbEntity
8
1
62
256
6
ByLayer
370
-1
48
1
60
0
100
AcDbEllipse
10
190.093057
20
11.194167
30
0
11
-2.8940473064884E-16
21
-0.27
31
0
210
0
220
0
230
1
40
0.996195
41
-0.750491578357515
42
2.39110107523228
0
ELLIPSE
5
141
100
AcDbEntity
8
1
62
256
6
ByLayer
370
-1
48
1
60
0
100
AcDbEllipse
10
196.94173
20
15.678101
30
0
11
-4.03443321277419E-16
21
-0.376392246597645
31
0
210
0
220
0
230
1
40
0.996195
41
-1.27552306428833
42
1.60570291183476
0
ELLIPSE
5
142
100
AcDbEntity
8
1
62
256
6
ByLayer
370
-1
48
1
60
0
100
AcDbEllipse
10
189.733824
20
11.501066
30
0
11
-0.0222098882935348
21
0.636012199418081
31
0
210
0
220
0
230
-1
40
0.061592
41
1.57294745550909
42
1.60954606681994
0
ELLIPSE
5
143
100
AcDbEntity
8
1
62
256
6
ByLayer
370
-1
48
1
60
0
100
AcDbEllipse
10
189.255648
20
10.952551
30
0
11
3.16292402425394E-16
21
0.27
31
0
210
0
220
0
230
1
40
0.996195
41
-1.39399268715084
42
1.74759996643917
0
ELLIPSE
5
144
100
AcDbEntity
8
1
62
256
6
ByLayer
370
-1
48
1
60
0
100
AcDbEllipse
10
193.177056
20
14.528646
30
0
11
4.18631474685054E-15
21
3.57360775340235
31
0
210
0
220
0
230
1
40
0.996195
41
-1.27552306428827
42
-0.225460092426846
0
ELLIPSE
5
145
100
AcDbEntity
8
1
62
256
6
ByLayer
370
-1
48
1
60
0
100
AcDbEllipse
10
193.177056
20
14.528646
30
0
11
3.16169255543626E-15
21
2.69894876836046
31
0
210
0
220
0
230
1
40
0.996195
41
0
42
6.28318530717959
0
ELLIPSE
5
146
100
AcDbEntity
8
1
62
256
6
ByLayer
370
-1
48
1
60
0
100
AcDbEllipse
10
194.034536
20
18.628524
30
0
11
0.00700652876222734
21
-0.199877233707854
31
0
210
0
220
0
230
1
40
0.087103
41
1.56774302595899
42
2.25182425775442
0
ELLIPSE
5
147
100
AcDbEntity
8
1
62
256
6
ByLayer
370
-1
48
1
60
0
100
AcDbEllipse
10
193.987552
20
18.135004
30
0
11
0.0448731734378583
21
0.194900996163734
31
0
210
0
220
0
230
1
40
0.08495
41
-2.23532153831711
42
-1.55124030652268
0
ELLIPSE
5
148
100
AcDbEntity
8
1
62
256
6
ByLayer
370
-1
48
1
60
0
100
AcDbEllipse
10
190.061681
20
11.194167
30
0
11
-0.307524634367036
21
-0.328524883772022
31
0
210
0
220
0
230
1
40
0.063742
41
0.986891685634157
42
2.27389390322011
0
ELLIPSE
5
149
100
AcDbEntity
8
1
62
256
6
ByLayer
370
-1
48
1
60
0
100
AcDbEllipse
10
189.820094
20
17.662161
30
0
11
0.434438947393044
21
0.117314964893762
31
0
210
0
220
0
230
1
40
0.022802
41
-1.48655483674051
42
-0.843053727946601
0
ELLIPSE
5
14A
100
AcDbEntity
8
1
62
256
6
ByLayer
370
-1
48
1
60
0
100
AcDbEllipse
10
189.733824
20
11.501066
30
0
11
-0.634800953411886
21
-0.022167577049177
31
0
210
0
220
0
230
-1
40
0.002159
41
-2.27604469504839
42
-1.63254358665671
0
ELLIPSE
5
14B
100
AcDbEntity
8
1
62
256
6
ByLayer
370
-1
48
1
60
0
100
AcDbEllipse
10
196.844383
20
18.476395
30
0
11
-4.03443321277421E-16
21
-0.376392246597646
31
0
210
0
220
0
230
1
40
0.996195
41
1.60570291183476
42
-3.10668606854986
0
ELLIPSE
5
14C
100
AcDbEntity
8
1
62
256
6
ByLayer
370
-1
48
1
60
0
100
AcDbEllipse
10
190.452504
20
10.520677
30
0
11
-0.297408541509673
21
0.337710170763466
31
0
210
0
220
0
230
1
40
0.065516
41
-2.27193125321725
42
-0.984929035630357
0
ELLIPSE
5
14D
100
AcDbEntity
8
1
62
256
6
ByLayer
370
-1
48
1
60
0
100
AcDbEllipse
10
193.366675
20
14.528646
30
0
11
-2.14373874554696E-15
21
-2
31
0
210
0
220
0
230
1
40
0.996195
41
-3.14159250506939
42
0
0
ELLIPSE
5
14E
100
AcDbEntity
8
1
62
256
6
ByLayer
370
-1
48
1
60
0
100
AcDbEllipse
10
193.366675
20
14.528646
30
0
11
-2.14373874554696E-15
21
-2
31
0
210
0
220
0
230
1
40
0.996195
41
0
42
0.373555078115227
0
ELLIPSE
5
14F
100
AcDbEntity
8
1
62
256
6
ByLayer
370
-1
48
1
60
0
100
AcDbEllipse
10
193.221805
20
14.528646
30
0
11
-2.85443725674398E-15
21
-2.66304582372577
31
0
210
0
220
0
230
1
40
0.996195
41
2.21550992406688
42
0
0
ELLIPSE
5
150
100
AcDbEntity
8
1
62
256
6
ByLayer
370
-1
48
1
60
0
100
AcDbEllipse
10
193.221805
20
14.528646
30
0
11
-2.85443725674398E-15
21
-2.66304582372577
31
0
210
0
220
0
230
1
40
0.996195
41
0
42
0.926082659473384
0
ELLIPSE
5
151
100
AcDbEntity
8
1
62
256
6
ByLayer
370
-1
48
1
60
0
100
AcDbEllipse
10
189.498413
20
11.64825
30
0
11
1.44088761104902E-15
21
1.23
31
0
210
0
220
0
230
1
40
0.996195
41
-2.42145532631404
42
-2.22112048399093
0
ELLIPSE
5
152
100
AcDbEntity
8
1
62
256
6
ByLayer
370
-1
48
1
60
0
100
AcDbEllipse
10
197.079771
20
18.48512
30
0
11
0.199879090035388
21
0.0069533708821979
31
0
210
0
220
0
230
1
40
0.003042
41
-1.48358275532868
42
-0.799501523531673
0
ELLIPSE
5
153
100
AcDbEntity
8
1
62
256
6
ByLayer
370
-1
48
1
60
0
100
AcDbEllipse
10
197.177118
20
15.686826
30
0
11
0.199879090035388
21
0.0069533708821979
31
0
210
0
220
0
230
1
40
0.003042
41
-1.48358275532896
42
-0.799501523532692
0
ELLIPSE
5
154
100
AcDbEntity
8
1
62
256
6
ByLayer
370
-1
48
1
60
0
100
AcDbEllipse
10
190.770226
20
17.4701
30
0
11
0.307524634367037
21
0.328524883772021
31
0
210
0
220
0
230
1
40
0.063742
41
-2.15470096795564
42
-0.867698750369066
0
ELLIPSE
5
155
100
AcDbEntity
8
1
62
256
6
ByLayer
370
-1
48
1
60
0
100
AcDbEllipse
10
190.172842
20
11.939878
30
0
11
3.16292402425394E-16
21
0.27
31
0
210
0
220
0
230
1
40
0.996195
41
-0.106990469564192
42
0.820304748434656
0
ELLIPSE
5
156
100
AcDbEntity
8
1
62
256
6
ByLayer
370
-1
48
1
60
0
100
AcDbEllipse
10
196.848305
20
18.476395
30
0
11
-2.67967343193372E-16
21
-0.250000000000001
31
0
210
0
220
0
230
1
40
0.996195
41
1.60570291183485
42
-3.10668606854991
0
ELLIPSE
5
157
100
AcDbEntity
8
1
62
256
6
ByLayer
370
-1
48
1
60
0
100
AcDbEllipse
10
197.109783
20
10.84731
30
0
11
-4.03443321277421E-16
21
-0.376392246597646
31
0
210
0
220
0
230
1
40
0.996195
41
0.0349065850400094
42
1.60570291183476
0
ELLIPSE
5
158
100
AcDbEntity
8
1
62
256
6
ByLayer
370
-1
48
1
60
0
100
AcDbEllipse
10
189.820094
20
17.662161
30
0
11
0.0874689691203328
21
0.441417239628253
31
0
210
0
220
0
230
1
40
0.085506
41
-2.19735568521937
42
-1.55385457642579
0
ELLIPSE
5
159
100
AcDbEntity
8
1
62
256
6
ByLayer
370
-1
48
1
60
0
100
AcDbEllipse
10
193.180978
20
14.528646
30
0
11
4.33437736657022E-15
21
3.7
31
0
210
0
220
0
230
1
40
0.996195
41
-1.27552306428828
42
-0.225460092426844
0
ELLIPSE
5
15A
100
AcDbEntity
8
1
62
256
6
ByLayer
370
-1
48
1
60
0
100
AcDbEllipse
10
189.568085
20
18.595398
30
0
11
-0.844368655853249
21
1.40519245665206
31
0
210
0
220
0
230
-1
40
0.020508
41
1.58311883810248
42
2.22661994683174
0
ELLIPSE
5
15B
100
AcDbEntity
8
1
62
256
6
ByLayer
370
-1
48
1
60
0
100
AcDbEllipse
10
194.056737
20
18.378677
30
0
11
-4.03443321277421E-16
21
-0.376392246597646
31
0
210
0
220
0
230
1
40
0.996195
41
-3.10668606854994
42
-0.225460092426993
0
ELLIPSE
5
15C
100
AcDbEntity
8
1
62
256
6
ByLayer
370
-1
48
1
60
0
100
AcDbEllipse
10
190.141466
20
11.939878
30
0
11
0.329692102348112
21
-0.306272946322855
31
0
210
0
220
0
230
1
40
0.05944
41
1.50689827555575
42
2.1503993843485
0
ELLIPSE
5
15D
100
AcDbEntity
8
1
62
256
6
ByLayer
370
-1
48
1
60
0
100
AcDbEllipse
10
194.236154
20
10.988772
30
0
11
0.0584036501431938
21
-0.191282549256202
31
0
210
0
220
0
230
1
40
0.083384
41
1.54534251077282
42
2.22942374256879
0
ELLIPSE
5
15E
100
AcDbEntity
8
1
62
256
6
ByLayer
370
-1
48
1
60
0
100
AcDbEllipse
10
189.820094
20
17.662161
30
0
11
-0.622555845387502
21
0.581525141287378
31
0
210
0
220
0
230
-1
40
0.031444
41
0.96094508785016
42
1.60444619679099
0
ELLIPSE
5
15F
100
AcDbEntity
8
1
62
256
6
ByLayer
370
-1
48
1
60
0
100
AcDbEllipse
10
196.945652
20
15.678101
30
0
11
-2.67967343193369E-16
21
-0.249999999999999
31
0
210
0
220
0
230
1
40
0.996195
41
-1.27552306428819
42
1.60570291183485
0
ELLIPSE
5
160
100
AcDbEntity
8
1
62
256
6
ByLayer
370
-1
48
1
60
0
100
AcDbEllipse
10
190.093057
20
11.194167
30
0
11
-1.09330676022895E-15
21
-1.02
31
0
210
0
220
0
230
1
40
0.996195
41
0.920472169598896
42
3.0346021840255
0
ELLIPSE
5
161
100
AcDbEntity
8
1
62
256
6
ByLayer
370
-1
48
1
60
0
100
AcDbEllipse
10
189.7652
20
11.501066
30
0
11
3.16292402425394E-16
21
0.27
31
0
210
0
220
0
230
1
40
0.996195
41
0.881327184779182
42
2.39110107523228
0
ELLIPSE
5
162
100
AcDbEntity
8
1
62
256
6
ByLayer
370
-1
48
1
60
0
100
AcDbEllipse
10
196.822182
20
18.726243
30
0
11
-0.00700652876222976
21
0.199877233707854
31
0
210
0
220
0
230
1
40
0.087103
41
-1.5738496276308
42
-0.889768395835263
0
ELLIPSE
5
163
100
AcDbEntity
8
1
62
256
6
ByLayer
370
-1
48
1
60
0
100
AcDbEllipse
10
197.247824
20
13.654329
30
0
11
0.199879090035388
21
0.0069533708821979
31
0
210
0
220
0
230
1
40
0.003042
41
-1.48358275532896
42
-0.799501523536358
0
ELLIPSE
5
164
100
AcDbEntity
8
1
62
256
6
ByLayer
370
-1
48
1
60
0
100
AcDbEllipse
10
193.248347
20
14.528646
30
0
11
-2.71334196247261E-15
21
-2.53141103887668
31
0
210
0
220
0
230
1
40
0.996195
41
0
42
6.28318530717959
0
ELLIPSE
5
165
100
AcDbEntity
8
1
62
256
6
ByLayer
370
-1
48
1
60
0
100
AcDbEllipse
10
189.733824
20
11.501066
30
0
11
0.307524634367037
21
0.328524883772021
31
0
210
0
220
0
230
1
40
0.063742
41
-2.15470096795564
42
-1.5477987720853
0
ELLIPSE
5
166
100
AcDbEntity
8
1
62
256
6
ByLayer
370
-1
48
1
60
0
100
AcDbEllipse
10
189.568085
20
18.595398
30
0
11
0.307524634367037
21
0.328524883772021
31
0
210
0
220
0
230
1
40
0.063742
41
-1.51119985916232
42
-0.867698750368665
0
ELLIPSE
5
167
100
AcDbEntity
8
1
62
256
6
ByLayer
370
-1
48
1
60
0
100
AcDbEllipse
10
189.568085
20
18.595398
30
0
11
0.434438947393044
21
0.117314964893762
31
0
210
0
220
0
230
1
40
0.022802
41
-2.13005594553377
42
-1.48655483674057
0
ELLIPSE
5
168
100
AcDbEntity
8
1
62
256
6
ByLayer
370
-1
48
1
60
0
100
AcDbEllipse
10
189.498413
20
11.64825
30
0
11
2.07347241589981E-15
21
1.77
31
0
210
0
220
0
230
1
40
0.996195
41
-2.421455326314
42
-2.22112048399092
0
ELLIPSE
5
169
100
AcDbEntity
8
1
62
256
6
ByLayer
370
-1
48
1
60
0
100
AcDbEllipse
10
193.177056
20
14.528646
30
0
11
4.18631474685054E-15
21
3.57360775340235
31
0
210
0
220
0
230
1
40
0.996195
41
-2.84631939108317
42
-1.79625641922174
0
ELLIPSE
5
16A
100
AcDbEntity
8
1
62
256
6
ByLayer
370
-1
48
1
60
0
100
AcDbEllipse
10
188.875093
20
17.849417
30
0
11
0.307524634367037
21
0.328524883772021
31
0
210
0
220
0
230
1
40
0.063742
41
-2.15470096795586
42
-1.51119985916245
0
ELLIPSE
5
16B
100
AcDbEntity
8
1
62
256
6
ByLayer
370
-1
48
1
60
0
100
AcDbEllipse
10
189.722637
20
11.489024
30
0
11
0.329692102348112
21
-0.306272946322855
31
0
210
0
220
0
230
1
40
0.05944
41
1.47029936263264
42
2.15039938434846
0
ELLIPSE
5
16C
100
AcDbEntity
8
1
62
256
6
ByLayer
370
-1
48
1
60
0
100
AcDbEllipse
10
188.906469
20
17.849417
30
0
11
3.16292402425394E-16
21
0.27
31
0
210
0
220
0
230
1
40
0.996195
41
-0.194895099805995
42
2.39110107523227
0
ELLIPSE
5
16D
100
AcDbEntity
8
1
62
256
6
ByLayer
370
-1
48
1
60
0
100
AcDbEllipse
10
197.012436
20
13.645604
30
0
11
-4.03443321277419E-16
21
-0.376392246597645
31
0
210
0
220
0
230
1
40
0.996195
41
1.60570291183476
42
-1.79625641922177
0
ELLIPSE
5
16E
100
AcDbEntity
8
1
62
256
6
ByLayer
370
-1
48
1
60
0
100
AcDbEllipse
10
189.224272
20
10.952551
30
0
11
0.443036966151022
21
0.0788558597930302
31
0
210
0
220
0
230
1
40
0.015329
41
-2.12838464107856
42
-0.841382423491255
0
ELLIPSE
5
16F
100
AcDbEntity
8
1
62
256
6
ByLayer
370
-1
48
1
60
0
100
AcDbEllipse
10
190.077235
20
16.72412
30
0
11
0.307524634367037
21
0.328524883772021
31
0
210
0
220
0
230
1
40
0.063742
41
-2.15470096795586
42
-0.867698750368665
0
ELLIPSE
5
170
100
AcDbEntity
8
1
62
256
6
ByLayer
370
-1
48
1
60
0
100
AcDbEllipse
10
193.180978
20
14.528646
30
0
11
-3.96591667926188E-15
21
-3.7
31
0
210
0
220
0
230
1
40
0.996195
41
0.29527326250662
42
1.34533623436805
0
ELLIPSE
5
171
100
AcDbEntity
8
1
62
256
6
ByLayer
370
-1
48
1
60
0
100
AcDbEllipse
10
196.756181
20
13.701493
30
0
11
0.19497528358439
21
-0.0445492849682989
31
0
210
0
220
0
230
1
40
0.019484
41
1.48572768328052
42
2.16980891507621
0
ELLIPSE
5
172
100
AcDbEntity
8
1
62
256
6
ByLayer
370
-1
48
1
60
0
100
AcDbEllipse
10
197.104965
20
10.597462
30
0
11
0.00700652876222734
21
-0.199877233707854
31
0
210
0
220
0
230
1
40
0.087103
41
0.883661794163252
42
1.56774302595899
0
ELLIPSE
5
173
100
AcDbEntity
8
1
62
256
6
ByLayer
370
-1
48
1
60
0
100
AcDbEllipse
10
194.317319
20
10.499744
30
0
11
-0.00700652876222976
21
0.199877233707854
31
0
210
0
220
0
230
1
40
0.087103
41
-2.25793085942654
42
-1.5738496276308
0
ELLIPSE
5
174
100
AcDbEntity
8
1
62
256
6
ByLayer
370
-1
48
1
60
0
100
AcDbEllipse
10
194.060659
20
18.378677
30
0
11
-2.67967343193372E-16
21
-0.250000000000001
31
0
210
0
220
0
230
1
40
0.996195
41
-3.10668606855002
42
-0.22546009242684
0
ELLIPSE
5
175
100
AcDbEntity
8
1
62
256
6
ByLayer
370
-1
48
1
60
0
100
AcDbEllipse
10
197.113705
20
10.84731
30
0
11
2.9286333557907E-16
21
0.250000000000001
31
0
210
0
220
0
230
1
40
0.996195
41
-3.10668606854979
42
-1.53588974175495
0
ELLIPSE
5
176
100
AcDbEntity
8
1
62
256
6
ByLayer
370
-1
48
1
60
0
100
AcDbEllipse
10
190.801602
20
17.4701
30
0
11
-2.8940473064884E-16
21
-0.27
31
0
210
0
220
0
230
1
40
0.996195
41
-0.75049157835752
42
2.39110107523213
0
ELLIPSE
5
177
100
AcDbEntity
8
1
62
256
6
ByLayer
370
-1
48
1
60
0
100
AcDbEllipse
10
189.722637
20
11.489024
30
0
11
-0.329471318935308
21
0.306067845909912
31
0
210
0
220
0
230
1
40
0.05944
41
-1.63469437803419
42
-0.992087287819764
0
ELLIPSE
5
178
100
AcDbEntity
8
1
62
256
6
ByLayer
370
-1
48
1
60
0
100
AcDbEllipse
10
190.108611
20
16.72412
30
0
11
-2.8940473064884E-16
21
-0.27
31
0
210
0
220
0
230
1
40
0.996195
41
-0.75049157835751
42
2.39110107523213
0
ELLIPSE
5
179
100
AcDbEntity
8
1
62
256
6
ByLayer
370
-1
48
1
60
0
100
AcDbEllipse
10
188.875093
20
17.849417
30
0
11
-1.45591769631836
21
0.746910916762876
31
0
210
0
220
0
230
-1
40
0.010943
41
1.59212368584899
42
2.23562479424006
0
ELLIPSE
5
17A
100
AcDbEntity
8
1
62
256
6
ByLayer
370
-1
48
1
60
0
100
AcDbEllipse
10
197.345171
20
10.856035
30
0
11
0.199879090035388
21
0.0069533708821979
31
0
210
0
220
0
230
1
40
0.003042
41
-1.48358275532882
42
-0.799501523532794
0
ELLIPSE
5
17B
100
AcDbEntity
8
1
62
256
6
ByLayer
370
-1
48
1
60
0
100
AcDbEllipse
10
198.393602
20
-7.392663
30
0
11
-0.299809708323348
21
0.0106835759495212
31
0
210
0
220
0
230
1
40
0.062343
41
-2.69024113425455
42
-2.3918373121997
0
ELLIPSE
5
17C
100
AcDbEntity
8
1
62
256
6
ByLayer
370
-1
48
1
60
0
100
AcDbEllipse
10
198.357173
20
-1.756841
30
0
11
-0.399449767440437
21
-0.0209733948558714
31
0
210
0
220
0
230
1
40
0.060965
41
0.898699902098624
42
1.56759533351589
0
ELLIPSE
5
17D
100
AcDbEntity
8
1
62
256
6
ByLayer
370
-1
48
1
60
0
100
AcDbEllipse
10
198.000853
20
-7.610122
30
0
11
1.99999999999999
21
0
31
0
210
0
220
0
230
1
40
0.998135
41
-0.0349065850398732
42
0.463006761675076
0
ELLIPSE
5
17E
100
AcDbEntity
8
1
62
256
6
ByLayer
370
-1
48
1
60
0
100
AcDbEllipse
10
198.574515
20
-9.642878
30
0
11
-0.183581930353552
21
0.355383841568048
31
0
210
0
220
0
230
1
40
0.02806
41
1.30836341609499
42
1.62506211756226
0
ELLIPSE
5
17F
100
AcDbEntity
8
1
62
256
6
ByLayer
370
-1
48
1
60
0
100
AcDbEllipse
10
198.940607
20
-10.52577
30
0
11
-0.0604397018633534
21
0.242584093540094
31
0
210
0
220
0
230
1
40
0.510901
41
-2.93232891759482
42
-2.68806904820591
0
ELLIPSE
5
180
100
AcDbEntity
8
1
62
256
6
ByLayer
370
-1
48
1
60
0
100
AcDbEllipse
10
198.000853
20
-7.384243
30
0
11
-1.02373473796844
21
1.03462630823541E-15
31
0
210
0
220
0
230
1
40
0.998135
41
3.10668606854993
42
-2.67858589191473
0
ELLIPSE
5
181
100
AcDbEntity
8
1
62
256
6
ByLayer
370
-1
48
1
60
0
100
AcDbEllipse
10
198.240293
20
-9.022711
30
0
11
-0.927151437670361
21
9.37015452885428E-16
31
0
210
0
220
0
230
1
40
0.998135
41
2.0483764595206
42
3.10668606854992
0
ELLIPSE
5
182
100
AcDbEntity
8
1
62
256
6
ByLayer
370
-1
48
1
60
0
100
AcDbEllipse
10
198.312176
20
0.023381
30
0
11
0.239623662653232
21
0.071277628304048
31
0
210
0
220
0
230
1
40
0.547256
41
0.120870017596843
42
0.365129886985747
0
ELLIPSE
5
183
100
AcDbEntity
8
1
62
256
6
ByLayer
370
-1
48
1
60
0
100
AcDbEllipse
10
202.027064
20
-5.37811
30
0
11
3.27626526203155
21
0
31
0
210
0
220
0
230
1
40
0.998135
41
-3.08923277602995
42
-2.67858589191472
0
ELLIPSE
5
184
100
AcDbEntity
8
1
62
256
6
ByLayer
370
-1
48
1
60
0
100
AcDbEllipse
10
198.811622
20
-1.849464
30
0
11
0.249656104650273
21
0.0131083717849196
31
0
210
0
220
0
230
1
40
0.060965
41
0.118972054360619
42
0.32885847426386
0
ELLIPSE
5
185
100
AcDbEntity
8
1
62
256
6
ByLayer
370
-1
48
1
60
0
100
AcDbEllipse
10
198.555563
20
-5.535285
30
0
11
-0.399449767440437
21
-0.0209733948558714
31
0
210
0
220
0
230
1
40
0.060965
41
0.898706284206861
42
1.56759533351589
0
ELLIPSE
5
186
100
AcDbEntity
8
1
62
256
6
ByLayer
370
-1
48
1
60
0
100
AcDbEllipse
10
199.010012
20
-5.627908
30
0
11
0.249656104650273
21
0.0131083717849196
31
0
210
0
220
0
230
1
40
0.060965
41
0.118972054360764
42
0.328858474264011
0
ELLIPSE
5
187
100
AcDbEntity
8
1
62
256
6
ByLayer
370
-1
48
1
60
0
100
AcDbEllipse
10
198.81981
20
-1.735128
30
0
11
0.500000000000012
21
0
31
0
210
0
220
0
230
1
40
0.998135
41
0.0523598775598304
42
0.349065850398908
0
ELLIPSE
5
188
100
AcDbEntity
8
1
62
256
6
ByLayer
370
-1
48
1
60
0
100
AcDbEllipse
10
202.027064
20
-5.37811
30
0
11
3.47626526203155
21
0
31
0
210
0
220
0
230
1
40
0.998135
41
-3.08923277602994
42
-2.67858589191472
0
ELLIPSE
5
189
100
AcDbEntity
8
1
62
256
6
ByLayer
370
-1
48
1
60
0
100
AcDbEllipse
10
198.276808
20
-1.461227
30
0
11
-0.35510361624701
21
-0.184123387238818
31
0
210
0
220
0
230
1
40
0.054218
41
1.01590071817226
42
1.54269146730244
0
ELLIPSE
5
18A
100
AcDbEntity
8
1
62
256
6
ByLayer
370
-1
48
1
60
0
100
AcDbEllipse
10
198.352811
20
-7.203036
30
0
11
-0.268490851014242
21
-0.133838196796161
31
0
210
0
220
0
230
1
40
0.057547
41
-2.7189827951225
42
-2.41933940965418
0
ELLIPSE
5
18B
100
AcDbEntity
8
1
62
256
6
ByLayer
370
-1
48
1
60
0
100
AcDbEllipse
10
198.722394
20
-1.355704
30
0
11
0.239623662653232
21
0.071277628304048
31
0
210
0
220
0
230
1
40
0.547256
41
0.120870017596832
42
0.365129886985752
0
ELLIPSE
5
18C
100
AcDbEntity
8
1
62
256
6
ByLayer
370
-1
48
1
60
0
100
AcDbEllipse
10
199.323962
20
-6.816956
30
0
11
-0.223594986715457
21
-0.111827017825365
31
0
210
0
220
0
230
1
40
0.054621
41
-3.0467305054328
42
-2.8368440855292
0
ELLIPSE
5
18D
100
AcDbEntity
8
1
62
256
6
ByLayer
370
-1
48
1
60
0
100
AcDbEllipse
10
202.027064
20
-5.60399
30
0
11
2.50000000000001
21
0
31
0
210
0
220
0
230
1
40
0.998135
41
-3.08923277602995
42
-2.67858589191473
0
ELLIPSE
5
18E
100
AcDbEntity
8
1
62
256
6
ByLayer
370
-1
48
1
60
0
100
AcDbEllipse
10
199.538273
20
-10.115157
30
0
11
-0.24448045969943
21
-0.0522427490198906
31
0
210
0
220
0
230
1
40
0.883838
41
2.2668632702966
42
2.87385129071564
0
ELLIPSE
5
18F
100
AcDbEntity
8
1
62
256
6
ByLayer
370
-1
48
1
60
0
100
AcDbEllipse
10
198.967002
20
-9.023622
30
0
11
-0.399755420109682
21
0.0139858533143919
31
0
210
0
220
0
230
1
40
0.061011
41
0.446624481370637
42
1.57293086821329
0
ELLIPSE
5
190
100
AcDbEntity
8
1
62
256
6
ByLayer
370
-1
48
1
60
0
100
AcDbEllipse
10
199.333867
20
-10.466139
30
0
11
-0.0172185406249146
21
0.249406338850375
31
0
210
0
220
0
230
1
40
0.838732
41
-2.80746410668765
42
-2.39688161561295
0
ELLIPSE
5
191
100
AcDbEntity
8
1
62
256
6
ByLayer
370
-1
48
1
60
0
100
AcDbEllipse
10
197.631018
20
-1.819245
30
0
11
-0.72715143767036
21
7.34887641868954E-16
31
0
210
0
220
0
230
1
40
0.998135
41
-3.08923277602995
42
-2.66401252086412
0
ELLIPSE
5
192
100
AcDbEntity
8
1
62
256
6
ByLayer
370
-1
48
1
60
0
100
AcDbEllipse
10
198.916802
20
-6.903435
30
0
11
-0.357751978744731
21
-0.178923228520584
31
0
210
0
220
0
230
1
40
0.054621
41
0.422535841560037
42
1.54348542731364
0
ELLIPSE
5
193
100
AcDbEntity
8
1
62
256
6
ByLayer
370
-1
48
1
60
0
100
AcDbEllipse
10
199.421797
20
-9.155869
30
0
11
-0.249847137568551
21
0.00874115832149493
31
0
210
0
220
0
230
1
40
0.061011
41
-3.01728506453187
42
-2.80739864462865
0
ELLIPSE
5
194
100
AcDbEntity
8
1
62
256
6
ByLayer
370
-1
48
1
60
0
100
AcDbEllipse
10
198.798138
20
-1.573827
30
0
11
0.23237101634879
21
0.0922155668042583
31
0
210
0
220
0
230
1
40
0.214605
41
-0.321965429427776
42
-0.103509950205974
0
ELLIPSE
5
195
100
AcDbEntity
8
1
62
256
6
ByLayer
370
-1
48
1
60
0
100
AcDbEllipse
10
199.309261
20
-10.25246
30
0
11
0.600000000000001
21
0
31
0
210
0
220
0
230
1
40
0.998135
41
-1.22173047639601
42
-0.0349065850399378
0
ELLIPSE
5
196
100
AcDbEntity
8
1
62
256
6
ByLayer
370
-1
48
1
60
0
100
AcDbEllipse
10
193.34196
20
-5.403246
30
0
11
2
21
0
31
0
210
0
220
0
230
1
40
0.998135
41
1.30621520995155
42
2.48067996662589
0
ELLIPSE
5
197
100
AcDbEntity
8
1
62
256
6
ByLayer
370
-1
48
1
60
0
100
AcDbEllipse
10
197.631018
20
-1.819245
30
0
11
-0.92715143767036
21
9.37015452885427E-16
31
0
210
0
220
0
230
1
40
0.998135
41
-3.08923277602995
42
-2.66401252086409
0
ELLIPSE
5
198
100
AcDbEntity
8
1
62
256
6
ByLayer
370
-1
48
1
60
0
100
AcDbEllipse
10
202.027064
20
-5.465111
30
0
11
2.78484942505676
21
0
31
0
210
0
220
0
230
1
40
0.998135
41
-3.08923277602994
42
-2.67858589191473
0
ELLIPSE
5
199
100
AcDbEntity
8
1
62
256
6
ByLayer
370
-1
48
1
60
0
100
AcDbEllipse
10
199.023964
20
-7.395484
30
0
11
-0.399755420109682
21
0.0139858533143919
31
0
210
0
220
0
230
1
40
0.061011
41
0.451313181498448
42
1.57293086821329
0
ELLIPSE
5
19A
100
AcDbEntity
8
1
62
256
6
ByLayer
370
-1
48
1
60
0
100
AcDbEllipse
10
202.027064
20
-5.468226
30
0
11
-2.773056132553
21
2.80255882949372E-15
31
0
210
0
220
0
230
1
40
0.998135
41
0.0523598775598448
42
0.463006761675073
0
ELLIPSE
5
19B
100
AcDbEntity
8
1
62
256
6
ByLayer
370
-1
48
1
60
0
100
AcDbEllipse
10
198.225844
20
0.389367
30
0
11
0.2460274908636
21
0.0443900184654274
31
0
210
0
220
0
230
1
40
0.866485
41
0.203560973856465
42
0.614143464931296
0
ELLIPSE
5
19C
100
AcDbEntity
8
1
62
256
6
ByLayer
370
-1
48
1
60
0
100
AcDbEllipse
10
198.240293
20
-9.022711
30
0
11
-0.72715143767036
21
7.34887641868954E-16
31
0
210
0
220
0
230
1
40
0.998135
41
2.04837645952059
42
3.10668606854993
0
ELLIPSE
5
19D
100
AcDbEntity
8
1
62
256
6
ByLayer
370
-1
48
1
60
0
100
AcDbEllipse
10
198.000853
20
-7.471243
30
0
11
-1.71515057494323
21
1.7333981563846E-15
31
0
210
0
220
0
230
1
40
0.998135
41
3.10668606854993
42
-2.67858589191472
0
ELLIPSE
5
19E
100
AcDbEntity
8
1
62
256
6
ByLayer
370
-1
48
1
60
0
100
AcDbEllipse
10
197.964759
20
0.317888
30
0
11
0.600000000000001
21
0
31
0
210
0
220
0
230
1
40
0.998135
41
0.349065850398918
42
1.29655923224211
0
ELLIPSE
5
19F
100
AcDbEntity
8
1
62
256
6
ByLayer
370
-1
48
1
60
0
100
AcDbEllipse
10
198.000853
20
-7.474359
30
0
11
1.72694386744699
21
0
31
0
210
0
220
0
230
1
40
0.998135
41
-0.0349065850398764
42
0.463006761675088
0
ELLIPSE
5
1A0
100
AcDbEntity
8
1
62
256
6
ByLayer
370
-1
48
1
60
0
100
AcDbEllipse
10
198.335095
20
-9.020991
30
0
11
-0.299805156867399
21
0.0108105465039679
31
0
210
0
220
0
230
1
40
0.063239
41
-2.69490446457374
42
-2.40517635394125
0
ELLIPSE
5
1A1
100
AcDbEntity
8
1
62
256
6
ByLayer
370
-1
48
1
60
0
100
AcDbEllipse
10
198.000853
20
-7.384243
30
0
11
-1.22373473796845
21
1.2367541192519E-15
31
0
210
0
220
0
230
1
40
0.998135
41
3.10668606854992
42
-2.67858589191473
0
ELLIPSE
5
1A2
100
AcDbEntity
8
1
62
256
6
ByLayer
370
-1
48
1
60
0
100
AcDbEllipse
10
193.34196
20
-5.520726
30
0
11
2
21
0
31
0
210
0
220
0
230
1
40
0.998135
41
1.17328675057741
42
2.52898218377694
0
ELLIPSE
5
1A3
100
AcDbEntity
8
1
62
256
6
ByLayer
370
-1
48
1
60
0
100
AcDbEllipse
10
199.478759
20
-7.527732
30
0
11
-0.249847137568551
21
0.00874115832149493
31
0
210
0
220
0
230
1
40
0.061011
41
-3.01728506453176
42
-2.80739864462859
0
ELLIPSE
5
1A4
100
AcDbEntity
8
1
62
256
6
ByLayer
370
-1
48
1
60
0
100
AcDbEllipse
10
198.810707
20
-1.645973
30
0
11
0.249757674640379
21
-0.0110047243595889
31
0
210
0
220
0
230
1
40
0.655613
41
0.157545782693552
42
0.426644784634691
0
POINT
5
41
100
AcDbEntity
8
81
62
256
6
ByLayer
370
-1
48
1
60
0
100
AcDbPoint
10
200
20
0
30
0
39
0
210
0
220
0
230
1
50
360
0
POINT
5
43
100
AcDbEntity
8
80
62
256
6
ByLayer
370
-1
48
1
60
0
100
AcDbPoint
10
0
20
0
30
0
39
0
210
0
220
0
230
1
50
360
0
SPLINE
5
1A5
100
AcDbEntity
8
1
62
256
6
ByLayer
370
-1
48
1
60
0
100
AcDbSpline
70
4
71
3
72
20
73
16
40
0
40
0
40
0
40
0
40
0.0698710935059464
40
0.139225724293211
40
0.208361216374382
40
0.277514213034469
40
0.346875071160004
40
0.416603702520703
40
0.486715540797439
40
0.556222512200844
40
0.644869672696045
40
0.734301314237961
40
0.82378483139177
40
0.91258508088829
40
1
40
1
40
1
40
1
41
1
10
46.5
20
-29.7500000000001
30
0
41
1
10
47.1056935432979
20
-29.7495410182926
30
0
41
1
10
48.3036120436582
20
-29.6808423457777
30
0
41
1
10
50.0800285254971
20
-29.3731195876728
30
0
41
1
10
51.802928967224
20
-28.8715981712975
30
0
41
1
10
53.4621019454407
20
-28.1858688355091
30
0
41
1
10
55.0393251247936
20
-27.320668954761
30
0
41
1
10
56.5349233895005
20
-26.3010159730684
30
0
41
1
10
57.8718705570486
20
-25.0841334112492
30
0
41
1
10
59.3773770813817
20
-23.8121314497167
30
0
41
1
10
61.1809807639997
20
-22.6540917633874
30
0
41
1
10
63.2669498800505
20
-21.6525644745644
30
0
41
1
10
65.4666480634505
20
-20.9292053071534
30
0
41
1
10
67.7260830987773
20
-20.4955738885276
30
0
41
1
10
69.2414120273301
20
-20.4003772716961
30
0
41
1
10
70
20
-20.4000000000001
30
0
0
SPLINE
5
1A6
100
AcDbEntity
8
1
62
256
6
ByLayer
370
-1
48
1
60
0
100
AcDbSpline
70
4
71
3
72
19
73
15
40
0
40
0
40
0
40
0
40
0.0794145867842704
40
0.160025823727178
40
0.241310858233322
40
0.322719914305425
40
0.403698187817153
40
0.483708242566498
40
0.563486152435956
40
0.651220630186313
40
0.738367601823291
40
0.825251315965167
40
0.912281191522731
40
1
40
1
40
1
40
1
41
1
10
70
20
20.3999999999999
30
0
41
1
10
69.3115904705522
20
20.400256826924
30
0
41
1
10
67.9348213933818
20
20.4788598930581
30
0
41
1
10
65.8775736996411
20
20.8365058182228
30
0
41
1
10
63.8615930744775
20
21.4354033064437
30
0
41
1
10
61.9252731355866
20
22.2664748347244
30
0
41
1
10
60.1106512321525
20
23.3137263641879
30
0
41
1
10
58.4335614287313
20
24.5487069360581
30
0
41
1
10
56.8931435180338
20
26.0323059852304
30
0
41
1
10
55.0946589290655
20
27.3084977839979
30
0
41
1
10
53.0977277828099
20
28.3753435524001
30
0
41
1
10
50.9787709379305
20
29.157225389768
30
0
41
1
10
48.7637454648012
20
29.6410655427551
30
0
41
1
10
47.2624327656375
20
29.7489252052103
30
0
41
1
10
46.5
20
29.7499999999999
30
0
0
SPLINE
5
1A7
100
AcDbEntity
8
SK1
62
256
6
ByLayer
370
-1
48
1
60
0
100
AcDbSpline
70
4
71
2
72
6
73
3
40
0
40
0
40
0
40
1
40
1
40
1
41
1
10
-2.19495766402399
20
22.0202259035338
30
0
41
1
10
-2.59747883201197
20
22.0101131705342
30
0
41
1
10
-2.99999999999997
20
22.0000004375346
30
0
0
SPLINE
5
1A8
100
AcDbEntity
8
SK1
62
256
6
ByLayer
370
-1
48
1
60
0
100
AcDbSpline
70
4
71
2
72
6
73
3
40
0
40
0
40
0
40
1
40
1
40
1
41
1
10
-3.00000000000003
20
-22.0000004290441
30
0
41
1
10
-2.59747883201203
20
-22.0101131620398
30
0
41
1
10
-2.19495766402405
20
-22.0202258950355
30
0
0
SPLINE
5
1A9
100
AcDbEntity
8
SK1
62
256
6
ByLayer
370
-1
48
1
60
0
100
AcDbSpline
70
4
71
2
72
6
73
3
40
0
40
0
40
0
40
1
40
1
40
1
41
1
10
-2.99999999999997
20
22.0000004375346
30
0
41
1
10
-19.7502365839533
20
21.5791761834949
30
0
41
1
10
-36.5004731679066
20
21.1583519294553
30
0
0
SPLINE
5
1AA
100
AcDbEntity
8
SK1
62
256
6
ByLayer
370
-1
48
1
60
0
100
AcDbSpline
70
4
71
2
72
6
73
3
40
0
40
0
40
0
40
1
40
1
40
1
41
1
10
-36.5004731679067
20
-21.1583519212895
30
0
41
1
10
-19.7502365839533
20
-21.5791761751668
30
0
41
1
10
-3.00000000000003
20
-22.0000004290441
30
0
0
SPLINE
5
1AB
100
AcDbEntity
8
SK1
62
256
6
ByLayer
370
-1
48
1
60
0
100
AcDbSpline
70
4
71
3
72
11
73
7
40
0
40
0
40
0
40
0
40
0.249492416334384
40
0.502620150888757
40
0.754490317554652
40
1
40
1
40
1
40
1
41
1
10
-1.99999999999997
20
21.8251283290969
30
0
41
1
10
-2.02566317500015
20
21.8248652661896
30
0
41
1
10
-2.07419248796036
20
21.8338651331165
30
0
41
1
10
-2.14568472379132
20
21.8776777449266
30
0
41
1
10
-2.19087628909411
20
21.94711747353
30
0
41
1
10
-2.20015150570092
20
21.9940928028999
30
0
41
1
10
-2.19999999999997
20
22.0188171515827
30
0
0
SPLINE
5
1AC
100
AcDbEntity
8
SK1
62
256
6
ByLayer
370
-1
48
1
60
0
100
AcDbSpline
70
4
71
3
72
11
73
7
40
0
40
0
40
0
40
0
40
0.245509649063842
40
0.497380451392467
40
0.750508528879147
40
1
40
1
40
1
40
1
41
1
10
-2.20000000000003
20
-22.018818627264
30
0
41
1
10
-2.20015148019472
20
-21.9940939827203
30
0
41
1
10
-2.19087625020389
20
-21.9471180993486
30
0
41
1
10
-2.1456847418911
20
-21.8776780717056
30
0
41
1
10
-2.0741926967537
20
-21.8338652086853
30
0
41
1
10
-2.02566322896233
20
-21.8248652923094
30
0
41
1
10
-2.00000000000003
20
-21.8251283225343
30
0
0
SPLINE
5
1AD
100
AcDbEntity
8
SK1
62
256
6
ByLayer
370
-1
48
1
60
0
100
AcDbSpline
70
4
71
2
72
6
73
3
40
0
40
0
40
0
40
1
40
1
40
1
41
1
10
-36.5004321682704
20
21.1581061531923
30
0
41
1
10
-37.250216097561
20
20.6997323883078
30
0
41
1
10
-38
20
20.2413583528791
30
0
0
SPLINE
5
1AE
100
AcDbEntity
8
SK1
62
256
6
ByLayer
370
-1
48
1
60
0
100
AcDbSpline
70
4
71
2
72
6
73
3
40
0
40
0
40
0
40
1
40
1
40
1
41
1
10
-38
20
-20.2397162883158
30
0
41
1
10
-37.2502068935607
20
-20.6982812567357
30
0
41
1
10
-36.5004138730271
20
-21.1568446673337
30
0
0
SPLINE
5
1AF
100
AcDbEntity
8
SK1
62
256
6
ByLayer
370
-1
48
1
60
0
100
AcDbSpline
70
4
71
2
72
6
73
3
40
0
40
0
40
0
40
1
40
1
40
1
41
1
10
-2.00000000000003
20
-21.7816074020814
30
0
41
1
10
-1.38101983309073
20
-21.7816074020814
30
0
41
1
10
-0.762039666181423
20
-21.7816074020814
30
0
0
SPLINE
5
1B0
100
AcDbEntity
8
SK1
62
256
6
ByLayer
370
-1
48
1
60
0
100
AcDbSpline
70
4
71
2
72
6
73
3
40
0
40
0
40
0
40
1
40
1
40
1
41
1
10
-0.750660372213289
20
21.7816065919818
30
0
41
1
10
-1.37533018610662
20
21.7816065919818
30
0
41
1
10
-1.99999999999997
20
21.7816065919818
30
0
0
SPLINE
5
1B1
100
AcDbEntity
8
1
62
256
6
ByLayer
370
-1
48
1
60
0
100
AcDbSpline
70
4
71
3
72
21
73
17
40
0
40
0
40
0
40
0
40
0.0358131454748012
40
0.110580332528516
40
0.185323684373542
40
0.25996502552944
40
0.33445374099549
40
0.408768254454398
40
0.482917891103214
40
0.556939062437486
40
0.63088784233401
40
0.70482516552844
40
0.778802272338554
40
0.852881566471591
40
0.927110213745093
40
1
40
1
40
1
40
1
41
1
10
193.26151928824
20
16.5148257556916
30
0
41
1
10
193.328106239668
20
16.5232308077914
30
0
41
1
10
193.532665936984
20
16.5361363651353
30
0
41
1
10
193.876163362381
20
16.4748827240605
30
0
41
1
10
194.268165562658
20
16.3275604176356
30
0
41
1
10
194.62087077106
20
16.0976251528201
30
0
41
1
10
194.918146282204
20
15.7995711397782
30
0
41
1
10
195.147025934051
20
15.4455621998452
30
0
41
1
10
195.297526299866
20
15.0516367897
30
0
41
1
10
195.363248668049
20
14.635107645437
30
0
41
1
10
195.341521605332
20
14.2142530127514
30
0
41
1
10
195.233515308422
20
13.807451749581
30
0
41
1
10
195.043976805917
20
13.4322636239158
30
0
41
1
10
194.781583400466
20
13.1052469498039
30
0
41
1
10
194.458436791698
20
12.8410649853311
30
0
41
1
10
194.21553199638
20
12.716253611821
30
0
41
1
10
194.087250588862
20
12.6660453370372
30
0
0
SPLINE
5
1B2
100
AcDbEntity
8
1
62
256
6
ByLayer
370
-1
48
1
60
0
100
AcDbSpline
70
4
71
3
72
56
73
52
40
0
40
0
40
0
40
0
40
0.0312500000000001
40
0.0312500000000001
40
0.0625000000000001
40
0.0625000000000001
40
0.0781250000000002
40
0.0781250000000002
40
0.0937500000000002
40
0.0937500000000002
40
0.109375
40
0.109375
40
0.125
40
0.125
40
0.1875
40
0.1875
40
0.218750000000001
40
0.218750000000001
40
0.250000000000001
40
0.250000000000001
40
0.375000000000002
40
0.375000000000002
40
0.406250000000002
40
0.406250000000002
40
0.437500000000002
40
0.437500000000002
40
0.500000000000002
40
0.500000000000002
40
0.531250000000003
40
0.531250000000003
40
0.562500000000003
40
0.562500000000003
40
0.625000000000002
40
0.625000000000002
40
0.750000000000002
40
0.750000000000002
40
0.781250000000002
40
0.781250000000002
40
0.812500000000002
40
0.812500000000002
40
0.875000000000001
40
0.875000000000001
40
0.90625
40
0.90625
40
0.921875
40
0.921875
40
0.9375
40
0.9375
40
0.96875
40
0.96875
40
1
40
1
40
1
40
1
41
1
10
72.8333003056703
20
10.2549419504541
30
0
41
1
10
73.8338733580659
20
9.90513119707717
30
0
41
1
10
74.8337576290106
20
9.54973664350342
30
0
41
1
10
76.8327394917721
20
8.82915569052861
30
0
41
1
10
77.8318604646964
20
8.46402998125473
30
0
41
1
10
79.3296733554392
20
7.9083777017365
30
0
41
1
10
79.828839892784
20
7.72192214773546
30
0
41
1
10
80.8273866884779
20
7.34751794087691
30
0
41
1
10
81.3266600704401
20
7.15932528215646
30
0
41
1
10
82.3247771974553
20
6.77994729878711
30
0
41
1
10
82.8236619647209
20
6.58885269119975
30
0
41
1
10
83.8219452022775
20
6.20588368357809
30
0
41
1
10
84.3212812325626
20
6.01386672856142
30
0
41
1
10
86.8179688447598
20
5.04884757717562
30
0
41
1
10
88.8151328868823
20
4.26045846197289
30
0
41
1
10
91.8156206964938
20
3.06528954260972
30
0
41
1
10
92.8164137036514
20
2.66443039263029
30
0
41
1
10
94.8158500440578
20
1.86124554169589
30
0
41
1
10
95.8149847006662
20
1.45864401875187
30
0
41
1
10
100.808821317541
20
-0.556716885579334
30
0
41
1
10
104.797817941631
20
-2.17700743388491
30
0
41
1
10
109.796361987796
20
-4.16292976958817
30
0
41
1
10
110.797285446232
20
-4.55814568572757
30
0
41
1
10
112.797608599322
20
-5.34246340255348
30
0
41
1
10
113.796983552225
20
-5.73165510337054
30
0
41
1
10
116.794103780483
20
-6.88710421898747
30
0
41
1
10
118.790594407011
20
-7.64184514058351
30
0
41
1
10
121.785787310229
20
-8.74415702687321
30
0
41
1
10
122.784333075966
20
-9.10647095959263
30
0
41
1
10
124.781654906188
20
-9.82097881897843
30
0
41
1
10
125.78061659905
20
-10.172755974098
30
0
41
1
10
128.77923587172
20
-11.2098225232601
30
0
41
1
10
130.782038590766
20
-11.8775565823089
30
0
41
1
10
136.779336221649
20
-13.7889726835431
30
0
41
1
10
140.768553889917
20
-14.9438057966264
30
0
41
1
10
145.763817890808
20
-16.2022403769094
30
0
41
1
10
146.763312266443
20
-16.4446837740248
30
0
41
1
10
148.763687370545
20
-16.9102608079944
30
0
41
1
10
149.76454811286
20
-17.1333629605537
30
0
41
1
10
152.762965345607
20
-17.7710372139794
30
0
41
1
10
154.758647318084
20
-18.1546109221132
30
0
41
1
10
157.750179254658
20
-18.664666448641
30
0
41
1
10
158.747034644098
20
-18.8237955956417
30
0
41
1
10
160.242157326794
20
-19.0458559430812
30
0
41
1
10
160.740175751129
20
-19.11739229548
30
0
41
1
10
161.736745019831
20
-19.2543829525175
30
0
41
1
10
162.235201025292
20
-19.3199347110324
30
0
41
1
10
163.730753488281
20
-19.508083478774
30
0
41
1
10
164.727360837589
20
-19.6226446262134
30
0
41
1
10
166.721951618284
20
-19.8282808034978
30
0
41
1
10
167.7196153388
20
-19.9196036177856
30
0
41
1
10
168.71783716542
20
-19.9992632288866
30
0
0
SPLINE
5
1B3
100
AcDbEntity
8
1
62
256
6
ByLayer
370
-1
48
1
60
0
100
AcDbSpline
70
4
71
3
72
24
73
20
40
0
40
0
40
0
40
0
40
0.0625000000000017
40
0.0625000000000017
40
0.125000000000003
40
0.125000000000003
40
0.187500000000005
40
0.187500000000005
40
0.250000000000007
40
0.250000000000007
40
0.375000000000002
40
0.375000000000002
40
0.499999999999998
40
0.499999999999998
40
0.624999999999994
40
0.624999999999994
40
0.749999999999989
40
0.749999999999989
40
1
40
1
40
1
40
1
41
1
10
162.926357605424
20
13.6476831667073
30
0
41
1
10
162.901953767681
20
13.7033811487509
30
0
41
1
10
162.88248789882
20
13.7606134416594
30
0
41
1
10
162.854308733585
20
13.8784524557133
30
0
41
1
10
162.845580835389
20
13.9395522569714
30
0
41
1
10
162.839995906497
20
14.0632232432679
30
0
41
1
10
162.843078486908
20
14.1248393358087
30
0
41
1
10
162.859909286682
20
14.2476953962367
30
0
41
1
10
162.873845783551
20
14.3094667492855
30
0
41
1
10
162.928773012793
20
14.4897254566646
30
0
41
1
10
162.982057950965
20
14.6031543365712
30
0
41
1
10
163.110596039827
20
14.8211695590084
30
0
41
1
10
163.184531856782
20
14.9233113854307
30
0
41
1
10
163.343067833246
20
15.1167929772683
30
0
41
1
10
163.428061901166
20
15.2085251150781
30
0
41
1
10
163.60602120678
20
15.3849997042233
30
0
41
1
10
163.698916166941
20
15.4695787793176
30
0
41
1
10
163.983394359123
20
15.7130342642502
30
0
41
1
10
164.181723830934
20
15.8630046916524
30
0
41
1
10
164.385016306683
20
16.0057712840729
30
0
0
SPLINE
5
1B4
100
AcDbEntity
8
1
62
256
6
ByLayer
370
-1
48
1
60
0
100
AcDbSpline
70
4
71
3
72
16
73
12
40
0
40
0
40
0
40
0
40
0.124999999999999
40
0.124999999999999
40
0.249999999999998
40
0.249999999999998
40
0.499999999999999
40
0.499999999999999
40
0.749999999999999
40
0.749999999999999
40
1
40
1
40
1
40
1
41
1
10
10.5386751345948
20
30.0805927603169
30
0
41
1
10
10.5071959726827
20
30.0805927603169
30
0
41
1
10
10.4765695733598
20
30.078685990659
30
0
41
1
10
10.4184736929998
20
30.0717959485602
30
0
41
1
10
10.3920418953325
20
30.0669872793662
30
0
41
1
10
10.3182367311259
20
30.049647240705
30
0
41
1
10
10.2791703657593
20
30.0350452819075
30
0
41
1
10
10.2125137122669
20
30.0032932993815
30
0
41
1
10
10.1857347330744
20
29.9863830332716
30
0
41
1
10
10.1400559187761
20
29.9511519005795
30
0
41
1
10
10.1212556944726
20
29.9327613369588
30
0
41
1
10
10.1056624327026
20
29.9139548464691
30
0
0
SPLINE
5
1B5
100
AcDbEntity
8
1
62
256
6
ByLayer
370
-1
48
1
60
0
100
AcDbSpline
70
4
71
3
72
38
73
34
40
0
40
0
40
0
40
0
40
0.124999999999997
40
0.124999999999997
40
0.249999999999993
40
0.249999999999993
40
0.312499999999992
40
0.312499999999992
40
0.343749999999991
40
0.343749999999991
40
0.37499999999999
40
0.37499999999999
40
0.499999999999991
40
0.499999999999991
40
0.562499999999993
40
0.562499999999993
40
0.624999999999995
40
0.624999999999995
40
0.656249999999996
40
0.656249999999996
40
0.687499999999997
40
0.687499999999997
40
0.749999999999999
40
0.749999999999999
40
0.812500000000001
40
0.812500000000001
40
0.843750000000003
40
0.843750000000003
40
0.875000000000004
40
0.875000000000004
40
0.937500000000002
40
0.937500000000002
40
1
40
1
40
1
40
1
41
1
10
182.169738664856
20
7.92779294246918
30
0
41
1
10
182.526877376926
20
7.80084192890627
30
0
41
1
10
182.875769219615
20
7.68260003050071
30
0
41
1
10
183.551372515451
20
7.45782833518285
30
0
41
1
10
183.8697410722
20
7.35405252083524
30
0
41
1
10
184.31206513999
20
7.20486673389064
30
0
41
1
10
184.453627721984
20
7.15620043881333
30
0
41
1
10
184.655975367762
20
7.08382884944348
30
0
41
1
10
184.721754377779
20
7.05980827801397
30
0
41
1
10
184.849713652013
20
7.01179176595926
30
0
41
1
10
184.911936858127
20
6.98777367651692
30
0
41
1
10
185.2100747868
20
6.86857446774269
30
0
41
1
10
185.410355691285
20
6.7750788312774
30
0
41
1
10
185.640772809739
20
6.62847903922182
30
0
41
1
10
185.70592750706
20
6.57825406274671
30
0
41
1
10
185.806544866615
20
6.47703104876987
30
0
41
1
10
185.842590029967
20
6.4257560872841
30
0
41
1
10
185.874218668223
20
6.34716429601642
30
0
41
1
10
185.881014601167
20
6.32068965405489
30
0
41
1
10
185.886841894907
20
6.26710311440257
30
0
41
1
10
185.885840764145
20
6.23987100346093
30
0
41
1
10
185.870928256465
20
6.1581913043718
30
0
41
1
10
185.845325469456
20
6.10377655168642
30
0
41
1
10
185.764186489718
20
5.99518064740684
30
0
41
1
10
185.70864573592
20
5.94100056708422
30
0
41
1
10
185.603219655785
20
5.8603963623236
30
0
41
1
10
185.564304367482
20
5.83361289391081
30
0
41
1
10
185.480428736377
20
5.78117459392624
30
0
41
1
10
185.435350428579
20
5.75541955273306
30
0
41
1
10
185.291199086748
20
5.67968274346808
30
0
41
1
10
185.183235689216
20
5.63122084794432
30
0
41
1
10
184.945522460239
20
5.53930690337143
30
0
41
1
10
184.815109006441
20
5.49572133870976
30
0
41
1
10
184.677607033367
20
5.45606848235161
30
0
0
SPLINE
5
1B6
100
AcDbEntity
8
1
62
256
6
ByLayer
370
-1
48
1
60
0
100
AcDbSpline
70
4
71
4
72
10
73
5
40
0
40
0
40
0
40
0
40
0
40
1
40
1
40
1
40
1
40
1
41
0.978565804172024
10
172.708391299863
20
7.3292904512642
30
0
41
0.978600093333611
10
172.750186694199
20
7.46886824488243
30
0
41
0.978697498104461
10
172.790854249933
20
7.61192768731872
30
0
41
0.97885771540319
10
172.830339987643
20
7.75828051092669
30
0
41
0.979078767544939
10
172.868598237098
20
7.90771443098202
30
0
0
SPLINE
5
1B7
100
AcDbEntity
8
1
62
256
6
ByLayer
370
-1
48
1
60
0
100
AcDbSpline
70
4
71
3
72
10
73
6
40
0
40
0
40
0
40
0
40
0.5
40
0.5
40
1
40
1
40
1
40
1
41
1
10
70
20
-14.2392857118263
30
0
41
1
10
69.0454186096233
20
-13.9620842281656
30
0
41
1
10
68.0880298095987
20
-13.755829321367
30
0
41
1
10
66.1767939917422
20
-13.4821831877456
30
0
41
1
10
65.2229408332845
20
-13.4146852371998
30
0
41
1
10
64.2756935150938
20
-13.4163304135816
30
0
0
SPLINE
5
1B8
100
AcDbEntity
8
1
62
256
6
ByLayer
370
-1
48
1
60
0
100
AcDbSpline
70
4
71
3
72
12
73
8
40
0
40
0
40
0
40
0
40
0.499999999999999
40
0.499999999999999
40
0.75
40
0.75
40
1
40
1
40
1
40
1
41
1
10
48.4641860963981
20
6.53229364967223
30
0
41
1
10
48.0477161483483
20
7.00219452881706
30
0
41
1
10
47.6751487352744
20
7.4953757475526
30
0
41
1
10
47.181963611118
20
8.27139948368489
30
0
41
1
10
47.0285910409213
20
8.53615667834501
30
0
41
1
10
46.7448212703629
20
9.07857379233306
30
0
41
1
10
46.6158862968267
20
9.35344894135994
30
0
41
1
10
46.5
20
9.63209160411037
30
0
0
SPLINE
5
1B9
100
AcDbEntity
8
1
62
256
6
ByLayer
370
-1
48
1
60
0
100
AcDbSpline
70
4
71
3
72
10
73
6
40
0
40
0
40
0
40
0
40
0.5
40
0.5
40
1
40
1
40
1
40
1
41
1
10
158.889542055538
20
13.1258772964144
30
0
41
1
10
159.438215790573
20
12.8291868046757
30
0
41
1
10
160.009218096498
20
12.5618255745612
30
0
41
1
10
161.194415721128
20
12.0918175915104
30
0
41
1
10
161.808594316658
20
11.8891153807577
30
0
41
1
10
162.444749610259
20
11.7224373922596
30
0
0
SPLINE
5
1BA
100
AcDbEntity
8
1
62
256
6
ByLayer
370
-1
48
1
60
0
100
AcDbSpline
70
4
71
3
72
8
73
4
40
0
40
0
40
0
40
0
40
1
40
1
40
1
40
1
41
1
10
180.455653940858
20
8.6753350282851
30
0
41
1
10
181.005728593817
20
8.39113029152267
30
0
41
1
10
181.573149578044
20
8.13986065367405
30
0
41
1
10
182.169738664856
20
7.92779294246915
30
0
0
SPLINE
5
1BB
100
AcDbEntity
8
1
62
256
6
ByLayer
370
-1
48
1
60
0
100
AcDbSpline
70
4
71
3
72
8
73
4
40
0
40
0
40
0
40
0
40
1
40
1
40
1
40
1
41
1
10
50.3724435870083
20
4.24299111950197
30
0
41
1
10
52.2759164066827
20
2.19044559773556
30
0
41
1
10
54.1713760762295
20
0.134302347398091
30
0
41
1
10
56.0414801825177
20
-1.90968814301084
30
0
0
SPLINE
5
1BC
100
AcDbEntity
8
1
62
256
6
ByLayer
370
-1
48
1
60
0
100
AcDbSpline
70
4
71
3
72
16
73
12
40
0
40
0
40
0
40
0
40
0.250000000000001
40
0.250000000000001
40
0.500000000000002
40
0.500000000000002
40
0.750000000000003
40
0.750000000000003
40
0.875000000000002
40
0.875000000000002
40
1
40
1
40
1
40
1
41
1
10
13.8943375672974
20
-9.86941261896612
30
0
41
1
10
13.8787501654512
20
-9.81243201498799
30
0
41
1
10
13.8600981524864
20
-9.75655023082965
30
0
41
1
10
13.8145135903111
20
-9.64780841973388
30
0
41
1
10
13.7875017792165
20
-9.59456078532602
30
0
41
1
10
13.720820003123
20
-9.49465699870623
30
0
41
1
10
13.6810618560869
20
-9.44778039735203
30
0
41
1
10
13.6084081576259
20
-9.39323398486451
30
0
41
1
10
13.5814155034803
20
-9.37745951316336
30
0
41
1
10
13.5238105256953
20
-9.35548920253845
30
0
41
1
10
13.4927587974109
20
-9.34922131452498
30
0
41
1
10
13.4613248654052
20
-9.34922131452498
30
0
0
SPLINE
5
1BD
100
AcDbEntity
8
1
62
256
6
ByLayer
370
-1
48
1
60
0
100
AcDbSpline
70
4
71
3
72
26
73
22
40
0
40
0
40
0
40
0
40
0.125
40
0.125
40
0.25
40
0.25
40
0.3125
40
0.3125
40
0.374999999999999
40
0.374999999999999
40
0.499999999999999
40
0.499999999999999
40
0.624999999999999
40
0.624999999999999
40
0.687499999999998
40
0.687499999999998
40
0.749999999999998
40
0.749999999999998
40
0.874999999999999
40
0.874999999999999
40
1
40
1
40
1
40
1
41
1
10
56.0414801825177
20
-1.90968814301081
30
0
41
1
10
56.2363021490788
20
-2.16765778426412
30
0
41
1
10
56.4579029528523
20
-2.43435838091492
30
0
41
1
10
56.9501136314452
20
-2.99960251522091
30
0
41
1
10
57.2207150334239
20
-3.29822619936132
30
0
41
1
10
57.6610065980516
20
-3.77760653512385
30
0
41
1
10
57.8135138650936
20
-3.94259680318027
30
0
41
1
10
58.1297879741306
20
-4.28360493009384
30
0
41
1
10
58.2939088496706
20
-4.45999977776808
30
0
41
1
10
58.7939643754966
20
-4.99631073669346
30
0
41
1
10
59.1401182466719
20
-5.36628326047662
30
0
41
1
10
59.855777736809
20
-6.12521710215788
30
0
41
1
10
60.2253234720787
20
-6.51410417018818
30
0
41
1
10
60.7977124393982
20
-7.10588685964095
30
0
41
1
10
60.9908143677755
20
-7.3037930107088
30
0
41
1
10
61.3803510355805
20
-7.69846799927024
30
0
41
1
10
61.5770340148263
20
-7.89549191824662
30
0
41
1
10
62.173368836261
20
-8.48450407828537
30
0
41
1
10
62.5792725229033
20
-8.87444399505029
30
0
41
1
10
63.4112699844356
20
-9.64305781513144
30
0
41
1
10
63.8373529294354
20
-10.021752295097
30
0
41
1
10
64.2756935155772
20
-10.3919079130777
30
0
0
SPLINE
5
1BE
100
AcDbEntity
8
1
62
256
6
ByLayer
370
-1
48
1
60
0
100
AcDbSpline
70
4
71
3
72
16
73
12
40
0
40
0
40
0
40
0
40
0.153125665078323
40
0.153125665078323
40
0.4354171100522
40
0.4354171100522
40
0.717708555026077
40
0.717708555026077
40
0.858854277513038
40
0.858854277513038
40
1
40
1
40
1
40
1
41
1
10
189.998468793679
20
8.07967291695994
30
0
41
1
10
189.977337092808
20
8.06018964992964
30
0
41
1
10
189.956387136595
20
8.04174312036005
30
0
41
1
10
189.897646559344
20
7.99213193800426
30
0
41
1
10
189.860507855654
20
7.96334104000374
30
0
41
1
10
189.790976714564
20
7.91331704438704
30
0
41
1
10
189.759130311439
20
7.89251389767028
30
0
41
1
10
189.721963049316
20
7.87051185385664
30
0
41
1
10
189.711368539441
20
7.86473117683431
30
0
41
1
10
189.695327957026
20
7.85700787451083
30
0
41
1
10
189.68975714553
20
7.85498695754904
30
0
41
1
10
189.686960881739
20
7.85498695754904
30
0
0
SPLINE
5
1BF
100
AcDbEntity
8
1
62
256
6
ByLayer
370
-1
48
1
60
0
100
AcDbSpline
70
4
71
3
72
30
73
26
40
0
40
0
40
0
40
0
40
0.0834951054303379
40
0.0834951054303379
40
0.166990210860676
40
0.166990210860676
40
0.250485316291014
40
0.250485316291014
40
0.333980421721352
40
0.333980421721352
40
0.41747552715169
40
0.41747552715169
40
0.500970632582027
40
0.500970632582027
40
0.584465738012365
40
0.584465738012365
40
0.667960843442703
40
0.667960843442703
40
0.751455948873041
40
0.751455948873041
40
0.834951054303379
40
0.834951054303379
40
0.918446159733717
40
0.918446159733717
40
1
40
1
40
1
40
1
41
1
10
72.8333003056736
20
5.21379954466499
30
0
41
1
10
72.479353146502
20
5.06771651618027
30
0
41
1
10
72.1115918344819
20
4.87258782488098
30
0
41
1
10
71.3608753800513
20
4.39083666461286
30
0
41
1
10
70.97793466414
20
4.10422345344401
30
0
41
1
10
70.2098359650843
20
3.44921252437365
30
0
41
1
10
69.8246927424732
20
3.08082739380077
30
0
41
1
10
69.065240730781
20
2.27475336798241
30
0
41
1
10
68.6909465360701
20
1.83707996304131
30
0
41
1
10
67.9658771292531
20
0.907258660728729
30
0
41
1
10
67.6151158507877
20
0.41512863170999
30
0
41
1
10
66.948999826401
20
-0.606930643051612
30
0
41
1
10
66.6336578812147
20
-1.13684024790695
30
0
41
1
10
66.0490682350376
20
-2.21650247830215
30
0
41
1
10
65.7798317680914
20
-2.7662343559999
30
0
41
1
10
65.2965787721059
20
-3.8669125060041
30
0
41
1
10
65.0825715297273
20
-4.41783762660603
30
0
41
1
10
64.717031411853
20
-5.50223248356525
30
0
41
1
10
64.5655055609328
20
-6.03568138113366
30
0
41
1
10
64.3300655558746
20
-7.06704553221815
30
0
41
1
10
64.2461559261813
20
-7.56494096603509
30
0
41
1
10
64.1487945032169
20
-8.50832407558553
30
0
41
1
10
64.1353445809379
20
-8.95379362234937
30
0
41
1
10
64.1788493809005
20
-9.76765438044362
30
0
41
1
10
64.2341736553804
20
-10.1375817649798
30
0
41
1
10
64.3224203573789
20
-10.4693383066156
30
0
0
SPLINE
5
1C0
100
AcDbEntity
8
1
62
256
6
ByLayer
370
-1
48
1
60
0
100
AcDbSpline
70
4
71
3
72
12
73
8
40
0
40
0
40
0
40
0
40
0.484668508331197
40
0.484668508331197
40
0.742334254165598
40
0.742334254165598
40
1
40
1
40
1
40
1
41
1
10
173.772056498501
20
6.92852679968874
30
0
41
1
10
173.666013028387
20
7.08397990105451
30
0
41
1
10
173.54580720552
20
7.24518655605985
30
0
41
1
10
173.327769684144
20
7.49425584319974
30
0
41
1
10
173.246531235063
20
7.58010242929373
30
0
41
1
10
173.069660107617
20
7.74786167226353
30
0
41
1
10
172.974081123943
20
7.82980857684211
30
0
41
1
10
172.868598236422
20
7.9077144309822
30
0
0
SPLINE
5
1C1
100
AcDbEntity
8
1
62
256
6
ByLayer
370
-1
48
1
60
0
100
AcDbSpline
70
4
71
3
72
16
73
12
40
0
40
0
40
0
40
0
40
0.249999999999999
40
0.249999999999999
40
0.499999999999998
40
0.499999999999998
40
0.749999999999997
40
0.749999999999997
40
0.874999999999998
40
0.874999999999998
40
1
40
1
40
1
40
1
41
1
10
10.1056624327026
20
-29.9139548464691
30
0
41
1
10
10.1212498345487
20
-29.9327542695085
30
0
41
1
10
10.1399018475135
20
-29.9510098933136
30
0
41
1
10
10.1854864096889
20
-29.9862144781928
30
0
41
1
10
10.2124982207834
20
-30.0032856662985
30
0
41
1
10
10.279179996877
20
-30.0350501233767
30
0
41
1
10
10.318938143913
20
-30.0498069467438
30
0
41
1
10
10.3915918423741
20
-30.0668840803113
30
0
41
1
10
10.4185844965196
20
-30.0718038277879
30
0
41
1
10
10.4761894743047
20
-30.0786461490401
30
0
41
1
10
10.5072412025891
20
-30.080592760317
30
0
41
1
10
10.5386751345948
20
-30.080592760317
30
0
0
SPLINE
5
1C2
100
AcDbEntity
8
1
62
256
6
ByLayer
370
-1
48
1
60
0
100
AcDbSpline
70
4
71
2
72
6
73
3
40
0
40
0
40
0
40
1
40
1
40
1
41
1
10
64.2756935150939
20
-10.3919079129768
30
0
41
1
10
64.2756935150938
20
-11.9041191632462
30
0
41
1
10
64.2756935150938
20
-13.4163304135157
30
0
0
SPLINE
5
1C3
100
AcDbEntity
8
1
62
256
6
ByLayer
370
-1
48
1
60
0
100
AcDbSpline
70
4
71
3
72
16
73
12
40
0
40
0
40
0
40
0
40
0.25
40
0.25
40
0.5
40
0.5
40
0.625000000000001
40
0.625000000000001
40
0.750000000000001
40
0.750000000000001
40
1
40
1
40
1
40
1
41
1
10
181.66365487098
20
4.87858298629607
30
0
41
1
10
181.470575675248
20
4.85974586900866
30
0
41
1
10
181.266215775451
20
4.85082117360696
30
0
41
1
10
180.840152142612
20
4.85247145008501
30
0
41
1
10
180.618405469522
20
4.86306250893901
30
0
41
1
10
180.275084801247
20
4.89407708698727
30
0
41
1
10
180.158849133927
20
4.90694260963267
30
0
41
1
10
179.923064469397
20
4.93787393620687
30
0
41
1
10
179.803262268756
20
4.95598718726339
30
0
41
1
10
179.441654855192
20
5.01796382493035
30
0
41
1
10
179.197483100921
20
5.06942213460991
30
0
41
1
10
178.950959794048
20
5.13123264079493
30
0
0
SPLINE
5
1C4
100
AcDbEntity
8
1
62
256
6
ByLayer
370
-1
48
1
60
0
100
AcDbSpline
70
4
71
3
72
14
73
10
40
0
40
0
40
0
40
0
40
0.124999999999995
40
0.124999999999995
40
0.24999999999999
40
0.24999999999999
40
0.499999999999993
40
0.499999999999993
40
1
40
1
40
1
40
1
41
1
10
180.455653940858
20
8.6753350282851
30
0
41
1
10
180.689517634953
20
8.59391383162495
30
0
41
1
10
180.92568577313
20
8.5176974878587
30
0
41
1
10
181.402705651793
20
8.37584777819168
30
0
41
1
10
181.643849776771
20
8.31014247306013
30
0
41
1
10
182.372584668168
20
8.12973353465787
30
0
41
1
10
182.860134540443
20
8.0329592576816
30
0
41
1
10
184.327836360121
20
7.81100455043182
30
0
41
1
10
185.3129981668
20
7.75362139159841
30
0
41
1
10
186.305029392851
20
7.78828864329597
30
0
0
SPLINE
5
1C5
100
AcDbEntity
8
1
62
256
6
ByLayer
370
-1
48
1
60
0
100
AcDbSpline
70
4
71
3
72
92
73
88
40
0
40
0
40
0
40
0
40
0.0030658763497165
40
0.0093894843589653
40
0.0220367003774631
40
0.0346839163959606
40
0.0536547404237065
40
0.0599783484329552
40
0.0726255644514527
40
0.0852727804699501
40
0.104243604497696
40
0.110567212506945
40
0.123214428525443
40
0.13586164454394
40
0.154832468571686
40
0.161156076580935
40
0.173803292599433
40
0.18645050861793
40
0.205421332645677
40
0.211744940654925
40
0.224392156673423
40
0.23703937269192
40
0.256010196719667
40
0.262333804728915
40
0.274981020747412
40
0.28762823676591
40
0.306599060793656
40
0.312922668802905
40
0.325569884821402
40
0.3382171008399
40
0.357187924867646
40
0.363511532876895
40
0.376158748895392
40
0.38880596491389
40
0.41093859294626
40
0.414100396950885
40
0.420424004960134
40
0.426747612969383
40
0.436233024983255
40
0.43939482898788
40
0.445718436997128
40
0.452042045006377
40
0.458365653015626
40
0.464689261024875
40
0.477336477043372
40
0.48998369306187
40
0.508954517089616
40
0.515278125098865
40
0.527925341117362
40
0.54057255713586
40
0.559543381163606
40
0.565866989172855
40
0.578514205191352
40
0.591161421209849
40
0.616455853246844
40
0.629103069265342
40
0.641750285283839
40
0.667044717320834
40
0.679691933339332
40
0.692339149357829
40
0.704986365376327
40
0.717633581394824
40
0.723957189404073
40
0.730280797413322
40
0.742928013431819
40
0.749251621441068
40
0.755575229450317
40
0.768222445468814
40
0.780869661487312
40
0.79351687750581
40
0.818811309542804
40
0.831458525561302
40
0.844105741579799
40
0.869400173616794
40
0.882047389635292
40
0.894694605653789
40
0.910503625676911
40
0.919989037690784
40
0.929474449704657
40
0.945283469727779
40
0.970577901764774
40
0.976901509774023
40
0.983225117783271
40
0.986386921787896
40
0.98954872579252
40
0.995872333801769
40
1
40
1
40
1
40
1
41
1
10
57.1016218593911
20
18.6887302301039
30
0
41
1
10
57.0896275262541
20
18.6775814530463
30
0
41
1
10
57.0528498188873
20
18.6433107199298
30
0
41
1
10
56.9662227954966
20
18.5619710549666
30
0
41
1
10
56.8410632820147
20
18.4426530978299
30
0
41
1
10
56.6643707723706
20
18.270843806076
30
0
41
1
10
56.5115076157472
20
18.1185950206944
30
0
41
1
10
56.3577085505416
20
17.9625042169654
30
0
41
1
10
56.2289981447304
20
17.8300574782625
30
0
41
1
10
56.0479529731292
20
17.6403578290389
30
0
41
1
10
55.8920377120393
20
17.4733412353348
30
0
41
1
10
55.7357487131127
20
17.3029862722278
30
0
41
1
10
55.6053187133819
20
17.1589779775312
30
0
41
1
10
55.4225366526198
20
16.9537325617513
30
0
41
1
10
55.2658588041096
20
16.7741128493829
30
0
41
1
10
55.1093974413502
20
16.5917750291635
30
0
41
1
10
54.9791946289619
20
16.4381776008167
30
0
41
1
10
54.7974214367371
20
16.2202722190538
30
0
41
1
10
54.6423469840719
20
16.0306468484663
30
0
41
1
10
54.4880781404517
20
15.8390115109686
30
0
41
1
10
54.3600702548606
20
15.6781153121413
30
0
41
1
10
54.182046570353
20
15.450844085196
30
0
41
1
10
54.0309002054187
20
15.2541191693338
30
0
41
1
10
53.8811179700743
20
15.0561449446936
30
0
41
1
10
53.7571953211718
20
14.890445501354
30
0
41
1
10
53.5855199501448
20
14.6573467385816
30
0
41
1
10
53.440470022669
20
14.456590625896
30
0
41
1
10
53.2972855852981
20
14.2553595781448
30
0
41
1
10
53.1791697308187
20
14.0874307879919
30
0
41
1
10
53.0161775152181
20
13.8521092216746
30
0
41
1
10
52.8791394118624
20
13.6504033939021
30
0
41
1
10
52.7443932105339
20
13.4489787872612
30
0
41
1
10
52.6335697094468
20
13.281359570682
30
0
41
1
10
52.4703543089318
20
13.0305981188907
30
0
41
1
10
52.3432026609304
20
12.830941009194
30
0
41
1
10
52.2394209153119
20
12.6653682354169
30
0
41
1
10
52.1879412180456
20
12.5827395683509
30
0
41
1
10
52.1166589095282
20
12.4673986962419
30
0
41
1
10
52.0564287246895
20
12.3689466414677
30
0
41
1
10
51.9969216406458
20
12.2708814927535
30
0
41
1
10
51.9477901651474
20
12.1894143655598
30
0
41
1
10
51.8893780113574
20
12.0917513104123
30
0
41
1
10
51.831324673256
20
11.9938771221259
30
0
41
1
10
51.7544111331145
20
11.863105162803
30
0
41
1
10
51.6592130836922
20
11.6991441404679
30
0
41
1
10
51.5278484371293
20
11.468871340999
30
0
41
1
10
51.4174608941992
20
11.2709281559606
30
0
41
1
10
51.3090357161369
20
11.0727871590491
30
0
41
1
10
51.2199482508827
20
10.907599235025
30
0
41
1
10
51.0977361641744
20
10.6764212054734
30
0
41
1
10
50.9958286002162
20
10.4785917420863
30
0
41
1
10
50.8963847310094
20
10.2812991773366
30
0
41
1
10
50.8150936434265
20
10.117282266681
30
0
41
1
10
50.6885468087833
20
9.85595076706855
30
0
41
1
10
50.5675045196564
20
9.59664654786405
30
0
41
1
10
50.4524191506093
20
9.34013749757392
30
0
41
1
10
50.3414317070242
20
9.08574413355416
30
0
41
1
10
50.2367811197451
20
8.83490265943104
30
0
41
1
10
50.1388473249979
20
8.58836979618675
30
0
41
1
10
50.0688267690817
20
8.40580110818141
30
0
41
1
10
50.0023073971878
20
8.2257400335923
30
0
41
1
10
49.9498517355267
20
8.07792602760526
30
0
41
1
10
49.9097091920872
20
7.96110528351215
30
0
41
1
10
49.8707886107489
20
7.84526401530769
30
0
41
1
10
49.8337119298249
20
7.7309307140726
30
0
41
1
10
49.7985010638404
20
7.61818288607975
30
0
41
1
10
49.7645413793238
20
7.50651787567264
30
0
41
1
10
49.7244514355086
20
7.36901533705762
30
0
41
1
10
49.6801627909091
20
7.20749326229537
30
0
41
1
10
49.6262229975394
20
6.99693979198034
30
0
41
1
10
49.5799798265006
20
6.79385226661742
30
0
41
1
10
49.541491324166
20
6.5987346880072
30
0
41
1
10
49.5081532482713
20
6.40905278801444
30
0
41
1
10
49.482511782992
20
6.2277079771215
30
0
41
1
10
49.4645088702393
20
6.05506739767551
30
0
41
1
10
49.4539745687065
20
5.91957172353156
30
0
41
1
10
49.4484548935818
20
5.79951954872584
30
0
41
1
10
49.4467738630574
20
5.69362617394458
30
0
41
1
10
49.4476056635166
20
5.59087719814863
30
0
41
1
10
49.4536254952284
20
5.44754140243245
30
0
41
1
10
49.4664356803217
20
5.32253167976387
30
0
41
1
10
49.4809354667759
20
5.22833614895291
30
0
41
1
10
49.4876770466645
20
5.19004912838815
30
0
41
1
10
49.4934851493767
20
5.1599916279317
30
0
41
1
10
49.499575153644
20
5.13029273730217
30
0
41
1
10
49.5065940196914
20
5.09886793762291
30
0
41
1
10
49.512389571147
20
5.07513828962445
30
0
41
1
10
49.5147421482391
20
5.06582948946308
30
0
0
SPLINE
5
1C6
100
AcDbEntity
8
1
62
256
6
ByLayer
370
-1
48
1
60
0
100
AcDbSpline
70
4
71
3
72
19
73
15
40
0
40
0
40
0
40
0
40
0.250000000000005
40
0.250000000000005
40
0.375000000000004
40
0.375000000000004
40
0.500000000000003
40
0.500000000000003
40
0.625000000000002
40
0.625000000000002
40
0.750000000000002
40
0.875000000000001
40
0.875000000000001
40
1
40
1
40
1
40
1
41
1
10
184.301084915862
20
14.7999999999998
30
0
41
1
10
184.301084915862
20
14.5786981880909
30
0
41
1
10
184.271049703663
20
14.3625270399375
30
0
41
1
10
184.181641822393
20
14.0458471216417
30
0
41
1
10
184.144027517347
20
13.9411546712203
30
0
41
1
10
184.055773073676
20
13.7408266672016
30
0
41
1
10
184.004979897847
20
13.6443970422884
30
0
41
1
10
183.890109934632
20
13.4589794901985
30
0
41
1
10
183.825689203885
20
13.3695825361315
30
0
41
1
10
183.684367865746
20
13.2004503904646
30
0
41
1
10
183.53264809419
20
13.0432220046004
30
0
41
1
10
183.360804283106
20
12.9090309093771
30
0
41
1
10
183.178632363589
20
12.7866630683948
30
0
41
1
10
183.082552209721
20
12.7316885208936
30
0
41
1
10
182.984331175043
20
12.6843934370673
30
0
0
SPLINE
5
1C7
100
AcDbEntity
8
1
62
256
6
ByLayer
370
-1
48
1
60
0
100
AcDbSpline
70
4
71
3
72
16
73
12
40
0
40
0
40
0
40
0
40
0.249999999999998
40
0.249999999999998
40
0.374999999999997
40
0.374999999999997
40
0.499999999999996
40
0.499999999999996
40
0.749999999999998
40
0.749999999999998
40
1
40
1
40
1
40
1
41
1
10
70
20
11.870687596728
30
0
41
1
10
69.3923267851355
20
12.1751319303559
30
0
41
1
10
68.7746257226516
20
12.4735451034777
30
0
41
1
10
67.8335375317348
20
12.9178999212363
30
0
41
1
10
67.5174276609459
20
13.065495885254
30
0
41
1
10
66.8805897423987
20
13.3608816632036
30
0
41
1
10
66.5594763460366
20
13.5088482507285
30
0
41
1
10
65.5921927506122
20
13.9540295624427
30
0
41
1
10
64.9475805572194
20
14.2499659563611
30
0
41
1
10
63.6645448834961
20
14.8520781815952
30
0
41
1
10
63.026121971284
20
15.1582561576262
30
0
41
1
10
62.3939355058674
20
15.476188129131
30
0
0
SPLINE
5
1C8
100
AcDbEntity
8
1
62
256
6
ByLayer
370
-1
48
1
60
0
100
AcDbSpline
70
4
71
3
72
12
73
8
40
0
40
0
40
0
40
0
40
0.104898575173332
40
0.104898575173332
40
0.403265716782222
40
0.403265716782222
40
1
40
1
40
1
40
1
41
1
10
198.075134573653
20
8.36253432231896
30
0
41
1
10
198.074189034091
20
8.34832233452238
30
0
41
1
10
198.073162525224
20
8.33472128019372
30
0
41
1
10
198.068969370027
20
8.28475278007582
30
0
41
1
10
198.06527783625
20
8.25249333241433
30
0
41
1
10
198.053484127083
20
8.17524232310285
30
0
41
1
10
198.0444188984
20
8.14771872084626
30
0
41
1
10
198.035510038949
20
8.14763607187209
30
0
0
SPLINE
5
1C9
100
AcDbEntity
8
1
62
256
6
ByLayer
370
-1
48
1
60
0
100
AcDbSpline
70
4
71
3
72
12
73
8
40
0
40
0
40
0
40
0
40
0.25
40
0.25
40
0.5
40
0.5
40
1
40
1
40
1
40
1
41
1
10
186.466532622834
20
20.3953818901599
30
0
41
1
10
186.471824452414
20
20.3941046320552
30
0
41
1
10
186.48372055241
20
20.3925997930739
30
0
41
1
10
186.520205882192
20
20.3892189492686
30
0
41
1
10
186.545212271265
20
20.3873205823104
30
0
41
1
10
186.636342988102
20
20.3815103748816
30
0
41
1
10
186.720351721972
20
20.3773568553305
30
0
41
1
10
186.82065516458
20
20.3739834104343
30
0
0
SPLINE
5
1CA
100
AcDbEntity
8
1
62
256
6
ByLayer
370
-1
48
1
60
0
100
AcDbSpline
70
4
71
3
72
16
73
12
40
0
40
0
40
0
40
0
40
0.249999999999999
40
0.249999999999999
40
0.499999999999998
40
0.499999999999998
40
0.749999999999997
40
0.749999999999997
40
0.874999999999998
40
0.874999999999998
40
1
40
1
40
1
40
1
41
1
10
13.8943375672974
20
29.9139548464691
30
0
41
1
10
13.8787501654513
20
29.9327542695084
30
0
41
1
10
13.8600981524864
20
29.9510098933136
30
0
41
1
10
13.8145135903111
20
29.9862144781928
30
0
41
1
10
13.7875017792166
20
30.0032856662985
30
0
41
1
10
13.720820003123
20
30.0350501233766
30
0
41
1
10
13.6810618560869
20
30.0498069467437
30
0
41
1
10
13.6084081576259
20
30.0668840803113
30
0
41
1
10
13.5814155034803
20
30.0718038277879
30
0
41
1
10
13.5238105256953
20
30.0786461490401
30
0
41
1
10
13.4927587974109
20
30.0805927603169
30
0
41
1
10
13.4613248654052
20
30.0805927603169
30
0
0
SPLINE
5
1CB
100
AcDbEntity
8
1
62
256
6
ByLayer
370
-1
48
1
60
0
100
AcDbSpline
70
4
71
3
72
8
73
4
40
0
40
0
40
0
40
0
40
1
40
1
40
1
40
1
41
1
10
183.265209765712
20
20.3873652948629
30
0
41
1
10
183.617055659716
20
20.389894294238
30
0
41
1
10
183.962284458916
20
20.3927181519926
30
0
41
1
10
184.301084915862
20
20.3950949101685
30
0
0
SPLINE
5
1CC
100
AcDbEntity
8
1
62
256
6
ByLayer
370
-1
48
1
60
0
100
AcDbSpline
70
4
71
3
72
8
73
4
40
0
40
0
40
0
40
0
40
1
40
1
40
1
40
1
41
1
10
66.9120127863605
20
-12.3520255157105
30
0
41
1
10
66.0142554574733
20
-11.7255229896461
30
0
41
1
10
65.1325890528868
20
-11.0761756052633
30
0
41
1
10
64.2756935150939
20
-10.3919079126697
30
0
0
SPLINE
5
1CD
100
AcDbEntity
8
1
62
256
6
ByLayer
370
-1
48
1
60
0
100
AcDbSpline
70
4
71
3
72
8
73
4
40
0
40
0
40
0
40
0
40
1
40
1
40
1
40
1
41
1
10
179.519283205953
20
9.05046422036247
30
0
41
1
10
179.825927840119
20
8.91536270912198
30
0
41
1
10
180.137808856463
20
8.79030680191644
30
0
41
1
10
180.455653940858
20
8.6753350282851
30
0
0
SPLINE
5
1CE
100
AcDbEntity
8
1
62
256
6
ByLayer
370
-1
48
1
60
0
100
AcDbSpline
70
4
71
3
72
16
73
12
40
0
40
0
40
0
40
0
40
0.250000000000003
40
0.250000000000003
40
0.500000000000005
40
0.500000000000005
40
0.750000000000008
40
0.750000000000008
40
0.875000000000004
40
0.875000000000004
40
1
40
1
40
1
40
1
41
1
10
167.980450904927
20
20.035715095459
30
0
41
1
10
167.758590629144
20
19.633219196337
30
0
41
1
10
167.51890258225
20
19.2454972659833
30
0
41
1
10
166.99923993509
20
18.503439086388
30
0
41
1
10
166.719088341481
20
18.1492495124722
30
0
41
1
10
166.117689899877
20
17.474926220587
30
0
41
1
10
165.796552790303
20
17.1547015618038
30
0
41
1
10
165.284153235874
20
16.6998007636268
30
0
41
1
10
165.109020786025
20
16.5531934185252
30
0
41
1
10
164.752279670806
20
16.2713971470339
30
0
41
1
10
164.570369055387
20
16.1359393103654
30
0
41
1
10
164.385016306683
20
16.005771284073
30
0
0
SPLINE
5
1CF
100
AcDbEntity
8
1
62
256
6
ByLayer
370
-1
48
1
60
0
100
AcDbSpline
70
4
71
3
72
93
73
89
40
-0.0312500000000001
40
-0.0312500000000001
40
0
40
0
40
0.0312500000000077
40
0.0312500000000077
40
0.046875000000012
40
0.046875000000012
40
0.0625000000000162
40
0.0625000000000162
40
0.0937500000000224
40
0.0937500000000224
40
0.125000000000029
40
0.125000000000029
40
0.156250000000035
40
0.156250000000035
40
0.171875000000038
40
0.171875000000038
40
0.187500000000041
40
0.187500000000041
40
0.218750000000054
40
0.218750000000054
40
0.250000000000067
40
0.250000000000067
40
0.26562500000007
40
0.26562500000007
40
0.281250000000073
40
0.281250000000073
40
0.312500000000071
40
0.312500000000071
40
0.328125000000071
40
0.328125000000071
40
0.34375000000007
40
0.34375000000007
40
0.375000000000063
40
0.375000000000063
40
0.406250000000056
40
0.406250000000056
40
0.421875000000054
40
0.421875000000054
40
0.437500000000053
40
0.437500000000053
40
0.468750000000047
40
0.468750000000047
40
0.484375000000043
40
0.484375000000043
40
0.500000000000039
40
0.500000000000039
40
0.531250000000032
40
0.531250000000032
40
0.562500000000025
40
0.562500000000025
40
0.578125000000022
40
0.578125000000022
40
0.593750000000019
40
0.593750000000019
40
0.625000000000012
40
0.625000000000012
40
0.64062500000001
40
0.64062500000001
40
0.656250000000009
40
0.656250000000009
40
0.687500000000001
40
0.687500000000001
40
0.718749999999993
40
0.718749999999993
40
0.749999999999985
40
0.749999999999985
40
0.765624999999985
40
0.765624999999985
40
0.781249999999984
40
0.796874999999984
40
0.796874999999984
40
0.812499999999984
40
0.812499999999984
40
0.843749999999989
40
0.843749999999989
40
0.859374999999989
40
0.859374999999989
40
0.874999999999989
40
0.874999999999989
40
0.906249999999993
40
0.906249999999993
40
0.937499999999998
40
0.937499999999998
40
0.953124999999999
40
0.953124999999999
40
0.96875
40
0.96875
40
1
40
1
40
1.03125000000001
40
1.03125000000001
41
1
10
191.256955238021
20
-4.40425069530872
30
0
41
1
10
191.244403596763
20
-4.16111043692911
30
0
41
1
10
191.249746917549
20
-4.04063647770622
30
0
41
1
10
191.274760319531
20
-3.86154209835351
30
0
41
1
10
191.285950849873
20
-3.80211561138302
30
0
41
1
10
191.314205673492
20
-3.68382854305207
30
0
41
1
10
191.331385764179
20
-3.62469141068146
30
0
41
1
10
191.390939314393
20
-3.45164908647456
30
0
41
1
10
191.441328160539
20
-3.34126395413358
30
0
41
1
10
191.563492225069
20
-3.13053793075599
30
0
41
1
10
191.636240008342
20
-3.02932477246566
30
0
41
1
10
191.798182470625
20
-2.84569416013613
30
0
41
1
10
191.887600907594
20
-2.76240199858168
30
0
41
1
10
192.034671864086
20
-2.65059472667556
30
0
41
1
10
192.086163451382
20
-2.61537221940677
30
0
41
1
10
192.191484667592
20
-2.55087622207799
30
0
41
1
10
192.245446419908
20
-2.52145911254118
30
0
41
1
10
192.411157669727
20
-2.44154499535293
30
0
41
1
10
192.526915439723
20
-2.3992432418548
30
0
41
1
10
192.768163004068
20
-2.33810755867117
30
0
41
1
10
192.889884231724
20
-2.32018154678943
30
0
41
1
10
193.07405275222
20
-2.31158684019428
30
0
41
1
10
193.135708746228
20
-2.31179426093425
30
0
41
1
10
193.259568542263
20
-2.31852468866751
30
0
41
1
10
193.321650711494
20
-2.32508544323446
30
0
41
1
10
193.504482238244
20
-2.35379080343782
30
0
41
1
10
193.623261490353
20
-2.38491462804663
30
0
41
1
10
193.796762970461
20
-2.44956966480868
30
0
41
1
10
193.854117379419
20
-2.47430675673851
30
0
41
1
10
193.965054593897
20
-2.52896632568797
30
0
41
1
10
194.018770914153
20
-2.55889722552359
30
0
41
1
10
194.174799964938
20
-2.65627609382312
30
0
41
1
10
194.272250901321
20
-2.73143514957818
30
0
41
1
10
194.452254049707
20
-2.90165823716339
30
0
41
1
10
194.532245700909
20
-2.99422089890041
30
0
41
1
10
194.637941761266
20
-3.14362918558399
30
0
41
1
10
194.670774149579
20
-3.19520593896212
30
0
41
1
10
194.731553592834
20
-3.30195933745486
30
0
41
1
10
194.759404350129
20
-3.3570457754291
30
0
41
1
10
194.833920973247
20
-3.52412599609093
30
0
41
1
10
194.872302795382
20
-3.63904568365538
30
0
41
1
10
194.913242385885
20
-3.81657249503226
30
0
41
1
10
194.924130312037
20
-3.87693178541954
30
0
41
1
10
194.939934291425
20
-3.99756920610921
30
0
41
1
10
194.944886653322
20
-4.05781477599092
30
0
41
1
10
194.951184660079
20
-4.23833394056891
30
0
41
1
10
194.94404936932
20
-4.35839042419042
30
0
41
1
10
194.90671544962
20
-4.5979232846932
30
0
41
1
10
194.876787095462
20
-4.71494181845318
30
0
41
1
10
194.816265871083
20
-4.88393968022677
30
0
41
1
10
194.793446220774
20
-4.93932330395788
30
0
41
1
10
194.742425914122
20
-5.04817354063746
30
0
41
1
10
194.714078862074
20
-5.10188127907003
30
0
41
1
10
194.621669067323
20
-5.25823177415447
30
0
41
1
10
194.550976021257
20
-5.35525828108658
30
0
41
1
10
194.431424736443
20
-5.49020386907284
30
0
41
1
10
194.389306262497
20
-5.53340746732033
30
0
41
1
10
194.300346947615
20
-5.61613483847316
30
0
41
1
10
194.253323580063
20
-5.65575806969719
30
0
41
1
10
194.108131951605
20
-5.76632753759864
30
0
41
1
10
194.005017997981
20
-5.82996968537367
30
0
41
1
10
193.785846987485
20
-5.93680855911535
30
0
41
1
10
193.668505035666
20
-5.98012496461771
30
0
41
1
10
193.430875223543
20
-6.04119779722541
30
0
41
1
10
193.3096448138
20
-6.05967220179124
30
0
41
1
10
193.124042789979
20
-6.06867525251135
30
0
41
1
10
193.061454819128
20
-6.06848284274244
30
0
41
1
10
192.938110506028
20
-6.06177538389141
30
0
41
1
10
192.815817838901
20
-6.04881559788566
30
0
41
1
10
192.695584592547
20
-6.02360069457433
30
0
41
1
10
192.576389062432
20
-5.9921995344842
30
0
41
1
10
192.517013513056
20
-5.97327182630116
30
0
41
1
10
192.344091069811
20
-5.90832161528741
30
0
41
1
10
192.234867144146
20
-5.85413274393579
30
0
41
1
10
192.07971919439
20
-5.75711229663415
30
0
41
1
10
192.029214745179
20
-5.72192870719442
30
0
41
1
10
191.932531946586
20
-5.64720741926871
30
0
41
1
10
191.886426273475
20
-5.6077753025568
30
0
41
1
10
191.75453543165
20
-5.48349089368949
30
0
41
1
10
191.675115398742
20
-5.3927075848612
30
0
41
1
10
191.533365006938
20
-5.19503606618918
30
0
41
1
10
191.473065714703
20
-5.09094709417377
30
0
41
1
10
191.3978827353
20
-4.92768827767046
30
0
41
1
10
191.375368957054
20
-4.87204853535181
30
0
41
1
10
191.3355126828
20
-4.75827861890485
30
0
41
1
10
191.318131588768
20
-4.69992697481624
30
0
41
1
10
191.274692000771
20
-4.52377242376213
30
0
41
1
10
191.256955238021
20
-4.40425069530872
30
0
41
1
10
191.244403596763
20
-4.16111043692911
30
0
0
SPLINE
5
1D0
100
AcDbEntity
8
1
62
256
6
ByLayer
370
-1
48
1
60
0
100
AcDbSpline
70
4
71
1
72
4
73
2
40
0
40
0
40
1
40
1
41
1
10
72.8333003056707
20
5.2137995446657
30
0
41
1
10
72.8333003056705
20
10.2549419504539
30
0
0
SPLINE
5
1D1
100
AcDbEntity
8
1
62
256
6
ByLayer
370
-1
48
1
60
0
100
AcDbSpline
70
4
71
3
72
24
73
20
40
0
40
0
40
0
40
0
40
0.157099936327771
40
0.157099936327771
40
0.314199872655542
40
0.314199872655542
40
0.471299808983314
40
0.471299808983314
40
0.510574793065257
40
0.510574793065257
40
0.5498497771472
40
0.5498497771472
40
0.628399745311086
40
0.628399745311086
40
0.785499681638859
40
0.785499681638859
40
0.942599617966631
40
0.942599617966631
40
1
40
1
40
1
40
1
41
1
10
70
20
-14.2392857118262
30
0
41
1
10
73.9231220863767
20
-15.3785235745047
30
0
41
1
10
77.8223027343361
20
-16.3807867799552
30
0
41
1
10
85.6041305713525
20
-18.0694391040202
30
0
41
1
10
89.4866795293391
20
-18.7563480277616
30
0
41
1
10
97.2618863001301
20
-19.7877907219475
30
0
41
1
10
101.154838793262
20
-20.1318230847962
30
0
41
1
10
106.04622375056
20
-20.3336621975873
30
0
41
1
10
107.025755273083
20
-20.3626473355326
30
0
41
1
10
108.987759354158
20
-20.3976084348208
30
0
41
1
10
109.968462135606
20
-20.403540058946
30
0
41
1
10
112.905172649836
20
-20.3868724561628
30
0
41
1
10
114.857872601401
20
-20.3298398278361
30
0
41
1
10
120.705705430609
20
-20.0233702759135
30
0
41
1
10
124.590836035183
20
-19.6381456629883
30
0
41
1
10
132.365030038671
20
-18.5286777752761
30
0
41
1
10
136.254240568613
20
-17.8049758809513
30
0
41
1
10
141.585261515073
20
-16.6049744211062
30
0
41
1
10
143.013872739678
20
-16.2631308351287
30
0
41
1
10
144.445252250861
20
-15.9014955982527
30
0
0
SPLINE
5
1D2
100
AcDbEntity
8
1
62
256
6
ByLayer
370
-1
48
1
60
0
100
AcDbSpline
70
4
71
3
72
14
73
10
40
0
40
0
40
0
40
0
40
0.499999999999999
40
0.499999999999999
40
0.624999999999999
40
0.624999999999999
40
0.749999999999999
40
0.749999999999999
40
1
40
1
40
1
40
1
41
1
10
50.3724422226868
20
4.24298644549719
30
0
41
1
10
50.0381467254188
20
4.52890055099246
30
0
41
1
10
49.7121671015808
20
4.86417140647094
30
0
41
1
10
49.3128545607427
20
5.34352952867016
30
0
41
1
10
49.2334063147317
20
5.44245101599776
30
0
41
1
10
49.0753057987864
20
5.64650740242544
30
0
41
1
10
48.9964443045414
20
5.75193421614588
30
0
41
1
10
48.762519861644
20
6.07571239556711
30
0
41
1
10
48.6111873967925
20
6.29994890069671
30
0
41
1
10
48.4641860963981
20
6.5322936496722
30
0
0
SPLINE
5
1D3
100
AcDbEntity
8
1
62
256
6
ByLayer
370
-1
48
1
60
0
100
AcDbSpline
70
4
71
3
72
16
73
12
40
0
40
0
40
0
40
0
40
0.124999999999995
40
0.124999999999995
40
0.249999999999991
40
0.249999999999991
40
0.499999999999994
40
0.499999999999994
40
0.749999999999997
40
0.749999999999997
40
1
40
1
40
1
40
1
41
1
10
13.4613248654051
20
-30.080592760317
30
0
41
1
10
13.4928040273172
20
-30.0805927603169
30
0
41
1
10
13.5234304266402
20
-30.0786859906591
30
0
41
1
10
13.5815263070002
20
-30.0717959485602
30
0
41
1
10
13.6079581046675
20
-30.0669872793662
30
0
41
1
10
13.681763268874
20
-30.049647240705
30
0
41
1
10
13.7208296342407
20
-30.0350452819075
30
0
41
1
10
13.7874862877331
20
-30.0032932993815
30
0
41
1
10
13.8142652669256
20
-29.9863830332717
30
0
41
1
10
13.8599440812239
20
-29.9511519005796
30
0
41
1
10
13.8787443055274
20
-29.9327613369588
30
0
41
1
10
13.8943375672974
20
-29.9139548464691
30
0
0
SPLINE
5
1D4
100
AcDbEntity
8
1
62
256
6
ByLayer
370
-1
48
1
60
0
100
AcDbSpline
70
4
71
3
72
14
73
10
40
0
40
0
40
0
40
0
40
0.0695842071516109
40
0.25456174281769
40
0.347050510650729
40
0.43953927848377
40
0.624516814149847
40
0.809494349815926
40
1
40
1
40
1
40
1
41
1
10
162.926357605425
20
13.6476831667074
30
0
41
1
10
162.827971597598
20
13.6389389927381
30
0
41
1
10
162.467904396763
20
13.6066645840381
30
0
41
1
10
161.977417538682
20
13.5613030334324
30
0
41
1
10
161.45574831043
20
13.511410871505
30
0
41
1
10
160.934961262384
20
13.4605024312719
30
0
41
1
10
160.284221484851
20
13.3948578462102
30
0
41
1
10
159.494894790236
20
13.3118689304609
30
0
41
1
10
158.965946279199
20
13.2539045260306
30
0
41
1
10
158.697555395924
20
13.2238718684396
30
0
0
SPLINE
5
1D5
100
AcDbEntity
8
1
62
256
6
ByLayer
370
-1
48
1
60
0
100
AcDbSpline
70
4
71
3
72
20
73
16
40
0
40
0
40
0
40
0
40
0.250000000000001
40
0.250000000000001
40
0.500000000000001
40
0.500000000000001
40
0.750000000000002
40
0.750000000000002
40
0.812500000000001
40
0.812500000000001
40
0.875000000000001
40
0.875000000000001
40
0.9375
40
0.9375
40
1
40
1
40
1
40
1
41
1
10
62.3939355058674
20
15.476188129131
30
0
41
1
10
61.9065787007702
20
15.7184588732162
30
0
41
1
10
61.4300491607148
20
15.962351896992
30
0
41
1
10
60.5007525297592
20
16.4622039213038
30
0
41
1
10
60.0479654255632
20
16.7181263027872
30
0
41
1
10
59.1677493904221
20
17.2488665165348
30
0
41
1
10
58.7403096303098
20
17.5236702840557
30
0
41
1
10
58.2228549315032
20
17.8825598960981
30
0
41
1
10
58.1202066271572
20
17.9551048573632
30
0
41
1
10
57.9166226490695
20
18.1018106761446
30
0
41
1
10
57.815936679285
20
18.1762318603283
30
0
41
1
10
57.6150879492781
20
18.3254997223353
30
0
41
1
10
57.5140827259387
20
18.3996115535599
30
0
41
1
10
57.3094741074698
20
18.54560402227
30
0
41
1
10
57.2060909790837
20
18.6176575996686
30
0
41
1
10
57.1016218594143
20
18.6887302301255
30
0
0
SPLINE
5
1D6
100
AcDbEntity
8
1
62
256
6
ByLayer
370
-1
48
1
60
0
100
AcDbSpline
70
4
71
3
72
24
73
20
40
0
40
0
40
0
40
0
40
0.0525815260139727
40
0.0525815260139727
40
0.187927022297691
40
0.187927022297691
40
0.323272518581409
40
0.323272518581409
40
0.458618014865127
40
0.458618014865127
40
0.593963511148845
40
0.593963511148845
40
0.729309007432564
40
0.729309007432564
40
0.796981755574423
40
0.796981755574423
40
0.864654503716282
40
0.864654503716282
40
1
40
1
40
1
40
1
41
1
10
146.131553815626
20
16.5809700754602
30
0
41
1
10
146.514955166161
20
16.671085501861
30
0
41
1
10
146.898407351135
20
16.7598164339155
30
0
41
1
10
148.269126614826
20
17.0718689441349
30
0
41
1
10
149.257241061976
20
17.2872548662412
30
0
41
1
10
151.23321602031
20
17.6977427927158
30
0
41
1
10
152.220332569155
20
17.8927269441579
30
0
41
1
10
154.192799173065
20
18.2622402242525
30
0
41
1
10
155.178148241754
20
18.4367441135705
30
0
41
1
10
157.148162423124
20
18.7640780252146
30
0
41
1
10
158.132941282244
20
18.916806448164
30
0
41
1
10
160.102465474938
20
19.2001886016978
30
0
41
1
10
161.08686623289
20
19.3311397214327
30
0
41
1
10
162.563559694711
20
19.510903063089
30
0
41
1
10
163.055995050431
20
19.5679121702734
30
0
41
1
10
164.040904255158
20
19.6764077653557
30
0
41
1
10
164.533209998401
20
19.728002322439
30
0
41
1
10
166.010018867054
20
19.8745112136608
30
0
41
1
10
166.995291645188
20
19.9606687922779
30
0
41
1
10
167.980450904927
20
20.0357150954377
30
0
0
SPLINE
5
1D7
100
AcDbEntity
8
1
62
256
6
ByLayer
370
-1
48
1
60
0
100
AcDbSpline
70
4
71
3
72
8
73
4
40
0
40
0
40
0
40
0
40
1
40
1
40
1
40
1
41
1
10
46.5
20
9.63209160411037
30
0
41
1
10
46.4494491314599
20
9.75363857730807
30
0
41
1
10
46.4015600141867
20
9.87565797330709
30
0
41
1
10
46.3563063083279
20
9.9981315405384
30
0
0
SPLINE
5
1D8
100
AcDbEntity
8
1
62
256
6
ByLayer
370
-1
48
1
60
0
100
AcDbSpline
70
4
71
3
72
8
73
4
40
0
40
0
40
0
40
0
40
1
40
1
40
1
40
1
41
1
10
46.5
20
16.9434970654572
30
0
41
1
10
46.3017734985521
20
16.5561915718752
30
0
41
1
10
46.1406815122781
20
16.1525441380186
30
0
41
1
10
46.0157853790299
20
15.7318329285859
30
0
0
SPLINE
5
1D9
100
AcDbEntity
8
1
62
256
6
ByLayer
370
-1
48
1
60
0
100
AcDbSpline
70
4
71
3
72
18
73
14
40
0
40
0
40
0
40
0
40
0.337069210252028
40
0.337069210252028
40
0.505603815378037
40
0.505603815378037
40
0.674138420504045
40
0.674138420504045
40
0.842673025630054
40
0.842673025630054
40
0.926940328193047
40
0.926940328193047
40
1
40
1
40
1
40
1
41
1
10
192.398041210204
20
14.1862194494869
30
0
41
1
10
192.42342887689
20
13.9741541054775
30
0
41
1
10
192.483462477551
20
13.7633370606548
30
0
41
1
10
192.634629356191
20
13.451588583179
30
0
41
1
10
192.694911877508
20
13.3497312759405
30
0
41
1
10
192.835421041654
20
13.1542054069886
30
0
41
1
10
192.91581773394
20
13.0600537263495
30
0
41
1
10
193.100855712117
20
12.8811502733665
30
0
41
1
10
193.20347801117
20
12.7984977860905
30
0
41
1
10
193.372642185383
20
12.6882144107179
30
0
41
1
10
193.43167163103
20
12.6536674433597
30
0
41
1
10
193.54736757129
20
12.5938623712756
30
0
41
1
10
193.603023285812
20
12.5681671756796
30
0
41
1
10
193.659887005514
20
12.5450372713936
30
0
0
SPLINE
5
1DA
100
AcDbEntity
8
1
62
256
6
ByLayer
370
-1
48
1
60
0
100
AcDbSpline
70
4
71
3
72
20
73
16
40
0
40
0
40
0
40
0
40
0.0114668551454126
40
0.0114668551454126
40
0.110320169630877
40
0.110320169630877
40
0.209173484116341
40
0.209173484116341
40
0.406880113087255
40
0.406880113087255
40
0.604586742058171
40
0.604586742058171
40
0.802293371029085
40
0.802293371029085
40
1
40
1
40
1
40
1
41
1
10
192.891716974662
20
15.6407606691701
30
0
41
1
10
192.886995530801
20
15.6362118966742
30
0
41
1
10
192.882311641327
20
15.6316441542021
30
0
41
1
10
192.83760366979
20
15.5875202457224
30
0
41
1
10
192.800284571101
20
15.5465339147452
30
0
41
1
10
192.730618014152
20
15.4618170634488
30
0
41
1
10
192.698307374263
20
15.4180836858531
30
0
41
1
10
192.609693349394
20
15.2851196308584
30
0
41
1
10
192.560984283879
20
15.1934093322688
30
0
41
1
10
192.481246246949
20
15.0042090043887
30
0
41
1
10
192.450255649268
20
14.9067128685909
30
0
41
1
10
192.40532059986
20
14.7058256450404
30
0
41
1
10
192.391675731801
20
14.6035127436174
30
0
41
1
10
192.381722412206
20
14.396823419592
30
0
41
1
10
192.385347376861
20
14.2922521214915
30
0
41
1
10
192.398041210204
20
14.1862194494869
30
0
0
SPLINE
5
1DB
100
AcDbEntity
8
1
62
256
6
ByLayer
370
-1
48
1
60
0
100
AcDbSpline
70
4
71
3
72
30
73
26
40
0
40
0
40
0
40
0
40
0.125
40
0.125
40
0.187500000000001
40
0.187500000000001
40
0.250000000000001
40
0.250000000000001
40
0.28125
40
0.28125
40
0.3125
40
0.3125
40
0.375
40
0.375
40
0.500000000000001
40
0.500000000000001
40
0.625000000000002
40
0.625000000000002
40
0.750000000000003
40
0.750000000000003
40
0.812500000000003
40
0.812500000000003
40
0.875000000000003
40
0.875000000000003
40
1
40
1
40
1
40
1
41
1
10
56.0414801825177
20
-9.61430041828848
30
0
41
1
10
56.2024917767878
20
-10.0405265763249
30
0
41
1
10
56.388247391471
20
-10.4310790894802
30
0
41
1
10
56.7119523077069
20
-10.9536495023334
30
0
41
1
10
56.8275880490356
20
-11.1174569571437
30
0
41
1
10
57.0751790762713
20
-11.4200099897247
30
0
41
1
10
57.2048492353834
20
-11.5559884385051
30
0
41
1
10
57.4082344249482
20
-11.736312856124
30
0
41
1
10
57.4775103004556
20
-11.79247395014
30
0
41
1
10
57.6190454195104
20
-11.8967007843556
30
0
41
1
10
57.6913146323489
20
-11.9443515736922
30
0
41
1
10
57.9125377644283
20
-12.0790981523951
30
0
41
1
10
58.0659455001363
20
-12.1620034696942
30
0
41
1
10
58.5427798689475
20
-12.3942286765733
30
0
41
1
10
58.878374373304
20
-12.5241869893601
30
0
41
1
10
59.5843441997541
20
-12.7492524698633
30
0
41
1
10
59.9547234166609
20
-12.8442641801417
30
0
41
1
10
60.7308412841097
20
-13.0092496584546
30
0
41
1
10
61.1365760822036
20
-13.0791719832306
30
0
41
1
10
61.7730215074583
20
-13.1706603164139
30
0
41
1
10
61.9892115017287
20
-13.198813566286
30
0
41
1
10
62.4278173474289
20
-13.2510556304843
30
0
41
1
10
62.6505233406325
20
-13.2751857421494
30
0
41
1
10
63.3289975390527
20
-13.3427677736061
30
0
41
1
10
63.7950922340583
20
-13.3814437110623
30
0
41
1
10
64.2756935155772
20
-13.4163304136165
30
0
0
SPLINE
5
1DC
100
AcDbEntity
8
1
62
256
6
ByLayer
370
-1
48
1
60
0
100
AcDbSpline
70
4
71
3
72
8
73
4
40
0
40
0
40
0
40
0
40
1
40
1
40
1
40
1
41
1
10
68.0127922980525
20
-12.7755841861731
30
0
41
1
10
67.6403833148611
20
-12.6553726391255
30
0
41
1
10
67.2735876810998
20
-12.5140948329446
30
0
41
1
10
66.9120125899896
20
-12.3520262859247
30
0
0
SPLINE
5
1DD
100
AcDbEntity
8
1
62
256
6
ByLayer
370
-1
48
1
60
0
100
AcDbSpline
70
4
71
3
72
32
73
28
40
0
40
0
40
0
40
0
40
0.125000000000002
40
0.125000000000002
40
0.250000000000004
40
0.250000000000004
40
0.312500000000006
40
0.312500000000006
40
0.375000000000008
40
0.375000000000008
40
0.500000000000012
40
0.500000000000012
40
0.531250000000012
40
0.531250000000012
40
0.562500000000012
40
0.562500000000012
40
0.625000000000011
40
0.625000000000011
40
0.750000000000008
40
0.750000000000008
40
0.781250000000008
40
0.781250000000008
40
0.812500000000007
40
0.812500000000007
40
0.875000000000005
40
0.875000000000005
40
1
40
1
40
1
40
1
41
1
10
55.2007688014044
20
19.7833422547311
30
0
41
1
10
54.7882023988179
20
19.9503528190061
30
0
41
1
10
54.3702067096468
20
20.084792926999
30
0
41
1
10
53.5251487259688
20
20.285107833099
30
0
41
1
10
53.0980807324418
20
20.3510325740974
30
0
41
1
10
52.4518090549299
20
20.3934721431528
30
0
41
1
10
52.23513580611
20
20.3980665961085
30
0
41
1
10
51.8082260659563
20
20.3876762029777
30
0
41
1
10
51.596997846016
20
20.3727970284546
30
0
41
1
10
50.970443135194
20
20.2992493850692
30
0
41
1
10
50.5622054520049
20
20.2118120884179
30
0
41
1
10
50.0657238094356
20
20.0530241550954
30
0
41
1
10
49.9671214630376
20
20.0187808662691
30
0
41
1
10
49.7713690028543
20
19.9452379288762
30
0
41
1
10
49.6739759065678
20
19.9058258025603
30
0
41
1
10
49.386587826366
20
19.780973690592
30
0
41
1
10
49.2010232790131
20
19.6888605207154
30
0
41
1
10
48.6622353363052
20
19.3869660685548
30
0
41
1
10
48.3268265147631
20
19.1517683449091
30
0
41
1
10
47.9380562286718
20
18.8167386235143
30
0
41
1
10
47.8618339344948
20
18.7476699777571
30
0
41
1
10
47.712502064245
20
18.6053971587777
30
0
41
1
10
47.6392435180465
20
18.5320312425153
30
0
41
1
10
47.4255551398618
20
18.3071104649814
30
0
41
1
10
47.2911941570522
20
18.1508153689995
30
0
41
1
10
46.9117641414229
20
17.663832582981
30
0
41
1
10
46.6902209232948
20
17.315160834167
30
0
41
1
10
46.5
20
16.9434970654572
30
0
0
SPLINE
5
1DE
100
AcDbEntity
8
1
62
256
6
ByLayer
370
-1
48
1
60
0
100
AcDbSpline
70
4
71
3
72
8
73
4
40
0
40
0
40
0
40
0
40
1
40
1
40
1
40
1
41
1
10
62.3939355058674
20
15.476188129131
30
0
41
1
10
65.9438198859023
20
12.0287254288468
30
0
41
1
10
69.4080905322512
20
8.59390207226645
30
0
41
1
10
72.8333003056707
20
5.2137995446657
30
0
0
SPLINE
5
1DF
100
AcDbEntity
8
1
62
256
6
ByLayer
370
-1
48
1
60
0
100
AcDbSpline
70
4
71
3
72
8
73
4
40
0
40
0
40
0
40
0
40
1
40
1
40
1
40
1
41
1
10
56.0414801825177
20
-1.90968814301084
30
0
41
1
10
56.0414801825177
20
-4.47789223477005
30
0
41
1
10
56.0414801825177
20
-7.04609632652927
30
0
41
1
10
56.0414801825177
20
-9.61430041828848
30
0
0
SPLINE
5
1E0
100
AcDbEntity
8
1
62
256
6
ByLayer
370
-1
48
1
60
0
100
AcDbSpline
70
4
71
3
72
8
73
4
40
0
40
0
40
0
40
0
40
1
40
1
40
1
40
1
41
1
10
70
20
11.870687596728
30
0
41
1
10
70.9732479494648
20
11.3830902891922
30
0
41
1
10
71.9150150981676
20
10.8432854229008
30
0
41
1
10
72.8333003056705
20
10.2549419504542
30
0
0
SPLINE
5
1E1
100
AcDbEntity
8
1
62
256
6
ByLayer
370
-1
48
1
60
0
100
AcDbSpline
70
4
71
3
72
8
73
4
40
0
40
0
40
0
40
0
40
1
40
1
40
1
40
1
41
1
10
178.950959794048
20
5.13123264079496
30
0
41
1
10
178.723916418204
20
5.1881589661995
30
0
41
1
10
178.498439249307
20
5.25009490859205
30
0
41
1
10
178.274473502412
20
5.31719922345647
30
0
0
SPLINE
5
1E2
100
AcDbEntity
8
1
62
256
6
ByLayer
370
-1
48
1
60
0
100
AcDbSpline
70
4
71
3
72
8
73
4
40
0
40
0
40
0
40
0
40
1
40
1
40
1
40
1
41
1
10
184.677607033367
20
5.45606848235187
30
0
41
1
10
183.706124037729
20
5.17591195209147
30
0
41
1
10
182.693934811147
20
4.97909875651217
30
0
41
1
10
181.66365487098
20
4.87858298629598
30
0
0
SPLINE
5
1E3
100
AcDbEntity
8
1
62
256
6
ByLayer
370
-1
48
1
60
0
100
AcDbSpline
70
4
71
3
72
12
73
8
40
0
40
0
40
0
40
0
40
0.250000000000014
40
0.250000000000014
40
0.500000000000027
40
0.500000000000027
40
1
40
1
40
1
40
1
41
1
10
186.665632428613
20
14.1514299062798
30
0
41
1
10
186.669827327029
20
14.1514299062798
30
0
41
1
10
186.677998162061
20
14.1571065864775
30
0
41
1
10
186.701383675153
20
14.1779049225569
30
0
41
1
10
186.716816543561
20
14.1932464242029
30
0
41
1
10
186.770598400103
20
14.2479391331144
30
0
41
1
10
186.817068001527
20
14.2962950555533
30
0
41
1
10
186.871006987746
20
14.3480262638028
30
0
0
SPLINE
5
1E4
100
AcDbEntity
8
1
62
256
6
ByLayer
370
-1
48
1
60
0
100
AcDbSpline
70
4
71
3
72
26
73
22
40
0
40
0
40
0
40
0
40
0.0624999999999717
40
0.0624999999999717
40
0.124999999999943
40
0.124999999999943
40
0.156249999999942
40
0.156249999999942
40
0.18749999999994
40
0.18749999999994
40
0.249999999999937
40
0.249999999999937
40
0.312499999999934
40
0.312499999999934
40
0.37499999999993
40
0.37499999999993
40
0.499999999999945
40
0.499999999999945
40
0.749999999999972
40
0.749999999999972
40
1
40
1
40
1
40
1
41
1
10
177.07148009655
20
11.012324267792
30
0
41
1
10
177.020873607032
20
11.0029823796821
30
0
41
1
10
176.971075961822
20
10.9907596452777
30
0
41
1
10
176.8745575361
20
10.955339090682
30
0
41
1
10
176.826880625539
20
10.9316853158864
30
0
41
1
10
176.769328854445
20
10.8818233141081
30
0
41
1
10
176.752902864517
20
10.8631311981733
30
0
41
1
10
176.727557189622
20
10.8204468802747
30
0
41
1
10
176.719594682895
20
10.7980155822248
30
0
41
1
10
176.708326228623
20
10.7278379255021
30
0
41
1
10
176.718040213361
20
10.6819549520069
30
0
41
1
10
176.750974990496
20
10.597811211869
30
0
41
1
10
176.774700474348
20
10.5583650076172
30
0
41
1
10
176.827678934027
20
10.4849394184945
30
0
41
1
10
176.857202671071
20
10.4506576630286
30
0
41
1
10
176.95123617786
20
10.3522248545767
30
0
41
1
10
177.021521849735
20
10.2921556055043
30
0
41
1
10
177.240675304688
20
10.1238503131986
30
0
41
1
10
177.397951503688
20
10.0269109563252
30
0
41
1
10
177.72336112913
20
9.84778596677816
30
0
41
1
10
177.891943461196
20
9.7662008115467
30
0
41
1
10
178.064804618027
20
9.69027473362851
30
0
0
SPLINE
5
1E5
100
AcDbEntity
8
1
62
256
6
ByLayer
370
-1
48
1
60
0
100
AcDbSpline
70
4
71
3
72
16
73
12
40
0
40
0
40
0
40
0
40
0.249999999999997
40
0.249999999999997
40
0.499999999999995
40
0.499999999999995
40
0.624999999999993
40
0.624999999999993
40
0.749999999999992
40
0.749999999999992
40
1
40
1
40
1
40
1
41
1
10
184.955330457548
20
2.64667138811507
30
0
41
1
10
184.346125265866
20
2.60997495911718
30
0
41
1
10
183.740845627213
20
2.61050125387465
30
0
41
1
10
182.537923261971
20
2.6839674030758
30
0
41
1
10
181.940280620244
20
2.75690850857623
30
0
41
1
10
181.049689692998
20
2.92175151372075
30
0
41
1
10
180.753808033738
20
2.98596487060453
30
0
41
1
10
180.164073695965
20
3.13346031683608
30
0
41
1
10
179.870048815196
20
3.21686151834444
30
0
41
1
10
179.000646850271
20
3.4934624231245
30
0
41
1
10
178.434723159318
20
3.713666704715
30
0
41
1
10
177.882953359708
20
3.97028823011311
30
0
0
SPLINE
5
1E6
100
AcDbEntity
8
1
62
256
6
ByLayer
370
-1
48
1
60
0
100
AcDbSpline
70
4
71
3
72
16
73
12
40
0
40
0
40
0
40
0
40
0.249999999999999
40
0.249999999999999
40
0.499999999999998
40
0.499999999999998
40
0.749999999999997
40
0.749999999999997
40
0.874999999999998
40
0.874999999999998
40
1
40
1
40
1
40
1
41
1
10
10.1056624327026
20
9.86941261896612
30
0
41
1
10
10.1212498345488
20
9.81243201498799
30
0
41
1
10
10.1399018475136
20
9.75655023082962
30
0
41
1
10
10.1854864096889
20
9.64780841973385
30
0
41
1
10
10.2124982207834
20
9.59456078532602
30
0
41
1
10
10.279179996877
20
9.4946569987062
30
0
41
1
10
10.3189381439131
20
9.44778039735201
30
0
41
1
10
10.3915918423741
20
9.39323398486448
30
0
41
1
10
10.4185844965197
20
9.37745951316336
30
0
41
1
10
10.4761894743047
20
9.35548920253842
30
0
41
1
10
10.5072412025891
20
9.34922131452495
30
0
41
1
10
10.5386751345948
20
9.34922131452495
30
0
0
SPLINE
5
1E7
100
AcDbEntity
8
1
62
256
6
ByLayer
370
-1
48
1
60
0
100
AcDbSpline
70
4
71
3
72
42
73
38
40
0
40
0
40
0
40
0
40
0.0171836531992805
40
0.0827047429859951
40
0.148225832772709
40
0.213746922559424
40
0.246507467452783
40
0.279268012346139
40
0.344789102132854
40
0.410310191919568
40
0.459451009259605
40
0.475831281706283
40
0.50859182659964
40
0.524972099046319
40
0.541352371492998
40
0.557732643939677
40
0.574112916386355
40
0.590493188833034
40
0.598683325056374
40
0.606873461279713
40
0.615063597503052
40
0.623253733726391
40
0.63963400617307
40
0.656014278619747
40
0.672394551066427
40
0.688774823513105
40
0.705155095959785
40
0.721535368406463
40
0.737915640853142
40
0.746105777076481
40
0.770676185746499
40
0.787056458193177
40
0.803436730639857
40
0.836197275533214
40
0.868957820426571
40
0.934478910213286
40
1
40
1
40
1
40
1
41
1
10
96.7041531939842
20
1.09980745455295
30
0
41
1
10
96.5674762118936
20
1.12499962464409
30
0
41
1
10
95.9096457888106
20
1.24619266805257
30
0
41
1
10
94.7305750271463
20
1.46288953650037
30
0
41
1
10
93.1668260427441
20
1.74898240610821
30
0
41
1
10
91.8636053470619
20
1.98612950640594
30
0
41
1
10
90.8209497451553
20
2.17487031546534
30
0
41
1
10
89.7781527057205
20
2.36278852118926
30
0
41
1
10
88.4745847030474
20
2.59645586742195
30
0
41
1
10
87.0410721835039
20
2.85119980273694
30
0
41
1
10
85.9989247117449
20
3.03436500034673
30
0
41
1
10
85.2175920885713
20
3.1705138483282
30
0
41
1
10
84.6961995194321
20
3.2608212934276
30
0
41
1
10
84.1738609004584
20
3.35112038561186
30
0
41
1
10
83.7815465528344
20
3.41890399552133
30
0
41
1
10
83.389174328702
20
3.48672274648888
30
0
41
1
10
82.9972333277641
20
3.55438302192928
30
0
41
1
10
82.6712848631173
20
3.61051712435369
30
0
41
1
10
82.4110222508059
20
3.65516431720329
30
0
41
1
10
82.2161267688182
20
3.68848071680745
30
0
41
1
10
82.0213448009012
20
3.72166262055913
30
0
41
1
10
81.7614963823436
20
3.76580040064414
30
0
41
1
10
81.4365601995781
20
3.82075171793102
30
0
41
1
10
81.0459288101307
20
3.88652038179279
30
0
41
1
10
80.6542931921296
20
3.95228786789244
30
0
41
1
10
80.2621940324869
20
4.01805002314757
30
0
41
1
10
79.8703176828866
20
4.08361321912511
30
0
41
1
10
79.4790140929722
20
4.14887764372534
30
0
41
1
10
79.1536094003959
20
4.20288618308908
30
0
41
1
10
78.7635039068392
20
4.26731649009841
30
0
41
1
10
78.3730466038568
20
4.33149487978702
30
0
41
1
10
77.9170605086667
20
4.40606054111629
30
0
41
1
10
77.3954388543675
20
4.49099485583022
30
0
41
1
10
76.7431827923751
20
4.59662982580986
30
0
41
1
10
75.6997565973765
20
4.76423833745855
30
0
41
1
10
74.3958682396282
20
4.97110972209327
30
0
41
1
10
73.3538763346445
20
5.13357387509876
30
0
41
1
10
72.8333003056736
20
5.21379954466508
30
0
0
SPLINE
5
1E8
100
AcDbEntity
8
1
62
256
6
ByLayer
370
-1
48
1
60
0
100
AcDbSpline
70
4
71
4
72
13
73
8
40
0
40
0
40
0
40
0
40
0
40
0.645375765383118
40
0.645375765383118
40
0.645375765383118
40
1
40
1
40
1
40
1
40
1
41
1
10
72.8333003056736
20
5.21379954466505
30
0
41
1
10
72.8333003056736
20
3.60381190701958
30
0
41
0.942809041582063
10
72.4031495189729
20
-0.0614791874604411
30
0
41
1
10
71.2603015734048
20
-4.92226688348177
30
0
41
1
10
69.927277280355
20
-9.65296774957184
30
0
41
0.982732125193279
10
69.3863305207902
20
-11.3395249600173
30
0
41
0.976661684700137
10
68.9028285892161
20
-12.4714061002714
30
0
41
0.978971472859964
10
68.5443360073313
20
-12.95269395175
30
0
0
SPLINE
5
1E9
100
AcDbEntity
8
1
62
256
6
ByLayer
370
-1
48
1
60
0
100
AcDbSpline
70
4
71
3
72
40
73
36
40
0
40
0
40
0
40
0
40
0.0617302563439735
40
0.0617302563439735
40
0.139919401648643
40
0.139919401648643
40
0.218108546953313
40
0.218108546953313
40
0.296297692257982
40
0.296297692257982
40
0.335392264910317
40
0.335392264910317
40
0.374486837562651
40
0.374486837562651
40
0.45267598286732
40
0.45267598286732
40
0.530865128171989
40
0.530865128171989
40
0.687243418781326
40
0.687243418781326
40
0.72633799143366
40
0.72633799143366
40
0.765432564085995
40
0.765432564085995
40
0.843621709390663
40
0.843621709390663
40
0.882716282042998
40
0.882716282042998
40
0.902263568369165
40
0.902263568369165
40
0.921810854695332
40
0.921810854695332
40
0.960905427347666
40
0.960905427347666
40
1
40
1
40
1
40
1
41
1
10
143.648514957989
20
-15.6735976707962
30
0
41
1
10
142.090411708674
20
-16.0324678027016
30
0
41
1
10
140.533612986789
20
-16.3686362672755
30
0
41
1
10
137.00585607327
20
-17.0761966562274
30
0
41
1
10
135.035143531903
20
-17.433086075387
30
0
41
1
10
131.091599870815
20
-18.0684067135076
30
0
41
1
10
129.118419844102
20
-18.3459088234188
30
0
41
1
10
125.168942502134
20
-18.8185181788713
30
0
41
1
10
123.196750535762
20
-19.0129371036313
30
0
41
1
10
120.239822324866
20
-19.2391601827914
30
0
41
1
10
119.254392759434
20
-19.3037370686591
30
0
41
1
10
117.283673649869
20
-19.4099045715426
30
0
41
1
10
116.298417984539
20
-19.4512384383069
30
0
41
1
10
113.341769726658
20
-19.5422342685377
30
0
41
1
10
111.36971790121
20
-19.5571800944927
30
0
41
1
10
107.420173238795
20
-19.4979684296765
30
0
41
1
10
105.448182386564
20
-19.4232351307846
30
0
41
1
10
99.5349923841825
20
-19.0687484669951
30
0
41
1
10
95.5968451386586
20
-18.657775189619
30
0
41
1
10
90.6616879589
20
-17.9317420279203
30
0
41
1
10
89.6748985664823
20
-17.7761237601839
30
0
41
1
10
87.7032113538758
20
-17.4451623049105
30
0
41
1
10
86.7180114401653
20
-17.2698355229113
30
0
41
1
10
83.7639169949199
20
-16.7143733683454
30
0
41
1
10
81.7962874156755
20
-16.3061693318423
30
0
41
1
10
78.8456335191543
20
-15.6362694648183
30
0
41
1
10
77.8617684705524
20
-15.4062224603621
30
0
41
1
10
76.3861104026555
20
-15.0454371784303
30
0
41
1
10
75.8942143557671
20
-14.9227341830389
30
0
41
1
10
74.9101699516753
20
-14.673809284069
30
0
41
1
10
74.4180487154442
20
-14.5474112420524
30
0
41
1
10
72.9414977962118
20
-14.1609962153745
30
0
41
1
10
71.9567441778101
20
-13.8947713148168
30
0
41
1
10
69.9858737237126
20
-13.346853593256
30
0
41
1
10
68.9997602975168
20
-13.0651933257726
30
0
41
1
10
68.0127922980499
20
-12.7755841861725
30
0
0
SPLINE
5
1EA
100
AcDbEntity
8
1
62
256
6
ByLayer
370
-1
48
1
60
0
100
AcDbSpline
70
4
71
3
72
10
73
6
40
0
40
0
40
0
40
0
40
0.5
40
0.5
40
1
40
1
40
1
40
1
41
1
10
55.2007688014045
20
19.7833422547311
30
0
41
1
10
55.5355484799322
20
19.6478204510451
30
0
41
1
10
55.8611604715768
20
19.4884593960881
30
0
41
1
10
56.4946844406985
20
19.1234978299525
30
0
41
1
10
56.8025936968847
20
18.9178938679042
30
0
41
1
10
57.1016221016132
20
18.688731441409
30
0
0
SPLINE
5
1EB
100
AcDbEntity
8
1
62
256
6
ByLayer
370
-1
48
1
60
0
100
AcDbSpline
70
4
71
3
72
18
73
14
40
0
40
0
40
0
40
0
40
0.245757383972012
40
0.245757383972012
40
0.497171589314673
40
0.497171589314673
40
0.622878691986003
40
0.622878691986003
40
0.685732243321669
40
0.685732243321669
40
0.748585794657334
40
0.748585794657334
40
1
40
1
40
1
40
1
41
1
10
114.656613467202
20
20.399998350627
30
0
41
1
10
118.277956468792
20
20.4004070984135
30
0
41
1
10
121.885799431137
20
20.242872795181
30
0
41
1
10
129.182799133088
20
19.6173223611554
30
0
41
1
10
132.87198375935
20
19.142778091744
30
0
41
1
10
138.420463810056
20
18.2065166762567
30
0
41
1
10
140.272439536329
20
17.8570311755435
30
0
41
1
10
143.05662441118
20
17.2792264761729
30
0
41
1
10
143.985723062273
20
17.0777020114771
30
0
41
1
10
145.846403941328
20
16.6572925458531
30
0
41
1
10
146.778551828706
20
16.4382660661231
30
0
41
1
10
151.437183798036
20
15.3033273412752
30
0
41
1
10
155.159847815445
20
14.2680796966196
30
0
41
1
10
158.889542055538
20
13.1258772964143
30
0
0
SPLINE
5
1EC
100
AcDbEntity
8
1
62
256
6
ByLayer
370
-1
48
1
60
0
100
AcDbSpline
70
4
71
3
72
10
73
6
40
0
40
0
40
0
40
0
40
0.859477332723078
40
0.859477332723078
40
1
40
1
40
1
40
1
41
1
10
172.868598236853
20
7.90771443002581
30
0
41
1
10
172.321341435549
20
7.94580713054825
30
0
41
1
10
171.778516369089
20
7.99213513114518
30
0
41
1
10
171.15492918311
20
8.06115831048544
30
0
41
1
10
171.067483601789
20
8.07120153131677
30
0
41
1
10
170.980233344531
20
8.08161764860554
30
0
0
SPLINE
5
1ED
100
AcDbEntity
8
1
62
256
6
ByLayer
370
-1
48
1
60
0
100
AcDbSpline
70
4
71
3
72
12
73
8
40
0
40
0
40
0
40
0
40
0.460809202839161
40
0.460809202839161
40
0.73040460141958
40
0.73040460141958
40
1
40
1
40
1
40
1
41
1
10
164.297106037157
20
11.1243686694307
30
0
41
1
10
164.049230952788
20
11.4642202294149
30
0
41
1
10
163.825042071211
20
11.8287353464731
30
0
41
1
10
163.49240413884
20
12.4419392941764
30
0
41
1
10
163.374303570053
20
12.6763808489597
30
0
41
1
10
163.145881192038
20
13.1547395954157
30
0
41
1
10
163.035303783433
20
13.3990303797814
30
0
41
1
10
162.926357605424
20
13.6476831667073
30
0
0
SPLINE
5
1EE
100
AcDbEntity
8
1
62
256
6
ByLayer
370
-1
48
1
60
0
100
AcDbSpline
70
4
71
3
72
16
73
12
40
0
40
0
40
0
40
0
40
0.124999999999997
40
0.124999999999997
40
0.249999999999995
40
0.249999999999995
40
0.499999999999997
40
0.499999999999997
40
0.749999999999998
40
0.749999999999998
40
1
40
1
40
1
40
1
41
1
10
13.4613248654052
20
9.34922131452498
30
0
41
1
10
13.4928040273173
20
9.34922131452498
30
0
41
1
10
13.5234304266402
20
9.35536120669443
30
0
41
1
10
13.5815263070002
20
9.37748487924952
30
0
41
1
10
13.6079581046676
20
9.39290424748296
30
0
41
1
10
13.6817632688741
20
9.44829073160835
30
0
41
1
10
13.7208296342407
20
9.49467220053398
30
0
41
1
10
13.7874862877332
20
9.59453680346888
30
0
41
1
10
13.8142652669256
20
9.6472847925792
30
0
41
1
10
13.8599440812239
20
9.75611455014862
30
0
41
1
10
13.8787443055274
20
9.81241059371416
30
0
41
1
10
13.8943375672974
20
9.86941261896607
30
0
0
SPLINE
5
1EF
100
AcDbEntity
8
1
62
256
6
ByLayer
370
-1
48
1
60
0
100
AcDbSpline
70
4
71
3
72
16
73
12
40
0
40
0
40
0
40
0
40
0.124999999999999
40
0.124999999999999
40
0.249999999999998
40
0.249999999999998
40
0.499999999999999
40
0.499999999999999
40
0.749999999999999
40
0.749999999999999
40
1
40
1
40
1
40
1
41
1
10
10.5386751345948
20
-9.34922131452504
30
0
41
1
10
10.5071959726827
20
-9.34922131452504
30
0
41
1
10
10.4765695733598
20
-9.35536120669445
30
0
41
1
10
10.4184736929998
20
-9.37748487924955
30
0
41
1
10
10.3920418953324
20
-9.39290424748299
30
0
41
1
10
10.3182367311259
20
-9.44829073160841
30
0
41
1
10
10.2791703657593
20
-9.49467220053401
30
0
41
1
10
10.2125137122668
20
-9.59453680346891
30
0
41
1
10
10.1857347330744
20
-9.64728479257926
30
0
41
1
10
10.1400559187761
20
-9.75611455014868
30
0
41
1
10
10.1212556944726
20
-9.81241059371419
30
0
41
1
10
10.1056624327025
20
-9.86941261896609
30
0
0
SPLINE
5
1F0
100
AcDbEntity
8
1
62
256
6
ByLayer
370
-1
48
1
60
0
100
AcDbSpline
70
4
71
3
72
8
73
4
40
0
40
0
40
0
40
0
40
1
40
1
40
1
40
1
41
1
10
46.0157853790299
20
11.0850581768247
30
0
41
1
10
46.1097289291424
20
10.7201129438422
30
0
41
1
10
46.2234188038327
20
10.3577751632461
30
0
41
1
10
46.3563063083289
20
9.99813154053567
30
0
0
SPLINE
5
1F1
100
AcDbEntity
8
1
62
256
6
ByLayer
370
-1
48
1
60
0
100
AcDbSpline
70
4
71
3
72
20
73
16
40
0
40
0
40
0
40
0
40
0.25
40
0.25
40
0.375
40
0.375
40
0.5
40
0.5
40
0.625
40
0.625
40
0.75
40
0.75
40
0.875
40
0.875
40
1
40
1
40
1
40
1
41
1
10
46.0157853790291
20
11.0850581768245
30
0
41
1
10
45.9130386368795
20
11.484201425159
30
0
41
1
10
45.8360234677627
20
11.8907187513307
30
0
41
1
10
45.7566402213174
20
12.4992461508421
30
0
41
1
10
45.7363103657318
20
12.7022259760124
30
0
41
1
10
45.7085614593276
20
13.1024320861225
30
0
41
1
10
45.7010687625626
20
13.300120289509
30
0
41
1
10
45.6991435794978
20
13.6899816975595
30
0
41
1
10
45.70471709155
20
13.8821488862321
30
0
41
1
10
45.7294083053019
20
14.2613754844611
30
0
41
1
10
45.7485319797239
20
14.4484388992439
30
0
41
1
10
45.8007993206311
20
14.8190170418089
30
0
41
1
10
45.8339480790675
20
15.0025367609633
30
0
41
1
10
45.9145670020454
20
15.3685570993901
30
0
41
1
10
45.9618058730668
20
15.5500035744844
30
0
41
1
10
46.0157853790298
20
15.7318329285859
30
0
0
SPLINE
5
1F2
100
AcDbEntity
8
1
62
256
6
ByLayer
370
-1
48
1
60
0
100
AcDbSpline
70
4
71
3
72
28
73
24
40
0
40
0
40
0
40
0
40
0.125
40
0.125
40
0.1875
40
0.1875
40
0.249999999999999
40
0.249999999999999
40
0.374999999999999
40
0.374999999999999
40
0.499999999999999
40
0.499999999999999
40
0.624999999999999
40
0.624999999999999
40
0.656249999999999
40
0.656249999999999
40
0.687499999999998
40
0.687499999999998
40
0.749999999999998
40
0.749999999999998
40
0.874999999999999
40
0.874999999999999
40
1
40
1
40
1
40
1
41
1
10
48.4641860964016
20
6.53229364965969
30
0
41
1
10
48.6751201368949
20
5.78755311750274
30
0
41
1
10
48.9013225911473
20
5.04077440130615
30
0
41
1
10
49.2639487002034
20
3.91729381947411
30
0
41
1
10
49.3887237882402
20
3.54224833796107
30
0
41
1
10
49.6463082530042
20
2.79101066930232
30
0
41
1
10
49.7795165686071
20
2.41375954177067
30
0
41
1
10
50.1870782120766
20
1.29278849731904
30
0
41
1
10
50.4701179991823
20
0.557236237979453
30
0
41
1
10
51.059389895422
20
-0.890127824749584
30
0
41
1
10
51.3656134414252
20
-1.60194638434598
30
0
41
1
10
52.0032791438887
20
-3.00043218719046
30
0
41
1
10
52.3346953824059
20
-3.68711966162582
30
0
41
1
10
52.7672295748274
20
-4.52789676762032
30
0
41
1
10
52.8548272431525
20
-4.69548793486646
30
0
41
1
10
53.0309819592884
20
-5.02701836857426
30
0
41
1
10
53.1195024187513
20
-5.19090173884481
30
0
41
1
10
53.3864422509411
20
-5.67688351367346
30
0
41
1
10
53.566237242378
20
-5.99332097165779
30
0
41
1
10
54.1116154304245
20
-6.91954516425332
30
0
41
1
10
54.4831260807723
20
-7.5064003408759
30
0
41
1
10
55.2458961338358
20
-8.61329873238947
30
0
41
1
10
55.6370930993021
20
-9.13347113486432
30
0
41
1
10
56.0414801825177
20
-9.61430041828848
30
0
0
SPLINE
5
1F3
100
AcDbEntity
8
1
62
256
6
ByLayer
370
-1
48
1
60
0
100
AcDbSpline
70
4
71
3
72
18
73
14
40
0
40
0
40
0
40
0
40
0.125000000000001
40
0.125000000000001
40
0.250000000000001
40
0.250000000000001
40
0.375000000000002
40
0.375000000000002
40
0.500000000000002
40
0.500000000000002
40
0.750000000000001
40
0.750000000000001
40
1
40
1
40
1
40
1
41
1
10
187.220944704525
20
7.81879982543617
30
0
41
1
10
187.226248745494
20
7.81879982543617
30
0
41
1
10
187.221501421446
20
7.8253626088316
30
0
41
1
10
187.196274910961
20
7.84979153053959
30
0
41
1
10
187.176600687657
20
7.86702770493767
30
0
41
1
10
187.128748473012
20
7.9097946663922
30
0
41
1
10
187.100836490413
20
7.93510347292391
30
0
41
1
10
187.041763173714
20
7.99156559426072
30
0
41
1
10
187.010339658414
20
8.02292457008161
30
0
41
1
10
186.912692567825
20
8.12690341292597
30
0
41
1
10
186.845969622901
20
8.20634693071639
30
0
41
1
10
186.71522472975
20
8.38900529824627
30
0
41
1
10
186.65443118222
20
8.48761456327225
30
0
41
1
10
186.598819067358
20
8.59503523136769
30
0
0
SPLINE
5
1F4
100
AcDbEntity
8
1
62
256
6
ByLayer
370
-1
48
1
60
0
100
AcDbSpline
70
4
71
3
72
8
73
4
40
0
40
0
40
0
40
0
40
1
40
1
40
1
40
1
41
1
10
199.691233368123
20
8.98607153359006
30
0
41
1
10
199.69125755565
20
9.03942562640489
30
0
41
1
10
199.690787732869
20
9.09278338937014
30
0
41
1
10
199.689890701792
20
9.14612795136503
30
0
0
SPLINE
5
1F5
100
AcDbEntity
8
1
62
256
6
ByLayer
370
-1
48
1
60
0
100
AcDbSpline
70
4
71
3
72
8
73
4
40
0
40
0
40
0
40
0
40
1
40
1
40
1
40
1
41
1
10
188.51239773146
20
9.17911913128313
30
0
41
1
10
188.524723721298
20
9.05052541262563
30
0
41
1
10
188.534871547875
20
8.8979937626593
30
0
41
1
10
188.541505102336
20
8.7416071899496
30
0
0
SPLINE
5
1F6
100
AcDbEntity
8
1
62
256
6
ByLayer
370
-1
48
1
60
0
100
AcDbSpline
70
4
71
3
72
8
73
4
40
0
40
0
40
0
40
0
40
1
40
1
40
1
40
1
41
1
10
186.708729387205
20
19.8621746446305
30
0
41
1
10
186.709579773723
20
19.831850439564
30
0
41
1
10
186.71056861327
20
19.8015297533886
30
0
41
1
10
186.711694621894
20
19.7712144130751
30
0
0
SPLINE
5
1F7
100
AcDbEntity
8
1
62
256
6
ByLayer
370
-1
48
1
60
0
100
AcDbSpline
70
4
71
3
72
15
73
11
40
0
40
0
40
0
40
0
40
0.0229190021791633
40
0.110481321488114
40
0.285605960106016
40
0.63585523734182
40
0.810979875959722
40
0.898542195268673
40
0.986104514577624
40
1
40
1
40
1
40
1
41
1
10
188.150703963356
20
19.9754153016514
30
0
41
1
10
188.150656869298
20
19.9771637106384
30
0
41
1
10
188.150428965257
20
19.9855928630982
30
0
41
1
10
188.149835945708
20
20.0073862962232
30
0
41
1
10
188.1485666024
20
20.0541542458736
30
0
41
1
10
188.147114632986
20
20.1076043800555
30
0
41
1
10
188.145844539012
20
20.1543729441752
30
0
41
1
10
188.145119665917
20
20.1810969259021
30
0
41
1
10
188.144727574229
20
20.1955200500981
30
0
41
1
10
188.144516455284
20
20.2032624271949
30
0
41
1
10
188.144487493126
20
20.2043228534052
30
0
0
SPLINE
5
1F8
100
AcDbEntity
8
1
62
256
6
ByLayer
370
-1
48
1
60
0
100
AcDbSpline
70
4
71
3
72
8
73
4
40
0
40
0
40
0
40
0
40
1
40
1
40
1
40
1
41
1
10
199.159815530794
20
8.4143248963567
30
0
41
1
10
199.197562690701
20
8.41704447198288
30
0
41
1
10
199.23451815855
20
8.42395936794125
30
0
41
1
10
199.270681718744
20
8.43506977576487
30
0
0
SPLINE
5
1F9
100
AcDbEntity
8
1
62
256
6
ByLayer
370
-1
48
1
60
0
100
AcDbSpline
70
4
71
3
72
15
73
11
40
0
40
0
40
0
40
0
40
0.0138956313306638
40
0.101457951273539
40
0.189020271216413
40
0.364144911102163
40
0.714394190873661
40
0.889518830759411
40
0.977081150702285
40
1
40
1
40
1
40
1
41
1
10
199.194396185419
20
9.86075590141124
30
0
41
1
10
199.193331853566
20
9.8607188686529
30
0
41
1
10
199.185560691312
20
9.86044848754045
30
0
41
1
10
199.171082792741
20
9.85994482821613
30
0
41
1
10
199.144255707865
20
9.85901160633767
30
0
41
1
10
199.097308229038
20
9.85737841191661
30
0
41
1
10
199.043654042818
20
9.85551189327734
30
0
41
1
10
198.996706449652
20
9.8538787182024
30
0
41
1
10
198.974830827516
20
9.85311767860799
30
0
41
1
10
198.966368436049
20
9.85282332555389
30
0
41
1
10
198.964612963133
20
9.85276226992437
30
0
0
SPLINE
5
1FA
100
AcDbEntity
8
1
62
256
6
ByLayer
370
-1
48
1
60
0
100
AcDbSpline
70
4
71
3
72
10
73
6
40
0
40
0
40
0
40
0
40
0.0485494410342235
40
0.365699627356149
40
1
40
1
40
1
40
1
41
1
10
199.185991934259
20
19.6164712328221
30
0
41
1
10
199.186971900123
20
19.6165062559057
30
0
41
1
10
199.194352241574
20
19.6167700361905
30
0
41
1
10
199.214515106022
20
19.6174908701677
30
0
41
1
10
199.233706033464
20
19.618176883891
30
0
41
1
10
199.246498563075
20
19.6186341904989
30
0
0
SPLINE
5
1FB
100
AcDbEntity
8
1
62
256
6
ByLayer
370
-1
48
1
60
0
100
AcDbSpline
70
4
71
3
72
8
73
4
40
0
40
0
40
0
40
0
40
1
40
1
40
1
40
1
41
1
10
199.305880838365
20
20.2126930463624
30
0
41
1
10
199.304828339225
20
20.243010014235
30
0
41
1
10
199.30363490002
20
20.2733223432981
30
0
41
1
10
199.302300631391
20
20.3036278688641
30
0
0
SPLINE
5
1FC
100
AcDbEntity
8
1
62
256
6
ByLayer
370
-1
48
1
60
0
100
AcDbSpline
70
4
71
3
72
8
73
4
40
0
40
0
40
0
40
0
40
1
40
1
40
1
40
1
41
1
10
186.719077024615
20
20.1837490563415
30
0
41
1
10
186.710506636055
20
20.1467308200867
30
0
41
1
10
186.706189459919
20
20.1092218443425
30
0
41
1
10
186.706144031432
20
20.0712203182563
30
0
0
SPLINE
5
1FD
100
AcDbEntity
8
1
62
256
6
ByLayer
370
-1
48
1
60
0
100
AcDbSpline
70
4
71
3
72
8
73
4
40
0
40
0
40
0
40
0
40
1
40
1
40
1
40
1
41
1
10
186.706144031432
20
20.0712203182563
30
0
41
1
10
186.706080249896
20
20.0178662254415
30
0
41
1
10
186.706622764746
20
19.9645084624763
30
0
41
1
10
186.707595694493
20
19.9111639004814
30
0
0
SPLINE
5
1FE
100
AcDbEntity
8
1
62
256
6
ByLayer
370
-1
48
1
60
0
100
AcDbSpline
70
4
71
3
72
8
73
4
40
0
40
0
40
0
40
0
40
1
40
1
40
1
40
1
41
1
10
197.859019029265
20
19.8781727205632
30
0
41
1
10
197.862398012003
20
20.0067664392207
30
0
41
1
10
197.861933331456
20
20.1592980891871
30
0
41
1
10
197.857686169571
20
20.3156846618968
30
0
0
SPLINE
5
1FF
100
AcDbEntity
8
1
62
256
6
ByLayer
370
-1
48
1
60
0
100
AcDbSpline
70
4
71
3
72
12
73
8
40
0
40
0
40
0
40
0
40
0.659147749653562
40
0.823934687066953
40
0.906328155773648
40
0.988721624480343
40
1
40
1
40
1
40
1
41
1
10
188.343714439487
20
9.48124567327503
30
0
41
1
10
188.337033231638
20
9.4810114691351
30
0
41
1
10
188.328834860095
20
9.48071884863026
30
0
41
1
10
188.320917723822
20
9.48042895827601
30
0
41
1
10
188.31817896287
20
9.48032778464363
30
0
41
1
10
188.316774337084
20
9.480275533021
30
0
41
1
10
188.316036974272
20
9.48024804280973
30
0
41
1
10
188.315948317819
20
9.48024473677049
30
0
0
SPLINE
5
200
100
AcDbEntity
8
1
62
256
6
ByLayer
370
-1
48
1
60
0
100
AcDbSpline
70
4
71
3
72
15
73
11
40
0
40
0
40
0
40
0
40
0.0144496252551414
40
0.0300932819971233
40
0.0613805954810871
40
0.123955222449015
40
0.24910447638487
40
0.49940298425658
40
0.74970149212829
40
1
40
1
40
1
40
1
41
1
10
186.711694573118
20
19.7712144113653
30
0
41
1
10
186.712522539221
20
19.7712434350225
30
0
41
1
10
186.712895851903
20
19.7712565211854
30
0
41
1
10
186.714636982222
20
19.7713175550482
30
0
41
1
10
186.717476509372
20
19.7714170922905
30
0
41
1
10
186.723326952275
20
19.7716221746589
30
0
41
1
10
186.734913579012
20
19.7720283341398
30
0
41
1
10
186.751521944274
20
19.7726105264523
30
0
41
1
10
186.771429892503
20
19.7733083828778
30
0
41
1
10
186.784704397079
20
19.7737737095005
30
0
41
1
10
186.791341649367
20
19.7740063728119
30
0
0
SPLINE
5
201
100
AcDbEntity
8
1
62
256
6
ByLayer
370
-1
48
1
60
0
100
AcDbSpline
70
4
71
3
72
9
73
5
40
0
40
0
40
0
40
0
40
0.593749999999914
40
1
40
1
40
1
40
1
41
1
10
198.857883819576
20
8.4779288849621
30
0
41
1
10
198.858552469465
20
8.46216541077811
30
0
41
1
10
198.859678616647
20
8.43561640162616
30
0
41
1
10
198.860804763828
20
8.40906739247421
30
0
41
1
10
198.861262261121
20
8.39828185750625
30
0
0
SPLINE
5
202
100
AcDbEntity
8
1
62
256
6
ByLayer
370
-1
48
1
60
0
100
AcDbSpline
70
4
71
3
72
12
73
8
40
0
40
0
40
0
40
0
40
0.341077853836652
40
0.341077853836652
40
0.670538966398329
40
0.670538966398329
40
1
40
1
40
1
40
1
41
1
10
199.685994690161
20
9.28607743877075
30
0
41
1
10
199.683596198747
20
9.35329654631767
30
0
41
1
10
199.681173082095
20
9.42051315196238
30
0
41
1
10
199.676538279268
20
9.55267078863406
30
0
41
1
10
199.6743348898
20
9.61760951968003
30
0
41
1
10
199.669907220556
20
9.74748260175261
30
0
41
1
10
199.667684349829
20
9.81241987406773
30
0
41
1
10
199.66542539547
20
9.87735496084844
30
0
0
SPLINE
5
203
100
AcDbEntity
8
1
62
256
6
ByLayer
370
-1
48
1
60
0
100
AcDbSpline
70
4
71
3
72
10
73
6
40
0
40
0
40
0
40
0
40
0.5
40
0.5
40
1
40
1
40
1
40
1
41
1
10
199.105560264931
20
20.8870184510203
30
0
41
1
10
199.067132495444
20
20.9229929712612
30
0
41
1
10
199.024909910846
20
20.9531968513934
30
0
41
1
10
198.933098572108
20
21.0023867303097
30
0
41
1
10
198.883532722271
20
21.0211414939831
30
0
41
1
10
198.832322350548
20
21.0330587507071
30
0
0
SPLINE
5
204
100
AcDbEntity
8
1
62
256
6
ByLayer
370
-1
48
1
60
0
100
AcDbSpline
70
4
71
3
72
15
73
11
40
0
40
0
40
0
40
0
40
0.0144496252550659
40
0.030093281997049
40
0.0613805954810152
40
0.123955222448947
40
0.249104476384812
40
0.499402984256541
40
0.749701492128271
40
1
40
1
40
1
40
1
41
1
10
187.976225726455
20
8.01671598356972
30
0
41
1
10
187.976196813242
20
8.01754711236856
30
0
41
1
10
187.976183776876
20
8.01792185104398
30
0
41
1
10
187.976122975265
20
8.01966963219874
30
0
41
1
10
187.976023816792
20
8.02252000588084
30
0
41
1
10
187.975819514824
20
8.02839279652514
30
0
41
1
10
187.975414900903
20
8.04002368229368
30
0
41
1
10
187.974834924008
20
8.05669548881335
30
0
41
1
10
187.974139723137
20
8.07667948216971
30
0
41
1
10
187.973676167222
20
8.09000469319665
30
0
41
1
10
187.973444389265
20
8.09666729871012
30
0
0
SPLINE
5
205
100
AcDbEntity
8
1
62
256
6
ByLayer
370
-1
48
1
60
0
100
AcDbSpline
70
4
71
3
72
25
73
21
40
0
40
0
40
0
40
0
40
0.0099904601135139
40
0.0399882789191941
40
0.159979554141915
40
0.279970829364636
40
0.309968648170316
40
0.339966466975996
40
0.369964285781677
40
0.399962104587357
40
0.519953379810078
40
0.639944655032799
40
0.75993593025552
40
0.87992720547824
40
0.939922843089601
40
0.969920661895281
40
0.984919571298121
40
0.992419025999541
40
0.999918480700961
40
1
40
1
40
1
40
1
41
1
10
187.53858973098
20
20.5793673035507
30
0
41
1
10
187.536457459453
20
20.5792912417341
30
0
41
1
10
187.527922914823
20
20.5789804239725
30
0
41
1
10
187.49378415044
20
20.5775739213162
30
0
41
1
10
187.436221894572
20
20.5740840553894
30
0
41
1
10
187.378793354787
20
20.5688201753261
30
0
41
1
10
187.340589448974
20
20.5645503803602
30
0
41
1
10
187.32150367276
20
20.5622719095977
30
0
41
1
10
187.302430513554
20
20.5598823888059
30
0
41
1
10
187.264439553436
20
20.5539661379538
30
0
41
1
10
187.208283442664
20
20.5402894266199
30
0
41
1
10
187.136371333121
20
20.5125541592516
30
0
41
1
10
187.068589011106
20
20.4757934375991
30
0
41
1
10
187.016594135291
20
20.4379867985521
30
0
41
1
10
186.982949352706
20
20.4081867877553
30
0
41
1
10
186.966873687487
20
20.3924909954679
30
0
41
1
10
186.959029594641
20
20.3844489740826
30
0
41
1
10
186.954604904568
20
20.3797985171263
30
0
41
1
10
186.952398482188
20
20.3774424895794
30
0
41
1
10
186.951295838378
20
20.3762533120208
30
0
41
1
10
186.951283982244
20
20.37624052407
30
0
0
SPLINE
5
206
100
AcDbEntity
8
1
62
256
6
ByLayer
370
-1
48
1
60
0
100
AcDbSpline
70
4
71
3
72
8
73
4
40
0
40
0
40
0
40
0
40
1
40
1
40
1
40
1
41
1
10
187.53642705095
20
20.6590099943401
30
0
41
1
10
187.506223679011
20
20.6579552508647
30
0
41
1
10
187.476027793653
20
20.6567561525881
30
0
41
1
10
187.445841530786
20
20.6554128311911
30
0
0
SPLINE
5
207
100
AcDbEntity
8
1
62
256
6
ByLayer
370
-1
48
1
60
0
100
AcDbSpline
70
4
71
3
72
12
73
8
40
0
40
0
40
0
40
0
40
0.0112779549369143
40
0.0936714586921714
40
0.176064962447429
40
0.340851969957943
40
1
40
1
40
1
40
1
41
1
10
187.976972464622
20
19.2243052819004
30
0
41
1
10
187.977061332791
20
19.224308594501
30
0
41
1
10
187.977800514856
20
19.2243361412511
30
0
41
1
10
187.979208546269
20
19.2243884987301
30
0
41
1
10
187.98193979094
20
19.2244894387072
30
0
41
1
10
187.989863173898
20
19.2247795233301
30
0
41
1
10
187.998057969382
20
19.2250720325801
30
0
41
1
10
188.004739177071
20
19.2253062367112
30
0
0
SPLINE
5
208
100
AcDbEntity
8
1
62
256
6
ByLayer
370
-1
48
1
60
0
100
AcDbSpline
70
4
71
3
72
10
73
6
40
0
40
0
40
0
40
0
40
0.048549441033606
40
0.365699627355737
40
1
40
1
40
1
40
1
41
1
10
187.212875390704
20
9.44082061902427
30
0
41
1
10
187.211857129689
20
9.44078559594072
30
0
41
1
10
187.204187601106
20
9.44052181565593
30
0
41
1
10
187.183223594824
20
9.43980098167867
30
0
41
1
10
187.163274306065
20
9.43911496795542
30
0
41
1
10
187.149975404997
20
9.43865766134746
30
0
0
SPLINE
5
209
100
AcDbEntity
8
1
62
256
6
ByLayer
370
-1
48
1
60
0
100
AcDbSpline
70
4
71
3
72
17
73
13
40
0
40
0
40
0
40
0
40
0.0285647612451761
40
0.114009773641725
40
0.284899798434822
40
0.455789823227919
40
0.626679848021017
40
0.797569872814114
40
0.883014885210663
40
0.925737391408937
40
0.968459897607211
40
1
40
1
40
1
40
1
41
1
10
188.152036620815
20
19.5379084893459
30
0
41
1
10
188.152132271911
20
19.5415872274343
30
0
41
1
10
188.152509191285
20
19.5563000755964
30
0
41
1
10
188.153315246536
20
19.5939006001877
30
0
41
1
10
188.15411498042
20
19.6525950742456
30
0
41
1
10
188.154396677178
20
19.7262604309515
30
0
41
1
10
188.154003560076
20
19.8025381390593
30
0
41
1
10
188.153113662476
20
19.8677815484531
30
0
41
1
10
188.15220042944
20
19.9140563625449
30
0
41
1
10
188.151597134911
20
19.9406315275977
30
0
41
1
10
188.151146100478
20
19.9588762669369
30
0
41
1
10
188.150836792704
20
19.9704838933932
30
0
41
1
10
188.150703963356
20
19.9754153016514
30
0
0
SPLINE
5
20A
100
AcDbEntity
8
1
62
256
6
ByLayer
370
-1
48
1
60
0
100
AcDbSpline
70
4
71
3
72
15
73
11
40
0
40
0
40
0
40
0
40
0.250148781622205
40
0.500297563244409
40
0.750446344866614
40
0.875520735677716
40
0.938057931083267
40
0.969326528786043
40
0.984960827637431
40
1
40
1
40
1
40
1
41
1
10
199.023541670506
20
20.7994234655923
30
0
41
1
10
199.030376553375
20
20.8067230477113
30
0
41
1
10
199.044046319113
20
20.8213222119493
30
0
41
1
10
199.064546911183
20
20.8432166259698
30
0
41
1
10
199.081650344496
20
20.8614829106132
30
0
41
1
10
199.093580965502
20
20.874224686798
30
0
41
1
10
199.099607124034
20
20.8806605599372
30
0
41
1
10
199.102528931257
20
20.8837810189366
30
0
41
1
10
199.10434343585
20
20.8857188905198
30
0
41
1
10
199.104864274951
20
20.8862751411328
30
0
41
1
10
199.105560266369
20
20.8870184525558
30
0
0
SPLINE
5
20B
100
AcDbEntity
8
1
62
256
6
ByLayer
370
-1
48
1
60
0
100
AcDbSpline
70
4
71
3
72
8
73
4
40
0
40
0
40
0
40
0
40
1
40
1
40
1
40
1
41
1
10
198.720171923199
20
21.0459910601444
30
0
41
1
10
198.667001061811
20
21.0460352126896
30
0
41
1
10
198.613882687277
20
21.0455271103917
30
0
41
1
10
198.560779066781
20
21.0445885585064
30
0
0
SPLINE
5
20C
100
AcDbEntity
8
1
62
256
6
ByLayer
370
-1
48
1
60
0
100
AcDbSpline
70
4
71
3
72
12
73
8
40
0
40
0
40
0
40
0
40
0.341077853836671
40
0.341077853836671
40
0.670538966398327
40
0.670538966398327
40
1
40
1
40
1
40
1
41
1
10
187.976225724751
20
8.01671603254806
30
0
41
1
10
188.043238163782
20
8.01917299392431
30
0
41
1
10
188.110268314535
20
8.02167495588193
30
0
41
1
10
188.2419535618
20
8.02635808974847
30
0
41
1
10
188.306599649328
20
8.02852418984014
30
0
41
1
10
188.435904664974
20
8.03289462978714
30
0
41
1
10
188.500565268175
20
8.0350963154053
30
0
41
1
10
188.565253257346
20
8.03736389860271
30
0
0
SPLINE
5
20D
100
AcDbEntity
8
1
62
256
6
ByLayer
370
-1
48
1
60
0
100
AcDbSpline
70
4
71
3
72
8
73
4
40
0
40
0
40
0
40
0
40
1
40
1
40
1
40
1
41
1
10
198.560779066781
20
21.0445885585063
30
0
41
1
10
198.544521460383
20
21.044301222031
30
0
41
1
10
198.528265189016
20
21.0439336047586
30
0
41
1
10
198.51201138366
20
21.0434858233789
30
0
0
SPLINE
5
20E
100
AcDbEntity
8
1
62
256
6
ByLayer
370
-1
48
1
60
0
100
AcDbSpline
70
4
71
3
72
8
73
4
40
0
40
0
40
0
40
0
40
1
40
1
40
1
40
1
41
1
10
187.56515483918
20
8.02423310113952
30
0
41
1
10
187.602014962028
20
8.01564728881303
30
0
41
1
10
187.639362657993
20
8.01133223941321
30
0
41
1
10
187.677205476356
20
8.01130079170204
30
0
0
SPLINE
5
20F
100
AcDbEntity
8
1
62
256
6
ByLayer
370
-1
48
1
60
0
100
AcDbSpline
70
4
71
3
72
15
73
11
40
0
40
0
40
0
40
0
40
0.020451991245379
40
0.0504132324411473
40
0.110335714832684
40
0.230180679615757
40
0.469870609181903
40
0.709560538748049
40
0.949250468314195
40
1
40
1
40
1
40
1
41
1
10
188.144487493126
20
20.2043228534053
30
0
41
1
10
188.144425202852
20
20.2066035619452
30
0
41
1
10
188.144271116583
20
20.2122259027898
30
0
41
1
10
188.14392628064
20
20.2245379003028
30
0
41
1
10
188.143238689471
20
20.2479672237731
30
0
41
1
10
188.141751317586
20
20.2948929306255
30
0
41
1
10
188.139300602182
20
20.3619896556714
30
0
41
1
10
188.135860242763
20
20.4421780983196
30
0
41
1
10
188.132971263514
20
20.5007466128211
30
0
41
1
10
188.131268029839
20
20.5325231482345
30
0
41
1
10
188.130969066932
20
20.5380718777423
30
0
0
SPLINE
5
210
100
AcDbEntity
8
1
62
256
6
ByLayer
370
-1
48
1
60
0
100
AcDbSpline
70
4
71
3
72
10
73
6
40
0
40
0
40
0
40
0
40
0.5
40
0.5
40
1
40
1
40
1
40
1
41
1
10
187.128590493572
20
8.43375003498218
30
0
41
1
10
187.143970861823
20
8.38333973372821
30
0
41
1
10
187.165475096922
20
8.33602716335358
30
0
41
1
10
187.220366294865
20
8.24741235585458
30
0
41
1
10
187.253852580919
20
8.20631021081306
30
0
41
1
10
187.292129047067
20
8.1702734007464
30
0
0
SPLINE
5
211
100
AcDbEntity
8
1
62
256
6
ByLayer
370
-1
48
1
60
0
100
AcDbSpline
70
4
71
3
72
15
73
11
40
0
40
0
40
0
40
0
40
0.022919002179182
40
0.110481321488112
40
0.285605960105971
40
0.635855237341689
40
0.810979875959548
40
0.898542195268477
40
0.986104514577407
40
1
40
1
40
1
40
1
41
1
10
198.625637700234
20
19.596822832225
30
0
41
1
10
198.627393185391
20
19.5968838880122
30
0
41
1
10
198.63585559073
20
19.5971782405023
30
0
41
1
10
198.657731221167
20
19.5979392839569
30
0
41
1
10
198.704678819415
20
19.5995724567463
30
0
41
1
10
198.75833300743
20
19.6014389765614
30
0
41
1
10
198.805280488519
20
19.6030721708085
30
0
41
1
10
198.832107575146
20
19.6040053928143
30
0
41
1
10
198.846585473304
20
19.6045090594097
30
0
41
1
10
198.8543566103
20
19.6047794291756
30
0
41
1
10
198.855420929097
20
19.6048164600749
30
0
0
SPLINE
5
212
100
AcDbEntity
8
1
62
256
6
ByLayer
370
-1
48
1
60
0
100
AcDbSpline
70
4
71
3
72
23
73
19
40
0
40
0
40
0
40
0
40
0.0074200078966917
40
0.0149215578681041
40
0.0299246578109287
40
0.0599308576965779
40
0.119943257467876
40
0.239968057010473
40
0.480017656095668
40
0.600042455638265
40
0.630048655523914
40
0.660054855409563
40
0.690061055295213
40
0.720067255180862
40
0.840092054723459
40
0.960116854266056
40
0.990123054151705
40
1
40
1
40
1
40
1
41
1
10
199.445114465992
20
8.68105132777643
30
0
41
1
10
199.446194871389
20
8.68221498097412
30
0
41
1
10
199.448359904508
20
8.68456430402017
30
0
41
1
10
199.452661824206
20
8.68931103427386
30
0
41
1
10
199.460108649469
20
8.69773339691648
30
0
41
1
10
199.474587862608
20
8.71494014436556
30
0
41
1
10
199.501857799381
20
8.750735944094
30
0
41
1
10
199.549374087288
20
8.82737056997669
30
0
41
1
10
199.585843340971
20
8.92448748362182
30
0
41
1
10
199.599787621037
20
9.00709542270721
30
0
41
1
10
199.603030015625
20
9.04554821533031
30
0
41
1
10
199.604091349298
20
9.06481198396969
30
0
41
1
10
199.605058331039
20
9.08407980352436
30
0
41
1
10
199.606711902988
20
9.1226276503794
30
0
41
1
10
199.6080412153
20
9.18049414346396
30
0
41
1
10
199.607602200237
20
9.23837219047545
30
0
41
1
10
199.606690252266
20
9.27262775886635
30
0
41
1
10
199.606419462752
20
9.28117015148075
30
0
41
1
10
199.60635069461
20
9.28328559969984
30
0
0
SPLINE
5
213
100
AcDbEntity
8
1
62
256
6
ByLayer
370
-1
48
1
60
0
100
AcDbSpline
70
4
71
3
72
15
73
11
40
0
40
0
40
0
40
0
40
0.250148781622225
40
0.500297563244449
40
0.750446344866674
40
0.875520735677786
40
0.938057931083342
40
0.96932652878612
40
0.98496082763751
40
1
40
1
40
1
40
1
41
1
10
187.372856081616
20
8.2578683862541
30
0
41
1
10
187.366128828742
20
8.2505688041351
30
0
41
1
10
187.352674322997
20
8.23596963989709
30
0
41
1
10
187.332496557034
20
8.21407522587654
30
0
41
1
10
187.315662454226
20
8.19580894123325
30
0
41
1
10
187.303919706621
20
8.18306716504839
30
0
41
1
10
187.297988442974
20
8.17663129190919
30
0
41
1
10
187.295112645918
20
8.17351083290976
30
0
41
1
10
187.293326714619
20
8.17157296132658
30
0
41
1
10
187.292814077255
20
8.17101671071362
30
0
41
1
10
187.292129045725
20
8.17027339929061
30
0
0
SPLINE
5
214
100
AcDbEntity
8
1
62
256
6
ByLayer
370
-1
48
1
60
0
100
AcDbSpline
70
4
71
3
72
10
73
6
40
0
40
0
40
0
40
0
40
0.0485494410334688
40
0.365699627355646
40
1
40
1
40
1
40
1
41
1
10
188.130969066932
20
20.5380718777423
30
0
41
1
10
188.130915029546
20
20.5390748076328
30
0
41
1
10
188.130507659459
20
20.5466284866794
30
0
41
1
10
188.129388997556
20
20.5672704710267
30
0
41
1
10
188.128326413663
20
20.5869153337609
30
0
41
1
10
188.127617661516
20
20.6000108816138
30
0
0
SPLINE
5
215
100
AcDbEntity
8
1
62
256
6
ByLayer
370
-1
48
1
60
0
100
AcDbSpline
70
4
71
3
72
17
73
13
40
0
40
0
40
0
40
0
40
0.0285647612452284
40
0.114009773641774
40
0.284899798434864
40
0.455789823227954
40
0.626679848021044
40
0.797569872814134
40
0.88301488521068
40
0.925737391408952
40
0.968459897607225
40
1
40
1
40
1
40
1
41
1
10
198.175908454037
20
19.581544757681
30
0
41
1
10
198.179796820032
20
19.5816732220459
30
0
41
1
10
198.195342429614
20
19.5821870060251
30
0
41
1
10
198.23491397085
20
19.5835000452772
30
0
41
1
10
198.296226685237
20
19.5855497014762
30
0
41
1
10
198.372456081766
20
19.5881221524174
30
0
41
1
10
198.450703953234
20
19.5907858286796
30
0
41
1
10
198.517078874408
20
19.59306417874
30
0
41
1
10
198.563874168756
20
19.5946801308562
30
0
41
1
10
198.590669406551
20
19.5956081560692
30
0
41
1
10
198.609028380617
20
19.5962452764061
30
0
41
1
10
198.620686333555
20
19.5966506236539
30
0
41
1
10
198.625637700234
20
19.596822832225
30
0
0
SPLINE
5
216
100
AcDbEntity
8
1
62
256
6
ByLayer
370
-1
48
1
60
0
100
AcDbSpline
70
4
71
3
72
8
73
4
40
0
40
0
40
0
40
0
40
1
40
1
40
1
40
1
41
1
10
199.688827316722
20
9.19511720721584
30
0
41
1
10
199.688020775518
20
9.22544141228244
30
0
41
1
10
199.687076392796
20
9.25576209845781
30
0
41
1
10
199.685994690178
20
9.28607743877132
30
0
0
SPLINE
5
217
100
AcDbEntity
8
1
62
256
6
ByLayer
370
-1
48
1
60
0
100
AcDbSpline
70
4
71
3
72
8
73
4
40
0
40
0
40
0
40
0
40
1
40
1
40
1
40
1
41
1
10
198.951854317052
20
8.40187902065549
30
0
41
1
10
198.968111539894
20
8.40260229582555
30
0
41
1
10
198.984365896924
20
8.40340670152688
30
0
41
1
10
199.000616167241
20
8.40429215269822
30
0
0
SPLINE
5
218
100
AcDbEntity
8
1
62
256
6
ByLayer
370
-1
48
1
60
0
100
AcDbSpline
70
4
71
3
72
8
73
4
40
0
40
0
40
0
40
0
40
1
40
1
40
1
40
1
41
1
10
187.091808473707
20
8.84459880548405
30
0
41
1
10
187.092857434283
20
8.81428183761139
30
0
41
1
10
187.094053065769
20
8.78396950854827
30
0
41
1
10
187.095395216447
20
8.75366398298229
30
0
0
SPLINE
5
219
100
AcDbEntity
8
1
62
256
6
ByLayer
370
-1
48
1
60
0
100
AcDbSpline
70
4
71
3
72
10
73
6
40
0
40
0
40
0
40
0
40
0.0485494410334881
40
0.365699627355659
40
1
40
1
40
1
40
1
41
1
10
198.267898258031
20
8.51921997410406
30
0
41
1
10
198.267914000266
20
8.51821704421357
30
0
41
1
10
198.268032183221
20
8.51066336516695
30
0
41
1
10
198.26834970329
20
8.49002138081968
30
0
41
1
10
198.268653925866
20
8.47037651808554
30
0
41
1
10
198.268856306555
20
8.45728097023263
30
0
0
SPLINE
5
21A
100
AcDbEntity
8
1
62
256
6
ByLayer
370
-1
48
1
60
0
100
AcDbSpline
70
4
71
3
72
8
73
4
40
0
40
0
40
0
40
0
40
1
40
1
40
1
40
1
41
1
10
188.551214838682
20
8.51269938525502
30
0
41
1
10
188.555944317325
20
8.40120155100828
30
0
41
1
10
188.559228947184
20
8.28821862757258
30
0
41
1
10
188.560917632384
20
8.17894792919793
30
0
0
SPLINE
5
21B
100
AcDbEntity
8
1
62
256
6
ByLayer
370
-1
48
1
60
0
100
AcDbSpline
70
4
71
3
72
10
73
6
40
0
40
0
40
0
40
0
40
0.5
40
0.5
40
1
40
1
40
1
40
1
41
1
10
190.264229687393
20
11.6423581576954
30
0
41
1
10
190.256262611445
20
11.687992623062
30
0
41
1
10
190.24519027161
20
11.7359450255863
30
0
41
1
10
190.216939154093
20
11.8363276044565
30
0
41
1
10
190.199555607958
20
11.8889055387775
30
0
41
1
10
190.180686193918
20
11.9398780829549
30
0
0
SPLINE
5
21C
100
AcDbEntity
8
1
62
256
6
ByLayer
370
-1
48
1
60
0
100
AcDbSpline
70
4
71
3
72
12
73
8
40
0
40
0
40
0
40
0
40
0.0112779549374453
40
0.0936714586926582
40
0.176064962447871
40
0.340851969958297
40
1
40
1
40
1
40
1
41
1
10
198.378714594883
20
9.832986569946
30
0
41
1
10
198.378614464056
20
9.83298325734538
30
0
41
1
10
198.377781978213
20
9.83295571059531
30
0
41
1
10
198.376202776313
20
9.83290335311634
30
0
41
1
10
198.373174934255
20
9.83280241313915
30
0
41
1
10
198.364547664551
20
9.83251232851632
30
0
41
1
10
198.356053471316
20
9.83221981926627
30
0
41
1
10
198.349372263626
20
9.83198561513518
30
0
0
SPLINE
5
21D
100
AcDbEntity
8
1
62
256
6
ByLayer
370
-1
48
1
60
0
100
AcDbSpline
70
4
71
3
72
14
73
10
40
0
40
0
40
0
40
0
40
0.0138067085559978
40
0.0298030682371572
40
0.0617957875994762
40
0.317737542498027
40
0.82962105229513
40
0.957591929744406
40
1
40
1
40
1
40
1
41
1
10
198.207034096777
20
9.64817899531425
30
0
41
1
10
198.207090526186
20
9.64758204328749
30
0
41
1
10
198.207213204531
20
9.64630296782846
30
0
41
1
10
198.207467546465
20
9.64365064601074
30
0
41
1
10
198.20871984865
20
9.6306207505263
30
0
41
1
10
198.21200884985
20
9.59625958846325
30
0
41
1
10
198.215696172822
20
9.55781501103922
30
0
41
1
10
198.218503587001
20
9.52852463586598
30
0
41
1
10
198.219204406264
20
9.52120668022954
30
0
41
1
10
198.219378673197
20
9.51938336250049
30
0
0
SPLINE
5
21E
100
AcDbEntity
8
1
62
256
6
ByLayer
370
-1
48
1
60
0
100
AcDbSpline
70
4
71
3
72
25
73
21
40
0
40
0
40
0
40
0
40
0.0099904601134663
40
0.0399882789191465
40
0.159979554141867
40
0.279970829364587
40
0.309968648170267
40
0.339966466975948
40
0.369964285781628
40
0.399962104587308
40
0.519953379810028
40
0.639944655032749
40
0.759935930255469
40
0.87992720547819
40
0.93992284308955
40
0.96992066189523
40
0.98491957129807
40
0.99241902599949
40
0.99991848070091
40
1
40
1
40
1
40
1
41
1
10
199.225933293087
20
20.209911864123
30
0
41
1
10
199.225857459318
20
20.2120522189554
30
0
41
1
10
199.225547528703
20
20.2206190674221
30
0
41
1
10
199.224144250343
20
20.2548861003392
30
0
41
1
10
199.220664306047
20
20.3126648634832
30
0
41
1
10
199.215417041967
20
20.3703093432474
30
0
41
1
10
199.211161226811
20
20.4086569050616
30
0
41
1
10
199.208890289641
20
20.4278144448216
30
0
41
1
10
199.206508711229
20
20.4469593055337
30
0
41
1
10
199.200612674819
20
20.4850930774883
30
0
41
1
10
199.186984558574
20
20.5414602333795
30
0
41
1
10
199.159350298624
20
20.6136424845328
30
0
41
1
10
199.122724900601
20
20.6816791445656
30
0
41
1
10
199.08505839252
20
20.733868883384
30
0
41
1
10
199.055368900906
20
20.7676392937208
30
0
41
1
10
199.039731750074
20
20.7837752754483
30
0
41
1
10
199.031719323415
20
20.7916483200134
30
0
41
1
10
199.02708664375
20
20.7960899928907
30
0
41
1
10
199.024738567308
20
20.7983038252804
30
0
41
1
10
199.023554690187
20
20.7994114592302
30
0
41
1
10
199.023541959381
20
20.7994233691682
30
0
0
SPLINE
5
21F
100
AcDbEntity
8
1
62
256
6
ByLayer
370
-1
48
1
60
0
100
AcDbSpline
70
4
71
3
72
15
73
11
40
0
40
0
40
0
40
0
40
0.250148781622265
40
0.50029756324453
40
0.750446344866795
40
0.875520735677928
40
0.938057931083494
40
0.969326528786277
40
0.984960827637668
40
1
40
1
40
1
40
1
41
1
10
186.95128353813
20
20.3762405834778
30
0
41
1
10
186.944065548122
20
20.3830475539263
30
0
41
1
10
186.929629568108
20
20.3966614948232
30
0
41
1
10
186.907979881997
20
20.4170783661995
30
0
41
1
10
186.889917771334
20
20.4341119521971
30
0
41
1
10
186.877318418155
20
20.4459938507136
30
0
41
1
10
186.870954482898
20
20.4519953995084
30
0
41
1
10
186.86786890327
20
20.4549052746011
30
0
41
1
10
186.865952692521
20
20.4567123690874
30
0
41
1
10
186.865402659478
20
20.4572310811756
30
0
41
1
10
186.864667656523
20
20.4579242302913
30
0
0
SPLINE
5
220
100
AcDbEntity
8
1
62
256
6
ByLayer
370
-1
48
1
60
0
100
AcDbSpline
70
4
71
3
72
12
73
8
40
0
40
0
40
0
40
0
40
0.341077853836657
40
0.341077853836657
40
0.670538966398354
40
0.670538966398354
40
1
40
1
40
1
40
1
41
1
10
198.42146358732
20
21.0405758192983
30
0
41
1
10
198.354549389253
20
21.0381188579221
30
0
41
1
10
198.287657887672
20
21.0356168959645
30
0
41
1
10
198.156033661008
20
21.0309337620979
30
0
41
1
10
198.091296509398
20
21.0287676620063
30
0
41
1
10
197.961843773472
20
21.0243972220593
30
0
41
1
10
197.897124043896
20
21.0221955364411
30
0
41
1
10
197.832436054725
20
21.0199279532437
30
0
0
SPLINE
5
221
100
AcDbEntity
8
1
62
256
6
ByLayer
370
-1
48
1
60
0
100
AcDbSpline
70
4
71
3
72
8
73
4
40
0
40
0
40
0
40
0
40
1
40
1
40
1
40
1
41
1
10
199.289975599141
20
20.5123096968265
30
0
41
1
10
199.287298676152
20
20.5501686175261
30
0
41
1
10
199.280429271056
20
20.5872459984078
30
0
41
1
10
199.269366999976
20
20.6235418168621
30
0
0
SPLINE
5
222
100
AcDbEntity
8
1
62
256
6
ByLayer
370
-1
48
1
60
0
100
AcDbSpline
70
4
71
3
72
12
73
8
40
0
40
0
40
0
40
0
40
0.521734132299717
40
0.782601198449575
40
0.913034731524505
40
0.978251498061969
40
1
40
1
40
1
40
1
41
1
10
198.268856306555
20
8.45728097023263
30
0
41
1
10
198.371294892479
20
8.4608718692435
30
0
41
1
10
198.524952407025
20
8.46625658004015
30
0
41
1
10
198.704220545029
20
8.47254544087488
30
0
41
1
10
198.793853872306
20
8.47567917265852
30
0
41
1
10
198.836538547882
20
8.47718864395074
30
0
41
1
10
198.853613803199
20
8.47777222337459
30
0
41
1
10
198.857883743148
20
8.47792454829565
30
0
0
SPLINE
5
223
100
AcDbEntity
8
1
62
256
6
ByLayer
370
-1
48
1
60
0
100
AcDbSpline
70
4
71
3
72
15
73
11
40
0
40
0
40
0
40
0
40
0.0218721291689166
40
0.0870806538909888
40
0.217497703335133
40
0.478331802223422
40
0.543540326945494
40
0.608748851667567
40
0.739165901111711
40
1
40
1
40
1
40
1
41
1
10
187.97344439694
20
8.09666414226248
30
0
41
1
10
187.977743517934
20
8.09680907859544
30
0
41
1
10
187.994858478156
20
8.0974139483701
30
0
41
1
10
188.037594299553
20
8.09887209596312
30
0
41
1
10
188.127224101441
20
8.10196470110066
30
0
41
1
10
188.216719329638
20
8.10502301458479
30
0
41
1
10
188.293315228833
20
8.10763573843633
30
0
41
1
10
188.344410763768
20
8.10939035969281
30
0
41
1
10
188.433879421913
20
8.11248686903321
30
0
41
1
10
188.51065591077
20
8.11519084328083
30
0
41
1
10
188.561874815801
20
8.11701092605853
30
0
0
SPLINE
5
224
100
AcDbEntity
8
1
62
256
6
ByLayer
370
-1
48
1
60
0
100
AcDbSpline
70
4
71
3
72
23
73
19
40
0
40
0
40
0
40
0
40
0.0074200078967254
40
0.0149215578681374
40
0.0299246578109616
40
0.0599308576966098
40
0.119943257467906
40
0.239968057010499
40
0.480017656095685
40
0.600042455638278
40
0.630048655523926
40
0.660054855409574
40
0.690061055295222
40
0.720067255180871
40
0.840092054723464
40
0.960116854266056
40
0.990123054151705
40
1
40
1
40
1
40
1
41
1
10
186.951283982244
20
20.37624052407
30
0
41
1
10
186.950205120713
20
20.3750768708723
30
0
41
1
10
186.948048077727
20
20.3727275478262
30
0
41
1
10
186.943758596538
20
20.3679808175725
30
0
41
1
10
186.936335132022
20
20.3595584549299
30
0
41
1
10
186.921901416439
20
20.3423517074808
30
0
41
1
10
186.894722563779
20
20.3065559077524
30
0
41
1
10
186.847386275543
20
20.2299212818697
30
0
41
1
10
186.811120919959
20
20.1328043682246
30
0
41
1
10
186.797345769475
20
20.0501964291392
30
0
41
1
10
186.794181898594
20
20.0117436365161
30
0
41
1
10
186.793159635227
20
19.9924798678767
30
0
41
1
10
186.792231371131
20
19.973212048322
30
0
41
1
10
186.790655105709
20
19.934664201467
30
0
41
1
10
186.789441928781
20
19.8767977083824
30
0
41
1
10
186.78999705479
20
19.8189196613709
30
0
41
1
10
186.790977641772
20
19.78466409298
30
0
41
1
10
186.791265468165
20
19.7761217003656
30
0
41
1
10
186.791338392399
20
19.7740062521465
30
0
0
SPLINE
5
225
100
AcDbEntity
8
1
62
256
6
ByLayer
370
-1
48
1
60
0
100
AcDbSpline
70
4
71
3
72
9
73
5
40
0
40
0
40
0
40
0
40
0.593749999999655
40
1
40
1
40
1
40
1
41
1
10
199.225929202015
20
20.2099117108759
30
0
41
1
10
199.241752963376
20
20.2104621835242
30
0
41
1
10
199.268403508826
20
20.2113892953531
30
0
41
1
10
199.295054054276
20
20.2123164071819
30
0
41
1
10
199.305880838365
20
20.2126930463624
30
0
0
SPLINE
5
226
100
AcDbEntity
8
1
62
256
6
ByLayer
370
-1
48
1
60
0
100
AcDbSpline
70
4
71
3
72
15
73
11
40
0
40
0
40
0
40
0
40
0.0218721291688436
40
0.0870806538909207
40
0.217497703335075
40
0.478331802223383
40
0.54354032694546
40
0.608748851667537
40
0.739165901111692
40
1
40
1
40
1
40
1
41
1
10
198.424244690069
20
20.9606277095839
30
0
41
1
10
198.419954039206
20
20.9604827732509
30
0
41
1
10
198.402871759068
20
20.9598779034763
30
0
41
1
10
198.360187765122
20
20.9584197558833
30
0
41
1
10
198.270544233488
20
20.9553271507457
30
0
41
1
10
198.180782054657
20
20.9522688372616
30
0
41
1
10
198.103783215143
20
20.9496561134101
30
0
41
1
10
198.052467847694
20
20.9479014921536
30
0
41
1
10
197.962697871491
20
20.9448049828132
30
0
41
1
10
197.88581706902
20
20.9421010085656
30
0
41
1
10
197.834599116511
20
20.9402809257878
30
0
0
SPLINE
5
227
100
AcDbEntity
8
1
62
256
6
ByLayer
370
-1
48
1
60
0
100
AcDbSpline
70
4
71
3
72
9
73
5
40
0
40
0
40
0
40
0
40
0.40624999999963
40
1
40
1
40
1
40
1
41
1
10
197.832436054725
20
21.0199279532436
30
0
41
1
10
197.832728969342
20
21.0091424182757
30
0
41
1
10
197.833449989937
20
20.9825934091238
30
0
41
1
10
197.834171010532
20
20.9560443999718
30
0
41
1
10
197.834599116511
20
20.9402809257878
30
0
0
SPLINE
5
228
100
AcDbEntity
8
1
62
256
6
ByLayer
370
-1
48
1
60
0
100
AcDbSpline
70
4
71
3
72
14
73
10
40
0
40
0
40
0
40
0
40
0.0424082128909699
40
0.170379060242055
40
0.682262449646394
40
0.938204144348564
40
0.970196856186336
40
0.986193212105221
40
1
40
1
40
1
40
1
41
1
10
198.514883735668
20
9.83748419501475
30
0
41
1
10
198.512956516861
20
9.8374205233327
30
0
41
1
10
198.505220189874
20
9.83716497572448
30
0
41
1
10
198.474253192718
20
9.83614214868419
30
0
41
1
10
198.433599390736
20
9.83479940947782
30
0
41
1
10
198.39728632254
20
9.83359993261166
30
0
41
1
10
198.383498994055
20
9.83314459743099
30
0
41
1
10
198.380700358947
20
9.8330522039831
30
0
41
1
10
198.379345991153
20
9.83300745825531
30
0
41
1
10
198.378714594883
20
9.832986569946
30
0
0
SPLINE
5
229
100
AcDbEntity
8
1
62
256
6
ByLayer
370
-1
48
1
60
0
100
AcDbSpline
70
4
71
3
72
10
73
6
40
0
40
0
40
0
40
0
40
0.5
40
0.5
40
1
40
1
40
1
40
1
41
1
10
187.127275774793
20
20.6222220760733
30
0
41
1
10
187.077065436375
20
20.6067911248146
30
0
41
1
10
187.029925348289
20
20.5851971618411
30
0
41
1
10
186.941603098627
20
20.5300514696313
30
0
41
1
10
186.900619295676
20
20.4963990620261
30
0
41
1
10
186.864667657964
20
20.4579242289337
30
0
0
SPLINE
5
22A
100
AcDbEntity
8
1
62
256
6
ByLayer
370
-1
48
1
60
0
100
AcDbSpline
70
4
71
3
72
25
73
21
40
0
40
0
40
0
40
0
40
0.0099904601134264
40
0.0399882789191083
40
0.159979554141836
40
0.279970829364563
40
0.309968648170245
40
0.339966466975927
40
0.369964285781609
40
0.399962104587291
40
0.519953379810018
40
0.639944655032745
40
0.759935930255473
40
0.8799272054782
40
0.939922843089564
40
0.969920661895246
40
0.984919571298087
40
0.992419025999507
40
0.999918480700928
40
1
40
1
40
1
40
1
41
1
10
198.857883743148
20
8.47792454829565
30
0
41
1
10
198.860015891893
20
8.4780006101123
30
0
41
1
10
198.868549845307
20
8.4783114278739
30
0
41
1
10
198.902684353946
20
8.4797179305302
30
0
41
1
10
198.960239893091
20
8.48320779645692
30
0
41
1
10
199.017661603537
20
8.48847167652028
30
0
41
1
10
199.055860973251
20
8.49274147148617
30
0
41
1
10
199.074944476113
20
8.49501994224872
30
0
41
1
10
199.094015334381
20
8.49740946304047
30
0
41
1
10
199.132001697142
20
8.50332571389256
30
0
41
1
10
199.18815091006
20
8.51700242522645
30
0
41
1
10
199.260053952308
20
8.54473769259477
30
0
41
1
10
199.327827150294
20
8.58149841424728
30
0
41
1
10
199.37981455669
20
8.61930505329431
30
0
41
1
10
199.413453581565
20
8.64910506409112
30
0
41
1
10
199.429527075237
20
8.66480085637843
30
0
41
1
10
199.437369152898
20
8.67284287776377
30
0
41
1
10
199.441794004767
20
8.67749333472011
30
0
41
1
10
199.443998398565
20
8.67984936226699
30
0
41
1
10
199.445102592891
20
8.68103853982561
30
0
41
1
10
199.445114465992
20
8.68105132777643
30
0
0
SPLINE
5
22B
100
AcDbEntity
8
1
62
256
6
ByLayer
370
-1
48
1
60
0
100
AcDbSpline
70
4
71
3
72
8
73
4
40
0
40
0
40
0
40
0
40
1
40
1
40
1
40
1
41
1
10
199.194396201635
20
9.86075587988782
30
0
41
1
10
199.306320457721
20
9.86464947005638
30
0
41
1
10
199.418227639886
20
9.86859492068217
30
0
41
1
10
199.524969918928
20
9.87241073755231
30
0
0
SPLINE
5
22C
100
AcDbEntity
8
1
62
256
6
ByLayer
370
-1
48
1
60
0
100
AcDbSpline
70
4
71
3
72
8
73
4
40
0
40
0
40
0
40
0
40
1
40
1
40
1
40
1
41
1
10
197.851469468953
20
20.5445924665914
30
0
41
1
10
197.848441399832
20
20.6560903008381
30
0
41
1
10
197.8438651557
20
20.7690732242738
30
0
41
1
10
197.83795124783
20
20.8783439226484
30
0
0
SPLINE
5
22D
100
AcDbEntity
8
1
62
256
6
ByLayer
370
-1
48
1
60
0
100
AcDbSpline
70
4
71
3
72
14
73
10
40
0
40
0
40
0
40
0
40
0.0424082128911259
40
0.170379060242184
40
0.682262449646417
40
0.938204144348533
40
0.970196856186297
40
0.98619321210518
40
1
40
1
40
1
40
1
41
1
10
188.512397200032
20
9.17911324759982
30
0
41
1
10
188.51222293197
20
9.18093656601403
30
0
41
1
10
188.511522108928
20
9.18825449204874
30
0
41
1
10
188.508714654045
20
9.21754442623958
30
0
41
1
10
188.505027924651
20
9.25599544624561
30
0
41
1
10
188.501737760805
20
9.29034396959179
30
0
41
1
10
188.500486305703
20
9.30338306315454
30
0
41
1
10
188.500231362831
20
9.30602886532961
30
0
41
1
10
188.500108893651
20
9.30731021532449
30
0
41
1
10
188.500052575283
20
9.30790837824031
30
0
0
SPLINE
5
22E
100
AcDbEntity
8
1
62
256
6
ByLayer
370
-1
48
1
60
0
100
AcDbSpline
70
4
71
3
72
25
73
21
40
0
40
0
40
0
40
0
40
0.0099904601134644
40
0.0399882789191449
40
0.159979554141867
40
0.27997082936459
40
0.30996864817027
40
0.339966466975951
40
0.369964285781631
40
0.399962104587312
40
0.519953379810034
40
0.639944655032757
40
0.759935930255479
40
0.879927205478201
40
0.939922843089562
40
0.969920661895243
40
0.984919571298083
40
0.992419025999503
40
0.999918480700923
40
1
40
1
40
1
40
1
41
1
10
187.170540181041
20
8.8473799877234
30
0
41
1
10
187.170615892029
20
8.84523963289104
30
0
41
1
10
187.170925231427
20
8.83667278442434
30
0
41
1
10
187.172324254044
20
8.80240575150717
30
0
41
1
10
187.175797481616
20
8.74462698836314
30
0
41
1
10
187.181037916357
20
8.68698250859899
30
0
41
1
10
187.185289195414
20
8.64863494678485
30
0
41
1
10
187.187557859231
20
8.62947740702481
30
0
41
1
10
187.189937136706
20
8.61033254631269
30
0
41
1
10
187.195828575759
20
8.5721987743581
30
0
41
1
10
187.20944979415
20
8.51583161846685
30
0
41
1
10
187.237074986805
20
8.44364936731361
30
0
41
1
10
187.273691260799
20
8.37561270728082
30
0
41
1
10
187.311350299461
20
8.32342296846235
30
0
41
1
10
187.341034033364
20
8.2896525581256
30
0
41
1
10
187.35666901265
20
8.27351657639804
30
0
41
1
10
187.364679424123
20
8.26564353183298
30
0
41
1
10
187.369312265585
20
8.26120185895567
30
0
41
1
10
187.371658313445
20
8.25898802656602
30
0
41
1
10
187.372843741082
20
8.25788039261622
30
0
41
1
10
187.372856488854
20
8.25786848267822
30
0
0
SPLINE
5
22F
100
AcDbEntity
8
1
62
256
6
ByLayer
370
-1
48
1
60
0
100
AcDbSpline
70
4
71
3
72
12
73
8
40
0
40
0
40
0
40
0
40
0.521734132299767
40
0.78260119844965
40
0.913034731524592
40
0.978251498062063
40
1
40
1
40
1
40
1
41
1
10
188.127617661516
20
20.6000108816138
30
0
41
1
10
188.025179075604
20
20.5964199826029
30
0
41
1
10
187.871520753543
20
20.5910352718062
30
0
41
1
10
187.692254123229
20
20.5847464109715
30
0
41
1
10
187.602619361029
20
20.5816126791879
30
0
41
1
10
187.559935755621
20
20.5801032078957
30
0
41
1
10
187.542859916814
20
20.5795196284718
30
0
41
1
10
187.53858973098
20
20.5793673035507
30
0
0
SPLINE
5
230
100
AcDbEntity
8
1
62
256
6
ByLayer
370
-1
48
1
60
0
100
AcDbSpline
70
4
71
3
72
8
73
4
40
0
40
0
40
0
40
0
40
1
40
1
40
1
40
1
41
1
10
186.707595694493
20
19.9111639004814
30
0
41
1
10
186.707893555707
20
19.894832530148
30
0
41
1
10
186.708271505747
20
19.8785023859902
30
0
41
1
10
186.708729387202
20
19.8621746446305
30
0
0
SPLINE
5
231
100
AcDbEntity
8
1
62
256
6
ByLayer
370
-1
48
1
60
0
100
AcDbSpline
70
4
71
3
72
8
73
4
40
0
40
0
40
0
40
0
40
1
40
1
40
1
40
1
41
1
10
198.51201138366
20
21.0434858233757
30
0
41
1
10
198.481824494006
20
21.0426541949169
30
0
41
1
10
198.451641415608
20
21.0416838914849
30
0
41
1
10
198.421463587319
20
21.0405758193147
30
0
0
SPLINE
5
232
100
AcDbEntity
8
1
62
256
6
ByLayer
370
-1
48
1
60
0
100
AcDbSpline
70
4
71
3
72
15
73
11
40
0
40
0
40
0
40
0
40
0.250148781622265
40
0.50029756324453
40
0.750446344866795
40
0.875520735677928
40
0.938057931083494
40
0.969326528786277
40
0.984960827637668
40
1
40
1
40
1
40
1
41
1
10
199.445114213992
20
8.68105126836858
30
0
41
1
10
199.452439833995
20
8.67424429792013
30
0
41
1
10
199.467091074001
20
8.66063035702319
30
0
41
1
10
199.489063586221
20
8.64021348564688
30
0
41
1
10
199.507395027389
20
8.62317989964933
30
0
41
1
10
199.520182253969
20
8.61129800113275
30
0
41
1
10
199.52664108411
20
8.60529645233797
30
0
41
1
10
199.529772673904
20
8.60238657724531
30
0
41
1
10
199.531717457948
20
8.60057948275903
30
0
41
1
10
199.532275692728
20
8.60006077067078
30
0
41
1
10
199.533021655571
20
8.59936762155513
30
0
0
SPLINE
5
233
100
AcDbEntity
8
1
62
256
6
ByLayer
370
-1
48
1
60
0
100
AcDbSpline
70
4
71
3
72
8
73
4
40
0
40
0
40
0
40
0
40
1
40
1
40
1
40
1
41
1
10
198.861262261121
20
8.39828185750625
30
0
41
1
10
198.891462094496
20
8.39933660098168
30
0
41
1
10
198.921660172136
20
8.40053569925831
30
0
41
1
10
198.951854317052
20
8.40187902065531
30
0
0
SPLINE
5
234
100
AcDbEntity
8
1
62
256
6
ByLayer
370
-1
48
1
60
0
100
AcDbSpline
70
4
71
3
72
8
73
4
40
0
40
0
40
0
40
0
40
1
40
1
40
1
40
1
41
1
10
187.677205476356
20
8.01130079170201
30
0
41
1
10
187.730336743735
20
8.01125663915678
30
0
41
1
10
187.783527810337
20
8.0117647414547
30
0
41
1
10
187.836707329504
20
8.01270329334002
30
0
0
SPLINE
5
235
100
AcDbEntity
8
1
62
256
6
ByLayer
370
-1
48
1
60
0
100
AcDbSpline
70
4
71
3
72
8
73
4
40
0
40
0
40
0
40
0
40
1
40
1
40
1
40
1
41
1
10
187.856538150242
20
19.2198078622944
30
0
41
1
10
187.736286255796
20
19.215317270687
30
0
41
1
10
187.589176607823
20
19.2099907480984
30
0
41
1
10
187.434578329525
20
19.2045296086412
30
0
0
SPLINE
5
236
100
AcDbEntity
8
1
62
256
6
ByLayer
370
-1
48
1
60
0
100
AcDbSpline
70
4
71
2
72
9
73
6
40
0
40
0
40
0
40
0.25
40
0.5
40
0.75
40
1
40
1
40
1
41
1
10
198.010397001211
20
19.5760461785714
30
0
41
1
10
198.009238937707
20
19.6058363175006
30
0
41
1
10
197.98507009739
20
19.659655704177
30
0
41
1
10
197.94176037989
20
19.7005311607969
30
0
41
1
10
197.886164579743
20
19.7216579385044
30
0
41
1
10
197.855843820694
20
19.7207198781189
30
0
0
SPLINE
5
237
100
AcDbEntity
8
1
62
256
6
ByLayer
370
-1
48
1
60
0
100
AcDbSpline
70
4
71
3
72
10
73
6
40
0
40
0
40
0
40
0
40
0.5
40
0.5
40
1
40
1
40
1
40
1
41
1
10
186.864667658042
20
20.4579242288594
30
0
41
1
10
186.828828534806
20
20.4193511741585
30
0
41
1
10
186.798725765039
20
20.3769811834726
30
0
41
1
10
186.749682726118
20
20.2848596367818
30
0
41
1
10
186.730972872881
20
20.2351310116134
30
0
41
1
10
186.719077024615
20
20.1837490563407
30
0
0
SPLINE
5
238
100
AcDbEntity
8
1
62
256
6
ByLayer
370
-1
48
1
60
0
100
AcDbSpline
70
4
71
3
72
9
73
5
40
0
40
0
40
0
40
0
40
0.406249999999719
40
1
40
1
40
1
40
1
41
1
10
188.565253257346
20
8.03736389860273
30
0
41
1
10
188.564795760054
20
8.0481494335707
30
0
41
1
10
188.563669612872
20
8.07469844272265
30
0
41
1
10
188.562543465691
20
8.10124745187457
30
0
41
1
10
188.561874815801
20
8.11701092605853
30
0
0
SPLINE
5
239
100
AcDbEntity
8
1
62
256
6
ByLayer
370
-1
48
1
60
0
100
AcDbSpline
70
4
71
3
72
12
73
8
40
0
40
0
40
0
40
0
40
0.0112779549374258
40
0.0936714586926403
40
0.176064962447855
40
0.340851969958284
40
1
40
1
40
1
40
1
41
1
10
197.855634484222
20
19.7493834736061
30
0
41
1
10
197.855632152888
20
19.7492886131357
30
0
41
1
10
197.855612942926
20
19.7484997774234
30
0
41
1
10
197.855579515925
20
19.7470004553944
30
0
41
1
10
197.855531773101
20
19.7441099126413
30
0
41
1
10
197.855468810492
20
19.7358029759086
30
0
41
1
10
197.85561050778
20
19.7274266069362
30
0
41
1
10
197.855843820694
20
19.7207198781189
30
0
0
SPLINE
5
23A
100
AcDbEntity
8
1
62
256
6
ByLayer
370
-1
48
1
60
0
100
AcDbSpline
70
4
71
3
72
8
73
4
40
0
40
0
40
0
40
0
40
1
40
1
40
1
40
1
41
1
10
187.097807090557
20
8.70472382548249
30
0
41
1
10
187.100698736584
20
8.65144968499467
30
0
41
1
10
187.104013823174
20
8.59819522211956
30
0
41
1
10
187.107867214971
20
8.54498215501997
30
0
0
SPLINE
5
23B
100
AcDbEntity
8
1
62
256
6
ByLayer
370
-1
48
1
60
0
100
AcDbSpline
70
4
71
3
72
15
73
11
40
0
40
0
40
0
40
0
40
0.0144496252551431
40
0.0300932819971249
40
0.0613805954810886
40
0.123955222449016
40
0.249104476384871
40
0.499402984256581
40
0.74970149212829
40
1
40
1
40
1
40
1
41
1
10
199.685994738953
20
9.28607744048111
30
0
41
1
10
199.68516677285
20
9.28604841682389
30
0
41
1
10
199.684793460169
20
9.28603533066101
30
0
41
1
10
199.683052329849
20
9.28597429679817
30
0
41
1
10
199.680212802699
20
9.28587475955584
30
0
41
1
10
199.674362359796
20
9.28566967718749
30
0
41
1
10
199.66277573306
20
9.28526351770657
30
0
41
1
10
199.646167367797
20
9.2846813253941
30
0
41
1
10
199.626259419569
20
9.28398346896856
30
0
41
1
10
199.612984914993
20
9.28351814234586
30
0
41
1
10
199.606347662705
20
9.28328547903453
30
0
0
SPLINE
5
23C
100
AcDbEntity
8
1
62
256
6
ByLayer
370
-1
48
1
60
0
100
AcDbSpline
70
4
71
3
72
8
73
4
40
0
40
0
40
0
40
0
40
1
40
1
40
1
40
1
41
1
10
187.445841530786
20
20.6554128311909
30
0
41
1
10
187.429588551821
20
20.6546895560209
30
0
41
1
10
187.413339485518
20
20.6538851503195
30
0
41
1
10
187.397095530124
20
20.6529996991482
30
0
0
SPLINE
5
23D
100
AcDbEntity
8
1
62
256
6
ByLayer
370
-1
48
1
60
0
100
AcDbSpline
70
4
71
3
72
14
73
10
40
0
40
0
40
0
40
0
40
0.0138067085560191
40
0.0298030682371786
40
0.0617957875994975
40
0.317737542498049
40
0.829621052295151
40
0.957591929744427
40
1
40
1
40
1
40
1
41
1
10
188.148653099829
20
19.4091128565322
30
0
41
1
10
188.148667995841
20
19.4097098085589
30
0
41
1
10
188.148701681525
20
19.4109888840179
30
0
41
1
10
188.148771486123
20
19.4136412058357
30
0
41
1
10
188.149117223286
20
19.4266711013201
30
0
41
1
10
188.150015520148
20
19.4610322633831
30
0
41
1
10
188.151028032012
20
19.4994768408072
30
0
41
1
10
188.15179754576
20
19.5287672159804
30
0
41
1
10
188.151989212618
20
19.5360851716169
30
0
41
1
10
188.152036620815
20
19.5379084893459
30
0
0
SPLINE
5
23E
100
AcDbEntity
8
1
62
256
6
ByLayer
370
-1
48
1
60
0
100
AcDbSpline
70
4
71
3
72
12
73
8
40
0
40
0
40
0
40
0
40
0.0112779549372207
40
0.0936714586924524
40
0.176064962447684
40
0.340851969958147
40
1
40
1
40
1
40
1
41
1
10
188.500052575283
20
9.30790837824031
30
0
41
1
10
188.500043643959
20
9.30800323871065
30
0
41
1
10
188.499969550144
20
9.308792074423
30
0
41
1
10
188.499831806657
20
9.31029139645202
30
0
41
1
10
188.499582952094
20
9.31318193920512
30
0
41
1
10
188.498942027957
20
9.3214888759378
30
0
41
1
10
188.498500932917
20
9.3298652449102
30
0
41
1
10
188.498267620004
20
9.33657197372753
30
0
0
SPLINE
5
23F
100
AcDbEntity
8
1
62
256
6
ByLayer
370
-1
48
1
60
0
100
AcDbSpline
70
4
71
3
72
10
73
6
40
0
40
0
40
0
40
0
40
0.634300400238627
40
0.95145060035794
40
1
40
1
40
1
40
1
41
1
10
188.561874815801
20
8.11701092605853
30
0
41
1
10
188.561672435316
20
8.13010647340442
30
0
41
1
10
188.561368213034
20
8.1497513361906
30
0
41
1
10
188.561050693325
20
8.17039331720278
30
0
41
1
10
188.560932510501
20
8.17794699513385
30
0
41
1
10
188.560916768295
20
8.17894992409396
30
0
0
SPLINE
5
240
100
AcDbEntity
8
1
62
256
6
ByLayer
370
-1
48
1
60
0
100
AcDbSpline
70
4
71
3
72
10
73
6
40
0
40
0
40
0
40
0
40
0.5
40
0.5
40
1
40
1
40
1
40
1
41
1
10
199.53302165403
20
8.59936762298699
30
0
41
1
10
199.568857783455
20
8.63794067768788
30
0
41
1
10
199.598932904186
20
8.68031066837381
30
0
41
1
10
199.647895258418
20
8.77243221506464
30
0
41
1
10
199.666552197452
20
8.82216084023298
30
0
41
1
10
199.678400165114
20
8.8735427955057
30
0
0
SPLINE
5
241
100
AcDbEntity
8
1
62
256
6
ByLayer
370
-1
48
1
60
0
100
AcDbSpline
70
4
71
3
72
14
73
10
40
0
40
0
40
0
40
0
40
0.0424082128911303
40
0.17037906024218
40
0.682262449646378
40
0.938204144348477
40
0.970196856186239
40
0.986193212105121
40
1
40
1
40
1
40
1
41
1
10
187.85653155284
20
19.2198076568317
30
0
41
1
10
187.858237094307
20
19.2198713285137
30
0
41
1
10
187.865080925554
20
19.2201268761219
30
0
41
1
10
187.892470882695
20
19.2211497031622
30
0
41
1
10
187.928426485244
20
19.2224924423686
30
0
41
1
10
187.960549050738
20
19.2236919192347
30
0
41
1
10
187.972740674004
20
19.2241472544154
30
0
41
1
10
187.975213507093
20
19.2242396478633
30
0
41
1
10
187.976412087442
20
19.2242843935911
30
0
41
1
10
187.976972464622
20
19.2243052819004
30
0
0
SPLINE
5
242
100
AcDbEntity
8
1
62
256
6
ByLayer
370
-1
48
1
60
0
100
AcDbSpline
70
4
71
3
72
12
73
8
40
0
40
0
40
0
40
0
40
0.341077853836659
40
0.341077853836659
40
0.670538966398336
40
0.670538966398336
40
1
40
1
40
1
40
1
41
1
10
186.71169462191
20
19.7712144130757
30
0
41
1
10
186.714191354289
20
19.7039953055287
30
0
41
1
10
186.716753120111
20
19.636778699884
30
0
41
1
10
186.72144894354
20
19.5046210632123
30
0
41
1
10
186.723561268926
20
19.4396823321663
30
0
41
1
10
186.72784121789
20
19.3098092500938
30
0
41
1
10
186.730004962242
20
19.2448719777787
30
0
41
1
10
186.732263916601
20
19.1799368909979
30
0
0
SPLINE
5
243
100
AcDbEntity
8
1
62
256
6
ByLayer
370
-1
48
1
60
0
100
AcDbSpline
70
4
71
3
72
15
73
11
40
0
40
0
40
0
40
0
40
0.020451991245445
40
0.0504132324412121
40
0.110335714832746
40
0.230180679615815
40
0.469870609181951
40
0.709560538748088
40
0.949250468314225
40
1
40
1
40
1
40
1
41
1
10
187.547262402618
20
9.45247539177149
30
0
41
1
10
187.545007423616
20
9.4523957476743
30
0
41
1
10
187.539447980556
20
9.45219941120564
30
0
41
1
10
187.527266306327
20
9.4517694667785
30
0
41
1
10
187.504053603957
20
9.45095129677424
30
0
41
1
10
187.457451537814
20
9.44931261498195
30
0
41
1
10
187.390493573843
20
9.44696954571293
30
0
41
1
10
187.309959499365
20
9.44416930359125
30
0
41
1
10
187.250762351267
20
9.44212404599682
30
0
41
1
10
187.218508939962
20
9.44101438492837
30
0
41
1
10
187.212875390704
20
9.44082061902427
30
0
0
SPLINE
5
244
100
AcDbEntity
8
1
62
256
6
ByLayer
370
-1
48
1
60
0
100
AcDbSpline
70
4
71
3
72
15
73
11
40
0
40
0
40
0
40
0
40
0.0204519912453896
40
0.0504132324411621
40
0.110335714832707
40
0.230180679615797
40
0.469870609181977
40
0.709560538748158
40
0.949250468314338
40
1
40
1
40
1
40
1
41
1
10
198.855420929097
20
19.6048164600749
30
0
41
1
10
198.857710009605
20
19.6048961041721
30
0
41
1
10
198.863352458826
20
19.6050924406407
30
0
41
1
10
198.875701077887
20
19.6055223850679
30
0
41
1
10
198.89916871116
20
19.6063405550722
30
0
41
1
10
198.946060925758
20
19.6079792368644
30
0
41
1
10
199.012785765287
20
19.6103223061335
30
0
41
1
10
199.092018293637
20
19.6131225482551
30
0
41
1
10
199.149512432783
20
19.6151678058496
30
0
41
1
10
199.180570253683
20
19.616277466918
30
0
41
1
10
199.185991934259
20
19.6164712328221
30
0
0
SPLINE
5
245
100
AcDbEntity
8
1
62
256
6
ByLayer
370
-1
48
1
60
0
100
AcDbSpline
70
4
71
3
72
10
73
6
40
0
40
0
40
0
40
0
40
0.634300400239053
40
0.95145060035858
40
1
40
1
40
1
40
1
41
1
10
186.811000173192
20
19.1827182264844
30
0
41
1
10
186.824299073941
20
19.1831755330747
30
0
41
1
10
186.844248363047
20
19.1838615467997
30
0
41
1
10
186.865212366251
20
19.1845823806605
30
0
41
1
10
186.872881893815
20
19.1848461609064
30
0
41
1
10
186.8739001539
20
19.1848811839574
30
0
0
SPLINE
5
246
100
AcDbEntity
8
1
62
256
6
ByLayer
370
-1
48
1
60
0
100
AcDbSpline
70
4
71
3
72
9
73
5
40
0
40
0
40
0
40
0
40
0.593750000002038
40
1
40
1
40
1
40
1
41
1
10
187.170544730297
20
8.84738014097053
30
0
41
1
10
187.154961512847
20
8.84682966832216
30
0
41
1
10
187.128716093984
20
8.84590255649334
30
0
41
1
10
187.10247067512
20
8.8449754446645
30
0
41
1
10
187.091808473707
20
8.84459880548405
30
0
0
SPLINE
5
247
100
AcDbEntity
8
1
62
256
6
ByLayer
370
-1
48
1
60
0
100
AcDbSpline
70
4
71
3
72
8
73
4
40
0
40
0
40
0
40
0
40
1
40
1
40
1
40
1
41
1
10
187.885545320268
20
8.0138060284707
30
0
41
1
10
187.915776055236
20
8.01463765692947
30
0
41
1
10
187.946003590458
20
8.01560796036151
30
0
41
1
10
187.976225724752
20
8.01671603253166
30
0
0
SPLINE
5
248
100
AcDbEntity
8
1
62
256
6
ByLayer
370
-1
48
1
60
0
100
AcDbSpline
70
4
71
3
72
9
73
5
40
0
40
0
40
0
40
0
40
0.593749999999441
40
1
40
1
40
1
40
1
41
1
10
187.538590112736
20
20.5793629668843
30
0
41
1
10
187.538162006758
20
20.5951264410683
30
0
41
1
10
187.537440986163
20
20.6216754502202
30
0
41
1
10
187.536719965567
20
20.6482244593722
30
0
41
1
10
187.53642705095
20
20.6590099943402
30
0
0
SPLINE
5
249
100
AcDbEntity
8
1
62
256
6
ByLayer
370
-1
48
1
60
0
100
AcDbSpline
70
4
71
3
72
10
73
6
40
0
40
0
40
0
40
0
40
0.634300400238824
40
0.951450600358236
40
1
40
1
40
1
40
1
41
1
10
199.585473759121
20
9.87457362536196
30
0
41
1
10
199.572681230201
20
9.87411631877171
30
0
41
1
10
199.553490303002
20
9.87343030504667
30
0
41
1
10
199.533327442122
20
9.87270947118589
30
0
41
1
10
199.525947101874
20
9.87244569094005
30
0
41
1
10
199.524967136933
20
9.872410667889
30
0
0
SPLINE
5
24A
100
AcDbEntity
8
1
62
256
6
ByLayer
370
-1
48
1
60
0
100
AcDbSpline
70
4
71
3
72
10
73
6
40
0
40
0
40
0
40
0
40
0.5
40
0.5
40
1
40
1
40
1
40
1
41
1
10
187.29212904714
20
8.17027340082612
30
0
41
1
10
187.330553822817
20
8.13429888058519
30
0
41
1
10
187.372748758379
20
8.10409500045293
30
0
41
1
10
187.464479412428
20
8.05490512153662
30
0
41
1
10
187.513992348063
20
8.03615035786328
30
0
41
1
10
187.56515483918
20
8.02423310113934
30
0
0
SPLINE
5
24B
100
AcDbEntity
8
1
62
256
6
ByLayer
370
-1
48
1
60
0
100
AcDbSpline
70
4
71
3
72
14
73
10
40
0
40
0
40
0
40
0
40
0.013806708556329
40
0.029803068237479
40
0.0617957875997788
40
0.317737542498178
40
0.829621052294975
40
0.957591929744175
40
1
40
1
40
1
40
1
41
1
10
188.315948317819
20
9.48024473677049
30
0
41
1
10
188.315389300085
20
9.48022389074637
30
0
41
1
10
188.314193273909
20
9.48017922444711
30
0
41
1
10
188.311713118242
20
9.48008660332829
30
0
41
1
10
188.299531825118
20
9.47963158935156
30
0
41
1
10
188.267395066681
20
9.47843167113166
30
0
41
1
10
188.231446699899
20
9.47708915690518
30
0
41
1
10
188.20405624741
20
9.47606631446541
30
0
41
1
10
188.197212381864
20
9.47581076582347
30
0
41
1
10
188.195506839975
20
9.47574709416534
30
0
0
SPLINE
5
24C
100
AcDbEntity
8
1
62
256
6
ByLayer
370
-1
48
1
60
0
100
AcDbSpline
70
4
71
3
72
8
73
4
40
0
40
0
40
0
40
0
40
1
40
1
40
1
40
1
41
1
10
187.836707329504
20
8.01270329334011
30
0
41
1
10
187.852988172184
20
8.01299062981533
30
0
41
1
10
187.869267906875
20
8.01335824708778
30
0
41
1
10
187.885545320268
20
8.01380602846746
30
0
0
SPLINE
5
24D
100
AcDbEntity
8
1
62
256
6
ByLayer
370
-1
48
1
60
0
100
AcDbSpline
70
4
71
3
72
15
73
11
40
0
40
0
40
0
40
0
40
0.0204519912453803
40
0.0504132324411487
40
0.110335714832685
40
0.230180679615759
40
0.469870609181905
40
0.709560538748052
40
0.949250468314199
40
1
40
1
40
1
40
1
41
1
10
198.258195838589
20
8.85296899844113
30
0
41
1
10
198.25829223037
20
8.85068828990123
30
0
41
1
10
198.258529322799
20
8.84506594905656
30
0
41
1
10
198.259041103574
20
8.83275395154357
30
0
41
1
10
198.259983625645
20
8.80932462807326
30
0
41
1
10
198.261761145987
20
8.76239892122089
30
0
41
1
10
198.263978736949
20
8.69530219617496
30
0
41
1
10
198.26611755024
20
8.61511375352683
30
0
41
1
10
198.267303520535
20
8.5565452390253
30
0
41
1
10
198.267811163806
20
8.52476870361193
30
0
41
1
10
198.267898258031
20
8.51921997410406
30
0
0
SPLINE
5
24E
100
AcDbEntity
8
1
62
256
6
ByLayer
370
-1
48
1
60
0
100
AcDbSpline
70
4
71
3
72
9
73
5
40
0
40
0
40
0
40
0
40
0.406250000002093
40
1
40
1
40
1
40
1
41
1
10
199.665425395471
20
9.87735496084846
30
0
41
1
10
199.654598611382
20
9.87697832166799
30
0
41
1
10
199.627948065932
20
9.87605120983915
30
0
41
1
10
199.601297520482
20
9.87512409801033
30
0
41
1
10
199.585473759121
20
9.87457362536196
30
0
0
SPLINE
5
24F
100
AcDbEntity
8
1
62
256
6
ByLayer
370
-1
48
1
60
0
100
AcDbSpline
70
4
71
3
72
14
73
10
40
0
40
0
40
0
40
0
40
0.0424082128911185
40
0.170379060242183
40
0.682262449646441
40
0.93820414434857
40
0.970196856186336
40
0.986193212105219
40
1
40
1
40
1
40
1
41
1
10
197.859018088476
20
19.8781786042466
30
0
41
1
10
197.858970679198
20
19.8763552858324
30
0
41
1
10
197.8587790065
20
19.8690373597977
30
0
41
1
10
197.858009421367
20
19.8397474256068
30
0
41
1
10
197.856997951329
20
19.8012964056008
30
0
41
1
10
197.856097612473
20
19.7669478822546
30
0
41
1
10
197.855753362356
20
19.7539087886919
30
0
41
1
10
197.85568250321
20
19.7512629865168
30
0
41
1
10
197.855649184944
20
19.7499816365219
30
0
41
1
10
197.855634484222
20
19.7493834736061
30
0
0
SPLINE
5
250
100
AcDbEntity
8
1
62
256
6
ByLayer
370
-1
48
1
60
0
100
AcDbSpline
70
4
71
3
72
23
73
19
40
0
40
0
40
0
40
0
40
0.0074200078966742
40
0.0149215578680865
40
0.029924657810911
40
0.0599308576965601
40
0.119943257467858
40
0.239968057010454
40
0.480017656095646
40
0.600042455638243
40
0.630048655523892
40
0.660054855409541
40
0.69006105529519
40
0.720067255180839
40
0.840092054723435
40
0.960116854266031
40
0.99012305415168
40
1
40
1
40
1
40
1
41
1
10
199.023541959381
20
20.7994233691682
30
0
41
1
10
199.022383506169
20
20.8005071266563
30
0
41
1
10
199.020047118073
20
20.8026764195234
30
0
41
1
10
199.015324669815
20
20.8069885288449
30
0
41
1
10
199.006946037179
20
20.81445207478
30
0
41
1
10
198.989827515376
20
20.8289637604862
30
0
41
1
10
198.95421347153
20
20.8562921479677
30
0
41
1
10
198.87796046337
20
20.9038995967552
30
0
41
1
10
198.781315057952
20
20.9404058185839
30
0
41
1
10
198.699106031805
20
20.9543184757198
30
0
41
1
10
198.660838825521
20
20.9575338439009
30
0
41
1
10
198.641667896491
20
20.9585796219221
30
0
41
1
10
198.622492755629
20
20.9595308646062
30
0
41
1
10
198.584130248232
20
20.9611519520188
30
0
41
1
10
198.526542022316
20
20.9624280525862
30
0
41
1
10
198.46894227422
20
20.9619290833218
30
0
41
1
10
198.434851378115
20
20.9609792012576
30
0
41
1
10
198.426350010323
20
20.9606988263928
30
0
41
1
10
198.424244690069
20
20.9606277095839
30
0
0
SPLINE
5
251
100
AcDbEntity
8
1
62
256
6
ByLayer
370
-1
48
1
60
0
100
AcDbSpline
70
4
71
3
72
23
73
19
40
0
40
0
40
0
40
0
40
0.0074200078966878
40
0.0149215578681005
40
0.0299246578109258
40
0.0599308576965766
40
0.119943257467878
40
0.239968057010481
40
0.480017656095686
40
0.600042455638289
40
0.63004865552394
40
0.66005485540959
40
0.690061055295241
40
0.720067255180892
40
0.840092054723494
40
0.960116854266097
40
0.990123054151748
40
1
40
1
40
1
40
1
41
1
10
187.372856488854
20
8.25786848267822
30
0
41
1
10
187.374016485933
20
8.2567847251901
30
0
41
1
10
187.376360864162
20
8.25461543232296
30
0
41
1
10
187.381095750929
20
8.2503033230015
30
0
41
1
10
187.389497744313
20
8.24283977706645
30
0
41
1
10
187.40666176367
20
8.22832809136017
30
0
41
1
10
187.442366891631
20
8.20099970387864
30
0
41
1
10
187.518799899461
20
8.15339225509121
30
0
41
1
10
187.615649202978
20
8.11688603326252
30
0
41
1
10
187.698027358706
20
8.10297337612664
30
0
41
1
10
187.736373088698
20
8.0997580079455
30
0
41
1
10
187.755583088035
20
8.0987122299243
30
0
41
1
10
187.774796946542
20
8.09776098724024
30
0
41
1
10
187.813236760465
20
8.09613989982762
30
0
41
1
10
187.870941121765
20
8.09486379926017
30
0
41
1
10
187.928656980806
20
8.09536276852455
30
0
41
1
10
187.962816515923
20
8.09631265058877
30
0
41
1
10
187.971334920594
20
8.09659302545359
30
0
41
1
10
187.97344439694
20
8.09666414226248
30
0
0
SPLINE
5
252
100
AcDbEntity
8
1
62
256
6
ByLayer
370
-1
48
1
60
0
100
AcDbSpline
70
4
71
3
72
8
73
4
40
0
40
0
40
0
40
0
40
1
40
1
40
1
40
1
41
1
10
199.302300631391
20
20.3036278688641
30
0
41
1
10
199.30158223044
20
20.3199450616117
30
0
41
1
10
199.300783531109
20
20.3362588521771
30
0
41
1
10
199.299904606807
20
20.3525680263639
30
0
0
SPLINE
5
253
100
AcDbEntity
8
1
62
256
6
ByLayer
370
-1
48
1
60
0
100
AcDbSpline
70
4
71
3
72
10
73
6
40
0
40
0
40
0
40
0
40
0.634300400238653
40
0.951450600357979
40
1
40
1
40
1
40
1
41
1
10
197.834599116511
20
20.9402809257878
30
0
41
1
10
197.835307868827
20
20.927185378442
30
0
41
1
10
197.836370453016
20
20.9075405156558
30
0
41
1
10
197.837489115048
20
20.8868985346436
30
0
41
1
10
197.837896485188
20
20.8793448567125
30
0
41
1
10
197.837950522538
20
20.8783419277524
30
0
0
SPLINE
5
254
100
AcDbEntity
8
1
62
256
6
ByLayer
370
-1
48
1
60
0
100
AcDbSpline
70
4
71
3
72
15
73
11
40
0
40
0
40
0
40
0
40
0.0138956313306276
40
0.101457951273501
40
0.189020271216375
40
0.364144911102122
40
0.714394190873617
40
0.889518830759365
40
0.977081150702238
40
1
40
1
40
1
40
1
41
1
10
197.851468817291
20
20.5445930829422
30
0
41
1
10
197.851497821279
20
20.5435326034941
30
0
41
1
10
197.851709249955
20
20.535789901475
30
0
41
1
10
197.852101126563
20
20.5213669854961
30
0
41
1
10
197.85282599765
20
20.4946430074155
30
0
41
1
10
197.854096099023
20
20.4478744383136
30
0
41
1
10
197.855548035517
20
20.3944243378021
30
0
41
1
10
197.856817451386
20
20.3476563227004
30
0
41
1
10
197.857410365272
20
20.3258630001163
30
0
41
1
10
197.857638299837
20
20.3174338315049
30
0
41
1
10
197.85768540148
20
20.3156854270335
30
0
0
SPLINE
5
255
100
AcDbEntity
8
1
62
256
6
ByLayer
370
-1
48
1
60
0
100
AcDbSpline
70
4
71
3
72
8
73
4
40
0
40
0
40
0
40
0
40
1
40
1
40
1
40
1
41
1
10
198.514878610483
20
9.837483989552
30
0
41
1
10
198.650835477505
20
9.84197458115932
30
0
41
1
10
198.807628271508
20
9.84730110374801
30
0
41
1
10
198.964612942382
20
9.85276224320521
30
0
0
SPLINE
5
256
100
AcDbEntity
8
1
62
256
6
ByLayer
370
-1
48
1
60
0
100
AcDbSpline
70
4
71
3
72
14
73
10
40
0
40
0
40
0
40
0
40
0.0138067085560178
40
0.0298030682371796
40
0.0617957875995031
40
0.317737542498091
40
0.829621052295268
40
0.957591929744562
40
1
40
1
40
1
40
1
41
1
10
198.039738878788
20
19.5770471150759
30
0
41
1
10
198.040369221943
20
19.5770679611
30
0
41
1
10
198.041721612148
20
19.5771126273993
30
0
41
1
10
198.044525914346
20
19.5772052485181
30
0
41
1
10
198.058305246818
20
19.5776602624948
30
0
41
1
10
198.094629303317
20
19.5788601807147
30
0
41
1
10
198.135277504935
20
19.5802026949412
30
0
41
1
10
198.166244885351
20
19.581225537381
30
0
41
1
10
198.173981237017
20
19.5814810860229
30
0
41
1
10
198.175908454037
20
19.5815447576811
30
0
0
SPLINE
5
257
100
AcDbEntity
8
1
62
256
6
ByLayer
370
-1
48
1
60
0
100
AcDbSpline
70
4
71
3
72
8
73
4
40
0
40
0
40
0
40
0
40
1
40
1
40
1
40
1
41
1
10
199.299904606807
20
20.3525680263639
30
0
41
1
10
199.297033588558
20
20.4058421668517
30
0
41
1
10
199.293738180852
20
20.4590966297268
30
0
41
1
10
199.289975599141
20
20.5123096968264
30
0
0
SPLINE
5
258
100
AcDbEntity
8
1
62
256
6
ByLayer
370
-1
48
1
60
0
100
AcDbSpline
70
4
71
3
72
15
73
11
40
0
40
0
40
0
40
0
40
0.0138956313306661
40
0.101457951273543
40
0.189020271216421
40
0.364144911102175
40
0.714394190873684
40
0.889518830759438
40
0.977081150702316
40
1
40
1
40
1
40
1
41
1
10
187.208286861774
20
19.1965359504351
30
0
41
1
10
187.209335417929
20
19.1965729831935
30
0
41
1
10
187.216990733075
20
19.1968433643059
30
0
41
1
10
187.231248899363
20
19.1973470236302
30
0
41
1
10
187.257666385039
20
19.1982802455087
30
0
41
1
10
187.303900107364
20
19.1999134399298
30
0
41
1
10
187.356739334628
20
19.201779958569
30
0
41
1
10
187.402971838832
20
19.203413133644
30
0
41
1
10
187.42451700152
20
19.2041741732384
30
0
41
1
10
187.432848796213
20
19.2044685262925
30
0
41
1
10
187.434576825826
20
19.204529581922
30
0
0
SPLINE
5
259
100
AcDbEntity
8
1
62
256
6
ByLayer
370
-1
48
1
60
0
100
AcDbSpline
70
4
71
3
72
10
73
6
40
0
40
0
40
0
40
0
40
0.5
40
0.5
40
1
40
1
40
1
40
1
41
1
10
199.269366999968
20
20.6235418168642
30
0
41
1
10
199.254002904557
20
20.6739521181182
30
0
41
1
10
199.232483556807
20
20.7212646884928
30
0
41
1
10
199.177503062346
20
20.8098794959918
30
0
41
1
10
199.143940648331
20
20.8509816410333
30
0
41
1
10
199.105560265006
20
20.8870184511
30
0
0
SPLINE
5
25A
100
AcDbEntity
8
1
62
256
6
ByLayer
370
-1
48
1
60
0
100
AcDbSpline
70
4
71
3
72
9
73
5
40
0
40
0
40
0
40
0
40
0.406249999997954
40
1
40
1
40
1
40
1
41
1
10
186.732263916601
20
19.179936890998
30
0
41
1
10
186.742926118014
20
19.1803135301784
30
0
41
1
10
186.769171536878
20
19.1812406420073
30
0
41
1
10
186.795416955741
20
19.1821677538361
30
0
41
1
10
186.811000173192
20
19.1827182264844
30
0
0
SPLINE
5
25B
100
AcDbEntity
8
1
62
256
6
ByLayer
370
-1
48
1
60
0
100
AcDbSpline
70
4
71
3
72
12
73
8
40
0
40
0
40
0
40
0
40
0.659147749652482
40
0.823934687065603
40
0.906328155772163
40
0.988721624478723
40
1
40
1
40
1
40
1
41
1
10
188.148862349514
20
19.3804497852694
30
0
41
1
10
188.148629036684
20
19.3871565143403
30
0
41
1
10
188.148486826301
20
19.395536069232
30
0
41
1
10
188.14855068717
20
19.4038374428407
30
0
41
1
10
188.148597346494
20
19.4067346766022
30
0
41
1
10
188.148631264782
20
19.4082309673031
30
0
41
1
10
188.148650737422
20
19.4090181839553
30
0
41
1
10
188.148653099829
20
19.4091128565322
30
0
0
SPLINE
5
25C
100
AcDbEntity
8
1
62
256
6
ByLayer
370
-1
48
1
60
0
100
AcDbSpline
70
4
71
2
72
9
73
6
40
0
40
0
40
0
40
0.25
40
0.5
40
0.75
40
1
40
1
40
1
41
1
10
198.205249091184
20
9.67684206657694
30
0
41
1
10
198.234925869641
20
9.67800455369527
30
0
41
1
10
198.288540457302
20
9.70226571505546
30
0
41
1
10
198.329260370469
20
9.74574086864064
30
0
41
1
10
198.350306754409
20
9.80154903571207
30
0
41
1
10
198.349372263626
20
9.83198561513518
30
0
0
SPLINE
5
25D
100
AcDbEntity
8
1
62
256
6
ByLayer
370
-1
48
1
60
0
100
AcDbSpline
70
4
71
3
72
17
73
13
40
0
40
0
40
0
40
0
40
0.028564761245177
40
0.11400977364173
40
0.284899798434836
40
0.455789823227942
40
0.626679848021047
40
0.797569872814153
40
0.883014885210706
40
0.925737391408983
40
0.968459897607259
40
1
40
1
40
1
40
1
41
1
10
188.195506839975
20
9.47574709416534
30
0
41
1
10
188.192065727211
20
9.47561862980055
30
0
41
1
10
188.178297614128
20
9.47510484582128
30
0
41
1
10
188.142954268877
20
9.47379180656924
30
0
41
1
10
188.087324735536
20
9.47174215037018
30
0
41
1
10
188.016784056498
20
9.46916969942905
30
0
41
1
10
187.943057031167
20
9.4665060231668
30
0
41
1
10
187.879441675294
20
9.46422767310645
30
0
41
1
10
187.834039520735
20
9.46261172099022
30
0
41
1
10
187.807886681477
20
9.4616836957772
30
0
41
1
10
187.789895030348
20
9.46104657544029
30
0
41
1
10
187.778426071419
20
9.46064122819246
30
0
41
1
10
187.773552152576
20
9.4604690196214
30
0
0
SPLINE
5
25E
100
AcDbEntity
8
1
62
256
6
ByLayer
370
-1
48
1
60
0
100
AcDbSpline
70
4
71
3
72
8
73
4
40
0
40
0
40
0
40
0
40
1
40
1
40
1
40
1
41
1
10
199.678400165114
20
8.87354279550493
30
0
41
1
10
199.686936057991
20
8.91056103175964
30
0
41
1
10
199.691216140523
20
8.9480700075039
30
0
41
1
10
199.691233368123
20
8.98607153359006
30
0
0
SPLINE
5
25F
100
AcDbEntity
8
1
62
256
6
ByLayer
370
-1
48
1
60
0
100
AcDbSpline
70
4
71
3
72
15
73
11
40
0
40
0
40
0
40
0
40
0.02187212916887
40
0.0870806538909453
40
0.217497703335096
40
0.478331802223397
40
0.543540326945473
40
0.608748851667548
40
0.739165901111699
40
1
40
1
40
1
40
1
41
1
10
186.791338392399
20
19.7740062521465
30
0
41
1
10
186.791487012271
20
19.7696949604518
30
0
41
1
10
186.792105920376
20
19.7525310263198
30
0
41
1
10
186.793584433002
20
19.7096579737397
30
0
41
1
10
186.796658404971
20
19.6196789094736
30
0
41
1
10
186.799571605331
20
19.5297078388737
30
0
41
1
10
186.80197291682
20
19.4526171160443
30
0
41
1
10
186.803610944956
20
19.4012160683474
30
0
41
1
10
186.806545012115
20
19.3112544199412
30
0
41
1
10
186.809186540117
20
19.2341323013322
30
0
41
1
10
186.811000173192
20
19.1827182264844
30
0
0
SPLINE
5
260
100
AcDbEntity
8
1
62
256
6
ByLayer
370
-1
48
1
60
0
100
AcDbSpline
70
4
71
3
72
8
73
4
40
0
40
0
40
0
40
0
40
1
40
1
40
1
40
1
41
1
10
187.397095530124
20
20.6529996991483
30
0
41
1
10
187.344034427713
20
20.6501073607897
30
0
41
1
10
187.290992453589
20
20.6467894881347
30
0
41
1
10
187.238027283319
20
20.6429669554897
30
0
0
SPLINE
5
261
100
AcDbEntity
8
1
62
256
6
ByLayer
370
-1
48
1
60
0
100
AcDbSpline
70
4
71
3
72
8
73
4
40
0
40
0
40
0
40
0
40
1
40
1
40
1
40
1
41
1
10
187.208288106001
20
19.1965359719586
30
0
41
1
10
187.098065259436
20
19.19264238179
30
0
41
1
10
186.984866462998
20
19.1886969311642
30
0
41
1
10
186.873898961286
20
19.1848811142941
30
0
0
SPLINE
5
262
100
AcDbEntity
8
1
62
256
6
ByLayer
370
-1
48
1
60
0
100
AcDbSpline
70
4
71
3
72
8
73
4
40
0
40
0
40
0
40
0
40
1
40
1
40
1
40
1
41
1
10
187.107867214971
20
8.54498215501988
30
0
41
1
10
187.110608745622
20
8.50712323432032
30
0
41
1
10
187.117516505909
20
8.47004585343856
30
0
41
1
10
187.128590493564
20
8.43375003498431
30
0
0
SPLINE
5
263
100
AcDbEntity
8
1
62
256
6
ByLayer
370
-1
48
1
60
0
100
AcDbSpline
70
4
71
3
72
17
73
13
40
0
40
0
40
0
40
0
40
0.0285647612451755
40
0.114009773641724
40
0.28489979843482
40
0.455789823227917
40
0.626679848021013
40
0.79756987281411
40
0.883014885210658
40
0.925737391408932
40
0.968459897607206
40
1
40
1
40
1
40
1
41
1
10
198.219378673197
20
9.51938336250049
30
0
41
1
10
198.219730275332
20
9.51570462441211
30
0
41
1
10
198.221130852457
20
9.50099177625
30
0
41
1
10
198.224552993191
20
9.46339125165872
30
0
41
1
10
198.229436440352
20
9.40469677760072
30
0
41
1
10
198.234843461087
20
9.3310314208949
30
0
41
1
10
198.239757424325
20
9.25475371278708
30
0
41
1
10
198.243406887226
20
9.18951030339332
30
0
41
1
10
198.245713260051
20
9.14323548930147
30
0
41
1
10
198.246958953116
20
9.11666032424867
30
0
41
1
10
198.247777310487
20
9.0984155849095
30
0
41
1
10
198.248275612271
20
9.08680795845322
30
0
41
1
10
198.248485889454
20
9.08187655019498
30
0
0
SPLINE
5
264
100
AcDbEntity
8
1
62
256
6
ByLayer
370
-1
48
1
60
0
100
AcDbSpline
70
4
71
3
72
8
73
4
40
0
40
0
40
0
40
0
40
1
40
1
40
1
40
1
41
1
10
187.238027283319
20
20.6429669554897
30
0
41
1
10
187.200344731073
20
20.6402473798635
30
0
41
1
10
187.163427618415
20
20.6333324839052
30
0
41
1
10
187.127275774795
20
20.6222220760815
30
0
0
SPLINE
5
265
100
AcDbEntity
8
1
62
256
6
ByLayer
370
-1
48
1
60
0
100
AcDbSpline
70
4
71
3
72
10
73
6
40
0
40
0
40
0
40
0
40
0.5
40
0.5
40
1
40
1
40
1
40
1
41
1
10
199.270681718746
20
8.43506977577309
30
0
41
1
10
199.320908330005
20
8.45050072703179
30
0
41
1
10
199.368033305439
20
8.47209469000532
30
0
41
1
10
199.456266258584
20
8.5272403822151
30
0
41
1
10
199.497173933573
20
8.56089278982031
30
0
41
1
10
199.53302165411
20
8.59936762291267
30
0
0
SPLINE
5
266
100
AcDbEntity
8
1
62
256
6
ByLayer
370
-1
48
1
60
0
100
AcDbSpline
70
4
71
3
72
8
73
4
40
0
40
0
40
0
40
0
40
1
40
1
40
1
40
1
41
1
10
199.689890701792
20
9.14612795136503
30
0
41
1
10
199.689616076859
20
9.16245932169835
30
0
41
1
10
199.689261590144
20
9.17878946585617
30
0
41
1
10
199.688827316726
20
9.1951172072159
30
0
0
SPLINE
5
267
100
AcDbEntity
8
1
62
256
6
ByLayer
370
-1
48
1
60
0
100
AcDbSpline
70
4
71
2
72
9
73
6
40
0
40
0
40
0
40
0.25
40
0.5
40
0.75
40
1
40
1
40
1
41
1
10
188.343714439487
20
9.48124567327503
30
0
41
1
10
188.344872502991
20
9.45145553434577
30
0
41
1
10
188.369041343307
20
9.3976361476694
30
0
41
1
10
188.412351060808
20
9.35676069104949
30
0
41
1
10
188.467946860954
20
9.33563391334198
30
0
41
1
10
188.498267620004
20
9.33657197372753
30
0
0
SPLINE
5
268
100
AcDbEntity
8
1
62
256
6
ByLayer
370
-1
48
1
60
0
100
AcDbSpline
70
4
71
3
72
15
73
11
40
0
40
0
40
0
40
0
40
0.0229190021791531
40
0.110481321488105
40
0.28560596010601
40
0.635855237341819
40
0.810979875959724
40
0.898542195268676
40
0.986104514577628
40
1
40
1
40
1
40
1
41
1
10
198.248485889454
20
9.08187655019498
30
0
41
1
10
198.248560442299
20
9.08012814120801
30
0
41
1
10
198.248919003038
20
9.07169898874821
30
0
41
1
10
198.249842278398
20
9.04990555562321
30
0
41
1
10
198.251826851238
20
9.00313760597277
30
0
41
1
10
198.254093716111
20
8.9496874717909
30
0
41
1
10
198.256077581037
20
8.90291890767119
30
0
41
1
10
198.257212049571
20
8.87619492594428
30
0
41
1
10
198.257823457867
20
8.86177180174832
30
0
41
1
10
198.258151020776
20
8.85402942465146
30
0
41
1
10
198.258195838589
20
8.85296899844113
30
0
0
SPLINE
5
269
100
AcDbEntity
8
1
62
256
6
ByLayer
370
-1
48
1
60
0
100
AcDbSpline
70
4
71
3
72
8
73
4
40
0
40
0
40
0
40
0
40
1
40
1
40
1
40
1
41
1
10
198.832322350549
20
21.0330587507069
30
0
41
1
10
198.795427732019
20
21.0416445630334
30
0
41
1
10
198.758042942449
20
21.0459596124332
30
0
41
1
10
198.720171923199
20
21.0459910601443
30
0
0
SPLINE
5
26A
100
AcDbEntity
8
1
62
256
6
ByLayer
370
-1
48
1
60
0
100
AcDbSpline
70
4
71
3
72
15
73
11
40
0
40
0
40
0
40
0
40
0.022919002179262
40
0.110481321488203
40
0.285605960106084
40
0.635855237341846
40
0.810979875959727
40
0.898542195268668
40
0.986104514577608
40
1
40
1
40
1
40
1
41
1
10
187.773552152576
20
9.4604690196214
30
0
41
1
10
187.771824126207
20
9.46040796383417
30
0
41
1
10
187.763492377566
20
9.4601136113441
30
0
41
1
10
187.741947002939
20
9.45935256788951
30
0
41
1
10
187.695714634222
20
9.45771939510013
30
0
41
1
10
187.642875341668
20
9.45585287528502
30
0
41
1
10
187.596641631531
20
9.4542196810379
30
0
41
1
10
187.570224140342
20
9.45328645903209
30
0
41
1
10
187.555965558792
20
9.45278279243666
30
0
41
1
10
187.548310865759
20
9.45251242267074
30
0
41
1
10
187.547262402618
20
9.45247539177149
30
0
0
SPLINE
5
26B
100
AcDbEntity
8
1
62
256
6
ByLayer
370
-1
48
1
60
0
100
AcDbSpline
70
4
71
3
72
15
73
11
40
0
40
0
40
0
40
0
40
0.0218721291688715
40
0.0870806538909467
40
0.217497703335097
40
0.478331802223398
40
0.543540326945473
40
0.608748851667549
40
0.739165901111699
40
1
40
1
40
1
40
1
41
1
10
199.60635069461
20
9.28328559969984
30
0
41
1
10
199.606210544869
20
9.28759689139457
30
0
41
1
10
199.605624316848
20
9.30476082552656
30
0
41
1
10
199.604197631672
20
9.34763387810665
30
0
41
1
10
199.601109929959
20
9.43761294237277
30
0
41
1
10
199.597929778964
20
9.52758401297268
30
0
41
1
10
199.595125527155
20
9.60467473580215
30
0
41
1
10
199.593267666506
20
9.65607578349903
30
0
41
1
10
199.590032281289
20
9.74603743190525
30
0
41
1
10
199.587286439673
20
9.82315955051419
30
0
41
1
10
199.585473759121
20
9.87457362536196
30
0
0
SPLINE
5
26C
100
AcDbEntity
8
1
62
256
6
ByLayer
370
-1
48
1
60
0
100
AcDbSpline
70
4
71
3
72
8
73
4
40
0
40
0
40
0
40
0
40
1
40
1
40
1
40
1
41
1
10
199.000616167241
20
8.40429215269813
30
0
41
1
10
199.053697897429
20
8.40718449105668
30
0
41
1
10
199.106759550437
20
8.41050236371174
30
0
41
1
10
199.159815530794
20
8.4143248963567
30
0
0
SPLINE
5
26D
100
AcDbEntity
8
1
62
256
6
ByLayer
370
-1
48
1
60
0
100
AcDbSpline
70
4
71
3
72
12
73
8
40
0
40
0
40
0
40
0
40
0.659147749652471
40
0.823934687065588
40
0.906328155772147
40
0.988721624478706
40
1
40
1
40
1
40
1
41
1
10
198.010397001211
20
19.5760461785714
30
0
41
1
10
198.017078209246
20
19.5762803827113
30
0
41
1
10
198.025575174013
20
19.5765730032161
30
0
41
1
10
198.034197606492
20
19.5768628935704
30
0
41
1
10
198.037231263364
20
19.5769640672027
30
0
41
1
10
198.038807831305
20
19.5770163188254
30
0
41
1
10
198.039638910603
20
19.5770438090367
30
0
41
1
10
198.039738878788
20
19.5770471150759
30
0
0
SPLINE
5
26E
100
AcDbEntity
8
1
62
256
6
ByLayer
370
-1
48
1
60
0
100
AcDbSpline
70
4
71
3
72
8
73
4
40
0
40
0
40
0
40
0
40
1
40
1
40
1
40
1
41
1
10
187.095395216448
20
8.75366398298232
30
0
41
1
10
187.096117861276
20
8.73734679023468
30
0
41
1
10
187.096921851334
20
8.72103299966932
30
0
41
1
10
187.097807090557
20
8.70472382548249
30
0
0
SPLINE
5
26F
100
AcDbEntity
8
1
62
256
6
ByLayer
370
-1
48
1
60
0
100
AcDbSpline
70
4
71
3
72
12
73
8
40
0
40
0
40
0
40
0
40
0.52173413229974
40
0.78260119844961
40
0.913034731524545
40
0.978251498062012
40
1
40
1
40
1
40
1
41
1
10
199.246498563075
20
19.6186341904989
30
0
41
1
10
199.242921328525
20
19.721464075173
30
0
41
1
10
199.237556704421
20
19.8757089417619
30
0
41
1
10
199.231292528445
20
20.0556610982048
30
0
41
1
10
199.228170003995
20
20.1456375304331
30
0
41
1
10
199.226666811781
20
20.1884847174073
30
0
41
1
10
199.226085161309
20
20.205625490285
30
0
41
1
10
199.225933293087
20
20.209911864123
30
0
0
SPLINE
5
270
100
AcDbEntity
8
1
62
256
6
ByLayer
370
-1
48
1
60
0
100
AcDbSpline
70
4
71
2
72
9
73
6
40
0
40
0
40
0
40
0.25
40
0.5
40
0.75
40
1
40
1
40
1
41
1
10
188.148862349514
20
19.3804497852694
30
0
41
1
10
188.119185571057
20
19.3792872981511
30
0
41
1
10
188.065570983396
20
19.3550261367909
30
0
41
1
10
188.024851070229
20
19.3115509832058
30
0
41
1
10
188.003804686289
20
19.2557428161343
30
0
41
1
10
188.004739177071
20
19.2253062367112
30
0
0
SPLINE
5
271
100
AcDbEntity
8
1
62
256
6
ByLayer
370
-1
48
1
60
0
100
AcDbSpline
70
4
71
3
72
12
73
8
40
0
40
0
40
0
40
0
40
0.521734132299739
40
0.782601198449608
40
0.913034731524543
40
0.97825149806201
40
1
40
1
40
1
40
1
41
1
10
187.149975404997
20
9.43865766134746
30
0
41
1
10
187.153552639559
20
9.33582777667337
30
0
41
1
10
187.158916456148
20
9.18158291008447
30
0
41
1
10
187.165182139813
20
9.00163075364154
30
0
41
1
10
187.16830322934
20
8.91165432141329
30
0
41
1
10
187.169807491721
20
8.86880713443909
30
0
41
1
10
187.170388558705
20
8.85166636156137
30
0
41
1
10
187.170540181041
20
8.8473799877234
30
0
0
SPLINE
5
272
100
AcDbEntity
8
1
62
256
6
ByLayer
370
-1
48
1
60
0
100
AcDbSpline
70
4
71
3
72
12
73
8
40
0
40
0
40
0
40
0
40
0.659147749652409
40
0.823934687065512
40
0.906328155772063
40
0.988721624478614
40
1
40
1
40
1
40
1
41
1
10
198.205249091184
20
9.67684206657694
30
0
41
1
10
198.205482404199
20
9.67013533750608
30
0
41
1
10
198.205923207807
20
9.66175578261445
30
0
41
1
10
198.206564643144
20
9.65345440900575
30
0
41
1
10
198.20681287974
20
9.65055717524419
30
0
41
1
10
198.206950903607
20
9.64906088454333
30
0
41
1
10
198.207025147452
20
9.64827366789112
30
0
41
1
10
198.207034096777
20
9.64817899531425
30
0
0
SPLINE
5
273
100
AcDbEntity
8
1
62
256
6
ByLayer
370
-1
48
1
60
0
100
AcDbSpline
70
4
71
3
72
15
73
11
40
0
40
0
40
0
40
0
40
0.0138956313306218
40
0.101457951273494
40
0.189020271216367
40
0.364144911102113
40
0.714394190873603
40
0.889518830759348
40
0.977081150702221
40
1
40
1
40
1
40
1
41
1
10
188.551214229902
20
8.51269876890424
30
0
41
1
10
188.551169450216
20
8.5137592483523
30
0
41
1
10
188.550842174431
20
8.5215019503714
30
0
41
1
10
188.550230565541
20
8.53592486635029
30
0
41
1
10
188.549096095254
20
8.56264884443092
30
0
41
1
10
188.54711223738
20
8.60941741353281
30
0
41
1
10
188.544845341929
20
8.66286751404428
30
0
41
1
10
188.542860837097
20
8.70963552914603
30
0
41
1
10
188.541937463764
20
8.73142885173013
30
0
41
1
10
188.541578932426
20
8.73985802034153
30
0
41
1
10
188.54150438748
20
8.74160642481291
30
0
0
SPLINE
5
274
100
AcDbEntity
8
1
62
256
6
ByLayer
370
-1
48
1
60
0
100
AcDbSpline
70
4
71
3
72
15
73
11
40
0
40
0
40
0
40
0
40
0.0144496252550452
40
0.0300932819970286
40
0.0613805954809955
40
0.123955222448929
40
0.249104476384796
40
0.499402984256531
40
0.749701492128266
40
1
40
1
40
1
40
1
41
1
10
198.421463585616
20
21.0405758682767
30
0
41
1
10
198.421492498829
20
21.0397447394778
30
0
41
1
10
198.421505535196
20
21.0393700008024
30
0
41
1
10
198.421566336806
20
21.0376222196476
30
0
41
1
10
198.421665495279
20
21.0347718459656
30
0
41
1
10
198.421869797247
20
21.0288990553212
30
0
41
1
10
198.422274411169
20
21.0172681695527
30
0
41
1
10
198.422854388064
20
21.0005963630331
30
0
41
1
10
198.423549588935
20
20.9806123696767
30
0
41
1
10
198.424013144849
20
20.9672871586498
30
0
41
1
10
198.424244922806
20
20.9606245531363
30
0
0
SPLINE
5
275
100
AcDbEntity
8
1
62
256
6
ByLayer
370
-1
48
1
60
0
100
AcDbSpline
70
4
71
3
72
12
73
8
40
0
40
0
40
0
40
0
40
0.25
40
0.25
40
0.5
40
0.5
40
1
40
1
40
1
40
1
41
1
10
198.522074435553
20
0.136784181275942
30
0
41
1
10
198.507735856566
20
0.180824218055505
30
0
41
1
10
198.495164234754
20
0.221109466996211
30
0
41
1
10
198.472255967167
20
0.297020439966502
30
0
41
1
10
198.461901255356
20
0.332742280429585
30
0
41
1
10
198.433640169437
20
0.433535235454201
30
0
41
1
10
198.418290195833
20
0.492933604809764
30
0
41
1
10
198.404749489933
20
0.548492357577771
30
0
0
SPLINE
5
276
100
AcDbEntity
8
1
62
256
6
ByLayer
370
-1
48
1
60
0
100
AcDbSpline
70
4
71
3
72
10
73
6
40
0
40
0
40
0
40
0
40
0.440069925397776
40
0.440069925397776
40
1
40
1
40
1
40
1
41
1
10
198.339503118152
20
-6.41904286665434
30
0
41
1
10
198.36772825084
20
-6.51757922896326
30
0
41
1
10
198.399975447756
20
-6.61521197338482
30
0
41
1
10
198.482587335422
20
-6.83497241151858
30
0
41
1
10
198.535523041195
20
-6.95643120239069
30
0
41
1
10
198.594521475858
20
-7.07463531983129
30
0
0
SPLINE
5
277
100
AcDbEntity
8
1
62
256
6
ByLayer
370
-1
48
1
60
0
100
AcDbSpline
70
4
71
3
72
12
73
8
40
0
40
0
40
0
40
0
40
0.500000000000045
40
0.500000000000045
40
0.750000000000022
40
0.750000000000022
40
1
40
1
40
1
40
1
41
1
10
199.41873464982
20
-10.6970160624134
30
0
41
1
10
199.364565440702
20
-10.7007558018768
30
0
41
1
10
199.307359382847
20
-10.7061009573324
30
0
41
1
10
199.211721106627
20
-10.7193148459002
30
0
41
1
10
199.178016814984
20
-10.724629801101
30
0
41
1
10
199.105659495811
20
-10.7381230008393
30
0
41
1
10
199.067413647597
20
-10.7461983498808
30
0
41
1
10
199.025475043631
20
-10.7566473314413
30
0
0
SPLINE
5
278
100
AcDbEntity
8
1
62
256
6
ByLayer
370
-1
48
1
60
0
100
AcDbSpline
70
4
71
3
72
10
73
6
40
0
40
0
40
0
40
0
40
0.5
40
0.5
40
1
40
1
40
1
40
1
41
1
10
198.955565624421
20
-1.26913488340912
30
0
41
1
10
198.965278565448
20
-1.30178819356243
30
0
41
1
10
198.976541787672
20
-1.33719414059269
30
0
41
1
10
199.002295896587
20
-1.41171729464105
30
0
41
1
10
199.016595346456
20
-1.45017950762767
30
0
41
1
10
199.031309810538
20
-1.48725800849454
30
0
0
SPLINE
5
279
100
AcDbEntity
8
1
62
256
6
ByLayer
370
-1
48
1
60
0
100
AcDbSpline
70
4
71
3
72
20
73
16
40
0
40
0
40
0
40
0
40
0.176988650102507
40
0.176988650102507
40
0.353977300205014
40
0.353977300205014
40
0.442471625256308
40
0.442471625256308
40
0.530965950307601
40
0.530965950307601
40
0.707954600410307
40
0.707954600410307
40
0.884943250513012
40
0.884943250513012
40
1
40
1
40
1
40
1
41
1
10
198.404749489933
20
0.548492357577771
30
0
41
1
10
198.40073251659
20
0.564974366010915
30
0
41
1
10
198.395324700562
20
0.582368421447114
30
0
41
1
10
198.379237900681
20
0.620195988257109
30
0
41
1
10
198.368719305245
20
0.640567697256586
30
0
41
1
10
198.344680545132
20
0.674010301170256
30
0
41
1
10
198.335142843044
20
0.68566459064732
30
0
41
1
10
198.313805643195
20
0.707928887825204
30
0
41
1
10
198.301743443094
20
0.718751931340421
30
0
41
1
10
198.265587282802
20
0.746789018132574
30
0
41
1
10
198.241862134019
20
0.759828646950382
30
0
41
1
10
198.199816476142
20
0.778750692511551
30
0
41
1
10
198.180550540037
20
0.785111249630631
30
0
41
1
10
198.150970868243
20
0.792981682819061
30
0
41
1
10
198.139888212961
20
0.795390278671249
30
0
41
1
10
198.1292215263
20
0.797300005610168
30
0
0
SPLINE
5
27A
100
AcDbEntity
8
1
62
256
6
ByLayer
370
-1
48
1
60
0
100
AcDbSpline
70
4
71
3
72
22
73
18
40
0
40
0
40
0
40
0
40
0.124999999999964
40
0.124999999999964
40
0.249999999999927
40
0.249999999999927
40
0.312499999999909
40
0.312499999999909
40
0.374999999999891
40
0.374999999999891
40
0.499999999999913
40
0.499999999999913
40
0.624999999999934
40
0.624999999999934
40
0.749999999999956
40
0.749999999999956
40
1
40
1
40
1
40
1
41
1
10
199.488304580323
20
-10.639735300737
30
0
41
1
10
199.506372127211
20
-10.6372776586977
30
0
41
1
10
199.525301018501
20
-10.6333794589922
30
0
41
1
10
199.565958052465
20
-10.620076297825
30
0
41
1
10
199.587635680282
20
-10.6108428073617
30
0
41
1
10
199.622427629852
20
-10.5881333360393
30
0
41
1
10
199.634415960558
20
-10.5789251042645
30
0
41
1
10
199.656951421151
20
-10.557856832832
30
0
41
1
10
199.667707217791
20
-10.5457298225617
30
0
41
1
10
199.694988481157
20
-10.5088343923156
30
0
41
1
10
199.706856766952
20
-10.4839600159496
30
0
41
1
10
199.723163319623
20
-10.4393468738017
30
0
41
1
10
199.728028373452
20
-10.4186122949559
30
0
41
1
10
199.734481863292
20
-10.379728748886
30
0
41
1
10
199.736018996346
20
-10.3615864182009
30
0
41
1
10
199.73773683209
20
-10.3094310909691
30
0
41
1
10
199.735054647112
20
-10.2776666066149
30
0
41
1
10
199.730467494851
20
-10.247473146185
30
0
0
SPLINE
5
27B
100
AcDbEntity
8
1
62
256
6
ByLayer
370
-1
48
1
60
0
100
AcDbSpline
70
4
71
3
72
8
73
4
40
0
40
0
40
0
40
0
40
1
40
1
40
1
40
1
41
1
10
199.031309810538
20
-1.48725800849454
30
0
41
1
10
199.049334543322
20
-1.53470095310664
30
0
41
1
10
199.058240182972
20
-1.58483811472186
30
0
41
1
10
199.058503442254
20
-1.63115036020307
30
0
0
SPLINE
5
27C
100
AcDbEntity
8
1
62
256
6
ByLayer
370
-1
48
1
60
0
100
AcDbSpline
70
4
71
3
72
10
73
6
40
0
40
0
40
0
40
0
40
0.5
40
0.5
40
1
40
1
40
1
40
1
41
1
10
199.047641248584
20
-1.8321421369578
30
0
41
1
10
199.04529889102
20
-1.78753065700619
30
0
41
1
10
199.043640985644
20
-1.74453646143368
30
0
41
1
10
199.041513220955
20
-1.66210539732648
30
0
41
1
10
199.041069594684
20
-1.62409768879093
30
0
41
1
10
199.041061831135
20
-1.58823033047236
30
0
0
SPLINE
5
27D
100
AcDbEntity
8
1
62
256
6
ByLayer
370
-1
48
1
60
0
100
AcDbSpline
70
4
71
3
72
10
73
6
40
0
40
0
40
0
40
0
40
0.5
40
0.5
40
1
40
1
40
1
40
1
41
1
10
198.594521475858
20
-7.07463531983129
30
0
41
1
10
198.619288720445
20
-7.1242121179483
30
0
41
1
10
198.637372573081
20
-7.17574105183073
30
0
41
1
10
198.660702326767
20
-7.28254869649689
30
0
41
1
10
198.665811008596
20
-7.33817059738283
30
0
41
1
10
198.663861822065
20
-7.39353636137523
30
0
0
SPLINE
5
27E
100
AcDbEntity
8
1
62
256
6
ByLayer
370
-1
48
1
60
0
100
AcDbSpline
70
4
71
3
72
10
73
6
40
0
40
0
40
0
40
0
40
0.5
40
0.5
40
1
40
1
40
1
40
1
41
1
10
198.613658255308
20
-7.3871572442786
30
0
41
1
10
198.615417094601
20
-7.33601338161842
30
0
41
1
10
198.610805699768
20
-7.2857290824181
30
0
41
1
10
198.589259850189
20
-7.18682328821032
30
0
41
1
10
198.572131357664
20
-7.13815672923525
30
0
41
1
10
198.54917285978
20
-7.09240029722596
30
0
0
SPLINE
5
27F
100
AcDbEntity
8
1
62
256
6
ByLayer
370
-1
48
1
60
0
100
AcDbSpline
70
4
71
3
72
20
73
16
40
0
40
0
40
0
40
0
40
0.250000000000001
40
0.250000000000001
40
0.375000000000001
40
0.375000000000001
40
0.500000000000001
40
0.500000000000001
40
0.625000000000001
40
0.625000000000001
40
0.75
40
0.75
40
0.875
40
0.875
40
1
40
1
40
1
40
1
41
1
10
199.786258268825
20
-10.1219410398568
30
0
41
1
10
199.792422344605
20
-10.1702202676067
30
0
41
1
10
199.794692036495
20
-10.2209393762808
30
0
41
1
10
199.786849200546
20
-10.3037390991107
30
0
41
1
10
199.782230679919
20
-10.3327998429302
30
0
41
1
10
199.767198203818
20
-10.392379880592
30
0
41
1
10
199.756911948573
20
-10.4229472897895
30
0
41
1
10
199.726543574424
20
-10.4867505529551
30
0
41
1
10
199.706206780556
20
-10.5195925525792
30
0
41
1
10
199.65621600274
20
-10.5789555705324
30
0
41
1
10
199.626637756075
20
-10.605225902536
30
0
41
1
10
199.566028174045
20
-10.6464214977366
30
0
41
1
10
199.535256191825
20
-10.6616243986717
30
0
41
1
10
199.475794207278
20
-10.6842812269433
30
0
41
1
10
199.446736404475
20
-10.691900696567
30
0
41
1
10
199.41873464982
20
-10.6970160624134
30
0
0
SPLINE
5
280
100
AcDbEntity
8
1
62
256
6
ByLayer
370
-1
48
1
60
0
100
AcDbSpline
70
4
71
3
72
10
73
6
40
0
40
0
40
0
40
0
40
0.367626034333036
40
0.367626034333036
40
1
40
1
40
1
40
1
41
1
10
198.557987381143
20
-9.01525841145326
30
0
41
1
10
198.564776900937
20
-8.81574651365182
30
0
41
1
10
198.571575975201
20
-8.61623493941946
30
0
41
1
10
198.590103591664
20
-8.07353354966591
30
0
41
1
10
198.601856031641
20
-7.73034454323206
30
0
41
1
10
198.613658255308
20
-7.38715724427851
30
0
0
SPLINE
5
281
100
AcDbEntity
8
1
62
256
6
ByLayer
370
-1
48
1
60
0
100
AcDbSpline
70
4
71
3
72
10
73
6
40
0
40
0
40
0
40
0
40
0.5
40
0.5
40
1
40
1
40
1
40
1
41
1
10
199.024830588728
20
-1.50213006787627
30
0
41
1
10
199.007998841118
20
-1.45785962721396
30
0
41
1
10
198.991416138054
20
-1.41281566210631
30
0
41
1
10
198.959935537709
20
-1.32430446523611
30
0
41
1
10
198.945483116524
20
-1.28211685738475
30
0
41
1
10
198.93229229588
20
-1.24230079273517
30
0
0
SPLINE
5
282
100
AcDbEntity
8
1
62
256
6
ByLayer
370
-1
48
1
60
0
100
AcDbSpline
70
4
71
3
72
10
73
6
40
0
40
0
40
0
40
0
40
0.5
40
0.5
40
1
40
1
40
1
40
1
41
1
10
199.058503442254
20
-1.63115036020304
30
0
41
1
10
199.057230173274
20
-1.66004783089872
30
0
41
1
10
199.05643706638
20
-1.69097978449258
30
0
41
1
10
199.056510108348
20
-1.75987408319955
30
0
41
1
10
199.057400072524
20
-1.79620165647518
30
0
41
1
10
199.05941837879
20
-1.83464140236688
30
0
0
SPLINE
5
283
100
AcDbEntity
8
1
62
256
6
ByLayer
370
-1
48
1
60
0
100
AcDbSpline
70
4
71
3
72
18
73
14
40
0
40
0
40
0
40
0
40
0.25
40
0.25
40
0.5
40
0.5
40
0.625
40
0.625
40
0.75
40
0.75
40
0.875
40
0.875
40
1
40
1
40
1
40
1
41
1
10
199.730467494851
20
-10.247473146185
30
0
41
1
10
199.720418519043
20
-10.1813289817486
30
0
41
1
10
199.710800177646
20
-10.1129791417411
30
0
41
1
10
199.692795829087
20
-9.96860689950586
30
0
41
1
10
199.684402349697
20
-9.89279128367312
30
0
41
1
10
199.67334846332
20
-9.76830221765621
30
0
41
1
10
199.669918908668
20
-9.72488997928434
30
0
41
1
10
199.663844707381
20
-9.63316344314211
30
0
41
1
10
199.661184209129
20
-9.58484065643114
30
0
41
1
10
199.657033466408
20
-9.47935518440585
30
0
41
1
10
199.655538984171
20
-9.4219238036078
30
0
41
1
10
199.654777910801
20
-9.29656623183874
30
0
41
1
10
199.655580958408
20
-9.228171021381
30
0
41
1
10
199.657996534899
20
-9.15912698285615
30
0
0
SPLINE
5
284
100
AcDbEntity
8
1
62
256
6
ByLayer
370
-1
48
1
60
0
100
AcDbSpline
70
4
71
3
72
10
73
6
40
0
40
0
40
0
40
0
40
0.857750003386306
40
0.857750003386306
40
1
40
1
40
1
40
1
41
1
10
198.663861822065
20
-7.39353636137523
30
0
41
1
10
198.647403897942
20
-7.85902042717299
30
0
41
1
10
198.630887592837
20
-8.32449487295466
30
0
41
1
10
198.611584773144
20
-8.86715585566421
30
0
41
1
10
198.608837827332
20
-8.94434918871798
30
0
41
1
10
198.606089838717
20
-9.02154234167199
30
0
0
SPLINE
5
285
100
AcDbEntity
8
1
62
256
6
ByLayer
370
-1
48
1
60
0
100
AcDbSpline
70
4
71
3
72
18
73
14
40
0
40
0
40
0
40
0
40
0.007861565137954
40
0.007861565137954
40
0.206289252110363
40
0.206289252110363
40
0.404716939082772
40
0.404716939082772
40
0.603144626055182
40
0.603144626055182
40
0.801572313027591
40
0.801572313027591
40
1
40
1
40
1
40
1
41
1
10
198.118390357018
20
0.830103862763082
30
0
41
1
10
198.119509735426
20
0.829755020693113
30
0
41
1
10
198.120630552565
20
0.829401939871588
30
0
41
1
10
198.150077790397
20
0.820024522911325
30
0
41
1
10
198.179330573402
20
0.80838826507636
30
0
41
1
10
198.241029278521
20
0.775856895497725
30
0
41
1
10
198.273125944575
20
0.75475283352705
30
0
41
1
10
198.33207816946
20
0.704334547737545
30
0
41
1
10
198.358693640059
20
0.67510696584344
30
0
41
1
10
198.401428154225
20
0.616069643383071
30
0
41
1
10
198.417788326864
20
0.586481813796411
30
0
41
1
10
198.443121794574
20
0.529760125251187
30
0
41
1
10
198.452275682108
20
0.502273865173265
30
0
41
1
10
198.459016142433
20
0.475936861596694
30
0
0
SPLINE
5
286
100
AcDbEntity
8
1
62
256
6
ByLayer
370
-1
48
1
60
0
100
AcDbSpline
70
4
71
3
72
12
73
8
40
0
40
0
40
0
40
0
40
0.360346101020824
40
0.360346101020824
40
0.720692202041648
40
0.720692202041648
40
1
40
1
40
1
40
1
41
1
10
198.606089838717
20
-9.02154234167199
30
0
41
1
10
198.60494630564
20
-9.0540795826555
30
0
41
1
10
198.599549543495
20
-9.08569597604722
30
0
41
1
10
198.580559398277
20
-9.14715414734519
30
0
41
1
10
198.566780554279
20
-9.17699226977828
30
0
41
1
10
198.536262090025
20
-9.22513581150963
30
0
41
1
10
198.520569460329
20
-9.24501668830246
30
0
41
1
10
198.503131587428
20
-9.2630040188009
30
0
0
SPLINE
5
287
100
AcDbEntity
8
1
62
256
6
ByLayer
370
-1
48
1
60
0
100
AcDbSpline
70
4
71
3
72
12
73
8
40
0
40
0
40
0
40
0
40
0.075412560696993
40
0.075412560696993
40
0.537706280348496
40
0.537706280348496
40
1
40
1
40
1
40
1
41
1
10
198.50133686454
20
-9.18549605226761
30
0
41
1
10
198.503947203505
20
-9.18175083177329
30
0
41
1
10
198.506472764091
20
-9.17795429880022
30
0
41
1
10
198.523847488143
20
-9.15055474717468
30
0
41
1
10
198.535828198726
20
-9.12460354254532
30
0
41
1
10
198.552302180931
20
-9.07127294810337
30
0
41
1
10
198.557025806875
20
-9.04351453455209
30
0
41
1
10
198.557987381143
20
-9.01525841145326
30
0
0
SPLINE
5
288
100
AcDbEntity
8
1
62
256
6
ByLayer
370
-1
48
1
60
0
100
AcDbSpline
70
4
71
3
72
22
73
18
40
0
40
0
40
0
40
0
40
0.0624999999999983
40
0.0624999999999983
40
0.124999999999997
40
0.124999999999997
40
0.187499999999995
40
0.187499999999995
40
0.249999999999993
40
0.249999999999993
40
0.374999999999992
40
0.374999999999992
40
0.499999999999991
40
0.499999999999991
40
0.749999999999995
40
0.749999999999995
40
1
40
1
40
1
40
1
41
1
10
199.669782643247
20
-9.16265312257181
30
0
41
1
10
199.668630016446
20
-9.19559847103926
30
0
41
1
10
199.668280292339
20
-9.22781876833778
30
0
41
1
10
199.66887499206
20
-9.29102958522998
30
0
41
1
10
199.669789972541
20
-9.32042251907072
30
0
41
1
10
199.672383479222
20
-9.37647321550986
30
0
41
1
10
199.674072092976
20
-9.40306175473287
30
0
41
1
10
199.677840172458
20
-9.45290786739631
30
0
41
1
10
199.679935739714
20
-9.4764368896335
30
0
41
1
10
199.686641734051
20
-9.54426068394955
30
0
41
1
10
199.691674878619
20
-9.58594668442112
30
0
41
1
10
199.702266578163
20
-9.66505976065696
30
0
41
1
10
199.707804939074
20
-9.70223027765459
30
0
41
1
10
199.724851350206
20
-9.80949807029629
30
0
41
1
10
199.73678114561
20
-9.8754458750345
30
0
41
1
10
199.761163404173
20
-10.0021990555514
30
0
41
1
10
199.773631437383
20
-10.0628512405469
30
0
41
1
10
199.786258268824
20
-10.1219410398601
30
0
0
SPLINE
5
289
100
AcDbEntity
8
1
62
256
6
ByLayer
370
-1
48
1
60
0
100
AcDbSpline
70
4
71
3
72
10
73
6
40
0
40
0
40
0
40
0
40
0.811452654947803
40
0.811452654947803
40
1
40
1
40
1
40
1
41
1
10
198.54917285978
20
-7.09240029722596
30
0
41
1
10
198.48935516513
20
-6.97318325210216
30
0
41
1
10
198.435928680204
20
-6.85136887610471
30
0
41
1
10
198.377904679855
20
-6.69807340672034
30
0
41
1
10
198.367303655007
20
-6.66901121183284
30
0
41
1
10
198.357049396339
20
-6.63981575680737
30
0
0
SPLINE
5
28A
100
AcDbEntity
8
1
62
256
6
ByLayer
370
-1
48
1
60
0
100
AcDbSpline
70
4
71
3
72
12
73
8
40
0
40
0
40
0
40
0
40
0.5
40
0.5
40
0.75
40
0.75
40
1
40
1
40
1
40
1
41
1
10
198.459016142433
20
0.475936861596694
30
0
41
1
10
198.467854542287
20
0.426950863966397
30
0
41
1
10
198.478140950708
20
0.374773573680642
30
0
41
1
10
198.498257247377
20
0.286178569278263
30
0
41
1
10
198.505795687785
20
0.254746567428128
30
0
41
1
10
198.523400861221
20
0.186603345741844
30
0
41
1
10
198.533350122425
20
0.150284188528985
30
0
41
1
10
198.545347764094
20
0.109950090602013
30
0
0
SPLINE
5
28B
100
AcDbEntity
8
1
62
256
6
ByLayer
370
-1
48
1
60
0
100
AcDbSpline
70
4
71
3
72
10
73
6
40
0
40
0
40
0
40
0
40
0.5
40
0.5
40
1
40
1
40
1
40
1
41
1
10
199.041061831135
20
-1.58823033047239
30
0
41
1
10
199.041059087841
20
-1.57555639983139
30
0
41
1
10
199.03997891765
20
-1.56158415368984
30
0
41
1
10
199.034674494499
20
-1.53216205214252
30
0
41
1
10
199.030368410578
20
-1.51669550809547
30
0
41
1
10
199.024830588728
20
-1.50213006787624
30
0
0
SPLINE
5
28C
100
AcDbEntity
8
1
62
256
6
ByLayer
370
-1
48
1
60
0
100
AcDbSpline
70
4
71
3
72
12
73
8
40
0
40
0
40
0
40
0
40
0.25
40
0.25
40
0.5
40
0.5
40
1
40
1
40
1
40
1
41
1
10
199.049238129828
20
-10.730302084927
30
0
41
1
10
199.094817670046
20
-10.7174447386886
30
0
41
1
10
199.136959997516
20
-10.7066750400778
30
0
41
1
10
199.216980162452
20
-10.6877694392562
30
0
41
1
10
199.254968226526
20
-10.6796294092827
30
0
41
1
10
199.362860704711
20
-10.6583193179258
30
0
41
1
10
199.427401179212
20
-10.6480196992684
30
0
41
1
10
199.488304580322
20
-10.639735300737
30
0
0
SPLINE
5
28D
100
AcDbEntity
8
SK1
62
256
6
ByLayer
370
-1
48
1
60
0
100
AcDbSpline
70
4
71
3
72
28
73
24
40
0
40
0
40
0
40
0
40
0.24999999999997
40
0.24999999999997
40
0.374999999999954
40
0.374999999999954
40
0.437499999999947
40
0.437499999999947
40
0.468749999999943
40
0.468749999999943
40
0.499999999999939
40
0.499999999999939
40
0.51562499999994
40
0.51562499999994
40
0.53124999999994
40
0.53124999999994
40
0.562499999999944
40
0.562499999999944
40
0.624999999999952
40
0.624999999999952
40
0.749999999999968
40
0.749999999999968
40
1
40
1
40
1
40
1
41
1
10
-2.00000000000003
20
-3.5318808720528
30
0
41
1
10
-2.01495367663023
20
-3.43215611727859
30
0
41
1
10
-2.03093074136542
20
-3.33270202367439
30
0
41
1
10
-2.05913381766928
20
-3.18523173447792
30
0
41
1
10
-2.06919540801944
20
-3.13627601240742
30
0
41
1
10
-2.08711697283871
20
-3.06447112741
30
0
41
1
10
-2.09354615320441
20
-3.0407352426725
30
0
41
1
10
-2.10500754339574
20
-3.00649558647135
30
0
41
1
10
-2.10913389451733
20
-2.99526415536084
30
0
41
1
10
-2.11879461576235
20
-2.97412719489222
30
0
41
1
10
-2.12410430532522
20
-2.9634541147345
30
0
41
1
10
-2.13599473306299
20
-2.95444828312577
30
0
41
1
10
-2.14100969668752
20
-2.95345522109784
30
0
41
1
10
-2.14977436658612
20
-2.95915337420564
30
0
41
1
10
-2.15315484292654
20
-2.96467370301431
30
0
41
1
10
-2.16124639126004
20
-2.98162665342264
30
0
41
1
10
-2.16462863808896
20
-2.99443080041198
30
0
41
1
10
-2.17336674456097
20
-3.03234894515953
30
0
41
1
10
-2.177024266888
20
-3.05841003977531
30
0
41
1
10
-2.18628317238893
20
-3.13606460897245
30
0
41
1
10
-2.18979354091806
20
-3.18786417566517
30
0
41
1
10
-2.19793222121804
20
-3.34326676178742
30
0
41
1
10
-2.19967024790282
20
-3.44676918631768
30
0
41
1
10
-2.19996216443241
20
-3.54983930763262
30
0
0
SPLINE
5
28E
100
AcDbEntity
8
SK1
62
256
6
ByLayer
370
-1
48
1
60
0
100
AcDbSpline
70
4
71
3
72
24
73
20
40
0
40
0
40
0
40
0
40
0.0625000000000011
40
0.0625000000000011
40
0.125000000000002
40
0.125000000000002
40
0.187500000000003
40
0.187500000000003
40
0.250000000000005
40
0.250000000000005
40
0.312500000000006
40
0.312500000000006
40
0.375000000000007
40
0.375000000000007
40
0.500000000000006
40
0.500000000000006
40
0.750000000000003
40
0.750000000000003
40
1
40
1
40
1
40
1
41
1
10
-0.399999999999963
20
8.40050075607752
30
0
41
1
10
-0.428752141853664
20
8.4264728951228
30
0
41
1
10
-0.461100695513466
20
8.45005334645103
30
0
41
1
10
-0.534714999603821
20
8.48345078550298
30
0
41
1
10
-0.577303612973097
20
8.49266393908405
30
0
41
1
10
-0.661924516165101
20
8.48532782602041
30
0
41
1
10
-0.701224861450541
20
8.46977406317484
30
0
41
1
10
-0.769375077269316
20
8.42862323436506
30
0
41
1
10
-0.799016959709334
20
8.40305846370296
30
0
41
1
10
-0.851948152018309
20
8.34882363821524
30
0
41
1
10
-0.875723809893998
20
8.31951815528515
30
0
41
1
10
-0.919221854902304
20
8.25942406973266
30
0
41
1
10
-0.938955742650066
20
8.22860704152689
30
0
41
1
10
-0.994258386462406
20
8.13460352040161
30
0
41
1
10
-1.02600083824522
20
8.06989026225818
30
0
41
1
10
-1.11280547606255
20
7.87204951340277
30
0
41
1
10
-1.15949220142302
20
7.73510332995977
30
0
41
1
10
-1.24121226330025
20
7.45819827113272
30
0
41
1
10
-1.27607959970024
20
7.31764272778901
30
0
41
1
10
-1.30710678118652
20
7.17535191129488
30
0
0
SPLINE
5
28F
100
AcDbEntity
8
SK1
62
256
6
ByLayer
370
-1
48
1
60
0
100
AcDbSpline
70
4
71
3
72
37
73
33
40
0
40
0
40
0
40
0
40
0.001432611803247
40
0.0111574013949122
40
0.0208821909865774
40
0.0306069805782426
40
0.050056559761573
40
0.0695061389449034
40
0.108405297311564
40
0.147304455678225
40
0.186203614044886
40
0.225102772411547
40
0.264001930778207
40
0.302901089144868
40
0.341800247511529
40
0.38069940587819
40
0.419598564244851
40
0.458497722611512
40
0.497396880978172
40
0.536296039344833
40
0.575195197711494
40
0.614094356078155
40
0.652993514444816
40
0.691892672811476
40
0.730791831178137
40
0.769690989544798
40
0.808590147911459
40
0.84748930627812
40
0.88638846464478
40
0.925287623011441
40
0.964186781378102
40
1
40
1
40
1
40
1
41
1
10
-1.99999999999999
20
21.8239181465466
30
0
41
1
10
-1.99999999999999
20
21.8237782818802
30
0
41
1
10
-1.99999999999997
20
21.8225936345076
30
0
41
1
10
-1.99999999999997
20
21.8189793414588
30
0
41
1
10
-1.99999999999997
20
21.8103813172626
30
0
41
1
10
-1.99999999999997
20
21.7940462079955
30
0
41
1
10
-1.99999999999997
20
21.7642160490035
30
0
41
1
10
-1.99999999999997
20
21.6949779936854
30
0
41
1
10
-1.99999999999999
20
21.5661676526815
30
0
41
1
10
-1.99999999999999
20
21.3371910810194
30
0
41
1
10
-1.99999999999999
20
21.0285622078674
30
0
41
1
10
-1.99999999999999
20
20.6365187777369
30
0
41
1
10
-1.99999999999999
20
20.1589996983693
30
0
41
1
10
-1.99999999999999
20
19.5958617698656
30
0
41
1
10
-1.99999999999999
20
18.9489598758679
30
0
41
1
10
-1.99999999999999
20
18.2221705966385
30
0
41
1
10
-2.00000000000001
20
17.4213307857328
30
0
41
1
10
-2.00000000000001
20
16.5541009338831
30
0
41
1
10
-2.00000000000001
20
15.6297568996197
30
0
41
1
10
-2.00000000000001
20
14.6589138549468
30
0
41
1
10
-2.00000000000001
20
13.6532009067709
30
0
41
1
10
-2.00000000000001
20
12.6248857298215
30
0
41
1
10
-2.00000000000001
20
11.5864803035381
30
0
41
1
10
-2.00000000000001
20
10.5503219390466
30
0
41
1
10
-2.00000000000001
20
9.5281693138144
30
0
41
1
10
-2.00000000000001
20
8.53080274713156
30
0
41
1
10
-2.00000000000001
20
7.56767168233321
30
0
41
1
10
-2.00000000000001
20
6.64657466016962
30
0
41
1
10
-2.00000000000003
20
5.77341249237057
30
0
41
1
10
-2.00000000000003
20
4.95199325849538
30
0
41
1
10
-2.00000000000003
20
4.20424996648165
30
0
41
1
10
-2.00000000000003
20
3.74495934699039
30
0
41
1
10
-2.00000000000003
20
3.53189014643684
30
0
0
SPLINE
5
290
100
AcDbEntity
8
SK1
62
256
6
ByLayer
370
-1
48
1
60
0
100
AcDbSpline
70
4
71
3
72
10
73
6
40
0
40
0
40
0
40
0
40
0.5
40
0.5
40
1
40
1
40
1
40
1
41
1
10
-0.199999999998369
20
-9.32791902475083
30
0
41
1
10
-0.156870639912114
20
-9.24925077485605
30
0
41
1
10
-0.120494857870725
20
-9.16753401773914
30
0
41
1
10
-0.0552466729708669
20
-9.00203871577421
30
0
41
1
10
-0.0264020688159405
20
-8.91789614017677
30
0
41
1
10
-4.26E-14
20
-8.83269944547368
30
0
0
SPLINE
5
291
100
AcDbEntity
8
SK1
62
256
6
ByLayer
370
-1
48
1
60
0
100
AcDbSpline
70
4
71
3
72
10
73
6
40
0
40
0
40
0
40
0
40
0.5
40
0.5
40
1
40
1
40
1
40
1
41
1
10
-2.84E-14
20
8.83269948433986
30
0
41
1
10
-0.0264146390710067
20
8.91793678956236
30
0
41
1
10
-0.055267523719067
20
9.00209516788257
30
0
41
1
10
-0.120503516958223
20
9.16755294245164
30
0
41
1
10
-0.156682849766625
20
9.24890870610611
30
0
41
1
10
-0.200000000000046
20
9.32791957530281
30
0
0
SPLINE
5
292
100
AcDbEntity
8
SK1
62
256
6
ByLayer
370
-1
48
1
60
0
100
AcDbSpline
70
4
71
3
72
26
73
22
40
0
40
0
40
0
40
0
40
0.0312499999999978
40
0.0312499999999978
40
0.0624999999999956
40
0.0624999999999956
40
0.0937499999999933
40
0.0937499999999933
40
0.124999999999991
40
0.124999999999991
40
0.187499999999991
40
0.187499999999991
40
0.249999999999991
40
0.249999999999991
40
0.374999999999995
40
0.374999999999995
40
0.499999999999998
40
0.499999999999998
40
0.749999999999999
40
0.749999999999999
40
1
40
1
40
1
40
1
41
1
10
-0.400000000000063
20
-8.400500696617
30
0
41
1
10
-0.393725252963606
20
-8.39483264189755
30
0
41
1
10
-0.386915609950421
20
-8.38978004226053
30
0
41
1
10
-0.371510025045907
20
-8.38222431343414
30
0
41
1
10
-0.362908121619071
20
-8.37986418265822
30
0
41
1
10
-0.345148544913044
20
-8.38044759995859
30
0
41
1
10
-0.336106054502096
20
-8.38358465090113
30
0
41
1
10
-0.320552744636416
20
-8.39338118777326
30
0
41
1
10
-0.313813651744326
20
-8.39987112448961
30
0
41
1
10
-0.296222214851497
20
-8.42075886664318
30
0
41
1
10
-0.287467109392125
20
-8.43681840329882
30
0
41
1
10
-0.272674392185706
20
-8.46902466173057
30
0
41
1
10
-0.266640241246108
20
-8.4854902667683
30
0
41
1
10
-0.250660660648407
20
-8.53542885034435
30
0
41
1
10
-0.242864654673013
20
-8.56941536674492
30
0
41
1
10
-0.23003310146629
20
-8.63671856739603
30
0
41
1
10
-0.225036302071828
20
-8.67029480205636
30
0
41
1
10
-0.212586509005021
20
-8.77081535448841
30
0
41
1
10
-0.207640079074864
20
-8.83755219371164
30
0
41
1
10
-0.201301686428508
20
-8.97054022400033
30
0
41
1
10
-0.200000000000102
20
-9.03683050663381
30
0
41
1
10
-0.200000000000102
20
-9.10270278820403
30
0
0
SPLINE
5
293
100
AcDbEntity
8
SK1
62
256
6
ByLayer
370
-1
48
1
60
0
100
AcDbSpline
70
4
71
3
72
12
73
8
40
0
40
0
40
0
40
0
40
0.5
40
0.5
40
0.75
40
0.75
40
1
40
1
40
1
40
1
41
1
10
-1.30710678118656
20
-7.17535139798747
30
0
41
1
10
-1.43288857909614
20
-6.59851617694682
30
0
41
1
10
-1.55712887502456
20
-6.00852912527773
30
0
41
1
10
-1.73364643499025
20
-5.09918734693227
30
0
41
1
10
-1.79082233661408
20
-4.79199066182511
30
0
41
1
10
-1.90003742445902
20
-4.16818032247807
30
0
41
1
10
-1.95200075284659
20
-3.85198363140074
30
0
41
1
10
-2.00000000000003
20
-3.53188087205282
30
0
0
SPLINE
5
294
100
AcDbEntity
8
SK1
62
256
6
ByLayer
370
-1
48
1
60
0
100
AcDbSpline
70
4
71
3
72
10
73
6
40
0
40
0
40
0
40
0
40
0.5
40
0.5
40
1
40
1
40
1
40
1
41
1
10
-2.0000000000001
20
3.53189014643519
30
0
41
1
10
-1.90393337443696
20
4.17254949139414
30
0
41
1
10
-1.79296688652977
20
4.79344204858279
30
0
41
1
10
-1.55766021047049
20
6.00594034292695
30
0
41
1
10
-1.43293995753822
20
6.59828030673893
30
0
41
1
10
-1.30710678118652
20
7.17535191129488
30
0
0
SPLINE
5
295
100
AcDbEntity
8
SK1
62
256
6
ByLayer
370
-1
48
1
60
0
100
AcDbSpline
70
4
71
3
72
16
73
12
40
0
40
0
40
0
40
0
40
0.125
40
0.125
40
0.25
40
0.25
40
0.5
40
0.5
40
0.75
40
0.75
40
1
40
1
40
1
40
1
41
1
10
-2.19996216443241
20
-3.54983930763259
30
0
41
1
10
-2.19996657738898
20
-4.0041634529737
30
0
41
1
10
-2.19997072345427
20
-4.45236980864419
30
0
41
1
10
-2.1999779763659
20
-5.33337228979659
30
0
41
1
10
-2.19998111661398
20
-5.76662570138805
30
0
41
1
10
-2.19998914270218
20
-7.04409517492738
30
0
41
1
10
-2.19999263070733
20
-7.86507069861446
30
0
41
1
10
-2.19999730472937
20
-9.44492451930088
30
0
41
1
10
-2.19999850693479
20
-10.2038896103293
30
0
41
1
10
-2.19999985546731
20
-11.6586646600846
30
0
41
1
10
-2.20000000000005
20
-12.3549228627444
30
0
41
1
10
-2.20000000000005
20
-13.0172198859358
30
0
0
SPLINE
5
296
100
AcDbEntity
8
SK1
62
256
6
ByLayer
370
-1
48
1
60
0
100
AcDbSpline
70
4
71
3
72
24
73
20
40
0
40
0
40
0
40
0
40
0.249999999999997
40
0.249999999999997
40
0.499999999999993
40
0.499999999999993
40
0.624999999999994
40
0.624999999999994
40
0.749999999999995
40
0.749999999999995
40
0.812499999999997
40
0.812499999999997
40
0.874999999999998
40
0.874999999999998
40
0.906249999999999
40
0.906249999999999
40
0.9375
40
0.9375
40
1
40
1
40
1
40
1
41
1
10
-1.30710678118656
20
-7.17535139798747
30
0
41
1
10
-1.27617588994408
20
-7.31720043960848
30
0
41
1
10
-1.24142312050833
20
-7.45734864385662
30
0
41
1
10
-1.15999449780493
20
-7.73353361022413
30
0
41
1
10
-1.11351355932428
20
-7.86997262917799
30
0
41
1
10
-1.02750161115861
20
-8.06669315250051
30
0
41
1
10
-0.996080267656097
20
-8.13102746432639
30
0
41
1
10
-0.923321897117688
20
-8.25563070225374
30
0
41
1
10
-0.882760849905566
20
-8.31620179404553
30
0
41
1
10
-0.802761448590147
20
-8.39969060652675
30
0
41
1
10
-0.773706094075834
20
-8.42525023682245
30
0
41
1
10
-0.706107002205968
20
-8.46748720011121
30
0
41
1
10
-0.665982045795317
20
-8.48422176743338
30
0
41
1
10
-0.602185853475106
20
-8.4908350935851
30
0
41
1
10
-0.580712722065172
20
-8.49000840689459
30
0
41
1
10
-0.538535331278737
20
-8.48247637358227
30
0
41
1
10
-0.518459021813868
20
-8.47593635992655
30
0
41
1
10
-0.461513810263256
20
-8.45050288359352
30
0
41
1
10
-0.429198533608172
20
-8.42687608438288
30
0
41
1
10
-0.400000000000063
20
-8.40050069661706
30
0
0
SPLINE
5
297
100
AcDbEntity
8
SK1
62
256
6
ByLayer
370
-1
48
1
60
0
100
AcDbSpline
70
4
71
3
72
18
73
14
40
0
40
0
40
0
40
0
40
0.164461910698118
40
0.164461910698118
40
0.328923821396236
40
0.328923821396236
40
0.657847642792473
40
0.657847642792473
40
0.822309553490591
40
0.822309553490591
40
0.98677146418871
40
0.98677146418871
40
1
40
1
40
1
40
1
41
1
10
-2.20000000000005
20
-18.80579949842
30
0
41
1
10
-2.20000000000005
20
-19.129695530799
30
0
41
1
10
-2.19999991383656
20
-19.432115266424
30
0
41
1
10
-2.19999926362902
20
-19.9930629332167
30
0
41
1
10
-2.19999870008469
20
-20.2515480764309
30
0
41
1
10
-2.1999956404451
20
-20.9545919350817
30
0
41
1
10
-2.19999187964983
20
-21.3288356060147
30
0
41
1
10
-2.19997934279718
20
-21.7231461874623
30
0
41
1
10
-2.19997397516337
20
-21.8266671330472
30
0
41
1
10
-2.19995995834906
20
-21.9716817908412
30
0
41
1
10
-2.19995119755551
20
-22.0131826869451
30
0
41
1
10
-2.19993903881365
20
-22.019803502735
30
0
41
1
10
-2.19993811703853
20
-22.0200679081995
30
0
41
1
10
-2.19993717844007
20
-22.0201004848388
30
0
0
SPLINE
5
298
100
AcDbEntity
8
SK1
62
256
6
ByLayer
370
-1
48
1
60
0
100
AcDbSpline
70
4
71
3
72
59
73
55
40
0
40
0
40
0
40
0
40
0.00328250937434
40
0.0090187618622564
40
0.014817329608303
40
0.0206803779873756
40
0.0266100017338444
40
0.0326082258329857
40
0.0386770066003093
40
0.0448182329232553
40
0.0510337276410504
40
0.0728344709013921
40
0.0948683823801153
40
0.117209436170103
40
0.139928606376959
40
0.163093391857835
40
0.200662622879748
40
0.237908381161339
40
0.2751118646541
40
0.30443486627107
40
0.332798705209176
40
0.360361853383747
40
0.387296918963555
40
0.403635523643608
40
0.419213334477124
40
0.434082453961984
40
0.44830277655192
40
0.461942746173775
40
0.475079880732915
40
0.487800893820766
40
0.500201231717538
40
0.525185310027811
40
0.551818564140377
40
0.580711114120524
40
0.612342614688882
40
0.627621008758513
40
0.643077985328096
40
0.658746486288345
40
0.674658139827589
40
0.690843148715679
40
0.70733021350615
40
0.724146488255503
40
0.752011403855697
40
0.779849717373187
40
0.807779724119776
40
0.835918562999612
40
0.864709025287175
40
0.892851201334398
40
0.920478910091692
40
0.947733549591166
40
0.965515248191293
40
0.982622324530959
40
0.999102445740032
40
1
40
1
40
1
40
1
41
1
10
-38
20
-20.2401497222153
30
0
41
1
10
-38
20
-20.2399763439611
30
0
41
1
10
-38
20
-20.2382552576364
30
0
41
1
10
-38
20
-20.2299101333514
30
0
41
1
10
-38
20
-20.2120908676544
30
0
41
1
10
-38
20
-20.1861457443342
30
0
41
1
10
-38
20
-20.1520753502644
30
0
41
1
10
-38
20
-20.1098786348532
30
0
41
1
10
-38
20
-20.0595607012881
30
0
41
1
10
-38
20
-20.0011032096712
30
0
41
1
10
-38
20
-19.8792486892016
30
0
41
1
10
-38
20
-19.6560149747605
30
0
41
1
10
-38
20
-19.2711243760813
30
0
41
1
10
-38
20
-18.7936710623444
30
0
41
1
10
-38
20
-18.223548856156
30
0
41
1
10
-38
20
-17.4288759196868
30
0
41
1
10
-38
20
-16.3544924132952
30
0
41
1
10
-38
20
-14.9276445318439
30
0
41
1
10
-38
20
-13.4296501474763
30
0
41
1
10
-38
20
-11.9288756258108
30
0
41
1
10
-38
20
-10.4759268368282
30
0
41
1
10
-38
20
-8.96323644819535
30
0
41
1
10
-38
20
-7.58726637310823
30
0
41
1
10
-38
20
-6.39449029412319
30
0
41
1
10
-38
20
-5.41659594783596
30
0
41
1
10
-38
20
-4.4547870297263
30
0
41
1
10
-38
20
-3.5090765736185
30
0
41
1
10
-38
20
-2.57939132255686
30
0
41
1
10
-38
20
-1.66572746441938
30
0
41
1
10
-38
20
-0.768056548049486
30
0
41
1
10
-38
20
0.415831457948514
30
0
41
1
10
-38
20
1.9272295144481
30
0
41
1
10
-38
20
3.76642172397726
30
0
41
1
10
-38
20
5.65944965610282
30
0
41
1
10
-38
20
7.21053645631747
30
0
41
1
10
-38
20
8.4294251924504
30
0
41
1
10
-38
20
9.30633459126378
30
0
41
1
10
-38
20
10.1639471319464
30
0
41
1
10
-38
20
11.0021898492274
30
0
41
1
10
-38
20
11.8210991219975
30
0
41
1
10
-38
20
12.6206224179574
30
0
41
1
10
-38
20
13.5663001829272
30
0
41
1
10
-38
20
14.6201752586453
30
0
41
1
10
-38
20
15.7307919285947
30
0
41
1
10
-38
20
16.7360193481202
30
0
41
1
10
-38
20
17.6388814361707
30
0
41
1
10
-38
20
18.4289537488606
30
0
41
1
10
-38
20
19.0886370818297
30
0
41
1
10
-38
20
19.6045510408328
30
0
41
1
10
-38
20
19.9336739677254
30
0
41
1
10
-38
20
20.1275636137558
30
0
41
1
10
-38
20
20.2271964574402
30
0
41
1
10
-38
20
20.2494474601261
30
0
41
1
10
-38
20
20.2476818786124
30
0
41
1
10
-38
20
20.2475558581886
30
0
0
SPLINE
5
299
100
AcDbEntity
8
SK1
62
256
6
ByLayer
370
-1
48
1
60
0
100
AcDbSpline
70
4
71
3
72
16
73
12
40
0
40
0
40
0
40
0
40
0.0717136989460988
40
0.0717136989460988
40
0.381142465964066
40
0.381142465964066
40
0.53585684947305
40
0.53585684947305
40
0.690571232982033
40
0.690571232982033
40
1
40
1
40
1
40
1
41
1
10
-0.762360221247903
20
21.7815726221584
30
0
41
1
10
-0.755005485739702
20
21.7811816232069
30
0
41
1
10
-0.747424649042188
20
21.7808034679822
30
0
41
1
10
-0.705775931727089
20
21.7788753546854
30
0
41
1
10
-0.665635308853837
20
21.7775938733912
30
0
41
1
10
-0.60195117288292
20
21.7770921105883
30
0
41
1
10
-0.580481865274223
20
21.7771577844509
30
0
41
1
10
-0.538387501119573
20
21.7777373965673
30
0
41
1
10
-0.518327184416407
20
21.7782386936449
30
0
41
1
10
-0.461476248786823
20
21.7801594251183
30
0
41
1
10
-0.429177408156988
20
21.7819140301106
30
0
41
1
10
-0.399999999999991
20
21.7837956106232
30
0
0
SPLINE
5
29A
100
AcDbEntity
8
SK1
62
256
6
ByLayer
370
-1
48
1
60
0
100
AcDbSpline
70
4
71
3
72
24
73
20
40
0
40
0
40
0
40
0
40
0.249999999999999
40
0.249999999999999
40
0.499999999999999
40
0.499999999999999
40
0.624999999999998
40
0.624999999999998
40
0.749999999999998
40
0.749999999999998
40
0.812499999999998
40
0.812499999999998
40
0.874999999999998
40
0.874999999999998
40
0.906249999999998
40
0.906249999999998
40
0.937499999999998
40
0.937499999999998
40
1
40
1
40
1
40
1
41
1
10
-0.19999999999925
20
-21.9302322813768
30
0
41
1
10
-0.199999999999463
20
-21.9232339651778
30
0
41
1
10
-0.201301358458665
20
-21.9153179215731
30
0
41
1
10
-0.20766498991199
20
-21.8972173346817
30
0
41
1
10
-0.212644598959727
20
-21.887040521758
30
0
41
1
10
-0.225227696864877
20
-21.86939991232
30
0
41
1
10
-0.230277419646981
20
-21.8631298937616
30
0
41
1
10
-0.243223761357484
20
-21.8495186811202
30
0
41
1
10
-0.251024371908315
20
-21.8421906584754
30
0
41
1
10
-0.267105241071576
20
-21.8299687499399
30
0
41
1
10
-0.273224961098066
20
-21.825673656047
30
0
41
1
10
-0.288072610556938
20
-21.8165474607427
30
0
41
1
10
-0.296850963424589
20
-21.8116226471017
30
0
41
1
10
-0.314371903809601
20
-21.8037318707459
30
0
41
1
10
-0.321082879564642
20
-21.8009678791633
30
0
41
1
10
-0.336612671282808
20
-21.7955111151382
30
0
41
1
10
-0.34544354095631
20
-21.792857348096
30
0
41
1
10
-0.372191316488213
20
-21.7864063266207
30
0
41
1
10
-0.387529346728002
20
-21.7846001195613
30
0
41
1
10
-0.400000000000134
20
-21.7837959067602
30
0
0
SPLINE
5
29B
100
AcDbEntity
8
SK1
62
256
6
ByLayer
370
-1
48
1
60
0
100
AcDbSpline
70
4
71
3
72
16
73
12
40
0
40
0
40
0
40
0
40
0.25
40
0.25
40
0.375
40
0.375
40
0.499999999999999
40
0.499999999999999
40
0.75
40
0.75
40
1
40
1
40
1
40
1
41
1
10
-2.20000000000002
20
13.0172213664454
30
0
41
1
10
-2.20000000000002
20
12.3545615205847
30
0
41
1
10
-2.1999998562644
20
11.6614371833871
30
0
41
1
10
-2.1999988488023
20
10.5717452872467
30
0
41
1
10
-2.19999837677906
20
10.199816975702
30
0
41
1
10
-2.19999702437666
20
9.4406799864114
30
0
41
1
10
-2.19999614446725
20
9.05321708532739
30
0
41
1
10
-2.19999264094984
20
7.86759925883197
30
0
41
1
10
-2.19998915267328
20
7.04598606643995
30
0
41
1
10
-2.19997845071696
20
5.34200368623473
30
0
41
1
10
-2.19997100300878
20
4.45970904065132
30
0
41
1
10
-2.19996216441135
20
3.54984866401668
30
0
0
SPLINE
5
29C
100
AcDbEntity
8
SK1
62
256
6
ByLayer
370
-1
48
1
60
0
100
AcDbSpline
70
4
71
3
72
10
73
6
40
0
40
0
40
0
40
0
40
0.5
40
0.5
40
1
40
1
40
1
40
1
41
1
10
-5.68E-14
20
-22.0098649166586
30
0
41
1
10
-0.0264049461955125
20
-22.0015569577979
30
0
41
1
10
-0.0552499383168623
20
-21.9926008160643
30
0
41
1
10
-0.120480824629127
20
-21.9734974515105
30
0
41
1
10
-0.156674570226059
20
-21.9633433125619
30
0
41
1
10
-0.200000000000074
20
-21.9526914083351
30
0
0
SPLINE
5
29D
100
AcDbEntity
8
SK1
62
256
6
ByLayer
370
-1
48
1
60
0
100
AcDbSpline
70
4
71
3
72
37
73
33
40
0
40
0
40
0
40
0
40
0.0358137777623558
40
0.0747129800778897
40
0.113612182393424
40
0.152511384708958
40
0.191410587024492
40
0.230309789340025
40
0.269208991655559
40
0.308108193971093
40
0.347007396286627
40
0.385906598602161
40
0.424805800917695
40
0.463705003233229
40
0.502604205548763
40
0.541503407864297
40
0.580402610179831
40
0.619301812495365
40
0.658201014810898
40
0.697100217126432
40
0.735999419441966
40
0.7748986217575
40
0.813797824073034
40
0.852697026388568
40
0.891596228704102
40
0.930495431019636
40
0.949945032177403
40
0.96939463333517
40
0.979119433914053
40
0.988844234492937
40
0.99856903507182
40
1
40
1
40
1
40
1
41
1
10
-2.00000000000003
20
-3.5318808720528
30
0
41
1
10
-2.00000000000003
20
-3.74495302120394
30
0
41
1
10
-2.00000000000003
20
-4.2042470499967
30
0
41
1
10
-2.00000000000003
20
-4.95199329354998
30
0
41
1
10
-2.00000000000003
20
-5.77341227102076
30
0
41
1
10
-2.00000000000004
20
-6.64657476441815
30
0
41
1
10
-2.00000000000004
20
-7.56767138772486
30
0
41
1
10
-2.00000000000004
20
-8.53080293175961
30
0
41
1
10
-2.00000000000004
20
-9.52816888083231
30
0
41
1
10
-2.00000000000004
20
-10.5503221797328
30
0
41
1
10
-2.00000000000004
20
-11.5864797887658
30
0
41
1
10
-2.00000000000004
20
-12.6248859949608
30
0
41
1
10
-2.00000000000004
20
-13.6532003777634
30
0
41
1
10
-2.00000000000004
20
-14.6589141102143
30
0
41
1
10
-2.00000000000004
20
-15.6297564245795
30
0
41
1
10
-2.00000000000004
20
-16.5541011472568
30
0
41
1
10
-2.00000000000004
20
-17.4213304234775
30
0
41
1
10
-2.00000000000004
20
-18.2221707430851
30
0
41
1
10
-2.00000000000004
20
-18.9489596670075
30
0
41
1
10
-2.00000000000004
20
-19.5958618349948
30
0
41
1
10
-2.00000000000004
20
-20.1589996510313
30
0
41
1
10
-2.00000000000004
20
-20.6365184914532
30
0
41
1
10
-2.00000000000004
20
-21.0285634421464
30
0
41
1
10
-2.00000000000004
20
-21.337187169909
30
0
41
1
10
-2.00000000000004
20
-21.5661689793568
30
0
41
1
10
-2.00000000000003
20
-21.694977581428
30
0
41
1
10
-2.00000000000003
20
-21.7642160759136
30
0
41
1
10
-2.00000000000003
20
-21.7940468728384
30
0
41
1
10
-2.00000000000003
20
-21.810382005051
30
0
41
1
10
-2.00000000000003
20
-21.8189797158788
30
0
41
1
10
-2.00000000000003
20
-21.822593645614
30
0
41
1
10
-2.00000000000004
20
-21.8237781507153
30
0
41
1
10
-2.00000000000004
20
-21.8239178721431
30
0
0
SPLINE
5
29E
100
AcDbEntity
8
SK1
62
256
6
ByLayer
370
-1
48
1
60
0
100
AcDbSpline
70
4
71
3
72
14
73
10
40
0
40
0
40
0
40
0
40
0.119777021792309
40
0.278046745112675
40
0.436316468433041
40
0.594586191753408
40
0.752855915073774
40
0.91112563839414
40
1
40
1
40
1
40
1
41
1
10
-2.20000000000005
20
-13.0172198859358
30
0
41
1
10
-2.20000000000005
20
-13.2789204459097
30
0
41
1
10
-2.20000000000005
20
-13.8834372227989
30
0
41
1
10
-2.20000000000005
20
-14.8135248894266
30
0
41
1
10
-2.20000000000005
20
-15.7904214898648
30
0
41
1
10
-2.20000000000003
20
-16.7204320226197
30
0
41
1
10
-2.20000000000003
20
-17.5929249336309
30
0
41
1
10
-2.20000000000005
20
-18.2808591322616
30
0
41
1
10
-2.20000000000005
20
-18.6699624614618
30
0
41
1
10
-2.20000000000005
20
-18.8057994984197
30
0
0
SPLINE
5
29F
100
AcDbEntity
8
SK1
62
256
6
ByLayer
370
-1
48
1
60
0
100
AcDbSpline
70
4
71
3
72
77
73
73
40
0
40
0
40
0
40
0
40
0.0022824631744206
40
0.0177381238526755
40
0.0331937845309305
40
0.0486494452091855
40
0.0563772755483129
40
0.0641051058874404
40
0.0679690210570042
40
0.0718329362265679
40
0.0795607665656954
40
0.0872885969048229
40
0.0950164272439504
40
0.110472087922205
40
0.12592774860046
40
0.141383409278715
40
0.15683906995697
40
0.172294730635225
40
0.18775039131348
40
0.203206051991735
40
0.21866171266999
40
0.234117373348245
40
0.2495730340265
40
0.265028694704755
40
0.28048435538301
40
0.295940016061265
40
0.31139567673952
40
0.326851337417775
40
0.34230699809603
40
0.357762658774285
40
0.37321831945254
40
0.388673980130795
40
0.40412964080905
40
0.419585301487305
40
0.435040962165559
40
0.450496622843814
40
0.46595228352207
40
0.481407944200324
40
0.496863604878579
40
0.512319265556834
40
0.527774926235089
40
0.543230586913344
40
0.558686247591599
40
0.574141908269854
40
0.589597568948109
40
0.605053229626364
40
0.620508890304619
40
0.635964550982874
40
0.651420211661129
40
0.666875872339384
40
0.682331533017639
40
0.697787193695894
40
0.713242854374149
40
0.728698515052404
40
0.744154175730659
40
0.759609836408914
40
0.775065497087169
40
0.790521157765424
40
0.805976818443679
40
0.821432479121934
40
0.836888139800189
40
0.852343800478444
40
0.867799461156699
40
0.883255121834954
40
0.898710782513208
40
0.914166443191463
40
0.929622103869718
40
0.945077764547973
40
0.960533425226228
40
0.975989085904483
40
0.991444746582738
40
1
40
1
40
1
40
1
41
1
10
-36.5004731679066
20
20.8085343336498
30
0
41
1
10
-36.5004731679066
20
20.8158530890207
30
0
41
1
10
-36.5004731679066
20
20.872097011137
30
0
41
1
10
-36.5004731679066
20
20.9678459995099
30
0
41
1
10
-36.5004731679066
20
21.0725443050818
30
0
41
1
10
-36.5004731679066
20
21.1298848333405
30
0
41
1
10
-36.5004731679066
20
21.1541047357203
30
0
41
1
10
-36.5004731679066
20
21.1594141733556
30
0
41
1
10
-36.5004731679066
20
21.1572893290471
30
0
41
1
10
-36.5004731679066
20
21.1507604524732
30
0
41
1
10
-36.5004731679066
20
21.1340271127651
30
0
41
1
10
-36.5004731679066
20
21.0993443437175
30
0
41
1
10
-36.5004731679066
20
21.0323574718579
30
0
41
1
10
-36.5004731679066
20
20.9076510853334
30
0
41
1
10
-36.5004731679066
20
20.6861768635696
30
0
41
1
10
-36.5004731679066
20
20.3877899097529
30
0
41
1
10
-36.5004731679066
20
20.0088910104846
30
0
41
1
10
-36.5004731679066
20
19.5475117391119
30
0
41
1
10
-36.5004731679066
20
19.0035240314005
30
0
41
1
10
-36.5004731679066
20
18.3787159166599
30
0
41
1
10
-36.5004731679066
20
17.6768145225053
30
0
41
1
10
-36.5004731679066
20
16.9034270453042
30
0
41
1
10
-36.5004731679066
20
16.0659098298205
30
0
41
1
10
-36.5004731679066
20
15.1731686563964
30
0
41
1
10
-36.5004731679066
20
14.235394189438
30
0
41
1
10
-36.5004731679067
20
13.2637500116936
30
0
41
1
10
-36.5004731679066
20
12.2700128928829
30
0
41
1
10
-36.5004731679066
20
11.266194793172
30
0
41
1
10
-36.5004731679066
20
10.2641413514587
30
0
41
1
10
-36.5004731679066
20
9.2751445842122
30
0
41
1
10
-36.5004731679066
20
8.30955984641457
30
0
41
1
10
-36.5004731679066
20
7.37646783866535
30
0
41
1
10
-36.5004731679066
20
6.48336798664187
30
0
41
1
10
-36.5004731679067
20
5.6359413325186
30
0
41
1
10
-36.5004731679067
20
4.83786714148405
30
0
41
1
10
-36.5004731679067
20
4.09072334425366
30
0
41
1
10
-36.5004731679067
20
3.39395488654748
30
0
41
1
10
-36.5004731679067
20
2.74492785973811
30
0
41
1
10
-36.5004731679067
20
2.13905542595018
30
0
41
1
10
-36.5004731679067
20
1.56999873250982
30
0
41
1
10
-36.5004731679067
20
1.02993260778024
30
0
41
1
10
-36.5004731679067
20
0.509864295014552
30
0
41
1
10
-36.5004731679067
20
1.062999786E-07
30
0
41
1
10
-36.5004731679067
20
-0.509864720214296
30
0
41
1
10
-36.5004731679067
20
-1.02993241209063
30
0
41
1
10
-36.5004731679067
20
-1.56999909006819
30
0
41
1
10
-36.5004731679067
20
-2.13905527849678
30
0
41
1
10
-36.5004731679067
20
-2.74492809199302
30
0
41
1
10
-36.5004731679067
20
-3.39395481155859
30
0
41
1
10
-36.5004731679067
20
-4.09072341195395
30
0
41
1
10
-36.5004731679067
20
-4.83786715253976
30
0
41
1
10
-36.5004731679067
20
-5.63594122059504
30
0
41
1
10
-36.5004731679067
20
-6.48336808473238
30
0
41
1
10
-36.5004731679067
20
-7.37646755822644
30
0
41
1
10
-36.5004731679067
20
-8.30956001989293
30
0
41
1
10
-36.5004731679067
20
-9.27514417073726
30
0
41
1
10
-36.5004731679067
20
-10.2641415778871
30
0
41
1
10
-36.5004731679067
20
-11.2661943009328
30
0
41
1
10
-36.5004731679067
20
-12.2700131424643
30
0
41
1
10
-36.5004731679067
20
-13.2637495056069
30
0
41
1
10
-36.5004731679067
20
-14.235394429552
30
0
41
1
10
-36.5004731679067
20
-15.1731682020267
30
0
41
1
10
-36.5004731679067
20
-16.0659100299384
30
0
41
1
10
-36.5004731679067
20
-16.903426699202
30
0
41
1
10
-36.5004731679067
20
-17.6768146587256
30
0
41
1
10
-36.5004731679067
20
-18.3787157178805
30
0
41
1
10
-36.5004731679067
20
-19.0035240899898
30
0
41
1
10
-36.5004731679067
20
-19.5475117035335
30
0
41
1
10
-36.5004731679067
20
-20.0088907018653
30
0
41
1
10
-36.5004731679067
20
-20.3877911798079
30
0
41
1
10
-36.5004731679067
20
-20.6417674236631
30
0
41
1
10
-36.5004731679067
20
-20.7653492948179
30
0
41
1
10
-36.5004731679067
20
-20.8055984744211
30
0
0
SPLINE
5
2A0
100
AcDbEntity
8
SK1
62
256
6
ByLayer
370
-1
48
1
60
0
100
AcDbSpline
70
4
71
3
72
10
73
6
40
0
40
0
40
0
40
0
40
0.5
40
0.5
40
1
40
1
40
1
40
1
41
1
10
-0.200000000000031
20
21.9526914779181
30
0
41
1
10
-0.156990599090051
20
21.9632656982428
30
0
41
1
10
-0.12058972435392
20
21.9734662787161
30
0
41
1
10
-0.0552557087441556
20
21.9925985400874
30
0
41
1
10
-0.0264007673349909
20
22.0015582822598
30
0
41
1
10
2.84E-14
20
22.0098648664662
30
0
0
SPLINE
5
2A1
100
AcDbEntity
8
SK1
62
256
6
ByLayer
370
-1
48
1
60
0
100
AcDbSpline
70
4
71
3
72
28
73
24
40
0
40
0
40
0
40
0
40
0.0149514183161537
40
0.0413756856699937
40
0.0942242203776738
40
0.147072755085354
40
0.199921289793034
40
0.252769824500714
40
0.305618359208394
40
0.358466893916074
40
0.411315428623754
40
0.464163963331434
40
0.517012498039114
40
0.569861032746794
40
0.622709567454474
40
0.675558102162154
40
0.728406636869834
40
0.781255171577515
40
0.834103706285195
40
0.886952240992875
40
0.939800775700555
40
0.992649310408235
40
1
40
1
40
1
40
1
41
1
10
-0.399999999999991
20
21.7837956106232
30
0
41
1
10
-0.399999999999991
20
21.7772120307969
30
0
41
1
10
-0.399999999999991
20
21.7567006300735
30
0
41
1
10
-0.399999999999991
20
21.6949779936854
30
0
41
1
10
-0.399999999999991
20
21.5661676526815
30
0
41
1
10
-0.399999999999991
20
21.3371910810194
30
0
41
1
10
-0.399999999999991
20
21.0285622078674
30
0
41
1
10
-0.400000000000006
20
20.6365187777369
30
0
41
1
10
-0.400000000000006
20
20.1589996983693
30
0
41
1
10
-0.400000000000006
20
19.5958617698656
30
0
41
1
10
-0.400000000000006
20
18.9489598758679
30
0
41
1
10
-0.400000000000006
20
18.2221705966385
30
0
41
1
10
-0.40000000000002
20
17.4213307857328
30
0
41
1
10
-0.40000000000002
20
16.5541009338831
30
0
41
1
10
-0.40000000000002
20
15.6297568996197
30
0
41
1
10
-0.40000000000002
20
14.6589138549468
30
0
41
1
10
-0.400000000000034
20
13.6532009067709
30
0
41
1
10
-0.400000000000034
20
12.6248857298215
30
0
41
1
10
-0.400000000000034
20
11.5864803035381
30
0
41
1
10
-0.400000000000034
20
10.5503219390466
30
0
41
1
10
-0.400000000000034
20
9.5281693138144
30
0
41
1
10
-0.400000000000034
20
8.81701711318559
30
0
41
1
10
-0.400000000000034
20
8.44572400735871
30
0
41
1
10
-0.400000000000034
20
8.4005007560547
30
0
0
SPLINE
5
2A2
100
AcDbEntity
8
SK1
62
256
6
ByLayer
370
-1
48
1
60
0
100
AcDbSpline
70
4
71
3
72
25
73
21
40
0
40
0
40
0
40
0
40
0.0572728619902162
40
0.114946494509567
40
0.172620127028917
40
0.230293759548268
40
0.287967392067619
40
0.345641024586969
40
0.40331465710632
40
0.460988289625671
40
0.518661922145021
40
0.576335554664372
40
0.634009187183723
40
0.691682819703073
40
0.749356452222424
40
0.807030084741775
40
0.864703717261125
40
0.922377349780476
40
0.980050982299827
40
1
40
1
40
1
40
1
41
1
10
-0.200000000000003
20
21.9526914779179
30
0
41
1
10
-0.200000000000003
20
21.9121808791359
30
0
41
1
10
-0.200000000000003
20
21.8083041977204
30
0
41
1
10
-0.200000000000003
20
21.5778188274578
30
0
41
1
10
-0.200000000000003
20
21.2665704188032
30
0
41
1
10
-0.200000000000017
20
20.8713397361953
30
0
41
1
10
-0.200000000000017
20
20.3900735073468
30
0
41
1
10
-0.200000000000017
20
19.8226381480353
30
0
41
1
10
-0.200000000000017
20
19.1708987574889
30
0
41
1
10
-0.200000000000017
20
18.4387431147282
30
0
41
1
10
-0.200000000000031
20
17.6320201046461
30
0
41
1
10
-0.200000000000031
20
16.7584031545556
30
0
41
1
10
-0.200000000000031
20
15.8271819130955
30
0
41
1
10
-0.200000000000031
20
14.848986295679
30
0
41
1
10
-0.200000000000046
20
13.8354610720286
30
0
41
1
10
-0.200000000000046
20
12.798890629204
30
0
41
1
10
-0.200000000000046
20
11.7518046821903
30
0
41
1
10
-0.200000000000046
20
10.7065594557125
30
0
41
1
10
-0.200000000000046
20
9.8998642335373
30
0
41
1
10
-0.200000000000046
20
9.44441715157413
30
0
41
1
10
-0.200000000000046
20
9.32791957530432
30
0
0
SPLINE
5
2A3
100
AcDbEntity
8
SK1
62
256
6
ByLayer
370
-1
48
1
60
0
100
AcDbSpline
70
4
71
3
72
14
73
10
40
0
40
0
40
0
40
0
40
0.302630832384317
40
0.302630832384317
40
0.605261664768634
40
0.605261664768634
40
0.907892497152951
40
0.907892497152951
40
1
40
1
40
1
40
1
41
1
10
-0.400000000000048
20
-21.7837959067596
30
0
41
1
10
-0.428739004362583
20
-21.7819425736026
30
0
41
1
10
-0.461067567971895
20
-21.7801923235313
30
0
41
1
10
-0.534613989228703
20
-21.7776705856303
30
0
41
1
10
-0.577128553951539
20
-21.7769532337827
30
0
41
1
10
-0.661696672730614
20
-21.7775113857289
30
0
41
1
10
-0.700981824132185
20
-21.7787056154951
30
0
41
1
10
-0.74542073430608
20
-21.7806993640142
30
0
41
1
10
-0.755381314430977
20
-21.7811950966482
30
0
41
1
10
-0.764967752396501
20
-21.7817130498751
30
0
0
SPLINE
5
2A4
100
AcDbEntity
8
SK1
62
256
6
ByLayer
370
-1
48
1
60
0
100
AcDbSpline
70
4
71
3
72
30
73
26
40
0
40
0
40
0
40
0
40
0.250000000000023
40
0.250000000000023
40
0.375000000000035
40
0.375000000000035
40
0.437500000000041
40
0.437500000000041
40
0.468750000000045
40
0.468750000000045
40
0.484375000000045
40
0.484375000000045
40
0.500000000000045
40
0.500000000000045
40
0.515625000000045
40
0.515625000000045
40
0.531250000000046
40
0.531250000000046
40
0.562500000000042
40
0.562500000000042
40
0.625000000000036
40
0.625000000000036
40
0.750000000000023
40
0.750000000000023
40
1
40
1
40
1
40
1
41
1
10
-2.19996216441136
20
3.54984866401682
30
0
41
1
10
-2.19967154607939
20
3.44723681521549
30
0
41
1
10
-2.19795179193979
20
3.34441231087811
30
0
41
1
10
-2.18990134272281
20
3.18955543261532
30
0
41
1
10
-2.18639724056257
20
3.13771585983838
30
0
41
1
10
-2.17733543673809
20
3.0607007286294
30
0
41
1
10
-2.17379732403158
20
3.03511088069038
30
0
41
1
10
-2.16535653562107
20
2.99721939402676
30
0
41
1
10
-2.16207662613319
20
2.98431022920485
30
0
41
1
10
-2.15427700223896
20
2.96668457309295
30
0
41
1
10
-2.15108129190186
20
2.96089180614197
30
0
41
1
10
-2.14260059754056
20
2.95386542132181
30
0
41
1
10
-2.13736392673485
20
2.95393198208558
30
0
41
1
10
-2.12904051266403
20
2.95932950428878
30
0
41
1
10
-2.12565158991076
20
2.96372984352658
30
0
41
1
10
-2.11964083848361
20
2.97306578643287
30
0
41
1
10
-2.11700376214689
20
2.97815840455317
30
0
41
1
10
-2.10961390483705
20
2.99403462877069
30
0
41
1
10
-2.10542925070642
20
3.00533063146418
30
0
41
1
10
-2.09386940597537
20
3.03960648373706
30
0
41
1
10
-2.08743121666586
20
3.06329695250975
30
0
41
1
10
-2.06942678678827
20
3.13520105220164
30
0
41
1
10
-2.05931825894648
20
3.18432265089729
30
0
41
1
10
-2.03101594001576
20
3.33216899238906
30
0
41
1
10
-2.01499457923356
20
3.43189269931764
30
0
41
1
10
-2.00000000000004
20
3.53189014643689
30
0
0
SPLINE
5
2A5
100
AcDbEntity
8
SK1
62
256
6
ByLayer
370
-1
48
1
60
0
100
AcDbSpline
70
4
71
3
72
28
73
24
40
0
40
0
40
0
40
0
40
0.0073506936623785
40
0.0601992338133586
40
0.113047773964339
40
0.165896314115319
40
0.218744854266299
40
0.271593394417279
40
0.324441934568259
40
0.377290474719239
40
0.430139014870219
40
0.482987555021199
40
0.535836095172179
40
0.58868463532316
40
0.64153317547414
40
0.69438171562512
40
0.7472302557761
40
0.80007879592708
40
0.85292733607806
40
0.90577587622904
40
0.95862441638002
40
0.98504868645551
40
1
40
1
40
1
40
1
41
1
10
-0.400000000000063
20
-8.40050069661757
30
0
41
1
10
-0.400000000000063
20
-8.44572397118418
30
0
41
1
10
-0.400000000000063
20
-8.81701709973368
30
0
41
1
10
-0.400000000000063
20
-9.52816888083231
30
0
41
1
10
-0.400000000000063
20
-10.5503221797328
30
0
41
1
10
-0.400000000000063
20
-11.5864797887658
30
0
41
1
10
-0.400000000000063
20
-12.6248859949608
30
0
41
1
10
-0.400000000000063
20
-13.6532003777634
30
0
41
1
10
-0.400000000000048
20
-14.6589141102144
30
0
41
1
10
-0.400000000000048
20
-15.6297564245795
30
0
41
1
10
-0.400000000000048
20
-16.5541011472568
30
0
41
1
10
-0.400000000000048
20
-17.4213304234775
30
0
41
1
10
-0.400000000000063
20
-18.2221707430851
30
0
41
1
10
-0.400000000000063
20
-18.9489596670075
30
0
41
1
10
-0.400000000000063
20
-19.5958618349948
30
0
41
1
10
-0.400000000000063
20
-20.1589996510313
30
0
41
1
10
-0.400000000000063
20
-20.6365184914532
30
0
41
1
10
-0.400000000000048
20
-21.0285634421464
30
0
41
1
10
-0.400000000000048
20
-21.337187169909
30
0
41
1
10
-0.400000000000048
20
-21.5661689793568
30
0
41
1
10
-0.400000000000048
20
-21.694977581428
30
0
41
1
10
-0.400000000000048
20
-21.7567005396733
30
0
41
1
10
-0.400000000000048
20
-21.7772122547681
30
0
41
1
10
-0.400000000000048
20
-21.7837959067598
30
0
0
SPLINE
5
2A6
100
AcDbEntity
8
SK1
62
256
6
ByLayer
370
-1
48
1
60
0
100
AcDbSpline
70
4
71
3
72
14
73
10
40
0
40
0
40
0
40
0
40
0.088874344109091
40
0.247144108645392
40
0.405413873181692
40
0.563683637717993
40
0.721953402254293
40
0.880223166790594
40
1
40
1
40
1
40
1
41
1
10
-2.19999999999999
20
18.805799359705
30
0
41
1
10
-2.19999999999999
20
18.6699623491753
30
0
41
1
10
-2.19999999999999
20
18.2808589940163
30
0
41
1
10
-2.2
20
17.5929252949648
30
0
41
1
10
-2.2
20
16.7204318129083
30
0
41
1
10
-2.20000000000002
20
15.7904219641236
30
0
41
1
10
-2.20000000000002
20
14.8135246379527
30
0
41
1
10
-2.20000000000002
20
13.8834381562974
30
0
41
1
10
-2.20000000000002
20
13.2789215159481
30
0
41
1
10
-2.20000000000002
20
13.0172213664454
30
0
0
SPLINE
5
2A7
100
AcDbEntity
8
SK1
62
256
6
ByLayer
370
-1
48
1
60
0
100
AcDbSpline
70
4
71
3
72
25
73
21
40
0
40
0
40
0
40
0
40
0.0199490383850683
40
0.0776226674639146
40
0.135296296542761
40
0.192969925621607
40
0.250643554700454
40
0.3083171837793
40
0.365990812858147
40
0.423664441936993
40
0.481338071015839
40
0.539011700094686
40
0.596685329173532
40
0.654358958252379
40
0.712032587331225
40
0.769706216410071
40
0.827379845488918
40
0.885053474567764
40
0.94272710364661
40
1
40
1
40
1
40
1
41
1
10
-0.200000000000074
20
-9.32791902475176
30
0
41
1
10
-0.200000000000074
20
-9.44441669601704
30
0
41
1
10
-0.200000000000074
20
-9.89986381734749
30
0
41
1
10
-0.200000000000074
20
-10.7065596919009
30
0
41
1
10
-0.200000000000074
20
-11.7518041687341
30
0
41
1
10
-0.200000000000074
20
-12.7988908895433
30
0
41
1
10
-0.200000000000074
20
-13.835460544128
30
0
41
1
10
-0.20000000000006
20
-14.8489865461428
30
0
41
1
10
-0.20000000000006
20
-15.827181439141
30
0
41
1
10
-0.20000000000006
20
-16.7584033632993
30
0
41
1
10
-0.20000000000006
20
-17.6320197436259
30
0
41
1
10
-0.200000000000074
20
-18.4387432568202
30
0
41
1
10
-0.200000000000074
20
-19.1708985501415
30
0
41
1
10
-0.200000000000074
20
-19.8226382091502
30
0
41
1
10
-0.200000000000074
20
-20.390073470235
30
0
41
1
10
-0.200000000000074
20
-20.8713394142736
30
0
41
1
10
-0.20000000000006
20
-21.2665717436018
30
0
41
1
10
-0.20000000000006
20
-21.5778148903459
30
0
41
1
10
-0.20000000000006
20
-21.8083055380751
30
0
41
1
10
-0.20000000000006
20
-21.9121808952895
30
0
41
1
10
-0.20000000000006
20
-21.9526914083348
30
0
0
SPLINE
5
2A8
100
AcDbEntity
8
SK1
62
256
6
ByLayer
370
-1
48
1
60
0
100
AcDbSpline
70
4
71
3
72
24
73
20
40
0
40
0
40
0
40
0
40
0.250000000000002
40
0.250000000000002
40
0.500000000000004
40
0.500000000000004
40
0.625000000000006
40
0.625000000000006
40
0.750000000000008
40
0.750000000000008
40
0.812500000000006
40
0.812500000000006
40
0.875000000000004
40
0.875000000000004
40
0.906250000000003
40
0.906250000000003
40
0.937500000000002
40
0.937500000000002
40
1
40
1
40
1
40
1
41
1
10
-0.200000000000031
20
9.10270310524561
30
0
41
1
10
-0.200000000000031
20
9.03673878662997
30
0
41
1
10
-0.201300944691823
20
8.97046489993156
30
0
41
1
10
-0.207662526785072
20
8.83717267131385
30
0
41
1
10
-0.212640606030774
20
8.77006095372838
30
0
41
1
10
-0.225219355684842
20
8.66897966689072
30
0
41
1
10
-0.230267342932137
20
8.63526504879584
30
0
41
1
10
-0.243209081854829
20
8.56784399996243
30
0
41
1
10
-0.251006862876324
20
8.53408819622629
30
0
41
1
10
-0.267081479681551
20
8.48424829339399
30
0
41
1
10
-0.273198880997015
20
8.46771587246204
30
0
41
1
10
-0.288041640105178
20
8.43574737526453
30
0
41
1
10
-0.296816000011432
20
8.41986795455844
30
0
41
1
10
-0.314334579263672
20
8.399352283062
30
0
41
1
10
-0.32104705976154
20
8.39297862418411
30
0
41
1
10
-0.336578489168446
20
8.38338430370857
30
0
41
1
10
-0.345411194559972
20
8.38038004294393
30
0
41
1
10
-0.372193276142056
20
8.37968037405625
30
0
41
1
10
-0.387527453193982
20
8.38923416170084
30
0
41
1
10
-0.399999999985937
20
8.40050075606717
30
0
0
SPLINE
5
2A9
100
AcDbEntity
8
SK1
62
256
6
ByLayer
370
-1
48
1
60
0
100
AcDbSpline
70
4
71
3
72
22
73
18
40
0
40
0
40
0
40
0
40
0.0131641094388244
40
0.0131641094388244
40
0.177636757865687
40
0.177636757865687
40
0.34210940629255
40
0.34210940629255
40
0.506582054719412
40
0.506582054719412
40
0.671054703146275
40
0.671054703146275
40
0.753291027359706
40
0.753291027359706
40
0.835527351573138
40
0.835527351573138
40
1
40
1
40
1
40
1
41
1
10
-2.19993720649924
20
22.0201003465205
30
0
41
1
10
-2.19993814031672
20
22.0200629239656
30
0
41
1
10
-2.19993905754632
20
22.0197960599746
30
0
41
1
10
-2.19995121410292
20
22.0131437163277
30
0
41
1
10
-2.1999599730359
20
21.9715850022846
30
0
41
1
10
-2.19997398518322
20
21.826510152625
30
0
41
1
10
-2.19997935061687
20
21.72295622244
30
0
41
1
10
-2.19998770707493
20
21.4599995385209
30
0
41
1
10
-2.19999070960964
20
21.3005486624664
30
0
41
1
10
-2.19999518626715
20
20.9304827925966
30
0
41
1
10
-2.19999666325779
20
20.7198119052019
30
0
41
1
10
-2.19999819294226
20
20.3679602304212
30
0
41
1
10
-2.19999858811518
20
20.2447397512041
30
0
41
1
10
-2.19999920479346
20
19.9866598067965
30
0
41
1
10
-2.19999942770272
20
19.851793617257
30
0
41
1
10
-2.19999991431349
20
19.4311388245235
30
0
41
1
10
-2.19999999999999
20
19.1290219240742
30
0
41
1
10
-2.19999999999999
20
18.8057993597053
30
0
0
SPLINE
5
2AA
100
AcDbEntity
8
SK1
62
256
6
ByLayer
370
-1
48
1
60
0
100
AcDbSpline
70
4
71
3
72
87
73
83
40
0
40
0
40
0
40
0
40
0.0064304546521402
40
0.0205324395203081
40
0.034634424388476
40
0.0416854168225599
40
0.0487364092566439
40
0.0522619054736859
40
0.0557874016907278
40
0.0628383941248118
40
0.0698893865588957
40
0.0769403789929797
40
0.0910423638611476
40
0.105144348729315
40
0.119246333597483
40
0.133348318465651
40
0.147450303333819
40
0.161552288201987
40
0.175654273070155
40
0.189756257938323
40
0.203858242806491
40
0.217960227674659
40
0.232062212542826
40
0.246164197410994
40
0.260266182279162
40
0.27436816714733
40
0.288470152015498
40
0.302572136883666
40
0.316674121751834
40
0.330776106620002
40
0.34487809148817
40
0.358980076356338
40
0.373082061224505
40
0.387184046092673
40
0.401286030960841
40
0.415388015829009
40
0.429490000697177
40
0.443591985565345
40
0.457693970433513
40
0.471795955301681
40
0.485897940169849
40
0.499999925038016
40
0.514101909906184
40
0.528203894774352
40
0.54230587964252
40
0.556407864510688
40
0.570509849378856
40
0.584611834247024
40
0.598713819115192
40
0.61281580398336
40
0.626917788851527
40
0.641019773719695
40
0.655121758587863
40
0.669223743456031
40
0.683325728324199
40
0.697427713192367
40
0.711529698060535
40
0.725631682928703
40
0.739733667796871
40
0.753835652665038
40
0.767937637533206
40
0.782039622401374
40
0.796141607269542
40
0.81024359213771
40
0.824345577005878
40
0.838447561874046
40
0.852549546742214
40
0.866651531610382
40
0.88075351647855
40
0.894855501346717
40
0.908957486214885
40
0.923059471083053
40
0.930110463517137
40
0.937161455951221
40
0.944212448385305
40
0.947737944602347
40
0.951263440819389
40
0.958314433253473
40
0.965365425687557
40
0.979467410555725
40
0.993569395423893
40
1
40
1
40
1
40
1
41
1
10
-3.00000000000001
20
-21.7373117322435
30
0
41
1
10
-3.00000000000003
20
-21.7581505760548
30
0
41
1
10
-3.00000000000001
20
-21.8216572694407
30
0
41
1
10
-3.00000000000001
20
-21.9107797633372
30
0
41
1
10
-3.00000000000001
20
-21.9704004421262
30
0
41
1
10
-3.00000000000001
20
-21.9955838514163
30
0
41
1
10
-3.00000000000001
20
-22.0011048464384
30
0
41
1
10
-3.00000000000001
20
-21.9988957932114
30
0
41
1
10
-3.00000000000001
20
-21.9921074341117
30
0
41
1
10
-3.00000000000001
20
-21.9747088550401
30
0
41
1
10
-3.00000000000001
20
-21.9386456245555
30
0
41
1
10
-3.00000000000003
20
-21.868993702256
30
0
41
1
10
-3.00000000000001
20
-21.7393283758615
30
0
41
1
10
-3.00000000000003
20
-21.5090390087807
30
0
41
1
10
-3.00000000000003
20
-21.1987879004755
30
0
41
1
10
-3.00000000000003
20
-20.8048153118584
30
0
41
1
10
-3.00000000000003
20
-20.3250833271079
30
0
41
1
10
-3.00000000000003
20
-19.7594566764181
30
0
41
1
10
-3.00000000000003
20
-19.1097943347758
30
0
41
1
10
-3.00000000000003
20
-18.3799726709714
30
0
41
1
10
-3.00000000000001
20
-17.5758204617336
30
0
41
1
10
-3.00000000000003
20
-16.7049885958267
30
0
41
1
10
-3.00000000000003
20
-15.7767347946731
30
0
41
1
10
-3.00000000000003
20
-14.8016577436088
30
0
41
1
10
-3.00000000000003
20
-13.7913621958654
30
0
41
1
10
-3.00000000000003
20
-12.7580964435599
30
0
41
1
10
-3.00000000000003
20
-11.7143471465197
30
0
41
1
10
-3.00000000000003
20
-10.6724342215934
30
0
41
1
10
-3.00000000000003
20
-9.64409593406697
30
0
41
1
10
-3.00000000000003
20
-8.64010224817511
30
0
41
1
10
-3.00000000000003
20
-7.66989272366362
30
0
41
1
10
-3.00000000000003
20
-6.74126705030582
30
0
41
1
10
-3.00000000000001
20
-5.86013077636733
30
0
41
1
10
-3.00000000000001
20
-5.03031048105601
30
0
41
1
10
-3.00000000000001
20
-4.25344644766659
30
0
41
1
10
-3.00000000000001
20
-3.5289614043765
30
0
41
1
10
-3.00000000000001
20
-2.85411734459242
30
0
41
1
10
-3.00000000000001
20
-2.22414379058173
30
0
41
1
10
-3.00000000000001
20
-1.63245137350921
30
0
41
1
10
-3.00000000000003
20
-1.07090162750731
30
0
41
1
10
-3.00000000000003
20
-0.530146398226037
30
0
41
1
10
-3.00000000000003
20
1.1052839E-07
30
0
41
1
10
-3.00000000000003
20
0.530145956112307
30
0
41
1
10
-3.00000000000003
20
1.07090183098106
30
0
41
1
10
-3.00000000000003
20
1.63245100172756
30
0
41
1
10
-3.00000000000001
20
2.22414394390051
30
0
41
1
10
-3.00000000000001
20
2.85411710309862
30
0
41
1
10
-3.00000000000001
20
3.52896148234822
30
0
41
1
10
-3.00000000000001
20
4.25344637727321
30
0
41
1
10
-3.00000000000001
20
5.03031046956039
30
0
41
1
10
-3.00000000000001
20
5.86013089274294
30
0
41
1
10
-3
20
6.7412669483133
30
0
41
1
10
-3
20
7.66989301525788
30
0
41
1
10
-3
20
8.64010206779591
30
0
41
1
10
-3
20
9.64409636398926
30
0
41
1
10
-3
20
10.6724339861579
30
0
41
1
10
-3
20
11.7143476583394
30
0
41
1
10
-3
20
12.7580961840504
30
0
41
1
10
-3
20
13.7913627220832
30
0
41
1
10
-3
20
14.8016574939434
30
0
41
1
10
-3
20
15.7767352671169
30
0
41
1
10
-3
20
16.7049883877483
30
0
41
1
10
-2.99999999999999
20
17.5758208216031
30
0
41
1
10
-2.99999999999997
20
18.3799725293323
30
0
41
1
10
-2.99999999999997
20
19.1097945414623
30
0
41
1
10
-2.99999999999997
20
19.759456615498
30
0
41
1
10
-2.99999999999997
20
20.3250833641014
30
0
41
1
10
-2.99999999999997
20
20.804815632754
30
0
41
1
10
-2.99999999999997
20
21.1987865798995
30
0
41
1
10
-2.99999999999997
20
21.5090429333437
30
0
41
1
10
-2.99999999999997
20
21.7393270779667
30
0
41
1
10
-2.99999999999997
20
21.868994103416
30
0
41
1
10
-2.99999999999996
20
21.9386456157424
30
0
41
1
10
-2.99999999999996
20
21.9747080149673
30
0
41
1
10
-2.99999999999996
20
21.9921069826245
30
0
41
1
10
-2.99999999999996
20
21.9988955684255
30
0
41
1
10
-2.99999999999996
20
22.0011049359544
30
0
41
1
10
-2.99999999999996
20
21.9955842966017
30
0
41
1
10
-2.99999999999996
20
21.9704009616837
30
0
41
1
10
-2.99999999999996
20
21.9107795104958
30
0
41
1
10
-2.99999999999996
20
21.8216567025366
30
0
41
1
10
-2.99999999999997
20
21.7581493941378
30
0
41
1
10
-2.99999999999999
20
21.7373100009533
30
0
0
SPLINE
5
2AB
100
AcDbEntity
8
SK1
62
256
6
ByLayer
370
-1
48
1
60
0
100
AcDbSpline
70
4
71
3
72
20
73
16
40
0
40
0
40
0
40
0
40
0.0625
40
0.0625
40
0.125
40
0.125
40
0.25
40
0.25
40
0.5
40
0.5
40
0.625
40
0.625
40
0.75
40
0.75
40
1
40
1
40
1
40
1
41
1
10
-2.19996216443259
20
-3.54983930763265
30
0
41
1
10
-2.22044840143086
20
-3.40695670462844
30
0
41
1
10
-2.24021230184059
20
-3.26305777471006
30
0
41
1
10
-2.27803379469175
20
-2.97304584798116
30
0
41
1
10
-2.29612902491222
20
-2.82664512825193
30
0
41
1
10
-2.34720400178199
20
-2.38608927555839
30
0
41
1
10
-2.37689006379996
20
-2.0913414023224
30
0
41
1
10
-2.45003363011682
20
-1.20362048849589
30
0
41
1
10
-2.47719228927632
20
-0.607128851196308
30
0
41
1
10
-2.47741959906743
20
0.295725665164952
30
0
41
1
10
-2.47084183993451
20
0.598295142845728
30
0
41
1
10
-2.44464665854524
20
1.20498874144644
30
0
41
1
10
-2.425286704324
20
1.50489082545869
30
0
41
1
10
-2.35167309829585
20
2.39552637501163
30
0
41
1
10
-2.28205772926171
20
2.97726686878858
30
0
41
1
10
-2.19996216441007
20
3.54984866401654
30
0
0
SPLINE
5
2AC
100
AcDbEntity
8
SK1
62
256
6
ByLayer
370
-1
48
1
60
0
100
AcDbSpline
70
4
71
3
72
26
73
22
40
0
40
0
40
0
40
0
40
0.0312500000000002
40
0.0312500000000002
40
0.0625000000000004
40
0.0625000000000004
40
0.0937500000000007
40
0.0937500000000007
40
0.125000000000001
40
0.125000000000001
40
0.187500000000001
40
0.187500000000001
40
0.250000000000002
40
0.250000000000002
40
0.375000000000002
40
0.375000000000002
40
0.500000000000001
40
0.500000000000001
40
0.750000000000001
40
0.750000000000001
40
1
40
1
40
1
40
1
41
1
10
-0.399999999999991
20
21.7837956106232
30
0
41
1
10
-0.393726825128979
20
21.7842001525046
30
0
41
1
10
-0.386919878064433
20
21.7848461279868
30
0
41
1
10
-0.371522667408115
20
21.7870460733648
30
0
41
1
10
-0.362927849773101
20
21.7886293082576
30
0
41
1
10
-0.345183809992505
20
21.7929309114553
30
0
41
1
10
-0.336147993566016
20
21.7956576127002
30
0
41
1
10
-0.320595693525831
20
21.8011562525066
30
0
41
1
10
-0.313856465635723
20
21.8039479004068
30
0
41
1
10
-0.296259184571213
20
21.8119227552706
30
0
41
1
10
-0.287500521712985
20
21.8168723194731
30
0
41
1
10
-0.272700764442817
20
21.8260241370079
30
0
41
1
10
-0.266664393161747
20
21.8302849791049
30
0
41
1
10
-0.250679249280296
20
21.8424921500485
30
0
41
1
10
-0.242879422992303
20
21.8498514535514
30
0
41
1
10
-0.230042561972155
20
21.8634070974587
30
0
41
1
10
-0.225044043144663
20
21.8696386364566
30
0
41
1
10
-0.212590110184195
20
21.8871551189044
30
0
41
1
10
-0.207642307811383
20
21.8972719196379
30
0
41
1
10
-0.201302117872686
20
21.915325775428
30
0
41
1
10
-0.200000000000017
20
21.9232437308696
30
0
41
1
10
-0.200000000000017
20
21.9302323563458
30
0
0
LINE
5
45
100
AcDbEntity
8
80
62
256
6
ByLayer
370
-1
48
1
60
0
100
AcDbLine
10
0
20
0
30
0
11
-7
21
0
31
0
39
0
210
0
220
0
230
1
0
LINE
5
46
100
AcDbEntity
8
81
62
256
6
ByLayer
370
-1
48
1
60
0
100
AcDbLine
10
200
20
0
30
0
11
207
21
0
31
0
39
0
210
0
220
0
230
1
0
LINE
5
47
100
AcDbEntity
8
1
62
256
6
ByLayer
370
-1
48
1
60
0
100
AcDbLine
10
39.7
20
31.5
30
0
11
0.3
21
31.5
31
0
39
0
210
0
220
0
230
1
0
LINE
5
49
100
AcDbEntity
8
1
62
256
6
ByLayer
370
-1
48
1
60
0
100
AcDbLine
10
0.3
20
-31.5
30
0
11
39.7
21
-31.5
31
0
39
0
210
0
220
0
230
1
0
LINE
5
4A
100
AcDbEntity
8
1
62
256
6
ByLayer
370
-1
48
1
60
0
100
AcDbLine
10
0.3
20
31.5
30
0
11
0
21
31.2
31
0
39
0
210
0
220
0
230
1
0
LINE
5
4B
100
AcDbEntity
8
1
62
256
6
ByLayer
370
-1
48
1
60
0
100
AcDbLine
10
0
20
-31.2
30
0
11
0.3
21
-31.5
31
0
39
0
210
0
220
0
230
1
0
LINE
5
4C
100
AcDbEntity
8
1
62
256
6
ByLayer
370
-1
48
1
60
0
100
AcDbLine
10
39.7
20
-31.5
30
0
11
40
21
-31.2
31
0
39
0
210
0
220
0
230
1
0
LINE
5
4D
100
AcDbEntity
8
1
62
256
6
ByLayer
370
-1
48
1
60
0
100
AcDbLine
10
40
20
31.2
30
0
11
39.7
21
31.5
31
0
39
0
210
0
220
0
230
1
0
LINE
5
4E
100
AcDbEntity
8
1
62
256
6
ByLayer
370
-1
48
1
60
0
100
AcDbLine
10
44.9
20
-31.25
30
0
11
45.025882
21
-31.153407
31
0
39
0
210
0
220
0
230
1
0
LINE
5
4F
100
AcDbEntity
8
1
62
256
6
ByLayer
370
-1
48
1
60
0
100
AcDbLine
10
45.025882
20
31.153407
30
0
11
44.9
21
31.25
31
0
39
0
210
0
220
0
230
1
0
LINE
5
50
100
AcDbEntity
8
1
62
256
6
ByLayer
370
-1
48
1
60
0
100
AcDbLine
10
44.9
20
31.25
30
0
11
40.1
21
31.25
31
0
39
0
210
0
220
0
230
1
0
LINE
5
51
100
AcDbEntity
8
1
62
256
6
ByLayer
370
-1
48
1
60
0
100
AcDbLine
10
40.1
20
-31.25
30
0
11
44.9
21
-31.25
31
0
39
0
210
0
220
0
230
1
0
LINE
5
52
100
AcDbEntity
8
1
62
256
6
ByLayer
370
-1
48
1
60
0
100
AcDbLine
10
40.1
20
31.25
30
0
11
40
21
31.15
31
0
39
0
210
0
220
0
230
1
0
LINE
5
53
100
AcDbEntity
8
1
62
256
6
ByLayer
370
-1
48
1
60
0
100
AcDbLine
10
40
20
-31.15
30
0
11
40.1
21
-31.25
31
0
39
0
210
0
220
0
230
1
0
LINE
5
54
100
AcDbEntity
8
1
62
256
6
ByLayer
370
-1
48
1
60
0
100
AcDbLine
10
45.025882
20
-31.153407
30
0
11
45.243045
21
-30.342945
31
0
39
0
210
0
220
0
230
1
0
LINE
5
55
100
AcDbEntity
8
1
62
256
6
ByLayer
370
-1
48
1
60
0
100
AcDbLine
10
45.243045
20
30.342945
30
0
11
45.025882
21
31.153407
31
0
39
0
210
0
220
0
230
1
0
LINE
5
56
100
AcDbEntity
8
1
62
256
6
ByLayer
370
-1
48
1
60
0
100
AcDbLine
10
46.015785
20
-29.75
30
0
11
46.5
21
-29.75
31
0
39
0
210
0
220
0
230
1
0
LINE
5
57
100
AcDbEntity
8
1
62
256
6
ByLayer
370
-1
48
1
60
0
100
AcDbLine
10
46.5
20
29.75
30
0
11
46.015785
21
29.75
31
0
39
0
210
0
220
0
230
1
0
LINE
5
58
100
AcDbEntity
8
1
62
256
6
ByLayer
370
-1
48
1
60
0
100
AcDbLine
10
114.671136
20
20.4
30
0
11
70
21
20.4
31
0
39
0
210
0
220
0
230
1
0
LINE
5
59
100
AcDbEntity
8
1
62
256
6
ByLayer
370
-1
48
1
60
0
100
AcDbLine
10
70
20
-20.4
30
0
11
110.236896
21
-20.4
31
0
39
0
210
0
220
0
230
1
0
LINE
5
5A
100
AcDbEntity
8
SK4
62
256
6
ByLayer
370
-1
48
0.05
60
0
100
AcDbLine
10
200
20
0
30
0
11
-38
21
0
31
0
39
0
210
0
220
0
230
1
0
LINE
5
5C
100
AcDbEntity
8
4
62
256
6
ByLayer
370
-1
48
0.05
60
0
100
AcDbLine
10
200
20
0
30
0
11
0
21
0
31
0
39
0
210
0
220
0
230
1
0
LINE
5
5E
100
AcDbEntity
8
1
62
256
6
ByLayer
370
-1
48
1
60
0
100
AcDbLine
10
13.461325
20
9.349221
30
0
11
13.461325
21
30.080593
31
0
39
0
210
0
220
0
230
1
0
LINE
5
5F
100
AcDbEntity
8
1
62
256
6
ByLayer
370
-1
48
1
60
0
100
AcDbLine
10
46.015785
20
29.75
30
0
11
46.015785
21
15.731833
31
0
39
0
210
0
220
0
230
1
0
LINE
5
60
100
AcDbEntity
8
1
62
256
6
ByLayer
370
-1
48
1
60
0
100
AcDbLine
10
186.650337
20
14.15143
30
0
11
186.665632
21
14.15143
31
0
39
0
210
0
220
0
230
1
0
LINE
5
61
100
AcDbEntity
8
1
62
256
6
ByLayer
370
-1
48
1
60
0
100
AcDbLine
10
44.9
20
31.25
30
0
11
44.9
21
-31.25
31
0
39
0
210
0
220
0
230
1
0
LINE
5
62
100
AcDbEntity
8
1
62
256
6
ByLayer
370
-1
48
1
60
0
100
AcDbLine
10
186.650337
20
14.15143
30
0
11
186.451142
21
20.398353
31
0
39
0
210
0
220
0
230
1
0
LINE
5
63
100
AcDbEntity
8
1
62
256
6
ByLayer
370
-1
48
1
60
0
100
AcDbLine
10
189.541285
20
7.854987
30
0
11
197.864079
21
8.146736
31
0
39
0
210
0
220
0
230
1
0
LINE
5
64
100
AcDbEntity
8
1
62
256
6
ByLayer
370
-1
48
1
60
0
100
AcDbLine
10
0
20
-31.2
30
0
11
0
21
31.2
31
0
39
0
210
0
220
0
230
1
0
LINE
5
65
100
AcDbEntity
8
1
62
256
6
ByLayer
370
-1
48
1
60
0
100
AcDbLine
10
197.864079
20
8.146736
30
0
11
197.959113
21
8.147636
31
0
39
0
210
0
220
0
230
1
0
LINE
5
66
100
AcDbEntity
8
1
62
256
6
ByLayer
370
-1
48
1
60
0
100
AcDbLine
10
186.364392
20
9.49012
30
0
11
186.678153
21
9.49012
31
0
39
0
210
0
220
0
230
1
0
LINE
5
67
100
AcDbEntity
8
1
62
256
6
ByLayer
370
-1
48
1
60
0
100
AcDbLine
10
198.025589
20
-0.191545
30
0
11
196.024161
21
0.700237
31
0
39
0
210
0
220
0
230
1
0
LINE
5
68
100
AcDbEntity
8
1
62
256
6
ByLayer
370
-1
48
1
60
0
100
AcDbLine
10
184.690738
20
-20.379432
30
0
11
198.192021
21
-20.379432
31
0
39
0
210
0
220
0
230
1
0
LINE
5
69
100
AcDbEntity
8
1
62
256
6
ByLayer
370
-1
48
1
60
0
100
AcDbLine
10
13.461325
20
-30.080593
30
0
11
13.461325
21
-9.349221
31
0
39
0
210
0
220
0
230
1
0
LINE
5
6A
100
AcDbEntity
8
1
62
256
6
ByLayer
370
-1
48
1
60
0
100
AcDbLine
10
184.95533
20
2.646671
30
0
11
186.451385
21
7.793411
31
0
39
0
210
0
220
0
230
1
0
LINE
5
6B
100
AcDbEntity
8
1
62
256
6
ByLayer
370
-1
48
1
60
0
100
AcDbLine
10
13.461325
20
9.349221
30
0
11
10.538675
21
9.349221
31
0
39
0
210
0
220
0
230
1
0
LINE
5
6C
100
AcDbEntity
8
1
62
256
6
ByLayer
370
-1
48
1
60
0
100
AcDbLine
10
10.105662
20
9.869413
30
0
11
10.105662
21
29.913955
31
0
39
0
210
0
220
0
230
1
0
LINE
5
6D
100
AcDbEntity
8
1
62
256
6
ByLayer
370
-1
48
1
60
0
100
AcDbLine
10
179.947488
20
9.786868
30
0
11
177.07148
21
11.012324
31
0
39
0
210
0
220
0
230
1
0
LINE
5
6E
100
AcDbEntity
8
1
62
256
6
ByLayer
370
-1
48
1
60
0
100
AcDbLine
10
198.544762
20
-10.079473
30
0
11
198.517579
21
-10.385949
31
0
39
0
210
0
220
0
230
1
0
LINE
5
6F
100
AcDbEntity
8
1
62
256
6
ByLayer
370
-1
48
1
60
0
100
AcDbLine
10
186.247923
20
12.838079
30
0
11
186.561684
21
12.838079
31
0
39
0
210
0
220
0
230
1
0
LINE
5
70
100
AcDbEntity
8
1
62
256
6
ByLayer
370
-1
48
1
60
0
100
AcDbLine
10
39.7
20
31.5
30
0
11
39.7
21
-31.5
31
0
39
0
210
0
220
0
230
1
0
LINE
5
71
100
AcDbEntity
8
1
62
256
6
ByLayer
370
-1
48
1
60
0
100
AcDbLine
10
195.935066
20
3.311103
30
0
11
197.864079
21
8.146736
31
0
39
0
210
0
220
0
230
1
0
LINE
5
72
100
AcDbEntity
8
1
62
256
6
ByLayer
370
-1
48
1
60
0
100
AcDbLine
10
45.025882
20
31.153407
30
0
11
45.025882
21
-31.153407
31
0
39
0
210
0
220
0
230
1
0
LINE
5
73
100
AcDbEntity
8
1
62
256
6
ByLayer
370
-1
48
1
60
0
100
AcDbLine
10
184.301085
20
20.395095
30
0
11
184.301085
21
14.8
31
0
39
0
210
0
220
0
230
1
0
LINE
5
74
100
AcDbEntity
8
1
62
256
6
ByLayer
370
-1
48
1
60
0
100
AcDbLine
10
46.5
20
29.75
30
0
11
46.5
21
16.943497
31
0
39
0
210
0
220
0
230
1
0
LINE
5
75
100
AcDbEntity
8
1
62
256
6
ByLayer
370
-1
48
1
60
0
100
AcDbLine
10
45.243045
20
-30.342945
30
0
11
45.243045
21
30.342945
31
0
39
0
210
0
220
0
230
1
0
LINE
5
76
100
AcDbEntity
8
1
62
256
6
ByLayer
370
-1
48
1
60
0
100
AcDbLine
10
186.561684
20
12.838079
30
0
11
186.678153
21
9.49012
31
0
39
0
210
0
220
0
230
1
0
LINE
5
77
100
AcDbEntity
8
1
62
256
6
ByLayer
370
-1
48
1
60
0
100
AcDbLine
10
10.538675
20
9.349221
30
0
11
10.538675
21
30.080593
31
0
39
0
210
0
220
0
230
1
0
LINE
5
78
100
AcDbEntity
8
1
62
256
6
ByLayer
370
-1
48
1
60
0
100
AcDbLine
10
13.894338
20
-29.913955
30
0
11
13.894338
21
-9.869413
31
0
39
0
210
0
220
0
230
1
0
LINE
5
79
100
AcDbEntity
8
1
62
256
6
ByLayer
370
-1
48
1
60
0
100
AcDbLine
10
40.1
20
31.25
30
0
11
40.1
21
-31.25
31
0
39
0
210
0
220
0
230
1
0
LINE
5
7A
100
AcDbEntity
8
1
62
256
6
ByLayer
370
-1
48
1
60
0
100
AcDbLine
10
178.064805
20
9.690275
30
0
11
179.566368
21
9.050464
31
0
39
0
210
0
220
0
230
1
0
LINE
5
7B
100
AcDbEntity
8
1
62
256
6
ByLayer
370
-1
48
1
60
0
100
AcDbLine
10
70
20
20.4
30
0
11
70
21
11.870688
31
0
39
0
210
0
220
0
230
1
0
LINE
5
7C
100
AcDbEntity
8
1
62
256
6
ByLayer
370
-1
48
1
60
0
100
AcDbLine
10
187.175657
20
7.8188
30
0
11
187.220945
21
7.8188
31
0
39
0
210
0
220
0
230
1
0
LINE
5
7D
100
AcDbEntity
8
1
62
256
6
ByLayer
370
-1
48
1
60
0
100
AcDbLine
10
46.015785
20
11.085058
30
0
11
46.015785
21
-29.75
31
0
39
0
210
0
220
0
230
1
0
LINE
5
7E
100
AcDbEntity
8
1
62
256
6
ByLayer
370
-1
48
1
60
0
100
AcDbLine
10
198.03551
20
8.147636
30
0
11
198.063921
21
8.146141
31
0
39
0
210
0
220
0
230
1
0
LINE
5
7F
100
AcDbEntity
8
1
62
256
6
ByLayer
370
-1
48
1
60
0
100
AcDbLine
10
10.105662
20
-29.913955
30
0
11
10.105662
21
-9.869413
31
0
39
0
210
0
220
0
230
1
0
LINE
5
80
100
AcDbEntity
8
1
62
256
6
ByLayer
370
-1
48
1
60
0
100
AcDbLine
10
198.544762
20
-10.079473
30
0
11
196.89436
21
-9.344099
31
0
39
0
210
0
220
0
230
1
0
LINE
5
81
100
AcDbEntity
8
1
62
256
6
ByLayer
370
-1
48
1
60
0
100
AcDbLine
10
13.894338
20
9.869413
30
0
11
13.894338
21
29.913955
31
0
39
0
210
0
220
0
230
1
0
LINE
5
82
100
AcDbEntity
8
1
62
256
6
ByLayer
370
-1
48
1
60
0
100
AcDbLine
10
186.598819
20
8.595035
30
0
11
186.392455
21
8.587801
31
0
39
0
210
0
220
0
230
1
0
LINE
5
83
100
AcDbEntity
8
1
62
256
6
ByLayer
370
-1
48
1
60
0
100
AcDbLine
10
186.871007
20
14.348026
30
0
11
186.900358
21
14.348026
31
0
39
0
210
0
220
0
230
1
0
LINE
5
84
100
AcDbEntity
8
1
62
256
6
ByLayer
370
-1
48
1
60
0
100
AcDbLine
10
183.160571
20
14.700231
30
0
11
164.385016
21
16.005771
31
0
39
0
210
0
220
0
230
1
0
LINE
5
85
100
AcDbEntity
8
1
62
256
6
ByLayer
370
-1
48
1
60
0
100
AcDbLine
10
46.5
20
9.632092
30
0
11
46.5
21
-29.75
31
0
39
0
210
0
220
0
230
1
0
LINE
5
86
100
AcDbEntity
8
1
62
256
6
ByLayer
370
-1
48
1
60
0
100
AcDbLine
10
183.26521
20
14.8
30
0
11
184.301085
21
14.8
31
0
39
0
210
0
220
0
230
1
0
LINE
5
87
100
AcDbEntity
8
1
62
256
6
ByLayer
370
-1
48
1
60
0
100
AcDbLine
10
183.26521
20
20.387365
30
0
11
183.26521
21
14.8
31
0
39
0
210
0
220
0
230
1
0
LINE
5
88
100
AcDbEntity
8
1
62
256
6
ByLayer
370
-1
48
1
60
0
100
AcDbLine
10
198.125143
20
0.836575
30
0
11
198.398563
21
8.382003
31
0
39
0
210
0
220
0
230
1
0
LINE
5
89
100
AcDbEntity
8
1
62
256
6
ByLayer
370
-1
48
1
60
0
100
AcDbLine
10
10.538675
20
30.080593
30
0
11
13.461325
21
30.080593
31
0
39
0
210
0
220
0
230
1
0
LINE
5
8A
100
AcDbEntity
8
1
62
256
6
ByLayer
370
-1
48
1
60
0
100
AcDbLine
10
198.192021
20
-20.379432
30
0
11
198.994587
21
-11.331024
31
0
39
0
210
0
220
0
230
1
0
LINE
5
8B
100
AcDbEntity
8
1
62
256
6
ByLayer
370
-1
48
1
60
0
100
AcDbLine
10
198.063921
20
8.146141
30
0
11
197.959113
21
8.147636
31
0
39
0
210
0
220
0
230
1
0
LINE
5
8C
100
AcDbEntity
8
1
62
256
6
ByLayer
370
-1
48
1
60
0
100
AcDbLine
10
179.566368
20
9.050464
30
0
11
179.519283
21
9.050464
31
0
39
0
210
0
220
0
230
1
0
LINE
5
8D
100
AcDbEntity
8
1
62
256
6
ByLayer
370
-1
48
1
60
0
100
AcDbLine
10
10.538675
20
-30.080593
30
0
11
10.538675
21
-9.349221
31
0
39
0
210
0
220
0
230
1
0
LINE
5
8E
100
AcDbEntity
8
1
62
256
6
ByLayer
370
-1
48
1
60
0
100
AcDbLine
10
198.025589
20
-0.191545
30
0
11
198.544762
21
-10.079473
31
0
39
0
210
0
220
0
230
1
0
LINE
5
8F
100
AcDbEntity
8
1
62
256
6
ByLayer
370
-1
48
1
60
0
100
AcDbLine
10
198.0409
20
0.800204
30
0
11
198.112212
21
0.797719
31
0
39
0
210
0
220
0
230
1
0
LINE
5
90
100
AcDbEntity
8
1
62
256
6
ByLayer
370
-1
48
1
60
0
100
AcDbLine
10
186.247923
20
12.838079
30
0
11
186.364392
21
9.49012
31
0
39
0
210
0
220
0
230
1
0
LINE
5
91
100
AcDbEntity
8
1
62
256
6
ByLayer
370
-1
48
1
60
0
100
AcDbLine
10
178.274474
20
5.317199
30
0
11
177.882953
21
3.970288
31
0
39
0
210
0
220
0
230
1
0
LINE
5
92
100
AcDbEntity
8
1
62
256
6
ByLayer
370
-1
48
1
60
0
100
AcDbLine
10
187.175657
20
7.8188
30
0
11
186.451385
21
7.793411
31
0
39
0
210
0
220
0
230
1
0
LINE
5
93
100
AcDbEntity
8
1
62
256
6
ByLayer
370
-1
48
1
60
0
100
AcDbLine
10
186.466533
20
20.395382
30
0
11
186.665632
21
14.15143
31
0
39
0
210
0
220
0
230
1
0
LINE
5
94
100
AcDbEntity
8
1
62
256
6
ByLayer
370
-1
48
1
60
0
100
AcDbLine
10
10.538675
20
-9.349221
30
0
11
13.461325
21
-9.349221
31
0
39
0
210
0
220
0
230
1
0
LINE
5
95
100
AcDbEntity
8
1
62
256
6
ByLayer
370
-1
48
1
60
0
100
AcDbLine
10
13.461325
20
-30.080593
30
0
11
10.538675
21
-30.080593
31
0
39
0
210
0
220
0
230
1
0
LINE
5
96
100
AcDbEntity
8
1
62
256
6
ByLayer
370
-1
48
1
60
0
100
AcDbLine
10
70
20
-20.4
30
0
11
70
21
-14.239286
31
0
39
0
210
0
220
0
230
1
0
LINE
5
97
100
AcDbEntity
8
1
62
256
6
ByLayer
370
-1
48
1
60
0
100
AcDbLine
10
198.013848
20
0.11204
30
0
11
198.025589
21
-0.191545
31
0
39
0
210
0
220
0
230
1
0
LINE
5
98
100
AcDbEntity
8
1
62
256
6
ByLayer
370
-1
48
1
60
0
100
AcDbLine
10
40
20
31.2
30
0
11
40
21
-31.2
31
0
39
0
210
0
220
0
230
1
0
LINE
5
99
100
AcDbEntity
8
1
62
256
6
ByLayer
370
-1
48
1
60
0
100
AcDbLine
10
198.112212
20
0.797719
30
0
11
198.125143
21
0.836575
31
0
39
0
210
0
220
0
230
1
0
LINE
5
9A
100
AcDbEntity
8
1
62
256
6
ByLayer
370
-1
48
1
60
0
100
AcDbLine
10
198.081329
20
0.859844
30
0
11
198.125143
21
0.836575
31
0
39
0
210
0
220
0
230
1
0
LINE
5
9B
100
AcDbEntity
8
1
62
256
6
ByLayer
370
-1
48
1
60
0
100
AcDbLine
10
197.959113
20
8.147636
30
0
11
198.035436
21
8.147636
31
0
39
0
210
0
220
0
230
1
0
LINE
5
9C
100
AcDbEntity
8
1
62
256
6
ByLayer
370
-1
48
1
60
0
100
AcDbLine
10
0.3
20
-31.5
30
0
11
0.3
21
31.5
31
0
39
0
210
0
220
0
230
1
0
LINE
5
9D
100
AcDbEntity
8
1
62
256
6
ByLayer
370
-1
48
1
60
0
100
AcDbLine
10
198.540587
20
-11.276183
30
0
11
198.994587
21
-11.331024
31
0
39
0
210
0
220
0
230
1
0
LINE
5
9E
100
AcDbEntity
8
1
62
256
6
ByLayer
370
-1
48
1
60
0
100
AcDbLine
10
198.069569
20
0.860254
30
0
11
198.081329
21
0.859844
31
0
39
0
210
0
220
0
230
1
0
LINE
5
9F
100
AcDbEntity
8
1
62
256
6
ByLayer
370
-1
48
1
60
0
100
AcDbLine
10
187.856538
20
19.219808
30
0
11
188.195513
21
9.475747
31
0
39
0
210
0
220
0
230
1
0
LINE
5
A0
100
AcDbEntity
8
1
62
256
6
ByLayer
370
-1
48
1
60
0
100
AcDbLine
10
190.145353
20
11.514392
30
0
11
190.276496
21
11.391632
31
0
39
0
210
0
220
0
230
1
0
LINE
5
A1
100
AcDbEntity
8
1
62
256
6
ByLayer
370
-1
48
1
60
0
100
AcDbLine
10
188.723031
20
17.651951
30
0
11
189.925172
21
16.526654
31
0
39
0
210
0
220
0
230
1
0
LINE
5
A2
100
AcDbEntity
8
1
62
256
6
ByLayer
370
-1
48
1
60
0
100
AcDbLine
10
188.13097
20
20.538074
30
0
11
197.837951
21
20.878344
31
0
39
0
210
0
220
0
230
1
0
LINE
5
A3
100
AcDbEntity
8
1
62
256
6
ByLayer
370
-1
48
1
60
0
100
AcDbLine
10
188.551215
20
8.512699
30
0
11
198.258196
21
8.852969
31
0
39
0
210
0
220
0
230
1
0
LINE
5
A4
100
AcDbEntity
8
1
62
256
6
ByLayer
370
-1
48
1
60
0
100
AcDbLine
10
188.148862
20
19.38045
30
0
11
197.855844
21
19.72072
31
0
39
0
210
0
220
0
230
1
0
LINE
5
A5
100
AcDbEntity
8
1
62
256
6
ByLayer
370
-1
48
1
60
0
100
AcDbLine
10
188.148653
20
19.409111
30
0
11
197.855635
21
19.749381
31
0
39
0
210
0
220
0
230
1
0
LINE
5
A6
100
AcDbEntity
8
1
62
256
6
ByLayer
370
-1
48
1
60
0
100
AcDbLine
10
197.122396
20
10.597462
30
0
11
194.334751
21
10.499744
31
0
39
0
210
0
220
0
230
1
0
LINE
5
A7
100
AcDbEntity
8
1
62
256
6
ByLayer
370
-1
48
1
60
0
100
AcDbLine
10
188.565253
20
8.037364
30
0
11
198.861262
21
8.398282
31
0
39
0
210
0
220
0
230
1
0
LINE
5
A8
100
AcDbEntity
8
1
62
256
6
ByLayer
370
-1
48
1
60
0
100
AcDbLine
10
189.779717
20
17.401168
30
0
11
190.29205
21
16.921585
31
0
39
0
210
0
220
0
230
1
0
LINE
5
A9
100
AcDbEntity
8
1
62
256
6
ByLayer
370
-1
48
1
60
0
100
AcDbLine
10
188.152038
20
19.537903
30
0
11
197.859019
21
19.878173
31
0
39
0
210
0
220
0
230
1
0
LINE
5
AA
100
AcDbEntity
8
1
62
256
6
ByLayer
370
-1
48
1
60
0
100
AcDbLine
10
186.732264
20
19.179937
30
0
11
187.091808
21
8.844599
31
0
39
0
210
0
220
0
230
1
0
LINE
5
AB
100
AcDbEntity
8
1
62
256
6
ByLayer
370
-1
48
1
60
0
100
AcDbLine
10
188.144488
20
20.204322
30
0
11
197.851469
21
20.544592
31
0
39
0
210
0
220
0
230
1
0
LINE
5
AC
100
AcDbEntity
8
1
62
256
6
ByLayer
370
-1
48
1
60
0
100
AcDbLine
10
199.665425
20
9.877355
30
0
11
199.305881
21
20.212693
31
0
39
0
210
0
220
0
230
1
0
LINE
5
AD
100
AcDbEntity
8
1
62
256
6
ByLayer
370
-1
48
1
60
0
100
AcDbLine
10
189.557299
20
11.673163
30
0
11
189.557665
21
11.67282
31
0
39
0
210
0
220
0
230
1
0
LINE
5
AE
100
AcDbEntity
8
1
62
256
6
ByLayer
370
-1
48
1
60
0
100
AcDbLine
10
199.52497
20
9.872411
30
0
11
199.185995
21
19.616471
31
0
39
0
210
0
220
0
230
1
0
LINE
5
AF
100
AcDbEntity
8
1
62
256
6
ByLayer
370
-1
48
1
60
0
100
AcDbLine
10
198.514879
20
9.837484
30
0
11
198.175903
21
19.581545
31
0
39
0
210
0
220
0
230
1
0
LINE
5
B0
100
AcDbEntity
8
1
62
256
6
ByLayer
370
-1
48
1
60
0
100
AcDbLine
10
188.541505
20
8.741607
30
0
11
198.248487
21
9.081877
31
0
39
0
210
0
220
0
230
1
0
LINE
5
B1
100
AcDbEntity
8
1
62
256
6
ByLayer
370
-1
48
1
60
0
100
AcDbLine
10
198.205249
20
9.676842
30
0
11
188.498268
21
9.336572
31
0
39
0
210
0
220
0
230
1
0
LINE
5
B2
100
AcDbEntity
8
1
62
256
6
ByLayer
370
-1
48
1
60
0
100
AcDbLine
10
188.561875
20
8.117011
30
0
11
198.268856
21
8.457281
31
0
39
0
210
0
220
0
230
1
0
LINE
5
B3
100
AcDbEntity
8
1
62
256
6
ByLayer
370
-1
48
1
60
0
100
AcDbLine
10
188.500053
20
9.307911
30
0
11
198.207034
21
9.648181
31
0
39
0
210
0
220
0
230
1
0
LINE
5
B4
100
AcDbEntity
8
1
62
256
6
ByLayer
370
-1
48
1
60
0
100
AcDbLine
10
188.127618
20
20.600011
30
0
11
197.834599
21
20.940281
31
0
39
0
210
0
220
0
230
1
0
LINE
5
B5
100
AcDbEntity
8
1
62
256
6
ByLayer
370
-1
48
1
60
0
100
AcDbLine
10
187.976975
20
19.224305
30
0
11
188.31595
21
9.480245
31
0
39
0
210
0
220
0
230
1
0
LINE
5
B6
100
AcDbEntity
8
1
62
256
6
ByLayer
370
-1
48
1
60
0
100
AcDbLine
10
198.964613
20
9.852762
30
0
11
198.625638
21
19.596823
31
0
39
0
210
0
220
0
230
1
0
LINE
5
B7
100
AcDbEntity
8
1
62
256
6
ByLayer
370
-1
48
1
60
0
100
AcDbLine
10
197.316461
20
15.691237
30
0
11
197.219115
21
18.489531
31
0
39
0
210
0
220
0
230
1
0
LINE
5
B8
100
AcDbEntity
8
1
62
256
6
ByLayer
370
-1
48
1
60
0
100
AcDbLine
10
189.581761
20
11.3036
30
0
11
189.909618
21
10.996701
31
0
39
0
210
0
220
0
230
1
0
LINE
5
B9
100
AcDbEntity
8
1
62
256
6
ByLayer
370
-1
48
1
60
0
100
AcDbLine
10
194.335223
20
10.373428
30
0
11
197.122869
21
10.471147
31
0
39
0
210
0
220
0
230
1
0
LINE
5
BA
100
AcDbEntity
8
1
62
256
6
ByLayer
370
-1
48
1
60
0
100
AcDbLine
10
197.194549
20
15.686826
30
0
11
197.097202
21
18.48512
31
0
39
0
210
0
220
0
230
1
0
LINE
5
BB
100
AcDbEntity
8
1
62
256
6
ByLayer
370
-1
48
1
60
0
100
AcDbLine
10
199.194396
20
9.860756
30
0
11
198.855421
21
19.604816
31
0
39
0
210
0
220
0
230
1
0
LINE
5
BC
100
AcDbEntity
8
1
62
256
6
ByLayer
370
-1
48
1
60
0
100
AcDbLine
10
189.7829
20
18.792863
30
0
11
190.985041
21
17.667566
31
0
39
0
210
0
220
0
230
1
0
LINE
5
BD
100
AcDbEntity
8
1
62
256
6
ByLayer
370
-1
48
1
60
0
100
AcDbLine
10
197.484514
20
10.860446
30
0
11
197.387168
21
13.65874
31
0
39
0
210
0
220
0
230
1
0
LINE
5
BE
100
AcDbEntity
8
1
62
256
6
ByLayer
370
-1
48
1
60
0
100
AcDbLine
10
187.208288
20
19.196536
30
0
11
187.547263
21
9.452475
31
0
39
0
210
0
220
0
230
1
0
LINE
5
BF
100
AcDbEntity
8
1
62
256
6
ByLayer
370
-1
48
1
60
0
100
AcDbLine
10
189.779717
20
17.401168
30
0
11
189.79938
21
17.397272
31
0
39
0
210
0
220
0
230
1
0
LINE
5
C0
100
AcDbEntity
8
1
62
256
6
ByLayer
370
-1
48
1
60
0
100
AcDbLine
10
188.560918
20
8.178948
30
0
11
198.267899
21
8.519218
31
0
39
0
210
0
220
0
230
1
0
LINE
5
C1
100
AcDbEntity
8
1
62
256
6
ByLayer
370
-1
48
1
60
0
100
AcDbLine
10
198.378713
20
9.832986
30
0
11
198.039737
21
19.577047
31
0
39
0
210
0
220
0
230
1
0
LINE
5
C2
100
AcDbEntity
8
1
62
256
6
ByLayer
370
-1
48
1
60
0
100
AcDbLine
10
186.873899
20
19.184881
30
0
11
187.212874
21
9.440821
31
0
39
0
210
0
220
0
230
1
0
LINE
5
C3
100
AcDbEntity
8
1
62
256
6
ByLayer
370
-1
48
1
60
0
100
AcDbLine
10
187.434578
20
19.20453
30
0
11
187.773554
21
9.460469
31
0
39
0
210
0
220
0
230
1
0
LINE
5
C4
100
AcDbEntity
8
1
62
256
6
ByLayer
370
-1
48
1
60
0
100
AcDbLine
10
190.10583
20
17.752218
30
0
11
190.111074
21
17.7328
31
0
39
0
210
0
220
0
230
1
0
LINE
5
C5
100
AcDbEntity
8
1
62
256
6
ByLayer
370
-1
48
1
60
0
100
AcDbLine
10
198.010397
20
19.576046
30
0
11
198.349372
21
9.831986
31
0
39
0
210
0
220
0
230
1
0
LINE
5
C6
100
AcDbEntity
8
1
62
256
6
ByLayer
370
-1
48
1
60
0
100
AcDbLine
10
186.811
20
19.182718
30
0
11
187.149975
21
9.438658
31
0
39
0
210
0
220
0
230
1
0
LINE
5
C7
100
AcDbEntity
8
1
62
256
6
ByLayer
370
-1
48
1
60
0
100
AcDbLine
10
199.585474
20
9.874574
30
0
11
199.246498
21
19.618634
31
0
39
0
210
0
220
0
230
1
0
LINE
5
C8
100
AcDbEntity
8
1
62
256
6
ByLayer
370
-1
48
1
60
0
100
AcDbLine
10
188.343714
20
9.481246
30
0
11
188.004739
21
19.225306
31
0
39
0
210
0
220
0
230
1
0
LINE
5
C9
100
AcDbEntity
8
1
62
256
6
ByLayer
370
-1
48
1
60
0
100
AcDbLine
10
196.839613
20
18.726243
30
0
11
194.051967
21
18.628524
31
0
39
0
210
0
220
0
230
1
0
LINE
5
CA
100
AcDbEntity
8
1
62
256
6
ByLayer
370
-1
48
1
60
0
100
AcDbLine
10
190.10583
20
17.752218
30
0
11
190.618163
21
17.272635
31
0
39
0
210
0
220
0
230
1
0
LINE
5
CB
100
AcDbEntity
8
1
62
256
6
ByLayer
370
-1
48
1
60
0
100
AcDbLine
10
189.773828
20
11.477794
30
0
11
189.761831
21
11.489024
31
0
39
0
210
0
220
0
230
1
0
LINE
5
CC
100
AcDbEntity
8
1
62
256
6
ByLayer
370
-1
48
1
60
0
100
AcDbLine
10
189.339857
20
18.524758
30
0
11
189.478517
21
18.011273
31
0
39
0
210
0
220
0
230
1
0
LINE
5
CD
100
AcDbEntity
8
1
62
256
6
ByLayer
370
-1
48
1
60
0
100
AcDbLine
10
197.832436
20
21.019928
30
0
11
187.536427
21
20.65901
31
0
39
0
210
0
220
0
230
1
0
LINE
5
CE
100
AcDbEntity
8
1
62
256
6
ByLayer
370
-1
48
1
60
0
100
AcDbLine
10
196.831297
20
18.852558
30
0
11
194.043651
21
18.75484
31
0
39
0
210
0
220
0
230
1
0
LINE
5
CF
100
AcDbEntity
8
1
62
256
6
ByLayer
370
-1
48
1
60
0
100
AcDbLine
10
188.150705
20
19.975415
30
0
11
197.857686
21
20.315685
31
0
39
0
210
0
220
0
230
1
0
LINE
5
D0
100
AcDbEntity
8
1
62
256
6
ByLayer
370
-1
48
1
60
0
100
AcDbLine
10
197.265255
20
13.654329
30
0
11
197.362602
21
10.856035
31
0
39
0
210
0
220
0
230
1
0
LINE
5
D1
100
AcDbEntity
8
1
62
256
6
ByLayer
370
-1
48
1
60
0
100
AcDbLine
10
189.557299
20
11.673163
30
0
11
189.976128
21
12.124018
31
0
39
0
210
0
220
0
230
1
0
LINE
5
D2
100
AcDbEntity
8
1
62
256
6
ByLayer
370
-1
48
1
60
0
100
AcDbLine
10
188.95856
20
18.114305
30
0
11
189.478517
21
18.011273
31
0
39
0
210
0
220
0
230
1
0
LINE
5
D3
100
AcDbEntity
8
1
62
256
6
ByLayer
370
-1
48
1
60
0
100
AcDbLine
10
190.145353
20
11.514392
30
0
11
190.26423
21
11.642358
31
0
39
0
210
0
220
0
230
1
0
LINE
5
D4
100
AcDbEntity
8
1
62
256
6
ByLayer
370
-1
48
1
60
0
100
AcDbLine
10
188.512398
20
9.179119
30
0
11
198.219379
21
9.519389
31
0
39
0
210
0
220
0
230
1
0
LINE
5
D5
100
AcDbEntity
8
1
62
256
6
ByLayer
370
-1
48
1
60
0
100
AcDbLine
10
199.53049
20
-5.734586
30
0
11
199.257808
21
-5.613086
31
0
39
0
210
0
220
0
230
1
0
LINE
5
D6
100
AcDbEntity
8
1
62
256
6
ByLayer
370
-1
48
1
60
0
100
AcDbLine
10
198.504265
20
-11.182224
30
0
11
199.514473
21
-10.815224
31
0
39
0
210
0
220
0
230
1
0
LINE
5
D7
100
AcDbEntity
8
1
62
256
6
ByLayer
370
-1
48
1
60
0
100
AcDbLine
10
198.755289
20
-5.549257
30
0
11
198.556899
21
-1.770812
31
0
39
0
210
0
220
0
230
1
0
LINE
5
D8
100
AcDbEntity
8
1
62
256
6
ByLayer
370
-1
48
1
60
0
100
AcDbLine
10
199.999634
20
-7.679791
30
0
11
199.726745
21
-7.534516
31
0
39
0
210
0
220
0
230
1
0
LINE
5
D9
100
AcDbEntity
8
1
62
256
6
ByLayer
370
-1
48
1
60
0
100
AcDbLine
10
198.932292
20
-1.242301
30
0
11
198.522074
21
0.136784
31
0
39
0
210
0
220
0
230
1
0
LINE
5
DA
100
AcDbEntity
8
1
62
256
6
ByLayer
370
-1
48
1
60
0
100
AcDbLine
10
198.524463
20
-9.693153
30
0
11
198.574515
21
-9.667297
31
0
39
0
210
0
220
0
230
1
0
LINE
5
DB
100
AcDbEntity
8
1
62
256
6
ByLayer
370
-1
48
1
60
0
100
AcDbLine
10
199.059418
20
-1.834641
30
0
11
199.257808
21
-5.613086
31
0
39
0
210
0
220
0
230
1
0
LINE
5
DC
100
AcDbEntity
8
1
62
256
6
ByLayer
370
-1
48
1
60
0
100
AcDbLine
10
199.319124
20
-1.709008
30
0
11
199.058503
21
-1.63115
31
0
39
0
210
0
220
0
230
1
0
LINE
5
DD
100
AcDbEntity
8
1
62
256
6
ByLayer
370
-1
48
1
60
0
100
AcDbLine
10
199.908896
20
-10.273361
30
0
11
199.786258
21
-10.121941
31
0
39
0
210
0
220
0
230
1
0
LINE
5
DE
100
AcDbEntity
8
1
62
256
6
ByLayer
370
-1
48
1
60
0
100
AcDbLine
10
199.53049
20
-5.734586
30
0
11
199.319124
21
-1.709008
31
0
39
0
210
0
220
0
230
1
0
LINE
5
DF
100
AcDbEntity
8
1
62
256
6
ByLayer
370
-1
48
1
60
0
100
AcDbLine
10
199.047641
20
-1.832142
30
0
11
198.556899
21
-1.770812
31
0
39
0
210
0
220
0
230
1
0
LINE
5
E0
100
AcDbEntity
8
1
62
256
6
ByLayer
370
-1
48
1
60
0
100
AcDbLine
10
199.657997
20
-9.159127
30
0
11
199.16688
21
-9.055008
31
0
39
0
210
0
220
0
230
1
0
LINE
5
E1
100
AcDbEntity
8
1
62
256
6
ByLayer
370
-1
48
1
60
0
100
AcDbLine
10
199.16688
20
-9.055008
30
0
11
199.223842
21
-7.426871
31
0
39
0
210
0
220
0
230
1
0
LINE
5
E2
100
AcDbEntity
8
1
62
256
6
ByLayer
370
-1
48
1
60
0
100
AcDbLine
10
198.45443
20
-1.393892
30
0
11
198.047521
21
-0.60912
31
0
39
0
210
0
220
0
230
1
0
LINE
5
E3
100
AcDbEntity
8
1
62
256
6
ByLayer
370
-1
48
1
60
0
100
AcDbLine
10
198.545348
20
0.10995
30
0
11
198.955566
21
-1.269135
31
0
39
0
210
0
220
0
230
1
0
LINE
5
E4
100
AcDbEntity
8
1
62
256
6
ByLayer
370
-1
48
1
60
0
100
AcDbLine
10
198.555563
20
-5.559704
30
0
11
198.357173
21
-1.78126
31
0
39
0
210
0
220
0
230
1
0
LINE
5
E5
100
AcDbEntity
8
1
62
256
6
ByLayer
370
-1
48
1
60
0
100
AcDbLine
10
199.908896
20
-10.273361
30
0
11
199.999634
21
-7.679791
31
0
39
0
210
0
220
0
230
1
0
LINE
5
E6
100
AcDbEntity
8
1
62
256
6
ByLayer
370
-1
48
1
60
0
100
AcDbLine
10
199.246031
20
-5.610587
30
0
11
198.755289
21
-5.549257
31
0
39
0
210
0
220
0
230
1
0
LINE
5
E7
100
AcDbEntity
8
1
62
256
6
ByLayer
370
-1
48
1
60
0
100
AcDbLine
10
199.79028
20
-6.718508
30
0
11
199.545973
21
-6.704475
31
0
39
0
210
0
220
0
230
1
0
LINE
5
E8
100
AcDbEntity
8
1
62
256
6
ByLayer
370
-1
48
1
60
0
100
AcDbLine
10
198.967002
20
-9.048041
30
0
11
199.023964
21
-7.419904
31
0
39
0
210
0
220
0
230
1
0
LINE
5
E9
100
AcDbEntity
8
1
62
256
6
ByLayer
370
-1
48
1
60
0
100
AcDbLine
10
199.025475
20
-10.756647
30
0
11
198.491151
21
-10.889774
31
0
39
0
210
0
220
0
230
1
0
LINE
5
EA
100
AcDbEntity
8
1
62
256
6
ByLayer
370
-1
48
1
60
0
100
AcDbLine
10
199.049238
20
-10.730302
30
0
11
198.666441
21
-9.844588
31
0
39
0
210
0
220
0
230
1
0
LINE
5
EB
100
AcDbEntity
8
1
62
256
6
ByLayer
370
-1
48
1
60
0
100
AcDbLine
10
198.276808
20
-1.485647
30
0
11
198.072887
21
-1.09236
31
0
39
0
210
0
220
0
230
1
0
LINE
5
EC
100
AcDbEntity
8
1
62
256
6
ByLayer
370
-1
48
1
60
0
100
AcDbLine
10
199.289656
20
-1.564436
30
0
11
198.528574
21
0.522718
31
0
39
0
210
0
220
0
230
1
0
LINE
5
ED
100
AcDbEntity
8
1
62
256
6
ByLayer
370
-1
48
1
60
0
100
AcDbLine
10
198.535966
20
-9.911988
30
0
11
198.666441
21
-9.844588
31
0
39
0
210
0
220
0
230
1
0
LINE
5
EE
100
AcDbEntity
8
1
62
256
6
ByLayer
370
-1
48
1
60
0
100
AcDbLine
10
198.522074
20
0.136784
30
0
11
198.019067
21
-0.022784
31
0
39
0
210
0
220
0
230
1
0
LINE
5
EF
100
AcDbEntity
8
1
62
256
6
ByLayer
370
-1
48
1
60
0
100
AcDbLine
10
199.289656
20
-1.564436
30
0
11
199.03131
21
-1.487258
31
0
39
0
210
0
220
0
230
1
0
LINE
5
F0
100
AcDbEntity
8
1
62
256
6
ByLayer
370
-1
48
1
60
0
100
AcDbLine
10
199.514473
20
-10.815224
30
0
11
199.418735
21
-10.697016
31
0
39
0
210
0
220
0
230
1
0
LINE
5
F1
100
AcDbEntity
8
1
62
256
6
ByLayer
370
-1
48
1
60
0
100
AcDbLine
10
199.657997
20
-9.159127
30
0
11
199.714959
21
-7.53099
31
0
39
0
210
0
220
0
230
1
0
LINE
5
F2
100
AcDbEntity
8
1
62
256
6
ByLayer
370
-1
48
1
60
0
100
AcDbLine
10
198.491389
20
-10.86929
30
0
11
199.049238
21
-10.730302
31
0
39
0
210
0
220
0
230
1
0
LINE
5
F3
100
AcDbEntity
8
1
62
256
6
ByLayer
370
-1
48
1
60
0
100
AcDbLine
10
199.714959
20
-7.53099
30
0
11
199.223842
21
-7.426871
31
0
39
0
210
0
220
0
230
1
0
LINE
5
F4
100
AcDbEntity
8
1
62
256
6
ByLayer
370
-1
48
1
60
0
100
AcDbLine
10
199.246031
20
-5.610587
30
0
11
199.047641
21
-1.832142
31
0
39
0
210
0
220
0
230
1
0
LINE
5
F5
100
AcDbEntity
8
1
62
256
6
ByLayer
370
-1
48
1
60
0
100
AcDbLine
10
198.528574
20
0.522718
30
0
11
198.459016
21
0.475937
31
0
39
0
210
0
220
0
230
1
0
LINE
5
F6
100
AcDbEntity
8
1
62
256
6
ByLayer
370
-1
48
1
60
0
100
AcDbLine
10
199.535421
20
-6.706617
30
0
11
199.095745
21
-6.838693
31
0
39
0
210
0
220
0
230
1
0
LINE
5
F7
100
AcDbEntity
8
1
62
256
6
ByLayer
370
-1
48
1
60
0
100
AcDbLine
10
198.932292
20
-1.242301
30
0
11
198.45443
21
-1.393892
31
0
39
0
210
0
220
0
230
1
0
LINE
5
F8
100
AcDbEntity
8
1
62
256
6
ByLayer
370
-1
48
1
60
0
100
AcDbLine
10
199.726745
20
-7.534516
30
0
11
199.669783
21
-9.162653
31
0
39
0
210
0
220
0
230
1
0
LINE
5
F9
100
AcDbEntity
8
SK1
62
256
6
ByLayer
370
-1
48
1
60
0
100
AcDbLine
10
-0.2
20
9.102703
30
0
11
-0.2
21
9.32792
31
0
39
0
210
0
220
0
230
1
0
LINE
5
FB
100
AcDbEntity
8
SK1
62
256
6
ByLayer
370
-1
48
1
60
0
100
AcDbLine
10
-1.307107
20
7.175352
30
0
11
-1.307107
21
-7.175351
31
0
39
0
210
0
220
0
230
1
0
LINE
5
FC
100
AcDbEntity
8
SK1
62
256
6
ByLayer
370
-1
48
1
60
0
100
AcDbLine
10
-0.2
20
-9.327919
30
0
11
-0.2
21
-9.102703
31
0
39
0
210
0
220
0
230
1
0
MTEXT
5
2AD
100
AcDbEntity
8
SK6
62
256
6
ByLayer
370
-1
48
1
60
0
100
AcDbMText
10
0.79375
20
-80.79375
30
0
210
0
220
0
230
1
1
\W00.742;\fsimplex.shx,bigfont.shx;880-D4200C6-03M1 
40
3.175
41
0
44
1.084337
50
0
71
7
72
5
7
DEFAULT
0
DIMENSION
5
2DD
100
AcDbEntity
8
SK2
62
256
6
ByLayer
370
-3
48
1
60
0
100
AcDbDimension
2
DimnDraft3D1
10
200
20
-70.31875
30
0
11
81
21
-70.31875
31
0
70
32
71
5
72
1
41
1
210
0
220
0
230
1
3
Standard
100
AcDbAlignedDimension
13
-38
23
-4.5875
33
0
14
200
24
-22.5875
34
0
50
0
100
AcDbRotatedDimension
1001
ACAD
1000
DSTYLE
1002
{
1070
   279
1070
     0
1070
   172
1070
     1
1070
   173
1070
     1
1070
   340
1005
2AE
1070
   271
1070
     1
1070
   272
1070
     2
1070
    77
1070
     1
1070
    73
1070
     0
1070
   171
1070
     3
1070
   274
1070
     4
1070
   177
1070
   150
1070
   176
1070
     9
1070
   178
1070
    43
1070
    78
1070
     8
1070
    48
1040
-0.005
1070
    41
1041
4.175
1070
   147
1041
2.25
1070
    42
1041
1.5875
1070
    44
1041
3.175
1070
   140
1041
4.5
1070
   343
1005
0
1070
   344
1005
0
1002
}
0
DIMENSION
5
2E7
100
AcDbEntity
8
SK2
62
256
6
ByLayer
370
-3
48
1
60
0
100
AcDbDimension
2
DimnDraft3D2
10
0
20
-58.35
30
0
11
-19
21
-58.35
31
0
70
32
71
5
72
1
41
1
210
0
220
0
230
1
3
Standard
100
AcDbAlignedDimension
13
-38
23
-4.5875
33
0
14
0
24
-33.0875
34
0
50
0
100
AcDbRotatedDimension
1001
ACAD
1000
DSTYLE
1002
{
1070
   279
1070
     0
1070
   172
1070
     1
1070
   173
1070
     1
1070
   340
1005
2AE
1070
   271
1070
     1
1070
   272
1070
     2
1070
    77
1070
     1
1070
    73
1070
     0
1070
   171
1070
     3
1070
   274
1070
     4
1070
   177
1070
   150
1070
   176
1070
     9
1070
   178
1070
    43
1070
    78
1070
     8
1070
    48
1040
-0.005
1070
    41
1041
4.175
1070
   147
1041
2.25
1070
    42
1041
1.5875
1070
    44
1041
3.175
1070
   140
1041
4.5
1070
   343
1005
0
1070
   344
1005
0
1002
}
0
DIMENSION
5
2F2
100
AcDbEntity
8
2
62
256
6
ByLayer
370
-3
48
1
60
0
100
AcDbDimension
2
DimnDraft3D3
10
200
20
-58.35
30
0
11
100
21
-58.35
31
0
70
32
71
5
72
1
41
1
210
0
220
0
230
1
3
Standard
100
AcDbAlignedDimension
13
0
23
-33.0875
33
0
14
200
24
-22.5875
34
0
50
0
100
AcDbRotatedDimension
1001
ACAD
1000
DSTYLE
1002
{
1070
   279
1070
     0
1070
   172
1070
     1
1070
   173
1070
     1
1070
   340
1005
2AE
1070
   271
1070
     1
1070
   272
1070
     2
1070
    77
1070
     1
1070
    73
1070
     0
1070
   171
1070
     3
1070
   274
1070
     4
1070
   177
1070
   150
1070
   176
1070
     9
1070
   178
1070
    43
1070
    78
1070
     8
1070
    48
1040
-0.005
1070
    41
1041
4.175
1070
   147
1041
2.25
1070
    42
1041
1.5875
1070
    44
1041
3.175
1070
   140
1041
4.5
1070
   343
1005
0
1070
   344
1005
0
1002
}
0
DIMENSION
5
2FC
100
AcDbEntity
8
SK2
62
256
6
ByLayer
370
-3
48
1
60
0
100
AcDbDimension
2
DimnDraft3D4
10
200
20
-48.35
30
0
11
135
21
-48.35
31
0
70
32
71
5
72
1
41
1
210
0
220
0
230
1
3
Standard
100
AcDbAlignedDimension
13
70
23
-11.5875
33
0
14
200
24
-22.5875
34
0
50
0
100
AcDbRotatedDimension
1001
ACAD
1000
DSTYLE
1002
{
1070
   279
1070
     0
1070
   172
1070
     1
1070
   173
1070
     1
1070
   340
1005
2AE
1070
   271
1070
     1
1070
   272
1070
     2
1070
    77
1070
     1
1070
    73
1070
     0
1070
   171
1070
     3
1070
   274
1070
     4
1070
   177
1070
   150
1070
   176
1070
     9
1070
   178
1070
    43
1070
    78
1070
     8
1070
    48
1040
-0.005
1070
    41
1041
4.175
1070
   147
1041
2.25
1070
    42
1041
1.5875
1070
    44
1041
3.175
1070
   140
1041
4.5
1070
   343
1005
0
1070
   344
1005
0
1002
}
0
DIMENSION
5
307
100
AcDbEntity
8
SK2
62
256
6
ByLayer
370
-3
48
1
60
0
100
AcDbDimension
2
DimnDraft3D5
10
-60.089798
20
31.5
30
0
11
-60.289798
21
4.121053
31
0
70
33
71
5
72
1
41
1
210
0
220
0
230
1
3
Standard
100
AcDbAlignedDimension
13
-1.5875
23
-31.5
33
0
14
-1.5875
24
31.5
34
0
1001
ACAD
1000
DSTYLE
1002
{
1070
   279
1070
     0
1070
    74
1070
     0
1070
   173
1070
     1
1070
   340
1005
2AE
1070
   271
1070
     1
1070
   272
1070
     2
1070
    77
1070
     1
1070
    73
1070
     0
1070
   171
1070
     3
1070
   274
1070
     4
1070
   177
1070
   150
1070
   176
1070
     9
1070
   178
1070
    43
1070
    78
1070
     8
1070
    48
1040
-0.005
1070
    41
1041
4.175
1070
   147
1041
2.25
1070
    42
1041
1.5875
1070
    44
1041
3.175
1070
   140
1041
4.5
1070
   343
1005
0
1070
   344
1005
0
1002
}
0
DIMENSION
5
312
100
AcDbEntity
8
2
62
256
6
ByLayer
370
-3
48
1
60
0
100
AcDbDimension
2
DimnDraft3D6
10
230.15
20
-21
30
0
11
223.6
21
3.884211
31
0
70
33
71
5
72
1
41
1
210
0
220
0
230
1
3
Standard
100
AcDbAlignedDimension
13
201.5875
23
21
33
0
14
201.5875
24
-21
34
0
1001
ACAD
1000
DSTYLE
1002
{
1070
   279
1070
     0
1070
    74
1070
     0
1070
   173
1070
     1
1070
   340
1005
2AE
1070
   271
1070
     2
1070
   272
1070
     2
1070
    77
1070
     1
1070
    73
1070
     0
1070
   171
1070
     3
1070
   274
1070
     4
1070
   177
1070
   150
1070
   176
1070
     9
1070
   178
1070
    43
1070
    78
1070
     8
1070
    48
1040
-0.005
1070
    41
1041
4.175
1070
   147
1041
2.25
1070
    42
1041
1.5875
1070
    44
1041
3.175
1070
   140
1041
4.5
1070
   343
1005
0
1070
   344
1005
0
1002
}
0
ENDSEC
0
SECTION
2
OBJECTS
0
DICTIONARY
5
343
330
0
100
AcDbDictionary
280
0
281
1
3
ACAD_GROUP
350
344
3
ACAD_MLINESTYLE
350
345
0
DICTIONARY
5
344
330
0
100
AcDbDictionary
280
0
281
1
0
DICTIONARY
5
345
330
0
100
AcDbDictionary
280
0
281
1
3
Standard
350
18
0
MLINESTYLE
5
18
330
345
100
AcDbMlineStyle
2
Standard
70
0
3

62
256
51
90
52
90
71
2
49
-0.5
62
256
6
ByLayer
49
0.5
62
256
6
ByLayer
0
RASTERVARIABLES
5
331
330

100
AcDbRasterVariables
90
0
70
1
71
1
72
1
0
ENDSEC
0
EOF
