0
SECTION
2
HEADER
9
$ACADVER
1
AC1015
9
$DWGCODEPAGE
3
ANSI_1252
9
$HANDSEED
5
333
9
$ANGBASE
50
0
9
$ANGDIR
70
0
9
$ATTMODE
70
1
9
$AUNITS
70
0
9
$AUPREC
70
0
9
$CECOLOR
62
256
9
$CELTSCALE
40
1
9
$CELTYPE
6
ByLayer
9
$CELWEIGHT
370
-1
9
$CLAYER
8
0
9
$CMLJUST
70
0
9
$CMLSCALE
40
1
9
$CMLSTYLE
2
Standard
9
$DIMSTYLE
2
Standard
9
$TEXTSIZE
40
0.2
9
$TEXTSTYLE
7
Standard
9
$LUNITS
70
2
9
$LUPREC
70
4
9
$EXTNAMES
290
1
9
$INSUNITS
70
4
9
$LTSCALE
40
1
9
$LWDISPLAY
290
0
9
$PDMODE
70
0
9
$PDSIZE
40
0
9
$PLINEGEN
70
0
0
ENDSEC
0
SECTION
2
CLASSES
0
CLASS
1
RASTERVARIABLES
2
AcDbRasterVariables
3
ISM
90
0
280
0
281
0
0
ENDSEC
0
SECTION
2
TABLES
0
TABLE
2
VPORT
5
329
100
AcDbSymbolTable
0
VPORT
5
1
100
AcDbSymbolTableRecord
100
AcDbViewportTableRecord
2
*Active
70
0
10
0
20
0
11
1
21
1
12
-1
22
1
13
0
23
0
14
0.5
24
0.5
15
10
25
10
16
0
26
0
36
1
17
0
27
0
37
0
0
ENDTAB
0
TABLE
2
LTYPE
5
32a
100
AcDbSymbolTable
0
LTYPE
5
14
100
AcDbSymbolTableRecord
100
AcDbLinetypeTableRecord
70
0
2
ByBlock
3

72
65
73
0
40
0
0
LTYPE
5
15
100
AcDbSymbolTableRecord
100
AcDbLinetypeTableRecord
70
0
2
ByLayer
3

72
65
73
0
40
0
0
LTYPE
5
16
100
AcDbSymbolTableRecord
100
AcDbLinetypeTableRecord
70
0
2
CONTINUOUS
3
Solid line
72
65
73
0
40
0
0
LTYPE
5
3B
100
AcDbSymbolTableRecord
100
AcDbLinetypeTableRecord
70
0
2
DASHED
3
__ __ __ __ __ __ __ __ __
72
65
73
2
40
25.72
49
12.86
74
0
49
-12.86
74
0
0
LTYPE
5
3C
100
AcDbSymbolTableRecord
100
AcDbLinetypeTableRecord
70
0
2
HIDDEN
3
_ _ _ _ _ _ _ _ _ _ _ _ _ _ _
72
65
73
2
40
0.5
49
0.25
74
0
49
-0.25
74
0
0
LTYPE
5
3D
100
AcDbSymbolTableRecord
100
AcDbLinetypeTableRecord
70
0
2
PHANTOM
3
____ _ _ ____ _ _ _____ _ _ ____
72
65
73
6
40
50.5
49
18
74
0
49
-6.5
74
0
49
6.5
74
0
49
-6.5
74
0
49
6.5
74
0
49
-6.5
74
0
0
LTYPE
5
3E
100
AcDbSymbolTableRecord
100
AcDbLinetypeTableRecord
70
0
2
CENTER
3
____ _ ____ _ ____ _ ____
72
65
73
4
40
47.5
49
22
74
0
49
-8.5
74
0
49
8.5
74
0
49
-8.5
74
0
0
LTYPE
5
3F
100
AcDbSymbolTableRecord
100
AcDbLinetypeTableRecord
70
0
2
DOT
3
.........................
72
65
73
2
40
10
49
0
74
0
49
-10
74
0
0
LTYPE
5
40
100
AcDbSymbolTableRecord
100
AcDbLinetypeTableRecord
70
0
2
DASHDOT
3
_._._._._._._._._._._._._._._._.
72
65
73
4
40
70
49
31
74
0
49
-13
74
0
49
13
74
0
49
-13
74
0
0
ENDTAB
0
TABLE
2
LAYER
5
32b
100
AcDbSymbolTable
0
LAYER
5
10
100
AcDbSymbolTableRecord
100
AcDbLayerTableRecord
2
0
70
0
62
7
6
CONTINUOUS
290
1
370
-3
390
0
0
LAYER
5
42
100
AcDbSymbolTableRecord
100
AcDbLayerTableRecord
2
81
70
0
62
-3
6
CONTINUOUS
290
1
370
-3
390
0
0
LAYER
5
44
100
AcDbSymbolTableRecord
100
AcDbLayerTableRecord
2
80
70
0
62
-6
6
CONTINUOUS
290
1
370
-3
390
0
0
LAYER
5
57
100
AcDbSymbolTableRecord
100
AcDbLayerTableRecord
2
1
70
0
62
4
6
CONTINUOUS
290
1
370
-3
390
0
0
LAYER
5
5E
100
AcDbSymbolTableRecord
100
AcDbLayerTableRecord
2
4
70
0
62
-2
6
CENTER
290
1
370
-3
390
0
0
LAYER
5
2C2
100
AcDbSymbolTableRecord
100
AcDbLayerTableRecord
2
2
70
0
62
7
6
CONTINUOUS
290
1
370
-3
390
0
0
LAYER
5
315
100
AcDbSymbolTableRecord
100
AcDbLayerTableRecord
2
SK1
70
0
62
4
6
CONTINUOUS
290
1
370
-3
390
0
0
LAYER
5
316
100
AcDbSymbolTableRecord
100
AcDbLayerTableRecord
2
SK4
70
0
62
2
6
CENTER
290
1
370
-3
390
0
0
LAYER
5
317
100
AcDbSymbolTableRecord
100
AcDbLayerTableRecord
2
SK6
70
0
62
5
6
CONTINUOUS
290
1
370
-3
390
0
0
LAYER
5
318
100
AcDbSymbolTableRecord
100
AcDbLayerTableRecord
2
SK2
70
0
62
7
6
CONTINUOUS
290
1
370
-3
390
0
0
ENDTAB
0
TABLE
2
STYLE
5
32c
100
AcDbSymbolTable
0
STYLE
5
11
100
AcDbSymbolTableRecord
100
AcDbTextStyleTableRecord
2
Standard
3
txt
70
0
71
0
40
0
41
1
42
0
50
0
0
STYLE
5
286
100
AcDbSymbolTableRecord
100
AcDbTextStyleTableRecord
2
DEFAULT
3
simplex.shx
70
0
71
0
40
0
41
1
42
0
50
0
0
STYLE
5
2A9
100
AcDbSymbolTableRecord
100
AcDbTextStyleTableRecord
2
DWGDirectTextStyle
3
SIMPLEX
70
0
71
0
40
0
41
1
42
0
50
0
0
ENDTAB
0
TABLE
2
DIMSTYLE
5
32d
100
AcDbSymbolTable
100
AcDbDimStyleTable
0
DIMSTYLE
105
27
100
AcDbSymbolTableRecord
100
AcDbDimStyleTableRecord
2
Standard
70
0
3
<>
41
0.18
42
0.0625
44
0.18
140
0.18
147
0.09
73
0
74
0
77
1
271
2
275
0
278
52
280
0
340
11
0
ENDTAB
0
TABLE
2
VIEW
5
32e
100
AcDbSymbolTable
0
ENDTAB
0
TABLE
2
UCS
5
32f
100
AcDbSymbolTable
0
ENDTAB
0
TABLE
2
APPID
5
330
100
AcDbSymbolTable
0
APPID
5
12
100
AcDbSymbolTableRecord
100
AcDbRegAppTableRecord
2
ACAD
70
0
0
ENDTAB
0
TABLE
2
BLOCK_RECORD
5
331
100
AcDbSymbolTable
0
BLOCK_RECORD
5
1F
100
AcDbSymbolTableRecord
100
AcDbBlockTableRecord
2
*Model_Space
340
0
70
0
0
BLOCK_RECORD
5
1B
100
AcDbSymbolTableRecord
100
AcDbBlockTableRecord
2
*Paper_Space
340
0
70
0
0
BLOCK_RECORD
5
23
100
AcDbSymbolTableRecord
100
AcDbBlockTableRecord
2
*Paper_Space0
340
0
70
0
0
BLOCK_RECORD
5
2AB
100
AcDbSymbolTableRecord
100
AcDbBlockTableRecord
2
DimnDraft3D1
340
0
70
0
0
BLOCK_RECORD
5
2B6
100
AcDbSymbolTableRecord
100
AcDbBlockTableRecord
2
DimnDraft3D2
340
0
70
0
0
BLOCK_RECORD
5
2C0
100
AcDbSymbolTableRecord
100
AcDbBlockTableRecord
2
DimnDraft3D3
340
0
70
0
0
BLOCK_RECORD
5
2CB
100
AcDbSymbolTableRecord
100
AcDbBlockTableRecord
2
DimnDraft3D4
340
0
70
0
0
BLOCK_RECORD
5
2D5
100
AcDbSymbolTableRecord
100
AcDbBlockTableRecord
2
DimnDraft3D5
340
0
70
0
0
BLOCK_RECORD
5
2E0
100
AcDbSymbolTableRecord
100
AcDbBlockTableRecord
2
DimnDraft3D6
340
0
70
0
0
BLOCK_RECORD
5
2EB
100
AcDbSymbolTableRecord
100
AcDbBlockTableRecord
2
DimnDraft3D7
340
0
70
0
0
ENDTAB
0
ENDSEC
0
SECTION
2
BLOCKS
0
BLOCK
5
20
100
AcDbEntity
8
0
100
AcDbBlockBegin
2
*Model_Space
70
0
10
0
20
0
30
0
3
*Model_Space
0
ENDBLK
5
21
100
AcDbEntity
8
0
100
AcDbBlockEnd
0
BLOCK
5
1C
100
AcDbEntity
8
0
100
AcDbBlockBegin
2
*Paper_Space
70
0
10
0
20
0
30
0
3
*Paper_Space
0
ENDBLK
5
1D
100
AcDbEntity
8
0
100
AcDbBlockEnd
0
BLOCK
5
24
100
AcDbEntity
8
0
100
AcDbBlockBegin
2
*Paper_Space0
70
0
10
0
20
0
30
0
3
*Paper_Space0
0
ENDBLK
5
25
100
AcDbEntity
8
0
100
AcDbBlockEnd
0
BLOCK
5
2B3
100
AcDbEntity
8
0
100
AcDbBlockBegin
2
DimnDraft3D1
70
0
10
0
20
0
30
0
3
DimnDraft3D1
0
MTEXT
5
2AC
100
AcDbEntity
8
SK2
62
256
6
ByLayer
370
-1
48
1
60
0
100
AcDbMText
10
14.406579
20
-60.5258
30
0
210
0
220
0
230
1
1
\W01.000;\fsimplex.shx,bigfont.shx;(183) 
40
4.5
41
0
44
1.084337
50
0
71
7
72
5
7
DEFAULT
0
LINE
5
2AE
100
AcDbEntity
8
SK2
62
256
6
ByLayer
370
-1
48
1
60
0
100
AcDbLine
10
-70
20
-21.5875
30
0
11
-70
21
-66.79455
31
0
39
0
210
0
220
0
230
1
0
LINE
5
2AF
100
AcDbEntity
8
SK2
62
256
6
ByLayer
370
-1
48
1
60
0
100
AcDbLine
10
113
20
-21.5875
30
0
11
113
21
-66.79455
31
0
39
0
210
0
220
0
230
1
0
LINE
5
2B0
100
AcDbEntity
8
SK2
62
256
6
ByLayer
370
-1
48
1
60
0
100
AcDbLine
10
-70
20
-63.61955
30
0
11
113
21
-63.61955
31
0
39
0
210
0
220
0
230
1
0
SOLID
5
2B1
100
AcDbEntity
8
SK2
62
256
6
ByLayer
370
-1
48
1
60
0
100
AcDbTrace
10
-70
20
-63.61955
30
0
11
-65.825003
21
-62.693975
31
0
12
-65.824997
22
-64.545125
32
0
13
-70
23
-63.61955
33
0
39
0
210
0
220
0
230
1
0
SOLID
5
2B2
100
AcDbEntity
8
SK2
62
256
6
ByLayer
370
-1
48
1
60
0
100
AcDbTrace
10
113
20
-63.61955
30
0
11
108.825003
21
-64.545125
31
0
12
108.824997
22
-62.693975
32
0
13
113
23
-63.61955
33
0
39
0
210
0
220
0
230
1
0
ENDBLK
5
2B4
100
AcDbEntity
8
0
100
AcDbBlockEnd
0
BLOCK
5
2BD
100
AcDbEntity
8
0
100
AcDbBlockBegin
2
DimnDraft3D2
70
0
10
0
20
0
30
0
3
DimnDraft3D2
0
MTEXT
5
2B7
100
AcDbEntity
8
SK2
62
256
6
ByLayer
370
-1
48
1
60
0
100
AcDbMText
10
-36.503947
20
-50.5258
30
0
210
0
220
0
230
1
1
\W01.000;\fsimplex.shx,bigfont.shx;70 
40
4.5
41
0
44
1.084337
50
0
71
7
72
5
7
DEFAULT
0
LINE
5
2B8
100
AcDbEntity
8
SK2
62
256
6
ByLayer
370
-1
48
1
60
0
100
AcDbLine
10
-70
20
-21.5875
30
0
11
-70
21
-54.8258
31
0
39
0
210
0
220
0
230
1
0
LINE
5
2B9
100
AcDbEntity
8
SK2
62
256
6
ByLayer
370
-1
48
1
60
0
100
AcDbLine
10
0
20
-26.3375
30
0
11
0
21
-54.8258
31
0
39
0
210
0
220
0
230
1
0
LINE
5
2BA
100
AcDbEntity
8
SK2
62
256
6
ByLayer
370
-1
48
1
60
0
100
AcDbLine
10
-70
20
-51.6508
30
0
11
0
21
-51.6508
31
0
39
0
210
0
220
0
230
1
0
SOLID
5
2BB
100
AcDbEntity
8
SK2
62
256
6
ByLayer
370
-1
48
1
60
0
100
AcDbTrace
10
-70
20
-51.6508
30
0
11
-65.825003
21
-50.725225
31
0
12
-65.824997
22
-52.576375
32
0
13
-70
23
-51.6508
33
0
39
0
210
0
220
0
230
1
0
SOLID
5
2BC
100
AcDbEntity
8
SK2
62
256
6
ByLayer
370
-1
48
1
60
0
100
AcDbTrace
10
0
20
-51.6508
30
0
11
-4.174997
21
-52.576375
31
0
12
-4.175003
22
-50.725225
32
0
13
0
23
-51.6508
33
0
39
0
210
0
220
0
230
1
0
ENDBLK
5
2BE
100
AcDbEntity
8
0
100
AcDbBlockEnd
0
BLOCK
5
2C8
100
AcDbEntity
8
0
100
AcDbBlockBegin
2
DimnDraft3D3
70
0
10
0
20
0
30
0
3
DimnDraft3D3
0
MTEXT
5
2C1
100
AcDbEntity
8
2
62
256
6
ByLayer
370
-1
48
1
60
0
100
AcDbMText
10
54.469079
20
-50.5258
30
0
210
0
220
0
230
1
1
\W01.000;\fsimplex.shx,bigfont.shx;113 
40
4.5
41
0
44
1.084337
50
0
71
7
72
5
7
DEFAULT
0
LINE
5
2C3
100
AcDbEntity
8
2
62
256
6
ByLayer
370
-1
48
1
60
0
100
AcDbLine
10
0
20
-26.3375
30
0
11
0
21
-54.8258
31
0
39
0
210
0
220
0
230
1
0
LINE
5
2C4
100
AcDbEntity
8
2
62
256
6
ByLayer
370
-1
48
1
60
0
100
AcDbLine
10
113
20
-21.5875
30
0
11
113
21
-54.8258
31
0
39
0
210
0
220
0
230
1
0
LINE
5
2C5
100
AcDbEntity
8
2
62
256
6
ByLayer
370
-1
48
1
60
0
100
AcDbLine
10
0
20
-51.6508
30
0
11
113
21
-51.6508
31
0
39
0
210
0
220
0
230
1
0
SOLID
5
2C6
100
AcDbEntity
8
2
62
256
6
ByLayer
370
-1
48
1
60
0
100
AcDbTrace
10
0
20
-51.6508
30
0
11
4.174997
21
-50.725225
31
0
12
4.175003
22
-52.576375
32
0
13
0
23
-51.6508
33
0
39
0
210
0
220
0
230
1
0
SOLID
5
2C7
100
AcDbEntity
8
2
62
256
6
ByLayer
370
-1
48
1
60
0
100
AcDbTrace
10
113
20
-51.6508
30
0
11
108.825003
21
-52.576375
31
0
12
108.824997
22
-50.725225
32
0
13
113
23
-51.6508
33
0
39
0
210
0
220
0
230
1
0
ENDBLK
5
2C9
100
AcDbEntity
8
0
100
AcDbBlockEnd
0
BLOCK
5
2D2
100
AcDbEntity
8
0
100
AcDbBlockBegin
2
DimnDraft3D4
70
0
10
0
20
0
30
0
3
DimnDraft3D4
0
MTEXT
5
2CC
100
AcDbEntity
8
SK2
62
256
6
ByLayer
370
-1
48
1
60
0
100
AcDbMText
10
69.259211
20
-40.5258
30
0
210
0
220
0
230
1
1
\W01.000;\fsimplex.shx,bigfont.shx;84 
40
4.5
41
0
44
1.084337
50
0
71
7
72
5
7
DEFAULT
0
LINE
5
2CD
100
AcDbEntity
8
SK2
62
256
6
ByLayer
370
-1
48
1
60
0
100
AcDbLine
10
29
20
-11.5875
30
0
11
29
21
-44.8258
31
0
39
0
210
0
220
0
230
1
0
LINE
5
2CE
100
AcDbEntity
8
SK2
62
256
6
ByLayer
370
-1
48
1
60
0
100
AcDbLine
10
113
20
-21.5875
30
0
11
113
21
-44.8258
31
0
39
0
210
0
220
0
230
1
0
LINE
5
2CF
100
AcDbEntity
8
SK2
62
256
6
ByLayer
370
-1
48
1
60
0
100
AcDbLine
10
29
20
-41.6508
30
0
11
113
21
-41.6508
31
0
39
0
210
0
220
0
230
1
0
SOLID
5
2D0
100
AcDbEntity
8
SK2
62
256
6
ByLayer
370
-1
48
1
60
0
100
AcDbTrace
10
29
20
-41.6508
30
0
11
33.174997
21
-40.725225
31
0
12
33.175003
22
-42.576375
32
0
13
29
23
-41.6508
33
0
39
0
210
0
220
0
230
1
0
SOLID
5
2D1
100
AcDbEntity
8
SK2
62
256
6
ByLayer
370
-1
48
1
60
0
100
AcDbTrace
10
113
20
-41.6508
30
0
11
108.825003
21
-42.576375
31
0
12
108.824997
22
-40.725225
32
0
13
113
23
-41.6508
33
0
39
0
210
0
220
0
230
1
0
ENDBLK
5
2D3
100
AcDbEntity
8
0
100
AcDbBlockEnd
0
BLOCK
5
2DD
100
AcDbEntity
8
0
100
AcDbBlockBegin
2
DimnDraft3D5
70
0
10
0
20
0
30
0
3
DimnDraft3D5
0
MTEXT
5
2D6
100
AcDbEntity
8
SK2
62
256
6
ByLayer
370
-1
48
1
60
0
100
AcDbMText
10
-80.975
20
5.009211
30
0
210
0
220
0
230
1
1
\W01.000;\fsimplex.shx,bigfont.shx;40 
40
4.5
41
0
44
1.084337
50
90
71
7
72
5
7
DEFAULT
0
MTEXT
5
2D7
100
AcDbEntity
8
SK2
62
256
6
ByLayer
370
-1
48
1
60
0
100
AcDbMText
10
-80.975
20
-8.490789
30
0
210
0
220
0
230
1
1
\W01.000;\fsimplex.shx,bigfont.shx;%%c 
40
4.5
41
0
44
1.084337
50
90
71
7
72
5
7
DEFAULT
0
LINE
5
2D8
100
AcDbEntity
8
SK2
62
256
6
ByLayer
370
-1
48
1
60
0
100
AcDbLine
10
-71.5875
20
20
30
0
11
-81.9
21
20
31
0
39
0
210
0
220
0
230
1
0
LINE
5
2D9
100
AcDbEntity
8
SK2
62
256
6
ByLayer
370
-1
48
1
60
0
100
AcDbLine
10
-71.5875
20
-20
30
0
11
-81.9
21
-20
31
0
39
0
210
0
220
0
230
1
0
LINE
5
2DA
100
AcDbEntity
8
SK2
62
256
6
ByLayer
370
-1
48
1
60
0
100
AcDbLine
10
-78.725
20
20
30
0
11
-78.725
21
-20
31
0
39
0
210
0
220
0
230
1
0
SOLID
5
2DB
100
AcDbEntity
8
SK2
62
256
6
ByLayer
370
-1
48
1
60
0
100
AcDbTrace
10
-78.725
20
20
30
0
11
-77.799425
21
15.825003
31
0
12
-79.650575
22
15.824997
32
0
13
-78.725
23
20
33
0
39
0
210
0
220
0
230
1
0
SOLID
5
2DC
100
AcDbEntity
8
SK2
62
256
6
ByLayer
370
-1
48
1
60
0
100
AcDbTrace
10
-78.725
20
-20
30
0
11
-79.650575
21
-15.825003
31
0
12
-77.799425
22
-15.824997
32
0
13
-78.725
23
-20
33
0
39
0
210
0
220
0
230
1
0
ENDBLK
5
2DE
100
AcDbEntity
8
0
100
AcDbBlockEnd
0
BLOCK
5
2E8
100
AcDbEntity
8
0
100
AcDbBlockBegin
2
DimnDraft3D6
70
0
10
0
20
0
30
0
3
DimnDraft3D6
0
MTEXT
5
2E1
100
AcDbEntity
8
SK2
62
256
6
ByLayer
370
-1
48
1
60
0
100
AcDbMText
10
-90.975
20
2.475
30
0
210
0
220
0
230
1
1
\W01.000;\fsimplex.shx,bigfont.shx;49.5 
40
4.5
41
0
44
1.084337
50
90
71
7
72
5
7
DEFAULT
0
MTEXT
5
2E2
100
AcDbEntity
8
SK2
62
256
6
ByLayer
370
-1
48
1
60
0
100
AcDbMText
10
-90.975
20
-11.025
30
0
210
0
220
0
230
1
1
\W01.000;\fsimplex.shx,bigfont.shx;%%c 
40
4.5
41
0
44
1.084337
50
90
71
7
72
5
7
DEFAULT
0
LINE
5
2E3
100
AcDbEntity
8
SK2
62
256
6
ByLayer
370
-1
48
1
60
0
100
AcDbLine
10
-1.5875
20
-24.75
30
0
11
-91.9
21
-24.75
31
0
39
0
210
0
220
0
230
1
0
LINE
5
2E4
100
AcDbEntity
8
SK2
62
256
6
ByLayer
370
-1
48
1
60
0
100
AcDbLine
10
-1.5875
20
24.75
30
0
11
-91.9
21
24.75
31
0
39
0
210
0
220
0
230
1
0
LINE
5
2E5
100
AcDbEntity
8
SK2
62
256
6
ByLayer
370
-1
48
1
60
0
100
AcDbLine
10
-88.725
20
-24.75
30
0
11
-88.725
21
24.75
31
0
39
0
210
0
220
0
230
1
0
SOLID
5
2E6
100
AcDbEntity
8
SK2
62
256
6
ByLayer
370
-1
48
1
60
0
100
AcDbTrace
10
-88.725
20
-24.75
30
0
11
-89.650575
21
-20.575003
31
0
12
-87.799425
22
-20.574997
32
0
13
-88.725
23
-24.75
33
0
39
0
210
0
220
0
230
1
0
SOLID
5
2E7
100
AcDbEntity
8
SK2
62
256
6
ByLayer
370
-1
48
1
60
0
100
AcDbTrace
10
-88.725
20
24.75
30
0
11
-87.799425
21
20.575003
31
0
12
-89.650575
22
20.574997
32
0
13
-88.725
23
24.75
33
0
39
0
210
0
220
0
230
1
0
ENDBLK
5
2E9
100
AcDbEntity
8
0
100
AcDbBlockEnd
0
BLOCK
5
2F3
100
AcDbEntity
8
0
100
AcDbBlockBegin
2
DimnDraft3D7
70
0
10
0
20
0
30
0
3
DimnDraft3D7
0
MTEXT
5
2EC
100
AcDbEntity
8
2
62
256
6
ByLayer
370
-1
48
1
60
0
100
AcDbMText
10
137.725
20
5.009211
30
0
210
0
220
0
230
1
1
\W01.000;\fsimplex.shx,bigfont.shx;40 
40
4.5
41
0
44
1.084337
50
90
71
7
72
5
7
DEFAULT
0
MTEXT
5
2ED
100
AcDbEntity
8
2
62
256
6
ByLayer
370
-1
48
1
60
0
100
AcDbMText
10
137.725
20
-8.490789
30
0
210
0
220
0
230
1
1
\W01.000;\fsimplex.shx,bigfont.shx;%%c 
40
4.5
41
0
44
1.084337
50
90
71
7
72
5
7
DEFAULT
0
LINE
5
2EE
100
AcDbEntity
8
2
62
256
6
ByLayer
370
-1
48
1
60
0
100
AcDbLine
10
114.5875
20
20
30
0
11
143.15
21
20
31
0
39
0
210
0
220
0
230
1
0
LINE
5
2EF
100
AcDbEntity
8
2
62
256
6
ByLayer
370
-1
48
1
60
0
100
AcDbLine
10
114.5875
20
-20
30
0
11
143.15
21
-20
31
0
39
0
210
0
220
0
230
1
0
LINE
5
2F0
100
AcDbEntity
8
2
62
256
6
ByLayer
370
-1
48
1
60
0
100
AcDbLine
10
139.975
20
20
30
0
11
139.975
21
-20
31
0
39
0
210
0
220
0
230
1
0
SOLID
5
2F1
100
AcDbEntity
8
2
62
256
6
ByLayer
370
-1
48
1
60
0
100
AcDbTrace
10
139.975
20
20
30
0
11
140.900575
21
15.825003
31
0
12
139.049425
22
15.824997
32
0
13
139.975
23
20
33
0
39
0
210
0
220
0
230
1
0
SOLID
5
2F2
100
AcDbEntity
8
2
62
256
6
ByLayer
370
-1
48
1
60
0
100
AcDbTrace
10
139.975
20
-20
30
0
11
139.049425
21
-15.825003
31
0
12
140.900575
22
-15.824997
32
0
13
139.975
23
-20
33
0
39
0
210
0
220
0
230
1
0
ENDBLK
5
2F4
100
AcDbEntity
8
0
100
AcDbBlockEnd
0
ENDSEC
0
SECTION
2
ENTITIES
0
ARC
5
FC
100
AcDbEntity
8
SK1
62
256
6
ByLayer
370
-1
48
1
60
0
100
AcDbCircle
39
0
10
1.383773
20
20.15
30
0
40
0.4
210
0
220
0
230
-1
100
AcDbArc
50
270
51
295
0
ARC
5
FD
100
AcDbEntity
8
SK1
62
256
6
ByLayer
370
-1
48
1
60
0
100
AcDbCircle
39
0
10
1.383773
20
-20.15
30
0
40
0.4
210
0
220
0
230
-1
100
AcDbArc
50
65
51
90
0
ARC
5
FE
100
AcDbEntity
8
SK1
62
256
6
ByLayer
370
-1
48
1
60
0
100
AcDbCircle
39
0
10
0.15
20
20.15
30
0
40
0.4
210
0
220
0
230
-1
100
AcDbArc
50
247.975687
51
270
0
ARC
5
FF
100
AcDbEntity
8
SK1
62
256
6
ByLayer
370
-1
48
1
60
0
100
AcDbCircle
39
0
10
0.15
20
-20.15
30
0
40
0.4
210
0
220
0
230
-1
100
AcDbArc
50
90
51
112.024313
0
ARC
5
100
100
AcDbEntity
8
SK1
62
256
6
ByLayer
370
-1
48
1
60
0
100
AcDbCircle
39
0
10
67.894506
20
20.396
30
0
40
0.8
210
0
220
0
230
-1
100
AcDbArc
50
250.982048
51
321
0
ARC
5
101
100
AcDbEntity
8
SK1
62
256
6
ByLayer
370
-1
48
1
60
0
100
AcDbCircle
39
0
10
67.894506
20
-20.396
30
0
40
0.8
210
0
220
0
230
-1
100
AcDbArc
50
39
51
109.017952
0
ARC
5
102
100
AcDbEntity
8
1
62
256
6
ByLayer
370
-1
48
1
60
0
100
AcDbCircle
39
0
10
-83.5
20
24.6
30
0
40
16.0000000063794
210
0
220
0
230
-1
100
AcDbArc
50
283.185191
51
290.568834
0
ELLIPSE
5
103
100
AcDbEntity
8
1
62
256
6
ByLayer
370
-1
48
1
60
0
100
AcDbEllipse
10
106.098144
20
-3.9969
30
0
11
-1.425
21
1.44016065349237E-15
31
0
210
0
220
0
230
1
40
0.998135
41
0
42
6.28318530717959
0
ELLIPSE
5
104
100
AcDbEntity
8
1
62
256
6
ByLayer
370
-1
48
1
60
0
100
AcDbEllipse
10
96.251743
20
13.4
30
0
11
1.17145334231629E-16
21
0.100000000000001
31
0
210
0
220
0
230
1
40
0.978233
41
3.0123897405503
42
-1.5707963267949
0
ELLIPSE
5
105
100
AcDbEntity
8
1
62
256
6
ByLayer
370
-1
48
1
60
0
100
AcDbEllipse
10
106.95516
20
13.250584
30
0
11
2.05004334905348E-15
21
1.75
31
0
210
0
220
0
230
1
40
0.996195
41
0.117809954735433
42
1.57079669158491
0
ELLIPSE
5
106
100
AcDbEntity
8
1
62
256
6
ByLayer
370
-1
48
1
60
0
100
AcDbEllipse
10
106.95516
20
13.250584
30
0
11
2.05004334905348E-15
21
1.75
31
0
210
0
220
0
230
1
40
0.996195
41
1.57079612015634
42
2.92855344202946
0
ELLIPSE
5
107
100
AcDbEntity
8
1
62
256
6
ByLayer
370
-1
48
1
60
0
100
AcDbEllipse
10
106.345069
20
13.250584
30
0
11
-2.14373874554696E-15
21
-2
31
0
210
0
220
0
230
1
40
0.996195
41
1.57079654872777
42
-2.28776637790648
0
ELLIPSE
5
108
100
AcDbEntity
8
1
62
256
6
ByLayer
370
-1
48
1
60
0
100
AcDbEllipse
10
106.345069
20
13.250584
30
0
11
-2.14373874554696E-15
21
-2
31
0
210
0
220
0
230
1
40
0.996195
41
1.43845662458552
42
1.57079604872776
0
ELLIPSE
5
109
100
AcDbEntity
8
1
62
256
6
ByLayer
370
-1
48
1
60
0
100
AcDbEllipse
10
101.355858
20
11.911168
30
0
11
2.46005201886418E-15
21
2.1
31
0
210
0
220
0
230
1
40
0.996195
41
0.939111162055009
42
1.60570291183478
0
ELLIPSE
5
10A
100
AcDbEntity
8
1
62
256
6
ByLayer
370
-1
48
1
60
0
100
AcDbEllipse
10
94.18481
20
13.300834
30
0
11
-1.30344863303408
21
-9.81381789422657
31
0
210
0
220
0
230
1
40
0.205778
41
1.39323546910758
42
1.59812053503826
0
ELLIPSE
5
10B
100
AcDbEntity
8
1
62
256
6
ByLayer
370
-1
48
1
60
0
100
AcDbEllipse
10
100.491823
20
8.51784
30
0
11
-0.799516360141551
21
-0.0278134835287917
31
0
210
0
220
0
230
1
40
0.003042
41
0.0872135714651381
42
1.03850214476358
0
ELLIPSE
5
10C
100
AcDbEntity
8
1
62
256
6
ByLayer
370
-1
48
1
60
0
100
AcDbEllipse
10
101.786087
20
8.563209
30
0
11
-2.25092568282431E-15
21
-2.1
31
0
210
0
220
0
230
1
40
0.996195
41
-1.53588974175501
42
-0.132996608383605
0
ELLIPSE
5
10D
100
AcDbEntity
8
1
62
256
6
ByLayer
370
-1
48
1
60
0
100
AcDbEllipse
10
101.669619
20
11.911168
30
0
11
-2.25092568282431E-15
21
-2.1
31
0
210
0
220
0
230
1
40
0.996195
41
-2.15719865040109
42
-1.53588974175501
0
ELLIPSE
5
10E
100
AcDbEntity
8
1
62
256
6
ByLayer
370
-1
48
1
60
0
100
AcDbEllipse
10
106.098144
20
-4.176204
30
0
11
1.425
21
0
31
0
210
0
220
0
230
1
40
0.998135
41
0.0631266638635633
42
3.07856469988977
0
ELLIPSE
5
10F
100
AcDbEntity
8
1
62
256
6
ByLayer
370
-1
48
1
60
0
100
AcDbEllipse
10
106.098144
20
-4.176204
30
0
11
1.425
21
0
31
0
210
0
220
0
230
1
40
0.998135
41
-3.14159232533694
42
0
0
ELLIPSE
5
110
100
AcDbEntity
8
1
62
256
6
ByLayer
370
-1
48
1
60
0
100
AcDbEllipse
10
102.431294
20
-5.3E-05
30
0
11
-221.743317989415
21
9.17598048115214E-07
31
0
210
0
220
0
230
-1
40
0.087489
41
1.54750690959883
42
1.55743383249657
0
ELLIPSE
5
111
100
AcDbEntity
8
1
62
256
6
ByLayer
370
-1
48
1
60
0
100
AcDbEllipse
10
90.865629
20
8.209431
30
0
11
-20.187273431772
21
1.06198090461474
31
0
210
0
220
0
230
-1
40
0.000269
41
-3.13724127818611
42
-3.13647142473799
0
ELLIPSE
5
112
100
AcDbEntity
8
1
62
256
6
ByLayer
370
-1
48
1
60
0
100
AcDbEllipse
10
94.18481
20
13.300834
30
0
11
-1.30344863303408
21
-9.81381789422657
31
0
210
0
220
0
230
1
40
0.205778
41
0.203322704746767
42
0.917611509271017
0
ELLIPSE
5
113
100
AcDbEntity
8
1
62
256
6
ByLayer
370
-1
48
1
60
0
100
AcDbEllipse
10
73.164866
20
16.092662
30
0
11
-33.514623558421
21
14.4327011011611
31
0
210
0
220
0
230
-1
40
0.009423
41
2.14286522651104
42
2.18356593897096
0
ELLIPSE
5
114
100
AcDbEntity
8
1
62
256
6
ByLayer
370
-1
48
1
60
0
100
AcDbEllipse
10
110.633253
20
-11.052157
30
0
11
-0.20682146078435
21
-2.51326736275394
31
0
210
0
220
0
230
-1
40
0.125131
41
-2.33088138387049
42
2.41852518880148
0
ELLIPSE
5
115
100
AcDbEntity
8
1
62
256
6
ByLayer
370
-1
48
1
60
0
100
AcDbEllipse
10
106.098144
20
-3.9969
30
0
11
1.85
21
0
31
0
210
0
220
0
230
1
40
0.998135
41
0.0661696701652113
42
3.02947708498725
0
ELLIPSE
5
116
100
AcDbEntity
8
1
62
256
6
ByLayer
370
-1
48
1
60
0
100
AcDbEllipse
10
99.616474
20
0
30
0
11
-91.4554025565899
21
-1.03628088328187E-13
31
0
210
0
220
0
230
-1
40
0.212125
41
1.35863260676443
42
1.53506741178122
0
ELLIPSE
5
117
100
AcDbEntity
8
1
62
256
6
ByLayer
370
-1
48
1
60
0
100
AcDbEllipse
10
100.453184
20
13.998374
30
0
11
-0.773306864717624
21
-0.824449213966806
31
0
210
0
220
0
230
-1
40
0.04503
41
-0.757075831996125
42
-0.704857692331907
0
ELLIPSE
5
118
100
AcDbEntity
8
1
62
256
6
ByLayer
370
-1
48
1
60
0
100
AcDbEllipse
10
97.269484
20
0
30
0
11
-76.71263004582
21
1.26490406168613
31
0
210
0
220
0
230
-1
40
0.252354
41
-1.58655046345551
42
-1.39414082166776
0
ELLIPSE
5
119
100
AcDbEntity
8
1
62
256
6
ByLayer
370
-1
48
1
60
0
100
AcDbEllipse
10
98.811476
20
22.778342
30
0
11
-1.71499099643757E-14
21
-16
31
0
210
0
220
0
230
1
40
0.996195
41
-0.401425727958689
42
-6.79213922131082E-06
0
ELLIPSE
5
11A
100
AcDbEntity
8
1
62
256
6
ByLayer
370
-1
48
1
60
0
100
AcDbEllipse
10
101.472326
20
8.563209
30
0
11
2.46005201886418E-15
21
2.1
31
0
210
0
220
0
230
1
40
0.996195
41
1.60570291183478
42
2.05006495228011
0
ELLIPSE
5
11B
100
AcDbEntity
8
1
62
256
6
ByLayer
370
-1
48
1
60
0
100
AcDbEllipse
10
-22.180298
20
0
30
0
11
-345.021964982766
21
-18.7609766482214
31
0
210
0
220
0
230
-1
40
0.014313
41
-1.96031968085881
42
-1.92594037346757
0
ELLIPSE
5
11C
100
AcDbEntity
8
1
62
256
6
ByLayer
370
-1
48
1
60
0
100
AcDbEllipse
10
106.545528
20
13.250584
30
0
11
2.05004334905348E-15
21
1.75
31
0
210
0
220
0
230
1
40
0.996195
41
-1.92834881270219
42
0
0
ELLIPSE
5
11D
100
AcDbEntity
8
1
62
256
6
ByLayer
370
-1
48
1
60
0
100
AcDbEllipse
10
106.545528
20
13.250584
30
0
11
2.05004334905348E-15
21
1.75
31
0
210
0
220
0
230
1
40
0.996195
41
0
42
1.57079639567442
0
ELLIPSE
5
11E
100
AcDbEntity
8
1
62
256
6
ByLayer
370
-1
48
1
60
0
100
AcDbEllipse
10
106.545528
20
13.250584
30
0
11
2.05004334905348E-15
21
1.75
31
0
210
0
220
0
230
1
40
0.996195
41
1.57079612015634
42
2.65012947763563
0
ELLIPSE
5
11F
100
AcDbEntity
8
1
62
256
6
ByLayer
370
-1
48
1
60
0
100
AcDbEllipse
10
74.010601
20
15.980325
30
0
11
-1.30344863303408
21
-9.81381789422657
31
0
210
0
220
0
230
1
40
0.205778
41
1.3598039234543
42
1.42948558028152
0
ELLIPSE
5
120
100
AcDbEntity
8
1
62
256
6
ByLayer
370
-1
48
1
60
0
100
AcDbEllipse
10
110.885166
20
-11.10707
30
0
11
-0.147224381470064
21
2.58949763752951
31
0
210
0
220
0
230
-1
40
0.114677
41
-0.707843719964772
42
0.825935014541781
0
ELLIPSE
5
121
100
AcDbEntity
8
1
62
256
6
ByLayer
370
-1
48
1
60
0
100
AcDbEllipse
10
106.545528
20
13.250584
30
0
11
2.34290668463255E-15
21
2
31
0
210
0
220
0
230
1
40
0.996195
41
0.0503637830432935
42
1.49510350031178
0
ELLIPSE
5
122
100
AcDbEntity
8
1
62
256
6
ByLayer
370
-1
48
1
60
0
100
AcDbEllipse
10
100.375354
20
11.865799
30
0
11
-0.799516360141551
21
-0.0278134835287917
31
0
210
0
220
0
230
1
40
0.003042
41
0.0872135714673366
42
1.03850214476367
0
ELLIPSE
5
123
100
AcDbEntity
8
1
62
256
6
ByLayer
370
-1
48
1
60
0
100
AcDbEllipse
10
111.110629
20
0.558895
30
0
11
-0.0423478039974244
21
0.801917923824387
31
0
210
0
220
0
230
-1
40
0.119326
41
-1.49926740488532
42
0.0715289219118152
0
ELLIPSE
5
124
100
AcDbEntity
8
1
62
256
6
ByLayer
370
-1
48
1
60
0
100
AcDbEllipse
10
112.913286
20
0
30
0
11
-1.59532885468137
21
-19.3989522421191
31
0
210
0
220
0
230
-1
40
0.126383
41
0.0336822594285838
42
1.0842548511867
0
ELLIPSE
5
125
100
AcDbEntity
8
1
62
256
6
ByLayer
370
-1
48
1
60
0
100
AcDbEllipse
10
15.9
20
-9.232063
30
0
11
9.99999999999999
21
0
31
0
210
0
220
0
230
1
40
0.994816
41
3.14155457190138
42
-2.42222462071375
0
ELLIPSE
5
126
100
AcDbEntity
8
1
62
256
6
ByLayer
370
-1
48
1
60
0
100
AcDbEllipse
10
100.068948
20
-0.000153
30
0
11
-0.628144510653858
21
19.4000751037741
31
0
210
0
220
0
230
-1
40
0.087397
41
0.0161921979726822
42
0.0252051603757306
0
ELLIPSE
5
127
100
AcDbEntity
8
1
62
256
6
ByLayer
370
-1
48
1
60
0
100
AcDbEllipse
10
111.550767
20
0
30
0
11
-46.3254668124585
21
18.7888228117099
31
0
210
0
220
0
230
-1
40
0.104287
41
-1.15312407849007
42
-0.800275863626469
0
ELLIPSE
5
128
100
AcDbEntity
8
1
62
256
6
ByLayer
370
-1
48
1
60
0
100
AcDbEllipse
10
111.618467
20
-9.899068
30
0
11
-0.0775054657242802
21
-0.878086631932775
31
0
210
0
220
0
230
-1
40
0.115224
41
0.00370845515649122
42
1.57450478194843
0
ELLIPSE
5
129
100
AcDbEntity
8
1
62
256
6
ByLayer
370
-1
48
1
60
0
100
AcDbEllipse
10
111.049228
20
7.948717
30
0
11
-0.0417448660720661
21
0.803240662408395
31
0
210
0
220
0
230
-1
40
0.118384
41
2.37716744117647
42
-3.13375770251772
0
ELLIPSE
5
12A
100
AcDbEntity
8
1
62
256
6
ByLayer
370
-1
48
1
60
0
100
AcDbEllipse
10
98.881201
20
22.778342
30
0
11
1.78060908032074E-14
21
15.2
31
0
210
0
220
0
230
1
40
0.996195
41
2.7401669256311
42
-3.1066860685499
0
ELLIPSE
5
12B
100
AcDbEntity
8
1
62
256
6
ByLayer
370
-1
48
1
60
0
100
AcDbEllipse
10
16.442268
20
23.626418
30
0
11
-81.1881048310854
21
10.6689777544134
31
0
210
0
220
0
230
-1
40
0.120892
41
-2.95259271915773
42
-2.72925756932518
0
ELLIPSE
5
12C
100
AcDbEntity
8
1
62
256
6
ByLayer
370
-1
48
1
60
0
100
AcDbEllipse
10
99.33993
20
7.587601
30
0
11
0.0280261150489236
21
-0.799508934831416
31
0
210
0
220
0
230
1
40
0.087103
41
0.0631426160417556
42
1.56774302595898
0
ELLIPSE
5
12D
100
AcDbEntity
8
1
62
256
6
ByLayer
370
-1
48
1
60
0
100
AcDbEllipse
10
111.528405
20
0
30
0
11
-1.01513301641233
21
19.399620035462
31
0
210
0
220
0
230
-1
40
0.119652
41
-1.50547694504494
42
-1.43239036219218
0
ELLIPSE
5
12E
100
AcDbEntity
8
1
62
256
6
ByLayer
370
-1
48
1
60
0
100
AcDbEllipse
10
94.079162
20
6.793212
30
0
11
-16.8185746656992
21
-0.529081671288769
31
0
210
0
220
0
230
-1
40
0.01063
41
-1.8966607942998
42
-1.88748845004977
0
ELLIPSE
5
12F
100
AcDbEntity
8
1
62
256
6
ByLayer
370
-1
48
1
60
0
100
AcDbEllipse
10
71.42331
20
16.327418
30
0
11
-24.8315440114323
21
13.0609986217545
31
0
210
0
220
0
230
-1
40
0.097843
41
-2.52702588319166
42
-2.02585662491387
0
ELLIPSE
5
130
100
AcDbEntity
8
1
62
256
6
ByLayer
370
-1
48
1
60
0
100
AcDbEllipse
10
101.911168
20
8.563209
30
0
11
-1.83236116208174
21
-1.63166900511892
31
0
210
0
220
0
230
-1
40
0.721468
41
-1.30152588459509
42
-0.0906202832453115
0
ELLIPSE
5
131
100
AcDbEntity
8
1
62
256
6
ByLayer
370
-1
48
1
60
0
100
AcDbEllipse
10
92.894963
20
8.786668
30
0
11
-0.31359574849725
21
-0.735973984950861
31
0
210
0
220
0
230
1
40
0.080227
41
0.0341712377316146
42
1.60496756452651
0
ELLIPSE
5
132
100
AcDbEntity
8
1
62
256
6
ByLayer
370
-1
48
1
60
0
100
AcDbEllipse
10
111.529109
20
0
30
0
11
-1.17715882951118
21
19.3994934645601
31
0
210
0
220
0
230
-1
40
0.119092
41
-2.03971830271264
42
-1.5045115987747
0
ELLIPSE
5
133
100
AcDbEntity
8
1
62
256
6
ByLayer
370
-1
48
1
60
0
100
AcDbEllipse
10
82.193121
20
10.710476
30
0
11
-8.62154111550572
21
3.76893102344288
31
0
210
0
220
0
230
1
40
0.267282
41
1.52743537870356
42
1.57120768938683
0
ELLIPSE
5
134
100
AcDbEntity
8
1
62
256
6
ByLayer
370
-1
48
1
60
0
100
AcDbEllipse
10
111.000853
20
-6.885175
30
0
11
-1.22373473796845
21
1.2367541192519E-15
31
0
210
0
220
0
230
1
40
0.998135
41
3.10668606854993
42
-2.67858589191472
0
ELLIPSE
5
135
100
AcDbEntity
8
1
62
256
6
ByLayer
370
-1
48
1
60
0
100
AcDbEllipse
10
111.240293
20
-8.523644
30
0
11
-0.927151437670361
21
9.37015452885428E-16
31
0
210
0
220
0
230
1
40
0.998135
41
2.0483764595206
42
3.10668606854993
0
ELLIPSE
5
136
100
AcDbEntity
8
1
62
256
6
ByLayer
370
-1
48
1
60
0
100
AcDbEllipse
10
112.323962
20
-6.317888
30
0
11
-0.22359498671546
21
-0.111827017825359
31
0
210
0
220
0
230
1
40
0.054621
41
-3.04673050543228
42
-2.83684408552865
0
ELLIPSE
5
137
100
AcDbEntity
8
1
62
256
6
ByLayer
370
-1
48
1
60
0
100
AcDbEllipse
10
111.000853
20
-6.885175
30
0
11
-1.02373473796844
21
1.03462630823541E-15
31
0
210
0
220
0
230
1
40
0.998135
41
3.10668606854992
42
-2.67858589191471
0
ELLIPSE
5
138
100
AcDbEntity
8
1
62
256
6
ByLayer
370
-1
48
1
60
0
100
AcDbEllipse
10
111.967002
20
-8.524554
30
0
11
-0.399755420109682
21
0.0139858533143919
31
0
210
0
220
0
230
1
40
0.061011
41
0.446624481370571
42
1.57293086821332
0
ELLIPSE
5
139
100
AcDbEntity
8
1
62
256
6
ByLayer
370
-1
48
1
60
0
100
AcDbEllipse
10
111.81981
20
-1.23606
30
0
11
0.500000000000012
21
0
31
0
210
0
220
0
230
1
40
0.998135
41
0.0523598775598009
42
0.349065850398883
0
ELLIPSE
5
13A
100
AcDbEntity
8
1
62
256
6
ByLayer
370
-1
48
1
60
0
100
AcDbEllipse
10
111.722394
20
-0.856637
30
0
11
0.239623662653232
21
0.071277628304049
31
0
210
0
220
0
230
1
40
0.547256
41
0.12087001759685
42
0.365129886985763
0
ELLIPSE
5
13B
100
AcDbEntity
8
1
62
256
6
ByLayer
370
-1
48
1
60
0
100
AcDbEllipse
10
111.000853
20
-7.111055
30
0
11
1.99999999999999
21
0
31
0
210
0
220
0
230
1
40
0.998135
41
-0.034906585039872
42
0.46300676167507
0
ELLIPSE
5
13C
100
AcDbEntity
8
1
62
256
6
ByLayer
370
-1
48
1
60
0
100
AcDbEllipse
10
112.421797
20
-8.656802
30
0
11
-0.249847137568551
21
0.00874115832149493
31
0
210
0
220
0
230
1
40
0.061011
41
-3.01728506453176
42
-2.80739864462839
0
ELLIPSE
5
13D
100
AcDbEntity
8
1
62
256
6
ByLayer
370
-1
48
1
60
0
100
AcDbEllipse
10
111.798138
20
-1.07476
30
0
11
0.232371016348788
21
0.092215566804263
31
0
210
0
220
0
230
1
40
0.214605
41
-0.321965429427371
42
-0.103509950205587
0
ELLIPSE
5
13E
100
AcDbEntity
8
1
62
256
6
ByLayer
370
-1
48
1
60
0
100
AcDbEllipse
10
106.34196
20
-5.021659
30
0
11
2
21
0
31
0
210
0
220
0
230
1
40
0.998135
41
1.17328675057741
42
2.52898218377694
0
ELLIPSE
5
13F
100
AcDbEntity
8
1
62
256
6
ByLayer
370
-1
48
1
60
0
100
AcDbEllipse
10
111.000853
20
-6.972176
30
0
11
-1.71515057494323
21
1.7333981563846E-15
31
0
210
0
220
0
230
1
40
0.998135
41
3.10668606854993
42
-2.67858589191472
0
ELLIPSE
5
140
100
AcDbEntity
8
1
62
256
6
ByLayer
370
-1
48
1
60
0
100
AcDbEllipse
10
112.023964
20
-6.896417
30
0
11
-0.399755420109682
21
0.0139858533143919
31
0
210
0
220
0
230
1
40
0.061011
41
0.451313181498367
42
1.57293086821329
0
ELLIPSE
5
141
100
AcDbEntity
8
1
62
256
6
ByLayer
370
-1
48
1
60
0
100
AcDbEllipse
10
112.478759
20
-7.028665
30
0
11
-0.249847137568551
21
0.00874115832149493
31
0
210
0
220
0
230
1
40
0.061011
41
-3.01728506453176
42
-2.80739864462852
0
ELLIPSE
5
142
100
AcDbEntity
8
1
62
256
6
ByLayer
370
-1
48
1
60
0
100
AcDbEllipse
10
111.352811
20
-6.703968
30
0
11
-0.268490851014239
21
-0.133838196796167
31
0
210
0
220
0
230
1
40
0.057547
41
-2.71898279512286
42
-2.41933940965442
0
ELLIPSE
5
143
100
AcDbEntity
8
1
62
256
6
ByLayer
370
-1
48
1
60
0
100
AcDbEllipse
10
111.312176
20
0.522448
30
0
11
0.239623662653232
21
0.071277628304049
31
0
210
0
220
0
230
1
40
0.547256
41
0.120870017596879
42
0.365129886985791
0
ELLIPSE
5
144
100
AcDbEntity
8
1
62
256
6
ByLayer
370
-1
48
1
60
0
100
AcDbEllipse
10
112.538273
20
-9.61609
30
0
11
-0.24448045969943
21
-0.0522427490198904
31
0
210
0
220
0
230
1
40
0.883838
41
2.2668632702966
42
2.87385129071558
0
ELLIPSE
5
145
100
AcDbEntity
8
1
62
256
6
ByLayer
370
-1
48
1
60
0
100
AcDbEllipse
10
111.335096
20
-8.521481
30
0
11
-0.299805156867399
21
0.0108105465039683
31
0
210
0
220
0
230
1
40
0.063239
41
-2.69490446457393
42
-2.40517635394135
0
ELLIPSE
5
146
100
AcDbEntity
8
1
62
256
6
ByLayer
370
-1
48
1
60
0
100
AcDbEllipse
10
112.010012
20
-5.128841
30
0
11
0.249656104650273
21
0.0131083717849253
31
0
210
0
220
0
230
1
40
0.060965
41
0.118972054360532
42
0.328858474263827
0
ELLIPSE
5
147
100
AcDbEntity
8
1
62
256
6
ByLayer
370
-1
48
1
60
0
100
AcDbEllipse
10
112.309261
20
-9.753393
30
0
11
0.600000000000001
21
0
31
0
210
0
220
0
230
1
40
0.998135
41
-1.22173047639599
42
-0.0349065850399348
0
ELLIPSE
5
148
100
AcDbEntity
8
1
62
256
6
ByLayer
370
-1
48
1
60
0
100
AcDbEllipse
10
111.574515
20
-9.14381
30
0
11
-0.183581930353551
21
0.355383841568048
31
0
210
0
220
0
230
1
40
0.02806
41
1.30836341609492
42
1.62506211756222
0
ELLIPSE
5
149
100
AcDbEntity
8
1
62
256
6
ByLayer
370
-1
48
1
60
0
100
AcDbEllipse
10
111.240293
20
-8.523644
30
0
11
-0.72715143767036
21
7.34887641868954E-16
31
0
210
0
220
0
230
1
40
0.998135
41
2.04837645952061
42
3.10668606854992
0
ELLIPSE
5
14A
100
AcDbEntity
8
1
62
256
6
ByLayer
370
-1
48
1
60
0
100
AcDbEllipse
10
111.357173
20
-1.257773
30
0
11
-0.399449767440437
21
-0.0209733948558714
31
0
210
0
220
0
230
1
40
0.060965
41
0.898699902098579
42
1.56759533351585
0
ELLIPSE
5
14B
100
AcDbEntity
8
1
62
256
6
ByLayer
370
-1
48
1
60
0
100
AcDbEllipse
10
111.916802
20
-6.404367
30
0
11
-0.357751978744735
21
-0.178923228520575
31
0
210
0
220
0
230
1
40
0.054621
41
0.422535841560636
42
1.54348542731364
0
ELLIPSE
5
14C
100
AcDbEntity
8
1
62
256
6
ByLayer
370
-1
48
1
60
0
100
AcDbEllipse
10
112.333867
20
-9.967071
30
0
11
-0.0172185406249146
21
0.249406338850375
31
0
210
0
220
0
230
1
40
0.838732
41
-2.80746410668784
42
-2.39688161561281
0
ELLIPSE
5
14D
100
AcDbEntity
8
1
62
256
6
ByLayer
370
-1
48
1
60
0
100
AcDbEllipse
10
111.810707
20
-1.146905
30
0
11
0.249757674640379
21
-0.0110047243595889
31
0
210
0
220
0
230
1
40
0.655613
41
0.157545782693539
42
0.426644784634717
0
ELLIPSE
5
14E
100
AcDbEntity
8
1
62
256
6
ByLayer
370
-1
48
1
60
0
100
AcDbEllipse
10
111.393602
20
-6.893338
30
0
11
-0.299809708323348
21
0.0106835759495212
31
0
210
0
220
0
230
1
40
0.062343
41
-2.69024113425447
42
-2.39183731219963
0
ELLIPSE
5
14F
100
AcDbEntity
8
1
62
256
6
ByLayer
370
-1
48
1
60
0
100
AcDbEllipse
10
110.631018
20
-1.320178
30
0
11
-0.72715143767036
21
7.34887641868954E-16
31
0
210
0
220
0
230
1
40
0.998135
41
-3.08923277602995
42
-2.66401252086407
0
ELLIPSE
5
150
100
AcDbEntity
8
1
62
256
6
ByLayer
370
-1
48
1
60
0
100
AcDbEllipse
10
111.940607
20
-10.026703
30
0
11
-0.0604397018633528
21
0.242584093540094
31
0
210
0
220
0
230
1
40
0.510901
41
-2.9323289175947
42
-2.6880690482058
0
ELLIPSE
5
151
100
AcDbEntity
8
1
62
256
6
ByLayer
370
-1
48
1
60
0
100
AcDbEllipse
10
106.34196
20
-4.904179
30
0
11
2
21
0
31
0
210
0
220
0
230
1
40
0.998135
41
1.30621520995156
42
2.48067996662589
0
ELLIPSE
5
152
100
AcDbEntity
8
1
62
256
6
ByLayer
370
-1
48
1
60
0
100
AcDbEllipse
10
111.000853
20
-6.975291
30
0
11
1.72694386744699
21
0
31
0
210
0
220
0
230
1
40
0.998135
41
-0.034906585039873
42
0.463006761675072
0
ELLIPSE
5
153
100
AcDbEntity
8
1
62
256
6
ByLayer
370
-1
48
1
60
0
100
AcDbEllipse
10
115.027064
20
-4.879043
30
0
11
3.47626526203155
21
0
31
0
210
0
220
0
230
1
40
0.998135
41
-3.08923277602994
42
-2.67858589191473
0
ELLIPSE
5
154
100
AcDbEntity
8
1
62
256
6
ByLayer
370
-1
48
1
60
0
100
AcDbEllipse
10
115.027064
20
-4.879043
30
0
11
3.27626526203155
21
0
31
0
210
0
220
0
230
1
40
0.998135
41
-3.08923277602994
42
-2.67858589191472
0
ELLIPSE
5
155
100
AcDbEntity
8
1
62
256
6
ByLayer
370
-1
48
1
60
0
100
AcDbEllipse
10
110.631018
20
-1.320178
30
0
11
-0.92715143767036
21
9.37015452885427E-16
31
0
210
0
220
0
230
1
40
0.998135
41
-3.08923277602994
42
-2.66401252086407
0
ELLIPSE
5
156
100
AcDbEntity
8
1
62
256
6
ByLayer
370
-1
48
1
60
0
100
AcDbEllipse
10
115.027064
20
-5.104922
30
0
11
2.50000000000001
21
0
31
0
210
0
220
0
230
1
40
0.998135
41
-3.08923277602995
42
-2.67858589191473
0
ELLIPSE
5
157
100
AcDbEntity
8
1
62
256
6
ByLayer
370
-1
48
1
60
0
100
AcDbEllipse
10
111.811622
20
-1.350396
30
0
11
0.249656104650273
21
0.0131083717849253
31
0
210
0
220
0
230
1
40
0.060965
41
0.118972054360619
42
0.328858474263901
0
ELLIPSE
5
158
100
AcDbEntity
8
1
62
256
6
ByLayer
370
-1
48
1
60
0
100
AcDbEllipse
10
111.276808
20
-0.96216
30
0
11
-0.35510361624701
21
-0.184123387238818
31
0
210
0
220
0
230
1
40
0.054218
41
1.01590071817234
42
1.54269146730248
0
ELLIPSE
5
159
100
AcDbEntity
8
1
62
256
6
ByLayer
370
-1
48
1
60
0
100
AcDbEllipse
10
110.964759
20
0.816956
30
0
11
0.600000000000001
21
0
31
0
210
0
220
0
230
1
40
0.998135
41
0.349065850398887
42
1.28016685894113
0
ELLIPSE
5
15A
100
AcDbEntity
8
1
62
256
6
ByLayer
370
-1
48
1
60
0
100
AcDbEllipse
10
115.027064
20
-4.969159
30
0
11
-2.773056132553
21
2.80255882949372E-15
31
0
210
0
220
0
230
1
40
0.998135
41
0.0523598775598454
42
0.463006761675063
0
ELLIPSE
5
15B
100
AcDbEntity
8
1
62
256
6
ByLayer
370
-1
48
1
60
0
100
AcDbEllipse
10
111.555563
20
-5.036218
30
0
11
-0.399449767440437
21
-0.0209733948558714
31
0
210
0
220
0
230
1
40
0.060965
41
0.898706284206861
42
1.56759533351589
0
ELLIPSE
5
15C
100
AcDbEntity
8
1
62
256
6
ByLayer
370
-1
48
1
60
0
100
AcDbEllipse
10
111.225844
20
0.888435
30
0
11
0.2460274908636
21
0.0443900184654274
31
0
210
0
220
0
230
1
40
0.866485
41
0.20356097385645
42
0.614143464931384
0
ELLIPSE
5
15D
100
AcDbEntity
8
1
62
256
6
ByLayer
370
-1
48
1
60
0
100
AcDbEllipse
10
115.027064
20
-4.966043
30
0
11
2.78484942505676
21
0
31
0
210
0
220
0
230
1
40
0.998135
41
-3.08923277602994
42
-2.67858589191473
0
ELLIPSE
5
15E
100
AcDbEntity
8
1
62
256
6
ByLayer
370
-1
48
1
60
0
100
AcDbEllipse
10
103.110257
20
10.193967
30
0
11
-5.14497298931271E-16
21
-0.48
31
0
210
0
220
0
230
1
40
0.996195
41
0.920472169598885
42
2.77549784972787
0
ELLIPSE
5
15F
100
AcDbEntity
8
1
62
256
6
ByLayer
370
-1
48
1
60
0
100
AcDbEllipse
10
110.130905
20
9.84711
30
0
11
2.9286333557907E-16
21
0.250000000000001
31
0
210
0
220
0
230
1
40
0.996195
41
-3.1066860685499
42
-1.535889741755
0
ELLIPSE
5
160
100
AcDbEntity
8
1
62
256
6
ByLayer
370
-1
48
1
60
0
100
AcDbEllipse
10
109.861583
20
17.476195
30
0
11
-4.03443321277421E-16
21
-0.376392246597646
31
0
210
0
220
0
230
1
40
0.996195
41
1.6057029118348
42
-3.1066860685499
0
ELLIPSE
5
161
100
AcDbEntity
8
1
62
256
6
ByLayer
370
-1
48
1
60
0
100
AcDbEllipse
10
102.515613
20
10.64805
30
0
11
1.44088761104902E-15
21
1.23
31
0
210
0
220
0
230
1
40
0.996195
41
-2.42145532631401
42
-2.2211204839909
0
ELLIPSE
5
162
100
AcDbEntity
8
1
62
256
6
ByLayer
370
-1
48
1
60
0
100
AcDbEllipse
10
102.837294
20
16.661961
30
0
11
-0.62255584567891
21
0.581525141569369
31
0
210
0
220
0
230
-1
40
0.031444
41
0.960945087854853
42
1.60444619650595
0
ELLIPSE
5
163
100
AcDbEntity
8
1
62
256
6
ByLayer
370
-1
48
1
60
0
100
AcDbEllipse
10
103.008347
20
10.084264
30
0
11
1.1948824091626E-15
21
1.02
31
0
210
0
220
0
230
1
40
0.996195
41
1.74759996643896
42
-2.42145532631401
0
ELLIPSE
5
164
100
AcDbEntity
8
1
62
256
6
ByLayer
370
-1
48
1
60
0
100
AcDbEllipse
10
103.469704
20
9.520477
30
0
11
-0.297408541509673
21
0.337710170763466
31
0
210
0
220
0
230
1
40
0.065516
41
-2.27193125321725
42
-0.984929035630641
0
ELLIPSE
5
165
100
AcDbEntity
8
1
62
256
6
ByLayer
370
-1
48
1
60
0
100
AcDbEllipse
10
110.194318
20
14.686626
30
0
11
0.199879090035388
21
0.00695337088219786
31
0
210
0
220
0
230
1
40
0.003042
41
-1.48358275532875
42
-0.799501523536307
0
ELLIPSE
5
166
100
AcDbEntity
8
1
62
256
6
ByLayer
370
-1
48
1
60
0
100
AcDbEllipse
10
103.110257
20
10.193967
30
0
11
-2.8940473064884E-16
21
-0.27
31
0
210
0
220
0
230
1
40
0.996195
41
-0.75049157835758
42
2.39110107523222
0
ELLIPSE
5
167
100
AcDbEntity
8
1
62
256
6
ByLayer
370
-1
48
1
60
0
100
AcDbEllipse
10
106.194256
20
13.528446
30
0
11
3.16169255543626E-15
21
2.69894876836046
31
0
210
0
220
0
230
1
40
0.996195
41
0
42
6.28318530717959
0
ELLIPSE
5
168
100
AcDbEntity
8
1
62
256
6
ByLayer
370
-1
48
1
60
0
100
AcDbEllipse
10
102.7824
20
10.500866
30
0
11
3.16292402425394E-16
21
0.27
31
0
210
0
220
0
230
1
40
0.996195
41
0.881327184779054
42
2.39110107523222
0
ELLIPSE
5
169
100
AcDbEntity
8
1
62
256
6
ByLayer
370
-1
48
1
60
0
100
AcDbEllipse
10
110.096971
20
17.48492
30
0
11
0.199879090035388
21
0.00695337088219786
31
0
210
0
220
0
230
1
40
0.003042
41
-1.48358275532875
42
-0.799501523533151
0
ELLIPSE
5
16A
100
AcDbEntity
8
1
62
256
6
ByLayer
370
-1
48
1
60
0
100
AcDbEllipse
10
101.892293
20
16.849217
30
0
11
0.0874689691203328
21
0.441417239628253
31
0
210
0
220
0
230
1
40
0.085506
41
-1.55385457642579
42
-0.910353467632269
0
ELLIPSE
5
16B
100
AcDbEntity
8
1
62
256
6
ByLayer
370
-1
48
1
60
0
100
AcDbEllipse
10
106.547236
20
13.528446
30
0
11
2.34290668463255E-15
21
2
31
0
210
0
220
0
230
1
40
0.996195
41
0.0349502378747978
42
1.57079654872777
0
ELLIPSE
5
16C
100
AcDbEntity
8
1
62
256
6
ByLayer
370
-1
48
1
60
0
100
AcDbEllipse
10
106.547236
20
13.528446
30
0
11
2.34290668463255E-15
21
2
31
0
210
0
220
0
230
1
40
0.996195
41
1.57079654872777
42
3.10055573146277
0
ELLIPSE
5
16D
100
AcDbEntity
8
1
62
256
6
ByLayer
370
-1
48
1
60
0
100
AcDbEllipse
10
103.673525
20
9.739883
30
0
11
-0.358649081170716
21
0.271791899392534
31
0
210
0
220
0
230
1
40
0.052768
41
-2.28381636720074
42
-0.996814149614036
0
ELLIPSE
5
16E
100
AcDbEntity
8
1
62
256
6
ByLayer
370
-1
48
1
60
0
100
AcDbEllipse
10
102.751024
20
10.500866
30
0
11
-0.634800952213698
21
-0.0221675770090416
31
0
210
0
220
0
230
-1
40
0.002159
41
-2.2760446949337
42
-1.63254358546042
0
ELLIPSE
5
16F
100
AcDbEntity
8
1
62
256
6
ByLayer
370
-1
48
1
60
0
100
AcDbEllipse
10
109.962852
20
14.677901
30
0
11
-2.67967343193369E-16
21
-0.249999999999999
31
0
210
0
220
0
230
1
40
0.996195
41
-1.27552306428825
42
1.60570291183479
0
ELLIPSE
5
170
100
AcDbEntity
8
1
62
256
6
ByLayer
370
-1
48
1
60
0
100
AcDbEllipse
10
109.865505
20
17.476195
30
0
11
-2.67967343193372E-16
21
-0.250000000000001
31
0
210
0
220
0
230
1
40
0.996195
41
1.60570291183479
42
-3.10668606854991
0
ELLIPSE
5
171
100
AcDbEntity
8
1
62
256
6
ByLayer
370
-1
48
1
60
0
100
AcDbEllipse
10
102.86867
20
16.661961
30
0
11
-2.8940473064884E-16
21
-0.27
31
0
210
0
220
0
230
1
40
0.996195
41
-0.194895099805995
42
1.83550459668071
0
ELLIPSE
5
172
100
AcDbEntity
8
1
62
256
6
ByLayer
370
-1
48
1
60
0
100
AcDbEllipse
10
103.787426
20
16.469901
30
0
11
0.30752463436703
21
0.328524883772028
31
0
210
0
220
0
230
1
40
0.063742
41
-2.15470096795564
42
-0.867698750369395
0
ELLIPSE
5
173
100
AcDbEntity
8
1
62
256
6
ByLayer
370
-1
48
1
60
0
100
AcDbEllipse
10
102.616661
20
17.595198
30
0
11
3.16292402425394E-16
21
0.27
31
0
210
0
220
0
230
1
40
0.996195
41
-0.750491578357575
42
1.83550459668071
0
ELLIPSE
5
174
100
AcDbEntity
8
1
62
256
6
ByLayer
370
-1
48
1
60
0
100
AcDbEllipse
10
107.339337
20
9.749391
30
0
11
-4.03443321277421E-16
21
-0.376392246597646
31
0
210
0
220
0
230
1
40
0.996195
41
-2.84631939108312
42
0.0349065850398958
0
ELLIPSE
5
175
100
AcDbEntity
8
1
62
256
6
ByLayer
370
-1
48
1
60
0
100
AcDbEllipse
10
102.272848
20
9.952351
30
0
11
3.16292402425394E-16
21
0.27
31
0
210
0
220
0
230
1
40
0.996195
41
-1.39399268715084
42
1.74759996643901
0
ELLIPSE
5
176
100
AcDbEntity
8
1
62
256
6
ByLayer
370
-1
48
1
60
0
100
AcDbEllipse
10
106.383875
20
13.528446
30
0
11
-2.14373874554696E-15
21
-2
31
0
210
0
220
0
230
1
40
0.996195
41
-3.14159250506939
42
0
0
ELLIPSE
5
177
100
AcDbEntity
8
1
62
256
6
ByLayer
370
-1
48
1
60
0
100
AcDbEllipse
10
106.383875
20
13.528446
30
0
11
-2.14373874554696E-15
21
-2
31
0
210
0
220
0
230
1
40
0.996195
41
0
42
0.373555078115232
0
ELLIPSE
5
178
100
AcDbEntity
8
1
62
256
6
ByLayer
370
-1
48
1
60
0
100
AcDbEllipse
10
102.241472
20
9.952351
30
0
11
0.443036966151022
21
0.0788558597930326
31
0
210
0
220
0
230
1
40
0.015329
41
-2.12838464107856
42
-0.841382423491951
0
ELLIPSE
5
179
100
AcDbEntity
8
1
62
256
6
ByLayer
370
-1
48
1
60
0
100
AcDbEllipse
10
107.004752
20
17.134804
30
0
11
0.0448731734378583
21
0.194900996163734
31
0
210
0
220
0
230
1
40
0.08495
41
-2.2353215383177
42
-1.55124030652268
0
ELLIPSE
5
17A
100
AcDbEntity
8
1
62
256
6
ByLayer
370
-1
48
1
60
0
100
AcDbEllipse
10
101.892293
20
16.849217
30
0
11
0.30752463436703
21
0.328524883772028
31
0
210
0
220
0
230
1
40
0.063742
41
-2.15470096795581
42
-1.51119985916242
0
ELLIPSE
5
17B
100
AcDbEntity
8
1
62
256
6
ByLayer
370
-1
48
1
60
0
100
AcDbEllipse
10
101.892293
20
16.849217
30
0
11
-1.45591769480982
21
0.746910916001931
31
0
210
0
220
0
230
-1
40
0.010943
41
1.59212368520342
42
2.23562479420156
0
ELLIPSE
5
17C
100
AcDbEntity
8
1
62
256
6
ByLayer
370
-1
48
1
60
0
100
AcDbEllipse
10
107.073937
20
17.378477
30
0
11
-4.03443321277421E-16
21
-0.376392246597646
31
0
210
0
220
0
230
1
40
0.996195
41
-3.1066860685499
42
-0.225460092426856
0
ELLIPSE
5
17D
100
AcDbEntity
8
1
62
256
6
ByLayer
370
-1
48
1
60
0
100
AcDbEllipse
10
101.923669
20
16.849217
30
0
11
3.16292402425394E-16
21
0.27
31
0
210
0
220
0
230
1
40
0.996195
41
-0.194895099805995
42
2.39110107523222
0
ELLIPSE
5
17E
100
AcDbEntity
8
1
62
256
6
ByLayer
370
-1
48
1
60
0
100
AcDbEllipse
10
102.585285
20
17.595198
30
0
11
0.434438947393043
21
0.117314964893765
31
0
210
0
220
0
230
1
40
0.022802
41
-2.1300559455339
42
-1.48655483674054
0
ELLIPSE
5
17F
100
AcDbEntity
8
1
62
256
6
ByLayer
370
-1
48
1
60
0
100
AcDbEllipse
10
107.343259
20
9.749391
30
0
11
2.9286333557907E-16
21
0.250000000000001
31
0
210
0
220
0
230
1
40
0.996195
41
0.295273262506649
42
-3.10668606854985
0
ELLIPSE
5
180
100
AcDbEntity
8
1
62
256
6
ByLayer
370
-1
48
1
60
0
100
AcDbEllipse
10
107.253354
20
9.988572
30
0
11
0.0584036501431813
21
-0.191282549256206
31
0
210
0
220
0
230
1
40
0.083384
41
1.54534251077282
42
2.22942374256833
0
ELLIPSE
5
181
100
AcDbEntity
8
1
62
256
6
ByLayer
370
-1
48
1
60
0
100
AcDbEllipse
10
103.158666
20
10.939678
30
0
11
0.329692102348112
21
-0.306272946322855
31
0
210
0
220
0
230
1
40
0.05944
41
1.50689827555575
42
2.15039938434941
0
ELLIPSE
5
182
100
AcDbEntity
8
1
62
256
6
ByLayer
370
-1
48
1
60
0
100
AcDbEllipse
10
110.033558
20
12.645404
30
0
11
2.92863335579068E-16
21
0.249999999999999
31
0
210
0
220
0
230
1
40
0.996195
41
-1.535889741755
42
1.34533623436801
0
ELLIPSE
5
183
100
AcDbEntity
8
1
62
256
6
ByLayer
370
-1
48
1
60
0
100
AcDbEllipse
10
102.837294
20
16.661961
30
0
11
0.0874689691203328
21
0.441417239628253
31
0
210
0
220
0
230
1
40
0.085506
41
-2.19735568521896
42
-1.55385457642576
0
ELLIPSE
5
184
100
AcDbEntity
8
1
62
256
6
ByLayer
370
-1
48
1
60
0
100
AcDbEllipse
10
110.362371
20
9.855835
30
0
11
0.199879090035388
21
0.00695337088219786
31
0
210
0
220
0
230
1
40
0.003042
41
-1.48358275532896
42
-0.799501523536562
0
ELLIPSE
5
185
100
AcDbEntity
8
1
62
256
6
ByLayer
370
-1
48
1
60
0
100
AcDbEllipse
10
103.818802
20
16.469901
30
0
11
-2.8940473064884E-16
21
-0.27
31
0
210
0
220
0
230
1
40
0.996195
41
-0.750491578357575
42
2.39110107523227
0
ELLIPSE
5
186
100
AcDbEntity
8
1
62
256
6
ByLayer
370
-1
48
1
60
0
100
AcDbEllipse
10
110.126983
20
9.84711
30
0
11
-4.03443321277421E-16
21
-0.376392246597646
31
0
210
0
220
0
230
1
40
0.996195
41
0.0349065850399337
42
1.6057029118348
0
ELLIPSE
5
187
100
AcDbEntity
8
1
62
256
6
ByLayer
370
-1
48
1
60
0
100
AcDbEllipse
10
103.158666
20
10.939678
30
0
11
-0.0482353632671648
21
-0.447407364412439
31
0
210
0
220
0
230
1
40
0.086657
41
1.58013866027564
42
2.22363976906888
0
ELLIPSE
5
188
100
AcDbEntity
8
1
62
256
6
ByLayer
370
-1
48
1
60
0
100
AcDbEllipse
10
103.094435
20
15.72392
30
0
11
0.30752463436703
21
0.328524883772028
31
0
210
0
220
0
230
1
40
0.063742
41
-2.15470096795586
42
-0.867698750369042
0
ELLIPSE
5
189
100
AcDbEntity
8
1
62
256
6
ByLayer
370
-1
48
1
60
0
100
AcDbEllipse
10
102.837294
20
16.661961
30
0
11
0.434438947393043
21
0.117314964893765
31
0
210
0
220
0
230
1
40
0.022802
41
-1.48655483674063
42
-0.843053727947604
0
ELLIPSE
5
18A
100
AcDbEntity
8
1
62
256
6
ByLayer
370
-1
48
1
60
0
100
AcDbEllipse
10
102.585285
20
17.595198
30
0
11
-0.84436865563802
21
1.40519245630478
31
0
210
0
220
0
230
-1
40
0.020508
41
1.5831188379355
42
2.22661994680902
0
ELLIPSE
5
18B
100
AcDbEntity
8
1
62
256
6
ByLayer
370
-1
48
1
60
0
100
AcDbEllipse
10
107.334519
20
9.499544
30
0
11
-0.00700652876222976
21
0.199877233707854
31
0
210
0
220
0
230
1
40
0.087103
41
-2.2579308594259
42
-1.5738496276308
0
ELLIPSE
5
18C
100
AcDbEntity
8
1
62
256
6
ByLayer
370
-1
48
1
60
0
100
AcDbEllipse
10
102.751022
20
10.500867
30
0
11
-0.022210499028872
21
0.636028590269818
31
0
210
0
220
0
230
-1
40
0.061593
41
1.57294837810375
42
1.60954604639829
0
ELLIPSE
5
18D
100
AcDbEntity
8
1
62
256
6
ByLayer
370
-1
48
1
60
0
100
AcDbEllipse
10
102.585285
20
17.595198
30
0
11
0.30752463436703
21
0.328524883772028
31
0
210
0
220
0
230
1
40
0.063742
41
-1.51119985916236
42
-0.867698750369395
0
ELLIPSE
5
18E
100
AcDbEntity
8
1
62
256
6
ByLayer
370
-1
48
1
60
0
100
AcDbEllipse
10
106.198178
20
13.528446
30
0
11
-3.96591667926188E-15
21
-3.7
31
0
210
0
220
0
230
1
40
0.996195
41
0.295273262506623
42
1.34533623436805
0
ELLIPSE
5
18F
100
AcDbEntity
8
1
62
256
6
ByLayer
370
-1
48
1
60
0
100
AcDbEllipse
10
109.839382
20
17.726043
30
0
11
-0.00700652876222976
21
0.199877233707854
31
0
210
0
220
0
230
1
40
0.087103
41
-1.5738496276308
42
-0.889768395835558
0
ELLIPSE
5
190
100
AcDbEntity
8
1
62
256
6
ByLayer
370
-1
48
1
60
0
100
AcDbEllipse
10
102.515613
20
10.64805
30
0
11
2.07347241589981E-15
21
1.77
31
0
210
0
220
0
230
1
40
0.996195
41
-2.42145532631401
42
-2.22112048399089
0
ELLIPSE
5
191
100
AcDbEntity
8
1
62
256
6
ByLayer
370
-1
48
1
60
0
100
AcDbEllipse
10
103.125811
20
15.72392
30
0
11
-2.8940473064884E-16
21
-0.27
31
0
210
0
220
0
230
1
40
0.996195
41
-0.75049157835758
42
2.39110107523222
0
ELLIPSE
5
192
100
AcDbEntity
8
1
62
256
6
ByLayer
370
-1
48
1
60
0
100
AcDbEllipse
10
109.70715
20
14.605151
30
0
11
0.19140610284432
21
0.0579974464433525
31
0
210
0
220
0
230
1
40
0.025362
41
-2.17136982970193
42
-1.48728859790628
0
ELLIPSE
5
193
100
AcDbEntity
8
1
62
256
6
ByLayer
370
-1
48
1
60
0
100
AcDbEllipse
10
106.198178
20
13.528446
30
0
11
4.33437736657022E-15
21
3.7
31
0
210
0
220
0
230
1
40
0.996195
41
-1.27552306428827
42
-0.225460092426849
0
ELLIPSE
5
194
100
AcDbEntity
8
1
62
256
6
ByLayer
370
-1
48
1
60
0
100
AcDbEllipse
10
110.265024
20
12.654129
30
0
11
0.199879090035388
21
0.00695337088219786
31
0
210
0
220
0
230
1
40
0.003042
41
-1.48358275532889
42
-0.799501523536307
0
ELLIPSE
5
195
100
AcDbEntity
8
1
62
256
6
ByLayer
370
-1
48
1
60
0
100
AcDbEllipse
10
102.739837
20
10.488824
30
0
11
0.329692102348112
21
-0.306272946322855
31
0
210
0
220
0
230
1
40
0.05944
41
1.47029936263283
42
2.15039938434915
0
ELLIPSE
5
196
100
AcDbEntity
8
1
62
256
6
ByLayer
370
-1
48
1
60
0
100
AcDbEllipse
10
110.122165
20
9.597262
30
0
11
0.00700652876223089
21
-0.199877233707854
31
0
210
0
220
0
230
1
40
0.087103
41
0.883661794163372
42
1.56774302595899
0
ELLIPSE
5
197
100
AcDbEntity
8
1
62
256
6
ByLayer
370
-1
48
1
60
0
100
AcDbEllipse
10
103.110257
20
10.193967
30
0
11
-1.09330676022895E-15
21
-1.02
31
0
210
0
220
0
230
1
40
0.996195
41
0.920472169598879
42
3.03460218402553
0
ELLIPSE
5
198
100
AcDbEntity
8
1
62
256
6
ByLayer
370
-1
48
1
60
0
100
AcDbEllipse
10
107.077859
20
17.378477
30
0
11
-2.67967343193372E-16
21
-0.250000000000001
31
0
210
0
220
0
230
1
40
0.996195
41
-3.10668606854991
42
-0.225460092426895
0
ELLIPSE
5
199
100
AcDbEntity
8
1
62
256
6
ByLayer
370
-1
48
1
60
0
100
AcDbEllipse
10
102.739837
20
10.488824
30
0
11
-0.329471318935308
21
0.306067845909911
31
0
210
0
220
0
230
1
40
0.05944
41
-1.63469437803419
42
-0.992087287820084
0
ELLIPSE
5
19A
100
AcDbEntity
8
1
62
256
6
ByLayer
370
-1
48
1
60
0
100
AcDbEllipse
10
102.751024
20
10.500866
30
0
11
0.30752463436703
21
0.328524883772028
31
0
210
0
220
0
230
1
40
0.063742
41
-2.1547009679553
42
-1.5477987720853
0
ELLIPSE
5
19B
100
AcDbEntity
8
1
62
256
6
ByLayer
370
-1
48
1
60
0
100
AcDbEllipse
10
107.051736
20
17.628325
30
0
11
0.00700652876223089
21
-0.199877233707854
31
0
210
0
220
0
230
1
40
0.087103
41
1.56774302595899
42
2.25182425775482
0
ELLIPSE
5
19C
100
AcDbEntity
8
1
62
256
6
ByLayer
370
-1
48
1
60
0
100
AcDbEllipse
10
103.078881
20
10.193967
30
0
11
-0.307524634367029
21
-0.328524883772029
31
0
210
0
220
0
230
1
40
0.063742
41
0.986891685634183
42
2.27389390322075
0
ELLIPSE
5
19D
100
AcDbEntity
8
1
62
256
6
ByLayer
370
-1
48
1
60
0
100
AcDbEllipse
10
106.194256
20
13.528446
30
0
11
4.18631474685054E-15
21
3.57360775340235
31
0
210
0
220
0
230
1
40
0.996195
41
-2.84631939108317
42
-1.79625641922174
0
ELLIPSE
5
19E
100
AcDbEntity
8
1
62
256
6
ByLayer
370
-1
48
1
60
0
100
AcDbEllipse
10
109.773381
20
12.701293
30
0
11
0.194975283584391
21
-0.0445492849682962
31
0
210
0
220
0
230
1
40
0.019484
41
1.48572768328059
42
2.16980891507627
0
ELLIPSE
5
19F
100
AcDbEntity
8
1
62
256
6
ByLayer
370
-1
48
1
60
0
100
AcDbEllipse
10
103.008347
20
10.084264
30
0
11
5.62297604311812E-16
21
0.48
31
0
210
0
220
0
230
1
40
0.996195
41
1.74759996643897
42
-2.42145532631401
0
ELLIPSE
5
1A0
100
AcDbEntity
8
1
62
256
6
ByLayer
370
-1
48
1
60
0
100
AcDbEllipse
10
106.194256
20
13.528446
30
0
11
4.18631474685054E-15
21
3.57360775340235
31
0
210
0
220
0
230
1
40
0.996195
41
-1.27552306428827
42
-0.225460092426842
0
ELLIPSE
5
1A1
100
AcDbEntity
8
1
62
256
6
ByLayer
370
-1
48
1
60
0
100
AcDbEllipse
10
103.190042
20
10.939678
30
0
11
3.16292402425394E-16
21
0.27
31
0
210
0
220
0
230
1
40
0.996195
41
-0.106990469564303
42
0.820304748434633
0
ELLIPSE
5
1A2
100
AcDbEntity
8
1
62
256
6
ByLayer
370
-1
48
1
60
0
100
AcDbEllipse
10
106.239005
20
13.528446
30
0
11
-2.85443725674398E-15
21
-2.66304582372577
31
0
210
0
220
0
230
1
40
0.996195
41
2.21550992406688
42
0
0
ELLIPSE
5
1A3
100
AcDbEntity
8
1
62
256
6
ByLayer
370
-1
48
1
60
0
100
AcDbEllipse
10
106.239005
20
13.528446
30
0
11
-2.85443725674398E-15
21
-2.66304582372577
31
0
210
0
220
0
230
1
40
0.996195
41
0
42
0.926082659473384
0
ELLIPSE
5
1A4
100
AcDbEntity
8
1
62
256
6
ByLayer
370
-1
48
1
60
0
100
AcDbEllipse
10
110.029636
20
12.645404
30
0
11
-4.03443321277419E-16
21
-0.376392246597645
31
0
210
0
220
0
230
1
40
0.996195
41
1.6057029118348
42
-1.79625641922173
0
ELLIPSE
5
1A5
100
AcDbEntity
8
1
62
256
6
ByLayer
370
-1
48
1
60
0
100
AcDbEllipse
10
106.265547
20
13.528446
30
0
11
-2.71334196247261E-15
21
-2.53141103887668
31
0
210
0
220
0
230
1
40
0.996195
41
0
42
6.28318530717959
0
ELLIPSE
5
1A6
100
AcDbEntity
8
1
62
256
6
ByLayer
370
-1
48
1
60
0
100
AcDbEllipse
10
109.95893
20
14.677901
30
0
11
-4.03443321277419E-16
21
-0.376392246597645
31
0
210
0
220
0
230
1
40
0.996195
41
-1.27552306428825
42
1.6057029118348
0
POINT
5
41
100
AcDbEntity
8
81
62
256
6
ByLayer
370
-1
48
1
60
0
100
AcDbPoint
10
113
20
0
30
0
39
0
210
0
220
0
230
1
50
360
0
POINT
5
43
100
AcDbEntity
8
80
62
256
6
ByLayer
370
-1
48
1
60
0
100
AcDbPoint
10
0
20
0
30
0
39
0
210
0
220
0
230
1
50
360
0
SPLINE
5
1A7
100
AcDbEntity
8
1
62
256
6
ByLayer
370
-1
48
1
60
0
100
AcDbSpline
70
4
71
3
72
21
73
17
40
0
40
0
40
0
40
0
40
0.035813145474764
40
0.110580332528482
40
0.185323684373513
40
0.259965025529423
40
0.334453740995455
40
0.408768254454353
40
0.48291789110318
40
0.556939062437448
40
0.630887842333991
40
0.704825165528416
40
0.778802272338536
40
0.852881566471599
40
0.927110213745081
40
1
40
1
40
1
40
1
41
1
10
106.27871928824
20
15.5146258056102
30
0
41
1
10
106.345306239668
20
15.5230308577099
30
0
41
1
10
106.549865936984
20
15.5359364150538
30
0
41
1
10
106.893363362381
20
15.4746827739791
30
0
41
1
10
107.285365562658
20
15.3273604675542
30
0
41
1
10
107.63807077106
20
15.0974252027388
30
0
41
1
10
107.935346282204
20
14.7993711896969
30
0
41
1
10
108.16422593405
20
14.445362249764
30
0
41
1
10
108.314726299866
20
14.0514368396188
30
0
41
1
10
108.380448668049
20
13.6349076953558
30
0
41
1
10
108.358721605332
20
13.2140530626702
30
0
41
1
10
108.250715308422
20
12.8072517994998
30
0
41
1
10
108.061176805917
20
12.4320636738345
30
0
41
1
10
107.798783400466
20
12.1050469997226
30
0
41
1
10
107.475636791698
20
11.8408650352497
30
0
41
1
10
107.23273199638
20
11.7160536617396
30
0
41
1
10
107.104450588862
20
11.6658453869557
30
0
0
SPLINE
5
1A8
100
AcDbEntity
8
1
62
256
6
ByLayer
370
-1
48
1
60
0
100
AcDbSpline
70
4
71
3
72
16
73
12
40
0
40
0
40
0
40
0
40
0.151307459410318
40
0.30226768392333
40
0.45337022587438
40
0.604870741176837
40
0.684419645482938
40
0.764078982250647
40
0.843822500927076
40
0.923424546680326
40
1
40
1
40
1
40
1
41
1
10
4.99999999999997
20
-24.75
30
0
41
1
10
6.15588676791884
20
-24.7474903388753
30
0
41
1
10
8.45565549598427
20
-24.6475197322484
30
0
41
1
10
11.886624865135
20
-24.2014761903895
30
0
41
1
10
15.271869142721
20
-23.4939574256728
30
0
41
1
10
18.0754789607266
20
-22.6986469209741
30
0
41
1
10
20.3189989534244
20
-21.942307363111
30
0
41
1
10
22.0260969733255
20
-21.3077100526558
30
0
41
1
10
23.7102200874227
20
-20.6166748685155
30
0
41
1
10
25.3655020470097
20
-19.9076823308431
30
0
41
1
10
26.5329693503311
20
-19.640267365948
30
0
41
1
10
27.1093271233307
20
-19.5497073959801
30
0
0
SPLINE
5
1A9
100
AcDbEntity
8
1
62
256
6
ByLayer
370
-1
48
1
60
0
100
AcDbSpline
70
4
71
3
72
8
73
4
40
0
40
0
40
0
40
0
40
1
40
1
40
1
40
1
41
1
10
27.2243846065692
20
-19.5321727274287
30
0
41
1
10
27.8111203158964
20
-19.4455152960307
30
0
41
1
10
28.4014290031103
20
-19.4005186246665
30
0
41
1
10
29
20
-19.4
30
0
0
SPLINE
5
1AA
100
AcDbEntity
8
1
62
256
6
ByLayer
370
-1
48
1
60
0
100
AcDbSpline
70
4
71
3
72
16
73
12
40
0
40
0
40
0
40
0
40
0.0271692445546079
40
0.110451265485356
40
0.193445441636877
40
0.276544957046504
40
0.40690135139372
40
0.536920836066245
40
0.691291456565808
40
0.84547469548818
40
1
40
1
40
1
40
1
41
1
10
27.695325466771
20
19.5061349308345
30
0
41
1
10
27.4823251874761
20
19.5149785751422
30
0
41
1
10
26.6225994634603
20
19.5820254931723
30
0
41
1
10
25.1479610095365
20
19.983664322954
30
0
41
1
10
23.3657537318396
20
20.7694091743633
30
0
41
1
10
21.2119937544745
20
21.6253655028388
30
0
41
1
10
18.6787555687039
20
22.5162509393496
30
0
41
1
10
15.5633835064068
20
23.4178112844626
30
0
41
1
10
12.2119963211992
20
24.1491873839645
30
0
41
1
10
8.61986969128884
20
24.6375876867118
30
0
41
1
10
6.2110716199665
20
24.7470932567897
30
0
41
1
10
5.00000000000003
20
24.75
30
0
0
SPLINE
5
1AB
100
AcDbEntity
8
1
62
256
6
ByLayer
370
-1
48
1
60
0
100
AcDbSpline
70
4
71
3
72
12
73
8
40
0
40
0
40
0
40
0
40
0.250000000000001
40
0.250000000000001
40
0.500000000000002
40
0.500000000000002
40
1
40
1
40
1
40
1
41
1
10
99.6828324286126
20
13.1512299561983
30
0
41
1
10
99.6870273270287
20
13.1512299561983
30
0
41
1
10
99.6951981620609
20
13.156906636396
30
0
41
1
10
99.7185836751531
20
13.1777049724754
30
0
41
1
10
99.7340165435611
20
13.1930464741214
30
0
41
1
10
99.7877984001034
20
13.2477391830329
30
0
41
1
10
99.8342680015271
20
13.2960951054719
30
0
41
1
10
99.888206987746
20
13.3478263137214
30
0
0
SPLINE
5
1AC
100
AcDbEntity
8
1
62
256
6
ByLayer
370
-1
48
1
60
0
100
AcDbSpline
70
4
71
3
72
8
73
4
40
0
40
0
40
0
40
0
40
1
40
1
40
1
40
1
41
1
10
26.9577059121678
20
-18.5473745106531
30
0
41
1
10
26.7450629974942
20
-18.538395390053
30
0
41
1
10
26.5341454335584
20
-18.522092933545
30
0
41
1
10
26.3248759946909
20
-18.4983025471626
30
0
0
SPLINE
5
1AD
100
AcDbEntity
8
1
62
256
6
ByLayer
370
-1
48
1
60
0
100
AcDbSpline
70
4
71
3
72
8
73
4
40
0
40
0
40
0
40
0
40
1
40
1
40
1
40
1
41
1
10
76.1491745603136
20
10.3885480912304
30
0
41
1
10
76.7085102162322
20
10.0992336147615
30
0
41
1
10
77.2852917160437
20
9.84265963303497
30
0
41
1
10
77.8786810492869
20
9.61998754158182
30
0
0
SPLINE
5
1AE
100
AcDbEntity
8
1
62
256
6
ByLayer
370
-1
48
1
60
0
100
AcDbSpline
70
4
71
3
72
24
73
20
40
0
40
0
40
0
40
0
40
0.125
40
0.125
40
0.249999999999999
40
0.249999999999999
40
0.312499999999999
40
0.312499999999999
40
0.374999999999999
40
0.374999999999999
40
0.499999999999999
40
0.499999999999999
40
0.624999999999999
40
0.624999999999999
40
0.687499999999999
40
0.687499999999999
40
0.749999999999999
40
0.749999999999999
40
1
40
1
40
1
40
1
41
1
10
31.8857157051625
20
-4.88442598198128
30
0
41
1
10
34.0380566318357
20
-5.72828168903069
30
0
41
1
10
36.1867919310541
20
-6.55532257740356
30
0
41
1
10
40.4828872549221
20
-8.16249964848299
30
0
41
1
10
42.6300946054739
20
-8.94301615872084
30
0
41
1
10
45.8530969424814
20
-10.0714669762512
30
0
41
1
10
46.9278909272873
20
-10.4403566461629
30
0
41
1
10
49.0790932255892
20
-11.1621228369248
30
0
41
1
10
50.156092664697
20
-11.5152022739747
30
0
41
1
10
53.3842152501127
20
-12.5462204277731
30
0
41
1
10
55.5335532939852
20
-13.1960345742535
30
0
41
1
10
59.8308271550424
20
-14.4135536336807
30
0
41
1
10
61.9782790983974
20
-14.9819877245332
30
0
41
1
10
65.2029303998383
20
-15.7651259215371
30
0
41
1
10
66.2784059499259
20
-16.0145883123908
30
0
41
1
10
68.4312295691538
20
-16.4892968367144
30
0
41
1
10
69.507610221513
20
-16.7143065889512
30
0
41
1
10
74.8836950689281
20
-17.7752798642117
30
0
41
1
10
79.1729730311384
20
-18.4187332568141
30
0
41
1
10
83.4739156114351
20
-18.8351468980498
30
0
0
SPLINE
5
1AF
100
AcDbEntity
8
1
62
256
6
ByLayer
370
-1
48
1
60
0
100
AcDbSpline
70
4
71
3
72
16
73
12
40
0
40
0
40
0
40
0
40
0.249999999999999
40
0.249999999999999
40
0.499999999999997
40
0.499999999999997
40
0.624999999999999
40
0.624999999999999
40
0.750000000000001
40
0.750000000000001
40
1
40
1
40
1
40
1
41
1
10
98.0443755125758
20
1.89363341996
30
0
41
1
10
97.4353081599079
20
1.85727115533172
30
0
41
1
10
96.8301462491298
20
1.85779465465308
30
0
41
1
10
95.6274144315344
20
1.93054525909278
30
0
41
1
10
95.0298446514165
20
2.0027738774603
30
0
41
1
10
94.1393200575666
20
2.16597454695275
30
0
41
1
10
93.8434532861338
20
2.22954468564436
30
0
41
1
10
93.2537318137755
20
2.37555257525204
30
0
41
1
10
92.9594484515391
20
2.4581736534212
30
0
41
1
10
92.088780555034
20
2.73238644603708
30
0
41
1
10
91.5217443781196
20
2.95079672558612
30
0
41
1
10
90.9685910833927
20
3.20552833109349
30
0
0
SPLINE
5
1B0
100
AcDbEntity
8
1
62
256
6
ByLayer
370
-1
48
1
60
0
100
AcDbSpline
70
4
71
3
72
15
73
11
40
0
40
0
40
0
40
0
40
0.500000000000001
40
0.500000000000001
40
0.750000000000001
40
0.750000000000001
40
0.812500000000002
40
0.812500000000002
40
0.875000000000002
40
1
40
1
40
1
40
1
41
1
10
29
20
-19.3999708230862
30
0
41
1
10
27.9591305925282
20
-19.3992354031935
30
0
41
1
10
26.9237973776914
20
-19.5193536040816
30
0
41
1
10
25.3941250773783
20
-19.9050576587449
30
0
41
1
10
24.8881267934675
20
-20.0680040157771
30
0
41
1
10
24.2622218403174
20
-20.3189698021159
30
0
41
1
10
24.1374179985962
20
-20.3719885017405
30
0
41
1
10
23.8877612161662
20
-20.4752555107388
30
0
41
1
10
23.5134279266579
20
-20.6284121335072
30
0
41
1
10
23.1395045033995
20
-20.7762999995517
30
0
41
1
10
22.8903642973528
20
-20.8725134264604
30
0
0
SPLINE
5
1B1
100
AcDbEntity
8
1
62
256
6
ByLayer
370
-1
48
1
60
0
100
AcDbSpline
70
4
71
3
72
8
73
4
40
0
40
0
40
0
40
0
40
1
40
1
40
1
40
1
41
1
10
79.8504123744922
20
9.02179374369874
30
0
41
1
10
80.170679780465
20
8.87142018696326
30
0
41
1
10
80.491536054324
20
8.72136580001327
30
0
41
1
10
80.8129779465962
20
8.57162882161484
30
0
0
SPLINE
5
1B2
100
AcDbEntity
8
1
62
256
6
ByLayer
370
-1
48
1
60
0
100
AcDbSpline
70
4
71
3
72
23
73
19
40
0
40
0
40
0
40
0
40
0.0625000000000013
40
0.0625000000000013
40
0.125000000000003
40
0.125000000000003
40
0.250000000000001
40
0.374999999999999
40
0.374999999999999
40
0.437499999999998
40
0.437499999999998
40
0.499999999999998
40
0.499999999999998
40
0.749999999999998
40
0.749999999999998
40
0.874999999999999
40
0.874999999999999
40
1
40
1
40
1
40
1
41
1
10
98.814331660592
20
4.54244324362671
30
0
41
1
10
98.8707638246609
20
4.56749244737245
30
0
41
1
10
98.9246267502594
20
4.59290776380965
30
0
41
1
10
99.027105410311
20
4.64448611368084
30
0
41
1
10
99.0758133981376
20
4.67071393836372
30
0
41
1
10
99.212009865581
20
4.74945206286586
30
0
41
1
10
99.3685486286497
20
4.85518922170277
30
0
41
1
10
99.4762832369712
20
4.96239303148502
30
0
41
1
10
99.5383932324875
20
5.0433575851641
30
0
41
1
10
99.5560114794414
20
5.07051813556021
30
0
41
1
10
99.5846290773507
20
5.12465901262883
30
0
41
1
10
99.5955924787451
20
5.15153143863239
30
0
41
1
10
99.6340779037962
20
5.28492690988716
30
0
41
1
10
99.6133761514984
20
5.38859561219496
30
0
41
1
10
99.5031934380758
20
5.53941499260964
30
0
41
1
10
99.453604335037
20
5.58812003841618
30
0
41
1
10
99.3304791935086
20
5.68161828507644
30
0
41
1
10
99.2568328247768
20
5.72656121971275
30
0
41
1
10
99.1710686351948
20
5.76969288018904
30
0
0
SPLINE
5
1B3
100
AcDbEntity
8
1
62
256
6
ByLayer
370
-1
48
1
60
0
100
AcDbSpline
70
4
71
3
72
8
73
4
40
0
40
0
40
0
40
0
40
1
40
1
40
1
40
1
41
1
10
12.1240312610328
20
-17.1406514395479
30
0
41
1
10
13.4023186231629
20
-17.1570956054786
30
0
41
1
10
14.6744153896967
20
-17.1761068409265
30
0
41
1
10
15.9357979035928
20
-17.1903251388581
30
0
0
SPLINE
5
1B4
100
AcDbEntity
8
1
62
256
6
ByLayer
370
-1
48
1
60
0
100
AcDbSpline
70
4
71
3
72
10
73
6
40
0
40
0
40
0
40
0
40
0.5
40
0.5
40
1
40
1
40
1
40
1
41
1
10
26.3248759970756
20
-18.4983025267803
30
0
41
1
10
25.748928994711
20
-18.3077075410205
30
0
41
1
10
25.1740382604676
20
-18.106793639006
30
0
41
1
10
24.0284174275012
20
-17.6793529626113
30
0
41
1
10
23.4576749323385
20
-17.4528579206143
30
0
41
1
10
22.8903642973529
20
-17.2101004333998
30
0
0
SPLINE
5
1B5
100
AcDbEntity
8
1
62
256
6
ByLayer
370
-1
48
1
60
0
100
AcDbSpline
70
4
71
3
72
20
73
16
40
0
40
0
40
0
40
0
40
0.250000000000001
40
0.250000000000001
40
0.312500000000001
40
0.312500000000001
40
0.375000000000002
40
0.375000000000002
40
0.500000000000001
40
0.500000000000001
40
0.625000000000001
40
0.625000000000001
40
0.750000000000001
40
0.750000000000001
40
1
40
1
40
1
40
1
41
1
10
8.43579790359269
20
-16.0168664881158
30
0
41
1
10
8.95764151900792
20
-16.75202005138
30
0
41
1
10
9.51047925353669
20
-17.417975105491
30
0
41
1
10
10.2389777967138
20
-18.1678050013647
30
0
41
1
10
10.3867107445245
20
-18.3137450622753
30
0
41
1
10
10.6850014648216
20
-18.5963986951197
30
0
41
1
10
10.8356075331496
20
-18.7331748829371
30
0
41
1
10
11.2918162471052
20
-19.1300377359336
30
0
41
1
10
11.6018001568057
20
-19.3766761767214
30
0
41
1
10
12.2337353871105
20
-19.8346230339968
30
0
41
1
10
12.5564050720125
20
-20.0463074865395
30
0
41
1
10
13.2092822575668
20
-20.4315760578985
30
0
41
1
10
13.539732101646
20
-20.6054402606625
30
0
41
1
10
14.5437697057618
20
-21.07214681394
30
0
41
1
10
15.2299531485852
20
-21.3103320822086
30
0
41
1
10
15.9357979035928
20
-21.476328404009
30
0
0
SPLINE
5
1B6
100
AcDbEntity
8
1
62
256
6
ByLayer
370
-1
48
1
60
0
100
AcDbSpline
70
4
71
3
72
8
73
4
40
0
40
0
40
0
40
0
40
1
40
1
40
1
40
1
41
1
10
8.37777711580802
20
-15.7870004212427
30
0
41
1
10
8.39687785655946
20
-15.8045759843153
30
0
41
1
10
8.41621710613703
20
-15.8218540960099
30
0
41
1
10
8.43579845454232
20
-15.838837737449
30
0
0
SPLINE
5
1B7
100
AcDbEntity
8
1
62
256
6
ByLayer
370
-1
48
1
60
0
100
AcDbSpline
70
4
71
3
72
8
73
4
40
0
40
0
40
0
40
0
40
1
40
1
40
1
40
1
41
1
10
98.1588119513075
20
-19.3762437726607
30
0
41
1
10
98.2872968751017
20
-19.3778513886956
30
0
41
1
10
98.4150849581168
20
-19.3795036930038
30
0
41
1
10
98.5421760653172
20
-19.3811594387823
30
0
0
SPLINE
5
1B8
100
AcDbEntity
8
1
62
256
6
ByLayer
370
-1
48
1
60
0
100
AcDbSpline
70
4
71
3
72
93
73
89
40
-0.031249999999997
40
-0.031249999999997
40
0
40
0
40
0.0312500000000024
40
0.0312500000000024
40
0.0468750000000035
40
0.0468750000000035
40
0.0625000000000047
40
0.0625000000000047
40
0.0937500000000072
40
0.0937500000000072
40
0.12500000000001
40
0.12500000000001
40
0.156250000000012
40
0.156250000000012
40
0.171875000000012
40
0.171875000000012
40
0.187500000000012
40
0.187500000000012
40
0.218750000000014
40
0.218750000000014
40
0.250000000000017
40
0.250000000000017
40
0.265625000000018
40
0.265625000000018
40
0.28125000000002
40
0.28125000000002
40
0.312500000000022
40
0.312500000000022
40
0.328125000000024
40
0.328125000000024
40
0.343750000000025
40
0.343750000000025
40
0.375000000000028
40
0.375000000000028
40
0.406250000000031
40
0.406250000000031
40
0.421875000000032
40
0.421875000000032
40
0.437500000000033
40
0.437500000000033
40
0.468750000000036
40
0.468750000000036
40
0.484375000000038
40
0.484375000000038
40
0.500000000000039
40
0.500000000000039
40
0.531250000000041
40
0.531250000000041
40
0.562500000000043
40
0.562500000000043
40
0.578125000000044
40
0.578125000000044
40
0.593750000000045
40
0.593750000000045
40
0.625000000000045
40
0.625000000000045
40
0.640625000000043
40
0.640625000000043
40
0.656250000000042
40
0.656250000000042
40
0.68750000000004
40
0.68750000000004
40
0.718750000000038
40
0.718750000000038
40
0.750000000000035
40
0.750000000000035
40
0.765625000000032
40
0.765625000000032
40
0.781250000000029
40
0.796875000000026
40
0.796875000000026
40
0.812500000000024
40
0.812500000000024
40
0.843750000000018
40
0.843750000000018
40
0.859375000000015
40
0.859375000000015
40
0.875000000000012
40
0.875000000000012
40
0.906250000000009
40
0.906250000000009
40
0.937500000000006
40
0.937500000000006
40
0.953125000000004
40
0.953125000000004
40
0.968750000000003
40
0.968750000000003
40
1
40
1
40
1.03125
40
1.03125
41
1
10
104.256966222532
20
-3.96024850476942
30
0
41
1
10
104.244392612252
20
-3.71687673460207
30
0
41
1
10
104.249765520401
20
-3.59629785909723
30
0
41
1
10
104.274879531565
20
-3.41706142270115
30
0
41
1
10
104.286113106193
20
-3.35759015436406
30
0
41
1
10
104.314473916559
20
-3.23921872486144
30
0
41
1
10
104.331714836873
20
-3.18005425911537
30
0
41
1
10
104.391444219226
20
-3.00701086860212
30
0
41
1
10
104.441968976546
20
-2.89664700782956
30
0
41
1
10
104.564438485081
20
-2.68600216882271
30
0
41
1
10
104.637329391568
20
-2.58490229714508
30
0
41
1
10
104.799428140695
20
-2.4016248985306
30
0
41
1
10
104.888920121698
20
-2.31850312662269
30
0
41
1
10
105.036101649423
20
-2.20694423713022
30
0
41
1
10
105.08759961274
20
-2.17182769712764
30
0
41
1
10
105.1928306774
20
-2.10758067693601
30
0
41
1
10
105.246747523422
20
-2.07827486905862
30
0
41
1
10
105.412327640388
20
-1.99866128596079
30
0
41
1
10
105.5281659411
20
-1.95647606341225
30
0
41
1
10
105.768904233305
20
-1.89567688696448
30
0
41
1
10
105.890405234541
20
-1.87783885337544
30
0
41
1
10
106.074296935006
20
-1.86929998037795
30
0
41
1
10
106.135869625876
20
-1.86951304964214
30
0
41
1
10
106.259581803498
20
-1.87623422180579
30
0
41
1
10
106.321514085698
20
-1.88277162738595
30
0
41
1
10
106.503996975581
20
-1.91136588734031
30
0
41
1
10
106.622608393666
20
-1.94236562559365
30
0
41
1
10
106.795944515251
20
-2.00680414570189
30
0
41
1
10
106.853249197601
20
-2.0314607224432
30
0
41
1
10
106.964067584655
20
-2.08592795987829
30
0
41
1
10
107.017742284012
20
-2.11575992057846
30
0
41
1
10
107.173692454559
20
-2.21284410289599
30
0
41
1
10
107.271165598861
20
-2.28782177531684
30
0
41
1
10
107.451249835298
20
-2.4576883794872
30
0
41
1
10
107.531323610219
20
-2.55009951482936
30
0
41
1
10
107.637174835262
20
-2.69934364575394
30
0
41
1
10
107.670064376723
20
-2.75087622138258
30
0
41
1
10
107.730964207062
20
-2.85756712584498
30
0
41
1
10
107.758880050511
20
-2.91263985909836
30
0
41
1
10
107.833577145713
20
-3.07969966921473
30
0
41
1
10
107.872067306511
20
-3.19464157428851
30
0
41
1
10
107.91313129615
20
-3.37226273504194
30
0
41
1
10
107.924054581086
20
-3.43266658229535
30
0
41
1
10
107.939909008055
20
-3.55339527592804
30
0
41
1
10
107.944877191977
20
-3.61368935695322
30
0
41
1
10
107.951194230703
20
-3.79436244158367
30
0
41
1
10
107.944034305002
20
-3.91453267067305
30
0
41
1
10
107.906562454598
20
-4.15431528600692
30
0
41
1
10
107.876547705368
20
-4.2713562498362
30
0
41
1
10
107.815848350512
20
-4.44043245678245
30
0
41
1
10
107.792962356755
20
-4.49583984839683
30
0
41
1
10
107.741794620793
20
-4.6047326599888
30
0
41
1
10
107.713353917956
20
-4.65847681757097
30
0
41
1
10
107.620786612208
20
-4.81470043184217
30
0
41
1
10
107.549984222369
20
-4.91164350846839
30
0
41
1
10
107.430255613131
20
-5.04646128321551
30
0
41
1
10
107.38807578368
20
-5.08962181956485
30
0
41
1
10
107.29898750125
20
-5.17226107162139
30
0
41
1
10
107.251957431932
20
-5.21178502624753
30
0
41
1
10
107.10681187237
20
-5.32204381757617
30
0
41
1
10
107.003726712803
20
-5.38551797881902
30
0
41
1
10
106.784588789265
20
-5.49207042444579
30
0
41
1
10
106.667377008859
20
-5.53521076205513
30
0
41
1
10
106.430154188062
20
-5.59601273117525
30
0
41
1
10
106.309092078787
20
-5.61441443934146
30
0
41
1
10
106.123678176408
20
-5.62335960730499
30
0
41
1
10
106.061239671219
20
-5.62315538651725
30
0
41
1
10
105.938162324469
20
-5.6164605655774
30
0
41
1
10
105.816099995703
20
-5.60354184885682
30
0
41
1
10
105.696028372382
20
-5.57840508541278
30
0
41
1
10
105.576961268597
20
-5.54709183062619
30
0
41
1
10
105.517656595859
20
-5.52821898235666
30
0
41
1
10
105.344989783013
20
-5.46348500060944
30
0
41
1
10
105.235853524179
20
-5.40945707068875
30
0
41
1
10
105.080742922586
20
-5.31265592848615
30
0
41
1
10
105.03023160083
20
-5.27753861830536
30
0
41
1
10
104.933559696468
20
-5.20297786002905
30
0
41
1
10
104.887444804065
20
-5.16362051655372
30
0
41
1
10
104.75549198198
20
-5.03953700058193
30
0
41
1
10
104.675984932322
20
-4.9488568823061
30
0
41
1
10
104.534009848795
20
-4.75128911813195
30
0
41
1
10
104.473609918494
20
-4.64725343111996
30
0
41
1
10
104.398260522994
20
-4.48398178479073
30
0
41
1
10
104.375691975129
20
-4.42832688981329
30
0
41
1
10
104.335732549854
20
-4.31450211018529
30
0
41
1
10
104.318304132827
20
-4.25611257380049
30
0
41
1
10
104.274751157474
20
-4.07985374818478
30
0
41
1
10
104.256966222532
20
-3.96024850476942
30
0
41
1
10
104.244392612252
20
-3.71687673460207
30
0
0
SPLINE
5
1B9
100
AcDbEntity
8
1
62
256
6
ByLayer
370
-1
48
1
60
0
100
AcDbSpline
70
4
71
3
72
62
73
58
40
0
40
0
40
0
40
0
40
0.0624999999999995
40
0.0624999999999995
40
0.124999999999999
40
0.124999999999999
40
0.140624999999999
40
0.140624999999999
40
0.156249999999999
40
0.156249999999999
40
0.187499999999999
40
0.187499999999999
40
0.25
40
0.25
40
0.265625
40
0.265625
40
0.28125
40
0.28125
40
0.312500000000001
40
0.312500000000001
40
0.375000000000001
40
0.375000000000001
40
0.390625000000001
40
0.390625000000001
40
0.406250000000001
40
0.406250000000001
40
0.437500000000002
40
0.437500000000002
40
0.500000000000002
40
0.500000000000002
40
0.515625000000002
40
0.515625000000002
40
0.531250000000003
40
0.531250000000003
40
0.562500000000003
40
0.562500000000003
40
0.625000000000003
40
0.625000000000003
40
0.656250000000003
40
0.656250000000003
40
0.687500000000003
40
0.687500000000003
40
0.750000000000003
40
0.750000000000003
40
0.765625000000003
40
0.765625000000003
40
0.781250000000003
40
0.781250000000003
40
0.812500000000003
40
0.812500000000003
40
0.875000000000002
40
0.875000000000002
40
0.906250000000001
40
0.906250000000001
40
0.937500000000001
40
0.937500000000001
40
1
40
1
40
1
40
1
41
1
10
18.3857157051623
20
0.191154040042676
30
0
41
1
10
17.8674433054517
20
0.308313302665567
30
0
41
1
10
17.3449066208898
20
0.383072633997102
30
0
41
1
10
16.2917452096417
20
0.450648744841942
30
0
41
1
10
15.7611192681771
20
0.443479344429335
30
0
41
1
10
15.0924307236267
20
0.381207501171247
30
0
41
1
10
14.9581164906434
20
0.366026757317002
30
0
41
1
10
14.6907390306095
20
0.330436008700275
30
0
41
1
10
14.5576784061161
20
0.310042469070197
30
0
41
1
10
14.160348243839
20
0.241167565181428
30
0
41
1
10
13.8979276419576
20
0.185004630681107
30
0
41
1
10
13.1179072011915
20
-0.0138946516049145
30
0
41
1
10
12.6075027305777
20
-0.186825558512197
30
0
41
1
10
11.9816592409673
20
-0.455431738956605
30
0
41
1
10
11.857102305661
20
-0.511792271804154
30
0
41
1
10
11.6092312147394
20
-0.629915941907598
30
0
41
1
10
11.4858886294396
20
-0.691713296187828
30
0
41
1
10
11.1213918002233
20
-0.883422953805223
30
0
41
1
10
10.8845181674385
20
-1.02021092045013
30
0
41
1
10
10.1919083750784
20
-1.45706233732187
30
0
41
1
10
9.75405849451261
20
-1.78342776498593
30
0
41
1
10
9.23728020475869
20
-2.23654785697175
30
0
41
1
10
9.13546121428988
20
-2.32944484512657
30
0
41
1
10
8.93495521322222
20
-2.51987836281697
30
0
41
1
10
8.83603771106024
20
-2.61765508751543
30
0
41
1
10
8.54582418659544
20
-2.91633481625379
30
0
41
1
10
8.36185055430769
20
-3.12167095564354
30
0
41
1
10
7.83763295690051
20
-3.75572891589661
30
0
41
1
10
7.52491039821567
20
-4.20238246616174
30
0
41
1
10
7.18015161475705
20
-4.79051902718828
30
0
41
1
10
7.11352167076302
20
-4.90964678198085
30
0
41
1
10
6.98497028920457
20
-5.15093893400802
30
0
41
1
10
6.9228943259339
20
-5.27343568446599
30
0
41
1
10
6.74526072326802
20
-5.64259250240457
30
0
41
1
10
6.63821877419502
20
-5.89086199461988
30
0
41
1
10
6.34986362872704
20
-6.64174434164991
30
0
41
1
10
6.20112354956407
20
-7.15039325948422
30
0
41
1
10
6.04176123927346
20
-7.92458120385274
30
0
41
1
10
5.99923280308693
20
-8.18567957322773
30
0
41
1
10
5.93670861842534
20
-8.70294528018556
30
0
41
1
10
5.91648543874629
20
-8.95970950997622
30
0
41
1
10
5.88733356617121
20
-9.72448276245237
30
0
41
1
10
5.90974622089325
20
-10.2269976965402
30
0
41
1
10
5.98781200190521
20
-10.8458471142629
30
0
41
1
10
6.00598738122747
20
-10.9693999077394
30
0
41
1
10
6.04710605424151
20
-11.2140669535933
30
0
41
1
10
6.0700354776063
20
-11.3351841035934
30
0
41
1
10
6.14570777922143
20
-11.6949821983673
30
0
41
1
10
6.20532343375652
20
-11.9301147864146
30
0
41
1
10
6.41031502384726
20
-12.6218794751772
30
0
41
1
10
6.58169427807084
20
-13.0649407634408
30
0
41
1
10
6.88834139845488
20
-13.7033229880332
30
0
41
1
10
6.99897932536823
20
-13.9118006526077
30
0
41
1
10
7.23365676728113
20
-14.3150147323396
30
0
41
1
10
7.3580047278287
20
-14.5104439378248
30
0
41
1
10
7.75128973554993
20
-15.0789059894283
30
0
41
1
10
8.04035195247508
20
-15.4341942778497
30
0
41
1
10
8.35568152707009
20
-15.7666015450123
30
0
0
SPLINE
5
1BA
100
AcDbEntity
8
1
62
256
6
ByLayer
370
-1
48
1
60
0
100
AcDbSpline
70
4
71
3
72
18
73
14
40
0
40
0
40
0
40
0
40
0.250000000000001
40
0.250000000000001
40
0.375000000000002
40
0.375000000000002
40
0.437500000000002
40
0.437500000000002
40
0.468750000000002
40
0.468750000000002
40
0.500000000000001
40
0.500000000000001
40
1
40
1
40
1
40
1
41
1
10
29
20
-3.2990949513248
30
0
41
1
10
28.1196567506788
20
-2.84625763752857
30
0
41
1
10
27.2361664863642
20
-2.45326925151363
30
0
41
1
10
25.917306158694
20
-1.94293600679455
30
0
41
1
10
25.4787889761291
20
-1.7859800735111
30
0
41
1
10
24.8244722800283
20
-1.56859067650464
30
0
41
1
10
24.6069464116886
20
-1.49913233059584
30
0
41
1
10
24.2817853421439
20
-1.39921982229805
30
0
41
1
10
24.1736682788198
20
-1.36676169195834
30
0
41
1
10
23.9570072996677
20
-1.30180135282933
30
0
41
1
10
23.8485285189668
20
-1.26942234864151
30
0
41
1
10
22.0018102166258
20
-0.720855253829342
30
0
41
1
10
20.2215912492808
20
-0.231580067636145
30
0
41
1
10
18.3857157051614
20
0.191154040038981
30
0
0
SPLINE
5
1BB
100
AcDbEntity
8
1
62
256
6
ByLayer
370
-1
48
1
60
0
100
AcDbSpline
70
4
71
3
72
22
73
18
40
0
40
0
40
0
40
0
40
0.0669663968852924
40
0.0669663968852924
40
0.151787633532084
40
0.151787633532084
40
0.321430106825667
40
0.321430106825667
40
0.491072580119249
40
0.491072580119249
40
0.575893816766041
40
0.575893816766041
40
0.660715053412833
40
0.660715053412833
40
0.830357526706416
40
0.830357526706416
40
1
40
1
40
1
40
1
41
1
10
61.3924653106794
20
-14.8016795463186
30
0
41
1
10
60.6234720168444
20
-14.9799871165206
30
0
41
1
10
59.8542190972464
20
-15.1528731287451
30
0
41
1
10
58.1097901724604
20
-15.532001186634
30
0
41
1
10
57.1343177343929
20
-15.7348518834818
30
0
41
1
10
54.2107761749967
20
-16.3138334217813
30
0
41
1
10
52.2640638441517
20
-16.6601963025629
30
0
41
1
10
48.3709896357021
20
-17.2698615636084
30
0
41
1
10
46.4245445320731
20
-17.5335071006116
30
0
41
1
10
43.5025748917282
20
-17.8653053524319
30
0
41
1
10
42.5278043724112
20
-17.9652924170774
30
0
41
1
10
40.579568666158
20
-18.1433160964744
30
0
41
1
10
39.6060529027168
20
-18.2213853905915
30
0
41
1
10
36.6866910421751
20
-18.422015244452
30
0
41
1
10
34.7421335740512
20
-18.5104863714547
30
0
41
1
10
30.8517589508433
20
-18.5973692673827
30
0
41
1
10
28.905988469534
20
-18.5957141590563
30
0
41
1
10
26.9577059121661
20
-18.5473745106532
30
0
0
SPLINE
5
1BC
100
AcDbEntity
8
1
62
256
6
ByLayer
370
-1
48
1
60
0
100
AcDbSpline
70
4
71
3
72
10
73
6
40
0
40
0
40
0
40
0
40
0.5
40
0.5
40
1
40
1
40
1
40
1
41
1
10
98.814331660592
20
4.54244324362671
30
0
41
1
10
98.7633429242709
20
4.51981027773002
30
0
41
1
10
98.7102698473166
20
4.49751555955424
30
0
41
1
10
98.6000309263128
20
4.45370514294254
30
0
41
1
10
98.5427944906197
20
4.43217069011953
30
0
41
1
10
98.4841684241695
20
4.41129272405368
30
0
0
SPLINE
5
1BD
100
AcDbEntity
8
1
62
256
6
ByLayer
370
-1
48
1
60
0
100
AcDbSpline
70
4
71
3
72
20
73
16
40
0
40
0
40
0
40
0
40
0.125000000000003
40
0.125000000000003
40
0.250000000000006
40
0.250000000000006
40
0.500000000000005
40
0.500000000000005
40
0.625000000000005
40
0.625000000000005
40
0.687500000000005
40
0.687500000000005
40
0.750000000000005
40
0.750000000000005
40
1
40
1
40
1
40
1
41
1
10
94.9964482107824
20
7.12378393683363
30
0
41
1
10
95.2102478734421
20
7.04979945217181
30
0
41
1
10
95.4225122611402
20
6.97885776558397
30
0
41
1
10
95.8433474045775
20
6.8423159754343
30
0
41
1
10
96.0522127495501
20
6.77664375578252
30
0
41
1
10
96.6611718962626
20
6.58952352062587
30
0
41
1
10
97.0474956997881
20
6.47682515867314
30
0
41
1
10
97.5911660764398
20
6.31748479333359
30
0
41
1
10
97.766374832603
20
6.26597658687589
30
0
41
1
10
98.0187674927161
20
6.18983510378067
30
0
41
1
10
98.1011688459567
20
6.16463153432019
30
0
41
1
10
98.2604805537021
20
6.11488494808106
30
0
41
1
10
98.3376191533247
20
6.09027394239683
30
0
41
1
10
98.7102097750077
20
5.9678848455176
30
0
41
1
10
98.9672237174264
20
5.87220850851691
30
0
41
1
10
99.1710686351948
20
5.76969288018904
30
0
0
SPLINE
5
1BE
100
AcDbEntity
8
1
62
256
6
ByLayer
370
-1
48
1
60
0
100
AcDbSpline
70
4
71
3
72
28
73
24
40
0
40
0
40
0
40
0
40
0.0059148749466192
40
0.0059148749466192
40
0.105323387451957
40
0.105323387451957
40
0.204731899957295
40
0.204731899957295
40
0.304140412462634
40
0.304140412462634
40
0.403548924967972
40
0.403548924967972
40
0.50295743747331
40
0.50295743747331
40
0.602365949978648
40
0.602365949978648
40
0.701774462483986
40
0.701774462483986
40
0.801182974989324
40
0.801182974989324
40
0.900591487494662
40
0.900591487494662
40
1
40
1
40
1
40
1
41
1
10
27.3444544969835
20
-2.49119152276114
30
0
41
1
10
27.3303700325629
20
-2.51342869314203
30
0
41
1
10
27.3163272774418
20
-2.53582671343443
30
0
41
1
10
27.0670331040276
20
-2.93750047425257
30
0
41
1
10
26.8437808221089
20
-3.36169584458025
30
0
41
1
10
26.428985166927
20
-4.28575626189544
30
0
41
1
10
26.2374499289357
20
-4.78560318554247
30
0
41
1
10
25.8926467379113
20
-5.84385761777702
30
0
41
1
10
25.7393855474074
20
-6.40224437111408
30
0
41
1
10
25.4763787881801
20
-7.55846461215694
30
0
41
1
10
25.3666383777352
20
-8.15627542323605
30
0
41
1
10
25.1944318047822
20
-9.3708795125242
30
0
41
1
10
25.1319690197138
20
-9.98764896904041
30
0
41
1
10
25.0564579404667
20
-11.2190562375498
30
0
41
1
10
25.0434111272659
20
-11.8336698982939
30
0
41
1
10
25.0671805825804
20
-13.0397244381715
30
0
41
1
10
25.103996384912
20
-13.631141663292
30
0
41
1
10
25.2262326529649
20
-14.7705554901732
30
0
41
1
10
25.3116507213002
20
-15.3185297449269
30
0
41
1
10
25.5281691744838
20
-16.3522962478223
30
0
41
1
10
25.6592653128157
20
-16.8380682209886
30
0
41
1
10
25.9626536739785
20
-17.7307975117986
30
0
41
1
10
26.1349399465375
20
-18.1377373205905
30
0
41
1
10
26.324875993442
20
-18.4983025447898
30
0
0
SPLINE
5
1BF
100
AcDbEntity
8
1
62
256
6
ByLayer
370
-1
48
1
60
0
100
AcDbSpline
70
4
71
3
72
18
73
14
40
0
40
0
40
0
40
0
40
0.250000000000003
40
0.250000000000003
40
0.500000000000006
40
0.500000000000006
40
0.562500000000006
40
0.562500000000006
40
0.625000000000006
40
0.625000000000006
40
0.750000000000004
40
0.750000000000004
40
1
40
1
40
1
40
1
41
1
10
12.1240296744493
20
-17.1406576027937
30
0
41
1
10
11.7808386687862
20
-17.1795257321262
30
0
41
1
10
11.4460216485792
20
-17.1814216521672
30
0
41
1
10
10.7906463011445
20
-17.1121797859881
30
0
41
1
10
10.4700949005778
20
-17.0410613766463
30
0
41
1
10
10.0775753633826
20
-16.9036830418314
30
0
41
1
10
9.9994907335965
20
-16.8737557937694
30
0
41
1
10
9.84551301546603
20
-16.8095266664961
30
0
41
1
10
9.76944272911283
20
-16.7751665073471
30
0
41
1
10
9.54392344739304
20
-16.6654043945352
30
0
41
1
10
9.39716083026508
20
-16.5833310093181
30
0
41
1
10
8.96730545897142
20
-16.310480730711
30
0
41
1
10
8.69455927876254
20
-16.0932526905256
30
0
41
1
10
8.4357979035926
20
-15.8388372595895
30
0
0
SPLINE
5
1C0
100
AcDbEntity
8
1
62
256
6
ByLayer
370
-1
48
1
60
0
100
AcDbSpline
70
4
71
3
72
102
73
98
40
0
40
0
40
0
40
0
40
0.0025610801168367
40
0.0078752562110305
40
0.0185036083994184
40
0.029131960587806
40
0.0450744888703875
40
0.0503886649645815
40
0.0610170171529692
40
0.0716453693413571
40
0.0875878976239387
40
0.0929020737181323
40
0.10353042590652
40
0.114158778094908
40
0.13010130637749
40
0.135415482471683
40
0.146043834660071
40
0.156672186848459
40
0.17261471513104
40
0.177928891225234
40
0.188557243413622
40
0.19918559560201
40
0.215128123884591
40
0.220442299978785
40
0.231070652167173
40
0.241699004355561
40
0.257641532638142
40
0.262955708732336
40
0.273584060920724
40
0.284212413109112
40
0.300154941391693
40
0.305469117485887
40
0.316097469674275
40
0.326725821862662
40
0.342668350145244
40
0.347982526239438
40
0.358610878427826
40
0.369239230616213
40
0.385181758898795
40
0.390495934992989
40
0.401124287181376
40
0.411752639369764
40
0.433009343746539
40
0.443637695934928
40
0.454266048123315
40
0.475522752500091
40
0.480836928594284
40
0.486151104688478
40
0.496779456876866
40
0.50209363297106
40
0.507407809065254
40
0.515379073206545
40
0.518036161253641
40
0.523350337347835
40
0.528664513442029
40
0.539292865630417
40
0.544607041724611
40
0.549921217818804
40
0.560549570007192
40
0.57117792219558
40
0.581806274383968
40
0.603062978760743
40
0.613691330949131
40
0.624319683137519
40
0.645576387514294
40
0.656204739702682
40
0.66683309189107
40
0.688089796267845
40
0.698718148456233
40
0.70934650064462
40
0.725289028927202
40
0.730603205021396
40
0.741231557209784
40
0.751859909398171
40
0.767802437680753
40
0.773116613774947
40
0.783744965963335
40
0.794373318151722
40
0.810315846434304
40
0.815630022528498
40
0.826258374716885
40
0.836886726905273
40
0.852829255187855
40
0.858143431282049
40
0.868771783470436
40
0.879400135658824
40
0.895342663941405
40
0.900656840035599
40
0.911285192223987
40
0.921913544412375
40
0.937856072694957
40
0.94317024878915
40
0.953798600977538
40
0.964426953165926
40
0.985683657542701
40
0.996312009731089
40
1
40
1
40
1
40
1
41
1
10
16.975152859604
20
0.44243941179181
30
0
41
1
10
16.9667834842614
20
0.43917549177101
30
0
41
1
10
16.9410116791143
20
0.428956456949493
30
0
41
1
10
16.8802009940893
20
0.40362315501099
30
0
41
1
10
16.7921526722447
20
0.363376914541789
30
0
41
1
10
16.6676377243082
20
0.299777614415973
30
0
41
1
10
16.55968818201
20
0.237454497937534
30
0
41
1
10
16.4508974196041
20
0.168839816035103
30
0
41
1
10
16.3597411748541
20
0.107719515039122
30
0
41
1
10
16.2313149116042
20
0.0148167395976202
30
0
41
1
10
16.1204994082618
20
-0.0726478849178704
30
0
41
1
10
16.0092504474337
20
-0.166349973932483
30
0
41
1
10
15.9163044070271
20
-0.248327322837781
30
0
41
1
10
15.7858642168974
20
-0.37027827387837
30
0
41
1
10
15.6738589138279
20
-0.48241453083142
30
0
41
1
10
15.5618607022765
20
-0.600529676598313
30
0
41
1
10
15.4685680065514
20
-0.702673560357766
30
0
41
1
10
15.3381631185139
20
-0.852468227608938
30
0
41
1
10
15.2267482471082
20
-0.987991386843333
30
0
41
1
10
15.1157914446982
20
-1.12903585356
30
0
41
1
10
15.0236490423675
20
-1.24998604369878
30
0
41
1
10
14.8953769869363
20
-1.42549562918953
30
0
41
1
10
14.7863448282795
20
-1.58234754616217
30
0
41
1
10
14.6782081944074
20
-1.74408488285775
30
0
41
1
10
14.5886880505967
20
-1.8818679916383
30
0
41
1
10
14.4645836694189
20
-2.08013597695964
30
0
41
1
10
14.359643521819
20
-2.2555866168467
30
0
41
1
10
14.2559999636933
20
-2.4351441763489
30
0
41
1
10
14.1704716504392
20
-2.58728013353527
30
0
41
1
10
14.0524009778964
20
-2.80468705391755
30
0
41
1
10
13.9530912629955
20
-2.99549062830289
30
0
41
1
10
13.855423172064
20
-3.18952531324754
30
0
41
1
10
13.7750854964775
20
-3.35317101191981
30
0
41
1
10
13.6646548540473
20
-3.58564459293629
30
0
41
1
10
13.5722711531364
20
-3.78822798419881
30
0
41
1
10
13.4818041616385
20
-3.99311967254701
30
0
41
1
10
13.4076337373248
20
-4.16523294010528
30
0
41
1
10
13.3061247687816
20
-4.4084811285729
30
0
41
1
10
13.2216716655572
20
-4.61914550343147
30
0
41
1
10
13.139332497749
20
-4.83119794420915
30
0
41
1
10
13.072052373406
20
-5.00870404518972
30
0
41
1
10
12.9672901233257
20
-5.29412212804931
30
0
41
1
10
12.8669110035935
20
-5.58121882705018
30
0
41
1
10
12.7710234283
20
-5.86912641060292
30
0
41
1
10
12.6781416435508
20
-6.15731374161848
30
0
41
1
10
12.60083018069
20
-6.40950246936416
30
0
41
1
10
12.5374132812419
20
-6.62519288045422
30
0
41
1
10
12.4959011300589
20
-6.76880543900396
30
0
41
1
10
12.4555462967361
20
-6.91206339324236
30
0
41
1
10
12.4163660716461
20
-7.05480068107781
30
0
41
1
10
12.3827244558426
20
-7.17953418203595
30
0
41
1
10
12.3545284003302
20
-7.28642768672086
30
0
41
1
10
12.3267873279775
20
-7.3934871467159
30
0
41
1
10
12.3039423177872
20
-7.48284514692156
30
0
41
1
10
12.2679363502798
20
-7.6262906262113
30
0
41
1
10
12.2326963688324
20
-7.770700435045
30
0
41
1
10
12.1981161991737
20
-7.91658519562878
30
0
41
1
10
12.1639966840581
20
-8.0634057151272
30
0
41
1
10
12.1222499799642
20
-8.24859677074261
30
0
41
1
10
12.0737229188368
20
-8.47320543395676
30
0
41
1
10
12.0112220784717
20
-8.77564657970504
30
0
41
1
10
11.9521889939506
20
-9.08221771689023
30
0
41
1
10
11.8969534535473
20
-9.39229004399792
30
0
41
1
10
11.8443535949989
20
-9.70444254899675
30
0
41
1
10
11.7958632378978
20
-10.0193343977465
30
0
41
1
10
11.7517943395734
20
-10.3362037440754
30
0
41
1
10
11.7107647669223
20
-10.654100246958
30
0
41
1
10
11.6744317125143
20
-10.9731007219218
30
0
41
1
10
11.6430702358156
20
-11.2923316434692
30
0
41
1
10
11.6185928838105
20
-11.5715153278867
30
0
41
1
10
11.6008563605367
20
-11.8103643741231
30
0
41
1
10
11.5857971854448
20
-12.0484952463205
30
0
41
1
10
11.5749383189931
20
-12.2464143705681
30
0
41
1
10
11.5629339253336
20
-12.5222364707872
30
0
41
1
10
11.5561164514602
20
-12.7569919372021
30
0
41
1
10
11.5521312512053
20
-12.9900464594354
30
0
41
1
10
11.5505918112742
20
-13.1831183539168
30
0
41
1
10
11.5517795443002
20
-13.4510074554597
30
0
41
1
10
11.5563979426093
20
-13.6777394914038
30
0
41
1
10
11.5639189465828
20
-13.9017977046739
30
0
41
1
10
11.5720052310425
20
-14.086765895829
30
0
41
1
10
11.5867114252649
20
-14.3421973695322
30
0
41
1
10
11.6029335922556
20
-14.5570811903169
30
0
41
1
10
11.6220368225881
20
-14.7683809756404
30
0
41
1
10
11.6397542577072
20
-14.9421536742572
30
0
41
1
10
11.6678784502473
20
-15.1808942967226
30
0
41
1
10
11.695502569493
20
-15.3804189799071
30
0
41
1
10
11.7258937328242
20
-15.5755620195748
30
0
41
1
10
11.7529392942552
20
-15.7353815390458
30
0
41
1
10
11.7939517686522
20
-15.9537206132212
30
0
41
1
10
11.8324133235737
20
-16.1348786378383
30
0
41
1
10
11.8734425757228
20
-16.3110106242115
30
0
41
1
10
11.9092220326302
20
-16.4545972065272
30
0
41
1
10
11.9697643717205
20
-16.6773836817578
30
0
41
1
10
12.0351094118859
20
-16.8895222211503
30
0
41
1
10
12.0935709798537
20
-17.0577513360981
30
0
41
1
10
12.1177575062049
20
-17.1237600403183
30
0
41
1
10
12.1240312610225
20
-17.1406514395201
30
0
0
SPLINE
5
1C1
100
AcDbEntity
8
1
62
256
6
ByLayer
370
-1
48
1
60
0
100
AcDbSpline
70
4
71
3
72
18
73
14
40
0
40
0
40
0
40
0
40
0.125
40
0.125
40
0.250000000000001
40
0.250000000000001
40
0.375000000000001
40
0.375000000000001
40
0.500000000000001
40
0.500000000000001
40
0.75
40
0.75
40
1
40
1
40
1
40
1
41
1
10
100.238144704525
20
6.81859987535469
30
0
41
1
10
100.243448745494
20
6.81859987535469
30
0
41
1
10
100.238701421446
20
6.82516265875014
30
0
41
1
10
100.213474910961
20
6.84959158045811
30
0
41
1
10
100.193800687658
20
6.86682775485619
30
0
41
1
10
100.145948473012
20
6.90959471631072
30
0
41
1
10
100.118036490413
20
6.93490352284243
30
0
41
1
10
100.058963173714
20
6.99136564417927
30
0
41
1
10
100.027539658414
20
7.02272462000016
30
0
41
1
10
99.9298925678248
20
7.12670346284452
30
0
41
1
10
99.8631696229008
20
7.20614698063494
30
0
41
1
10
99.7324247297497
20
7.38880534816482
30
0
41
1
10
99.6716311822202
20
7.48741461319079
30
0
41
1
10
99.6160190673578
20
7.59483528128621
30
0
0
SPLINE
5
1C2
100
AcDbEntity
8
1
62
256
6
ByLayer
370
-1
48
1
60
0
100
AcDbSpline
70
4
71
3
72
12
73
8
40
0
40
0
40
0
40
0
40
0.499999999999996
40
0.499999999999996
40
0.749999999999998
40
0.749999999999998
40
1
40
1
40
1
40
1
41
1
10
75.7123058520781
20
13.6627402847375
30
0
41
1
10
75.700532495536
20
13.7756779283677
30
0
41
1
10
75.7060997090991
20
13.8883873608358
30
0
41
1
10
75.7358123432613
20
14.0572665499062
30
0
41
1
10
75.7494557030724
20
14.1137882747739
30
0
41
1
10
75.7831675870078
20
14.2245563645349
30
0
41
1
10
75.8032413501791
20
14.2790115228986
30
0
41
1
10
75.8263638074428
20
14.3325903347389
30
0
0
SPLINE
5
1C3
100
AcDbEntity
8
1
62
256
6
ByLayer
370
-1
48
1
60
0
100
AcDbSpline
70
4
71
3
72
16
73
12
40
0
40
0
40
0
40
0
40
0.249999999999991
40
0.249999999999991
40
0.374999999999988
40
0.374999999999988
40
0.499999999999985
40
0.499999999999985
40
0.749999999999992
40
0.749999999999992
40
1
40
1
40
1
40
1
41
1
10
75.8263638074429
20
14.3325903347387
30
0
41
1
10
75.8962945548057
20
14.494632210828
30
0
41
1
10
75.9880130048778
20
14.6416985575157
30
0
41
1
10
76.1442937385142
20
14.8494410560149
30
0
41
1
10
76.1996455509826
20
14.9164487848036
30
0
41
1
10
76.3156388870939
20
15.0468277766747
30
0
41
1
10
76.3762738523146
20
15.1101471222527
30
0
41
1
10
76.5621341094886
20
15.293108629798
30
0
41
1
10
76.6921422752221
20
15.406899058875
30
0
41
1
10
76.9604075668894
20
15.6233242369776
30
0
41
1
10
77.0987151442067
20
15.7258929573087
30
0
41
1
10
77.2401244784739
20
15.8242387833849
30
0
0
SPLINE
5
1C4
100
AcDbEntity
8
1
62
256
6
ByLayer
370
-1
48
1
60
0
100
AcDbSpline
70
4
71
3
72
8
73
4
40
0
40
0
40
0
40
0
40
1
40
1
40
1
40
1
41
1
10
98.4841684241755
20
4.4112927240563
30
0
41
1
10
97.6089514420598
20
4.09960968681173
30
0
41
1
10
96.694796680415
20
3.85267682354706
30
0
41
1
10
95.7585695586375
20
3.68201874619652
30
0
0
SPLINE
5
1C5
100
AcDbEntity
8
1
62
256
6
ByLayer
370
-1
48
1
60
0
100
AcDbSpline
70
4
71
3
72
16
73
12
40
0
40
0
40
0
40
0
40
0.153125665064548
40
0.153125665064548
40
0.435417110043032
40
0.435417110043032
40
0.717708555021516
40
0.717708555021516
40
0.858854277510758
40
0.858854277510758
40
1
40
1
40
1
40
1
41
1
10
103.015668793672
20
7.07947296687226
30
0
41
1
10
102.994537092803
20
7.05998969984427
30
0
41
1
10
102.973587136593
20
7.04154317027675
30
0
41
1
10
102.914846559344
20
6.99193198792278
30
0
41
1
10
102.877707855654
20
6.96314108992229
30
0
41
1
10
102.808176714564
20
6.91311709430559
30
0
41
1
10
102.776330311439
20
6.8923139475888
30
0
41
1
10
102.739163049316
20
6.87031190377516
30
0
41
1
10
102.728568539441
20
6.86453122675283
30
0
41
1
10
102.712527957026
20
6.85680792442935
30
0
41
1
10
102.70695714553
20
6.85478700746759
30
0
41
1
10
102.704160881739
20
6.85478700746759
30
0
0
SPLINE
5
1C6
100
AcDbEntity
8
1
62
256
6
ByLayer
370
-1
48
1
60
0
100
AcDbSpline
70
4
71
3
72
14
73
10
40
0
40
0
40
0
40
0
40
0.499999999999999
40
0.499999999999999
40
0.749999999999999
40
0.749999999999999
40
0.874999999999999
40
0.874999999999999
40
1
40
1
40
1
40
1
41
1
10
80.3581978078448
20
18.9650049899452
30
0
41
1
10
79.936015924685
20
18.3426094196761
30
0
41
1
10
79.4647942812517
20
17.7699192002606
30
0
41
1
10
78.6840086979714
20
16.9858407156017
30
0
41
1
10
78.411502972409
20
16.7368912646438
30
0
41
1
10
77.9851297446975
20
16.3813208017051
30
0
41
1
10
77.8400719608807
20
16.2657705017714
30
0
41
1
10
77.5441913664259
20
16.0405131743674
30
0
41
1
10
77.3931227338198
20
15.9306443462719
30
0
41
1
10
77.2401244784739
20
15.8242387833848
30
0
0
SPLINE
5
1C7
100
AcDbEntity
8
1
62
256
6
ByLayer
370
-1
48
1
60
0
100
AcDbSpline
70
4
71
3
72
12
73
8
40
0
40
0
40
0
40
0
40
0.500000000000013
40
0.500000000000013
40
0.750000000000007
40
0.750000000000007
40
1
40
1
40
1
40
1
41
1
10
75.9719757982804
20
13.014839310705
30
0
41
1
10
75.9038766918703
20
13.1099797899375
30
0
41
1
10
75.8457044154831
20
13.2106104399884
30
0
41
1
10
75.77838997869
20
13.3727626451985
30
0
41
1
10
75.7592202599037
20
13.4290560882397
30
0
41
1
10
75.7293145932035
20
13.5441442543224
30
0
41
1
10
75.7185519996713
20
13.602823200904
30
0
41
1
10
75.7123058520781
20
13.6627402847378
30
0
0
SPLINE
5
1C8
100
AcDbEntity
8
1
62
256
6
ByLayer
370
-1
48
1
60
0
100
AcDbSpline
70
4
71
3
72
8
73
4
40
0
40
0
40
0
40
0
40
1
40
1
40
1
40
1
41
1
10
96.3495665076542
20
19.3876187301289
30
0
41
1
10
96.6605319031837
20
19.3899765417874
30
0
41
1
10
96.9664687052604
20
19.3925320386572
30
0
41
1
10
97.2674882033167
20
19.3947389943378
30
0
0
SPLINE
5
1C9
100
AcDbEntity
8
1
62
256
6
ByLayer
370
-1
48
1
60
0
100
AcDbSpline
70
4
71
3
72
16
73
12
40
0
40
0
40
0
40
0
40
0.0571223032485795
40
0.0571223032485795
40
0.214268586040482
40
0.214268586040482
40
0.371414868832384
40
0.371414868832384
40
0.685707434416192
40
0.685707434416192
40
1
40
1
40
1
40
1
41
1
10
79.0097403594719
20
9.23575702585984
30
0
41
1
10
78.9458037352362
20
9.29519062055374
30
0
41
1
10
78.8825111512422
20
9.35553027290089
30
0
41
1
10
78.6473496858007
20
9.5852678892864
30
0
41
1
10
78.4793470033141
20
9.76055150385
30
0
41
1
10
78.149966274954
20
10.1241031018359
30
0
41
1
10
77.9884220523238
20
10.3125987201959
30
0
41
1
10
77.5111187829375
20
10.8946169463491
30
0
41
1
10
77.2047064355426
20
11.3017071588087
30
0
41
1
10
76.5925392825602
20
12.1419237141442
30
0
41
1
10
76.2868051104689
20
12.5750355336512
30
0
41
1
10
75.9719757982804
20
13.014839310705
30
0
0
SPLINE
5
1CA
100
AcDbEntity
8
1
62
256
6
ByLayer
370
-1
48
1
60
0
100
AcDbSpline
70
4
71
3
72
20
73
16
40
0
40
0
40
0
40
0
40
0.351160892555945
40
0.351160892555945
40
0.526741338833917
40
0.526741338833917
40
0.614531561972903
40
0.614531561972903
40
0.702321785111888
40
0.702321785111888
40
0.87790223138986
40
0.87790223138986
40
0.965692454528846
40
0.965692454528846
40
1
40
1
40
1
40
1
41
1
10
28.9999999999999
20
-19.3999708230861
30
0
41
1
10
32.8726495578042
20
-19.402707019867
30
0
41
1
10
36.7326602503164
20
-19.2121609368763
30
0
41
1
10
42.5311809400525
20
-18.6491223251168
30
0
41
1
10
44.4654144570608
20
-18.4154108749871
30
0
41
1
10
47.3717828142341
20
-17.9981917687548
30
0
41
1
10
48.341022276135
20
-17.8480558332095
30
0
41
1
10
50.2779850984015
20
-17.526610722445
30
0
41
1
10
51.2461101762696
20
-17.3552362777029
30
0
41
1
10
54.1501533458316
20
-16.8100979623421
30
0
41
1
10
56.0857393737055
20
-16.4052963861596
30
0
41
1
10
58.9915075507048
20
-15.740257364428
30
0
41
1
10
59.9604958999414
20
-15.5089445964639
30
0
41
1
10
61.3090626941373
20
-15.1743727364279
30
0
41
1
10
61.688037475151
20
-15.0789623526844
30
0
41
1
10
62.0670011168839
20
-14.9821968646789
30
0
0
SPLINE
5
1CB
100
AcDbEntity
8
1
62
256
6
ByLayer
370
-1
48
1
60
0
100
AcDbSpline
70
4
71
3
72
8
73
4
40
0
40
0
40
0
40
0
40
1
40
1
40
1
40
1
41
1
10
8.43579790359277
20
-16.0168664881162
30
0
41
1
10
8.4083444299487
20
-15.9340111389603
30
0
41
1
10
8.38165197711052
20
-15.8505865933641
30
0
41
1
10
8.3556815270735
20
-15.7666015450234
30
0
0
SPLINE
5
1CC
100
AcDbEntity
8
1
62
256
6
ByLayer
370
-1
48
1
60
0
100
AcDbSpline
70
4
71
3
72
12
73
8
40
0
40
0
40
0
40
0
40
0.250000000000007
40
0.250000000000007
40
0.500000000000014
40
0.500000000000014
40
1
40
1
40
1
40
1
41
1
10
99.4837338393988
20
19.3951437875016
30
0
41
1
10
99.4890280160387
20
19.3938006010087
30
0
41
1
10
99.5009273445731
20
19.3922180875198
30
0
41
1
10
99.5374195741878
20
19.3886627476761
30
0
41
1
10
99.5624296163915
20
19.3866664094756
30
0
41
1
10
99.6535701866029
20
19.3805563308404
30
0
41
1
10
99.7375835813518
20
19.3761884129716
30
0
41
1
10
99.8378916044977
20
19.372640671209
30
0
0
SPLINE
5
1CD
100
AcDbEntity
8
1
62
256
6
ByLayer
370
-1
48
1
60
0
100
AcDbSpline
70
4
71
3
72
8
73
4
40
0
40
0
40
0
40
0
40
1
40
1
40
1
40
1
41
1
10
92.5515706066171
20
8.05026427028096
30
0
41
1
10
93.0555779244613
20
7.82924946252541
30
0
41
1
10
93.5731080794253
20
7.63536093310972
30
0
41
1
10
94.1064140197939
20
7.46906737002845
30
0
0
SPLINE
5
1CE
100
AcDbEntity
8
1
62
256
6
ByLayer
370
-1
48
1
60
0
100
AcDbSpline
70
4
71
3
72
8
73
4
40
0
40
0
40
0
40
0
40
1
40
1
40
1
40
1
41
1
10
8.377777115811
20
-15.7870004212454
30
0
41
1
10
8.37038808114389
20
-15.7802013946251
30
0
41
1
10
8.36302291095888
20
-15.7734017229387
30
0
41
1
10
8.35568152707006
20
-15.7666015450123
30
0
0
SPLINE
5
1CF
100
AcDbEntity
8
1
62
256
6
ByLayer
370
-1
48
1
60
0
100
AcDbSpline
70
4
71
3
72
8
73
4
40
0
40
0
40
0
40
0
40
1
40
1
40
1
40
1
41
1
10
29
20
-3.2990949513248
30
0
41
1
10
29.978838924609
20
-3.80259718139348
30
0
41
1
10
30.9393991435617
20
-4.33389109497526
30
0
41
1
10
31.8857157051622
20
-4.88442598198097
30
0
0
SPLINE
5
1D0
100
AcDbEntity
8
1
62
256
6
ByLayer
370
-1
48
1
60
0
100
AcDbSpline
70
4
71
3
72
20
73
16
40
0
40
0
40
0
40
0
40
0.25
40
0.25
40
0.375
40
0.375
40
0.4375
40
0.4375
40
0.5
40
0.5
40
0.625
40
0.625
40
0.75
40
0.75
40
1
40
1
40
1
40
1
41
1
10
29
20
19.3940200039524
30
0
41
1
10
32.9288178584493
20
19.3542646763107
30
0
41
1
10
36.8446277964893
20
19.1155587187589
30
0
41
1
10
42.7276756557847
20
18.4745306507244
30
0
41
1
10
44.6902161968146
20
18.2138752764267
30
0
41
1
10
47.6393348367985
20
17.7551253631543
30
0
41
1
10
48.6224823980149
20
17.591027528594
30
0
41
1
10
50.5875131249434
20
17.2413560898247
30
0
41
1
10
51.5696916377748
20
17.0557343770759
30
0
41
1
10
54.5160021277914
20
16.4675647610435
30
0
41
1
10
56.4799091191061
20
16.0336880864733
30
0
41
1
10
60.4114078853931
20
15.088661617084
30
0
41
1
10
62.3803414376971
20
14.5771188759678
30
0
41
1
10
68.2803958416408
20
12.9422279807002
30
0
41
1
10
72.2097930110824
20
11.7183694027079
30
0
41
1
10
76.1491745603139
20
10.3885480912303
30
0
0
SPLINE
5
1D1
100
AcDbEntity
8
1
62
256
6
ByLayer
370
-1
48
1
60
0
100
AcDbSpline
70
4
71
2
72
6
73
3
40
0
40
0
40
0
40
1
40
1
40
1
41
1
10
22.8903642973529
20
-17.2101004328159
30
0
41
1
10
22.8903642973529
20
-19.0413069297426
30
0
41
1
10
22.8903642973528
20
-20.8725134266691
30
0
0
SPLINE
5
1D2
100
AcDbEntity
8
1
62
256
6
ByLayer
370
-1
48
1
60
0
100
AcDbSpline
70
4
71
3
72
14
73
10
40
0
40
0
40
0
40
0
40
0.500000000000008
40
0.500000000000008
40
0.625000000000006
40
0.625000000000006
40
0.750000000000004
40
0.750000000000004
40
1
40
1
40
1
40
1
41
1
10
94.1064140197939
20
7.46906737002845
30
0
41
1
10
94.945692037596
20
7.21506661001177
30
0
41
1
10
95.8012565365231
20
7.03013551295405
30
0
41
1
10
96.8914228112104
20
6.88671033169035
30
0
41
1
10
97.1104980298647
20
6.86243955774384
30
0
41
1
10
97.5507679733411
20
6.82287517210924
30
0
41
1
10
97.7722654923737
20
6.80757556060107
30
0
41
1
10
98.4363032044513
20
6.77556806232749
30
0
41
1
10
98.8791731833994
20
6.77260577218755
30
0
41
1
10
99.3222293928511
20
6.78808869321452
30
0
0
SPLINE
5
1D3
100
AcDbEntity
8
1
62
256
6
ByLayer
370
-1
48
1
60
0
100
AcDbSpline
70
4
71
3
72
22
73
18
40
0
40
0
40
0
40
0
40
0.25
40
0.25
40
0.375
40
0.375
40
0.4375
40
0.4375
40
0.5
40
0.5
40
0.75
40
0.75
40
0.875
40
0.875
40
0.9375
40
0.9375
40
1
40
1
40
1
40
1
41
1
10
15.9357979035928
20
-17.190325138858
30
0
41
1
10
16.338325542499
20
-16.9908232636992
30
0
41
1
10
16.7970884560169
20
-16.8223835122429
30
0
41
1
10
17.5614008669109
20
-16.6474590925632
30
0
41
1
10
17.828913297988
20
-16.6020123576664
30
0
41
1
10
18.2487401505977
20
-16.5559921190097
30
0
41
1
10
18.3921287479644
20
-16.5443207544567
30
0
41
1
10
18.6832113287126
20
-16.5287965024264
30
0
41
1
10
18.8307111782541
20
-16.524931054436
30
0
41
1
10
19.5774539150204
20
-16.524934027973
30
0
41
1
10
20.2039561082945
20
-16.5873467389768
30
0
41
1
10
21.1827492054409
20
-16.7638054822748
30
0
41
1
10
21.5156143473182
20
-16.836320177549
30
0
41
1
10
22.0250086656256
20
-16.9636302761695
30
0
41
1
10
22.1966257135146
20
-17.0091952856719
30
0
41
1
10
22.541778211369
20
-17.1056863543128
30
0
41
1
10
22.7154808014417
20
-17.1566500092048
30
0
41
1
10
22.8903642961876
20
-17.2101004330438
30
0
0
SPLINE
5
1D4
100
AcDbEntity
8
1
62
256
6
ByLayer
370
-1
48
1
60
0
100
AcDbSpline
70
4
71
3
72
20
73
16
40
0
40
0
40
0
40
0
40
0.345035812999945
40
0.345035812999945
40
0.431294766249934
40
0.431294766249934
40
0.517553719499922
40
0.517553719499922
40
0.69007162599989
40
0.69007162599989
40
0.862589532499857
40
0.862589532499857
40
0.948848485749834
40
0.948848485749834
40
1
40
1
40
1
40
1
41
1
10
105.377621952768
20
13.1860194994054
30
0
41
1
10
105.402443092697
20
12.9722745627833
30
0
41
1
10
105.462434057245
20
12.7601150841512
30
0
41
1
10
105.588768736289
20
12.4991244975121
30
0
41
1
10
105.616684781057
20
12.4471862699272
30
0
41
1
10
105.677214826541
20
12.3454957751032
30
0
41
1
10
105.709920269422
20
12.2955404815856
30
0
41
1
10
105.815704275713
20
12.1485849962076
30
0
41
1
10
105.896350342717
20
12.0544473946246
30
0
41
1
10
106.081621575493
20
11.8760063119836
30
0
41
1
10
106.184274889642
20
11.7937657053147
30
0
41
1
10
106.352935123817
20
11.684406793108
30
0
41
1
10
106.411713635707
20
11.6502097507772
30
0
41
1
10
106.509848084743
20
11.5997788474149
30
0
41
1
10
106.547278190659
20
11.5819681974331
30
0
41
1
10
106.585349965311
20
11.5652828157893
30
0
0
SPLINE
5
1D5
100
AcDbEntity
8
1
62
256
6
ByLayer
370
-1
48
1
60
0
100
AcDbSpline
70
4
71
3
72
18
73
14
40
0
40
0
40
0
40
0
40
0.170124330971781
40
0.170124330971781
40
0.273858789600309
40
0.273858789600309
40
0.377593248228837
40
0.377593248228837
40
0.585062165485891
40
0.585062165485891
40
0.792531082742946
40
0.792531082742946
40
1
40
1
40
1
40
1
41
1
10
105.827303306679
20
14.5910846304638
30
0
41
1
10
105.7639975984
20
14.5248725146236
30
0
41
1
10
105.708113335607
20
14.4551384088176
30
0
41
1
10
105.628305386788
20
14.3376853893848
30
0
41
1
10
105.60040198823
20
14.2918570353299
30
0
41
1
10
105.549836671597
20
14.1991980705657
30
0
41
1
10
105.527061261734
20
14.1522217976592
30
0
41
1
10
105.46568464456
20
14.0094041628225
30
0
41
1
10
105.433975501408
20
13.9116829592905
30
0
41
1
10
105.38773680721
20
13.7112272025302
30
0
41
1
10
105.373205754504
20
13.608030128737
30
0
41
1
10
105.361976598688
20
13.3986322569
30
0
41
1
10
105.365211382803
20
13.2928919677164
30
0
41
1
10
105.377621952768
20
13.1860194994054
30
0
0
SPLINE
5
1D6
100
AcDbEntity
8
1
62
256
6
ByLayer
370
-1
48
1
60
0
100
AcDbSpline
70
4
71
3
72
22
73
18
40
0
40
0
40
0
40
0
40
0.249999999999999
40
0.249999999999999
40
0.312499999999999
40
0.312499999999999
40
0.374999999999999
40
0.374999999999999
40
0.5
40
0.5
40
0.625
40
0.625
40
0.6875
40
0.6875
40
0.749999999999999
40
0.749999999999999
40
1
40
1
40
1
40
1
41
1
10
15.9357979035928
20
-21.476328404009
30
0
41
1
10
16.265965628903
20
-21.7093597539826
30
0
41
1
10
16.6545945920874
20
-21.8683499567657
30
0
41
1
10
17.2322163188341
20
-21.9752557775375
30
0
41
1
10
17.3523666415106
20
-21.9920123772568
30
0
41
1
10
17.6025562624952
20
-22.0161485636558
30
0
41
1
10
17.7328658753722
20
-22.0234971500935
30
0
41
1
10
18.1335187051855
20
-22.0312735956962
30
0
41
1
10
18.4152514100819
20
-22.0177142247499
30
0
41
1
10
19.0090479250351
20
-21.9557067967939
30
0
41
1
10
19.3211060972697
20
-21.9072559042893
30
0
41
1
10
19.8131897565737
20
-21.8095157640765
30
0
41
1
10
19.9816183574247
20
-21.7726547302756
30
0
41
1
10
20.3249995551061
20
-21.6910671448924
30
0
41
1
10
20.498882374412
20
-21.6466121628509
30
0
41
1
10
21.3791049040649
20
-21.4072982570496
30
0
41
1
10
22.1176634111689
20
-21.1620687916554
30
0
41
1
10
22.8903642961876
20
-20.8725134268969
30
0
0
SPLINE
5
1D7
100
AcDbEntity
8
1
62
256
6
ByLayer
370
-1
48
1
60
0
100
AcDbSpline
70
4
71
3
72
8
73
4
40
0
40
0
40
0
40
0
40
1
40
1
40
1
40
1
41
1
10
15.9357979035928
20
-17.1903251388581
30
0
41
1
10
15.9357979035928
20
-18.6189928939084
30
0
41
1
10
15.9357979035928
20
-20.0476606489587
30
0
41
1
10
15.9357979035928
20
-21.476328404009
30
0
0
SPLINE
5
1D8
100
AcDbEntity
8
1
62
256
6
ByLayer
370
-1
48
1
60
0
100
AcDbSpline
70
4
71
3
72
12
73
8
40
0
40
0
40
0
40
0
40
0.104898575171334
40
0.104898575171334
40
0.403265716780891
40
0.403265716780891
40
1
40
1
40
1
40
1
41
1
10
111.092334573653
20
7.3623343722366
30
0
41
1
10
111.091389034091
20
7.34812238444033
30
0
41
1
10
111.090362525224
20
7.33452133011195
30
0
41
1
10
111.086169370027
20
7.28455282999431
30
0
41
1
10
111.08247783625
20
7.25229338233282
30
0
41
1
10
111.070684127083
20
7.17504237302137
30
0
41
1
10
111.0616188984
20
7.14751877076475
30
0
41
1
10
111.052710038949
20
7.14743612179058
30
0
0
SPLINE
5
1D9
100
AcDbEntity
8
1
62
256
6
ByLayer
370
-1
48
1
60
0
100
AcDbSpline
70
4
71
3
72
8
73
4
40
0
40
0
40
0
40
0
40
1
40
1
40
1
40
1
41
1
10
90.974398277448
20
4.2553562744344
30
0
41
1
10
91.0653069270584
20
4.22253661469864
30
0
41
1
10
91.1558125971654
20
4.1906133683147
30
0
41
1
10
91.2459161826317
20
4.15958454469254
30
0
0
SPLINE
5
1DA
100
AcDbEntity
8
1
62
256
6
ByLayer
370
-1
48
1
60
0
100
AcDbSpline
70
4
71
3
72
14
73
10
40
0
40
0
40
0
40
0
40
0.0557839801084046
40
0.198567954961129
40
0.341351929813852
40
0.484135904666575
40
0.626919879519298
40
0.769703854372022
40
1
40
1
40
1
40
1
41
1
10
75.9719757982793
20
13.0148393107049
30
0
41
1
10
75.8620136860664
20
13.0044623724044
30
0
41
1
10
75.4705902058109
20
12.9671695385922
30
0
41
1
10
74.7975175367533
20
12.900869490032
30
0
41
1
10
73.9522648987556
20
12.813681145777
30
0
41
1
10
73.1061348665979
20
12.7224287679093
30
0
41
1
10
72.2596581605687
20
12.6271377402659
30
0
41
1
10
71.2406642703547
20
12.507594459098
30
0
41
1
10
70.50410987594
20
12.4165734650862
30
0
41
1
10
70.0495520249024
20
12.3586248722421
30
0
0
SPLINE
5
1DB
100
AcDbEntity
8
1
62
256
6
ByLayer
370
-1
48
1
60
0
100
AcDbSpline
70
4
71
3
72
16
73
12
40
0
40
0
40
0
40
0
40
0.250000000000008
40
0.250000000000008
40
0.375000000000009
40
0.375000000000009
40
0.500000000000009
40
0.500000000000009
40
0.750000000000005
40
0.750000000000005
40
1
40
1
40
1
40
1
41
1
10
95.7585695586373
20
3.68201874619646
30
0
41
1
10
95.4567189591942
20
3.62699658143558
30
0
41
1
10
95.1246086437234
20
3.59405016128628
30
0
41
1
10
94.5943745458014
20
3.57909896317312
30
0
41
1
10
94.4121714659099
20
3.57990070193515
30
0
41
1
10
94.0380933494858
20
3.59369221005545
30
0
41
1
10
93.8457516000735
20
3.60672946141159
30
0
41
1
10
93.2584960058564
20
3.66506483807743
30
0
41
1
10
92.8607579912872
20
3.72865076836797
30
0
41
1
10
92.0580741801986
20
3.90580136166867
30
0
41
1
10
91.6530784213435
20
4.01937075380724
30
0
41
1
10
91.2459161826317
20
4.15958454469256
30
0
0
SPLINE
5
1DC
100
AcDbEntity
8
1
62
256
6
ByLayer
370
-1
48
1
60
0
100
AcDbSpline
70
4
71
3
72
18
73
14
40
0
40
0
40
0
40
0
40
0.155524175512741
40
0.155524175512741
40
0.437016117008493
40
0.437016117008493
40
0.57776208775637
40
0.57776208775637
40
0.718508058504246
40
0.718508058504246
40
0.859254029252123
40
0.859254029252123
40
1
40
1
40
1
40
1
41
1
10
59.1201754127719
20
15.3934497478112
30
0
41
1
10
60.2206550688748
20
15.663621980775
30
0
41
1
10
61.3210236291774
20
15.9218004600358
30
0
41
1
10
64.4137102486638
20
16.6119704621528
30
0
41
1
10
66.406372043672
20
17.0156364556235
30
0
41
1
10
69.4002200212323
20
17.5541994724256
30
0
41
1
10
70.397529503535
20
17.722158061831
30
0
41
1
10
72.3914019830679
20
18.034427131437
30
0
41
1
10
73.3880070842891
20
18.1787494848498
30
0
41
1
10
75.3804936610257
20
18.4439489893154
30
0
41
1
10
76.3761560020018
20
18.5649922172697
30
0
41
1
10
78.3668348492855
20
18.7833291496191
30
0
41
1
10
79.362257416304
20
18.8803400772794
30
0
41
1
10
80.358197807845
20
18.9650049899376
30
0
0
SPLINE
5
1DD
100
AcDbEntity
8
1
62
256
6
ByLayer
370
-1
48
1
60
0
100
AcDbSpline
70
4
71
3
72
8
73
4
40
0
40
0
40
0
40
0
40
1
40
1
40
1
40
1
41
1
10
29
20
19.3940200039524
30
0
41
1
10
28.5585636920165
20
19.3984868552265
30
0
41
1
10
28.1180671924286
20
19.4242755846374
30
0
41
1
10
27.6792812502856
20
19.4727491841562
30
0
0
SPLINE
5
1DE
100
AcDbEntity
8
1
62
256
6
ByLayer
370
-1
48
1
60
0
100
AcDbSpline
70
4
71
3
72
19
73
15
40
0
40
0
40
0
40
0
40
0.250000000000001
40
0.250000000000001
40
0.375000000000001
40
0.375000000000001
40
0.500000000000001
40
0.500000000000001
40
0.625000000000001
40
0.625000000000001
40
0.75
40
0.875
40
0.875
40
1
40
1
40
1
40
1
41
1
10
97.2674882033168
20
13.3999999999999
30
0
41
1
10
97.2674882033168
20
13.1793699976039
30
0
41
1
10
97.2373719994952
20
12.9638875460166
30
0
41
1
10
97.1474415295405
20
12.6483137248629
30
0
41
1
10
97.1095931263749
20
12.5440653613832
30
0
41
1
10
97.0207716692097
20
12.3448029083636
30
0
41
1
10
96.9696288275081
20
12.2489569900424
30
0
41
1
10
96.8538898695247
20
12.0648296119184
30
0
41
1
10
96.7888516227847
20
11.9760370514142
30
0
41
1
10
96.6465867338416
20
11.8088271997309
30
0
41
1
10
96.4938457585142
20
11.6536794822355
30
0
41
1
10
96.3207841642086
20
11.5219288639907
30
0
41
1
10
96.1372499792718
20
11.4022363549344
30
0
41
1
10
96.0408890083139
20
11.3489882222483
30
0
41
1
10
95.9423033294914
20
11.3034212098731
30
0
0
SPLINE
5
1DF
100
AcDbEntity
8
1
62
256
6
ByLayer
370
-1
48
1
60
0
100
AcDbSpline
70
4
71
4
72
13
73
8
40
0
40
0
40
0
40
0
40
0
40
0.198710973489241
40
0.198710973489241
40
0.198710973489241
40
1
40
1
40
1
40
1
40
1
41
0.990139616772604
10
30.190715329244
20
-4.01448609386836
30
0
41
0.993709076321761
10
29.9913473611184
20
-4.63450068628826
30
0
41
0.99732426081132
10
29.7892548872891
20
-5.30060473902845
30
0
41
1
10
29.5900923611614
20
-5.99123127030106
30
0
41
1
10
28.6334649649949
20
-9.44883304302388
30
0
41
0.956491063505281
10
27.6607054535031
20
-13.460154862921
30
0
41
0.983321154725762
10
27.1122458903656
20
-16.7620867277481
30
0
41
0.995737521191526
10
26.9577059121661
20
-18.5473745106529
30
0
0
SPLINE
5
1E0
100
AcDbEntity
8
1
62
256
6
ByLayer
370
-1
48
1
60
0
100
AcDbSpline
70
4
71
3
72
8
73
4
40
0
40
0
40
0
40
0
40
1
40
1
40
1
40
1
41
1
10
94.1064140197939
20
7.46906737002845
30
0
41
1
10
94.3969169290078
20
7.34412066393136
30
0
41
1
10
94.6931994076953
20
7.22872192476873
30
0
41
1
10
94.996448210782
20
7.12378393683375
30
0
0
SPLINE
5
1E1
100
AcDbEntity
8
1
62
256
6
ByLayer
370
-1
48
1
60
0
100
AcDbSpline
70
4
71
3
72
28
73
24
40
0
40
0
40
0
40
0
40
0.0625000000000039
40
0.0625000000000039
40
0.0937500000000055
40
0.0937500000000055
40
0.125000000000007
40
0.125000000000007
40
0.156250000000009
40
0.156250000000009
40
0.18750000000001
40
0.18750000000001
40
0.250000000000012
40
0.250000000000012
40
0.312500000000013
40
0.312500000000013
40
0.375000000000015
40
0.375000000000015
40
0.500000000000017
40
0.500000000000017
40
0.750000000000008
40
0.750000000000008
40
1
40
1
40
1
40
1
41
1
10
90.3089140915563
20
9.91828344028741
30
0
41
1
10
90.2544387505269
20
9.91066290739769
30
0
41
1
10
90.2001614454807
20
9.90005264850339
30
0
41
1
10
90.1212771597637
20
9.87561611826339
30
0
41
1
10
90.0955665377521
20
9.86607567990993
30
0
41
1
10
90.0459559716606
20
9.84267345900363
30
0
41
1
10
90.0218851228344
20
9.82866638362648
30
0
41
1
10
89.9793089727222
20
9.79502778373444
30
0
41
1
10
89.9606657390759
20
9.7750653456541
30
0
41
1
10
89.9339692980983
20
9.73047434941657
30
0
41
1
10
89.9259411204177
20
9.70567617357682
30
0
41
1
10
89.918176456906
20
9.6310113917348
30
0
41
1
10
89.9329174604418
20
9.58275388562532
30
0
41
1
10
89.975048788544
20
9.49545446024675
30
0
41
1
10
90.0033686312294
20
9.45486613519947
30
0
41
1
10
90.0651657271238
20
9.37915641894494
30
0
41
1
10
90.0989290567228
20
9.34382761227644
30
0
41
1
10
90.2052986326487
20
9.24234226578341
30
0
41
1
10
90.283111434011
20
9.18049929902855
30
0
41
1
10
90.5258954286758
20
9.00529057825196
30
0
41
1
10
90.6983055677732
20
8.90338146840782
30
0
41
1
10
91.0532630788488
20
8.71371920268723
30
0
41
1
10
91.236232377965
20
8.62655563793535
30
0
41
1
10
91.4231181936077
20
8.5447275712215
30
0
0
SPLINE
5
1E2
100
AcDbEntity
8
1
62
256
6
ByLayer
370
-1
48
1
60
0
100
AcDbSpline
70
4
71
2
72
6
73
3
40
0
40
0
40
0
40
1
40
1
40
1
41
1
10
8.43579790359263
20
-15.8388372595894
30
0
41
1
10
8.43579790359263
20
-15.9278518738525
30
0
41
1
10
8.43579790359263
20
-16.0168664881156
30
0
0
SPLINE
5
1E3
100
AcDbEntity
8
1
62
256
6
ByLayer
370
-1
48
1
60
0
100
AcDbSpline
70
4
71
3
72
10
73
6
40
0
40
0
40
0
40
0
40
0.5
40
0.5
40
1
40
1
40
1
40
1
41
1
10
112.041061831135
20
-1.08916293126134
30
0
41
1
10
112.041059087841
20
-1.07648900062034
30
0
41
1
10
112.03997891765
20
-1.06251675447879
30
0
41
1
10
112.034674494499
20
-1.03309465293148
30
0
41
1
10
112.030368410577
20
-1.01762810888445
30
0
41
1
10
112.024830588728
20
-1.00306266866522
30
0
0
SPLINE
5
1E4
100
AcDbEntity
8
1
62
256
6
ByLayer
370
-1
48
1
60
0
100
AcDbSpline
70
4
71
3
72
10
73
6
40
0
40
0
40
0
40
0
40
0.367626034333036
40
0.367626034333036
40
1
40
1
40
1
40
1
41
1
10
111.557987381143
20
-8.51619101224225
30
0
41
1
10
111.564776900936
20
-8.3166791144408
30
0
41
1
10
111.571575975201
20
-8.11716754020844
30
0
41
1
10
111.590103591664
20
-7.5744661504549
30
0
41
1
10
111.60185603164
20
-7.23127714402102
30
0
41
1
10
111.613658255308
20
-6.88808984506747
30
0
0
SPLINE
5
1E5
100
AcDbEntity
8
1
62
256
6
ByLayer
370
-1
48
1
60
0
100
AcDbSpline
70
4
71
3
72
12
73
8
40
0
40
0
40
0
40
0
40
0.360346101019548
40
0.360346101019548
40
0.720692202039096
40
0.720692202039096
40
1
40
1
40
1
40
1
41
1
10
111.606089838717
20
-8.52247494246095
30
0
41
1
10
111.60494630564
20
-8.55501218344449
30
0
41
1
10
111.599549543495
20
-8.5866285768362
30
0
41
1
10
111.580559398277
20
-8.64808674813415
30
0
41
1
10
111.566780554279
20
-8.67792487056724
30
0
41
1
10
111.536262090024
20
-8.72606841229887
30
0
41
1
10
111.520569460328
20
-8.74594928909195
30
0
41
1
10
111.503131587427
20
-8.76393661959057
30
0
0
SPLINE
5
1E6
100
AcDbEntity
8
1
62
256
6
ByLayer
370
-1
48
1
60
0
100
AcDbSpline
70
4
71
3
72
10
73
6
40
0
40
0
40
0
40
0
40
0.5
40
0.5
40
1
40
1
40
1
40
1
41
1
10
112.047641248584
20
-1.33307473774678
30
0
41
1
10
112.04529889102
20
-1.28846325779517
30
0
41
1
10
112.043640985644
20
-1.24546906222261
30
0
41
1
10
112.041513220955
20
-1.16303799811544
30
0
41
1
10
112.041069594684
20
-1.12503028957991
30
0
41
1
10
112.041061831135
20
-1.08916293126131
30
0
0
SPLINE
5
1E7
100
AcDbEntity
8
1
62
256
6
ByLayer
370
-1
48
1
60
0
100
AcDbSpline
70
4
71
3
72
10
73
6
40
0
40
0
40
0
40
0
40
0.857750003386306
40
0.857750003386306
40
1
40
1
40
1
40
1
41
1
10
111.663861822064
20
-6.89446896216418
30
0
41
1
10
111.647403897942
20
-7.35995302796198
30
0
41
1
10
111.630887592837
20
-7.82542747374364
30
0
41
1
10
111.611584773144
20
-8.36808845645319
30
0
41
1
10
111.608837827332
20
-8.44528178950696
30
0
41
1
10
111.606089838717
20
-8.52247494246095
30
0
0
SPLINE
5
1E8
100
AcDbEntity
8
1
62
256
6
ByLayer
370
-1
48
1
60
0
100
AcDbSpline
70
4
71
3
72
22
73
18
40
0
40
0
40
0
40
0
40
0.124999999999973
40
0.124999999999973
40
0.249999999999945
40
0.249999999999945
40
0.312499999999952
40
0.312499999999952
40
0.374999999999958
40
0.374999999999958
40
0.499999999999966
40
0.499999999999966
40
0.624999999999974
40
0.624999999999974
40
0.749999999999982
40
0.749999999999982
40
1
40
1
40
1
40
1
41
1
10
112.488304580322
20
-10.140667901526
30
0
41
1
10
112.506372127211
20
-10.1382102594867
30
0
41
1
10
112.525301018501
20
-10.1343120597811
30
0
41
1
10
112.565958052465
20
-10.121008898614
30
0
41
1
10
112.587635680282
20
-10.1117754081507
30
0
41
1
10
112.622427629851
20
-10.0890659368283
30
0
41
1
10
112.634415960558
20
-10.0798577050535
30
0
41
1
10
112.656951421151
20
-10.0587894336209
30
0
41
1
10
112.667707217791
20
-10.0466624233507
30
0
41
1
10
112.694988481157
20
-10.0097669931046
30
0
41
1
10
112.706856766952
20
-9.98489261673853
30
0
41
1
10
112.723163319623
20
-9.9402794745906
30
0
41
1
10
112.728028373452
20
-9.91954489574485
30
0
41
1
10
112.734481863292
20
-9.88066134967499
30
0
41
1
10
112.736018996346
20
-9.86251901898979
30
0
41
1
10
112.73773683209
20
-9.810363691758
30
0
41
1
10
112.735054647112
20
-9.77859920740386
30
0
41
1
10
112.730467494851
20
-9.74840574697396
30
0
0
SPLINE
5
1E9
100
AcDbEntity
8
1
62
256
6
ByLayer
370
-1
48
1
60
0
100
AcDbSpline
70
4
71
3
72
12
73
8
40
0
40
0
40
0
40
0
40
0.25
40
0.25
40
0.5
40
0.5
40
1
40
1
40
1
40
1
41
1
10
111.522074435553
20
0.635851580486957
30
0
41
1
10
111.507735856566
20
0.67989161726652
30
0
41
1
10
111.495164234754
20
0.720176866207282
30
0
41
1
10
111.472255967167
20
0.796087839177545
30
0
41
1
10
111.461901255355
20
0.831809679640685
30
0
41
1
10
111.433640169436
20
0.932602634665272
30
0
41
1
10
111.418290195833
20
0.992001004020779
30
0
41
1
10
111.404749489933
20
1.04755975678879
30
0
0
SPLINE
5
1EA
100
AcDbEntity
8
1
62
256
6
ByLayer
370
-1
48
1
60
0
100
AcDbSpline
70
4
71
3
72
10
73
6
40
0
40
0
40
0
40
0
40
0.5
40
0.5
40
1
40
1
40
1
40
1
41
1
10
111.955565624421
20
-0.77006748419808
30
0
41
1
10
111.965278565448
20
-0.802720794351387
30
0
41
1
10
111.976541787672
20
-0.8381267413817
30
0
41
1
10
112.002295896587
20
-0.912649895430064
30
0
41
1
10
112.016595346456
20
-0.951112108416623
30
0
41
1
10
112.031309810538
20
-0.988190609283521
30
0
0
SPLINE
5
1EB
100
AcDbEntity
8
1
62
256
6
ByLayer
370
-1
48
1
60
0
100
AcDbSpline
70
4
71
3
72
12
73
8
40
0
40
0
40
0
40
0
40
0.5
40
0.5
40
0.75
40
0.75
40
1
40
1
40
1
40
1
41
1
10
112.41873464982
20
-10.1979486632024
30
0
41
1
10
112.364565440701
20
-10.2016884026658
30
0
41
1
10
112.307359382847
20
-10.2070335581213
30
0
41
1
10
112.211721106627
20
-10.2202474466892
30
0
41
1
10
112.178016814983
20
-10.22556240189
30
0
41
1
10
112.10565949581
20
-10.2390556016282
30
0
41
1
10
112.067413647596
20
-10.2471309506698
30
0
41
1
10
112.02547504363
20
-10.2575799322303
30
0
0
SPLINE
5
1EC
100
AcDbEntity
8
1
62
256
6
ByLayer
370
-1
48
1
60
0
100
AcDbSpline
70
4
71
3
72
18
73
14
40
0
40
0
40
0
40
0
40
0.25
40
0.25
40
0.500000000000001
40
0.500000000000001
40
0.625
40
0.625
40
0.75
40
0.75
40
0.875
40
0.875
40
1
40
1
40
1
40
1
41
1
10
112.730467494851
20
-9.74840574697396
30
0
41
1
10
112.720418519043
20
-9.68226158253756
30
0
41
1
10
112.710800177646
20
-9.61391174253006
30
0
41
1
10
112.692795829087
20
-9.46953950029479
30
0
41
1
10
112.684402349697
20
-9.39372388446205
30
0
41
1
10
112.673348463319
20
-9.26923481844514
30
0
41
1
10
112.669918908668
20
-9.2258225800733
30
0
41
1
10
112.663844707381
20
-9.13409604393107
30
0
41
1
10
112.661184209129
20
-9.08577325722013
30
0
41
1
10
112.657033466407
20
-8.98028778519483
30
0
41
1
10
112.655538984171
20
-8.92285640439673
30
0
41
1
10
112.654777910801
20
-8.7974988326277
30
0
41
1
10
112.655580958407
20
-8.72910362216999
30
0
41
1
10
112.657996534898
20
-8.66005958364514
30
0
0
SPLINE
5
1ED
100
AcDbEntity
8
1
62
256
6
ByLayer
370
-1
48
1
60
0
100
AcDbSpline
70
4
71
3
72
10
73
6
40
0
40
0
40
0
40
0
40
0.5
40
0.5
40
1
40
1
40
1
40
1
41
1
10
112.058503442254
20
-1.13208296099202
30
0
41
1
10
112.057230173274
20
-1.16098043168771
30
0
41
1
10
112.05643706638
20
-1.19191238528154
30
0
41
1
10
112.056510108348
20
-1.26080668398851
30
0
41
1
10
112.057400072524
20
-1.29713425726416
30
0
41
1
10
112.05941837879
20
-1.33557400315587
30
0
0
SPLINE
5
1EE
100
AcDbEntity
8
1
62
256
6
ByLayer
370
-1
48
1
60
0
100
AcDbSpline
70
4
71
3
72
10
73
6
40
0
40
0
40
0
40
0
40
0.5
40
0.5
40
1
40
1
40
1
40
1
41
1
10
111.594521475858
20
-6.57556792062024
30
0
41
1
10
111.619288720445
20
-6.62514471873729
30
0
41
1
10
111.63737257308
20
-6.67667365261968
30
0
41
1
10
111.660702326767
20
-6.78348129728585
30
0
41
1
10
111.665811008596
20
-6.83910319817178
30
0
41
1
10
111.663861822064
20
-6.89446896216418
30
0
0
SPLINE
5
1EF
100
AcDbEntity
8
1
62
256
6
ByLayer
370
-1
48
1
60
0
100
AcDbSpline
70
4
71
3
72
12
73
8
40
0
40
0
40
0
40
0
40
0.075412560694946
40
0.075412560694946
40
0.537706280347473
40
0.537706280347473
40
1
40
1
40
1
40
1
41
1
10
111.50133686454
20
-8.68642865305623
30
0
41
1
10
111.503947203505
20
-8.68268343256202
30
0
41
1
10
111.506472764091
20
-8.67888689958906
30
0
41
1
10
111.523847488142
20
-8.65148734796364
30
0
41
1
10
111.535828198725
20
-8.62553614333427
30
0
41
1
10
111.552302180931
20
-8.57220554889236
30
0
41
1
10
111.557025806875
20
-8.54444713534107
30
0
41
1
10
111.557987381143
20
-8.51619101224225
30
0
0
SPLINE
5
1F0
100
AcDbEntity
8
1
62
256
6
ByLayer
370
-1
48
1
60
0
100
AcDbSpline
70
4
71
3
72
22
73
18
40
0
40
0
40
0
40
0
40
0.0625000000000004
40
0.0625000000000004
40
0.125000000000001
40
0.125000000000001
40
0.187500000000001
40
0.187500000000001
40
0.250000000000002
40
0.250000000000002
40
0.375000000000002
40
0.375000000000002
40
0.500000000000002
40
0.500000000000002
40
0.750000000000001
40
0.750000000000001
40
1
40
1
40
1
40
1
41
1
10
112.669782643247
20
-8.6635857233608
30
0
41
1
10
112.668630016446
20
-8.69653107182825
30
0
41
1
10
112.668280292339
20
-8.72875136912674
30
0
41
1
10
112.66887499206
20
-8.79196218601894
30
0
41
1
10
112.669789972541
20
-8.82135511985965
30
0
41
1
10
112.672383479222
20
-8.87740581629882
30
0
41
1
10
112.674072092976
20
-8.9039943555218
30
0
41
1
10
112.677840172458
20
-8.95384046818526
30
0
41
1
10
112.679935739713
20
-8.97736949042243
30
0
41
1
10
112.686641734051
20
-9.04519328473847
30
0
41
1
10
112.691674878619
20
-9.08687928521007
30
0
41
1
10
112.702266578163
20
-9.16599236144592
30
0
41
1
10
112.707804939074
20
-9.20316287844352
30
0
41
1
10
112.724851350205
20
-9.31043067108524
30
0
41
1
10
112.73678114561
20
-9.37637847582343
30
0
41
1
10
112.761163404173
20
-9.5031316563404
30
0
41
1
10
112.773631437383
20
-9.56378384133586
30
0
41
1
10
112.786258268824
20
-9.62287364064906
30
0
0
SPLINE
5
1F1
100
AcDbEntity
8
1
62
256
6
ByLayer
370
-1
48
1
60
0
100
AcDbSpline
70
4
71
3
72
16
73
12
40
0
40
0
40
0
40
0
40
0.188185213521123
40
0.188185213521123
40
0.391138910140842
40
0.391138910140842
40
0.594092606760561
40
0.594092606760561
40
0.797046303380281
40
0.797046303380281
40
1
40
1
40
1
40
1
41
1
10
111.12795120924
20
1.32610052985296
30
0
41
1
10
111.154343562647
20
1.31737392012062
30
0
41
1
10
111.181575411261
20
1.30627204706386
30
0
41
1
10
111.241029278521
20
1.27492429470874
30
0
41
1
10
111.273125944575
20
1.25382023273809
30
0
41
1
10
111.33207816946
20
1.20340194694856
30
0
41
1
10
111.358693640059
20
1.17417436505448
30
0
41
1
10
111.401428154224
20
1.11513704259408
30
0
41
1
10
111.417788326864
20
1.08554921300745
30
0
41
1
10
111.443121794573
20
1.02882752446223
30
0
41
1
10
111.452275682107
20
1.00134126438428
30
0
41
1
10
111.459016142433
20
0.975004260807708
30
0
0
SPLINE
5
1F2
100
AcDbEntity
8
1
62
256
6
ByLayer
370
-1
48
1
60
0
100
AcDbSpline
70
4
71
3
72
20
73
16
40
0
40
0
40
0
40
0
40
0.182284879135839
40
0.182284879135839
40
0.364569758271677
40
0.364569758271677
40
0.455712197839576
40
0.455712197839576
40
0.546854637407475
40
0.546854637407475
40
0.729139516543272
40
0.729139516543272
40
0.91142439567907
40
0.91142439567907
40
1
40
1
40
1
40
1
41
1
10
111.404749489933
20
1.04755975678879
30
0
41
1
10
111.40073251659
20
1.06404176522196
30
0
41
1
10
111.395324700562
20
1.08143582065819
30
0
41
1
10
111.379237900681
20
1.11926338746818
30
0
41
1
10
111.368719305245
20
1.13963509646763
30
0
41
1
10
111.344680545132
20
1.1730777003813
30
0
41
1
10
111.335142843044
20
1.18473198985836
30
0
41
1
10
111.313805643195
20
1.20699628703625
30
0
41
1
10
111.301743443094
20
1.21781933055144
30
0
41
1
10
111.265587282802
20
1.24585641734359
30
0
41
1
10
111.241862134019
20
1.25889604616142
30
0
41
1
10
111.199816476142
20
1.27781809172259
30
0
41
1
10
111.180550540037
20
1.28417864884165
30
0
41
1
10
111.153913657044
20
1.29126607730976
30
0
41
1
10
111.145521903122
20
1.29319708266522
30
0
41
1
10
111.137384405474
20
1.29482209611507
30
0
0
SPLINE
5
1F3
100
AcDbEntity
8
1
62
256
6
ByLayer
370
-1
48
1
60
0
100
AcDbSpline
70
4
71
3
72
8
73
4
40
0
40
0
40
0
40
0
40
1
40
1
40
1
40
1
41
1
10
112.031309810538
20
-0.988190609283521
30
0
41
1
10
112.049334543322
20
-1.03563355389562
30
0
41
1
10
112.058240182972
20
-1.08577071551082
30
0
41
1
10
112.058503442254
20
-1.13208296099205
30
0
0
SPLINE
5
1F4
100
AcDbEntity
8
1
62
256
6
ByLayer
370
-1
48
1
60
0
100
AcDbSpline
70
4
71
3
72
10
73
6
40
0
40
0
40
0
40
0
40
0.5
40
0.5
40
1
40
1
40
1
40
1
41
1
10
112.024830588728
20
-1.00306266866522
30
0
41
1
10
112.007998841118
20
-0.958792228002949
30
0
41
1
10
111.991416138054
20
-0.913748262895268
30
0
41
1
10
111.959935537709
20
-0.825237066025068
30
0
41
1
10
111.945483116524
20
-0.783049458173707
30
0
41
1
10
111.93229229588
20
-0.74323339352415
30
0
0
SPLINE
5
1F5
100
AcDbEntity
8
1
62
256
6
ByLayer
370
-1
48
1
60
0
100
AcDbSpline
70
4
71
3
72
10
73
6
40
0
40
0
40
0
40
0
40
0.440069925396727
40
0.440069925396727
40
1
40
1
40
1
40
1
41
1
10
111.339503118153
20
-5.91997546744452
30
0
41
1
10
111.36772825084
20
-6.01851182975304
30
0
41
1
10
111.399975447756
20
-6.11614457417417
30
0
41
1
10
111.482587335422
20
-6.33590501230756
30
0
41
1
10
111.535523041195
20
-6.45736380317967
30
0
41
1
10
111.594521475858
20
-6.57556792062024
30
0
0
SPLINE
5
1F6
100
AcDbEntity
8
1
62
256
6
ByLayer
370
-1
48
1
60
0
100
AcDbSpline
70
4
71
3
72
10
73
6
40
0
40
0
40
0
40
0
40
0.5
40
0.5
40
1
40
1
40
1
40
1
41
1
10
111.613658255308
20
-6.88808984506756
30
0
41
1
10
111.615417094601
20
-6.8369459824074
30
0
41
1
10
111.610805699768
20
-6.78666168320709
30
0
41
1
10
111.589259850189
20
-6.68775588899928
30
0
41
1
10
111.572131357664
20
-6.63908933002423
30
0
41
1
10
111.54917285978
20
-6.59333289801495
30
0
0
SPLINE
5
1F7
100
AcDbEntity
8
1
62
256
6
ByLayer
370
-1
48
1
60
0
100
AcDbSpline
70
4
71
3
72
12
73
8
40
0
40
0
40
0
40
0
40
0.25
40
0.25
40
0.5
40
0.5
40
1
40
1
40
1
40
1
41
1
10
112.049238129828
20
-10.231234685716
30
0
41
1
10
112.094817670046
20
-10.2183773394775
30
0
41
1
10
112.136959997516
20
-10.2076076408669
30
0
41
1
10
112.216980162452
20
-10.1887020400452
30
0
41
1
10
112.254968226526
20
-10.1805620100717
30
0
41
1
10
112.362860704711
20
-10.1592519187148
30
0
41
1
10
112.427401179212
20
-10.1489523000573
30
0
41
1
10
112.488304580322
20
-10.140667901526
30
0
0
SPLINE
5
1F8
100
AcDbEntity
8
1
62
256
6
ByLayer
370
-1
48
1
60
0
100
AcDbSpline
70
4
71
3
72
10
73
6
40
0
40
0
40
0
40
0
40
0.811452654947782
40
0.811452654947782
40
1
40
1
40
1
40
1
41
1
10
111.54917285978
20
-6.59333289801495
30
0
41
1
10
111.48935516513
20
-6.47411585289115
30
0
41
1
10
111.435928680204
20
-6.35230147689367
30
0
41
1
10
111.377904679855
20
-6.19900600750933
30
0
41
1
10
111.367303655007
20
-6.1699438126218
30
0
41
1
10
111.357049396339
20
-6.14074835759632
30
0
0
SPLINE
5
1F9
100
AcDbEntity
8
1
62
256
6
ByLayer
370
-1
48
1
60
0
100
AcDbSpline
70
4
71
3
72
12
73
8
40
0
40
0
40
0
40
0
40
0.500000000000005
40
0.500000000000005
40
0.750000000000002
40
0.750000000000002
40
1
40
1
40
1
40
1
41
1
10
111.459016142433
20
0.975004260807708
30
0
41
1
10
111.467854542287
20
0.926018263177411
30
0
41
1
10
111.478140950707
20
0.873840972891713
30
0
41
1
10
111.498257247377
20
0.785245968489335
30
0
41
1
10
111.505795687785
20
0.7538139666392
30
0
41
1
10
111.523400861221
20
0.685670744952887
30
0
41
1
10
111.533350122425
20
0.649351587740028
30
0
41
1
10
111.545347764094
20
0.609017489813027
30
0
0
SPLINE
5
1FA
100
AcDbEntity
8
1
62
256
6
ByLayer
370
-1
48
1
60
0
100
AcDbSpline
70
4
71
3
72
20
73
16
40
0
40
0
40
0
40
0
40
0.25
40
0.25
40
0.375
40
0.375
40
0.5
40
0.5
40
0.625
40
0.625
40
0.75
40
0.75
40
0.875
40
0.875
40
1
40
1
40
1
40
1
41
1
10
112.786258268824
20
-9.62287364064574
30
0
41
1
10
112.792422344605
20
-9.67115286839567
30
0
41
1
10
112.794692036495
20
-9.72187197706972
30
0
41
1
10
112.786849200546
20
-9.80467169989961
30
0
41
1
10
112.782230679919
20
-9.83373244371907
30
0
41
1
10
112.767198203817
20
-9.89331248138089
30
0
41
1
10
112.756911948573
20
-9.92387989057846
30
0
41
1
10
112.726543574424
20
-9.98768315374406
30
0
41
1
10
112.706206780556
20
-10.0205251533681
30
0
41
1
10
112.656216002739
20
-10.0798881713214
30
0
41
1
10
112.626637756075
20
-10.1061585033249
30
0
41
1
10
112.566028174045
20
-10.1473540985255
30
0
41
1
10
112.535256191825
20
-10.1625569994607
30
0
41
1
10
112.475794207278
20
-10.1852138277322
30
0
41
1
10
112.446736404475
20
-10.1928332973559
30
0
41
1
10
112.41873464982
20
-10.1979486632024
30
0
0
SPLINE
5
1FB
100
AcDbEntity
8
1
62
256
6
ByLayer
370
-1
48
1
60
0
100
AcDbSpline
70
4
71
3
72
8
73
4
40
0
40
0
40
0
40
0
40
1
40
1
40
1
40
1
41
1
10
100.112595216448
20
7.75346403290084
30
0
41
1
10
100.113317861276
20
7.73714684015323
30
0
41
1
10
100.114121851334
20
7.72083304958787
30
0
41
1
10
100.115007090557
20
7.70452387540101
30
0
0
SPLINE
5
1FC
100
AcDbEntity
8
1
62
256
6
ByLayer
370
-1
48
1
60
0
100
AcDbSpline
70
4
71
3
72
10
73
6
40
0
40
0
40
0
40
0
40
0.0485494410336403
40
0.36569962735576
40
1
40
1
40
1
40
1
41
1
10
100.230075390704
20
8.44062066894278
30
0
41
1
10
100.229057129689
20
8.44058564585927
30
0
41
1
10
100.221387601106
20
8.44032186557448
30
0
41
1
10
100.200423594824
20
8.43960103159719
30
0
41
1
10
100.180474306065
20
8.43891501787394
30
0
41
1
10
100.167175404997
20
8.43845771126601
30
0
0
SPLINE
5
1FD
100
AcDbEntity
8
1
62
256
6
ByLayer
370
-1
48
1
60
0
100
AcDbSpline
70
4
71
3
72
15
73
11
40
0
40
0
40
0
40
0
40
0.0218721291688743
40
0.0870806538909494
40
0.217497703335099
40
0.4783318022234
40
0.543540326945475
40
0.60874885166755
40
0.7391659011117
40
1
40
1
40
1
40
1
41
1
10
111.441444690069
20
19.9604277595024
30
0
41
1
10
111.437154039206
20
19.9602828231695
30
0
41
1
10
111.420071759068
20
19.9596779533948
30
0
41
1
10
111.377387765121
20
19.9582198058018
30
0
41
1
10
111.287744233488
20
19.9551272006642
30
0
41
1
10
111.197982054657
20
19.9520688871801
30
0
41
1
10
111.120983215143
20
19.9494561633286
30
0
41
1
10
111.069667847694
20
19.9477015420721
30
0
41
1
10
110.979897871491
20
19.9446050327317
30
0
41
1
10
110.90301706902
20
19.9419010584841
30
0
41
1
10
110.851799116511
20
19.9400809757064
30
0
0
SPLINE
5
1FE
100
AcDbEntity
8
1
62
256
6
ByLayer
370
-1
48
1
60
0
100
AcDbSpline
70
4
71
3
72
15
73
11
40
0
40
0
40
0
40
0
40
0.0138956313305973
40
0.10145795127348
40
0.189020271216363
40
0.364144911102128
40
0.714394190873658
40
0.889518830759424
40
0.977081150702306
40
1
40
1
40
1
40
1
41
1
10
112.211596185419
20
8.86055595132976
30
0
41
1
10
112.210531853566
20
8.86051891857139
30
0
41
1
10
112.202760691311
20
8.86024853745894
30
0
41
1
10
112.188282792741
20
8.85974487813465
30
0
41
1
10
112.161455707865
20
8.85881165625619
30
0
41
1
10
112.114508229038
20
8.85717846183513
30
0
41
1
10
112.060854042818
20
8.85531194319586
30
0
41
1
10
112.013906449652
20
8.85367876812089
30
0
41
1
10
111.992030827516
20
8.85291772852648
30
0
41
1
10
111.983568436049
20
8.8526233754724
30
0
41
1
10
111.981812963133
20
8.85256231984286
30
0
0
SPLINE
5
1FF
100
AcDbEntity
8
1
62
256
6
ByLayer
370
-1
48
1
60
0
100
AcDbSpline
70
4
71
3
72
8
73
4
40
0
40
0
40
0
40
0
40
1
40
1
40
1
40
1
41
1
10
100.902745320267
20
7.01360607838922
30
0
41
1
10
100.932976055236
20
7.01443770684801
30
0
41
1
10
100.963203590458
20
7.01540801028003
30
0
41
1
10
100.993425724752
20
7.01651608245018
30
0
0
SPLINE
5
200
100
AcDbEntity
8
1
62
256
6
ByLayer
370
-1
48
1
60
0
100
AcDbSpline
70
4
71
2
72
9
73
6
40
0
40
0
40
0
40
0.25
40
0.5
40
0.75
40
1
40
1
40
1
41
1
10
111.222449091184
20
8.67664211649546
30
0
41
1
10
111.25212586964
20
8.67780460361377
30
0
41
1
10
111.305740457302
20
8.70206576497398
30
0
41
1
10
111.346460370469
20
8.74554091855916
30
0
41
1
10
111.367506754409
20
8.80134908563059
30
0
41
1
10
111.366572263626
20
8.8317856650537
30
0
0
SPLINE
5
201
100
AcDbEntity
8
1
62
256
6
ByLayer
370
-1
48
1
60
0
100
AcDbSpline
70
4
71
3
72
9
73
5
40
0
40
0
40
0
40
0
40
0.406250000000106
40
1
40
1
40
1
40
1
41
1
10
101.582453257346
20
7.03716394852123
30
0
41
1
10
101.581995760054
20
7.04794948348922
30
0
41
1
10
101.580869612872
20
7.07449849264117
30
0
41
1
10
101.57974346569
20
7.10104750179312
30
0
41
1
10
101.579074815801
20
7.11681097597707
30
0
0
SPLINE
5
202
100
AcDbEntity
8
1
62
256
6
ByLayer
370
-1
48
1
60
0
100
AcDbSpline
70
4
71
3
72
14
73
10
40
0
40
0
40
0
40
0
40
0.0424082128911419
40
0.170379060242201
40
0.682262449646435
40
0.938204144348552
40
0.970196856186316
40
0.986193212105199
40
1
40
1
40
1
40
1
41
1
10
111.532083735668
20
8.83728424493327
30
0
41
1
10
111.530156516861
20
8.83722057325122
30
0
41
1
10
111.522420189874
20
8.836965025643
30
0
41
1
10
111.491453192718
20
8.83594219860268
30
0
41
1
10
111.450799390736
20
8.83459945939634
30
0
41
1
10
111.41448632254
20
8.83339998253018
30
0
41
1
10
111.400698994055
20
8.83294464734951
30
0
41
1
10
111.397900358947
20
8.83285225390162
30
0
41
1
10
111.396545991153
20
8.8328075081738
30
0
41
1
10
111.395914594883
20
8.83278661986449
30
0
0
SPLINE
5
203
100
AcDbEntity
8
1
62
256
6
ByLayer
370
-1
48
1
60
0
100
AcDbSpline
70
4
71
3
72
12
73
8
40
0
40
0
40
0
40
0
40
0.0112779549372934
40
0.0936714586925189
40
0.176064962447745
40
0.340851969958196
40
1
40
1
40
1
40
1
41
1
10
100.994172464622
20
18.2241053318189
30
0
41
1
10
100.994261332791
20
18.2241086444195
30
0
41
1
10
100.995000514856
20
18.2241361911696
30
0
41
1
10
100.996408546268
20
18.2241885486486
30
0
41
1
10
100.99913979094
20
18.2242894886258
30
0
41
1
10
101.007063173898
20
18.2245795732486
30
0
41
1
10
101.015257969382
20
18.2248720824987
30
0
41
1
10
101.021939177071
20
18.2251062866297
30
0
0
SPLINE
5
204
100
AcDbEntity
8
1
62
256
6
ByLayer
370
-1
48
1
60
0
100
AcDbSpline
70
4
71
3
72
8
73
4
40
0
40
0
40
0
40
0
40
1
40
1
40
1
40
1
41
1
10
100.58235483918
20
7.02403315105806
30
0
41
1
10
100.619214962028
20
7.01544733873158
30
0
41
1
10
100.656562657993
20
7.01113228933173
30
0
41
1
10
100.694405476356
20
7.01110084162059
30
0
0
SPLINE
5
205
100
AcDbEntity
8
1
62
256
6
ByLayer
370
-1
48
1
60
0
100
AcDbSpline
70
4
71
3
72
15
73
11
40
0
40
0
40
0
40
0
40
0.0229190021791487
40
0.110481321488101
40
0.285605960106005
40
0.635855237341814
40
0.810979875959719
40
0.898542195268671
40
0.986104514577624
40
1
40
1
40
1
40
1
41
1
10
101.167903963356
20
18.9752153515699
30
0
41
1
10
101.167856869298
20
18.9769637605569
30
0
41
1
10
101.167628965257
20
18.9853929130167
30
0
41
1
10
101.167035945708
20
19.0071863461417
30
0
41
1
10
101.1657666024
20
19.0539542957921
30
0
41
1
10
101.164314632986
20
19.1074044299741
30
0
41
1
10
101.163044539012
20
19.1541729940937
30
0
41
1
10
101.162319665917
20
19.1808969758207
30
0
41
1
10
101.161927574229
20
19.1953201000166
30
0
41
1
10
101.161716455284
20
19.2030624771135
30
0
41
1
10
101.161687493126
20
19.2041229033238
30
0
0
SPLINE
5
206
100
AcDbEntity
8
1
62
256
6
ByLayer
370
-1
48
1
60
0
100
AcDbSpline
70
4
71
3
72
8
73
4
40
0
40
0
40
0
40
0
40
1
40
1
40
1
40
1
41
1
10
112.706027316722
20
8.19491725713436
30
0
41
1
10
112.705220775518
20
8.22524146220096
30
0
41
1
10
112.704276392796
20
8.25556214837633
30
0
41
1
10
112.703194690178
20
8.28587748868981
30
0
0
SPLINE
5
207
100
AcDbEntity
8
1
62
256
6
ByLayer
370
-1
48
1
60
0
100
AcDbSpline
70
4
71
3
72
8
73
4
40
0
40
0
40
0
40
0
40
1
40
1
40
1
40
1
41
1
10
112.211596201635
20
8.86055592980631
30
0
41
1
10
112.323520457721
20
8.86444951997487
30
0
41
1
10
112.435427639886
20
8.86839497060069
30
0
41
1
10
112.542169918928
20
8.87221078747083
30
0
0
SPLINE
5
208
100
AcDbEntity
8
1
62
256
6
ByLayer
370
-1
48
1
60
0
100
AcDbSpline
70
4
71
3
72
8
73
4
40
0
40
0
40
0
40
0
40
1
40
1
40
1
40
1
41
1
10
112.323080838365
20
19.2124930962809
30
0
41
1
10
112.322028339225
20
19.2428100641535
30
0
41
1
10
112.32083490002
20
19.2731223932166
30
0
41
1
10
112.319500631391
20
19.3034279187826
30
0
0
SPLINE
5
209
100
AcDbEntity
8
1
62
256
6
ByLayer
370
-1
48
1
60
0
100
AcDbSpline
70
4
71
3
72
15
73
11
40
0
40
0
40
0
40
0
40
0.0204519912453899
40
0.0504132324411578
40
0.110335714832694
40
0.230180679615766
40
0.469870609181909
40
0.709560538748053
40
0.949250468314197
40
1
40
1
40
1
40
1
41
1
10
101.161687493126
20
19.2041229033238
30
0
41
1
10
101.161625202852
20
19.2064036118637
30
0
41
1
10
101.161471116583
20
19.2120259527084
30
0
41
1
10
101.16112628064
20
19.2243379502214
30
0
41
1
10
101.160438689471
20
19.2477672736917
30
0
41
1
10
101.158951317586
20
19.294692980544
30
0
41
1
10
101.156500602182
20
19.36178970559
30
0
41
1
10
101.153060242763
20
19.4419781482381
30
0
41
1
10
101.150171263514
20
19.5005466627396
30
0
41
1
10
101.148468029839
20
19.532323198153
30
0
41
1
10
101.148169066932
20
19.5378719276609
30
0
0
SPLINE
5
20A
100
AcDbEntity
8
1
62
256
6
ByLayer
370
-1
48
1
60
0
100
AcDbSpline
70
4
71
3
72
8
73
4
40
0
40
0
40
0
40
0
40
1
40
1
40
1
40
1
41
1
10
100.125067214971
20
7.5447822049384
30
0
41
1
10
100.127808745622
20
7.50692328423884
30
0
41
1
10
100.134716505909
20
7.46984590335711
30
0
41
1
10
100.145790493564
20
7.43355008490286
30
0
0
SPLINE
5
20B
100
AcDbEntity
8
1
62
256
6
ByLayer
370
-1
48
1
60
0
100
AcDbSpline
70
4
71
3
72
8
73
4
40
0
40
0
40
0
40
0
40
1
40
1
40
1
40
1
41
1
10
100.225488106
20
18.1963360218771
30
0
41
1
10
100.115265259436
20
18.1924424317085
30
0
41
1
10
100.002066462998
20
18.1884969810828
30
0
41
1
10
99.8910989612855
20
18.1846811642126
30
0
0
SPLINE
5
20C
100
AcDbEntity
8
1
62
256
6
ByLayer
370
-1
48
1
60
0
100
AcDbSpline
70
4
71
3
72
14
73
10
40
0
40
0
40
0
40
0
40
0.0424082128909887
40
0.170379060242067
40
0.682262449646381
40
0.938204144348538
40
0.970196856186307
40
0.986193212105192
40
1
40
1
40
1
40
1
41
1
10
100.87373155284
20
18.2196077067502
30
0
41
1
10
100.875437094307
20
18.2196713784322
30
0
41
1
10
100.882280925554
20
18.2199269260404
30
0
41
1
10
100.909670882694
20
18.2209497530808
30
0
41
1
10
100.945626485244
20
18.2222924922871
30
0
41
1
10
100.977749050738
20
18.2234919691533
30
0
41
1
10
100.989940674004
20
18.2239473043339
30
0
41
1
10
100.992413507093
20
18.2240396977818
30
0
41
1
10
100.993612087442
20
18.2240844435096
30
0
41
1
10
100.994172464622
20
18.2241053318189
30
0
0
SPLINE
5
20D
100
AcDbEntity
8
1
62
256
6
ByLayer
370
-1
48
1
60
0
100
AcDbSpline
70
4
71
3
72
17
73
13
40
0
40
0
40
0
40
0
40
0.0285647612451799
40
0.114009773641727
40
0.284899798434823
40
0.455789823227918
40
0.626679848021013
40
0.797569872814108
40
0.883014885210656
40
0.92573739140893
40
0.968459897607204
40
1
40
1
40
1
40
1
41
1
10
111.236578673197
20
8.51918341241901
30
0
41
1
10
111.236930275332
20
8.51550467433063
30
0
41
1
10
111.238330852457
20
8.50079182616852
30
0
41
1
10
111.241752993191
20
8.46319130157721
30
0
41
1
10
111.246636440352
20
8.40449682751924
30
0
41
1
10
111.252043461087
20
8.33083147081339
30
0
41
1
10
111.256957424325
20
8.25455376270557
30
0
41
1
10
111.260606887226
20
8.18931035331184
30
0
41
1
10
111.262913260051
20
8.14303553921999
30
0
41
1
10
111.264158953116
20
8.11646037416716
30
0
41
1
10
111.264977310487
20
8.09821563482799
30
0
41
1
10
111.265475612271
20
8.08660800837174
30
0
41
1
10
111.265685889454
20
8.0816766001135
30
0
0
SPLINE
5
20E
100
AcDbEntity
8
1
62
256
6
ByLayer
370
-1
48
1
60
0
100
AcDbSpline
70
4
71
3
72
25
73
21
40
0
40
0
40
0
40
0
40
0.0099904601134651
40
0.0399882789191455
40
0.159979554141867
40
0.279970829364588
40
0.309968648170268
40
0.339966466975949
40
0.369964285781629
40
0.399962104587309
40
0.519953379810031
40
0.639944655032752
40
0.759935930255473
40
0.879927205478194
40
0.939922843089555
40
0.969920661895236
40
0.984919571298076
40
0.992419025999496
40
0.999918480700916
40
1
40
1
40
1
40
1
41
1
10
100.187740181041
20
7.84718003764192
30
0
41
1
10
100.187815892029
20
7.84503968280956
30
0
41
1
10
100.188125231427
20
7.83647283434286
30
0
41
1
10
100.189524254044
20
7.80220580142569
30
0
41
1
10
100.192997481616
20
7.74442703828169
30
0
41
1
10
100.198237916357
20
7.68678255851754
30
0
41
1
10
100.202489195414
20
7.64843499670337
30
0
41
1
10
100.204757859231
20
7.62927745694336
30
0
41
1
10
100.207137136706
20
7.61013259623124
30
0
41
1
10
100.213028575759
20
7.57199882427665
30
0
41
1
10
100.22664979415
20
7.51563166838537
30
0
41
1
10
100.254274986805
20
7.44344941723216
30
0
41
1
10
100.290891260799
20
7.37541275719934
30
0
41
1
10
100.328550299461
20
7.3232230183809
30
0
41
1
10
100.358234033364
20
7.28945260804412
30
0
41
1
10
100.37386901265
20
7.27331662631659
30
0
41
1
10
100.381879424123
20
7.26544358175153
30
0
41
1
10
100.386512265585
20
7.26100190887422
30
0
41
1
10
100.388858313445
20
7.25878807648456
30
0
41
1
10
100.390043741082
20
7.25768044253473
30
0
41
1
10
100.390056488854
20
7.25766853259674
30
0
0
SPLINE
5
20F
100
AcDbEntity
8
1
62
256
6
ByLayer
370
-1
48
1
60
0
100
AcDbSpline
70
4
71
3
72
10
73
6
40
0
40
0
40
0
40
0
40
0.5
40
0.5
40
1
40
1
40
1
40
1
41
1
10
100.30932904714
20
7.17007345074464
30
0
41
1
10
100.347753822817
20
7.13409893050371
30
0
41
1
10
100.389948758379
20
7.10389505037148
30
0
41
1
10
100.481679412428
20
7.05470517145514
30
0
41
1
10
100.531192348063
20
7.0359504077818
30
0
41
1
10
100.58235483918
20
7.02403315105789
30
0
0
SPLINE
5
210
100
AcDbEntity
8
1
62
256
6
ByLayer
370
-1
48
1
60
0
100
AcDbSpline
70
4
71
3
72
23
73
19
40
0
40
0
40
0
40
0
40
0.0074200078967023
40
0.0149215578681146
40
0.0299246578109391
40
0.059930857696588
40
0.119943257467886
40
0.239968057010482
40
0.480017656095674
40
0.600042455638271
40
0.63004865552392
40
0.660054855409569
40
0.690061055295218
40
0.720067255180867
40
0.840092054723463
40
0.960116854266059
40
0.990123054151708
40
1
40
1
40
1
40
1
41
1
10
112.462314465992
20
7.68085137769492
30
0
41
1
10
112.463394871389
20
7.68201503089262
30
0
41
1
10
112.465559904508
20
7.68436435393869
30
0
41
1
10
112.469861824206
20
7.68911108419238
30
0
41
1
10
112.477308649469
20
7.697533446835
30
0
41
1
10
112.491787862608
20
7.71474019428408
30
0
41
1
10
112.519057799381
20
7.75053599401252
30
0
41
1
10
112.566574087288
20
7.82717061989518
30
0
41
1
10
112.603043340971
20
7.92428753354031
30
0
41
1
10
112.616987621037
20
8.00689547262573
30
0
41
1
10
112.620230015625
20
8.04534826524883
30
0
41
1
10
112.621291349298
20
8.06461203388821
30
0
41
1
10
112.62225833104
20
8.08387985344288
30
0
41
1
10
112.623911902988
20
8.12242770029789
30
0
41
1
10
112.625241215299
20
8.18029419338245
30
0
41
1
10
112.624802200237
20
8.23817224039396
30
0
41
1
10
112.623890252266
20
8.27242780878487
30
0
41
1
10
112.623619462752
20
8.28097020139927
30
0
41
1
10
112.62355069461
20
8.28308564961836
30
0
0
SPLINE
5
211
100
AcDbEntity
8
1
62
256
6
ByLayer
370
-1
48
1
60
0
100
AcDbSpline
70
4
71
3
72
15
73
11
40
0
40
0
40
0
40
0
40
0.25014878162224
40
0.500297563244481
40
0.750446344866721
40
0.875520735677841
40
0.938057931083402
40
0.969326528786182
40
0.984960827637572
40
1
40
1
40
1
40
1
41
1
10
112.462314213992
20
7.6808513182871
30
0
41
1
10
112.469639833995
20
7.67404434783862
30
0
41
1
10
112.484291074001
20
7.66043040694169
30
0
41
1
10
112.506263586221
20
7.6400135355654
30
0
41
1
10
112.524595027389
20
7.62297994956782
30
0
41
1
10
112.537382253969
20
7.61109805105127
30
0
41
1
10
112.54384108411
20
7.60509650225649
30
0
41
1
10
112.546972673904
20
7.60218662716383
30
0
41
1
10
112.548917457948
20
7.60037953267752
30
0
41
1
10
112.549475692728
20
7.59986082058927
30
0
41
1
10
112.550221655571
20
7.59916767147362
30
0
0
SPLINE
5
212
100
AcDbEntity
8
1
62
256
6
ByLayer
370
-1
48
1
60
0
100
AcDbSpline
70
4
71
3
72
14
73
10
40
0
40
0
40
0
40
0
40
0.0138067085559739
40
0.029803068237134
40
0.0617957875994542
40
0.317737542498016
40
0.829621052295139
40
0.95759192974442
40
1
40
1
40
1
40
1
41
1
10
111.056938878788
20
18.5768471649944
30
0
41
1
10
111.057569221943
20
18.5768680110185
30
0
41
1
10
111.058921612148
20
18.5769126773178
30
0
41
1
10
111.061725914346
20
18.5770052984366
30
0
41
1
10
111.075505246818
20
18.5774603124133
30
0
41
1
10
111.111829303317
20
18.5786602306332
30
0
41
1
10
111.152477504935
20
18.5800027448597
30
0
41
1
10
111.183444885351
20
18.5810255872995
30
0
41
1
10
111.191181237017
20
18.5812811359414
30
0
41
1
10
111.193108454037
20
18.5813448075996
30
0
0
SPLINE
5
213
100
AcDbEntity
8
1
62
256
6
ByLayer
370
-1
48
1
60
0
100
AcDbSpline
70
4
71
3
72
14
73
10
40
0
40
0
40
0
40
0
40
0.0138067085560197
40
0.0298030682371792
40
0.0617957875994983
40
0.317737542498051
40
0.829621052295157
40
0.957591929744433
40
1
40
1
40
1
40
1
41
1
10
111.224234096777
20
8.64797904523275
30
0
41
1
10
111.224290526186
20
8.64738209320601
30
0
41
1
10
111.224413204531
20
8.64610301774698
30
0
41
1
10
111.224667546465
20
8.64345069592923
30
0
41
1
10
111.22591984865
20
8.6304208004448
30
0
41
1
10
111.22920884985
20
8.59605963838177
30
0
41
1
10
111.232896172822
20
8.55761506095774
30
0
41
1
10
111.235703587001
20
8.5283246857845
30
0
41
1
10
111.236404406264
20
8.52100673014806
30
0
41
1
10
111.236578673197
20
8.51918341241901
30
0
0
SPLINE
5
214
100
AcDbEntity
8
1
62
256
6
ByLayer
370
-1
48
1
60
0
100
AcDbSpline
70
4
71
3
72
10
73
6
40
0
40
0
40
0
40
0
40
0.0485494410338268
40
0.365699627355885
40
1
40
1
40
1
40
1
41
1
10
112.203191934259
20
18.6162712827407
30
0
41
1
10
112.204171900123
20
18.6163063058242
30
0
41
1
10
112.211552241574
20
18.616570086109
30
0
41
1
10
112.231715106022
20
18.6172909200862
30
0
41
1
10
112.250906033464
20
18.6179769338095
30
0
41
1
10
112.263698563074
20
18.6184342404174
30
0
0
SPLINE
5
215
100
AcDbEntity
8
1
62
256
6
ByLayer
370
-1
48
1
60
0
100
AcDbSpline
70
4
71
3
72
12
73
8
40
0
40
0
40
0
40
0
40
0.341077853836652
40
0.341077853836652
40
0.67053896639833
40
0.67053896639833
40
1
40
1
40
1
40
1
41
1
10
112.703194690161
20
8.28587748868924
30
0
41
1
10
112.700796198747
20
8.35309659623616
30
0
41
1
10
112.698373082095
20
8.42031320188087
30
0
41
1
10
112.693738279268
20
8.55247083855258
30
0
41
1
10
112.6915348898
20
8.61740956959855
30
0
41
1
10
112.687107220556
20
8.74728265167113
30
0
41
1
10
112.684884349829
20
8.81221992398625
30
0
41
1
10
112.682625395471
20
8.87715501076696
30
0
0
SPLINE
5
216
100
AcDbEntity
8
1
62
256
6
ByLayer
370
-1
48
1
60
0
100
AcDbSpline
70
4
71
3
72
8
73
4
40
0
40
0
40
0
40
0
40
1
40
1
40
1
40
1
41
1
10
112.307175599141
20
19.512109746745
30
0
41
1
10
112.304498676152
20
19.5499686674446
30
0
41
1
10
112.297629271056
20
19.5870460483263
30
0
41
1
10
112.286566999976
20
19.6233418667806
30
0
0
SPLINE
5
217
100
AcDbEntity
8
1
62
256
6
ByLayer
370
-1
48
1
60
0
100
AcDbSpline
70
4
71
3
72
8
73
4
40
0
40
0
40
0
40
0
40
1
40
1
40
1
40
1
41
1
10
99.724795694493
20
18.9109639503999
30
0
41
1
10
99.7250935557072
20
18.8946325800666
30
0
41
1
10
99.7254715057471
20
18.8783024359088
30
0
41
1
10
99.7259293872018
20
18.861974694549
30
0
0
SPLINE
5
218
100
AcDbEntity
8
1
62
256
6
ByLayer
370
-1
48
1
60
0
100
AcDbSpline
70
4
71
3
72
10
73
6
40
0
40
0
40
0
40
0
40
0.5
40
0.5
40
1
40
1
40
1
40
1
41
1
10
100.145790493572
20
7.4335500849007
30
0
41
1
10
100.161170861822
20
7.38313978364675
30
0
41
1
10
100.182675096922
20
7.33582721327215
30
0
41
1
10
100.237566294865
20
7.24721240577313
30
0
41
1
10
100.271052580919
20
7.20611026073161
30
0
41
1
10
100.309329047067
20
7.17007345066494
30
0
0
SPLINE
5
219
100
AcDbEntity
8
1
62
256
6
ByLayer
370
-1
48
1
60
0
100
AcDbSpline
70
4
71
3
72
12
73
8
40
0
40
0
40
0
40
0
40
0.341077853836653
40
0.341077853836653
40
0.67053896639833
40
0.67053896639833
40
1
40
1
40
1
40
1
41
1
10
99.7288946219102
20
18.7710144629942
30
0
41
1
10
99.7313913542888
20
18.7037953554473
30
0
41
1
10
99.7339531201114
20
18.6365787498026
30
0
41
1
10
99.7386489435402
20
18.5044211131309
30
0
41
1
10
99.7407612689263
20
18.4394823820849
30
0
41
1
10
99.7450412178897
20
18.3096093000123
30
0
41
1
10
99.747204962242
20
18.2446720276972
30
0
41
1
10
99.7494639166007
20
18.1797369409165
30
0
0
SPLINE
5
21A
100
AcDbEntity
8
1
62
256
6
ByLayer
370
-1
48
1
60
0
100
AcDbSpline
70
4
71
3
72
9
73
5
40
0
40
0
40
0
40
0
40
0.593750000000092
40
1
40
1
40
1
40
1
41
1
10
100.555790112736
20
19.5791630168028
30
0
41
1
10
100.555362006758
20
19.5949264909868
30
0
41
1
10
100.554640986163
20
19.6214755001388
30
0
41
1
10
100.553919965567
20
19.6480245092907
30
0
41
1
10
100.55362705095
20
19.6588100442587
30
0
0
SPLINE
5
21B
100
AcDbEntity
8
1
62
256
6
ByLayer
370
-1
48
1
60
0
100
AcDbSpline
70
4
71
3
72
8
73
4
40
0
40
0
40
0
40
0
40
1
40
1
40
1
40
1
41
1
10
100.255227283319
20
19.6427670054082
30
0
41
1
10
100.217544731073
20
19.640047429782
30
0
41
1
10
100.180627618415
20
19.6331325338237
30
0
41
1
10
100.144475774795
20
19.6220221260001
30
0
0
SPLINE
5
21C
100
AcDbEntity
8
1
62
256
6
ByLayer
370
-1
48
1
60
0
100
AcDbSpline
70
4
71
3
72
8
73
4
40
0
40
0
40
0
40
0
40
1
40
1
40
1
40
1
41
1
10
100.414295530124
20
19.6527997490668
30
0
41
1
10
100.361234427713
20
19.6499074107083
30
0
41
1
10
100.308192453589
20
19.6465895380532
30
0
41
1
10
100.255227283319
20
19.6427670054082
30
0
0
SPLINE
5
21D
100
AcDbEntity
8
1
62
256
6
ByLayer
370
-1
48
1
60
0
100
AcDbSpline
70
4
71
3
72
15
73
11
40
0
40
0
40
0
40
0
40
0.0204519912453237
40
0.0504132324410959
40
0.11033571483264
40
0.230180679615729
40
0.469870609181906
40
0.709560538748083
40
0.94925046831426
40
1
40
1
40
1
40
1
41
1
10
111.872620929097
20
18.6046165099934
30
0
41
1
10
111.874910009605
20
18.6046961540906
30
0
41
1
10
111.880552458826
20
18.6048924905593
30
0
41
1
10
111.892901077887
20
18.6053224349864
30
0
41
1
10
111.91636871116
20
18.6061406049907
30
0
41
1
10
111.963260925758
20
18.6077792867829
30
0
41
1
10
112.029985765287
20
18.610122356052
30
0
41
1
10
112.109218293637
20
18.6129225981736
30
0
41
1
10
112.166712432783
20
18.6149678557681
30
0
41
1
10
112.197770253683
20
18.6160775168365
30
0
41
1
10
112.203191934259
20
18.6162712827407
30
0
0
SPLINE
5
21E
100
AcDbEntity
8
1
62
256
6
ByLayer
370
-1
48
1
60
0
100
AcDbSpline
70
4
71
3
72
8
73
4
40
0
40
0
40
0
40
0
40
1
40
1
40
1
40
1
41
1
10
99.725929387205
20
18.8619746945491
30
0
41
1
10
99.7267797737234
20
18.8316504894825
30
0
41
1
10
99.7277686132701
20
18.8013298033071
30
0
41
1
10
99.728894621894
20
18.7710144629936
30
0
0
SPLINE
5
21F
100
AcDbEntity
8
1
62
256
6
ByLayer
370
-1
48
1
60
0
100
AcDbSpline
70
4
71
3
72
14
73
10
40
0
40
0
40
0
40
0
40
0.0138067085560013
40
0.0298030682371617
40
0.0617957875994826
40
0.317737542498049
40
0.829621052295183
40
0.957591929744467
40
1
40
1
40
1
40
1
41
1
10
101.333148317818
20
8.48004478668904
30
0
41
1
10
101.332589300085
20
8.48002394066489
30
0
41
1
10
101.331393273909
20
8.47997927436563
30
0
41
1
10
101.328913118242
20
8.47988665324684
30
0
41
1
10
101.316731825118
20
8.4794316392701
30
0
41
1
10
101.284595066681
20
8.47823172105021
30
0
41
1
10
101.248646699899
20
8.47688920682373
30
0
41
1
10
101.22125624741
20
8.47586636438396
30
0
41
1
10
101.214412381864
20
8.47561081574202
30
0
41
1
10
101.212706839975
20
8.47554714408389
30
0
0
SPLINE
5
220
100
AcDbEntity
8
1
62
256
6
ByLayer
370
-1
48
1
60
0
100
AcDbSpline
70
4
71
3
72
12
73
8
40
0
40
0
40
0
40
0
40
0.341077853836648
40
0.341077853836648
40
0.670538966398327
40
0.670538966398327
40
1
40
1
40
1
40
1
41
1
10
100.993425724752
20
7.01651608246661
30
0
41
1
10
101.060438163782
20
7.01897304384283
30
0
41
1
10
101.127468314535
20
7.02147500580045
30
0
41
1
10
101.2591535618
20
7.02615813966699
30
0
41
1
10
101.323799649328
20
7.02832423975866
30
0
41
1
10
101.453104664973
20
7.03269467970568
30
0
41
1
10
101.517765268175
20
7.03489636532385
30
0
41
1
10
101.582453257346
20
7.03716394852125
30
0
0
SPLINE
5
221
100
AcDbEntity
8
1
62
256
6
ByLayer
370
-1
48
1
60
0
100
AcDbSpline
70
4
71
3
72
23
73
19
40
0
40
0
40
0
40
0
40
0.0074200078967175
40
0.0149215578681296
40
0.0299246578109538
40
0.0599308576966022
40
0.119943257467899
40
0.239968057010493
40
0.480017656095679
40
0.600042455638273
40
0.630048655523921
40
0.66005485540957
40
0.690061055295218
40
0.720067255180866
40
0.84009205472346
40
0.960116854266053
40
0.990123054151702
40
1
40
1
40
1
40
1
41
1
10
99.9684839822437
20
19.3760405739885
30
0
41
1
10
99.9674051207136
20
19.3748769207908
30
0
41
1
10
99.9652480777268
20
19.3725275977448
30
0
41
1
10
99.9609585965379
20
19.3677808674911
30
0
41
1
10
99.9535351320222
20
19.3593585048484
30
0
41
1
10
99.9391014164388
20
19.3421517573994
30
0
41
1
10
99.911922563779
20
19.3063559576709
30
0
41
1
10
99.8645862755427
20
19.2297213317882
30
0
41
1
10
99.8283209199593
20
19.1326044181431
30
0
41
1
10
99.8145457694745
20
19.0499964790577
30
0
41
1
10
99.8113818985943
20
19.0115436864346
30
0
41
1
10
99.8103596352271
20
18.9922799177952
30
0
41
1
10
99.8094313711314
20
18.9730120982406
30
0
41
1
10
99.8078551057091
20
18.9344642513855
30
0
41
1
10
99.8066419287813
20
18.876597758301
30
0
41
1
10
99.8071970547899
20
18.8187197112895
30
0
41
1
10
99.8081776417717
20
18.7844641428986
30
0
41
1
10
99.8084654681652
20
18.7759217502842
30
0
41
1
10
99.808538392399
20
18.7738063020651
30
0
0
SPLINE
5
222
100
AcDbEntity
8
1
62
256
6
ByLayer
370
-1
48
1
60
0
100
AcDbSpline
70
4
71
3
72
12
73
8
40
0
40
0
40
0
40
0
40
0.0112779549373691
40
0.0936714586925883
40
0.176064962447808
40
0.340851969958246
40
1
40
1
40
1
40
1
41
1
10
110.872834484222
20
18.7491835235246
30
0
41
1
10
110.872832152888
20
18.7490886630542
30
0
41
1
10
110.872812942926
20
18.7482998273419
30
0
41
1
10
110.872779515925
20
18.7468005053129
30
0
41
1
10
110.872731773101
20
18.7439099625598
30
0
41
1
10
110.872668810492
20
18.7356030258271
30
0
41
1
10
110.87281050778
20
18.7272266568547
30
0
41
1
10
110.873043820694
20
18.7205199280374
30
0
0
SPLINE
5
223
100
AcDbEntity
8
1
62
256
6
ByLayer
370
-1
48
1
60
0
100
AcDbSpline
70
4
71
3
72
15
73
11
40
0
40
0
40
0
40
0
40
0.0138956313305896
40
0.101457951273459
40
0.189020271216328
40
0.364144911102067
40
0.714394190873545
40
0.889518830759284
40
0.977081150702153
40
1
40
1
40
1
40
1
41
1
10
100.225486861774
20
18.1963360003537
30
0
41
1
10
100.226535417929
20
18.196373033112
30
0
41
1
10
100.234190733074
20
18.1966434142245
30
0
41
1
10
100.248448899363
20
18.1971470735488
30
0
41
1
10
100.274866385038
20
18.1980802954273
30
0
41
1
10
100.321100107364
20
18.1997134898483
30
0
41
1
10
100.373939334628
20
18.2015800084876
30
0
41
1
10
100.420171838832
20
18.2032131835625
30
0
41
1
10
100.44171700152
20
18.203974223157
30
0
41
1
10
100.450048796213
20
18.204268576211
30
0
41
1
10
100.451776825826
20
18.2043296318406
30
0
0
SPLINE
5
224
100
AcDbEntity
8
1
62
256
6
ByLayer
370
-1
48
1
60
0
100
AcDbSpline
70
4
71
3
72
15
73
11
40
0
40
0
40
0
40
0
40
0.0144496252550552
40
0.0300932819970385
40
0.061380595481005
40
0.123955222448938
40
0.249104476384804
40
0.499402984256536
40
0.749701492128268
40
1
40
1
40
1
40
1
41
1
10
100.993425726455
20
7.01651603348827
30
0
41
1
10
100.993396813242
20
7.01734716228708
30
0
41
1
10
100.993383776876
20
7.0177219009625
30
0
41
1
10
100.993322975265
20
7.01946968211729
30
0
41
1
10
100.993223816792
20
7.02232005579936
30
0
41
1
10
100.993019514824
20
7.02819284644369
30
0
41
1
10
100.992614900903
20
7.03982373221223
30
0
41
1
10
100.992034924008
20
7.05649553873187
30
0
41
1
10
100.991339723137
20
7.07647953208826
30
0
41
1
10
100.990876167222
20
7.08980474311517
30
0
41
1
10
100.990644389265
20
7.09646734862864
30
0
0
SPLINE
5
225
100
AcDbEntity
8
1
62
256
6
ByLayer
370
-1
48
1
60
0
100
AcDbSpline
70
4
71
3
72
15
73
11
40
0
40
0
40
0
40
0
40
0.0229190021791035
40
0.110481321488061
40
0.285605960105976
40
0.635855237341806
40
0.810979875959721
40
0.898542195268679
40
0.986104514577636
40
1
40
1
40
1
40
1
41
1
10
100.790752152576
20
8.46026906953992
30
0
41
1
10
100.789024126207
20
8.46020801375272
30
0
41
1
10
100.780692377566
20
8.45991366126265
30
0
41
1
10
100.759147002939
20
8.45915261780803
30
0
41
1
10
100.712914634222
20
8.45751944501865
30
0
41
1
10
100.660075341668
20
8.45565292520354
30
0
41
1
10
100.613841631531
20
8.45401973095642
30
0
41
1
10
100.587424140342
20
8.45308650895061
30
0
41
1
10
100.573165558792
20
8.45258284235521
30
0
41
1
10
100.565510865759
20
8.45231247258928
30
0
41
1
10
100.564462402619
20
8.45227544169003
30
0
0
SPLINE
5
226
100
AcDbEntity
8
1
62
256
6
ByLayer
370
-1
48
1
60
0
100
AcDbSpline
70
4
71
3
72
12
73
8
40
0
40
0
40
0
40
0
40
0.011277954937307
40
0.0936714586925314
40
0.176064962447756
40
0.340851969958205
40
1
40
1
40
1
40
1
41
1
10
101.517252575283
20
8.30770842815886
30
0
41
1
10
101.517243643959
20
8.3078032886292
30
0
41
1
10
101.517169550144
20
8.30859212434152
30
0
41
1
10
101.517031806657
20
8.31009144637054
30
0
41
1
10
101.516782952093
20
8.31298198912367
30
0
41
1
10
101.516142027957
20
8.32128892585635
30
0
41
1
10
101.515700932917
20
8.32966529482871
30
0
41
1
10
101.515467620004
20
8.33637202364608
30
0
0
SPLINE
5
227
100
AcDbEntity
8
1
62
256
6
ByLayer
370
-1
48
1
60
0
100
AcDbSpline
70
4
71
3
72
12
73
8
40
0
40
0
40
0
40
0
40
0.521734132299737
40
0.782601198449606
40
0.91303473152454
40
0.978251498062007
40
1
40
1
40
1
40
1
41
1
10
112.263698563074
20
18.6184342404174
30
0
41
1
10
112.260121328525
20
18.7212641250915
30
0
41
1
10
112.254756704421
20
18.8755089916805
30
0
41
1
10
112.248492528445
20
19.0554611481234
30
0
41
1
10
112.245370003995
20
19.1454375803516
30
0
41
1
10
112.243866811781
20
19.1882847673258
30
0
41
1
10
112.243285161309
20
19.2054255402035
30
0
41
1
10
112.243133293086
20
19.2097119140415
30
0
0
SPLINE
5
228
100
AcDbEntity
8
1
62
256
6
ByLayer
370
-1
48
1
60
0
100
AcDbSpline
70
4
71
3
72
12
73
8
40
0
40
0
40
0
40
0
40
0.659147749652406
40
0.823934687065507
40
0.906328155772058
40
0.988721624478609
40
1
40
1
40
1
40
1
41
1
10
101.166062349514
20
18.380249835188
30
0
41
1
10
101.165829036684
20
18.3869565642588
30
0
41
1
10
101.165686826301
20
18.3953361191505
30
0
41
1
10
101.16575068717
20
18.4036374927592
30
0
41
1
10
101.165797346494
20
18.4065347265207
30
0
41
1
10
101.165831264782
20
18.4080310172216
30
0
41
1
10
101.165850737422
20
18.4088182338738
30
0
41
1
10
101.165853099829
20
18.4089129064507
30
0
0
SPLINE
5
229
100
AcDbEntity
8
1
62
256
6
ByLayer
370
-1
48
1
60
0
100
AcDbSpline
70
4
71
3
72
9
73
5
40
0
40
0
40
0
40
0
40
0.593750000000055
40
1
40
1
40
1
40
1
41
1
10
111.875083819576
20
7.47772893488059
30
0
41
1
10
111.875752469465
20
7.46196546069663
30
0
41
1
10
111.876878616647
20
7.43541645154468
30
0
41
1
10
111.878004763828
20
7.40886744239273
30
0
41
1
10
111.878462261121
20
7.39808190742477
30
0
0
SPLINE
5
22A
100
AcDbEntity
8
1
62
256
6
ByLayer
370
-1
48
1
60
0
100
AcDbSpline
70
4
71
3
72
8
73
4
40
0
40
0
40
0
40
0
40
1
40
1
40
1
40
1
41
1
10
112.01781616724
20
7.40409220261662
30
0
41
1
10
112.070897897429
20
7.40698454097517
30
0
41
1
10
112.123959550437
20
7.41030241363023
30
0
41
1
10
112.177015530793
20
7.41412494627522
30
0
0
SPLINE
5
22B
100
AcDbEntity
8
1
62
256
6
ByLayer
370
-1
48
1
60
0
100
AcDbSpline
70
4
71
3
72
25
73
21
40
0
40
0
40
0
40
0
40
0.0099904601134869
40
0.0399882789191672
40
0.159979554141889
40
0.27997082936461
40
0.30996864817029
40
0.339966466975971
40
0.369964285781651
40
0.399962104587331
40
0.519953379810053
40
0.639944655032774
40
0.759935930255495
40
0.879927205478217
40
0.939922843089577
40
0.969920661895258
40
0.984919571298098
40
0.992419025999518
40
0.999918480700938
40
1
40
1
40
1
40
1
41
1
10
111.875083743147
20
7.47772459821417
30
0
41
1
10
111.877215891893
20
7.47780066003079
30
0
41
1
10
111.885749845307
20
7.4781114777924
30
0
41
1
10
111.919884353946
20
7.47951798044872
30
0
41
1
10
111.977439893091
20
7.48300784637544
30
0
41
1
10
112.034861603537
20
7.48827172643877
30
0
41
1
10
112.073060973252
20
7.49254152140469
30
0
41
1
10
112.092144476113
20
7.49481999216721
30
0
41
1
10
112.111215334381
20
7.49720951295896
30
0
41
1
10
112.149201697142
20
7.50312576381108
30
0
41
1
10
112.20535091006
20
7.51680247514497
30
0
41
1
10
112.277253952308
20
7.54453774251328
30
0
41
1
10
112.345027150294
20
7.5812984641658
30
0
41
1
10
112.39701455669
20
7.61910510321283
30
0
41
1
10
112.430653581565
20
7.64890511400964
30
0
41
1
10
112.446727075237
20
7.66460090629695
30
0
41
1
10
112.454569152898
20
7.67264292768229
30
0
41
1
10
112.458994004767
20
7.6772933846386
30
0
41
1
10
112.461198398565
20
7.67964941218548
30
0
41
1
10
112.462302592891
20
7.68083858974413
30
0
41
1
10
112.462314465992
20
7.68085137769492
30
0
0
SPLINE
5
22C
100
AcDbEntity
8
1
62
256
6
ByLayer
370
-1
48
1
60
0
100
AcDbSpline
70
4
71
3
72
17
73
13
40
0
40
0
40
0
40
0
40
0.0285647612451692
40
0.11400977364172
40
0.284899798434821
40
0.455789823227923
40
0.626679848021024
40
0.797569872814125
40
0.883014885210676
40
0.925737391408951
40
0.968459897607227
40
1
40
1
40
1
40
1
41
1
10
111.193108454037
20
18.5813448075996
30
0
41
1
10
111.196996820032
20
18.5814732719644
30
0
41
1
10
111.212542429615
20
18.5819870559436
30
0
41
1
10
111.25211397085
20
18.5833000951957
30
0
41
1
10
111.313426685237
20
18.5853497513947
30
0
41
1
10
111.389656081766
20
18.5879222023359
30
0
41
1
10
111.467903953234
20
18.5905858785981
30
0
41
1
10
111.534278874408
20
18.5928642286584
30
0
41
1
10
111.581074168756
20
18.5944801807747
30
0
41
1
10
111.607869406551
20
18.5954082059877
30
0
41
1
10
111.626228380617
20
18.5960453263246
30
0
41
1
10
111.637886333555
20
18.5964506735725
30
0
41
1
10
111.642837700234
20
18.5966228821435
30
0
0
SPLINE
5
22D
100
AcDbEntity
8
1
62
256
6
ByLayer
370
-1
48
1
60
0
100
AcDbSpline
70
4
71
3
72
12
73
8
40
0
40
0
40
0
40
0
40
0.521734132299755
40
0.782601198449632
40
0.91303473152457
40
0.97825149806204
40
1
40
1
40
1
40
1
41
1
10
101.144817661516
20
19.5998109315323
30
0
41
1
10
101.042379075604
20
19.5962200325214
30
0
41
1
10
100.888720753543
20
19.5908353217248
30
0
41
1
10
100.709454123229
20
19.58454646089
30
0
41
1
10
100.619819361029
20
19.5814127291064
30
0
41
1
10
100.577135755621
20
19.5799032578142
30
0
41
1
10
100.560059916814
20
19.5793196783904
30
0
41
1
10
100.55578973098
20
19.5791673534693
30
0
0
SPLINE
5
22E
100
AcDbEntity
8
1
62
256
6
ByLayer
370
-1
48
1
60
0
100
AcDbSpline
70
4
71
2
72
9
73
6
40
0
40
0
40
0
40
0.25
40
0.5
40
0.75
40
1
40
1
40
1
41
1
10
101.360914439487
20
8.48104572319355
30
0
41
1
10
101.362072502991
20
8.45125558426432
30
0
41
1
10
101.386241343307
20
8.39743619758795
30
0
41
1
10
101.429551060808
20
8.35656074096804
30
0
41
1
10
101.485146860954
20
8.3354339632605
30
0
41
1
10
101.515467620004
20
8.33637202364605
30
0
0
SPLINE
5
22F
100
AcDbEntity
8
1
62
256
6
ByLayer
370
-1
48
1
60
0
100
AcDbSpline
70
4
71
3
72
8
73
4
40
0
40
0
40
0
40
0
40
1
40
1
40
1
40
1
41
1
10
110.868669468953
20
19.5443925165099
30
0
41
1
10
110.865641399832
20
19.6558903507566
30
0
41
1
10
110.8610651557
20
19.7688732741923
30
0
41
1
10
110.85515124783
20
19.878143972567
30
0
0
SPLINE
5
230
100
AcDbEntity
8
1
62
256
6
ByLayer
370
-1
48
1
60
0
100
AcDbSpline
70
4
71
3
72
8
73
4
40
0
40
0
40
0
40
0
40
1
40
1
40
1
40
1
41
1
10
112.317104606807
20
19.3523680762824
30
0
41
1
10
112.314233588558
20
19.4056422167702
30
0
41
1
10
112.310938180852
20
19.4588966796453
30
0
41
1
10
112.307175599141
20
19.5121097467449
30
0
0
SPLINE
5
231
100
AcDbEntity
8
1
62
256
6
ByLayer
370
-1
48
1
60
0
100
AcDbSpline
70
4
71
3
72
8
73
4
40
0
40
0
40
0
40
0
40
1
40
1
40
1
40
1
41
1
10
111.849522350549
20
20.0328588006254
30
0
41
1
10
111.812627732018
20
20.0414446129519
30
0
41
1
10
111.775242942449
20
20.0457596623517
30
0
41
1
10
111.737371923199
20
20.0457911100629
30
0
0
SPLINE
5
232
100
AcDbEntity
8
1
62
256
6
ByLayer
370
-1
48
1
60
0
100
AcDbSpline
70
4
71
3
72
15
73
11
40
0
40
0
40
0
40
0
40
0.0229190021791929
40
0.110481321488131
40
0.285605960106007
40
0.635855237341759
40
0.810979875959635
40
0.898542195268573
40
0.986104514577511
40
1
40
1
40
1
40
1
41
1
10
111.642837700234
20
18.5966228821435
30
0
41
1
10
111.64459318539
20
18.5966839379307
30
0
41
1
10
111.653055590729
20
18.5969782904208
30
0
41
1
10
111.674931221167
20
18.5977393338754
30
0
41
1
10
111.721878819415
20
18.5993725066648
30
0
41
1
10
111.775533007429
20
18.6012390264799
30
0
41
1
10
111.822480488519
20
18.602872220727
30
0
41
1
10
111.849307575146
20
18.6038054427328
30
0
41
1
10
111.863785473304
20
18.6043091093282
30
0
41
1
10
111.8715566103
20
18.6045794790942
30
0
41
1
10
111.872620929097
20
18.6046165099934
30
0
0
SPLINE
5
233
100
AcDbEntity
8
1
62
256
6
ByLayer
370
-1
48
1
60
0
100
AcDbSpline
70
4
71
3
72
15
73
11
40
0
40
0
40
0
40
0
40
0.020451991245377
40
0.0504132324411455
40
0.110335714832682
40
0.230180679615756
40
0.469870609181904
40
0.709560538748052
40
0.9492504683142
40
1
40
1
40
1
40
1
41
1
10
111.275395838589
20
7.85276904835965
30
0
41
1
10
111.275492230369
20
7.85048833981972
30
0
41
1
10
111.275729322799
20
7.84486599897508
30
0
41
1
10
111.276241103574
20
7.83255400146206
30
0
41
1
10
111.277183625645
20
7.80912467799175
30
0
41
1
10
111.278961145987
20
7.76219897113941
30
0
41
1
10
111.281178736949
20
7.69510224609348
30
0
41
1
10
111.28331755024
20
7.61491380344535
30
0
41
1
10
111.284503520535
20
7.55634528894382
30
0
41
1
10
111.285011163806
20
7.52456875353045
30
0
41
1
10
111.285098258031
20
7.51902002402255
30
0
0
SPLINE
5
234
100
AcDbEntity
8
1
62
256
6
ByLayer
370
-1
48
1
60
0
100
AcDbSpline
70
4
71
3
72
10
73
6
40
0
40
0
40
0
40
0
40
0.634300400238689
40
0.951450600358033
40
1
40
1
40
1
40
1
41
1
10
110.851799116511
20
19.9400809757064
30
0
41
1
10
110.852507868827
20
19.9269854283605
30
0
41
1
10
110.853570453016
20
19.9073405655743
30
0
41
1
10
110.854689115048
20
19.8866985845621
30
0
41
1
10
110.855096485188
20
19.879144906631
30
0
41
1
10
110.855150522538
20
19.8781419776709
30
0
0
SPLINE
5
235
100
AcDbEntity
8
1
62
256
6
ByLayer
370
-1
48
1
60
0
100
AcDbSpline
70
4
71
3
72
15
73
11
40
0
40
0
40
0
40
0
40
0.0144496252550301
40
0.0300932819970138
40
0.0613805954809811
40
0.123955222448916
40
0.249104476384785
40
0.499402984256523
40
0.749701492128262
40
1
40
1
40
1
40
1
41
1
10
111.438663585616
20
20.0403759181952
30
0
41
1
10
111.438692498829
20
20.0395447893963
30
0
41
1
10
111.438705535195
20
20.0391700507209
30
0
41
1
10
111.438766336806
20
20.0374222695662
30
0
41
1
10
111.438865495279
20
20.0345718958841
30
0
41
1
10
111.439069797247
20
20.0286991052397
30
0
41
1
10
111.439474411169
20
20.0170682194712
30
0
41
1
10
111.440054388064
20
20.0003964129515
30
0
41
1
10
111.440749588935
20
19.9804124195952
30
0
41
1
10
111.441213144849
20
19.9670872085682
30
0
41
1
10
111.441444922806
20
19.9604246030548
30
0
0
SPLINE
5
236
100
AcDbEntity
8
1
62
256
6
ByLayer
370
-1
48
1
60
0
100
AcDbSpline
70
4
71
2
72
9
73
6
40
0
40
0
40
0
40
0.25
40
0.5
40
0.75
40
1
40
1
40
1
41
1
10
101.166062349514
20
18.380249835188
30
0
41
1
10
101.136385571057
20
18.3790873480697
30
0
41
1
10
101.082770983395
20
18.3548261867095
30
0
41
1
10
101.042051070229
20
18.3113510331243
30
0
41
1
10
101.021004686289
20
18.2555428660528
30
0
41
1
10
101.021939177071
20
18.2251062866297
30
0
0
SPLINE
5
237
100
AcDbEntity
8
1
62
256
6
ByLayer
370
-1
48
1
60
0
100
AcDbSpline
70
4
71
3
72
9
73
5
40
0
40
0
40
0
40
0
40
0.40625000000053
40
1
40
1
40
1
40
1
41
1
10
110.849636054725
20
20.0197280031623
30
0
41
1
10
110.849928969342
20
20.0089424681942
30
0
41
1
10
110.850649989937
20
19.9823934590423
30
0
41
1
10
110.851371010533
20
19.9558444498903
30
0
41
1
10
110.851799116511
20
19.9400809757064
30
0
0
SPLINE
5
238
100
AcDbEntity
8
1
62
256
6
ByLayer
370
-1
48
1
60
0
100
AcDbSpline
70
4
71
3
72
8
73
4
40
0
40
0
40
0
40
0
40
1
40
1
40
1
40
1
41
1
10
101.52959773146
20
8.17891918120168
30
0
41
1
10
101.541923721298
20
8.05032546254418
30
0
41
1
10
101.552071547875
20
7.89779381257785
30
0
41
1
10
101.558705102336
20
7.74140723986812
30
0
0
SPLINE
5
239
100
AcDbEntity
8
1
62
256
6
ByLayer
370
-1
48
1
60
0
100
AcDbSpline
70
4
71
3
72
15
73
11
40
0
40
0
40
0
40
0
40
0.0229190021791465
40
0.110481321488097
40
0.285605960105999
40
0.635855237341803
40
0.810979875959704
40
0.898542195268655
40
0.986104514577606
40
1
40
1
40
1
40
1
41
1
10
111.265685889454
20
8.0816766001135
30
0
41
1
10
111.265760442299
20
8.07992819112653
30
0
41
1
10
111.266119003038
20
8.07149903866673
30
0
41
1
10
111.267042278398
20
8.0497056055417
30
0
41
1
10
111.269026851238
20
8.00293765589129
30
0
41
1
10
111.271293716111
20
7.94948752170939
30
0
41
1
10
111.273277581037
20
7.90271895758971
30
0
41
1
10
111.274412049571
20
7.87599497586277
30
0
41
1
10
111.275023457867
20
7.86157185166681
30
0
41
1
10
111.275351020776
20
7.85382947456998
30
0
41
1
10
111.275395838589
20
7.85276904835965
30
0
0
SPLINE
5
23A
100
AcDbEntity
8
1
62
256
6
ByLayer
370
-1
48
1
60
0
100
AcDbSpline
70
4
71
3
72
8
73
4
40
0
40
0
40
0
40
0
40
1
40
1
40
1
40
1
41
1
10
111.969054317052
20
7.40167907057401
30
0
41
1
10
111.985311539894
20
7.40240234574404
30
0
41
1
10
112.001565896925
20
7.40320675144537
30
0
41
1
10
112.01781616724
20
7.40409220261671
30
0
0
SPLINE
5
23B
100
AcDbEntity
8
1
62
256
6
ByLayer
370
-1
48
1
60
0
100
AcDbSpline
70
4
71
3
72
15
73
11
40
0
40
0
40
0
40
0
40
0.250148781622241
40
0.500297563244482
40
0.750446344866723
40
0.875520735677844
40
0.938057931083404
40
0.969326528786184
40
0.984960827637574
40
1
40
1
40
1
40
1
41
1
10
112.040741670506
20
19.7992235155108
30
0
41
1
10
112.047576553375
20
19.8065230976298
30
0
41
1
10
112.061246319113
20
19.8211222618678
30
0
41
1
10
112.081746911184
20
19.8430166758884
30
0
41
1
10
112.098850344496
20
19.8612829605316
30
0
41
1
10
112.110780965502
20
19.8740247367165
30
0
41
1
10
112.116807124034
20
19.8804606098557
30
0
41
1
10
112.119728931257
20
19.8835810688551
30
0
41
1
10
112.12154343585
20
19.8855189404383
30
0
41
1
10
112.122064274951
20
19.8860751910513
30
0
41
1
10
112.122760266369
20
19.8868185024743
30
0
0
SPLINE
5
23C
100
AcDbEntity
8
1
62
256
6
ByLayer
370
-1
48
1
60
0
100
AcDbSpline
70
4
71
3
72
15
73
11
40
0
40
0
40
0
40
0
40
0.0218721291688742
40
0.0870806538909493
40
0.217497703335099
40
0.4783318022234
40
0.543540326945475
40
0.60874885166755
40
0.7391659011117
40
1
40
1
40
1
40
1
41
1
10
112.62355069461
20
8.28308564961836
30
0
41
1
10
112.623410544869
20
8.28739694131306
30
0
41
1
10
112.622824316848
20
8.30456087544508
30
0
41
1
10
112.621397631672
20
8.34743392802517
30
0
41
1
10
112.618309929959
20
8.43741299229129
30
0
41
1
10
112.615129778964
20
8.5273840628912
30
0
41
1
10
112.612325527155
20
8.60447478572064
30
0
41
1
10
112.610467666505
20
8.65587583341753
30
0
41
1
10
112.607232281289
20
8.74583748182374
30
0
41
1
10
112.604486439673
20
8.82295960043268
30
0
41
1
10
112.602673759121
20
8.87437367528045
30
0
0
SPLINE
5
23D
100
AcDbEntity
8
1
62
256
6
ByLayer
370
-1
48
1
60
0
100
AcDbSpline
70
4
71
3
72
15
73
11
40
0
40
0
40
0
40
0
40
0.250148781622259
40
0.500297563244518
40
0.750446344866777
40
0.875520735677907
40
0.938057931083471
40
0.969326528786254
40
0.984960827637645
40
1
40
1
40
1
40
1
41
1
10
100.390056081615
20
7.25766843617262
30
0
41
1
10
100.383328828742
20
7.25036885405362
30
0
41
1
10
100.369874322997
20
7.23576968981564
30
0
41
1
10
100.349696557034
20
7.21387527579509
30
0
41
1
10
100.332862454226
20
7.1956089911518
30
0
41
1
10
100.321119706621
20
7.18286721496693
30
0
41
1
10
100.315188442974
20
7.17643134182774
30
0
41
1
10
100.312312645918
20
7.17331088282828
30
0
41
1
10
100.310526714619
20
7.17137301124512
30
0
41
1
10
100.310014077255
20
7.17081676063216
30
0
41
1
10
100.309329045725
20
7.17007344920916
30
0
0
SPLINE
5
23E
100
AcDbEntity
8
1
62
256
6
ByLayer
370
-1
48
1
60
0
100
AcDbSpline
70
4
71
3
72
12
73
8
40
0
40
0
40
0
40
0
40
0.0112779549373163
40
0.0936714586925399
40
0.176064962447764
40
0.340851969958211
40
1
40
1
40
1
40
1
41
1
10
111.395914594883
20
8.83278661986449
30
0
41
1
10
111.395814464056
20
8.8327833072639
30
0
41
1
10
111.394981978213
20
8.83275576051381
30
0
41
1
10
111.393402776313
20
8.83270340303486
30
0
41
1
10
111.390374934254
20
8.83260246305767
30
0
41
1
10
111.381747664551
20
8.83231237843484
30
0
41
1
10
111.373253471316
20
8.83201986918476
30
0
41
1
10
111.366572263626
20
8.8317856650537
30
0
0
SPLINE
5
23F
100
AcDbEntity
8
1
62
256
6
ByLayer
370
-1
48
1
60
0
100
AcDbSpline
70
4
71
3
72
15
73
11
40
0
40
0
40
0
40
0
40
0.0144496252550244
40
0.0300932819970082
40
0.0613805954809756
40
0.123955222448911
40
0.249104476384781
40
0.49940298425652
40
0.74970149212826
40
1
40
1
40
1
40
1
41
1
10
112.703194738953
20
8.2858774903996
30
0
41
1
10
112.70236677285
20
8.28584846674241
30
0
41
1
10
112.701993460169
20
8.2858353805795
30
0
41
1
10
112.700252329849
20
8.28577434671666
30
0
41
1
10
112.697412802699
20
8.28567480947436
30
0
41
1
10
112.691562359796
20
8.285469727106
30
0
41
1
10
112.67997573306
20
8.28506356762509
30
0
41
1
10
112.663367367797
20
8.28448137531259
30
0
41
1
10
112.643459419569
20
8.28378351888708
30
0
41
1
10
112.630184914993
20
8.28331819226437
30
0
41
1
10
112.623547662705
20
8.28308552895302
30
0
0
SPLINE
5
240
100
AcDbEntity
8
1
62
256
6
ByLayer
370
-1
48
1
60
0
100
AcDbSpline
70
4
71
2
72
9
73
6
40
0
40
0
40
0
40
0.25
40
0.5
40
0.75
40
1
40
1
40
1
41
1
10
111.027597001211
20
18.5758462284899
30
0
41
1
10
111.026438937707
20
18.6056363674191
30
0
41
1
10
111.00227009739
20
18.6594557540955
30
0
41
1
10
110.95896037989
20
18.7003312107154
30
0
41
1
10
110.903364579743
20
18.7214579884229
30
0
41
1
10
110.873043820694
20
18.7205199280374
30
0
0
SPLINE
5
241
100
AcDbEntity
8
1
62
256
6
ByLayer
370
-1
48
1
60
0
100
AcDbSpline
70
4
71
3
72
10
73
6
40
0
40
0
40
0
40
0
40
0.634300400238616
40
0.951450600357923
40
1
40
1
40
1
40
1
41
1
10
101.579074815801
20
7.11681097597707
30
0
41
1
10
101.578872435316
20
7.12990652332294
30
0
41
1
10
101.578568213034
20
7.14955138610915
30
0
41
1
10
101.578250693325
20
7.1701933671213
30
0
41
1
10
101.578132510501
20
7.1777470450524
30
0
41
1
10
101.578116768295
20
7.17874997401248
30
0
0
SPLINE
5
242
100
AcDbEntity
8
1
62
256
6
ByLayer
370
-1
48
1
60
0
100
AcDbSpline
70
4
71
3
72
10
73
6
40
0
40
0
40
0
40
0
40
0.5
40
0.5
40
1
40
1
40
1
40
1
41
1
10
112.286566999968
20
19.6233418667827
30
0
41
1
10
112.271202904557
20
19.6737521680367
30
0
41
1
10
112.249683556807
20
19.7210647384113
30
0
41
1
10
112.194703062346
20
19.8096795459103
30
0
41
1
10
112.161140648331
20
19.8507816909518
30
0
41
1
10
112.122760265006
20
19.8868185010185
30
0
0
SPLINE
5
243
100
AcDbEntity
8
1
62
256
6
ByLayer
370
-1
48
1
60
0
100
AcDbSpline
70
4
71
3
72
9
73
5
40
0
40
0
40
0
40
0
40
0.593750000001936
40
1
40
1
40
1
40
1
41
1
10
112.243129202015
20
19.2097117607944
30
0
41
1
10
112.258952963376
20
19.2102622334427
30
0
41
1
10
112.285603508826
20
19.2111893452715
30
0
41
1
10
112.312254054276
20
19.2121164571004
30
0
41
1
10
112.323080838365
20
19.2124930962808
30
0
0
SPLINE
5
244
100
AcDbEntity
8
1
62
256
6
ByLayer
370
-1
48
1
60
0
100
AcDbSpline
70
4
71
3
72
12
73
8
40
0
40
0
40
0
40
0
40
0.341077853836663
40
0.341077853836663
40
0.670538966398342
40
0.670538966398342
40
1
40
1
40
1
40
1
41
1
10
111.43866358732
20
20.0403758692168
30
0
41
1
10
111.371749389253
20
20.0379189078406
30
0
41
1
10
111.304857887672
20
20.035416945883
30
0
41
1
10
111.173233661008
20
20.0307338120164
30
0
41
1
10
111.108496509398
20
20.0285677119248
30
0
41
1
10
110.979043773472
20
20.0241972719778
30
0
41
1
10
110.914324043896
20
20.0219955863596
30
0
41
1
10
110.849636054725
20
20.0197280031622
30
0
0
SPLINE
5
245
100
AcDbEntity
8
1
62
256
6
ByLayer
370
-1
48
1
60
0
100
AcDbSpline
70
4
71
3
72
12
73
8
40
0
40
0
40
0
40
0
40
0.521734132299752
40
0.782601198449628
40
0.913034731524565
40
0.978251498062034
40
1
40
1
40
1
40
1
41
1
10
111.286056306555
20
7.45708102015112
30
0
41
1
10
111.388494892479
20
7.460671919162
30
0
41
1
10
111.542152407025
20
7.46605662995864
30
0
41
1
10
111.721420545028
20
7.4723454907934
30
0
41
1
10
111.811053872306
20
7.47547922257704
30
0
41
1
10
111.853738547881
20
7.47698869386923
30
0
41
1
10
111.870813803199
20
7.47757227329308
30
0
41
1
10
111.875083743147
20
7.47772459821417
30
0
0
SPLINE
5
246
100
AcDbEntity
8
1
62
256
6
ByLayer
370
-1
48
1
60
0
100
AcDbSpline
70
4
71
3
72
8
73
4
40
0
40
0
40
0
40
0
40
1
40
1
40
1
40
1
41
1
10
112.177015530794
20
7.41412494627522
30
0
41
1
10
112.214762690701
20
7.4168445219014
30
0
41
1
10
112.25171815855
20
7.42375941785974
30
0
41
1
10
112.287881718744
20
7.43486982568336
30
0
0
SPLINE
5
247
100
AcDbEntity
8
1
62
256
6
ByLayer
370
-1
48
1
60
0
100
AcDbSpline
70
4
71
3
72
8
73
4
40
0
40
0
40
0
40
0
40
1
40
1
40
1
40
1
41
1
10
111.577979066781
20
20.0443886084248
30
0
41
1
10
111.561721460383
20
20.0441012719496
30
0
41
1
10
111.545465189016
20
20.0437336546771
30
0
41
1
10
111.52921138366
20
20.0432858732974
30
0
0
SPLINE
5
248
100
AcDbEntity
8
1
62
256
6
ByLayer
370
-1
48
1
60
0
100
AcDbSpline
70
4
71
3
72
8
73
4
40
0
40
0
40
0
40
0
40
1
40
1
40
1
40
1
41
1
10
111.737371923199
20
20.0457911100629
30
0
41
1
10
111.68420106181
20
20.0458352626081
30
0
41
1
10
111.631082687277
20
20.0453271603102
30
0
41
1
10
111.577979066781
20
20.0443886084249
30
0
0
SPLINE
5
249
100
AcDbEntity
8
1
62
256
6
ByLayer
370
-1
48
1
60
0
100
AcDbSpline
70
4
71
3
72
8
73
4
40
0
40
0
40
0
40
0
40
1
40
1
40
1
40
1
41
1
10
100.463041530786
20
19.6552128811094
30
0
41
1
10
100.446788551821
20
19.6544896059394
30
0
41
1
10
100.430539485518
20
19.6536852002381
30
0
41
1
10
100.414295530124
20
19.6527997490667
30
0
0
SPLINE
5
24A
100
AcDbEntity
8
1
62
256
6
ByLayer
370
-1
48
1
60
0
100
AcDbSpline
70
4
71
3
72
15
73
11
40
0
40
0
40
0
40
0
40
0.0138956313306161
40
0.101457951273488
40
0.189020271216361
40
0.364144911102105
40
0.714394190873594
40
0.889518830759338
40
0.977081150702211
40
1
40
1
40
1
40
1
41
1
10
110.868668817291
20
19.5443931328607
30
0
41
1
10
110.868697821279
20
19.5433326534126
30
0
41
1
10
110.868909249955
20
19.5355899513935
30
0
41
1
10
110.869301126563
20
19.5211670354146
30
0
41
1
10
110.87002599765
20
19.494443057334
30
0
41
1
10
110.871296099023
20
19.4476744882321
30
0
41
1
10
110.872748035517
20
19.3942243877206
30
0
41
1
10
110.874017451386
20
19.3474563726189
30
0
41
1
10
110.874610365272
20
19.3256630500348
30
0
41
1
10
110.874838299836
20
19.3172338814234
30
0
41
1
10
110.87488540148
20
19.315485476952
30
0
0
SPLINE
5
24B
100
AcDbEntity
8
1
62
256
6
ByLayer
370
-1
48
1
60
0
100
AcDbSpline
70
4
71
3
72
14
73
10
40
0
40
0
40
0
40
0
40
0.0138067085559968
40
0.0298030682371563
40
0.0617957875994753
40
0.317737542498027
40
0.829621052295132
40
0.957591929744408
40
1
40
1
40
1
40
1
41
1
10
101.165853099829
20
18.4089129064507
30
0
41
1
10
101.165867995841
20
18.4095098584774
30
0
41
1
10
101.165901681525
20
18.4107889339365
30
0
41
1
10
101.165971486123
20
18.4134412557542
30
0
41
1
10
101.166317223286
20
18.4264711512386
30
0
41
1
10
101.167215520148
20
18.4608323133017
30
0
41
1
10
101.168228032012
20
18.4992768907257
30
0
41
1
10
101.16899754576
20
18.5285672658989
30
0
41
1
10
101.169189212618
20
18.5358852215354
30
0
41
1
10
101.169236620815
20
18.5377085392644
30
0
0
SPLINE
5
24C
100
AcDbEntity
8
1
62
256
6
ByLayer
370
-1
48
1
60
0
100
AcDbSpline
70
4
71
3
72
15
73
11
40
0
40
0
40
0
40
0
40
0.0138956313306219
40
0.101457951273495
40
0.189020271216368
40
0.364144911102114
40
0.714394190873606
40
0.889518830759352
40
0.977081150702225
40
1
40
1
40
1
40
1
41
1
10
101.568414229902
20
7.51249881882276
30
0
41
1
10
101.568369450216
20
7.51355929827085
30
0
41
1
10
101.568042174431
20
7.52130200028992
30
0
41
1
10
101.567430565541
20
7.53572491626883
30
0
41
1
10
101.566296095254
20
7.56244889434947
30
0
41
1
10
101.564312237379
20
7.60921746345133
30
0
41
1
10
101.562045341929
20
7.66266756396283
30
0
41
1
10
101.560060837097
20
7.70943557906458
30
0
41
1
10
101.559137463764
20
7.73122890164865
30
0
41
1
10
101.558778932426
20
7.73965807026005
30
0
41
1
10
101.55870438748
20
7.74140647473143
30
0
0
SPLINE
5
24D
100
AcDbEntity
8
1
62
256
6
ByLayer
370
-1
48
1
60
0
100
AcDbSpline
70
4
71
3
72
9
73
5
40
0
40
0
40
0
40
0
40
0.593749999999918
40
1
40
1
40
1
40
1
41
1
10
100.187744730297
20
7.84718019088908
30
0
41
1
10
100.172161512847
20
7.84662971824071
30
0
41
1
10
100.145916093984
20
7.84570260641186
30
0
41
1
10
100.11967067512
20
7.84477549458305
30
0
41
1
10
100.109008473707
20
7.84439885540257
30
0
0
SPLINE
5
24E
100
AcDbEntity
8
1
62
256
6
ByLayer
370
-1
48
1
60
0
100
AcDbSpline
70
4
71
3
72
10
73
6
40
0
40
0
40
0
40
0
40
0.5
40
0.5
40
1
40
1
40
1
40
1
41
1
10
112.122760264931
20
19.8868185009388
30
0
41
1
10
112.084332495444
20
19.9227930211797
30
0
41
1
10
112.042109910846
20
19.952996901312
30
0
41
1
10
111.950298572108
20
20.0021867802283
30
0
41
1
10
111.900732722271
20
20.0209415439016
30
0
41
1
10
111.849522350548
20
20.0328588006256
30
0
0
SPLINE
5
24F
100
AcDbEntity
8
1
62
256
6
ByLayer
370
-1
48
1
60
0
100
AcDbSpline
70
4
71
3
72
15
73
11
40
0
40
0
40
0
40
0
40
0.014449625254952
40
0.0300932819969369
40
0.0613805954809067
40
0.123955222448846
40
0.249104476384725
40
0.499402984256484
40
0.749701492128242
40
1
40
1
40
1
40
1
41
1
10
99.7288945731182
20
18.7710144612838
30
0
41
1
10
99.729722539221
20
18.771043484941
30
0
41
1
10
99.7300958519027
20
18.7710565711039
30
0
41
1
10
99.7318369822225
20
18.7711176049668
30
0
41
1
10
99.7346765093722
20
18.7712171422091
30
0
41
1
10
99.740526952275
20
18.7714222245774
30
0
41
1
10
99.7521135790117
20
18.7718283840583
30
0
41
1
10
99.7687219442743
20
18.7724105763708
30
0
41
1
10
99.7886298925026
20
18.7731084327964
30
0
41
1
10
99.8019043970785
20
18.7735737594191
30
0
41
1
10
99.8085416493665
20
18.7738064227304
30
0
0
SPLINE
5
250
100
AcDbEntity
8
1
62
256
6
ByLayer
370
-1
48
1
60
0
100
AcDbSpline
70
4
71
3
72
8
73
4
40
0
40
0
40
0
40
0
40
1
40
1
40
1
40
1
41
1
10
100.55362705095
20
19.6588100442587
30
0
41
1
10
100.523423679011
20
19.6577553007832
30
0
41
1
10
100.493227793653
20
19.6565562025066
30
0
41
1
10
100.463041530786
20
19.6552128811096
30
0
0
SPLINE
5
251
100
AcDbEntity
8
1
62
256
6
ByLayer
370
-1
48
1
60
0
100
AcDbSpline
70
4
71
3
72
10
73
6
40
0
40
0
40
0
40
0
40
0.5
40
0.5
40
1
40
1
40
1
40
1
41
1
10
100.144475774793
20
19.6220221259918
30
0
41
1
10
100.094265436375
20
19.6065911747331
30
0
41
1
10
100.047125348289
20
19.5849972117596
30
0
41
1
10
99.9588030986274
20
19.5298515195498
30
0
41
1
10
99.9178192956759
20
19.4961991119446
30
0
41
1
10
99.8818676579635
20
19.4577242788523
30
0
0
SPLINE
5
252
100
AcDbEntity
8
1
62
256
6
ByLayer
370
-1
48
1
60
0
100
AcDbSpline
70
4
71
3
72
9
73
5
40
0
40
0
40
0
40
0
40
0.406249999999998
40
1
40
1
40
1
40
1
41
1
10
99.7494639166007
20
18.1797369409165
30
0
41
1
10
99.7601261180141
20
18.180113580097
30
0
41
1
10
99.7863715368777
20
18.1810406919258
30
0
41
1
10
99.8126169557412
20
18.1819678037546
30
0
41
1
10
99.8282001731915
20
18.182518276403
30
0
0
SPLINE
5
253
100
AcDbEntity
8
1
62
256
6
ByLayer
370
-1
48
1
60
0
100
AcDbSpline
70
4
71
3
72
8
73
4
40
0
40
0
40
0
40
0
40
1
40
1
40
1
40
1
41
1
10
101.568414838682
20
7.51249943517354
30
0
41
1
10
101.573144317325
20
7.4010016009268
30
0
41
1
10
101.576428947184
20
7.28801867749112
30
0
41
1
10
101.578117632384
20
7.17874797911648
30
0
0
SPLINE
5
254
100
AcDbEntity
8
1
62
256
6
ByLayer
370
-1
48
1
60
0
100
AcDbSpline
70
4
71
3
72
8
73
4
40
0
40
0
40
0
40
0
40
1
40
1
40
1
40
1
41
1
10
111.52921138366
20
20.0432858732942
30
0
41
1
10
111.499024494006
20
20.0424542448354
30
0
41
1
10
111.468841415608
20
20.0414839414034
30
0
41
1
10
111.438663587319
20
20.0403758692333
30
0
0
SPLINE
5
255
100
AcDbEntity
8
1
62
256
6
ByLayer
370
-1
48
1
60
0
100
AcDbSpline
70
4
71
3
72
8
73
4
40
0
40
0
40
0
40
0
40
1
40
1
40
1
40
1
41
1
10
100.109008473707
20
7.84439885540257
30
0
41
1
10
100.110057434282
20
7.81408188752994
30
0
41
1
10
100.111253065769
20
7.78376955846679
30
0
41
1
10
100.112595216447
20
7.75346403290084
30
0
0
SPLINE
5
256
100
AcDbEntity
8
1
62
256
6
ByLayer
370
-1
48
1
60
0
100
AcDbSpline
70
4
71
3
72
15
73
11
40
0
40
0
40
0
40
0
40
0.0204519912454031
40
0.0504132324411716
40
0.110335714832709
40
0.230180679615783
40
0.469870609181932
40
0.70956053874808
40
0.949250468314229
40
1
40
1
40
1
40
1
41
1
10
100.564462402619
20
8.45227544169003
30
0
41
1
10
100.562207423616
20
8.45219579759282
30
0
41
1
10
100.556647980556
20
8.45199946112419
30
0
41
1
10
100.544466306326
20
8.45156951669705
30
0
41
1
10
100.521253603957
20
8.45075134669275
30
0
41
1
10
100.474651537814
20
8.4491126649005
30
0
41
1
10
100.407693573843
20
8.44676959563148
30
0
41
1
10
100.327159499365
20
8.4439693535098
30
0
41
1
10
100.267962351267
20
8.44192409591537
30
0
41
1
10
100.235708939962
20
8.44081443484691
30
0
41
1
10
100.230075390704
20
8.44062066894278
30
0
0
SPLINE
5
257
100
AcDbEntity
8
1
62
256
6
ByLayer
370
-1
48
1
60
0
100
AcDbSpline
70
4
71
3
72
8
73
4
40
0
40
0
40
0
40
0
40
1
40
1
40
1
40
1
41
1
10
100.873738150242
20
18.2196079122129
30
0
41
1
10
100.753486255796
20
18.2151173206056
30
0
41
1
10
100.606376607823
20
18.2097907980169
30
0
41
1
10
100.451778329525
20
18.2043296585597
30
0
0
SPLINE
5
258
100
AcDbEntity
8
1
62
256
6
ByLayer
370
-1
48
1
60
0
100
AcDbSpline
70
4
71
3
72
8
73
4
40
0
40
0
40
0
40
0
40
1
40
1
40
1
40
1
41
1
10
111.878462261121
20
7.39808190742477
30
0
41
1
10
111.908662094496
20
7.39913665090018
30
0
41
1
10
111.938860172136
20
7.40033574917683
30
0
41
1
10
111.969054317052
20
7.40167907057383
30
0
0
SPLINE
5
259
100
AcDbEntity
8
1
62
256
6
ByLayer
370
-1
48
1
60
0
100
AcDbSpline
70
4
71
3
72
10
73
6
40
0
40
0
40
0
40
0
40
0.63430040023841
40
0.951450600357615
40
1
40
1
40
1
40
1
41
1
10
112.602673759121
20
8.87437367528045
30
0
41
1
10
112.589881230201
20
8.87391636869023
30
0
41
1
10
112.570690303002
20
8.87323035496516
30
0
41
1
10
112.550527442122
20
8.8725095211044
30
0
41
1
10
112.543147101874
20
8.87224574085855
30
0
41
1
10
112.542167136933
20
8.87221071780752
30
0
0
SPLINE
5
25A
100
AcDbEntity
8
1
62
256
6
ByLayer
370
-1
48
1
60
0
100
AcDbSpline
70
4
71
3
72
14
73
10
40
0
40
0
40
0
40
0
40
0.0424082128911415
40
0.170379060242202
40
0.682262449646441
40
0.938204144348561
40
0.970196856186326
40
0.986193212105209
40
1
40
1
40
1
40
1
41
1
10
110.876218088476
20
18.8779786541651
30
0
41
1
10
110.876170679198
20
18.8761553357509
30
0
41
1
10
110.8759790065
20
18.8688374097162
30
0
41
1
10
110.875209421367
20
18.8395474755253
30
0
41
1
10
110.874197951329
20
18.8010964555193
30
0
41
1
10
110.873297612473
20
18.7667479321731
30
0
41
1
10
110.872953362356
20
18.7537088386104
30
0
41
1
10
110.87288250321
20
18.7510630364353
30
0
41
1
10
110.872849184944
20
18.7497816864404
30
0
41
1
10
110.872834484222
20
18.7491835235246
30
0
0
SPLINE
5
25B
100
AcDbEntity
8
1
62
256
6
ByLayer
370
-1
48
1
60
0
100
AcDbSpline
70
4
71
3
72
12
73
8
40
0
40
0
40
0
40
0
40
0.659147749652483
40
0.823934687065604
40
0.906328155772165
40
0.988721624478725
40
1
40
1
40
1
40
1
41
1
10
111.222449091184
20
8.67664211649546
30
0
41
1
10
111.222682404199
20
8.6699353874246
30
0
41
1
10
111.223123207807
20
8.66155583253294
30
0
41
1
10
111.223764643143
20
8.65325445892424
30
0
41
1
10
111.22401287974
20
8.65035722516271
30
0
41
1
10
111.224150903607
20
8.64886093446182
30
0
41
1
10
111.224225147452
20
8.64807371780961
30
0
41
1
10
111.224234096777
20
8.64797904523275
30
0
0
SPLINE
5
25C
100
AcDbEntity
8
1
62
256
6
ByLayer
370
-1
48
1
60
0
100
AcDbSpline
70
4
71
3
72
8
73
4
40
0
40
0
40
0
40
0
40
1
40
1
40
1
40
1
41
1
10
112.695600165114
20
7.87334284542342
30
0
41
1
10
112.704136057991
20
7.91036108167816
30
0
41
1
10
112.708416140523
20
7.94787005742239
30
0
41
1
10
112.708433368122
20
7.98587158350855
30
0
0
SPLINE
5
25D
100
AcDbEntity
8
1
62
256
6
ByLayer
370
-1
48
1
60
0
100
AcDbSpline
70
4
71
3
72
25
73
21
40
0
40
0
40
0
40
0
40
0.0099904601134921
40
0.0399882789191727
40
0.159979554141895
40
0.279970829364618
40
0.309968648170299
40
0.339966466975979
40
0.36996428578166
40
0.39996210458734
40
0.519953379810063
40
0.639944655032786
40
0.759935930255508
40
0.879927205478231
40
0.939922843089592
40
0.969920661895273
40
0.984919571298113
40
0.992419025999533
40
0.999918480700953
40
1
40
1
40
1
40
1
41
1
10
100.55578973098
20
19.5791673534693
30
0
41
1
10
100.553657459453
20
19.5790912916526
30
0
41
1
10
100.545122914823
20
19.578780473891
30
0
41
1
10
100.51098415044
20
19.5773739712347
30
0
41
1
10
100.453421894572
20
19.573884105308
30
0
41
1
10
100.395993354787
20
19.5686202252446
30
0
41
1
10
100.357789448974
20
19.5643504302788
30
0
41
1
10
100.33870367276
20
19.5620719595162
30
0
41
1
10
100.319630513554
20
19.5596824387245
30
0
41
1
10
100.281639553436
20
19.5537661878724
30
0
41
1
10
100.225483442664
20
19.5400894765385
30
0
41
1
10
100.153571333121
20
19.5123542091702
30
0
41
1
10
100.085789011106
20
19.4755934875176
30
0
41
1
10
100.033794135291
20
19.4377868484706
30
0
41
1
10
100.000149352706
20
19.4079868376738
30
0
41
1
10
99.984073687487
20
19.3922910453865
30
0
41
1
10
99.9762295946406
20
19.3842490240012
30
0
41
1
10
99.9718049045678
20
19.3795985670448
30
0
41
1
10
99.9695984821882
20
19.377242539498
30
0
41
1
10
99.9684958383776
20
19.3760533619393
30
0
41
1
10
99.9684839822437
20
19.3760405739885
30
0
0
SPLINE
5
25E
100
AcDbEntity
8
1
62
256
6
ByLayer
370
-1
48
1
60
0
100
AcDbSpline
70
4
71
3
72
8
73
4
40
0
40
0
40
0
40
0
40
1
40
1
40
1
40
1
41
1
10
99.7233440314322
20
19.0710203681749
30
0
41
1
10
99.7232802498962
20
19.01766627536
30
0
41
1
10
99.7238227647458
20
18.9643085123948
30
0
41
1
10
99.724795694493
20
18.9109639503999
30
0
0
SPLINE
5
25F
100
AcDbEntity
8
1
62
256
6
ByLayer
370
-1
48
1
60
0
100
AcDbSpline
70
4
71
3
72
17
73
13
40
0
40
0
40
0
40
0
40
0.0285647612451651
40
0.114009773641712
40
0.284899798434806
40
0.4557898232279
40
0.626679848020994
40
0.797569872814088
40
0.883014885210635
40
0.925737391408908
40
0.968459897607182
40
1
40
1
40
1
40
1
41
1
10
101.212706839975
20
8.47554714408389
30
0
41
1
10
101.209265727211
20
8.47541867971907
30
0
41
1
10
101.195497614128
20
8.47490489573983
30
0
41
1
10
101.160154268877
20
8.47359185648776
30
0
41
1
10
101.104524735536
20
8.4715422002887
30
0
41
1
10
101.033984056498
20
8.46896974934759
30
0
41
1
10
100.960257031167
20
8.46630607308532
30
0
41
1
10
100.896641675294
20
8.464027723025
30
0
41
1
10
100.851239520735
20
8.46241177090877
30
0
41
1
10
100.825086681477
20
8.46148374569574
30
0
41
1
10
100.807095030348
20
8.46084662535881
30
0
41
1
10
100.795626071419
20
8.46044127811098
30
0
41
1
10
100.790752152576
20
8.46026906953992
30
0
0
SPLINE
5
260
100
AcDbEntity
8
1
62
256
6
ByLayer
370
-1
48
1
60
0
100
AcDbSpline
70
4
71
3
72
8
73
4
40
0
40
0
40
0
40
0
40
1
40
1
40
1
40
1
41
1
10
99.7362770246148
20
19.18354910626
30
0
41
1
10
99.7277066360555
20
19.1465308700053
30
0
41
1
10
99.7233894599192
20
19.109021894261
30
0
41
1
10
99.7233440314322
20
19.0710203681749
30
0
0
SPLINE
5
261
100
AcDbEntity
8
1
62
256
6
ByLayer
370
-1
48
1
60
0
100
AcDbSpline
70
4
71
3
72
10
73
6
40
0
40
0
40
0
40
0
40
0.5
40
0.5
40
1
40
1
40
1
40
1
41
1
10
112.287881718746
20
7.43486982569161
30
0
41
1
10
112.338108330005
20
7.45030077695031
30
0
41
1
10
112.385233305439
20
7.47189473992381
30
0
41
1
10
112.473466258584
20
7.52704043213359
30
0
41
1
10
112.514373933573
20
7.56069283973883
30
0
41
1
10
112.55022165411
20
7.59916767283116
30
0
0
SPLINE
5
262
100
AcDbEntity
8
1
62
256
6
ByLayer
370
-1
48
1
60
0
100
AcDbSpline
70
4
71
3
72
14
73
10
40
0
40
0
40
0
40
0
40
0.0424082128911207
40
0.170379060242182
40
0.682262449646426
40
0.938204144348549
40
0.970196856186314
40
0.986193212105197
40
1
40
1
40
1
40
1
41
1
10
101.529597200032
20
8.17891329751834
30
0
41
1
10
101.52942293197
20
8.18073661593255
30
0
41
1
10
101.528722108928
20
8.18805454196726
30
0
41
1
10
101.525914654045
20
8.2173444761581
30
0
41
1
10
101.522227924651
20
8.25579549616413
30
0
41
1
10
101.518937760805
20
8.29014401951034
30
0
41
1
10
101.517686305703
20
8.30318311307306
30
0
41
1
10
101.517431362831
20
8.30582891524816
30
0
41
1
10
101.517308893651
20
8.30711026524301
30
0
41
1
10
101.517252575283
20
8.30770842815886
30
0
0
SPLINE
5
263
100
AcDbEntity
8
1
62
256
6
ByLayer
370
-1
48
1
60
0
100
AcDbSpline
70
4
71
3
72
25
73
21
40
0
40
0
40
0
40
0
40
0.0099904601134612
40
0.0399882789191407
40
0.159979554141859
40
0.279970829364577
40
0.309968648170256
40
0.339966466975935
40
0.369964285781615
40
0.399962104587294
40
0.519953379810012
40
0.63994465503273
40
0.759935930255448
40
0.879927205478166
40
0.939922843089525
40
0.969920661895204
40
0.984919571298044
40
0.992419025999464
40
0.999918480700884
40
1
40
1
40
1
40
1
41
1
10
112.243133293086
20
19.2097119140415
30
0
41
1
10
112.243057459318
20
19.2118522688739
30
0
41
1
10
112.242747528703
20
19.2204191173406
30
0
41
1
10
112.241344250342
20
19.2546861502577
30
0
41
1
10
112.237864306047
20
19.3124649134018
30
0
41
1
10
112.232617041967
20
19.3701093931659
30
0
41
1
10
112.228361226811
20
19.40845695498
30
0
41
1
10
112.226090289641
20
19.4276144947401
30
0
41
1
10
112.223708711229
20
19.4467593554522
30
0
41
1
10
112.217812674819
20
19.4848931274068
30
0
41
1
10
112.204184558574
20
19.541260283298
30
0
41
1
10
112.176550298624
20
19.6134425344513
30
0
41
1
10
112.139924900601
20
19.6814791944841
30
0
41
1
10
112.10225839252
20
19.7336689333025
30
0
41
1
10
112.072568900906
20
19.7674393436393
30
0
41
1
10
112.056931750074
20
19.7835753253669
30
0
41
1
10
112.048919323415
20
19.7914483699319
30
0
41
1
10
112.04428664375
20
19.7958900428092
30
0
41
1
10
112.041938567308
20
19.7981038751989
30
0
41
1
10
112.040754690187
20
19.7992115091487
30
0
41
1
10
112.040741959381
20
19.7992234190867
30
0
0
SPLINE
5
264
100
AcDbEntity
8
1
62
256
6
ByLayer
370
-1
48
1
60
0
100
AcDbSpline
70
4
71
3
72
10
73
6
40
0
40
0
40
0
40
0
40
0.5
40
0.5
40
1
40
1
40
1
40
1
41
1
10
112.55022165403
20
7.59916767290551
30
0
41
1
10
112.586057783455
20
7.6377407276064
30
0
41
1
10
112.616132904186
20
7.6801107182923
30
0
41
1
10
112.665095258418
20
7.77223226498316
30
0
41
1
10
112.683752197452
20
7.8219608901515
30
0
41
1
10
112.695600165114
20
7.87334284542419
30
0
0
SPLINE
5
265
100
AcDbEntity
8
1
62
256
6
ByLayer
370
-1
48
1
60
0
100
AcDbSpline
70
4
71
3
72
15
73
11
40
0
40
0
40
0
40
0
40
0.0218721291688671
40
0.0870806538909426
40
0.217497703335094
40
0.478331802223396
40
0.543540326945471
40
0.608748851667547
40
0.739165901111698
40
1
40
1
40
1
40
1
41
1
10
99.808538392399
20
18.7738063020651
30
0
41
1
10
99.8086870122709
20
18.7694950103703
30
0
41
1
10
99.8093059203756
20
18.7523310762384
30
0
41
1
10
99.8107844330019
20
18.7094580236583
30
0
41
1
10
99.8138584049705
20
18.6194789593922
30
0
41
1
10
99.8167716053315
20
18.5295078887922
30
0
41
1
10
99.8191729168202
20
18.4524171659628
30
0
41
1
10
99.8208109449562
20
18.4010161182659
30
0
41
1
10
99.823745012115
20
18.3110544698597
30
0
41
1
10
99.826386540117
20
18.2339323512507
30
0
41
1
10
99.8282001731915
20
18.182518276403
30
0
0
SPLINE
5
266
100
AcDbEntity
8
1
62
256
6
ByLayer
370
-1
48
1
60
0
100
AcDbSpline
70
4
71
3
72
8
73
4
40
0
40
0
40
0
40
0
40
1
40
1
40
1
40
1
41
1
10
110.876219029265
20
18.8779727704818
30
0
41
1
10
110.879598012003
20
19.0065664891393
30
0
41
1
10
110.879133331456
20
19.1590981391056
30
0
41
1
10
110.874886169571
20
19.3154847118153
30
0
0
SPLINE
5
267
100
AcDbEntity
8
1
62
256
6
ByLayer
370
-1
48
1
60
0
100
AcDbSpline
70
4
71
3
72
10
73
6
40
0
40
0
40
0
40
0
40
0.0485494410334945
40
0.365699627355663
40
1
40
1
40
1
40
1
41
1
10
111.285098258031
20
7.51902002402255
30
0
41
1
10
111.285114000266
20
7.51801709413209
30
0
41
1
10
111.285232183221
20
7.51046341508547
30
0
41
1
10
111.28554970329
20
7.48982143073818
30
0
41
1
10
111.285853925866
20
7.47017656800406
30
0
41
1
10
111.286056306555
20
7.45708102015112
30
0
0
SPLINE
5
268
100
AcDbEntity
8
1
62
256
6
ByLayer
370
-1
48
1
60
0
100
AcDbSpline
70
4
71
3
72
8
73
4
40
0
40
0
40
0
40
0
40
1
40
1
40
1
40
1
41
1
10
100.694405476356
20
7.01110084162056
30
0
41
1
10
100.747536743735
20
7.01105668907533
30
0
41
1
10
100.800727810338
20
7.01156479137322
30
0
41
1
10
100.853907329504
20
7.01250334325857
30
0
0
SPLINE
5
269
100
AcDbEntity
8
1
62
256
6
ByLayer
370
-1
48
1
60
0
100
AcDbSpline
70
4
71
3
72
17
73
13
40
0
40
0
40
0
40
0
40
0.0285647612451794
40
0.114009773641727
40
0.284899798434823
40
0.455789823227918
40
0.626679848021014
40
0.797569872814109
40
0.883014885210657
40
0.925737391408931
40
0.968459897607205
40
1
40
1
40
1
40
1
41
1
10
101.169236620815
20
18.5377085392644
30
0
41
1
10
101.169332271911
20
18.5413872773528
30
0
41
1
10
101.169709191285
20
18.5561001255149
30
0
41
1
10
101.170515246536
20
18.5937006501062
30
0
41
1
10
101.17131498042
20
18.6523951241642
30
0
41
1
10
101.171596677178
20
18.7260604808701
30
0
41
1
10
101.171203560076
20
18.8023381889779
30
0
41
1
10
101.170313662476
20
18.8675815983716
30
0
41
1
10
101.16940042944
20
18.9138564124634
30
0
41
1
10
101.168797134911
20
18.9404315775163
30
0
41
1
10
101.168346100478
20
18.9586763168554
30
0
41
1
10
101.168036792704
20
18.9702839433117
30
0
41
1
10
101.167903963356
20
18.9752153515699
30
0
0
SPLINE
5
26A
100
AcDbEntity
8
1
62
256
6
ByLayer
370
-1
48
1
60
0
100
AcDbSpline
70
4
71
3
72
8
73
4
40
0
40
0
40
0
40
0
40
1
40
1
40
1
40
1
41
1
10
112.319500631391
20
19.3034279187826
30
0
41
1
10
112.31878223044
20
19.3197451115302
30
0
41
1
10
112.317983531109
20
19.3360589020956
30
0
41
1
10
112.317104606807
20
19.3523680762824
30
0
0
SPLINE
5
26B
100
AcDbEntity
8
1
62
256
6
ByLayer
370
-1
48
1
60
0
100
AcDbSpline
70
4
71
3
72
10
73
6
40
0
40
0
40
0
40
0
40
0.5
40
0.5
40
1
40
1
40
1
40
1
41
1
10
99.8818676580417
20
19.4577242787779
30
0
41
1
10
99.8460285348062
20
19.419151224077
30
0
41
1
10
99.8159257650386
20
19.3767812333911
30
0
41
1
10
99.7668827261181
20
19.2846596867003
30
0
41
1
10
99.7481728728814
20
19.2349310615319
30
0
41
1
10
99.7362770246147
20
19.1835491062593
30
0
0
SPLINE
5
26C
100
AcDbEntity
8
1
62
256
6
ByLayer
370
-1
48
1
60
0
100
AcDbSpline
70
4
71
3
72
8
73
4
40
0
40
0
40
0
40
0
40
1
40
1
40
1
40
1
41
1
10
100.115007090557
20
7.70452387540101
30
0
41
1
10
100.117898736584
20
7.65124973491322
30
0
41
1
10
100.121213823174
20
7.59799527203811
30
0
41
1
10
100.125067214971
20
7.54478220493851
30
0
0
SPLINE
5
26D
100
AcDbEntity
8
1
62
256
6
ByLayer
370
-1
48
1
60
0
100
AcDbSpline
70
4
71
3
72
15
73
11
40
0
40
0
40
0
40
0
40
0.250148781622237
40
0.500297563244475
40
0.750446344866712
40
0.87552073567783
40
0.93805793108339
40
0.969326528786169
40
0.984960827637559
40
1
40
1
40
1
40
1
41
1
10
99.9684835381297
20
19.3760406333963
30
0
41
1
10
99.9612655481224
20
19.3828476038448
30
0
41
1
10
99.9468295681077
20
19.3964615447417
30
0
41
1
10
99.9251798819969
20
19.416878416118
30
0
41
1
10
99.907117771334
20
19.4339120021156
30
0
41
1
10
99.8945184181547
20
19.4457939006322
30
0
41
1
10
99.8881544828979
20
19.451795449427
30
0
41
1
10
99.8850689032703
20
19.4547053245196
30
0
41
1
10
99.8831526925209
20
19.4565124190059
30
0
41
1
10
99.8826026594778
20
19.4570311310941
30
0
41
1
10
99.8818676565234
20
19.4577242802098
30
0
0
SPLINE
5
26E
100
AcDbEntity
8
1
62
256
6
ByLayer
370
-1
48
1
60
0
100
AcDbSpline
70
4
71
3
72
12
73
8
40
0
40
0
40
0
40
0
40
0.659147749652326
40
0.823934687065408
40
0.906328155771949
40
0.98872162447849
40
1
40
1
40
1
40
1
41
1
10
111.027597001211
20
18.5758462284899
30
0
41
1
10
111.034278209246
20
18.5760804326298
30
0
41
1
10
111.042775174013
20
18.5763730531346
30
0
41
1
10
111.051397606492
20
18.5766629434889
30
0
41
1
10
111.054431263364
20
18.5767641171213
30
0
41
1
10
111.056007831305
20
18.5768163687439
30
0
41
1
10
111.056838910603
20
18.5768438589552
30
0
41
1
10
111.056938878788
20
18.5768471649944
30
0
0
SPLINE
5
26F
100
AcDbEntity
8
1
62
256
6
ByLayer
370
-1
48
1
60
0
100
AcDbSpline
70
4
71
3
72
8
73
4
40
0
40
0
40
0
40
0
40
1
40
1
40
1
40
1
41
1
10
100.853907329504
20
7.01250334325866
30
0
41
1
10
100.870188172184
20
7.01279067973388
30
0
41
1
10
100.886467906875
20
7.01315829700633
30
0
41
1
10
100.902745320267
20
7.013606078386
30
0
0
SPLINE
5
270
100
AcDbEntity
8
1
62
256
6
ByLayer
370
-1
48
1
60
0
100
AcDbSpline
70
4
71
3
72
10
73
6
40
0
40
0
40
0
40
0
40
0.5
40
0.5
40
1
40
1
40
1
40
1
41
1
10
103.281429687393
20
10.6421582076139
30
0
41
1
10
103.273462611446
20
10.6877926729805
30
0
41
1
10
103.26239027161
20
10.7357450755048
30
0
41
1
10
103.234139154093
20
10.8361276543751
30
0
41
1
10
103.216755607958
20
10.8887055886961
30
0
41
1
10
103.197886193918
20
10.9396781328735
30
0
0
SPLINE
5
271
100
AcDbEntity
8
1
62
256
6
ByLayer
370
-1
48
1
60
0
100
AcDbSpline
70
4
71
3
72
15
73
11
40
0
40
0
40
0
40
0
40
0.0218721291689093
40
0.087080653890982
40
0.217497703335127
40
0.478331802223418
40
0.543540326945491
40
0.608748851667564
40
0.739165901111709
40
1
40
1
40
1
40
1
41
1
10
100.99064439694
20
7.096464192181
30
0
41
1
10
100.994943517934
20
7.09660912851399
30
0
41
1
10
101.012058478156
20
7.09721399828865
30
0
41
1
10
101.054794299553
20
7.09867214588164
30
0
41
1
10
101.144424101441
20
7.1017647510192
30
0
41
1
10
101.233919329638
20
7.10482306450331
30
0
41
1
10
101.310515228833
20
7.10743578835485
30
0
41
1
10
101.361610763768
20
7.10919040961136
30
0
41
1
10
101.451079421913
20
7.11228691895172
30
0
41
1
10
101.52785591077
20
7.11499089319935
30
0
41
1
10
101.579074815801
20
7.11681097597707
30
0
0
SPLINE
5
272
100
AcDbEntity
8
1
62
256
6
ByLayer
370
-1
48
1
60
0
100
AcDbSpline
70
4
71
3
72
9
73
5
40
0
40
0
40
0
40
0
40
0.406249999997853
40
1
40
1
40
1
40
1
41
1
10
112.68262539547
20
8.87715501076693
30
0
41
1
10
112.671798611381
20
8.87677837158648
30
0
41
1
10
112.645148065931
20
8.87585125975767
30
0
41
1
10
112.618497520482
20
8.87492414792882
30
0
41
1
10
112.602673759121
20
8.87437367528045
30
0
0
SPLINE
5
273
100
AcDbEntity
8
1
62
256
6
ByLayer
370
-1
48
1
60
0
100
AcDbSpline
70
4
71
3
72
8
73
4
40
0
40
0
40
0
40
0
40
1
40
1
40
1
40
1
41
1
10
111.532078610483
20
8.83728403947052
30
0
41
1
10
111.668035477505
20
8.84177463107784
30
0
41
1
10
111.824828271508
20
8.8471011536665
30
0
41
1
10
111.981812942382
20
8.8525622931237
30
0
0
SPLINE
5
274
100
AcDbEntity
8
1
62
256
6
ByLayer
370
-1
48
1
60
0
100
AcDbSpline
70
4
71
3
72
10
73
6
40
0
40
0
40
0
40
0
40
0.0485494410334731
40
0.365699627355649
40
1
40
1
40
1
40
1
41
1
10
101.148169066932
20
19.5378719276609
30
0
41
1
10
101.148115029546
20
19.5388748575513
30
0
41
1
10
101.147707659459
20
19.546428536598
30
0
41
1
10
101.146588997556
20
19.5670705209453
30
0
41
1
10
101.145526413663
20
19.5867153836794
30
0
41
1
10
101.144817661516
20
19.5998109315323
30
0
0
SPLINE
5
275
100
AcDbEntity
8
1
62
256
6
ByLayer
370
-1
48
1
60
0
100
AcDbSpline
70
4
71
3
72
8
73
4
40
0
40
0
40
0
40
0
40
1
40
1
40
1
40
1
41
1
10
112.707090701792
20
8.14592800128352
30
0
41
1
10
112.706816076859
20
8.16225937161687
30
0
41
1
10
112.706461590144
20
8.17858951577469
30
0
41
1
10
112.706027316726
20
8.19491725713439
30
0
0
SPLINE
5
276
100
AcDbEntity
8
1
62
256
6
ByLayer
370
-1
48
1
60
0
100
AcDbSpline
70
4
71
3
72
23
73
19
40
0
40
0
40
0
40
0
40
0.0074200078966484
40
0.0149215578680611
40
0.0299246578108864
40
0.0599308576965371
40
0.119943257467838
40
0.239968057010441
40
0.480017656095646
40
0.600042455638249
40
0.6300486555239
40
0.66005485540955
40
0.690061055295201
40
0.720067255180852
40
0.840092054723455
40
0.960116854266057
40
0.990123054151708
40
1
40
1
40
1
40
1
41
1
10
112.040741959381
20
19.7992234190867
30
0
41
1
10
112.039583506169
20
19.8003071765748
30
0
41
1
10
112.037247118072
20
19.8024764694419
30
0
41
1
10
112.032524669815
20
19.8067885787634
30
0
41
1
10
112.024146037179
20
19.8142521246985
30
0
41
1
10
112.007027515376
20
19.8287638104047
30
0
41
1
10
111.97141347153
20
19.8560921978863
30
0
41
1
10
111.895160463371
20
19.9036996466737
30
0
41
1
10
111.798515057952
20
19.9402058685024
30
0
41
1
10
111.716306031805
20
19.9541185256383
30
0
41
1
10
111.678038825521
20
19.9573338938194
30
0
41
1
10
111.658867896491
20
19.9583796718406
30
0
41
1
10
111.639692755629
20
19.9593309145247
30
0
41
1
10
111.601330248233
20
19.9609520019373
30
0
41
1
10
111.543742022316
20
19.9622281025047
30
0
41
1
10
111.48614227422
20
19.9617291332403
30
0
41
1
10
111.452051378115
20
19.9607792511761
30
0
41
1
10
111.443550010323
20
19.9604988763113
30
0
41
1
10
111.441444690069
20
19.9604277595024
30
0
0
SPLINE
5
277
100
AcDbEntity
8
1
62
256
6
ByLayer
370
-1
48
1
60
0
100
AcDbSpline
70
4
71
3
72
12
73
8
40
0
40
0
40
0
40
0
40
0.659147749652418
40
0.823934687065523
40
0.906328155772075
40
0.988721624478628
40
1
40
1
40
1
40
1
41
1
10
101.360914439487
20
8.48104572319355
30
0
41
1
10
101.354233231638
20
8.48081151905362
30
0
41
1
10
101.346034860095
20
8.48051889854881
30
0
41
1
10
101.338117723821
20
8.48022900819453
30
0
41
1
10
101.33537896287
20
8.48012783456218
30
0
41
1
10
101.333974337084
20
8.48007558293952
30
0
41
1
10
101.333236974272
20
8.48004809272825
30
0
41
1
10
101.333148317818
20
8.48004478668904
30
0
0
SPLINE
5
278
100
AcDbEntity
8
1
62
256
6
ByLayer
370
-1
48
1
60
0
100
AcDbSpline
70
4
71
3
72
12
73
8
40
0
40
0
40
0
40
0
40
0.521734132299739
40
0.782601198449609
40
0.913034731524543
40
0.978251498062011
40
1
40
1
40
1
40
1
41
1
10
100.167175404997
20
8.43845771126601
30
0
41
1
10
100.170752639559
20
8.33562782659192
30
0
41
1
10
100.176116456148
20
8.18138296000299
30
0
41
1
10
100.182382139813
20
8.00143080356008
30
0
41
1
10
100.18550322934
20
7.91145437133181
30
0
41
1
10
100.187007491721
20
7.86860718435761
30
0
41
1
10
100.187588558705
20
7.85146641147989
30
0
41
1
10
100.187740181041
20
7.84718003764192
30
0
0
SPLINE
5
279
100
AcDbEntity
8
1
62
256
6
ByLayer
370
-1
48
1
60
0
100
AcDbSpline
70
4
71
3
72
8
73
4
40
0
40
0
40
0
40
0
40
1
40
1
40
1
40
1
41
1
10
112.708433368123
20
7.98587158350855
30
0
41
1
10
112.70845755565
20
8.03922567632338
30
0
41
1
10
112.707987732869
20
8.09258343928863
30
0
41
1
10
112.707090701792
20
8.14592800128352
30
0
0
SPLINE
5
27A
100
AcDbEntity
8
1
62
256
6
ByLayer
370
-1
48
1
60
0
100
AcDbSpline
70
4
71
3
72
10
73
6
40
0
40
0
40
0
40
0
40
0.634300400238641
40
0.951450600357962
40
1
40
1
40
1
40
1
41
1
10
99.8282001731915
20
18.182518276403
30
0
41
1
10
99.8414990739412
20
18.1829755829932
30
0
41
1
10
99.861448363047
20
18.1836615967182
30
0
41
1
10
99.8824123662513
20
18.184382430579
30
0
41
1
10
99.8900818938154
20
18.1846462108249
30
0
41
1
10
99.8911001538999
20
18.1846812338759
30
0
0
SPLINE
5
27B
100
AcDbEntity
8
1
62
256
6
ByLayer
370
-1
48
1
60
0
100
AcDbSpline
70
4
71
3
72
23
73
19
40
0
40
0
40
0
40
0
40
0.0074200078966802
40
0.0149215578680928
40
0.0299246578109182
40
0.059930857696569
40
0.11994325746787
40
0.239968057010473
40
0.480017656095679
40
0.600042455638282
40
0.630048655523933
40
0.660054855409583
40
0.690061055295234
40
0.720067255180885
40
0.840092054723487
40
0.96011685426609
40
0.990123054151741
40
1
40
1
40
1
40
1
41
1
10
100.390056488854
20
7.25766853259674
30
0
41
1
10
100.391216485933
20
7.25658477510865
30
0
41
1
10
100.393560864162
20
7.25441548224151
30
0
41
1
10
100.398295750929
20
7.25010337292002
30
0
41
1
10
100.406697744313
20
7.24263982698497
30
0
41
1
10
100.42386176367
20
7.22812814127872
30
0
41
1
10
100.45956689163
20
7.20079975379718
30
0
41
1
10
100.53599989946
20
7.15319230500975
30
0
41
1
10
100.632849202978
20
7.11668608318104
30
0
41
1
10
100.715227358706
20
7.10277342604519
30
0
41
1
10
100.753573088698
20
7.09955805786402
30
0
41
1
10
100.772783088035
20
7.09851227984285
30
0
41
1
10
100.791996946542
20
7.09756103715876
30
0
41
1
10
100.830436760465
20
7.09593994974614
30
0
41
1
10
100.888141121765
20
7.09466384917872
30
0
41
1
10
100.945856980806
20
7.09516281844307
30
0
41
1
10
100.980016515923
20
7.09611270050732
30
0
41
1
10
100.988534920594
20
7.09639307537213
30
0
41
1
10
100.99064439694
20
7.096464192181
30
0
0
SPLINE
5
27C
100
AcDbEntity
8
SK1
62
256
6
ByLayer
370
-1
48
1
60
0
100
AcDbSpline
70
4
71
3
72
8
73
4
40
0
40
0
40
0
40
0
40
1
40
1
40
1
40
1
41
1
10
-68.5162227297291
20
-8.87304222606727
30
0
41
1
10
-68.5439066952102
20
-8.94968599658964
30
0
41
1
10
-68.571834450002
20
-9.02620926996545
30
0
41
1
10
-68.6
20
-9.10261500888612
30
0
0
SPLINE
5
27D
100
AcDbEntity
8
SK1
62
256
6
ByLayer
370
-1
48
1
60
0
100
AcDbSpline
70
4
71
3
72
20
73
16
40
0
40
0
40
0
40
0
40
0.125000000000019
40
0.125000000000019
40
0.187500000000028
40
0.187500000000028
40
0.250000000000038
40
0.250000000000038
40
0.375000000000024
40
0.375000000000024
40
0.50000000000001
40
0.50000000000001
40
0.750000000000005
40
0.750000000000005
40
1
40
1
40
1
40
1
41
1
10
-67.6338144512151
20
-8.29060283092329
30
0
41
1
10
-67.6746000935235
20
-8.25730093016261
30
0
41
1
10
-67.7199836490945
20
-8.22876323292448
30
0
41
1
10
-67.7948550962205
20
-8.20056981372309
30
0
41
1
10
-67.8205420829085
20
-8.19379354056497
30
0
41
1
10
-67.8728129362724
20
-8.18630243082055
30
0
41
1
10
-67.8998340844743
20
-8.1856286499503
30
0
41
1
10
-67.9787783127119
20
-8.19310764466417
30
0
41
1
10
-68.0301252704948
20
-8.21095104743222
30
0
41
1
10
-68.1222359195847
20
-8.26210721442101
30
0
41
1
10
-68.1643255549633
20
-8.29567338223035
30
0
41
1
10
-68.2768770736766
20
-8.40615789436035
30
0
41
1
10
-68.3371994967397
20
-8.49473748926303
30
0
41
1
10
-68.4387470357031
20
-8.67793923211124
30
0
41
1
10
-68.4804562077026
20
-8.77402168984949
30
0
41
1
10
-68.5162227297291
20
-8.87304222606727
30
0
0
SPLINE
5
27E
100
AcDbEntity
8
SK1
62
256
6
ByLayer
370
-1
48
1
60
0
100
AcDbSpline
70
4
71
3
72
20
73
16
40
0
40
0
40
0
40
0
40
0.249999999999997
40
0.249999999999997
40
0.374999999999998
40
0.374999999999998
40
0.499999999999998
40
0.499999999999998
40
0.624999999999999
40
0.624999999999999
40
0.749999999999999
40
0.749999999999999
40
0.875
40
0.875
40
1
40
1
40
1
40
1
41
1
10
-68.5162227297303
20
8.87304222606699
30
0
41
1
10
-68.4805102229812
20
8.77417123253394
30
0
41
1
10
-68.4382573152345
20
8.67693148618665
30
0
41
1
10
-68.3621710721186
20
8.53985159931514
30
0
41
1
10
-68.3346894685715
20
8.49562896904695
30
0
41
1
10
-68.2739659602408
20
8.41118058772861
30
0
41
1
10
-68.2407881315988
20
8.37091037639976
30
0
41
1
10
-68.1654488761744
20
8.29660337023134
30
0
41
1
10
-68.123541484252
20
8.2629600402953
30
0
41
1
10
-68.0305243323762
20
8.21104725205689
30
0
41
1
10
-67.9795833203366
20
8.19319188549028
30
0
41
1
10
-67.872813969243
20
8.18306085753042
30
0
41
1
10
-67.8196144054522
20
8.19122791676685
30
0
41
1
10
-67.7199392264586
20
8.22879859450236
30
0
41
1
10
-67.6749143258214
20
8.2570443562262
30
0
41
1
10
-67.6338144512151
20
8.29060283092346
30
0
0
SPLINE
5
27F
100
AcDbEntity
8
SK1
62
256
6
ByLayer
370
-1
48
1
60
0
100
AcDbSpline
70
4
71
3
72
72
73
68
40
0
40
0
40
0
40
0
40
0.0156250000000003
40
0.0156250000000003
40
0.0312500000000005
40
0.0312500000000005
40
0.0468750000000008
40
0.0468750000000008
40
0.062500000000001
40
0.062500000000001
40
0.0937500000000014
40
0.0937500000000014
40
0.109375000000002
40
0.109375000000002
40
0.125000000000002
40
0.125000000000002
40
0.156250000000002
40
0.156250000000002
40
0.187500000000002
40
0.187500000000002
40
0.218750000000001
40
0.218750000000001
40
0.250000000000001
40
0.250000000000001
40
0.312500000000001
40
0.312500000000001
40
0.375000000000002
40
0.375000000000002
40
0.406250000000002
40
0.406250000000002
40
0.437500000000002
40
0.437500000000002
40
0.500000000000002
40
0.500000000000002
40
0.562500000000002
40
0.562500000000002
40
0.625000000000002
40
0.625000000000002
40
0.687500000000002
40
0.687500000000002
40
0.718750000000002
40
0.718750000000002
40
0.750000000000002
40
0.750000000000002
40
0.812500000000002
40
0.812500000000002
40
0.843750000000001
40
0.843750000000001
40
0.859375000000001
40
0.859375000000001
40
0.875000000000001
40
0.875000000000001
40
0.906250000000001
40
0.906250000000001
40
0.921875000000001
40
0.921875000000001
40
0.937500000000001
40
0.937500000000001
40
0.953125000000001
40
0.953125000000001
40
0.96875
40
0.96875
40
0.9765625
40
0.9765625
40
0.984375
40
0.984375
40
1
40
1
40
1
40
1
41
1
10
-6.5
20
-9.10261500888618
30
0
41
1
10
-6.38914660019725
20
-9.1026150088862
30
0
41
1
10
-6.27612961385466
20
-9.09015098385046
30
0
41
1
10
-6.05985917895461
20
-9.04281130004992
30
0
41
1
10
-5.95475985097423
20
-9.00792576349431
30
0
41
1
10
-5.75343258145492
20
-8.91941414226187
30
0
41
1
10
-5.65919810333844
20
-8.86684398682266
30
0
41
1
10
-5.48088894318994
20
-8.74834825662376
30
0
41
1
10
-5.39640443529882
20
-8.68198569080923
30
0
41
1
10
-5.15892238475899
20
-8.4684605676342
30
0
41
1
10
-5.02365441240056
20
-8.30974008062717
30
0
41
1
10
-4.84296399719619
20
-8.05482884459988
30
0
41
1
10
-4.78642322072847
20
-7.96675301550394
30
0
41
1
10
-4.68042079967142
20
-7.78654390286022
30
0
41
1
10
-4.63122526195846
20
-7.69491452027412
30
0
41
1
10
-4.49299887645103
20
-7.41608134345648
30
0
41
1
10
-4.41323038468988
20
-7.22496300624556
30
0
41
1
10
-4.27152687943763
20
-6.8343560263894
30
0
41
1
10
-4.20965906429049
20
-6.6348461887967
30
0
41
1
10
-4.09961007502051
20
-6.2286775881141
30
0
41
1
10
-4.05150917072524
20
-6.02203194443632
30
0
41
1
10
-3.96692144189856
20
-5.6074574550413
30
0
41
1
10
-3.93025488815388
20
-5.39884469275898
30
0
41
1
10
-3.83321097175369
20
-4.76942146087168
30
0
41
1
10
-3.78559277520367
20
-4.34504706257979
30
0
41
1
10
-3.7112361899147
20
-3.48808137992401
30
0
41
1
10
-3.68460707386046
20
-3.05547999795235
30
0
41
1
10
-3.65470782442822
20
-2.40091890566339
30
0
41
1
10
-3.64643900603767
20
-2.18145148399697
30
0
41
1
10
-3.63274891948819
20
-1.74230735687166
30
0
41
1
10
-3.62733252136272
20
-1.52296705685933
30
0
41
1
10
-3.61463310465442
20
-0.865617065631682
30
0
41
1
10
-3.61080933488054
20
-0.428275684574771
30
0
41
1
10
-3.61090950897167
20
0.444684991040077
30
0
41
1
10
-3.61483745040269
20
0.88030412472645
30
0
41
1
10
-3.63179619285316
20
1.74979970758309
30
0
41
1
10
-3.64481102904037
20
2.18367646184913
30
0
41
1
10
-3.68431141261161
20
3.04958358359085
30
0
41
1
10
-3.71074384326306
20
3.48161507013518
30
0
41
1
10
-3.76673696017031
20
4.12812283873399
30
0
41
1
10
-3.78821526595235
20
4.34375014492497
30
0
41
1
10
-3.83787895821774
20
4.77101649951717
30
0
41
1
10
-3.86607610819138
20
4.9829568382882
30
0
41
1
10
-3.96342969061479
20
5.61325776204001
30
0
41
1
10
-4.04484226281082
20
6.02618785295124
30
0
41
1
10
-4.20877761048993
20
6.63176810724454
30
0
41
1
10
-4.27047938114893
20
6.83131020667685
30
0
41
1
10
-4.37747378301123
20
7.12647785984242
30
0
41
1
10
-4.41562361112287
20
7.22427655673613
30
0
41
1
10
-4.49679279030673
20
7.41629459142595
30
0
41
1
10
-4.5398877733324
20
7.51074836914336
30
0
41
1
10
-4.67791145216944
20
7.78892537172752
30
0
41
1
10
-4.78135481362554
20
7.96756739375849
30
0
41
1
10
-4.96130737226687
20
8.22195198147358
30
0
41
1
10
-5.02546297402537
20
8.30446540137604
30
0
41
1
10
-5.16438164479459
20
8.46391044858186
30
0
41
1
10
-5.23841496286948
20
8.53994273964545
30
0
41
1
10
-5.39629023089529
20
8.68187427767452
30
0
41
1
10
-5.4804954947721
20
8.74813957968226
30
0
41
1
10
-5.66096910628903
20
8.86796771603022
30
0
41
1
10
-5.75541196182655
20
8.92033547523616
30
0
41
1
10
-5.90448373735469
20
8.98579651940287
30
0
41
1
10
-5.95541416893875
20
9.00542573092372
30
0
41
1
10
-6.06002939197239
20
9.03984379515771
30
0
41
1
10
-6.1141052041134
20
9.05470732343474
30
0
41
1
10
-6.277583542549
20
9.09042477028081
30
0
41
1
10
-6.38802552881097
20
9.10261500888618
30
0
41
1
10
-6.5
20
9.1026150088862
30
0
0
SPLINE
5
280
100
AcDbEntity
8
SK1
62
256
6
ByLayer
370
-1
48
1
60
0
100
AcDbSpline
70
4
71
3
72
8
73
4
40
0
40
0
40
0
40
0
40
1
40
1
40
1
40
1
41
1
10
-66.6
20
-9.10261500888609
30
0
41
1
10
-66.9484012097206
20
-8.8388177253639
30
0
41
1
10
-67.2932836983816
20
-8.56864972916986
30
0
41
1
10
-67.6338144512153
20
-8.2906028309236
30
0
0
SPLINE
5
281
100
AcDbEntity
8
SK1
62
256
6
ByLayer
370
-1
48
1
60
0
100
AcDbSpline
70
4
71
3
72
8
73
4
40
0
40
0
40
0
40
0
40
1
40
1
40
1
40
1
41
1
10
-69
20
-9.10261500888609
30
0
41
1
10
-69.3687115489839
20
-8.2926547802831
30
0
41
1
10
-69.7055026821388
20
-7.46777015601629
30
0
41
1
10
-70
20
-6.62311105146205
30
0
0
SPLINE
5
282
100
AcDbEntity
8
SK1
62
256
6
ByLayer
370
-1
48
1
60
0
100
AcDbSpline
70
4
71
3
72
8
73
4
40
0
40
0
40
0
40
0
40
1
40
1
40
1
40
1
41
1
10
-68.6
20
9.10261500888626
30
0
41
1
10
-68.571834450002
20
9.02620926996562
30
0
41
1
10
-68.5439066952102
20
8.94968599658984
30
0
41
1
10
-68.516222729729
20
8.87304222606744
30
0
0
SPLINE
5
283
100
AcDbEntity
8
SK1
62
256
6
ByLayer
370
-1
48
1
60
0
100
AcDbSpline
70
4
71
3
72
8
73
4
40
0
40
0
40
0
40
0
40
1
40
1
40
1
40
1
41
1
10
-70
20
6.62311105146222
30
0
41
1
10
-69.7055026821388
20
7.46777015601646
30
0
41
1
10
-69.3687115489839
20
8.29265478028327
30
0
41
1
10
-69
20
9.10261500888626
30
0
0
SPLINE
5
284
100
AcDbEntity
8
SK1
62
256
6
ByLayer
370
-1
48
1
60
0
100
AcDbSpline
70
4
71
3
72
8
73
4
40
0
40
0
40
0
40
0
40
1
40
1
40
1
40
1
41
1
10
-67.6338144512152
20
8.29060283092377
30
0
41
1
10
-67.2932836983815
20
8.56864972917003
30
0
41
1
10
-66.9484012097206
20
8.83881772536409
30
0
41
1
10
-66.6
20
9.10261500888626
30
0
0
LINE
5
45
100
AcDbEntity
8
80
62
256
6
ByLayer
370
-1
48
1
60
0
100
AcDbLine
10
0
20
0
30
0
11
-7
21
0
31
0
39
0
210
0
220
0
230
1
0
LINE
5
46
100
AcDbEntity
8
81
62
256
6
ByLayer
370
-1
48
1
60
0
100
AcDbLine
10
113
20
0
30
0
11
120
21
0
31
0
39
0
210
0
220
0
230
1
0
LINE
5
47
100
AcDbEntity
8
SK1
62
256
6
ByLayer
370
-1
48
1
60
0
100
AcDbLine
10
-2
20
-19.996
30
0
11
-1.552821
21
-19.787477
31
0
39
0
210
0
220
0
230
1
0
LINE
5
49
100
AcDbEntity
8
SK1
62
256
6
ByLayer
370
-1
48
1
60
0
100
AcDbLine
10
-1.552821
20
19.787477
30
0
11
-2
21
19.996
31
0
39
0
210
0
220
0
230
1
0
LINE
5
4A
100
AcDbEntity
8
SK1
62
256
6
ByLayer
370
-1
48
1
60
0
100
AcDbLine
10
-2
20
19.996
30
0
11
-66.6
21
19.996
31
0
39
0
210
0
220
0
230
1
0
LINE
5
4B
100
AcDbEntity
8
SK1
62
256
6
ByLayer
370
-1
48
1
60
0
100
AcDbLine
10
-66.6
20
-19.996
30
0
11
-2
21
-19.996
31
0
39
0
210
0
220
0
230
1
0
LINE
5
4C
100
AcDbEntity
8
SK1
62
256
6
ByLayer
370
-1
48
1
60
0
100
AcDbLine
10
-0.15
20
19.75
30
0
11
-1.383773
21
19.75
31
0
39
0
210
0
220
0
230
1
0
LINE
5
4D
100
AcDbEntity
8
SK1
62
256
6
ByLayer
370
-1
48
1
60
0
100
AcDbLine
10
-1.383773
20
-19.75
30
0
11
-0.15
21
-19.75
31
0
39
0
210
0
220
0
230
1
0
LINE
5
4E
100
AcDbEntity
8
SK1
62
256
6
ByLayer
370
-1
48
1
60
0
100
AcDbLine
10
-66.6
20
19.996
30
0
11
-67.633814
21
19.639667
31
0
39
0
210
0
220
0
230
1
0
LINE
5
4F
100
AcDbEntity
8
SK1
62
256
6
ByLayer
370
-1
48
1
60
0
100
AcDbLine
10
-67.633814
20
-19.639667
30
0
11
-66.6
21
-19.996
31
0
39
0
210
0
220
0
230
1
0
LINE
5
50
100
AcDbEntity
8
SK1
62
256
6
ByLayer
370
-1
48
1
60
0
100
AcDbLine
10
-68.6
20
-19.996
30
0
11
-68.516223
21
-19.892544
31
0
39
0
210
0
220
0
230
1
0
LINE
5
51
100
AcDbEntity
8
SK1
62
256
6
ByLayer
370
-1
48
1
60
0
100
AcDbLine
10
-68.516223
20
19.892544
30
0
11
-68.6
21
19.996
31
0
39
0
210
0
220
0
230
1
0
LINE
5
52
100
AcDbEntity
8
SK1
62
256
6
ByLayer
370
-1
48
1
60
0
100
AcDbLine
10
-69
20
19.996
30
0
11
-70
21
18.996
31
0
39
0
210
0
220
0
230
1
0
LINE
5
53
100
AcDbEntity
8
SK1
62
256
6
ByLayer
370
-1
48
1
60
0
100
AcDbLine
10
-70
20
-18.996
30
0
11
-69
21
-19.996
31
0
39
0
210
0
220
0
230
1
0
LINE
5
54
100
AcDbEntity
8
SK1
62
256
6
ByLayer
370
-1
48
1
60
0
100
AcDbLine
10
-68.6
20
19.996
30
0
11
-69
21
19.996
31
0
39
0
210
0
220
0
230
1
0
LINE
5
55
100
AcDbEntity
8
SK1
62
256
6
ByLayer
370
-1
48
1
60
0
100
AcDbLine
10
-69
20
-19.996
30
0
11
-68.6
21
-19.996
31
0
39
0
210
0
220
0
230
1
0
LINE
5
56
100
AcDbEntity
8
1
62
256
6
ByLayer
370
-1
48
1
60
0
100
AcDbLine
10
0.2
20
24.75
30
0
11
0
21
24.55
31
0
39
0
210
0
220
0
230
1
0
LINE
5
58
100
AcDbEntity
8
1
62
256
6
ByLayer
370
-1
48
1
60
0
100
AcDbLine
10
0
20
-24.55
30
0
11
0.2
21
-24.75
31
0
39
0
210
0
220
0
230
1
0
LINE
5
59
100
AcDbEntity
8
1
62
256
6
ByLayer
370
-1
48
1
60
0
100
AcDbLine
10
5
20
24.75
30
0
11
0.2
21
24.75
31
0
39
0
210
0
220
0
230
1
0
LINE
5
5A
100
AcDbEntity
8
1
62
256
6
ByLayer
370
-1
48
1
60
0
100
AcDbLine
10
0.2
20
-24.75
30
0
11
5
21
-24.75
31
0
39
0
210
0
220
0
230
1
0
LINE
5
5B
100
AcDbEntity
8
SK4
62
256
6
ByLayer
370
-1
48
0.05
60
0
100
AcDbLine
10
113
20
0
30
0
11
-70
21
0
31
0
39
0
210
0
220
0
230
1
0
LINE
5
5D
100
AcDbEntity
8
4
62
256
6
ByLayer
370
-1
48
0.05
60
0
100
AcDbLine
10
113
20
0
30
0
11
0
21
0
31
0
39
0
210
0
220
0
230
1
0
LINE
5
5F
100
AcDbEntity
8
1
62
256
6
ByLayer
370
-1
48
1
60
0
100
AcDbLine
10
110.58023
20
-9.150637
30
0
11
110.000157
21
-8.892172
31
0
39
0
210
0
220
0
230
1
0
LINE
5
60
100
AcDbEntity
8
1
62
256
6
ByLayer
370
-1
48
1
60
0
100
AcDbLine
10
110.950911
20
7.147436
30
0
11
111.052636
21
7.147436
31
0
39
0
210
0
220
0
230
1
0
LINE
5
61
100
AcDbEntity
8
1
62
256
6
ByLayer
370
-1
48
1
60
0
100
AcDbLine
10
96.239139
20
13.300834
30
0
11
77.240124
21
15.824239
31
0
39
0
210
0
220
0
230
1
0
LINE
5
62
100
AcDbEntity
8
1
62
256
6
ByLayer
370
-1
48
1
60
0
100
AcDbLine
10
111.025589
20
0.307522
30
0
11
111.544762
21
-9.580406
31
0
39
0
210
0
220
0
230
1
0
LINE
5
63
100
AcDbEntity
8
1
62
256
6
ByLayer
370
-1
48
1
60
0
100
AcDbLine
10
0.2
20
24.75
30
0
11
0.2
21
-24.75
31
0
39
0
210
0
220
0
230
1
0
LINE
5
64
100
AcDbEntity
8
1
62
256
6
ByLayer
370
-1
48
1
60
0
100
AcDbLine
10
111.025589
20
0.307522
30
0
11
109.145887
21
1.145066
31
0
39
0
210
0
220
0
230
1
0
LINE
5
65
100
AcDbEntity
8
1
62
256
6
ByLayer
370
-1
48
1
60
0
100
AcDbLine
10
0
20
24.55
30
0
11
0
21
-24.55
31
0
39
0
210
0
220
0
230
1
0
LINE
5
66
100
AcDbEntity
8
1
62
256
6
ByLayer
370
-1
48
1
60
0
100
AcDbLine
10
99.667537
20
13.15123
30
0
11
99.468338
21
19.398268
31
0
39
0
210
0
220
0
230
1
0
LINE
5
67
100
AcDbEntity
8
1
62
256
6
ByLayer
370
-1
48
1
60
0
100
AcDbLine
10
111.03526
20
1.299468
30
0
11
111.123047
21
1.296408
31
0
39
0
210
0
220
0
230
1
0
LINE
5
68
100
AcDbEntity
8
1
62
256
6
ByLayer
370
-1
48
1
60
0
100
AcDbLine
10
91.245916
20
4.159585
30
0
11
90.968591
21
3.205528
31
0
39
0
210
0
220
0
230
1
0
LINE
5
69
100
AcDbEntity
8
1
62
256
6
ByLayer
370
-1
48
1
60
0
100
AcDbLine
10
100.192857
20
6.8186
30
0
11
99.468585
21
6.793211
31
0
39
0
210
0
220
0
230
1
0
LINE
5
6A
100
AcDbEntity
8
1
62
256
6
ByLayer
370
-1
48
1
60
0
100
AcDbLine
10
99.616019
20
7.594835
30
0
11
99.409655
21
7.587601
31
0
39
0
210
0
220
0
230
1
0
LINE
5
6B
100
AcDbEntity
8
1
62
256
6
ByLayer
370
-1
48
1
60
0
100
AcDbLine
10
99.888207
20
13.347826
30
0
11
99.917558
21
13.347826
31
0
39
0
210
0
220
0
230
1
0
LINE
5
6C
100
AcDbEntity
8
1
62
256
6
ByLayer
370
-1
48
1
60
0
100
AcDbLine
10
98.044376
20
1.893633
30
0
11
98.814332
21
4.542443
31
0
39
0
210
0
220
0
230
1
0
LINE
5
6D
100
AcDbEntity
8
1
62
256
6
ByLayer
370
-1
48
1
60
0
100
AcDbLine
10
99.667537
20
13.15123
30
0
11
99.682832
21
13.15123
31
0
39
0
210
0
220
0
230
1
0
LINE
5
6E
100
AcDbEntity
8
1
62
256
6
ByLayer
370
-1
48
1
60
0
100
AcDbLine
10
111.540587
20
-10.777116
30
0
11
111.994587
21
-10.831956
31
0
39
0
210
0
220
0
230
1
0
LINE
5
6F
100
AcDbEntity
8
1
62
256
6
ByLayer
370
-1
48
1
60
0
100
AcDbLine
10
99.578884
20
11.837879
30
0
11
99.695353
21
8.48992
31
0
39
0
210
0
220
0
230
1
0
LINE
5
70
100
AcDbEntity
8
1
62
256
6
ByLayer
370
-1
48
1
60
0
100
AcDbLine
10
96.349567
20
19.387619
30
0
11
96.349567
21
13.4
31
0
39
0
210
0
220
0
230
1
0
LINE
5
71
100
AcDbEntity
8
1
62
256
6
ByLayer
370
-1
48
1
60
0
100
AcDbLine
10
110.890838
20
7.146871
30
0
11
110.950911
21
7.147436
31
0
39
0
210
0
220
0
230
1
0
LINE
5
72
100
AcDbEntity
8
1
62
256
6
ByLayer
370
-1
48
1
60
0
100
AcDbLine
10
102.558485
20
6.854787
30
0
11
110.890838
21
7.146871
31
0
39
0
210
0
220
0
230
1
0
LINE
5
73
100
AcDbEntity
8
1
62
256
6
ByLayer
370
-1
48
1
60
0
100
AcDbLine
10
111.544762
20
-9.580406
30
0
11
111.003684
21
-9.339316
31
0
39
0
210
0
220
0
230
1
0
LINE
5
74
100
AcDbEntity
8
1
62
256
6
ByLayer
370
-1
48
1
60
0
100
AcDbLine
10
99.265123
20
11.837879
30
0
11
99.381592
21
8.48992
31
0
39
0
210
0
220
0
230
1
0
LINE
5
75
100
AcDbEntity
8
1
62
256
6
ByLayer
370
-1
48
1
60
0
100
AcDbLine
10
92.964688
20
8.786668
30
0
11
90.308914
21
9.918283
31
0
39
0
210
0
220
0
230
1
0
LINE
5
76
100
AcDbEntity
8
1
62
256
6
ByLayer
370
-1
48
1
60
0
100
AcDbLine
10
99.381592
20
8.48992
30
0
11
99.695353
21
8.48992
31
0
39
0
210
0
220
0
230
1
0
LINE
5
77
100
AcDbEntity
8
1
62
256
6
ByLayer
370
-1
48
1
60
0
100
AcDbLine
10
99.483734
20
19.395144
30
0
11
99.682832
21
13.15123
31
0
39
0
210
0
220
0
230
1
0
LINE
5
78
100
AcDbEntity
8
1
62
256
6
ByLayer
370
-1
48
1
60
0
100
AcDbLine
10
111.133876
20
1.327992
30
0
11
111.405285
21
7.38145
31
0
39
0
210
0
220
0
230
1
0
LINE
5
79
100
AcDbEntity
8
1
62
256
6
ByLayer
370
-1
48
1
60
0
100
AcDbLine
10
96.349567
20
13.4
30
0
11
97.267488
21
13.4
31
0
39
0
210
0
220
0
230
1
0
LINE
5
7A
100
AcDbEntity
8
1
62
256
6
ByLayer
370
-1
48
1
60
0
100
AcDbLine
10
99.171069
20
5.769693
30
0
11
99.468585
21
6.793211
31
0
39
0
210
0
220
0
230
1
0
LINE
5
7B
100
AcDbEntity
8
1
62
256
6
ByLayer
370
-1
48
1
60
0
100
AcDbLine
10
29
20
19.39402
30
0
11
29
21
-3.299095
31
0
39
0
210
0
220
0
230
1
0
LINE
5
7C
100
AcDbEntity
8
1
62
256
6
ByLayer
370
-1
48
1
60
0
100
AcDbLine
10
111.012157
20
0.611166
30
0
11
111.025589
21
0.307522
31
0
39
0
210
0
220
0
230
1
0
LINE
5
7D
100
AcDbEntity
8
1
62
256
6
ByLayer
370
-1
48
1
60
0
100
AcDbLine
10
109.089342
20
2.556157
30
0
11
110.890838
21
7.146871
31
0
39
0
210
0
220
0
230
1
0
LINE
5
7E
100
AcDbEntity
8
1
62
256
6
ByLayer
370
-1
48
1
60
0
100
AcDbLine
10
111.090227
20
7.145462
30
0
11
110.950911
21
7.147436
31
0
39
0
210
0
220
0
230
1
0
LINE
5
7F
100
AcDbEntity
8
1
62
256
6
ByLayer
370
-1
48
1
60
0
100
AcDbLine
10
111.063487
20
1.359533
30
0
11
111.075228
21
1.359124
31
0
39
0
210
0
220
0
230
1
0
LINE
5
80
100
AcDbEntity
8
1
62
256
6
ByLayer
370
-1
48
1
60
0
100
AcDbLine
10
111.123047
20
1.296408
30
0
11
111.133876
21
1.327992
31
0
39
0
210
0
220
0
230
1
0
LINE
5
81
100
AcDbEntity
8
1
62
256
6
ByLayer
370
-1
48
1
60
0
100
AcDbLine
10
91.423118
20
8.544728
30
0
11
92.583568
21
8.050264
31
0
39
0
210
0
220
0
230
1
0
LINE
5
82
100
AcDbEntity
8
1
62
256
6
ByLayer
370
-1
48
1
60
0
100
AcDbLine
10
111.05271
20
7.147436
30
0
11
111.090227
21
7.145462
31
0
39
0
210
0
220
0
230
1
0
LINE
5
83
100
AcDbEntity
8
1
62
256
6
ByLayer
370
-1
48
1
60
0
100
AcDbLine
10
111.544762
20
-9.580406
30
0
11
111.517579
21
-9.886881
31
0
39
0
210
0
220
0
230
1
0
LINE
5
84
100
AcDbEntity
8
1
62
256
6
ByLayer
370
-1
48
1
60
0
100
AcDbLine
10
5
20
24.75
30
0
11
5
21
-24.75
31
0
39
0
210
0
220
0
230
1
0
LINE
5
85
100
AcDbEntity
8
1
62
256
6
ByLayer
370
-1
48
1
60
0
100
AcDbLine
10
98.542176
20
-19.381159
30
0
11
111.236299
21
-19.381159
31
0
39
0
210
0
220
0
230
1
0
LINE
5
86
100
AcDbEntity
8
1
62
256
6
ByLayer
370
-1
48
1
60
0
100
AcDbLine
10
92.583568
20
8.050264
30
0
11
92.551571
21
8.050264
31
0
39
0
210
0
220
0
230
1
0
LINE
5
87
100
AcDbEntity
8
1
62
256
6
ByLayer
370
-1
48
1
60
0
100
AcDbLine
10
111.075228
20
1.359124
30
0
11
111.133876
21
1.327992
31
0
39
0
210
0
220
0
230
1
0
LINE
5
88
100
AcDbEntity
8
1
62
256
6
ByLayer
370
-1
48
1
60
0
100
AcDbLine
10
111.236299
20
-19.381159
30
0
11
111.994587
21
-10.831956
31
0
39
0
210
0
220
0
230
1
0
LINE
5
89
100
AcDbEntity
8
1
62
256
6
ByLayer
370
-1
48
1
60
0
100
AcDbLine
10
100.192857
20
6.8186
30
0
11
100.238145
21
6.8186
31
0
39
0
210
0
220
0
230
1
0
LINE
5
8A
100
AcDbEntity
8
1
62
256
6
ByLayer
370
-1
48
1
60
0
100
AcDbLine
10
97.267488
20
19.394739
30
0
11
97.267488
21
13.4
31
0
39
0
210
0
220
0
230
1
0
LINE
5
8B
100
AcDbEntity
8
1
62
256
6
ByLayer
370
-1
48
1
60
0
100
AcDbLine
10
99.265123
20
11.837879
30
0
11
99.578884
21
11.837879
31
0
39
0
210
0
220
0
230
1
0
LINE
5
8C
100
AcDbEntity
8
1
62
256
6
ByLayer
370
-1
48
1
60
0
100
AcDbLine
10
111.555563
20
-5.060637
30
0
11
111.357173
21
-1.282193
31
0
39
0
210
0
220
0
230
1
0
LINE
5
8D
100
AcDbEntity
8
1
62
256
6
ByLayer
370
-1
48
1
60
0
100
AcDbLine
10
111.545348
20
0.609017
30
0
11
111.955566
21
-0.770067
31
0
39
0
210
0
220
0
230
1
0
LINE
5
8E
100
AcDbEntity
8
1
62
256
6
ByLayer
370
-1
48
1
60
0
100
AcDbLine
10
112.246031
20
-5.111519
30
0
11
111.755289
21
-5.050189
31
0
39
0
210
0
220
0
230
1
0
LINE
5
8F
100
AcDbEntity
8
1
62
256
6
ByLayer
370
-1
48
1
60
0
100
AcDbLine
10
112.908896
20
-9.774293
30
0
11
112.786258
21
-9.622874
31
0
39
0
210
0
220
0
230
1
0
LINE
5
90
100
AcDbEntity
8
1
62
256
6
ByLayer
370
-1
48
1
60
0
100
AcDbLine
10
111.535966
20
-9.41292
30
0
11
111.666441
21
-9.34552
31
0
39
0
210
0
220
0
230
1
0
LINE
5
91
100
AcDbEntity
8
1
62
256
6
ByLayer
370
-1
48
1
60
0
100
AcDbLine
10
111.491389
20
-10.370223
30
0
11
112.049238
21
-10.231235
31
0
39
0
210
0
220
0
230
1
0
LINE
5
92
100
AcDbEntity
8
1
62
256
6
ByLayer
370
-1
48
1
60
0
100
AcDbLine
10
111.504265
20
-10.683156
30
0
11
112.514473
21
-10.316157
31
0
39
0
210
0
220
0
230
1
0
LINE
5
93
100
AcDbEntity
8
1
62
256
6
ByLayer
370
-1
48
1
60
0
100
AcDbLine
10
112.049238
20
-10.231235
30
0
11
111.666441
21
-9.34552
31
0
39
0
210
0
220
0
230
1
0
LINE
5
94
100
AcDbEntity
8
1
62
256
6
ByLayer
370
-1
48
1
60
0
100
AcDbLine
10
112.657997
20
-8.66006
30
0
11
112.16688
21
-8.555941
31
0
39
0
210
0
220
0
230
1
0
LINE
5
95
100
AcDbEntity
8
1
62
256
6
ByLayer
370
-1
48
1
60
0
100
AcDbLine
10
112.025475
20
-10.25758
30
0
11
111.491151
21
-10.390706
31
0
39
0
210
0
220
0
230
1
0
LINE
5
96
100
AcDbEntity
8
1
62
256
6
ByLayer
370
-1
48
1
60
0
100
AcDbLine
10
112.514473
20
-10.316157
30
0
11
112.418735
21
-10.197949
31
0
39
0
210
0
220
0
230
1
0
LINE
5
97
100
AcDbEntity
8
1
62
256
6
ByLayer
370
-1
48
1
60
0
100
AcDbLine
10
112.16688
20
-8.555941
30
0
11
112.223842
21
-6.927803
31
0
39
0
210
0
220
0
230
1
0
LINE
5
98
100
AcDbEntity
8
1
62
256
6
ByLayer
370
-1
48
1
60
0
100
AcDbLine
10
112.657997
20
-8.66006
30
0
11
112.714959
21
-7.031922
31
0
39
0
210
0
220
0
230
1
0
LINE
5
99
100
AcDbEntity
8
1
62
256
6
ByLayer
370
-1
48
1
60
0
100
AcDbLine
10
111.932292
20
-0.743233
30
0
11
111.522074
21
0.635852
31
0
39
0
210
0
220
0
230
1
0
LINE
5
9A
100
AcDbEntity
8
1
62
256
6
ByLayer
370
-1
48
1
60
0
100
AcDbLine
10
111.967002
20
-8.548974
30
0
11
112.023964
21
-6.920836
31
0
39
0
210
0
220
0
230
1
0
LINE
5
9B
100
AcDbEntity
8
1
62
256
6
ByLayer
370
-1
48
1
60
0
100
AcDbLine
10
112.726745
20
-7.035448
30
0
11
112.669783
21
-8.663586
31
0
39
0
210
0
220
0
230
1
0
LINE
5
9C
100
AcDbEntity
8
1
62
256
6
ByLayer
370
-1
48
1
60
0
100
AcDbLine
10
111.755289
20
-5.050189
30
0
11
111.556899
21
-1.271745
31
0
39
0
210
0
220
0
230
1
0
LINE
5
9D
100
AcDbEntity
8
1
62
256
6
ByLayer
370
-1
48
1
60
0
100
AcDbLine
10
111.522074
20
0.635852
30
0
11
111.018143
21
0.47599
31
0
39
0
210
0
220
0
230
1
0
LINE
5
9E
100
AcDbEntity
8
1
62
256
6
ByLayer
370
-1
48
1
60
0
100
AcDbLine
10
112.246031
20
-5.111519
30
0
11
112.047641
21
-1.333075
31
0
39
0
210
0
220
0
230
1
0
LINE
5
9F
100
AcDbEntity
8
1
62
256
6
ByLayer
370
-1
48
1
60
0
100
AcDbLine
10
112.999634
20
-7.180724
30
0
11
112.726745
21
-7.035448
31
0
39
0
210
0
220
0
230
1
0
LINE
5
A0
100
AcDbEntity
8
1
62
256
6
ByLayer
370
-1
48
1
60
0
100
AcDbLine
10
111.276808
20
-0.986579
30
0
11
111.072887
21
-0.593292
31
0
39
0
210
0
220
0
230
1
0
LINE
5
A1
100
AcDbEntity
8
1
62
256
6
ByLayer
370
-1
48
1
60
0
100
AcDbLine
10
112.059418
20
-1.335574
30
0
11
112.257808
21
-5.114018
31
0
39
0
210
0
220
0
230
1
0
LINE
5
A2
100
AcDbEntity
8
1
62
256
6
ByLayer
370
-1
48
1
60
0
100
AcDbLine
10
112.79028
20
-6.21944
30
0
11
112.545973
21
-6.205407
31
0
39
0
210
0
220
0
230
1
0
LINE
5
A3
100
AcDbEntity
8
1
62
256
6
ByLayer
370
-1
48
1
60
0
100
AcDbLine
10
112.047641
20
-1.333075
30
0
11
111.556899
21
-1.271745
31
0
39
0
210
0
220
0
230
1
0
LINE
5
A4
100
AcDbEntity
8
1
62
256
6
ByLayer
370
-1
48
1
60
0
100
AcDbLine
10
112.289656
20
-1.065369
30
0
11
112.03131
21
-0.988191
31
0
39
0
210
0
220
0
230
1
0
LINE
5
A5
100
AcDbEntity
8
1
62
256
6
ByLayer
370
-1
48
1
60
0
100
AcDbLine
10
112.714959
20
-7.031922
30
0
11
112.223842
21
-6.927803
31
0
39
0
210
0
220
0
230
1
0
LINE
5
A6
100
AcDbEntity
8
1
62
256
6
ByLayer
370
-1
48
1
60
0
100
AcDbLine
10
111.528574
20
1.021785
30
0
11
111.459016
21
0.975004
31
0
39
0
210
0
220
0
230
1
0
LINE
5
A7
100
AcDbEntity
8
1
62
256
6
ByLayer
370
-1
48
1
60
0
100
AcDbLine
10
112.535421
20
-6.207549
30
0
11
112.095745
21
-6.339625
31
0
39
0
210
0
220
0
230
1
0
LINE
5
A8
100
AcDbEntity
8
1
62
256
6
ByLayer
370
-1
48
1
60
0
100
AcDbLine
10
112.53049
20
-5.235518
30
0
11
112.319124
21
-1.209941
31
0
39
0
210
0
220
0
230
1
0
LINE
5
A9
100
AcDbEntity
8
1
62
256
6
ByLayer
370
-1
48
1
60
0
100
AcDbLine
10
112.908896
20
-9.774293
30
0
11
112.999634
21
-7.180724
31
0
39
0
210
0
220
0
230
1
0
LINE
5
AA
100
AcDbEntity
8
1
62
256
6
ByLayer
370
-1
48
1
60
0
100
AcDbLine
10
112.289656
20
-1.065369
30
0
11
111.528574
21
1.021785
31
0
39
0
210
0
220
0
230
1
0
LINE
5
AB
100
AcDbEntity
8
1
62
256
6
ByLayer
370
-1
48
1
60
0
100
AcDbLine
10
111.45443
20
-0.894825
30
0
11
111.047521
21
-0.110053
31
0
39
0
210
0
220
0
230
1
0
LINE
5
AC
100
AcDbEntity
8
1
62
256
6
ByLayer
370
-1
48
1
60
0
100
AcDbLine
10
111.932292
20
-0.743233
30
0
11
111.45443
21
-0.894825
31
0
39
0
210
0
220
0
230
1
0
LINE
5
AD
100
AcDbEntity
8
1
62
256
6
ByLayer
370
-1
48
1
60
0
100
AcDbLine
10
112.319124
20
-1.209941
30
0
11
112.058503
21
-1.132083
31
0
39
0
210
0
220
0
230
1
0
LINE
5
AE
100
AcDbEntity
8
1
62
256
6
ByLayer
370
-1
48
1
60
0
100
AcDbLine
10
112.53049
20
-5.235518
30
0
11
112.257808
21
-5.114018
31
0
39
0
210
0
220
0
230
1
0
LINE
5
AF
100
AcDbEntity
8
1
62
256
6
ByLayer
370
-1
48
1
60
0
100
AcDbLine
10
111.524463
20
-9.194085
30
0
11
111.574515
21
-9.16823
31
0
39
0
210
0
220
0
230
1
0
LINE
5
B0
100
AcDbEntity
8
1
62
256
6
ByLayer
370
-1
48
1
60
0
100
AcDbLine
10
110.849636
20
20.019728
30
0
11
100.553627
21
19.65881
31
0
39
0
210
0
220
0
230
1
0
LINE
5
B1
100
AcDbEntity
8
1
62
256
6
ByLayer
370
-1
48
1
60
0
100
AcDbLine
10
103.12303
20
16.752018
30
0
11
103.635363
21
16.272435
31
0
39
0
210
0
220
0
230
1
0
LINE
5
B2
100
AcDbEntity
8
1
62
256
6
ByLayer
370
-1
48
1
60
0
100
AcDbLine
10
101.582453
20
7.037164
30
0
11
111.878462
21
7.398082
31
0
39
0
210
0
220
0
230
1
0
LINE
5
B3
100
AcDbEntity
8
1
62
256
6
ByLayer
370
-1
48
1
60
0
100
AcDbLine
10
111.222449
20
8.676642
30
0
11
101.515468
21
8.336372
31
0
39
0
210
0
220
0
230
1
0
LINE
5
B4
100
AcDbEntity
8
1
62
256
6
ByLayer
370
-1
48
1
60
0
100
AcDbLine
10
99.8282
20
18.182518
30
0
11
100.167175
21
8.438458
31
0
39
0
210
0
220
0
230
1
0
LINE
5
B5
100
AcDbEntity
8
1
62
256
6
ByLayer
370
-1
48
1
60
0
100
AcDbLine
10
102.574499
20
10.672963
30
0
11
102.574865
21
10.67262
31
0
39
0
210
0
220
0
230
1
0
LINE
5
B6
100
AcDbEntity
8
1
62
256
6
ByLayer
370
-1
48
1
60
0
100
AcDbLine
10
111.395913
20
8.832787
30
0
11
111.056937
21
18.576847
31
0
39
0
210
0
220
0
230
1
0
LINE
5
B7
100
AcDbEntity
8
1
62
256
6
ByLayer
370
-1
48
1
60
0
100
AcDbLine
10
109.856813
20
17.726043
30
0
11
107.069167
21
17.628325
31
0
39
0
210
0
220
0
230
1
0
LINE
5
B8
100
AcDbEntity
8
1
62
256
6
ByLayer
370
-1
48
1
60
0
100
AcDbLine
10
100.225488
20
18.196336
30
0
11
100.564463
21
8.452275
31
0
39
0
210
0
220
0
230
1
0
LINE
5
B9
100
AcDbEntity
8
1
62
256
6
ByLayer
370
-1
48
1
60
0
100
AcDbLine
10
101.360914
20
8.481046
30
0
11
101.021939
21
18.225106
31
0
39
0
210
0
220
0
230
1
0
LINE
5
BA
100
AcDbEntity
8
1
62
256
6
ByLayer
370
-1
48
1
60
0
100
AcDbLine
10
100.873738
20
18.219608
30
0
11
101.212713
21
8.475547
31
0
39
0
210
0
220
0
230
1
0
LINE
5
BB
100
AcDbEntity
8
1
62
256
6
ByLayer
370
-1
48
1
60
0
100
AcDbLine
10
103.162553
20
10.514192
30
0
11
103.28143
21
10.642158
31
0
39
0
210
0
220
0
230
1
0
LINE
5
BC
100
AcDbEntity
8
1
62
256
6
ByLayer
370
-1
48
1
60
0
100
AcDbLine
10
100.994175
20
18.224105
30
0
11
101.33315
21
8.480045
31
0
39
0
210
0
220
0
230
1
0
LINE
5
BD
100
AcDbEntity
8
1
62
256
6
ByLayer
370
-1
48
1
60
0
100
AcDbLine
10
110.139596
20
9.597262
30
0
11
107.351951
21
9.499544
31
0
39
0
210
0
220
0
230
1
0
LINE
5
BE
100
AcDbEntity
8
1
62
256
6
ByLayer
370
-1
48
1
60
0
100
AcDbLine
10
102.796917
20
16.400969
30
0
11
102.81658
21
16.397072
31
0
39
0
210
0
220
0
230
1
0
LINE
5
BF
100
AcDbEntity
8
1
62
256
6
ByLayer
370
-1
48
1
60
0
100
AcDbLine
10
99.749464
20
18.179737
30
0
11
100.109008
21
7.844399
31
0
39
0
210
0
220
0
230
1
0
LINE
5
C0
100
AcDbEntity
8
1
62
256
6
ByLayer
370
-1
48
1
60
0
100
AcDbLine
10
102.791028
20
10.477594
30
0
11
102.779031
21
10.488824
31
0
39
0
210
0
220
0
230
1
0
LINE
5
C1
100
AcDbEntity
8
1
62
256
6
ByLayer
370
-1
48
1
60
0
100
AcDbLine
10
110.282455
20
12.654129
30
0
11
110.379802
21
9.855835
31
0
39
0
210
0
220
0
230
1
0
LINE
5
C2
100
AcDbEntity
8
1
62
256
6
ByLayer
370
-1
48
1
60
0
100
AcDbLine
10
102.598961
20
10.3034
30
0
11
102.926818
21
9.996501
31
0
39
0
210
0
220
0
230
1
0
LINE
5
C3
100
AcDbEntity
8
1
62
256
6
ByLayer
370
-1
48
1
60
0
100
AcDbLine
10
103.162553
20
10.514192
30
0
11
103.293696
21
10.391432
31
0
39
0
210
0
220
0
230
1
0
LINE
5
C4
100
AcDbEntity
8
1
62
256
6
ByLayer
370
-1
48
1
60
0
100
AcDbLine
10
101.97576
20
17.114105
30
0
11
102.495717
21
17.011073
31
0
39
0
210
0
220
0
230
1
0
LINE
5
C5
100
AcDbEntity
8
1
62
256
6
ByLayer
370
-1
48
1
60
0
100
AcDbLine
10
101.169238
20
18.537703
30
0
11
110.876219
21
18.877973
31
0
39
0
210
0
220
0
230
1
0
LINE
5
C6
100
AcDbEntity
8
1
62
256
6
ByLayer
370
-1
48
1
60
0
100
AcDbLine
10
111.027597
20
18.575846
30
0
11
111.366572
21
8.831786
31
0
39
0
210
0
220
0
230
1
0
LINE
5
C7
100
AcDbEntity
8
1
62
256
6
ByLayer
370
-1
48
1
60
0
100
AcDbLine
10
107.352423
20
9.373229
30
0
11
110.140069
21
9.470947
31
0
39
0
210
0
220
0
230
1
0
LINE
5
C8
100
AcDbEntity
8
1
62
256
6
ByLayer
370
-1
48
1
60
0
100
AcDbLine
10
112.682625
20
8.877155
30
0
11
112.323081
21
19.212493
31
0
39
0
210
0
220
0
230
1
0
LINE
5
C9
100
AcDbEntity
8
1
62
256
6
ByLayer
370
-1
48
1
60
0
100
AcDbLine
10
111.981813
20
8.852562
30
0
11
111.642838
21
18.596623
31
0
39
0
210
0
220
0
230
1
0
LINE
5
CA
100
AcDbEntity
8
1
62
256
6
ByLayer
370
-1
48
1
60
0
100
AcDbLine
10
99.891099
20
18.184681
30
0
11
100.230074
21
8.440621
31
0
39
0
210
0
220
0
230
1
0
LINE
5
CB
100
AcDbEntity
8
1
62
256
6
ByLayer
370
-1
48
1
60
0
100
AcDbLine
10
112.211596
20
8.860556
30
0
11
111.872621
21
18.604616
31
0
39
0
210
0
220
0
230
1
0
LINE
5
CC
100
AcDbEntity
8
1
62
256
6
ByLayer
370
-1
48
1
60
0
100
AcDbLine
10
101.517253
20
8.307711
30
0
11
111.224234
21
8.647981
31
0
39
0
210
0
220
0
230
1
0
LINE
5
CD
100
AcDbEntity
8
1
62
256
6
ByLayer
370
-1
48
1
60
0
100
AcDbLine
10
101.568415
20
7.512499
30
0
11
111.275396
21
7.85277
31
0
39
0
210
0
220
0
230
1
0
LINE
5
CE
100
AcDbEntity
8
1
62
256
6
ByLayer
370
-1
48
1
60
0
100
AcDbLine
10
101.740231
20
16.651752
30
0
11
102.942372
21
15.526454
31
0
39
0
210
0
220
0
230
1
0
LINE
5
CF
100
AcDbEntity
8
1
62
256
6
ByLayer
370
-1
48
1
60
0
100
AcDbLine
10
101.14817
20
19.537874
30
0
11
110.855151
21
19.878144
31
0
39
0
210
0
220
0
230
1
0
LINE
5
D0
100
AcDbEntity
8
1
62
256
6
ByLayer
370
-1
48
1
60
0
100
AcDbLine
10
100.451778
20
18.20433
30
0
11
100.790754
21
8.460269
31
0
39
0
210
0
220
0
230
1
0
LINE
5
D1
100
AcDbEntity
8
1
62
256
6
ByLayer
370
-1
48
1
60
0
100
AcDbLine
10
102.796917
20
16.400969
30
0
11
103.30925
21
15.921385
31
0
39
0
210
0
220
0
230
1
0
LINE
5
D2
100
AcDbEntity
8
1
62
256
6
ByLayer
370
-1
48
1
60
0
100
AcDbLine
10
101.529598
20
8.178919
30
0
11
111.236579
21
8.519189
31
0
39
0
210
0
220
0
230
1
0
LINE
5
D3
100
AcDbEntity
8
1
62
256
6
ByLayer
370
-1
48
1
60
0
100
AcDbLine
10
111.532079
20
8.837284
30
0
11
111.193103
21
18.581345
31
0
39
0
210
0
220
0
230
1
0
LINE
5
D4
100
AcDbEntity
8
1
62
256
6
ByLayer
370
-1
48
1
60
0
100
AcDbLine
10
101.579075
20
7.116811
30
0
11
111.286056
21
7.457081
31
0
39
0
210
0
220
0
230
1
0
LINE
5
D5
100
AcDbEntity
8
1
62
256
6
ByLayer
370
-1
48
1
60
0
100
AcDbLine
10
101.558705
20
7.741407
30
0
11
111.265687
21
8.081677
31
0
39
0
210
0
220
0
230
1
0
LINE
5
D6
100
AcDbEntity
8
1
62
256
6
ByLayer
370
-1
48
1
60
0
100
AcDbLine
10
110.501714
20
9.860246
30
0
11
110.404368
21
12.65854
31
0
39
0
210
0
220
0
230
1
0
LINE
5
D7
100
AcDbEntity
8
1
62
256
6
ByLayer
370
-1
48
1
60
0
100
AcDbLine
10
101.578118
20
7.178748
30
0
11
111.285099
21
7.519018
31
0
39
0
210
0
220
0
230
1
0
LINE
5
D8
100
AcDbEntity
8
1
62
256
6
ByLayer
370
-1
48
1
60
0
100
AcDbLine
10
101.144818
20
19.599811
30
0
11
110.851799
21
19.940081
31
0
39
0
210
0
220
0
230
1
0
LINE
5
D9
100
AcDbEntity
8
1
62
256
6
ByLayer
370
-1
48
1
60
0
100
AcDbLine
10
102.8001
20
17.792663
30
0
11
104.002241
21
16.667366
31
0
39
0
210
0
220
0
230
1
0
LINE
5
DA
100
AcDbEntity
8
1
62
256
6
ByLayer
370
-1
48
1
60
0
100
AcDbLine
10
102.574499
20
10.672963
30
0
11
102.993328
21
11.123818
31
0
39
0
210
0
220
0
230
1
0
LINE
5
DB
100
AcDbEntity
8
1
62
256
6
ByLayer
370
-1
48
1
60
0
100
AcDbLine
10
109.848497
20
17.852358
30
0
11
107.060851
21
17.75464
31
0
39
0
210
0
220
0
230
1
0
LINE
5
DC
100
AcDbEntity
8
1
62
256
6
ByLayer
370
-1
48
1
60
0
100
AcDbLine
10
101.167905
20
18.975215
30
0
11
110.874886
21
19.315485
31
0
39
0
210
0
220
0
230
1
0
LINE
5
DD
100
AcDbEntity
8
1
62
256
6
ByLayer
370
-1
48
1
60
0
100
AcDbLine
10
101.165853
20
18.408911
30
0
11
110.872835
21
18.749181
31
0
39
0
210
0
220
0
230
1
0
LINE
5
DE
100
AcDbEntity
8
1
62
256
6
ByLayer
370
-1
48
1
60
0
100
AcDbLine
10
112.602674
20
8.874374
30
0
11
112.263698
21
18.618434
31
0
39
0
210
0
220
0
230
1
0
LINE
5
DF
100
AcDbEntity
8
1
62
256
6
ByLayer
370
-1
48
1
60
0
100
AcDbLine
10
101.166062
20
18.38025
30
0
11
110.873044
21
18.72052
31
0
39
0
210
0
220
0
230
1
0
LINE
5
E0
100
AcDbEntity
8
1
62
256
6
ByLayer
370
-1
48
1
60
0
100
AcDbLine
10
102.357057
20
17.524558
30
0
11
102.495717
21
17.011073
31
0
39
0
210
0
220
0
230
1
0
LINE
5
E1
100
AcDbEntity
8
1
62
256
6
ByLayer
370
-1
48
1
60
0
100
AcDbLine
10
110.211749
20
14.686626
30
0
11
110.114402
21
17.48492
31
0
39
0
210
0
220
0
230
1
0
LINE
5
E2
100
AcDbEntity
8
1
62
256
6
ByLayer
370
-1
48
1
60
0
100
AcDbLine
10
110.333661
20
14.691037
30
0
11
110.236315
21
17.489331
31
0
39
0
210
0
220
0
230
1
0
LINE
5
E3
100
AcDbEntity
8
1
62
256
6
ByLayer
370
-1
48
1
60
0
100
AcDbLine
10
112.54217
20
8.872211
30
0
11
112.203195
21
18.616271
31
0
39
0
210
0
220
0
230
1
0
LINE
5
E4
100
AcDbEntity
8
1
62
256
6
ByLayer
370
-1
48
1
60
0
100
AcDbLine
10
101.161688
20
19.204122
30
0
11
110.868669
21
19.544393
31
0
39
0
210
0
220
0
230
1
0
LINE
5
E5
100
AcDbEntity
8
1
62
256
6
ByLayer
370
-1
48
1
60
0
100
AcDbLine
10
103.12303
20
16.752018
30
0
11
103.128274
21
16.7326
31
0
39
0
210
0
220
0
230
1
0
LINE
5
E6
100
AcDbEntity
8
SK1
62
256
6
ByLayer
370
-1
48
1
60
0
100
AcDbLine
10
-67.633814
20
-8.290603
30
0
11
-67.633814
21
-19.639667
31
0
39
0
210
0
220
0
230
1
0
LINE
5
E7
100
AcDbEntity
8
SK1
62
256
6
ByLayer
370
-1
48
1
60
0
100
AcDbLine
10
-67.633814
20
19.639667
30
0
11
-67.633814
21
8.290603
31
0
39
0
210
0
220
0
230
1
0
LINE
5
E8
100
AcDbEntity
8
SK1
62
256
6
ByLayer
370
-1
48
1
60
0
100
AcDbLine
10
-68.6
20
-19.996
30
0
11
-68.6
21
-9.102615
31
0
39
0
210
0
220
0
230
1
0
LINE
5
E9
100
AcDbEntity
8
SK1
62
256
6
ByLayer
370
-1
48
1
60
0
100
AcDbLine
10
-68.6
20
9.102615
30
0
11
-68.6
21
19.996
31
0
39
0
210
0
220
0
230
1
0
LINE
5
EA
100
AcDbEntity
8
SK1
62
256
6
ByLayer
370
-1
48
1
60
0
100
AcDbLine
10
-6.5
20
9.102615
30
0
11
-6.5
21
-9.102615
31
0
39
0
210
0
220
0
230
1
0
LINE
5
EB
100
AcDbEntity
8
SK1
62
256
6
ByLayer
370
-1
48
1
60
0
100
AcDbLine
10
-70
20
-6.623111
30
0
11
-70
21
-18.996
31
0
39
0
210
0
220
0
230
1
0
LINE
5
EC
100
AcDbEntity
8
SK1
62
256
6
ByLayer
370
-1
48
1
60
0
100
AcDbLine
10
-70
20
18.996
30
0
11
-70
21
6.623111
31
0
39
0
210
0
220
0
230
1
0
LINE
5
ED
100
AcDbEntity
8
SK1
62
256
6
ByLayer
370
-1
48
1
60
0
100
AcDbLine
10
-66.6
20
9.102615
30
0
11
-66.6
21
19.996
31
0
39
0
210
0
220
0
230
1
0
LINE
5
EE
100
AcDbEntity
8
SK1
62
256
6
ByLayer
370
-1
48
1
60
0
100
AcDbLine
10
-66.6
20
-19.996
30
0
11
-66.6
21
-9.102615
31
0
39
0
210
0
220
0
230
1
0
LINE
5
EF
100
AcDbEntity
8
SK1
62
256
6
ByLayer
370
-1
48
1
60
0
100
AcDbLine
10
-0.15
20
19.75
30
0
11
-0.15
21
-19.75
31
0
39
0
210
0
220
0
230
1
0
LINE
5
F0
100
AcDbEntity
8
SK1
62
256
6
ByLayer
370
-1
48
1
60
0
100
AcDbLine
10
-2
20
-19.996
30
0
11
-2
21
19.996
31
0
39
0
210
0
220
0
230
1
0
LINE
5
F1
100
AcDbEntity
8
SK1
62
256
6
ByLayer
370
-1
48
1
60
0
100
AcDbLine
10
-66.6
20
9.102615
30
0
11
-6.5
21
9.102615
31
0
39
0
210
0
220
0
230
1
0
LINE
5
F2
100
AcDbEntity
8
SK1
62
256
6
ByLayer
370
-1
48
1
60
0
100
AcDbLine
10
-70
20
6.623111
30
0
11
-70
21
-6.623111
31
0
39
0
210
0
220
0
230
1
0
LINE
5
F3
100
AcDbEntity
8
SK1
62
256
6
ByLayer
370
-1
48
1
60
0
100
AcDbLine
10
-68.6
20
-9.102615
30
0
11
-69
21
-9.102615
31
0
39
0
210
0
220
0
230
1
0
LINE
5
F4
100
AcDbEntity
8
SK1
62
256
6
ByLayer
370
-1
48
1
60
0
100
AcDbLine
10
-69
20
9.102615
30
0
11
-68.6
21
9.102615
31
0
39
0
210
0
220
0
230
1
0
LINE
5
F5
100
AcDbEntity
8
SK1
62
256
6
ByLayer
370
-1
48
1
60
0
100
AcDbLine
10
-1.552821
20
19.787477
30
0
11
-1.552821
21
-19.787477
31
0
39
0
210
0
220
0
230
1
0
LINE
5
F6
100
AcDbEntity
8
SK1
62
256
6
ByLayer
370
-1
48
1
60
0
100
AcDbLine
10
-6.5
20
-9.102615
30
0
11
-66.6
21
-9.102615
31
0
39
0
210
0
220
0
230
1
0
LINE
5
F7
100
AcDbEntity
8
SK1
62
256
6
ByLayer
370
-1
48
1
60
0
100
AcDbLine
10
-68.516223
20
-8.873042
30
0
11
-68.516223
21
-19.892544
31
0
39
0
210
0
220
0
230
1
0
LINE
5
F8
100
AcDbEntity
8
SK1
62
256
6
ByLayer
370
-1
48
1
60
0
100
AcDbLine
10
-68.516223
20
19.892544
30
0
11
-68.516223
21
8.873042
31
0
39
0
210
0
220
0
230
1
0
LINE
5
F9
100
AcDbEntity
8
SK1
62
256
6
ByLayer
370
-1
48
1
60
0
100
AcDbLine
10
-69
20
-9.102615
30
0
11
-69
21
-19.996
31
0
39
0
210
0
220
0
230
1
0
LINE
5
FA
100
AcDbEntity
8
SK1
62
256
6
ByLayer
370
-1
48
1
60
0
100
AcDbLine
10
-69
20
19.996
30
0
11
-69
21
9.102615
31
0
39
0
210
0
220
0
230
1
0
LINE
5
FB
100
AcDbEntity
8
SK1
62
256
6
ByLayer
370
-1
48
1
60
0
100
AcDbLine
10
-1.383773
20
19.75
30
0
11
-1.383773
21
-19.75
31
0
39
0
210
0
220
0
230
1
0
MTEXT
5
285
100
AcDbEntity
8
SK6
62
256
6
ByLayer
370
-1
48
1
60
0
100
AcDbMText
10
0.79375
20
-80.79375
30
0
210
0
220
0
230
1
1
\W00.754;\fsimplex.shx,bigfont.shx;880-D4000L40-02 
40
3.175
41
0
44
1.084337
50
0
71
7
72
5
7
DEFAULT
0
DIMENSION
5
2B5
100
AcDbEntity
8
SK2
62
256
6
ByLayer
370
-3
48
1
60
0
100
AcDbDimension
2
DimnDraft3D1
10
113
20
-63.61955
30
0
11
21.5
21
-63.61955
31
0
70
32
71
5
72
1
41
1
210
0
220
0
230
1
3
Standard
100
AcDbAlignedDimension
13
-70
23
-21.5875
33
0
14
113
24
-21.5875
34
0
50
0
100
AcDbRotatedDimension
1001
ACAD
1000
DSTYLE
1002
{
1070
   279
1070
     0
1070
   172
1070
     1
1070
   173
1070
     1
1070
   340
1005
286
1070
   271
1070
     1
1070
   272
1070
     2
1070
    77
1070
     1
1070
    73
1070
     0
1070
   171
1070
     3
1070
   274
1070
     4
1070
   177
1070
   150
1070
   176
1070
     9
1070
   178
1070
    43
1070
    78
1070
     8
1070
    48
1040
-0.005
1070
    41
1041
4.175
1070
   147
1041
2.25
1070
    42
1041
1.5875
1070
    44
1041
3.175
1070
   140
1041
4.5
1070
   343
1005
0
1070
   344
1005
0
1002
}
0
DIMENSION
5
2BF
100
AcDbEntity
8
SK2
62
256
6
ByLayer
370
-3
48
1
60
0
100
AcDbDimension
2
DimnDraft3D2
10
0
20
-51.6508
30
0
11
-35
21
-51.6508
31
0
70
32
71
5
72
1
41
1
210
0
220
0
230
1
3
Standard
100
AcDbAlignedDimension
13
-70
23
-21.5875
33
0
14
0
24
-26.3375
34
0
50
0
100
AcDbRotatedDimension
1001
ACAD
1000
DSTYLE
1002
{
1070
   279
1070
     0
1070
   172
1070
     1
1070
   173
1070
     1
1070
   340
1005
286
1070
   271
1070
     1
1070
   272
1070
     2
1070
    77
1070
     1
1070
    73
1070
     0
1070
   171
1070
     3
1070
   274
1070
     4
1070
   177
1070
   150
1070
   176
1070
     9
1070
   178
1070
    43
1070
    78
1070
     8
1070
    48
1040
-0.005
1070
    41
1041
4.175
1070
   147
1041
2.25
1070
    42
1041
1.5875
1070
    44
1041
3.175
1070
   140
1041
4.5
1070
   343
1005
0
1070
   344
1005
0
1002
}
0
DIMENSION
5
2CA
100
AcDbEntity
8
2
62
256
6
ByLayer
370
-3
48
1
60
0
100
AcDbDimension
2
DimnDraft3D3
10
113
20
-51.6508
30
0
11
56.5
21
-51.6508
31
0
70
32
71
5
72
1
41
1
210
0
220
0
230
1
3
Standard
100
AcDbAlignedDimension
13
0
23
-26.3375
33
0
14
113
24
-21.5875
34
0
50
0
100
AcDbRotatedDimension
1001
ACAD
1000
DSTYLE
1002
{
1070
   279
1070
     0
1070
   172
1070
     1
1070
   173
1070
     1
1070
   340
1005
286
1070
   271
1070
     1
1070
   272
1070
     2
1070
    77
1070
     1
1070
    73
1070
     0
1070
   171
1070
     3
1070
   274
1070
     4
1070
   177
1070
   150
1070
   176
1070
     9
1070
   178
1070
    43
1070
    78
1070
     8
1070
    48
1040
-0.005
1070
    41
1041
4.175
1070
   147
1041
2.25
1070
    42
1041
1.5875
1070
    44
1041
3.175
1070
   140
1041
4.5
1070
   343
1005
0
1070
   344
1005
0
1002
}
0
DIMENSION
5
2D4
100
AcDbEntity
8
SK2
62
256
6
ByLayer
370
-3
48
1
60
0
100
AcDbDimension
2
DimnDraft3D4
10
113
20
-41.6508
30
0
11
71
21
-41.6508
31
0
70
32
71
5
72
1
41
1
210
0
220
0
230
1
3
Standard
100
AcDbAlignedDimension
13
29
23
-11.5875
33
0
14
113
24
-21.5875
34
0
50
0
100
AcDbRotatedDimension
1001
ACAD
1000
DSTYLE
1002
{
1070
   279
1070
     0
1070
   172
1070
     1
1070
   173
1070
     1
1070
   340
1005
286
1070
   271
1070
     1
1070
   272
1070
     2
1070
    77
1070
     1
1070
    73
1070
     0
1070
   171
1070
     3
1070
   274
1070
     4
1070
   177
1070
   150
1070
   176
1070
     9
1070
   178
1070
    43
1070
    78
1070
     8
1070
    48
1040
-0.005
1070
    41
1041
4.175
1070
   147
1041
2.25
1070
    42
1041
1.5875
1070
    44
1041
3.175
1070
   140
1041
4.5
1070
   343
1005
0
1070
   344
1005
0
1002
}
0
DIMENSION
5
2DF
100
AcDbEntity
8
SK2
62
256
6
ByLayer
370
-3
48
1
60
0
100
AcDbDimension
2
DimnDraft3D5
10
-81.9
20
-20
30
0
11
-82.1
21
3.884211
31
0
70
33
71
5
72
1
41
1
210
0
220
0
230
1
3
Standard
100
AcDbAlignedDimension
13
-71.5875
23
20
33
0
14
-71.5875
24
-20
34
0
1001
ACAD
1000
DSTYLE
1002
{
1070
   279
1070
     0
1070
    74
1070
     0
1070
   173
1070
     1
1070
   340
1005
286
1070
   271
1070
     2
1070
   272
1070
     2
1070
    77
1070
     1
1070
    73
1070
     0
1070
   171
1070
     3
1070
   274
1070
     4
1070
   177
1070
   150
1070
   176
1070
     9
1070
   178
1070
    43
1070
    78
1070
     8
1070
    48
1040
-0.005
1070
    41
1041
4.175
1070
   147
1041
2.25
1070
    42
1041
1.5875
1070
    44
1041
3.175
1070
   140
1041
4.5
1070
   343
1005
0
1070
   344
1005
0
1002
}
0
DIMENSION
5
2EA
100
AcDbEntity
8
SK2
62
256
6
ByLayer
370
-3
48
1
60
0
100
AcDbDimension
2
DimnDraft3D6
10
-91.9
20
24.75
30
0
11
-92.1
21
1.35
31
0
70
33
71
5
72
1
41
1
210
0
220
0
230
1
3
Standard
100
AcDbAlignedDimension
13
-1.5875
23
-24.75
33
0
14
-1.5875
24
24.75
34
0
1001
ACAD
1000
DSTYLE
1002
{
1070
   279
1070
     0
1070
    74
1070
     0
1070
   173
1070
     1
1070
   340
1005
286
1070
   271
1070
     1
1070
   272
1070
     2
1070
    77
1070
     1
1070
    73
1070
     0
1070
   171
1070
     3
1070
   274
1070
     4
1070
   177
1070
   150
1070
   176
1070
     9
1070
   178
1070
    43
1070
    78
1070
     8
1070
    48
1040
-0.005
1070
    41
1041
4.175
1070
   147
1041
2.25
1070
    42
1041
1.5875
1070
    44
1041
3.175
1070
   140
1041
4.5
1070
   343
1005
0
1070
   344
1005
0
1002
}
0
DIMENSION
5
2F5
100
AcDbEntity
8
2
62
256
6
ByLayer
370
-3
48
1
60
0
100
AcDbDimension
2
DimnDraft3D7
10
143.15
20
-20
30
0
11
136.6
21
3.884211
31
0
70
33
71
5
72
1
41
1
210
0
220
0
230
1
3
Standard
100
AcDbAlignedDimension
13
114.5875
23
20
33
0
14
114.5875
24
-20
34
0
1001
ACAD
1000
DSTYLE
1002
{
1070
   279
1070
     0
1070
    74
1070
     0
1070
   173
1070
     1
1070
   340
1005
286
1070
   271
1070
     2
1070
   272
1070
     2
1070
    77
1070
     1
1070
    73
1070
     0
1070
   171
1070
     3
1070
   274
1070
     4
1070
   177
1070
   150
1070
   176
1070
     9
1070
   178
1070
    43
1070
    78
1070
     8
1070
    48
1040
-0.005
1070
    41
1041
4.175
1070
   147
1041
2.25
1070
    42
1041
1.5875
1070
    44
1041
3.175
1070
   140
1041
4.5
1070
   343
1005
0
1070
   344
1005
0
1002
}
0
ENDSEC
0
SECTION
2
OBJECTS
0
DICTIONARY
5
326
330
0
100
AcDbDictionary
280
0
281
1
3
ACAD_GROUP
350
327
3
ACAD_MLINESTYLE
350
328
0
DICTIONARY
5
327
330
0
100
AcDbDictionary
280
0
281
1
0
DICTIONARY
5
328
330
0
100
AcDbDictionary
280
0
281
1
3
Standard
350
18
0
MLINESTYLE
5
18
330
328
100
AcDbMlineStyle
2
Standard
70
0
3

62
256
51
90
52
90
71
2
49
-0.5
62
256
6
ByLayer
49
0.5
62
256
6
ByLayer
0
RASTERVARIABLES
5
314
330

100
AcDbRasterVariables
90
0
70
1
71
1
72
1
0
ENDSEC
0
EOF
