0
SECTION
2
HEADER
9
$ACADVER
1
AC1015
9
$DWGCODEPAGE
3
ANSI_1252
9
$HANDSEED
5
348
9
$ANGBASE
50
0
9
$ANGDIR
70
0
9
$ATTMODE
70
1
9
$AUNITS
70
0
9
$AUPREC
70
0
9
$CECOLOR
62
256
9
$CELTSCALE
40
1
9
$CELTYPE
6
ByLayer
9
$CELWEIGHT
370
-1
9
$CLAYER
8
0
9
$CMLJUST
70
0
9
$CMLSCALE
40
1
9
$CMLSTYLE
2
Standard
9
$DIMSTYLE
2
Standard
9
$TEXTSIZE
40
0.2
9
$TEXTSTYLE
7
Standard
9
$LUNITS
70
2
9
$LUPREC
70
4
9
$EXTNAMES
290
1
9
$INSUNITS
70
4
9
$LTSCALE
40
1
9
$LWDISPLAY
290
0
9
$PDMODE
70
0
9
$PDSIZE
40
0
9
$PLINEGEN
70
0
0
ENDSEC
0
SECTION
2
CLASSES
0
CLASS
1
RASTERVARIABLES
2
AcDbRasterVariables
3
ISM
90
0
280
0
281
0
0
ENDSEC
0
SECTION
2
TABLES
0
TABLE
2
VPORT
5
33e
100
AcDbSymbolTable
0
VPORT
5
1
100
AcDbSymbolTableRecord
100
AcDbViewportTableRecord
2
*Active
70
0
10
0
20
0
11
1
21
1
12
-1
22
1
13
0
23
0
14
0.5
24
0.5
15
10
25
10
16
0
26
0
36
1
17
0
27
0
37
0
0
ENDTAB
0
TABLE
2
LTYPE
5
33f
100
AcDbSymbolTable
0
LTYPE
5
14
100
AcDbSymbolTableRecord
100
AcDbLinetypeTableRecord
70
0
2
ByBlock
3

72
65
73
0
40
0
0
LTYPE
5
15
100
AcDbSymbolTableRecord
100
AcDbLinetypeTableRecord
70
0
2
ByLayer
3

72
65
73
0
40
0
0
LTYPE
5
16
100
AcDbSymbolTableRecord
100
AcDbLinetypeTableRecord
70
0
2
CONTINUOUS
3
Solid line
72
65
73
0
40
0
0
LTYPE
5
3B
100
AcDbSymbolTableRecord
100
AcDbLinetypeTableRecord
70
0
2
DASHED
3
__ __ __ __ __ __ __ __ __
72
65
73
2
40
25.72
49
12.86
74
0
49
-12.86
74
0
0
LTYPE
5
3C
100
AcDbSymbolTableRecord
100
AcDbLinetypeTableRecord
70
0
2
HIDDEN
3
_ _ _ _ _ _ _ _ _ _ _ _ _ _ _
72
65
73
2
40
0.5
49
0.25
74
0
49
-0.25
74
0
0
LTYPE
5
3D
100
AcDbSymbolTableRecord
100
AcDbLinetypeTableRecord
70
0
2
PHANTOM
3
____ _ _ ____ _ _ _____ _ _ ____
72
65
73
6
40
50.5
49
18
74
0
49
-6.5
74
0
49
6.5
74
0
49
-6.5
74
0
49
6.5
74
0
49
-6.5
74
0
0
LTYPE
5
3E
100
AcDbSymbolTableRecord
100
AcDbLinetypeTableRecord
70
0
2
CENTER
3
____ _ ____ _ ____ _ ____
72
65
73
4
40
47.5
49
22
74
0
49
-8.5
74
0
49
8.5
74
0
49
-8.5
74
0
0
LTYPE
5
3F
100
AcDbSymbolTableRecord
100
AcDbLinetypeTableRecord
70
0
2
DOT
3
.........................
72
65
73
2
40
10
49
0
74
0
49
-10
74
0
0
LTYPE
5
40
100
AcDbSymbolTableRecord
100
AcDbLinetypeTableRecord
70
0
2
DASHDOT
3
_._._._._._._._._._._._._._._._.
72
65
73
4
40
70
49
31
74
0
49
-13
74
0
49
13
74
0
49
-13
74
0
0
ENDTAB
0
TABLE
2
LAYER
5
340
100
AcDbSymbolTable
0
LAYER
5
10
100
AcDbSymbolTableRecord
100
AcDbLayerTableRecord
2
0
70
0
62
7
6
CONTINUOUS
290
1
370
-3
390
0
0
LAYER
5
42
100
AcDbSymbolTableRecord
100
AcDbLayerTableRecord
2
81
70
0
62
-3
6
CONTINUOUS
290
1
370
-3
390
0
0
LAYER
5
44
100
AcDbSymbolTableRecord
100
AcDbLayerTableRecord
2
80
70
0
62
-6
6
CONTINUOUS
290
1
370
-3
390
0
0
LAYER
5
57
100
AcDbSymbolTableRecord
100
AcDbLayerTableRecord
2
1
70
0
62
4
6
CONTINUOUS
290
1
370
-3
390
0
0
LAYER
5
62
100
AcDbSymbolTableRecord
100
AcDbLayerTableRecord
2
4
70
0
62
-2
6
CENTER
290
1
370
-3
390
0
0
LAYER
5
2D7
100
AcDbSymbolTableRecord
100
AcDbLayerTableRecord
2
2
70
0
62
7
6
CONTINUOUS
290
1
370
-3
390
0
0
LAYER
5
32a
100
AcDbSymbolTableRecord
100
AcDbLayerTableRecord
2
SK1
70
0
62
4
6
CONTINUOUS
290
1
370
-3
390
0
0
LAYER
5
32b
100
AcDbSymbolTableRecord
100
AcDbLayerTableRecord
2
SK4
70
0
62
2
6
CENTER
290
1
370
-3
390
0
0
LAYER
5
32c
100
AcDbSymbolTableRecord
100
AcDbLayerTableRecord
2
SK6
70
0
62
5
6
CONTINUOUS
290
1
370
-3
390
0
0
LAYER
5
32d
100
AcDbSymbolTableRecord
100
AcDbLayerTableRecord
2
SK2
70
0
62
7
6
CONTINUOUS
290
1
370
-3
390
0
0
ENDTAB
0
TABLE
2
STYLE
5
341
100
AcDbSymbolTable
0
STYLE
5
11
100
AcDbSymbolTableRecord
100
AcDbTextStyleTableRecord
2
Standard
3
txt
70
0
71
0
40
0
41
1
42
0
50
0
0
STYLE
5
29B
100
AcDbSymbolTableRecord
100
AcDbTextStyleTableRecord
2
DEFAULT
3
simplex.shx
70
0
71
0
40
0
41
1
42
0
50
0
0
STYLE
5
2BE
100
AcDbSymbolTableRecord
100
AcDbTextStyleTableRecord
2
DWGDirectTextStyle
3
SIMPLEX
70
0
71
0
40
0
41
1
42
0
50
0
0
ENDTAB
0
TABLE
2
DIMSTYLE
5
342
100
AcDbSymbolTable
100
AcDbDimStyleTable
0
DIMSTYLE
105
27
100
AcDbSymbolTableRecord
100
AcDbDimStyleTableRecord
2
Standard
70
0
3
<>
41
0.18
42
0.0625
44
0.18
140
0.18
147
0.09
73
0
74
0
77
1
271
2
275
0
278
52
280
0
340
11
0
ENDTAB
0
TABLE
2
VIEW
5
343
100
AcDbSymbolTable
0
ENDTAB
0
TABLE
2
UCS
5
344
100
AcDbSymbolTable
0
ENDTAB
0
TABLE
2
APPID
5
345
100
AcDbSymbolTable
0
APPID
5
12
100
AcDbSymbolTableRecord
100
AcDbRegAppTableRecord
2
ACAD
70
0
0
ENDTAB
0
TABLE
2
BLOCK_RECORD
5
346
100
AcDbSymbolTable
0
BLOCK_RECORD
5
1F
100
AcDbSymbolTableRecord
100
AcDbBlockTableRecord
2
*Model_Space
340
0
70
0
0
BLOCK_RECORD
5
1B
100
AcDbSymbolTableRecord
100
AcDbBlockTableRecord
2
*Paper_Space
340
0
70
0
0
BLOCK_RECORD
5
23
100
AcDbSymbolTableRecord
100
AcDbBlockTableRecord
2
*Paper_Space0
340
0
70
0
0
BLOCK_RECORD
5
2C0
100
AcDbSymbolTableRecord
100
AcDbBlockTableRecord
2
DimnDraft3D1
340
0
70
0
0
BLOCK_RECORD
5
2CB
100
AcDbSymbolTableRecord
100
AcDbBlockTableRecord
2
DimnDraft3D2
340
0
70
0
0
BLOCK_RECORD
5
2D5
100
AcDbSymbolTableRecord
100
AcDbBlockTableRecord
2
DimnDraft3D3
340
0
70
0
0
BLOCK_RECORD
5
2E0
100
AcDbSymbolTableRecord
100
AcDbBlockTableRecord
2
DimnDraft3D4
340
0
70
0
0
BLOCK_RECORD
5
2EA
100
AcDbSymbolTableRecord
100
AcDbBlockTableRecord
2
DimnDraft3D5
340
0
70
0
0
BLOCK_RECORD
5
2F5
100
AcDbSymbolTableRecord
100
AcDbBlockTableRecord
2
DimnDraft3D6
340
0
70
0
0
BLOCK_RECORD
5
300
100
AcDbSymbolTableRecord
100
AcDbBlockTableRecord
2
DimnDraft3D7
340
0
70
0
0
ENDTAB
0
ENDSEC
0
SECTION
2
BLOCKS
0
BLOCK
5
20
100
AcDbEntity
8
0
100
AcDbBlockBegin
2
*Model_Space
70
0
10
0
20
0
30
0
3
*Model_Space
0
ENDBLK
5
21
100
AcDbEntity
8
0
100
AcDbBlockEnd
0
BLOCK
5
1C
100
AcDbEntity
8
0
100
AcDbBlockBegin
2
*Paper_Space
70
0
10
0
20
0
30
0
3
*Paper_Space
0
ENDBLK
5
1D
100
AcDbEntity
8
0
100
AcDbBlockEnd
0
BLOCK
5
24
100
AcDbEntity
8
0
100
AcDbBlockBegin
2
*Paper_Space0
70
0
10
0
20
0
30
0
3
*Paper_Space0
0
ENDBLK
5
25
100
AcDbEntity
8
0
100
AcDbBlockEnd
0
BLOCK
5
2C8
100
AcDbEntity
8
0
100
AcDbBlockBegin
2
DimnDraft3D1
70
0
10
0
20
0
30
0
3
DimnDraft3D1
0
MTEXT
5
2C1
100
AcDbEntity
8
SK2
62
256
6
ByLayer
370
-1
48
1
60
0
100
AcDbMText
10
68.344079
20
-60.5258
30
0
210
0
220
0
230
1
1
\W01.000;\fsimplex.shx,bigfont.shx;(292) 
40
4.5
41
0
44
1.084337
50
0
71
7
72
5
7
DEFAULT
0
LINE
5
2C3
100
AcDbEntity
8
SK2
62
256
6
ByLayer
370
-1
48
1
60
0
100
AcDbLine
10
-70
20
-21.5875
30
0
11
-70
21
-66.79455
31
0
39
0
210
0
220
0
230
1
0
LINE
5
2C4
100
AcDbEntity
8
SK2
62
256
6
ByLayer
370
-1
48
1
60
0
100
AcDbLine
10
222
20
-20.5875
30
0
11
222
21
-66.79455
31
0
39
0
210
0
220
0
230
1
0
LINE
5
2C5
100
AcDbEntity
8
SK2
62
256
6
ByLayer
370
-1
48
1
60
0
100
AcDbLine
10
-70
20
-63.61955
30
0
11
222
21
-63.61955
31
0
39
0
210
0
220
0
230
1
0
SOLID
5
2C6
100
AcDbEntity
8
SK2
62
256
6
ByLayer
370
-1
48
1
60
0
100
AcDbTrace
10
-70
20
-63.61955
30
0
11
-65.825003
21
-62.693975
31
0
12
-65.824997
22
-64.545125
32
0
13
-70
23
-63.61955
33
0
39
0
210
0
220
0
230
1
0
SOLID
5
2C7
100
AcDbEntity
8
SK2
62
256
6
ByLayer
370
-1
48
1
60
0
100
AcDbTrace
10
222
20
-63.61955
30
0
11
217.825003
21
-64.545125
31
0
12
217.824997
22
-62.693975
32
0
13
222
23
-63.61955
33
0
39
0
210
0
220
0
230
1
0
ENDBLK
5
2C9
100
AcDbEntity
8
0
100
AcDbBlockEnd
0
BLOCK
5
2D2
100
AcDbEntity
8
0
100
AcDbBlockBegin
2
DimnDraft3D2
70
0
10
0
20
0
30
0
3
DimnDraft3D2
0
MTEXT
5
2CC
100
AcDbEntity
8
SK2
62
256
6
ByLayer
370
-1
48
1
60
0
100
AcDbMText
10
-36.503947
20
-50.5258
30
0
210
0
220
0
230
1
1
\W01.000;\fsimplex.shx,bigfont.shx;70 
40
4.5
41
0
44
1.084337
50
0
71
7
72
5
7
DEFAULT
0
LINE
5
2CD
100
AcDbEntity
8
SK2
62
256
6
ByLayer
370
-1
48
1
60
0
100
AcDbLine
10
-70
20
-21.5875
30
0
11
-70
21
-54.8258
31
0
39
0
210
0
220
0
230
1
0
LINE
5
2CE
100
AcDbEntity
8
SK2
62
256
6
ByLayer
370
-1
48
1
60
0
100
AcDbLine
10
0
20
-26.3375
30
0
11
0
21
-54.8258
31
0
39
0
210
0
220
0
230
1
0
LINE
5
2CF
100
AcDbEntity
8
SK2
62
256
6
ByLayer
370
-1
48
1
60
0
100
AcDbLine
10
-70
20
-51.6508
30
0
11
0
21
-51.6508
31
0
39
0
210
0
220
0
230
1
0
SOLID
5
2D0
100
AcDbEntity
8
SK2
62
256
6
ByLayer
370
-1
48
1
60
0
100
AcDbTrace
10
-70
20
-51.6508
30
0
11
-65.825003
21
-50.725225
31
0
12
-65.824997
22
-52.576375
32
0
13
-70
23
-51.6508
33
0
39
0
210
0
220
0
230
1
0
SOLID
5
2D1
100
AcDbEntity
8
SK2
62
256
6
ByLayer
370
-1
48
1
60
0
100
AcDbTrace
10
0
20
-51.6508
30
0
11
-4.174997
21
-52.576375
31
0
12
-4.175003
22
-50.725225
32
0
13
0
23
-51.6508
33
0
39
0
210
0
220
0
230
1
0
ENDBLK
5
2D3
100
AcDbEntity
8
0
100
AcDbBlockEnd
0
BLOCK
5
2DD
100
AcDbEntity
8
0
100
AcDbBlockBegin
2
DimnDraft3D3
70
0
10
0
20
0
30
0
3
DimnDraft3D3
0
MTEXT
5
2D6
100
AcDbEntity
8
2
62
256
6
ByLayer
370
-1
48
1
60
0
100
AcDbMText
10
107.844079
20
-50.5258
30
0
210
0
220
0
230
1
1
\W01.000;\fsimplex.shx,bigfont.shx;222 
40
4.5
41
0
44
1.084337
50
0
71
7
72
5
7
DEFAULT
0
LINE
5
2D8
100
AcDbEntity
8
2
62
256
6
ByLayer
370
-1
48
1
60
0
100
AcDbLine
10
0
20
-26.3375
30
0
11
0
21
-54.8258
31
0
39
0
210
0
220
0
230
1
0
LINE
5
2D9
100
AcDbEntity
8
2
62
256
6
ByLayer
370
-1
48
1
60
0
100
AcDbLine
10
222
20
-20.5875
30
0
11
222
21
-54.8258
31
0
39
0
210
0
220
0
230
1
0
LINE
5
2DA
100
AcDbEntity
8
2
62
256
6
ByLayer
370
-1
48
1
60
0
100
AcDbLine
10
0
20
-51.6508
30
0
11
222
21
-51.6508
31
0
39
0
210
0
220
0
230
1
0
SOLID
5
2DB
100
AcDbEntity
8
2
62
256
6
ByLayer
370
-1
48
1
60
0
100
AcDbTrace
10
0
20
-51.6508
30
0
11
4.174997
21
-50.725225
31
0
12
4.175003
22
-52.576375
32
0
13
0
23
-51.6508
33
0
39
0
210
0
220
0
230
1
0
SOLID
5
2DC
100
AcDbEntity
8
2
62
256
6
ByLayer
370
-1
48
1
60
0
100
AcDbTrace
10
222
20
-51.6508
30
0
11
217.825003
21
-52.576375
31
0
12
217.824997
22
-50.725225
32
0
13
222
23
-51.6508
33
0
39
0
210
0
220
0
230
1
0
ENDBLK
5
2DE
100
AcDbEntity
8
0
100
AcDbBlockEnd
0
BLOCK
5
2E7
100
AcDbEntity
8
0
100
AcDbBlockBegin
2
DimnDraft3D4
70
0
10
0
20
0
30
0
3
DimnDraft3D4
0
MTEXT
5
2E1
100
AcDbEntity
8
SK2
62
256
6
ByLayer
370
-1
48
1
60
0
100
AcDbMText
10
122.169737
20
-40.5258
30
0
210
0
220
0
230
1
1
\W01.000;\fsimplex.shx,bigfont.shx;194 
40
4.5
41
0
44
1.084337
50
0
71
7
72
5
7
DEFAULT
0
LINE
5
2E2
100
AcDbEntity
8
SK2
62
256
6
ByLayer
370
-1
48
1
60
0
100
AcDbLine
10
28
20
-11.5875
30
0
11
28
21
-44.8258
31
0
39
0
210
0
220
0
230
1
0
LINE
5
2E3
100
AcDbEntity
8
SK2
62
256
6
ByLayer
370
-1
48
1
60
0
100
AcDbLine
10
222
20
-20.5875
30
0
11
222
21
-44.8258
31
0
39
0
210
0
220
0
230
1
0
LINE
5
2E4
100
AcDbEntity
8
SK2
62
256
6
ByLayer
370
-1
48
1
60
0
100
AcDbLine
10
28
20
-41.6508
30
0
11
222
21
-41.6508
31
0
39
0
210
0
220
0
230
1
0
SOLID
5
2E5
100
AcDbEntity
8
SK2
62
256
6
ByLayer
370
-1
48
1
60
0
100
AcDbTrace
10
28
20
-41.6508
30
0
11
32.174997
21
-40.725225
31
0
12
32.175003
22
-42.576375
32
0
13
28
23
-41.6508
33
0
39
0
210
0
220
0
230
1
0
SOLID
5
2E6
100
AcDbEntity
8
SK2
62
256
6
ByLayer
370
-1
48
1
60
0
100
AcDbTrace
10
222
20
-41.6508
30
0
11
217.825003
21
-42.576375
31
0
12
217.824997
22
-40.725225
32
0
13
222
23
-41.6508
33
0
39
0
210
0
220
0
230
1
0
ENDBLK
5
2E8
100
AcDbEntity
8
0
100
AcDbBlockEnd
0
BLOCK
5
2F2
100
AcDbEntity
8
0
100
AcDbBlockBegin
2
DimnDraft3D5
70
0
10
0
20
0
30
0
3
DimnDraft3D5
0
MTEXT
5
2EB
100
AcDbEntity
8
SK2
62
256
6
ByLayer
370
-1
48
1
60
0
100
AcDbMText
10
-80.975
20
5.009211
30
0
210
0
220
0
230
1
1
\W01.000;\fsimplex.shx,bigfont.shx;40 
40
4.5
41
0
44
1.084337
50
90
71
7
72
5
7
DEFAULT
0
MTEXT
5
2EC
100
AcDbEntity
8
SK2
62
256
6
ByLayer
370
-1
48
1
60
0
100
AcDbMText
10
-80.975
20
-8.490789
30
0
210
0
220
0
230
1
1
\W01.000;\fsimplex.shx,bigfont.shx;%%c 
40
4.5
41
0
44
1.084337
50
90
71
7
72
5
7
DEFAULT
0
LINE
5
2ED
100
AcDbEntity
8
SK2
62
256
6
ByLayer
370
-1
48
1
60
0
100
AcDbLine
10
-71.5875
20
20
30
0
11
-81.9
21
20
31
0
39
0
210
0
220
0
230
1
0
LINE
5
2EE
100
AcDbEntity
8
SK2
62
256
6
ByLayer
370
-1
48
1
60
0
100
AcDbLine
10
-71.5875
20
-20
30
0
11
-81.9
21
-20
31
0
39
0
210
0
220
0
230
1
0
LINE
5
2EF
100
AcDbEntity
8
SK2
62
256
6
ByLayer
370
-1
48
1
60
0
100
AcDbLine
10
-78.725
20
20
30
0
11
-78.725
21
-20
31
0
39
0
210
0
220
0
230
1
0
SOLID
5
2F0
100
AcDbEntity
8
SK2
62
256
6
ByLayer
370
-1
48
1
60
0
100
AcDbTrace
10
-78.725
20
20
30
0
11
-77.799425
21
15.825003
31
0
12
-79.650575
22
15.824997
32
0
13
-78.725
23
20
33
0
39
0
210
0
220
0
230
1
0
SOLID
5
2F1
100
AcDbEntity
8
SK2
62
256
6
ByLayer
370
-1
48
1
60
0
100
AcDbTrace
10
-78.725
20
-20
30
0
11
-79.650575
21
-15.825003
31
0
12
-77.799425
22
-15.824997
32
0
13
-78.725
23
-20
33
0
39
0
210
0
220
0
230
1
0
ENDBLK
5
2F3
100
AcDbEntity
8
0
100
AcDbBlockEnd
0
BLOCK
5
2FD
100
AcDbEntity
8
0
100
AcDbBlockBegin
2
DimnDraft3D6
70
0
10
0
20
0
30
0
3
DimnDraft3D6
0
MTEXT
5
2F6
100
AcDbEntity
8
SK2
62
256
6
ByLayer
370
-1
48
1
60
0
100
AcDbMText
10
-90.975
20
2.475
30
0
210
0
220
0
230
1
1
\W01.000;\fsimplex.shx,bigfont.shx;49.5 
40
4.5
41
0
44
1.084337
50
90
71
7
72
5
7
DEFAULT
0
MTEXT
5
2F7
100
AcDbEntity
8
SK2
62
256
6
ByLayer
370
-1
48
1
60
0
100
AcDbMText
10
-90.975
20
-11.025
30
0
210
0
220
0
230
1
1
\W01.000;\fsimplex.shx,bigfont.shx;%%c 
40
4.5
41
0
44
1.084337
50
90
71
7
72
5
7
DEFAULT
0
LINE
5
2F8
100
AcDbEntity
8
SK2
62
256
6
ByLayer
370
-1
48
1
60
0
100
AcDbLine
10
-1.5875
20
-24.75
30
0
11
-91.9
21
-24.75
31
0
39
0
210
0
220
0
230
1
0
LINE
5
2F9
100
AcDbEntity
8
SK2
62
256
6
ByLayer
370
-1
48
1
60
0
100
AcDbLine
10
-1.5875
20
24.75
30
0
11
-91.9
21
24.75
31
0
39
0
210
0
220
0
230
1
0
LINE
5
2FA
100
AcDbEntity
8
SK2
62
256
6
ByLayer
370
-1
48
1
60
0
100
AcDbLine
10
-88.725
20
-24.75
30
0
11
-88.725
21
24.75
31
0
39
0
210
0
220
0
230
1
0
SOLID
5
2FB
100
AcDbEntity
8
SK2
62
256
6
ByLayer
370
-1
48
1
60
0
100
AcDbTrace
10
-88.725
20
-24.75
30
0
11
-89.650575
21
-20.575003
31
0
12
-87.799425
22
-20.574997
32
0
13
-88.725
23
-24.75
33
0
39
0
210
0
220
0
230
1
0
SOLID
5
2FC
100
AcDbEntity
8
SK2
62
256
6
ByLayer
370
-1
48
1
60
0
100
AcDbTrace
10
-88.725
20
24.75
30
0
11
-87.799425
21
20.575003
31
0
12
-89.650575
22
20.574997
32
0
13
-88.725
23
24.75
33
0
39
0
210
0
220
0
230
1
0
ENDBLK
5
2FE
100
AcDbEntity
8
0
100
AcDbBlockEnd
0
BLOCK
5
308
100
AcDbEntity
8
0
100
AcDbBlockBegin
2
DimnDraft3D7
70
0
10
0
20
0
30
0
3
DimnDraft3D7
0
MTEXT
5
301
100
AcDbEntity
8
2
62
256
6
ByLayer
370
-1
48
1
60
0
100
AcDbMText
10
246.725
20
5.246053
30
0
210
0
220
0
230
1
1
\W01.000;\fsimplex.shx,bigfont.shx;38 
40
4.5
41
0
44
1.084337
50
90
71
7
72
5
7
DEFAULT
0
MTEXT
5
302
100
AcDbEntity
8
2
62
256
6
ByLayer
370
-1
48
1
60
0
100
AcDbMText
10
246.725
20
-8.253947
30
0
210
0
220
0
230
1
1
\W01.000;\fsimplex.shx,bigfont.shx;%%c 
40
4.5
41
0
44
1.084337
50
90
71
7
72
5
7
DEFAULT
0
LINE
5
303
100
AcDbEntity
8
2
62
256
6
ByLayer
370
-1
48
1
60
0
100
AcDbLine
10
223.5875
20
19
30
0
11
252.15
21
19
31
0
39
0
210
0
220
0
230
1
0
LINE
5
304
100
AcDbEntity
8
2
62
256
6
ByLayer
370
-1
48
1
60
0
100
AcDbLine
10
223.5875
20
-19
30
0
11
252.15
21
-19
31
0
39
0
210
0
220
0
230
1
0
LINE
5
305
100
AcDbEntity
8
2
62
256
6
ByLayer
370
-1
48
1
60
0
100
AcDbLine
10
248.975
20
19
30
0
11
248.975
21
-19
31
0
39
0
210
0
220
0
230
1
0
SOLID
5
306
100
AcDbEntity
8
2
62
256
6
ByLayer
370
-1
48
1
60
0
100
AcDbTrace
10
248.975
20
19
30
0
11
249.900575
21
14.825003
31
0
12
248.049425
22
14.824997
32
0
13
248.975
23
19
33
0
39
0
210
0
220
0
230
1
0
SOLID
5
307
100
AcDbEntity
8
2
62
256
6
ByLayer
370
-1
48
1
60
0
100
AcDbTrace
10
248.975
20
-19
30
0
11
248.049425
21
-14.825003
31
0
12
249.900575
22
-14.824997
32
0
13
248.975
23
-19
33
0
39
0
210
0
220
0
230
1
0
ENDBLK
5
309
100
AcDbEntity
8
0
100
AcDbBlockEnd
0
ENDSEC
0
SECTION
2
ENTITIES
0
ARC
5
107
100
AcDbEntity
8
SK1
62
256
6
ByLayer
370
-1
48
1
60
0
100
AcDbCircle
39
0
10
1.383773
20
20.15
30
0
40
0.4
210
0
220
0
230
-1
100
AcDbArc
50
270
51
295
0
ARC
5
108
100
AcDbEntity
8
SK1
62
256
6
ByLayer
370
-1
48
1
60
0
100
AcDbCircle
39
0
10
1.383773
20
-20.15
30
0
40
0.4
210
0
220
0
230
-1
100
AcDbArc
50
65
51
90
0
ARC
5
109
100
AcDbEntity
8
SK1
62
256
6
ByLayer
370
-1
48
1
60
0
100
AcDbCircle
39
0
10
0.15
20
20.15
30
0
40
0.4
210
0
220
0
230
-1
100
AcDbArc
50
247.975687
51
270
0
ARC
5
10A
100
AcDbEntity
8
SK1
62
256
6
ByLayer
370
-1
48
1
60
0
100
AcDbCircle
39
0
10
0.15
20
-20.15
30
0
40
0.4
210
0
220
0
230
-1
100
AcDbArc
50
90
51
112.024313
0
ARC
5
10B
100
AcDbEntity
8
SK1
62
256
6
ByLayer
370
-1
48
1
60
0
100
AcDbCircle
39
0
10
67.894506
20
20.396
30
0
40
0.8
210
0
220
0
230
-1
100
AcDbArc
50
250.982048
51
321
0
ARC
5
10C
100
AcDbEntity
8
SK1
62
256
6
ByLayer
370
-1
48
1
60
0
100
AcDbCircle
39
0
10
67.894506
20
-20.396
30
0
40
0.8
210
0
220
0
230
-1
100
AcDbArc
50
39
51
109.017952
0
ELLIPSE
5
10D
100
AcDbEntity
8
1
62
256
6
ByLayer
370
-1
48
1
60
0
100
AcDbEllipse
10
210.767031
20
10.930952
30
0
11
-2.25092568282431E-15
21
-2.1
31
0
210
0
220
0
230
1
40
0.996195
41
-2.15719865040108
42
-1.53588974175501
0
ELLIPSE
5
10E
100
AcDbEntity
8
1
62
256
6
ByLayer
370
-1
48
1
60
0
100
AcDbEllipse
10
114.626952
20
25.820261
30
0
11
-88.9628559461341
21
14.2218155629379
31
0
210
0
220
0
230
-1
40
0.098778
41
3.12580306803661
42
-2.80416823130541
0
ELLIPSE
5
10F
100
AcDbEntity
8
1
62
256
6
ByLayer
370
-1
48
1
60
0
100
AcDbEllipse
10
215.098144
20
-3.879035
30
0
11
-1.75
21
1.76861834639414E-15
31
0
210
0
220
0
230
1
40
0.996917
41
-2.16229934241826
42
-0.979391409299722
0
ELLIPSE
5
110
100
AcDbEntity
8
1
62
256
6
ByLayer
370
-1
48
1
60
0
100
AcDbEllipse
10
215.098144
20
-3.879035
30
0
11
-1.75
21
1.76861834639414E-15
31
0
210
0
220
0
230
1
40
0.996917
41
0
42
3.14159237122107
0
ELLIPSE
5
111
100
AcDbEntity
8
1
62
256
6
ByLayer
370
-1
48
1
60
0
100
AcDbEllipse
10
183.0296
20
14.789413
30
0
11
-33.5489516169049
21
14.4201187063968
31
0
210
0
220
0
230
-1
40
0.008431
41
2.092125960938
42
2.15517193891772
0
ELLIPSE
5
112
100
AcDbEntity
8
1
62
256
6
ByLayer
370
-1
48
1
60
0
100
AcDbEllipse
10
210.883499
20
7.582993
30
0
11
-2.25092568282431E-15
21
-2.1
31
0
210
0
220
0
230
1
40
0.996195
41
-1.53588974175501
42
-0.132996608383597
0
ELLIPSE
5
113
100
AcDbEntity
8
1
62
256
6
ByLayer
370
-1
48
1
60
0
100
AcDbEllipse
10
208.278846
20
6.791739
30
0
11
-11.8714684504799
21
0.624505244689131
31
0
210
0
220
0
230
-1
40
0.000351
41
-3.1359183516409
42
-3.1349144379384
0
ELLIPSE
5
114
100
AcDbEntity
8
1
62
256
6
ByLayer
370
-1
48
1
60
0
100
AcDbEllipse
10
207.264994
20
0
30
0
11
-97.2031310126202
21
-1.1014083766259E-13
31
0
210
0
220
0
230
-1
40
0.189294
41
1.45419678084006
42
1.53309215958081
0
ELLIPSE
5
115
100
AcDbEntity
8
1
62
256
6
ByLayer
370
-1
48
1
60
0
100
AcDbEllipse
10
209.472766
20
10.885583
30
0
11
-0.799516360141551
21
-0.0278134835287907
31
0
210
0
220
0
230
1
40
0.003042
41
0.0872135714651397
42
1.03850214476358
0
ELLIPSE
5
116
100
AcDbEntity
8
1
62
256
6
ByLayer
370
-1
48
1
60
0
100
AcDbEllipse
10
209.13485
20
0.00031
30
0
11
-0.595752036995145
21
18.3996167636696
31
0
210
0
220
0
230
-1
40
0.087398
41
0.0169156616745784
42
0.0264187231731665
0
ELLIPSE
5
117
100
AcDbEntity
8
1
62
256
6
ByLayer
370
-1
48
1
60
0
100
AcDbEllipse
10
215.64294
20
12.270367
30
0
11
2.34290668463255E-15
21
2
31
0
210
0
220
0
230
1
40
0.996195
41
0.0503637830432939
42
1.49510350031179
0
ELLIPSE
5
118
100
AcDbEntity
8
1
62
256
6
ByLayer
370
-1
48
1
60
0
100
AcDbEllipse
10
215.64294
20
12.270367
30
0
11
2.34290668463255E-15
21
2
31
0
210
0
220
0
230
1
40
0.996195
41
1.57079654872778
42
-1.57079625281727
0
ELLIPSE
5
119
100
AcDbEntity
8
1
62
256
6
ByLayer
370
-1
48
1
60
0
100
AcDbEllipse
10
221.873902
20
0
30
0
11
-1.471885575789
21
-18.3990382550403
31
0
210
0
220
0
230
-1
40
0.127813
41
0.0525538917157295
42
1.10149970115009
0
ELLIPSE
5
11A
100
AcDbEntity
8
1
62
256
6
ByLayer
370
-1
48
1
60
0
100
AcDbEllipse
10
216.052572
20
12.270367
30
0
11
2.05004334905348E-15
21
1.75
31
0
210
0
220
0
230
1
40
0.996195
41
0.117809954735435
42
1.57079669158491
0
ELLIPSE
5
11B
100
AcDbEntity
8
1
62
256
6
ByLayer
370
-1
48
1
60
0
100
AcDbEllipse
10
216.052572
20
12.270367
30
0
11
2.05004334905348E-15
21
1.75
31
0
210
0
220
0
230
1
40
0.996195
41
1.57079612015634
42
2.93090943872902
0
ELLIPSE
5
11C
100
AcDbEntity
8
1
62
256
6
ByLayer
370
-1
48
1
60
0
100
AcDbEllipse
10
103.772262
20
0
30
0
11
-327.23726964286
21
-17.7939133203836
31
0
210
0
220
0
230
-1
40
0.014313
41
-1.92750108088404
42
-1.89164529784733
0
ELLIPSE
5
11D
100
AcDbEntity
8
1
62
256
6
ByLayer
370
-1
48
1
60
0
100
AcDbEllipse
10
220.560231
20
0
30
0
11
-1.15494509141855
21
18.3994952546541
31
0
210
0
220
0
230
-1
40
0.118004
41
-2.02246153547699
42
-1.46406291745583
0
ELLIPSE
5
11E
100
AcDbEntity
8
1
62
256
6
ByLayer
370
-1
48
1
60
0
100
AcDbEllipse
10
219.636314
20
-10.384142
30
0
11
-0.200173627343734
21
-2.52755008574231
31
0
210
0
220
0
230
-1
40
0.125436
41
-2.32135067032696
42
2.44307954112021
0
ELLIPSE
5
11F
100
AcDbEntity
8
1
62
256
6
ByLayer
370
-1
48
1
60
0
100
AcDbEllipse
10
220.618467
20
-9.328221
30
0
11
-0.0758749591965212
21
-0.877321869252977
31
0
210
0
220
0
230
-1
40
0.116725
41
0.0197262659368676
42
1.59052259273116
0
ELLIPSE
5
120
100
AcDbEntity
8
1
62
256
6
ByLayer
370
-1
48
1
60
0
100
AcDbEllipse
10
203.179058
20
5.812994
30
0
11
-16.8142509513471
21
-0.528970709297679
31
0
210
0
220
0
230
-1
40
0.010628
41
-1.89659186341918
42
-1.88741737462707
0
ELLIPSE
5
121
100
AcDbEntity
8
1
62
256
6
ByLayer
370
-1
48
1
60
0
100
AcDbEllipse
10
219.893858
20
-10.449308
30
0
11
-0.158477308369638
21
2.61724914881592
31
0
210
0
220
0
230
-1
40
0.112031
41
-0.684224315569794
42
0.83453078016344
0
ELLIPSE
5
122
100
AcDbEntity
8
1
62
256
6
ByLayer
370
-1
48
1
60
0
100
AcDbEllipse
10
180.880802
20
15.13183
30
0
11
-25.9020986391798
21
12.959731133959
31
0
210
0
220
0
230
-1
40
0.083686
41
-2.44687945914275
42
-1.77004796033194
0
ELLIPSE
5
123
100
AcDbEntity
8
1
62
256
6
ByLayer
370
-1
48
1
60
0
100
AcDbEllipse
10
215.098144
20
-3.235671
30
0
11
1.85
21
0
31
0
210
0
220
0
230
1
40
0.996917
41
0.0654823507277937
42
3.02986952913039
0
ELLIPSE
5
124
100
AcDbEntity
8
1
62
256
6
ByLayer
370
-1
48
1
60
0
100
AcDbEllipse
10
209.550596
20
13.018158
30
0
11
-0.773306880268116
21
-0.824449231599513
31
0
210
0
220
0
230
-1
40
0.04503
41
-0.757075825643797
42
-0.704857686718581
0
ELLIPSE
5
125
100
AcDbEntity
8
1
62
256
6
ByLayer
370
-1
48
1
60
0
100
AcDbEllipse
10
209.589235
20
7.537623
30
0
11
-0.799516360141551
21
-0.0278134835287907
31
0
210
0
220
0
230
1
40
0.003042
41
0.087213571465873
42
1.03850214476361
0
ELLIPSE
5
126
100
AcDbEntity
8
1
62
256
6
ByLayer
370
-1
48
1
60
0
100
AcDbEllipse
10
210.45327
20
10.930952
30
0
11
2.46005201886418E-15
21
2.1
31
0
210
0
220
0
230
1
40
0.996195
41
0.93911116205501
42
1.60570291183478
0
ELLIPSE
5
127
100
AcDbEntity
8
1
62
256
6
ByLayer
370
-1
48
1
60
0
100
AcDbEllipse
10
208.437342
20
6.607385
30
0
11
0.0280261150489101
21
-0.799508934831416
31
0
210
0
220
0
230
1
40
0.087103
41
0.0631426160417428
42
1.56774302595899
0
ELLIPSE
5
128
100
AcDbEntity
8
1
62
256
6
ByLayer
370
-1
48
1
60
0
100
AcDbEllipse
10
202.799657
20
11.601232
30
0
11
-1.41693797299805
21
-8.78648318616021
31
0
210
0
220
0
230
1
40
0.1837
41
0.341057831049353
42
0.970973465776048
0
ELLIPSE
5
129
100
AcDbEntity
8
1
62
256
6
ByLayer
370
-1
48
1
60
0
100
AcDbEllipse
10
208.208666
20
0
30
0
11
-108.987068954669
21
1.48572212431991
31
0
210
0
220
0
230
-1
40
0.168276
41
-1.55566540129703
42
-1.46156343244014
0
ELLIPSE
5
12A
100
AcDbEntity
8
1
62
256
6
ByLayer
370
-1
48
1
60
0
100
AcDbEllipse
10
210.569738
20
7.582993
30
0
11
2.46005201886418E-15
21
2.1
31
0
210
0
220
0
230
1
40
0.996195
41
1.60570291183478
42
2.05006495228011
0
ELLIPSE
5
12B
100
AcDbEntity
8
1
62
256
6
ByLayer
370
-1
48
1
60
0
100
AcDbEllipse
10
215.098144
20
-3.466112
30
0
11
1.425
21
0
31
0
210
0
220
0
230
1
40
0.996917
41
0.0812886317437598
42
3.0666849781209
0
ELLIPSE
5
12C
100
AcDbEntity
8
1
62
256
6
ByLayer
370
-1
48
1
60
0
100
AcDbEllipse
10
218.405905
20
0
30
0
11
-43.9375561529578
21
17.8203267907862
31
0
210
0
220
0
230
-1
40
0.104287
41
-1.18464338310394
42
-0.660600814965661
0
ELLIPSE
5
12D
100
AcDbEntity
8
1
62
256
6
ByLayer
370
-1
48
1
60
0
100
AcDbEllipse
10
207.908888
20
21.798126
30
0
11
-1.71499099643757E-14
21
-16
31
0
210
0
220
0
230
1
40
0.996195
41
-0.401425727958692
42
-6.79213922309397E-06
0
ELLIPSE
5
12E
100
AcDbEntity
8
1
62
256
6
ByLayer
370
-1
48
1
60
0
100
AcDbEllipse
10
207.978613
20
21.798126
30
0
11
1.78060908032074E-14
21
15.2
31
0
210
0
220
0
230
1
40
0.996195
41
2.7401669256311
42
-3.1066860685499
0
ELLIPSE
5
12F
100
AcDbEntity
8
1
62
256
6
ByLayer
370
-1
48
1
60
0
100
AcDbEllipse
10
184.312457
20
14.950731
30
0
11
1.17145334231629E-16
21
0.100000000000001
31
0
210
0
220
0
230
1
40
0.982551
41
1.5707963267949
42
2.98444950011935
0
ELLIPSE
5
130
100
AcDbEntity
8
1
62
256
6
ByLayer
370
-1
48
1
60
0
100
AcDbEllipse
10
201.992375
20
7.806452
30
0
11
-0.313595748497236
21
-0.735973984950867
31
0
210
0
220
0
230
1
40
0.080227
41
0.0341712377311569
42
1.60496756452648
0
ELLIPSE
5
131
100
AcDbEntity
8
1
62
256
6
ByLayer
370
-1
48
1
60
0
100
AcDbEllipse
10
215.442481
20
12.270367
30
0
11
-2.14373874554696E-15
21
-2
31
0
210
0
220
0
230
1
40
0.996195
41
1.57079654872776
42
-2.28776637790648
0
ELLIPSE
5
132
100
AcDbEntity
8
1
62
256
6
ByLayer
370
-1
48
1
60
0
100
AcDbEllipse
10
215.442481
20
12.270367
30
0
11
-2.14373874554696E-15
21
-2
31
0
210
0
220
0
230
1
40
0.996195
41
0
42
6.28318530717959
0
ELLIPSE
5
133
100
AcDbEntity
8
1
62
256
6
ByLayer
370
-1
48
1
60
0
100
AcDbEllipse
10
215.442481
20
12.270367
30
0
11
-2.14373874554696E-15
21
-2
31
0
210
0
220
0
230
1
40
0.996195
41
1.43845662458553
42
1.57079604872776
0
ELLIPSE
5
134
100
AcDbEntity
8
1
62
256
6
ByLayer
370
-1
48
1
60
0
100
AcDbEllipse
10
211.00858
20
7.582993
30
0
11
-1.83236116208165
21
-1.63166900511959
31
0
210
0
220
0
230
-1
40
0.721468
41
-1.30152588459481
42
-0.0906202832451824
0
ELLIPSE
5
135
100
AcDbEntity
8
1
62
256
6
ByLayer
370
-1
48
1
60
0
100
AcDbEllipse
10
215.64294
20
12.270367
30
0
11
2.05004334905348E-15
21
1.75
31
0
210
0
220
0
230
1
40
0.996195
41
-1.92834881270219
42
0
0
ELLIPSE
5
136
100
AcDbEntity
8
1
62
256
6
ByLayer
370
-1
48
1
60
0
100
AcDbEllipse
10
215.64294
20
12.270367
30
0
11
2.05004334905348E-15
21
1.75
31
0
210
0
220
0
230
1
40
0.996195
41
0
42
1.57079639567442
0
ELLIPSE
5
137
100
AcDbEntity
8
1
62
256
6
ByLayer
370
-1
48
1
60
0
100
AcDbEllipse
10
215.64294
20
12.270367
30
0
11
2.05004334905348E-15
21
1.75
31
0
210
0
220
0
230
1
40
0.996195
41
1.57079612015634
42
2.65012947763562
0
ELLIPSE
5
138
100
AcDbEntity
8
1
62
256
6
ByLayer
370
-1
48
1
60
0
100
AcDbEllipse
10
182.641757
20
14.851963
30
0
11
-1.41693797299805
21
-8.78648318616021
31
0
210
0
220
0
230
1
40
0.1837
41
1.30832322347202
42
1.60041169628133
0
ELLIPSE
5
139
100
AcDbEntity
8
1
62
256
6
ByLayer
370
-1
48
1
60
0
100
AcDbEllipse
10
220.112208
20
1.116932
30
0
11
-0.0396972573865602
21
0.801826292990801
31
0
210
0
220
0
230
-1
40
0.11884
41
-1.48226636982928
42
0.0885299569668699
0
ELLIPSE
5
13A
100
AcDbEntity
8
1
62
256
6
ByLayer
370
-1
48
1
60
0
100
AcDbEllipse
10
211.528696
20
0
30
0
11
-210.312960561801
21
-2.3830555051327E-13
31
0
210
0
220
0
230
-1
40
0.087489
41
1.53309215924494
42
1.55671060763287
0
ELLIPSE
5
13B
100
AcDbEntity
8
1
62
256
6
ByLayer
370
-1
48
1
60
0
100
AcDbEllipse
10
220.146515
20
6.968507
30
0
11
-0.0391230358683624
21
0.803106988971469
31
0
210
0
220
0
230
-1
40
0.11792
41
2.37709535651556
42
-3.1341932969234
0
ELLIPSE
5
13C
100
AcDbEntity
8
1
62
256
6
ByLayer
370
-1
48
1
60
0
100
AcDbEllipse
10
215.098144
20
-3.235671
30
0
11
-1.425
21
1.44016065349237E-15
31
0
210
0
220
0
230
1
40
0.996917
41
0
42
6.28318530717959
0
ELLIPSE
5
13D
100
AcDbEntity
8
1
62
256
6
ByLayer
370
-1
48
1
60
0
100
AcDbEllipse
10
15.1
20
1.602699
30
0
11
-9.00000000000001
21
9.09575149574128E-15
31
0
210
0
220
0
230
1
40
0.929527
41
-1.68683541943264
42
-0.0671338169572118
0
ELLIPSE
5
13E
100
AcDbEntity
8
1
62
256
6
ByLayer
370
-1
48
1
60
0
100
AcDbEllipse
10
216.431931
20
8.519327
30
0
11
-0.00700652876222954
21
0.199877233707854
31
0
210
0
220
0
230
1
40
0.087103
41
-2.25793085942765
42
-1.5738496276308
0
ELLIPSE
5
13F
100
AcDbEntity
8
1
62
256
6
ByLayer
370
-1
48
1
60
0
100
AcDbEllipse
10
220.000853
20
-6.425078
30
0
11
1.72694386744699
21
0
31
0
210
0
220
0
230
1
40
0.996917
41
-0.0349065850398751
42
0.463006761675084
0
ELLIPSE
5
140
100
AcDbEntity
8
1
62
256
6
ByLayer
370
-1
48
1
60
0
100
AcDbEllipse
10
219.964759
20
1.31878
30
0
11
0.600000000000001
21
0
31
0
210
0
220
0
230
1
40
0.996917
41
0.349065850398917
42
1.24083496274829
0
ELLIPSE
5
141
100
AcDbEntity
8
1
62
256
6
ByLayer
370
-1
48
1
60
0
100
AcDbEllipse
10
220.352811
20
-6.126604
30
0
11
-0.268422540602876
21
-0.133975145815547
31
0
210
0
220
0
230
1
40
0.073131
41
-2.72678977423018
42
-2.42714638876186
0
ELLIPSE
5
142
100
AcDbEntity
8
1
62
256
6
ByLayer
370
-1
48
1
60
0
100
AcDbEllipse
10
220.335092
20
-7.942704
30
0
11
-0.299804665837323
21
0.0108241554945842
31
0
210
0
220
0
230
1
40
0.080636
41
-2.69426967198344
42
-2.40454048198475
0
ELLIPSE
5
143
100
AcDbEntity
8
1
62
256
6
ByLayer
370
-1
48
1
60
0
100
AcDbEllipse
10
215.34196
20
-4.479043
30
0
11
2
21
0
31
0
210
0
220
0
230
1
40
0.996917
41
1.05744055362242
42
2.55529312410795
0
ELLIPSE
5
144
100
AcDbEntity
8
1
62
256
6
ByLayer
370
-1
48
1
60
0
100
AcDbEllipse
10
224.027064
20
-4.305576
30
0
11
3.47626526203155
21
0
31
0
210
0
220
0
230
1
40
0.996917
41
-3.08923277602995
42
-2.67858589191472
0
ELLIPSE
5
145
100
AcDbEntity
8
1
62
256
6
ByLayer
370
-1
48
1
60
0
100
AcDbEllipse
10
219.631018
20
-0.751052
30
0
11
-0.72715143767036
21
7.34887641868954E-16
31
0
210
0
220
0
230
1
40
0.996917
41
-3.08923277602995
42
-2.66401252086412
0
ELLIPSE
5
146
100
AcDbEntity
8
1
62
256
6
ByLayer
370
-1
48
1
60
0
100
AcDbEllipse
10
221.023964
20
-6.313496
30
0
11
-0.399754822918102
21
0.0140029123298067
31
0
210
0
220
0
230
1
40
0.078411
41
0.451925283130896
42
1.57354296984573
0
ELLIPSE
5
147
100
AcDbEntity
8
1
62
256
6
ByLayer
370
-1
48
1
60
0
100
AcDbEllipse
10
220.240293
20
-7.945732
30
0
11
-0.72715143767036
21
7.34887641868954E-16
31
0
210
0
220
0
230
1
40
0.996917
41
2.04837645952054
42
3.10668606854992
0
ELLIPSE
5
148
100
AcDbEntity
8
1
62
256
6
ByLayer
370
-1
48
1
60
0
100
AcDbEllipse
10
220.357173
20
-0.681729
30
0
11
-0.399448425479729
21
-0.0209989376341915
31
0
210
0
220
0
230
1
40
0.078352
41
0.898414371556602
42
1.56667742100343
0
ELLIPSE
5
149
100
AcDbEntity
8
1
62
256
6
ByLayer
370
-1
48
1
60
0
100
AcDbEllipse
10
220.722394
20
-0.316785
30
0
11
0.239384833763009
21
0.0720756641610499
31
0
210
0
220
0
230
1
40
0.561174
41
0.114858290767769
42
0.359118160156667
0
ELLIPSE
5
14A
100
AcDbEntity
8
1
62
256
6
ByLayer
370
-1
48
1
60
0
100
AcDbEllipse
10
220.811622
20
-0.807577
30
0
11
0.249655265924831
21
0.0131243360213698
31
0
210
0
220
0
230
1
40
0.078352
41
0.118054141847997
42
0.327940561751294
0
ELLIPSE
5
14B
100
AcDbEntity
8
1
62
256
6
ByLayer
370
-1
48
1
60
0
100
AcDbEllipse
10
215.34196
20
-4.328059
30
0
11
2.25
21
0
31
0
210
0
220
0
230
1
40
0.996917
41
1.87474547784326
42
2.1644590592968
0
ELLIPSE
5
14C
100
AcDbEntity
8
1
62
256
6
ByLayer
370
-1
48
1
60
0
100
AcDbEllipse
10
221.010012
20
-4.581412
30
0
11
0.249655265924831
21
0.0131243360213698
31
0
210
0
220
0
230
1
40
0.078352
41
0.118054141848201
42
0.327940561751599
0
ELLIPSE
5
14D
100
AcDbEntity
8
1
62
256
6
ByLayer
370
-1
48
1
60
0
100
AcDbEllipse
10
220.225844
20
1.40361
30
0
11
0.245776318380973
21
0.0457602592114001
31
0
210
0
220
0
230
1
40
0.874927
41
0.197161712237297
42
0.607744203312279
0
ELLIPSE
5
14E
100
AcDbEntity
8
1
62
256
6
ByLayer
370
-1
48
1
60
0
100
AcDbEllipse
10
220.000853
20
-6.421074
30
0
11
-1.71515057494323
21
1.7333981563846E-15
31
0
210
0
220
0
230
1
40
0.996917
41
3.10668606854993
42
-2.67858589191472
0
ELLIPSE
5
14F
100
AcDbEntity
8
1
62
256
6
ByLayer
370
-1
48
1
60
0
100
AcDbEllipse
10
220.940607
20
-9.490612
30
0
11
-0.0579803596219031
21
0.243183629996171
31
0
210
0
220
0
230
1
40
0.51445
41
-2.91257917060704
42
-2.66831930121822
0
ELLIPSE
5
150
100
AcDbEntity
8
1
62
256
6
ByLayer
370
-1
48
1
60
0
100
AcDbEllipse
10
220.81981
20
-0.731731
30
0
11
0.500000000000012
21
0
31
0
210
0
220
0
230
1
40
0.996917
41
0.0523598775598347
42
0.349065850398909
0
ELLIPSE
5
151
100
AcDbEntity
8
1
62
256
6
ByLayer
370
-1
48
1
60
0
100
AcDbEllipse
10
220.312176
20
1.045671
30
0
11
0.239384833763009
21
0.0720756641610499
31
0
210
0
220
0
230
1
40
0.561174
41
0.114858290767643
42
0.359118160156624
0
ELLIPSE
5
152
100
AcDbEntity
8
1
62
256
6
ByLayer
370
-1
48
1
60
0
100
AcDbEllipse
10
220.967002
20
-7.939647
30
0
11
-0.399754822918102
21
0.0140029123298067
31
0
210
0
220
0
230
1
40
0.078411
41
0.447236583003085
42
1.5735429698458
0
ELLIPSE
5
153
100
AcDbEntity
8
1
62
256
6
ByLayer
370
-1
48
1
60
0
100
AcDbEllipse
10
220.3936
20
-6.31624
30
0
11
-0.299809234771533
21
0.0106968568143864
31
0
210
0
220
0
230
1
40
0.07974
41
-2.6896153203417
42
-2.39121086255007
0
ELLIPSE
5
154
100
AcDbEntity
8
1
62
256
6
ByLayer
370
-1
48
1
60
0
100
AcDbEllipse
10
221.538273
20
-9.084176
30
0
11
-0.244822266652128
21
-0.050616773418642
31
0
210
0
220
0
230
1
40
0.875719
41
2.27441696406005
42
2.88140498447894
0
ELLIPSE
5
155
100
AcDbEntity
8
1
62
256
6
ByLayer
370
-1
48
1
60
0
100
AcDbEllipse
10
221.309261
20
-9.238675
30
0
11
0.600000000000001
21
0
31
0
210
0
220
0
230
1
40
0.996917
41
-1.22173047639601
42
-0.0349065850399423
0
ELLIPSE
5
156
100
AcDbEntity
8
1
62
256
6
ByLayer
370
-1
48
1
60
0
100
AcDbEllipse
10
220.574515
20
-8.558148
30
0
11
-0.183405106917758
21
0.35547512818267
31
0
210
0
220
0
230
1
40
0.036062
41
1.32551827327161
42
1.64057859065517
0
ELLIPSE
5
157
100
AcDbEntity
8
1
62
256
6
ByLayer
370
-1
48
1
60
0
100
AcDbEllipse
10
221.478759
20
-6.478919
30
0
11
-0.249846764323814
21
0.00875182020612922
31
0
210
0
220
0
230
1
40
0.078411
41
-3.01667296289942
42
-2.80678654299613
0
ELLIPSE
5
158
100
AcDbEntity
8
1
62
256
6
ByLayer
370
-1
48
1
60
0
100
AcDbEllipse
10
215.34196
20
-4.328059
30
0
11
2
21
0
31
0
210
0
220
0
230
1
40
0.996917
41
1.1578734280927
42
2.53349820619131
0
ELLIPSE
5
159
100
AcDbEntity
8
1
62
256
6
ByLayer
370
-1
48
1
60
0
100
AcDbEllipse
10
220.000853
20
-6.309262
30
0
11
-1.02373473796844
21
1.03462630823541E-15
31
0
210
0
220
0
230
1
40
0.996917
41
3.10668606854992
42
-2.67858589191472
0
ELLIPSE
5
15A
100
AcDbEntity
8
1
62
256
6
ByLayer
370
-1
48
1
60
0
100
AcDbEllipse
10
224.027064
20
-4.421392
30
0
11
-2.773056132553
21
2.80255882949372E-15
31
0
210
0
220
0
230
1
40
0.996917
41
0.0523598775598444
42
0.463006761675059
0
ELLIPSE
5
15B
100
AcDbEntity
8
1
62
256
6
ByLayer
370
-1
48
1
60
0
100
AcDbEllipse
10
220.798138
20
-0.53403
30
0
11
0.232495994131241
21
0.0919000147602048
31
0
210
0
220
0
230
1
40
0.198728
41
-0.31539683611687
42
-0.0969413568948291
0
ELLIPSE
5
15C
100
AcDbEntity
8
1
62
256
6
ByLayer
370
-1
48
1
60
0
100
AcDbEllipse
10
220.000853
20
-6.309262
30
0
11
-1.22373473796845
21
1.2367541192519E-15
31
0
210
0
220
0
230
1
40
0.996917
41
3.10668606854992
42
-2.67858589191471
0
ELLIPSE
5
15D
100
AcDbEntity
8
1
62
256
6
ByLayer
370
-1
48
1
60
0
100
AcDbEllipse
10
221.333867
20
-9.438655
30
0
11
-0.0105113563715893
21
0.249778925026171
31
0
210
0
220
0
230
1
40
0.839259
41
-2.7754374373656
42
-2.36485494629076
0
ELLIPSE
5
15E
100
AcDbEntity
8
1
62
256
6
ByLayer
370
-1
48
1
60
0
100
AcDbEllipse
10
220.000853
20
-6.59956
30
0
11
1.99999999999999
21
0
31
0
210
0
220
0
230
1
40
0.996917
41
-0.0349065850398731
42
0.463006761675072
0
ELLIPSE
5
15F
100
AcDbEntity
8
1
62
256
6
ByLayer
370
-1
48
1
60
0
100
AcDbEllipse
10
221.421797
20
-8.10507
30
0
11
-0.249846764323814
21
0.00875182020612922
31
0
210
0
220
0
230
1
40
0.078411
41
-3.01667296289937
42
-2.80678654299609
0
ELLIPSE
5
160
100
AcDbEntity
8
1
62
256
6
ByLayer
370
-1
48
1
60
0
100
AcDbEllipse
10
224.027064
20
-4.305576
30
0
11
3.27626526203155
21
0
31
0
210
0
220
0
230
1
40
0.996917
41
-3.08923277602995
42
-2.67858589191473
0
ELLIPSE
5
161
100
AcDbEntity
8
1
62
256
6
ByLayer
370
-1
48
1
60
0
100
AcDbEllipse
10
220.810707
20
-0.60576
30
0
11
0.2497500869712
21
-0.0111756010074722
31
0
210
0
220
0
230
1
40
0.668679
41
0.158578980832882
42
0.427677982774059
0
ELLIPSE
5
162
100
AcDbEntity
8
1
62
256
6
ByLayer
370
-1
48
1
60
0
100
AcDbEllipse
10
220.555563
20
-4.455565
30
0
11
-0.399448425479729
21
-0.0209989376341915
31
0
210
0
220
0
230
1
40
0.078352
41
0.898414371556598
42
1.56667742100343
0
ELLIPSE
5
163
100
AcDbEntity
8
1
62
256
6
ByLayer
370
-1
48
1
60
0
100
AcDbEllipse
10
220.916802
20
-5.822046
30
0
11
-0.357664541068848
21
-0.179097951026833
31
0
210
0
220
0
230
1
40
0.070198
41
0.414709853271852
42
1.53565943902509
0
ELLIPSE
5
164
100
AcDbEntity
8
1
62
256
6
ByLayer
370
-1
48
1
60
0
100
AcDbEllipse
10
224.027064
20
-4.417388
30
0
11
2.78484942505676
21
0
31
0
210
0
220
0
230
1
40
0.996917
41
-3.08923277602994
42
-2.67858589191473
0
ELLIPSE
5
165
100
AcDbEntity
8
1
62
256
6
ByLayer
370
-1
48
1
60
0
100
AcDbEllipse
10
224.027064
20
-4.595875
30
0
11
2.50000000000001
21
0
31
0
210
0
220
0
230
1
40
0.996917
41
-3.08923277602995
42
-2.67858589191472
0
ELLIPSE
5
166
100
AcDbEntity
8
1
62
256
6
ByLayer
370
-1
48
1
60
0
100
AcDbEllipse
10
220.276808
20
-0.386477
30
0
11
-0.355011709641313
21
-0.184300531788576
31
0
210
0
220
0
230
1
40
0.06968
41
1.00856691090062
42
1.53463831580297
0
ELLIPSE
5
167
100
AcDbEntity
8
1
62
256
6
ByLayer
370
-1
48
1
60
0
100
AcDbEllipse
10
220.240293
20
-7.945732
30
0
11
-0.927151437670361
21
9.37015452885428E-16
31
0
210
0
220
0
230
1
40
0.996917
41
2.0483764595206
42
3.10668606854992
0
ELLIPSE
5
168
100
AcDbEntity
8
1
62
256
6
ByLayer
370
-1
48
1
60
0
100
AcDbEllipse
10
221.323962
20
-5.769009
30
0
11
-0.22354033816803
21
-0.111936219391771
31
0
210
0
220
0
230
1
40
0.070198
41
-3.0545564937219
42
-2.84467007381738
0
ELLIPSE
5
169
100
AcDbEntity
8
1
62
256
6
ByLayer
370
-1
48
1
60
0
100
AcDbEllipse
10
219.631018
20
-0.751052
30
0
11
-0.92715143767036
21
9.37015452885427E-16
31
0
210
0
220
0
230
1
40
0.996917
41
-3.08923277602995
42
-2.66401252086409
0
ELLIPSE
5
16A
100
AcDbEntity
8
1
62
256
6
ByLayer
370
-1
48
1
60
0
100
AcDbEllipse
10
211.848436
20
9.52065
30
0
11
-0.0222098891167317
21
0.636012221734377
31
0
210
0
220
0
230
-1
40
0.061592
41
1.57294745655301
42
1.60954606657973
0
ELLIPSE
5
16B
100
AcDbEntity
8
1
62
256
6
ByLayer
370
-1
48
1
60
0
100
AcDbEllipse
10
212.207669
20
9.21375
30
0
11
-5.14497298931271E-16
21
-0.48
31
0
210
0
220
0
230
1
40
0.996195
41
0.920472169598927
42
2.77549784972785
0
ELLIPSE
5
16C
100
AcDbEntity
8
1
62
256
6
ByLayer
370
-1
48
1
60
0
100
AcDbEllipse
10
215.644648
20
12.54823
30
0
11
2.34290668463255E-15
21
2
31
0
210
0
220
0
230
1
40
0.996195
41
0.0349502378747942
42
1.57079654872776
0
ELLIPSE
5
16D
100
AcDbEntity
8
1
62
256
6
ByLayer
370
-1
48
1
60
0
100
AcDbEllipse
10
215.644648
20
12.54823
30
0
11
2.34290668463255E-15
21
2
31
0
210
0
220
0
230
1
40
0.996195
41
1.57079654872776
42
3.10055573146276
0
ELLIPSE
5
16E
100
AcDbEntity
8
1
62
256
6
ByLayer
370
-1
48
1
60
0
100
AcDbEllipse
10
216.149148
20
16.648108
30
0
11
0.00700652876222734
21
-0.199877233707854
31
0
210
0
220
0
230
1
40
0.087103
41
1.56774302595899
42
2.25182425775547
0
ELLIPSE
5
16F
100
AcDbEntity
8
1
62
256
6
ByLayer
370
-1
48
1
60
0
100
AcDbEllipse
10
212.105759
20
9.104047
30
0
11
5.62297604311812E-16
21
0.48
31
0
210
0
220
0
230
1
40
0.996195
41
1.74759996643897
42
-2.42145532631399
0
ELLIPSE
5
170
100
AcDbEntity
8
1
62
256
6
ByLayer
370
-1
48
1
60
0
100
AcDbEllipse
10
211.837249
20
9.508607
30
0
11
0.329692102348112
21
-0.306272946322855
31
0
210
0
220
0
230
1
40
0.05944
41
1.47029936263289
42
2.15039938434846
0
ELLIPSE
5
171
100
AcDbEntity
8
1
62
256
6
ByLayer
370
-1
48
1
60
0
100
AcDbEllipse
10
211.848436
20
9.52065
30
0
11
-0.634800952678978
21
-0.0221675770246989
31
0
210
0
220
0
230
-1
40
0.002159
41
-2.27604469488893
42
-1.63254358585614
0
ELLIPSE
5
172
100
AcDbEntity
8
1
62
256
6
ByLayer
370
-1
48
1
60
0
100
AcDbEllipse
10
212.256078
20
9.959462
30
0
11
0.329692102348112
21
-0.306272946322855
31
0
210
0
220
0
230
1
40
0.05944
41
1.50689827555581
42
2.15039938434906
0
ELLIPSE
5
173
100
AcDbEntity
8
1
62
256
6
ByLayer
370
-1
48
1
60
0
100
AcDbEllipse
10
210.989705
20
15.869001
30
0
11
0.0874689691203329
21
0.441417239628253
31
0
210
0
220
0
230
1
40
0.085506
41
-1.55385457642579
42
-0.91035346763266
0
ELLIPSE
5
174
100
AcDbEntity
8
1
62
256
6
ByLayer
370
-1
48
1
60
0
100
AcDbEllipse
10
211.837249
20
9.508607
30
0
11
-0.329471318935308
21
0.306067845909912
31
0
210
0
220
0
230
1
40
0.05944
41
-1.63469437803406
42
-0.992087287820884
0
ELLIPSE
5
175
100
AcDbEntity
8
1
62
256
6
ByLayer
370
-1
48
1
60
0
100
AcDbEllipse
10
211.714073
20
16.614982
30
0
11
3.16292402425394E-16
21
0.27
31
0
210
0
220
0
230
1
40
0.996195
41
-0.75049157835764
42
1.83550459668071
0
ELLIPSE
5
176
100
AcDbEntity
8
1
62
256
6
ByLayer
370
-1
48
1
60
0
100
AcDbEllipse
10
219.194383
20
16.504704
30
0
11
0.199879090035388
21
0.00695337088219774
31
0
210
0
220
0
230
1
40
0.003042
41
-1.48358275532896
42
-0.799501523532183
0
ELLIPSE
5
177
100
AcDbEntity
8
1
62
256
6
ByLayer
370
-1
48
1
60
0
100
AcDbEllipse
10
216.350766
20
9.008356
30
0
11
0.0584036501431938
21
-0.191282549256202
31
0
210
0
220
0
230
1
40
0.083384
41
1.54534251077282
42
2.22942374256666
0
ELLIPSE
5
178
100
AcDbEntity
8
1
62
256
6
ByLayer
370
-1
48
1
60
0
100
AcDbEllipse
10
212.207669
20
9.21375
30
0
11
-1.09330676022895E-15
21
-1.02
31
0
210
0
220
0
230
1
40
0.996195
41
0.920472169598896
42
3.03460218402553
0
ELLIPSE
5
179
100
AcDbEntity
8
1
62
256
6
ByLayer
370
-1
48
1
60
0
100
AcDbEllipse
10
211.934706
20
15.681744
30
0
11
-0.622555844720229
21
0.581525140642848
31
0
210
0
220
0
230
-1
40
0.031444
41
0.960945087808698
42
1.60444619741762
0
ELLIPSE
5
17A
100
AcDbEntity
8
1
62
256
6
ByLayer
370
-1
48
1
60
0
100
AcDbEllipse
10
215.336417
20
12.54823
30
0
11
-2.85443725674398E-15
21
-2.66304582372577
31
0
210
0
220
0
230
1
40
0.996195
41
2.21550992406688
42
0
0
ELLIPSE
5
17B
100
AcDbEntity
8
1
62
256
6
ByLayer
370
-1
48
1
60
0
100
AcDbEllipse
10
215.336417
20
12.54823
30
0
11
-2.85443725674398E-15
21
-2.66304582372577
31
0
210
0
220
0
230
1
40
0.996195
41
0
42
0.926082659473383
0
ELLIPSE
5
17C
100
AcDbEntity
8
1
62
256
6
ByLayer
370
-1
48
1
60
0
100
AcDbEllipse
10
211.613025
20
9.667834
30
0
11
1.44088761104902E-15
21
1.23
31
0
210
0
220
0
230
1
40
0.996195
41
-2.42145532631401
42
-2.2211204839909
0
ELLIPSE
5
17D
100
AcDbEntity
8
1
62
256
6
ByLayer
370
-1
48
1
60
0
100
AcDbEllipse
10
211.682697
20
16.614982
30
0
11
-0.84436865622767
21
1.40519245726125
31
0
210
0
220
0
230
-1
40
0.020508
41
1.58311883831181
42
2.22661994676711
0
ELLIPSE
5
17E
100
AcDbEntity
8
1
62
256
6
ByLayer
370
-1
48
1
60
0
100
AcDbEllipse
10
219.228317
20
8.866894
30
0
11
2.9286333557907E-16
21
0.250000000000001
31
0
210
0
220
0
230
1
40
0.996195
41
-3.10668606854989
42
-1.53588974175495
0
ELLIPSE
5
17F
100
AcDbEntity
8
1
62
256
6
ByLayer
370
-1
48
1
60
0
100
AcDbEllipse
10
210.989705
20
15.869001
30
0
11
-1.45591769439705
21
0.746910915793399
31
0
210
0
220
0
230
-1
40
0.010943
41
1.5921236850441
42
2.23562479421284
0
ELLIPSE
5
180
100
AcDbEntity
8
1
62
256
6
ByLayer
370
-1
48
1
60
0
100
AcDbEllipse
10
218.804562
20
13.624934
30
0
11
0.191406102844321
21
0.0579974464433487
31
0
210
0
220
0
230
1
40
0.025362
41
-2.17136982970193
42
-1.48728859790621
0
ELLIPSE
5
181
100
AcDbEntity
8
1
62
256
6
ByLayer
370
-1
48
1
60
0
100
AcDbEllipse
10
215.291668
20
12.54823
30
0
11
4.18631474685054E-15
21
3.57360775340235
31
0
210
0
220
0
230
1
40
0.996195
41
-2.84631939108317
42
-1.79625641922175
0
ELLIPSE
5
182
100
AcDbEntity
8
1
62
256
6
ByLayer
370
-1
48
1
60
0
100
AcDbEllipse
10
215.29559
20
12.54823
30
0
11
-3.96591667926188E-15
21
-3.7
31
0
210
0
220
0
230
1
40
0.996195
41
0.295273262506619
42
1.34533623436805
0
ELLIPSE
5
183
100
AcDbEntity
8
1
62
256
6
ByLayer
370
-1
48
1
60
0
100
AcDbEllipse
10
219.13097
20
11.665188
30
0
11
2.92863335579068E-16
21
0.249999999999999
31
0
210
0
220
0
230
1
40
0.996195
41
-1.53588974175495
42
1.34533623436813
0
ELLIPSE
5
184
100
AcDbEntity
8
1
62
256
6
ByLayer
370
-1
48
1
60
0
100
AcDbEllipse
10
218.958995
20
16.495979
30
0
11
-4.03443321277421E-16
21
-0.376392246597646
31
0
210
0
220
0
230
1
40
0.996195
41
1.60570291183476
42
-3.10668606854986
0
ELLIPSE
5
185
100
AcDbEntity
8
1
62
256
6
ByLayer
370
-1
48
1
60
0
100
AcDbEllipse
10
212.176293
20
9.21375
30
0
11
-0.307524634367036
21
-0.328524883772022
31
0
210
0
220
0
230
1
40
0.063742
41
0.986891685634749
42
2.27389390322006
0
ELLIPSE
5
186
100
AcDbEntity
8
1
62
256
6
ByLayer
370
-1
48
1
60
0
100
AcDbEllipse
10
212.770937
20
8.759667
30
0
11
-0.358649081170716
21
0.271791899392534
31
0
210
0
220
0
230
1
40
0.052768
41
-2.28381636720029
42
-0.996814149613743
0
ELLIPSE
5
187
100
AcDbEntity
8
1
62
256
6
ByLayer
370
-1
48
1
60
0
100
AcDbEllipse
10
212.191847
20
14.743703
30
0
11
0.307524634367036
21
0.328524883772022
31
0
210
0
220
0
230
1
40
0.063742
41
-2.15470096795558
42
-0.867698750369684
0
ELLIPSE
5
188
100
AcDbEntity
8
1
62
256
6
ByLayer
370
-1
48
1
60
0
100
AcDbEllipse
10
212.884838
20
15.489684
30
0
11
0.307524634367036
21
0.328524883772022
31
0
210
0
220
0
230
1
40
0.063742
41
-2.15470096795504
42
-0.867698750369732
0
ELLIPSE
5
189
100
AcDbEntity
8
1
62
256
6
ByLayer
370
-1
48
1
60
0
100
AcDbEllipse
10
218.870793
20
11.721077
30
0
11
0.19497528358439
21
-0.0445492849682989
31
0
210
0
220
0
230
1
40
0.019484
41
1.4857276832808
42
2.16980891507682
0
ELLIPSE
5
18A
100
AcDbEntity
8
1
62
256
6
ByLayer
370
-1
48
1
60
0
100
AcDbEllipse
10
211.613025
20
9.667834
30
0
11
2.07347241589981E-15
21
1.77
31
0
210
0
220
0
230
1
40
0.996195
41
-2.421455326314
42
-2.22112048399091
0
ELLIPSE
5
18B
100
AcDbEntity
8
1
62
256
6
ByLayer
370
-1
48
1
60
0
100
AcDbEllipse
10
218.962917
20
16.495979
30
0
11
-2.67967343193372E-16
21
-0.250000000000001
31
0
210
0
220
0
230
1
40
0.996195
41
1.60570291183485
42
-3.1066860685498
0
ELLIPSE
5
18C
100
AcDbEntity
8
1
62
256
6
ByLayer
370
-1
48
1
60
0
100
AcDbEllipse
10
218.936794
20
16.745827
30
0
11
-0.00700652876222954
21
0.199877233707854
31
0
210
0
220
0
230
1
40
0.087103
41
-1.5738496276308
42
-0.889768395833279
0
ELLIPSE
5
18D
100
AcDbEntity
8
1
62
256
6
ByLayer
370
-1
48
1
60
0
100
AcDbEllipse
10
212.223223
20
14.743703
30
0
11
-2.8940473064884E-16
21
-0.27
31
0
210
0
220
0
230
1
40
0.996195
41
-0.750491578357659
42
2.39110107523215
0
ELLIPSE
5
18E
100
AcDbEntity
8
1
62
256
6
ByLayer
370
-1
48
1
60
0
100
AcDbEllipse
10
216.436749
20
8.769175
30
0
11
-4.03443321277421E-16
21
-0.376392246597646
31
0
210
0
220
0
230
1
40
0.996195
41
-2.8463193910833
42
0.0349065850399337
0
ELLIPSE
5
18F
100
AcDbEntity
8
1
62
256
6
ByLayer
370
-1
48
1
60
0
100
AcDbEllipse
10
216.440671
20
8.769175
30
0
11
2.9286333557907E-16
21
0.250000000000001
31
0
210
0
220
0
230
1
40
0.996195
41
0.295273262506758
42
-3.10668606854989
0
ELLIPSE
5
190
100
AcDbEntity
8
1
62
256
6
ByLayer
370
-1
48
1
60
0
100
AcDbEllipse
10
211.37026
20
8.972134
30
0
11
3.16292402425394E-16
21
0.27
31
0
210
0
220
0
230
1
40
0.996195
41
-1.39399268715084
42
1.74759996643917
0
ELLIPSE
5
191
100
AcDbEntity
8
1
62
256
6
ByLayer
370
-1
48
1
60
0
100
AcDbEllipse
10
212.256078
20
9.959462
30
0
11
-0.048235363267179
21
-0.447407364412437
31
0
210
0
220
0
230
1
40
0.086657
41
1.58013866027564
42
2.22363976906888
0
ELLIPSE
5
192
100
AcDbEntity
8
1
62
256
6
ByLayer
370
-1
48
1
60
0
100
AcDbEllipse
10
212.287454
20
9.959462
30
0
11
3.16292402425394E-16
21
0.27
31
0
210
0
220
0
230
1
40
0.996195
41
-0.106990469564315
42
0.820304748434511
0
ELLIPSE
5
193
100
AcDbEntity
8
1
62
256
6
ByLayer
370
-1
48
1
60
0
100
AcDbEllipse
10
210.989705
20
15.869001
30
0
11
0.307524634367036
21
0.328524883772022
31
0
210
0
220
0
230
1
40
0.063742
41
-2.15470096795564
42
-1.51119985916239
0
ELLIPSE
5
194
100
AcDbEntity
8
1
62
256
6
ByLayer
370
-1
48
1
60
0
100
AcDbEllipse
10
211.934706
20
15.681744
30
0
11
0.0874689691203329
21
0.441417239628253
31
0
210
0
220
0
230
1
40
0.085506
41
-2.19735568521935
42
-1.55385457642579
0
ELLIPSE
5
195
100
AcDbEntity
8
1
62
256
6
ByLayer
370
-1
48
1
60
0
100
AcDbEllipse
10
212.567116
20
8.540261
30
0
11
-0.297408541509673
21
0.337710170763466
31
0
210
0
220
0
230
1
40
0.065516
41
-2.27193125321659
42
-0.984929035631427
0
ELLIPSE
5
196
100
AcDbEntity
8
1
62
256
6
ByLayer
370
-1
48
1
60
0
100
AcDbEllipse
10
211.338884
20
8.972134
30
0
11
0.443036966151022
21
0.0788558597930302
31
0
210
0
220
0
230
1
40
0.015329
41
-2.12838464107856
42
-0.841382423492742
0
ELLIPSE
5
197
100
AcDbEntity
8
1
62
256
6
ByLayer
370
-1
48
1
60
0
100
AcDbEllipse
10
211.879812
20
9.52065
30
0
11
3.16292402425394E-16
21
0.27
31
0
210
0
220
0
230
1
40
0.996195
41
0.881327184779182
42
2.39110107523228
0
ELLIPSE
5
198
100
AcDbEntity
8
1
62
256
6
ByLayer
370
-1
48
1
60
0
100
AcDbEllipse
10
215.291668
20
12.54823
30
0
11
3.16169255543626E-15
21
2.69894876836046
31
0
210
0
220
0
230
1
40
0.996195
41
0
42
6.28318530717959
0
ELLIPSE
5
199
100
AcDbEntity
8
1
62
256
6
ByLayer
370
-1
48
1
60
0
100
AcDbEllipse
10
219.224395
20
8.866894
30
0
11
-4.03443321277421E-16
21
-0.376392246597646
31
0
210
0
220
0
230
1
40
0.996195
41
0.0349065850399337
42
1.60570291183476
0
ELLIPSE
5
19A
100
AcDbEntity
8
1
62
256
6
ByLayer
370
-1
48
1
60
0
100
AcDbEllipse
10
216.171349
20
16.398261
30
0
11
-4.03443321277421E-16
21
-0.376392246597646
31
0
210
0
220
0
230
1
40
0.996195
41
-3.10668606854994
42
-0.225460092426884
0
ELLIPSE
5
19B
100
AcDbEntity
8
1
62
256
6
ByLayer
370
-1
48
1
60
0
100
AcDbEllipse
10
219.127048
20
11.665188
30
0
11
-4.03443321277419E-16
21
-0.376392246597645
31
0
210
0
220
0
230
1
40
0.996195
41
1.60570291183476
42
-1.79625641922177
0
ELLIPSE
5
19C
100
AcDbEntity
8
1
62
256
6
ByLayer
370
-1
48
1
60
0
100
AcDbEllipse
10
216.102164
20
16.154588
30
0
11
0.0448731734378583
21
0.194900996163734
31
0
210
0
220
0
230
1
40
0.08495
41
-2.23532153831911
42
-1.55124030652268
0
ELLIPSE
5
19D
100
AcDbEntity
8
1
62
256
6
ByLayer
370
-1
48
1
60
0
100
AcDbEllipse
10
219.362436
20
11.673913
30
0
11
0.199879090035388
21
0.00695337088219774
31
0
210
0
220
0
230
1
40
0.003042
41
-1.48358275532882
42
-0.799501523532692
0
ELLIPSE
5
19E
100
AcDbEntity
8
1
62
256
6
ByLayer
370
-1
48
1
60
0
100
AcDbEllipse
10
215.291668
20
12.54823
30
0
11
4.18631474685054E-15
21
3.57360775340235
31
0
210
0
220
0
230
1
40
0.996195
41
-1.27552306428827
42
-0.225460092426846
0
ELLIPSE
5
19F
100
AcDbEntity
8
1
62
256
6
ByLayer
370
-1
48
1
60
0
100
AcDbEllipse
10
212.105759
20
9.104047
30
0
11
1.1948824091626E-15
21
1.02
31
0
210
0
220
0
230
1
40
0.996195
41
1.74759996643893
42
-2.42145532631401
0
ELLIPSE
5
1A0
100
AcDbEntity
8
1
62
256
6
ByLayer
370
-1
48
1
60
0
100
AcDbEllipse
10
211.934706
20
15.681744
30
0
11
0.434438947393044
21
0.117314964893762
31
0
210
0
220
0
230
1
40
0.022802
41
-1.48655483674057
42
-0.84305372794758
0
ELLIPSE
5
1A1
100
AcDbEntity
8
1
62
256
6
ByLayer
370
-1
48
1
60
0
100
AcDbEllipse
10
211.682697
20
16.614982
30
0
11
0.434438947393044
21
0.117314964893762
31
0
210
0
220
0
230
1
40
0.022802
41
-2.13005594553422
42
-1.48655483674076
0
ELLIPSE
5
1A2
100
AcDbEntity
8
1
62
256
6
ByLayer
370
-1
48
1
60
0
100
AcDbEllipse
10
219.060264
20
13.697685
30
0
11
-2.67967343193369E-16
21
-0.249999999999999
31
0
210
0
220
0
230
1
40
0.996195
41
-1.27552306428819
42
1.60570291183485
0
ELLIPSE
5
1A3
100
AcDbEntity
8
1
62
256
6
ByLayer
370
-1
48
1
60
0
100
AcDbEllipse
10
211.848436
20
9.52065
30
0
11
0.307524634367036
21
0.328524883772022
31
0
210
0
220
0
230
1
40
0.063742
41
-2.15470096795558
42
-1.54779877208537
0
ELLIPSE
5
1A4
100
AcDbEntity
8
1
62
256
6
ByLayer
370
-1
48
1
60
0
100
AcDbEllipse
10
215.481287
20
12.54823
30
0
11
-2.14373874554696E-15
21
-2
31
0
210
0
220
0
230
1
40
0.996195
41
3.14149442776612
42
0
0
ELLIPSE
5
1A5
100
AcDbEntity
8
1
62
256
6
ByLayer
370
-1
48
1
60
0
100
AcDbEllipse
10
215.481287
20
12.54823
30
0
11
-2.14373874554696E-15
21
-2
31
0
210
0
220
0
230
1
40
0.996195
41
0
42
0.373555078115227
0
ELLIPSE
5
1A6
100
AcDbEntity
8
1
62
256
6
ByLayer
370
-1
48
1
60
0
100
AcDbEllipse
10
211.682697
20
16.614982
30
0
11
0.307524634367036
21
0.328524883772022
31
0
210
0
220
0
230
1
40
0.063742
41
-1.51119985916245
42
-0.867698750369066
0
ELLIPSE
5
1A7
100
AcDbEntity
8
1
62
256
6
ByLayer
370
-1
48
1
60
0
100
AcDbEllipse
10
212.207669
20
9.21375
30
0
11
-2.8940473064884E-16
21
-0.27
31
0
210
0
220
0
230
1
40
0.996195
41
-0.750491578357515
42
2.39110107523228
0
ELLIPSE
5
1A8
100
AcDbEntity
8
1
62
256
6
ByLayer
370
-1
48
1
60
0
100
AcDbEllipse
10
216.175271
20
16.398261
30
0
11
-2.67967343193372E-16
21
-0.250000000000001
31
0
210
0
220
0
230
1
40
0.996195
41
-3.10668606855002
42
-0.22546009242684
0
ELLIPSE
5
1A9
100
AcDbEntity
8
1
62
256
6
ByLayer
370
-1
48
1
60
0
100
AcDbEllipse
10
215.29559
20
12.54823
30
0
11
4.33437736657022E-15
21
3.7
31
0
210
0
220
0
230
1
40
0.996195
41
-1.27552306428828
42
-0.225460092426851
0
ELLIPSE
5
1AA
100
AcDbEntity
8
1
62
256
6
ByLayer
370
-1
48
1
60
0
100
AcDbEllipse
10
211.966082
20
15.681744
30
0
11
-2.8940473064884E-16
21
-0.27
31
0
210
0
220
0
230
1
40
0.996195
41
-0.194895099806079
42
1.8355045966806
0
ELLIPSE
5
1AB
100
AcDbEntity
8
1
62
256
6
ByLayer
370
-1
48
1
60
0
100
AcDbEllipse
10
219.29173
20
13.70641
30
0
11
0.199879090035388
21
0.00695337088219774
31
0
210
0
220
0
230
1
40
0.003042
41
-1.48358275532896
42
-0.799501523536358
0
ELLIPSE
5
1AC
100
AcDbEntity
8
1
62
256
6
ByLayer
370
-1
48
1
60
0
100
AcDbEllipse
10
219.459783
20
8.875619
30
0
11
0.199879090035388
21
0.00695337088219774
31
0
210
0
220
0
230
1
40
0.003042
41
-1.48358275532882
42
-0.799501523532692
0
ELLIPSE
5
1AD
100
AcDbEntity
8
1
62
256
6
ByLayer
370
-1
48
1
60
0
100
AcDbEllipse
10
211.021081
20
15.869001
30
0
11
3.16292402425394E-16
21
0.27
31
0
210
0
220
0
230
1
40
0.996195
41
-0.194895099806092
42
2.39110107523226
0
ELLIPSE
5
1AE
100
AcDbEntity
8
1
62
256
6
ByLayer
370
-1
48
1
60
0
100
AcDbEllipse
10
219.219577
20
8.617046
30
0
11
0.00700652876222734
21
-0.199877233707854
31
0
210
0
220
0
230
1
40
0.087103
41
0.883661794163252
42
1.56774302595899
0
ELLIPSE
5
1AF
100
AcDbEntity
8
1
62
256
6
ByLayer
370
-1
48
1
60
0
100
AcDbEllipse
10
212.916214
20
15.489684
30
0
11
-2.8940473064884E-16
21
-0.27
31
0
210
0
220
0
230
1
40
0.996195
41
-0.75049157835765
42
2.39110107523213
0
ELLIPSE
5
1B0
100
AcDbEntity
8
1
62
256
6
ByLayer
370
-1
48
1
60
0
100
AcDbEllipse
10
215.362959
20
12.54823
30
0
11
-2.71334196247261E-15
21
-2.53141103887668
31
0
210
0
220
0
230
1
40
0.996195
41
0
42
6.28318530717959
0
ELLIPSE
5
1B1
100
AcDbEntity
8
1
62
256
6
ByLayer
370
-1
48
1
60
0
100
AcDbEllipse
10
219.056342
20
13.697685
30
0
11
-4.03443321277419E-16
21
-0.376392246597645
31
0
210
0
220
0
230
1
40
0.996195
41
-1.27552306428833
42
1.60570291183476
0
POINT
5
41
100
AcDbEntity
8
81
62
256
6
ByLayer
370
-1
48
1
60
0
100
AcDbPoint
10
222
20
0
30
0
39
0
210
0
220
0
230
1
50
360
0
POINT
5
43
100
AcDbEntity
8
80
62
256
6
ByLayer
370
-1
48
1
60
0
100
AcDbPoint
10
0
20
0
30
0
39
0
210
0
220
0
230
1
50
360
0
SPLINE
5
1B2
100
AcDbEntity
8
1
62
256
6
ByLayer
370
-1
48
1
60
0
100
AcDbSpline
70
4
71
3
72
15
73
11
40
0
40
0
40
0
40
0
40
0.0388723549394749
40
0.182470881766798
40
0.325798656636002
40
0.468863966193853
40
0.611719023526239
40
0.754449249722563
40
0.897153764531032
40
1
40
1
40
1
40
1
41
1
10
213.690235760642
20
-3.35827568782281
30
0
41
1
10
213.711605257074
20
-3.32716301022597
30
0
41
1
10
213.816106274817
20
-3.18392447785934
30
0
41
1
10
214.036592239015
20
-2.95379968121446
30
0
41
1
10
214.385401565969
20
-2.71677366245942
30
0
41
1
10
214.776019042569
20
-2.55734700737733
30
0
41
1
10
215.19119458195
20
-2.48236101926091
30
0
41
1
10
215.612703483881
20
-2.49492737255781
30
0
41
1
10
215.983951769484
20
-2.58506818040922
30
0
41
1
10
216.203904772075
20
-2.68267507604384
30
0
41
1
10
216.292389786854
20
-2.73016370027511
30
0
0
SPLINE
5
1B3
100
AcDbEntity
8
1
62
256
6
ByLayer
370
-1
48
1
60
0
100
AcDbSpline
70
4
71
3
72
21
73
17
40
0
40
0
40
0
40
0
40
0.0358131454747629
40
0.110580332528481
40
0.18532368437351
40
0.259965025529444
40
0.334453740995452
40
0.408768254454359
40
0.48291789110319
40
0.55693906243748
40
0.630887842333976
40
0.704825165528377
40
0.778802272338508
40
0.852881566471575
40
0.927110213745052
40
1
40
1
40
1
40
1
41
1
10
215.37613128824
20
14.5344095068089
30
0
41
1
10
215.442718239668
20
14.5428145589086
30
0
41
1
10
215.647277936984
20
14.5557201162526
30
0
41
1
10
215.990775362381
20
14.4944664751778
30
0
41
1
10
216.382777562658
20
14.3471441687529
30
0
41
1
10
216.73548277106
20
14.1172089039376
30
0
41
1
10
217.032758282204
20
13.8191548908956
30
0
41
1
10
217.26163793405
20
13.4651459509628
30
0
41
1
10
217.412138299866
20
13.0712205408175
30
0
41
1
10
217.477860668049
20
12.6546913965546
30
0
41
1
10
217.456133605332
20
12.2338367638691
30
0
41
1
10
217.348127308422
20
11.8270355006988
30
0
41
1
10
217.158588805917
20
11.4518473750335
30
0
41
1
10
216.896195400466
20
11.1248307009215
30
0
41
1
10
216.573048791698
20
10.8606487364486
30
0
41
1
10
216.33014399638
20
10.7358373629384
30
0
41
1
10
216.201862588862
20
10.6856290881545
30
0
0
SPLINE
5
1B4
100
AcDbEntity
8
1
62
256
6
ByLayer
370
-1
48
1
60
0
100
AcDbSpline
70
4
71
3
72
18
73
14
40
0
40
0
40
0
40
0
40
0.0700413090535133
40
0.140631787625771
40
0.211071975824838
40
0.281132153856423
40
0.351315606607506
40
0.421350742125763
40
0.491262981193645
40
0.561080548287915
40
0.707157044849415
40
0.853312557591548
40
1
40
1
40
1
40
1
41
1
10
28
20
18.73
30
0
41
1
10
27.4350782817884
20
18.7303878545219
30
0
41
1
10
26.313262024337
20
18.8085447269939
30
0
41
1
10
24.6544606616808
20
19.1660235419879
30
0
41
1
10
23.0583818098997
20
19.7434265528653
30
0
41
1
10
21.5861528940072
20
20.5727726996819
30
0
41
1
10
20.0797877010252
20
21.3248102746583
30
0
41
1
10
18.5421759963114
20
22.0094239949114
30
0
41
1
10
16.9774279956028
20
22.6211958693944
30
0
41
1
10
14.8093500591286
20
23.3555390137062
30
0
41
1
10
11.9994373386302
20
24.0861280817388
30
0
41
1
10
8.51881614874088
20
24.6281184107131
30
0
41
1
10
6.17906859047295
20
24.7489627847824
30
0
41
1
10
5.00000000000003
20
24.75
30
0
0
SPLINE
5
1B5
100
AcDbEntity
8
1
62
256
6
ByLayer
370
-1
48
1
60
0
100
AcDbSpline
70
4
71
3
72
17
73
13
40
0
40
0
40
0
40
0
40
0.140044992152655
40
0.279584621734254
40
0.419019282773439
40
0.558664313665345
40
0.631999746718916
40
0.705491551100086
40
0.778929305270015
40
0.852649545146819
40
0.92660788238509
40
1
40
1
40
1
40
1
41
1
10
4.99999999999997
20
-24.75
30
0
41
1
10
6.12526177128422
20
-24.7491145231325
30
0
41
1
10
8.35937769557083
20
-24.6388928011506
30
0
41
1
10
11.6851017957091
20
-24.1446830197391
30
0
41
1
10
14.9421610067382
20
-23.3364931571755
30
0
41
1
10
17.6101911545599
20
-22.4041096029308
30
0
41
1
10
19.7160366310621
20
-21.4938783584448
30
0
41
1
10
21.3054781597139
20
-20.728108282741
30
0
41
1
10
22.8390802171956
20
-19.8461341177193
30
0
41
1
10
24.4978033959455
20
-19.2070069337793
30
0
41
1
10
26.2329141652828
20
-18.8166388504315
30
0
41
1
10
27.4076483287687
20
-18.7304674875942
30
0
41
1
10
28
20
-18.7300000000001
30
0
0
SPLINE
5
1B6
100
AcDbEntity
8
1
62
256
6
ByLayer
370
-1
48
1
60
0
100
AcDbSpline
70
4
71
3
72
18
73
14
40
0
40
0
40
0
40
0
40
0.177462598140487
40
0.177462598140487
40
0.383096948605365
40
0.383096948605365
40
0.588731299070243
40
0.588731299070243
40
0.794365649535122
40
0.794365649535122
40
0.897182824767561
40
0.897182824767561
40
1
40
1
40
1
40
1
41
1
10
151.985393802301
20
15.2877415663914
30
0
41
1
10
154.460044907606
20
15.5546945657282
30
0
41
1
10
156.935001104515
20
15.806182161992
30
0
41
1
10
162.279099502776
20
16.3137509337001
30
0
41
1
10
165.147889596948
20
16.564292437014
30
0
41
1
10
170.883504443707
20
17.0192708646024
30
0
41
1
10
173.750633792885
20
17.2240729749769
30
0
41
1
10
179.485059289392
20
17.5853181065718
30
0
41
1
10
182.352732892017
20
17.7412735738954
30
0
41
1
10
186.654592538971
20
17.9390488439481
30
0
41
1
10
188.08851796127
20
17.9990326563355
30
0
41
1
10
190.956412934323
20
18.1068309114449
30
0
41
1
10
192.390398874856
20
18.1546011802697
30
0
41
1
10
193.824833332684
20
18.1959175141958
30
0
0
SPLINE
5
1B7
100
AcDbEntity
8
1
62
256
6
ByLayer
370
-1
48
1
60
0
100
AcDbSpline
70
4
71
3
72
56
73
52
40
0
40
0
40
0
40
0
40
0.0624999999999994
40
0.0624999999999994
40
0.124999999999999
40
0.124999999999999
40
0.187499999999998
40
0.187499999999998
40
0.249999999999998
40
0.249999999999998
40
0.265624999999998
40
0.265624999999998
40
0.281249999999998
40
0.281249999999998
40
0.312499999999998
40
0.312499999999998
40
0.343749999999998
40
0.343749999999998
40
0.374999999999998
40
0.374999999999998
40
0.437499999999998
40
0.437499999999998
40
0.468749999999998
40
0.468749999999998
40
0.499999999999998
40
0.499999999999998
40
0.562499999999998
40
0.562499999999998
40
0.593749999999998
40
0.593749999999998
40
0.624999999999998
40
0.624999999999998
40
0.687499999999998
40
0.687499999999998
40
0.703124999999998
40
0.703124999999998
40
0.718749999999998
40
0.718749999999998
40
0.749999999999999
40
0.749999999999999
40
0.812499999999999
40
0.812499999999999
40
0.843749999999999
40
0.843749999999999
40
0.874999999999999
40
0.874999999999999
40
0.9375
40
0.9375
40
0.96875
40
0.96875
40
1
40
1
40
1
40
1
41
1
10
16.142009699211
20
10.9216366787107
30
0
41
1
10
15.6372924782677
20
11.0369514782428
30
0
41
1
10
15.1327378352467
20
11.1095347035718
30
0
41
1
10
14.1240251110269
20
11.1708783698725
30
0
41
1
10
13.6198661994343
20
11.159674003581
30
0
41
1
10
12.611859122506
20
11.0474168176565
30
0
41
1
10
12.1217644078005
20
10.9477779352832
30
0
41
1
10
11.1719520857608
20
10.6629531366809
30
0
41
1
10
10.7116823925988
20
10.4777519239315
30
0
41
1
10
10.1558709530515
20
10.1882371666975
30
0
41
1
10
10.0460634628505
20
10.1275867016687
30
0
41
1
10
9.83068728964435
20
10.0016755818645
30
0
41
1
10
9.72488116488981
20
9.93629288855297
30
0
41
1
10
9.41304951862782
20
9.73291747201674
30
0
41
1
10
9.21260008981315
20
9.58771151288491
30
0
41
1
10
8.82652376709871
20
9.27799917573674
30
0
41
1
10
8.64089636083324
20
9.11349373086202
30
0
41
1
10
8.28475706813762
20
8.76466396816329
30
0
41
1
10
8.11396856757358
20
8.58001182454535
30
0
41
1
10
7.62700871187226
20
7.99684285111601
30
0
41
1
10
7.34479524910148
20
7.58008186612057
30
0
41
1
10
6.98241350856253
20
6.91417824794408
30
0
41
1
10
6.87183768422312
20
6.68537606956673
30
0
41
1
10
6.67139162844524
20
6.2138235981551
30
0
41
1
10
6.5811969228503
20
5.96980243442485
30
0
41
1
10
6.34697060991167
20
5.23049592279267
30
0
41
1
10
6.23740474992132
20
4.72551260680666
30
0
41
1
10
6.13929015708592
20
3.95049496680659
30
0
41
1
10
6.11768972381694
20
3.68921545099155
30
0
41
1
10
6.0968355697166
20
3.16068860541682
30
0
41
1
10
6.09773402004018
20
2.89623954849566
30
0
41
1
10
6.13263131908758
20
2.10704786746683
30
0
41
1
10
6.19853138158237
20
1.58435372452598
30
0
41
1
10
6.33138299369557
20
0.93498284720107
30
0
41
1
10
6.36049436451981
20
0.805309984816972
30
0
41
1
10
6.42379558039335
20
0.546365195653038
30
0
41
1
10
6.45800398432459
20
0.417078002223576
30
0
41
1
10
6.56726363820621
20
0.0330911297492094
30
0
41
1
10
6.64919428111085
20
-0.218860595998848
30
0
41
1
10
6.92088032418522
20
-0.963200469864887
30
0
41
1
10
7.13636626984928
20
-1.44414489234569
30
0
41
1
10
7.50901738435505
20
-2.14356518073504
30
0
41
1
10
7.64201682879761
20
-2.37374932148293
30
0
41
1
10
7.92079846332285
20
-2.82070038345677
30
0
41
1
10
8.06680398671409
20
-3.03801781139791
30
0
41
1
10
8.52392644571586
20
-3.67220526665835
30
0
41
1
10
8.85402336091246
20
-4.07142139589084
30
0
41
1
10
9.38667990241649
20
-4.63554929198304
30
0
41
1
10
9.57079768109665
20
-4.81803939940519
30
0
41
1
10
9.9506376063031
20
-5.16998983328992
30
0
41
1
10
10.145703506582
20
-5.33888002311906
30
0
41
1
10
10.3459569541018
20
-5.50068240576141
30
0
0
SPLINE
5
1B8
100
AcDbEntity
8
1
62
256
6
ByLayer
370
-1
48
1
60
0
100
AcDbSpline
70
4
71
3
72
10
73
6
40
0
40
0
40
0
40
0
40
0.89933310398398
40
0.89933310398398
40
1
40
1
40
1
40
1
41
1
10
125
20
-17.7629431962655
30
0
41
1
10
134.772035462128
20
-17.2694158413266
30
0
41
1
10
144.53493256542
20
-16.4956951644994
30
0
41
1
10
155.396070683371
20
-15.3562020578296
30
0
41
1
10
156.489543129667
20
-15.2383528855035
30
0
41
1
10
157.583082050134
20
-15.117454602416
30
0
0
SPLINE
5
1B9
100
AcDbEntity
8
1
62
256
6
ByLayer
370
-1
48
1
60
0
100
AcDbSpline
70
4
71
3
72
11
73
7
40
0
40
0
40
0
40
0
40
0.299347684591371
40
0.598695369182743
40
0.898043053774114
40
1
40
1
40
1
40
1
41
1
10
193.824833332653
20
12.6999999999997
30
0
41
1
10
192.970201157152
20
12.6753737870077
30
0
41
1
10
191.26097414957
20
12.6228988429428
30
0
41
1
10
188.697423474719
20
12.5347261337485
30
0
41
1
10
186.697443310663
20
12.4587852420977
30
0
41
1
10
185.551802482371
20
12.4126235501063
30
0
41
1
10
185.26072527012
20
12.4007251292923
30
0
0
SPLINE
5
1BA
100
AcDbEntity
8
1
62
256
6
ByLayer
370
-1
48
1
60
0
100
AcDbSpline
70
4
71
3
72
34
73
30
40
0
40
0
40
0
40
0
40
0.0537202589414131
40
0.0537202589414131
40
0.126511008253612
40
0.126511008253612
40
0.199301757565811
40
0.199301757565811
40
0.27209250687801
40
0.27209250687801
40
0.344883256190209
40
0.344883256190209
40
0.417674005502408
40
0.417674005502408
40
0.490464754814607
40
0.490464754814607
40
0.563255504126806
40
0.563255504126806
40
0.636046253439005
40
0.636046253439005
40
0.708837002751204
40
0.708837002751204
40
0.781627752063403
40
0.781627752063403
40
0.854418501375602
40
0.854418501375602
40
0.927209250687801
40
0.927209250687801
40
1
40
1
40
1
40
1
41
1
10
11.863706950742
20
-6.4735212892742
30
0
41
1
10
11.760911673834
20
-6.33100748480862
30
0
41
1
10
11.6675307010817
20
-6.16500021632234
30
0
41
1
10
11.4717748023961
20
-5.72196290408797
30
0
41
1
10
11.37797899802
20
-5.42644953529094
30
0
41
1
10
11.2310528884219
20
-4.76364615885495
30
0
41
1
10
11.1779250961779
20
-4.39636748759702
30
0
41
1
10
11.1140351175121
20
-3.60177447116686
30
0
41
1
10
11.1032740238445
20
-3.17447371646438
30
0
41
1
10
11.1244629683318
20
-2.27349705431908
30
0
41
1
10
11.1564126440775
20
-1.79983655689853
30
0
41
1
10
11.2620030250154
20
-0.82128371078349
30
0
41
1
10
11.3356419242228
20
-0.316408098949978
30
0
41
1
10
11.5222576376705
20
0.708433080000901
30
0
41
1
10
11.6352312600943
20
1.22838111855617
30
0
41
1
10
11.8969055310487
20
2.26674277486097
30
0
41
1
10
12.0456017039846
20
2.78513863279844
30
0
41
1
10
12.3739678656195
20
3.80382061272547
30
0
41
1
10
12.5536322380466
20
4.30408931149799
30
0
41
1
10
12.938191244119
20
5.2705206912926
30
0
41
1
10
13.1430793003876
20
5.73666684277549
30
0
41
1
10
13.5715354174763
20
6.61994733814319
30
0
41
1
10
13.7950961501175
20
7.03706657467541
30
0
41
1
10
14.2537500964087
20
7.8089545339177
30
0
41
1
10
14.4888354653854
20
8.16371005449818
30
0
41
1
10
14.9630224259428
20
8.7995254456099
30
0
41
1
10
15.2021159071784
20
9.08057444135414
30
0
41
1
10
15.6766744207785
20
9.55998796133989
30
0
41
1
10
15.912131336443
20
9.75834428584292
30
0
41
1
10
16.1420096992096
20
9.91218582371718
30
0
0
SPLINE
5
1BB
100
AcDbEntity
8
1
62
256
6
ByLayer
370
-1
48
1
60
0
100
AcDbSpline
70
4
71
1
72
4
73
2
40
0
40
0
40
1
40
1
41
1
10
29.4420096992104
20
4.80540942693219
30
0
41
1
10
29.4420096992106
20
7.01206667849914
30
0
0
SPLINE
5
1BC
100
AcDbEntity
8
1
62
256
6
ByLayer
370
-1
48
1
60
0
100
AcDbSpline
70
4
71
3
72
10
73
6
40
0
40
0
40
0
40
0
40
0.5
40
0.5
40
1
40
1
40
1
40
1
41
1
10
193.824833332653
20
18.1959175141951
30
0
41
1
10
194.194658443703
20
18.2041839336528
30
0
41
1
10
194.5570407942
20
18.215588419989
30
0
41
1
10
195.267589021054
20
18.2427168925308
30
0
41
1
10
195.615752963784
20
18.2584446378638
30
0
41
1
10
195.956816967009
20
18.2750634657291
30
0
0
SPLINE
5
1BD
100
AcDbEntity
8
1
62
256
6
ByLayer
370
-1
48
1
60
0
100
AcDbSpline
70
4
71
3
72
24
73
20
40
0
40
0
40
0
40
0
40
0.0625000000000001
40
0.0625000000000001
40
0.125
40
0.125
40
0.25
40
0.25
40
0.375000000000001
40
0.375000000000001
40
0.437500000000001
40
0.437500000000001
40
0.500000000000001
40
0.500000000000001
40
0.75
40
0.75
40
0.875
40
0.875
40
1
40
1
40
1
40
1
41
1
10
33
20
6.35589901520103
30
0
41
1
10
34.9176000976867
20
5.99869340891149
30
0
41
1
10
36.8349337975159
20
5.63860207543701
30
0
41
1
10
40.6688045980688
20
4.91134757262242
30
0
41
1
10
42.5854592456605
20
4.54476405184721
30
0
41
1
10
48.3353135887667
20
3.43983218285717
30
0
41
1
10
52.1682861434887
20
2.69572508262544
30
0
41
1
10
59.8349931314143
20
1.19914361870414
30
0
41
1
10
63.6687569113071
20
0.446806671902635
30
0
41
1
10
69.4216441248661
20
-0.679407737678474
30
0
41
1
10
71.339736386317
20
-1.05439216172906
30
0
41
1
10
75.1742804260424
20
-1.80145971074794
30
0
41
1
10
77.0910621840679
20
-2.17362054560419
30
0
41
1
10
86.6732152184119
20
-4.02394580178745
30
0
41
1
10
94.3335000868886
20
-5.4695130236507
30
0
41
1
10
105.82761092327
20
-7.52774492935774
30
0
41
1
10
109.659578539213
20
-8.19557293170337
30
0
41
1
10
117.327199282375
20
-9.48327806636468
30
0
41
1
10
121.162562720531
20
-10.1045506566659
30
0
41
1
10
125
20
-10.7007856332658
30
0
0
SPLINE
5
1BE
100
AcDbEntity
8
1
62
256
6
ByLayer
370
-1
48
1
60
0
100
AcDbSpline
70
4
71
3
72
20
73
16
40
0
40
0
40
0
40
0
40
0.250000000000003
40
0.250000000000003
40
0.500000000000006
40
0.500000000000006
40
0.625000000000026
40
0.625000000000026
40
0.750000000000047
40
0.750000000000047
40
0.812500000000035
40
0.812500000000035
40
0.875000000000024
40
0.875000000000024
40
1
40
1
40
1
40
1
41
1
10
182.673950842788
20
14.9507310544095
30
0
41
1
10
182.771966591626
20
15.0749791086348
30
0
41
1
10
182.874649160611
20
15.1949536191478
30
0
41
1
10
183.094512593267
20
15.4216394938263
30
0
41
1
10
183.211871416448
20
15.5285717076658
30
0
41
1
10
183.401245508663
20
15.6674774400896
30
0
41
1
10
183.466763180832
20
15.7103043431686
30
0
41
1
10
183.604445713386
20
15.7863186022332
30
0
41
1
10
183.676998306226
20
15.8195228880228
30
0
41
1
10
183.788260704291
20
15.8573389669953
30
0
41
1
10
183.825895692722
20
15.8680284912274
30
0
41
1
10
183.902419268742
20
15.8850296352708
30
0
41
1
10
183.941573872333
20
15.8913570486443
30
0
41
1
10
184.058846485963
20
15.9025843195894
30
0
41
1
10
184.136694736882
20
15.8998826076515
30
0
41
1
10
184.214202161456
20
15.8863615420349
30
0
0
SPLINE
5
1BF
100
AcDbEntity
8
1
62
256
6
ByLayer
370
-1
48
1
60
0
100
AcDbSpline
70
4
71
3
72
17
73
13
40
0
40
0
40
0
40
0
40
0.0896814543846305
40
0.203471272586551
40
0.317261090788473
40
0.544840727192316
40
0.601735636293276
40
0.658630545394236
40
0.715525454495198
40
0.772420363596158
40
0.886210181798079
40
1
40
1
40
1
40
1
41
1
10
51.976271662419
20
2.73185328991141
30
0
41
1
10
51.3025864507047
20
2.79666261473355
30
0
41
1
10
49.7741133215185
20
2.94321301141983
30
0
41
1
10
47.3908607301155
20
3.16988091149503
30
0
41
1
10
43.9717677485436
20
3.49209937878999
30
0
41
1
10
40.980057630488
20
3.77060921342104
30
0
41
1
10
38.4159802754453
20
4.00575544386751
30
0
41
1
10
37.1340387004402
20
4.12241614469107
30
0
41
1
10
35.8521164623661
20
4.23811395882149
30
0
41
1
10
34.1427048369219
20
4.39126035121711
30
0
41
1
10
32.0056447729172
20
4.58095903898507
30
0
41
1
10
30.2963414757648
20
4.73110297978749
30
0
41
1
10
29.4420096992134
20
4.80540942693187
30
0
0
SPLINE
5
1C0
100
AcDbEntity
8
1
62
256
6
ByLayer
370
-1
48
1
60
0
100
AcDbSpline
70
4
71
3
72
8
73
4
40
0
40
0
40
0
40
0
40
1
40
1
40
1
40
1
41
1
10
16.1420096992109
20
9.9121858237157
30
0
41
1
10
20.5860859771791
20
8.20408159126592
30
0
41
1
10
25.0197894487027
20
6.50008539934728
30
0
41
1
10
29.4420096992104
20
4.80540942693219
30
0
0
SPLINE
5
1C1
100
AcDbEntity
8
1
62
256
6
ByLayer
370
-1
48
1
60
0
100
AcDbSpline
70
4
71
3
72
24
73
20
40
0
40
0
40
0
40
0
40
0.16683578707757
40
0.16683578707757
40
0.218908550385222
40
0.218908550385222
40
0.270981313692874
40
0.270981313692874
40
0.375126840308179
40
0.375126840308179
40
0.583417893538787
40
0.583417893538787
40
0.635490656846439
40
0.635490656846439
40
0.687563420154091
40
0.687563420154091
40
0.791708946769394
40
0.791708946769394
40
1
40
1
40
1
40
1
41
1
10
195.566157273708
20
5.60194522623334
30
0
41
1
10
195.642417423758
20
5.87217979941465
30
0
41
1
10
195.712866079994
20
6.17045252891955
30
0
41
1
10
195.796817024725
20
6.59845884937278
30
0
41
1
10
195.816148431036
20
6.70301456574467
30
0
41
1
10
195.853457613385
20
6.91770409421389
30
0
41
1
10
195.87144956133
20
7.02797394601458
30
0
41
1
10
195.922714032662
20
7.36356990508895
30
0
41
1
10
195.953490529952
20
7.59478157977222
30
0
41
1
10
196.035079734335
20
8.31015706023351
30
0
41
1
10
196.075368385936
20
8.81587548680028
30
0
41
1
10
196.103661539009
20
9.48463464681774
30
0
41
1
10
196.108186013323
20
9.62012715318798
30
0
41
1
10
196.11476706974
20
9.89170147818825
30
0
41
1
10
196.116841474162
20
10.0281608527947
30
0
41
1
10
196.119264604418
20
10.4394900728541
30
0
41
1
10
196.115836103578
20
10.7163085149654
30
0
41
1
10
196.088498897469
20
11.5541539811498
30
0
41
1
10
196.048410153911
20
12.1225918553001
30
0
41
1
10
195.974487963321
20
12.6999999999998
30
0
0
SPLINE
5
1C2
100
AcDbEntity
8
1
62
256
6
ByLayer
370
-1
48
1
60
0
100
AcDbSpline
70
4
71
4
72
10
73
5
40
0
40
0
40
0
40
0
40
0
40
1
40
1
40
1
40
1
40
1
41
1
10
193.824833332653
20
12.6999999999997
30
0
41
1
10
193.824833332664
20
14.0739793785487
30
0
41
1
10
193.824833332673
20
15.4479587570977
30
0
41
1
10
193.824833332679
20
16.8219381356467
30
0
41
1
10
193.824833332684
20
18.1959175141957
30
0
0
SPLINE
5
1C3
100
AcDbEntity
8
1
62
256
6
ByLayer
370
-1
48
1
60
0
100
AcDbSpline
70
4
71
3
72
8
73
4
40
0
40
0
40
0
40
0
40
1
40
1
40
1
40
1
41
1
10
27.357990300789
20
-12.5353788006712
30
0
41
1
10
27.2929913231506
20
-12.5186911732215
30
0
41
1
10
27.2279657836007
20
-12.502107235287
30
0
41
1
10
27.1629141703386
20
-12.4856274364434
30
0
0
SPLINE
5
1C4
100
AcDbEntity
8
1
62
256
6
ByLayer
370
-1
48
1
60
0
100
AcDbSpline
70
4
71
2
72
6
73
3
40
0
40
0
40
0
40
1
40
1
40
1
41
1
10
24.957799913706
20
-11.9071700362165
30
0
41
1
10
24.9577999137059
20
-12.8314124213665
30
0
41
1
10
24.9577999137059
20
-13.7556548065166
30
0
0
SPLINE
5
1C5
100
AcDbEntity
8
1
62
256
6
ByLayer
370
-1
48
1
60
0
100
AcDbSpline
70
4
71
4
72
10
73
5
40
0
40
0
40
0
40
0
40
0
40
1
40
1
40
1
40
1
40
1
41
0.997131775777483
10
193.458073173121
20
6.48392275843219
30
0
41
0.994805999782558
10
193.633447999269
20
7.73134090315603
30
0
41
0.993729537589381
10
193.766615274501
20
9.31596510769966
30
0
41
1
10
193.824833332653
20
11.0712460753265
30
0
41
1
10
193.824833332653
20
12.6999999999997
30
0
0
SPLINE
5
1C6
100
AcDbEntity
8
1
62
256
6
ByLayer
370
-1
48
1
60
0
100
AcDbSpline
70
4
71
3
72
8
73
4
40
0
40
0
40
0
40
0
40
1
40
1
40
1
40
1
41
1
10
15.2430265664977
20
-8.05320171890205
30
0
41
1
10
15.2430265664977
20
-9.08750776365045
30
0
41
1
10
15.2430265664977
20
-10.1218138083989
30
0
41
1
10
15.2430265664977
20
-11.1561198531473
30
0
0
SPLINE
5
1C7
100
AcDbEntity
8
1
62
256
6
ByLayer
370
-1
48
1
60
0
100
AcDbSpline
70
4
71
3
72
12
73
8
40
0
40
0
40
0
40
0
40
0.249999999999986
40
0.249999999999986
40
0.499999999999973
40
0.499999999999973
40
1
40
1
40
1
40
1
41
1
10
208.780244428613
20
12.171013657397
30
0
41
1
10
208.784439327029
20
12.171013657397
30
0
41
1
10
208.792610162061
20
12.1766903375948
30
0
41
1
10
208.815995675153
20
12.1974886736741
30
0
41
1
10
208.831428543561
20
12.2128301753201
30
0
41
1
10
208.885210400103
20
12.2675228842316
30
0
41
1
10
208.931680001527
20
12.3158788066706
30
0
41
1
10
208.985618987746
20
12.3676100149201
30
0
0
SPLINE
5
1C8
100
AcDbEntity
8
1
62
256
6
ByLayer
370
-1
48
1
60
0
100
AcDbSpline
70
4
71
3
72
8
73
4
40
0
40
0
40
0
40
0
40
1
40
1
40
1
40
1
41
1
10
13.0451516078539
20
-7.09489059735304
30
0
41
1
10
12.644832904814
20
-6.9474676411107
30
0
41
1
10
12.2540599013111
20
-6.74253201639127
30
0
41
1
10
11.8714319912116
20
-6.48234155468012
30
0
0
SPLINE
5
1C9
100
AcDbEntity
8
1
62
256
6
ByLayer
370
-1
48
1
60
0
100
AcDbSpline
70
4
71
3
72
10
73
6
40
0
40
0
40
0
40
0
40
0.5
40
0.5
40
1
40
1
40
1
40
1
41
1
10
28
20
-13.7260658318329
30
0
41
1
10
27.489453552512
20
-13.6573332253482
30
0
41
1
10
26.9804567937005
20
-13.6255954963085
30
0
41
1
10
25.966169222692
20
-13.6353131345593
30
0
41
1
10
25.4608764163526
20
-13.6767507397041
30
0
41
1
10
24.9577999137059
20
-13.7556548065431
30
0
0
SPLINE
5
1CA
100
AcDbEntity
8
1
62
256
6
ByLayer
370
-1
48
1
60
0
100
AcDbSpline
70
4
71
3
72
12
73
8
40
0
40
0
40
0
40
0
40
0.104898575176388
40
0.104898575176388
40
0.403265716784258
40
0.403265716784258
40
1
40
1
40
1
40
1
41
1
10
220.189746573653
20
6.38211807343754
30
0
41
1
10
220.188801034091
20
6.36790608564047
30
0
41
1
10
220.187774525224
20
6.35430503131136
30
0
41
1
10
220.183581370027
20
6.30433653119303
30
0
41
1
10
220.17988983625
20
6.27207708353157
30
0
41
1
10
220.168096127083
20
6.19482607422009
30
0
41
1
10
220.1590308984
20
6.16730247196347
30
0
41
1
10
220.150122038949
20
6.1672198229893
30
0
0
SPLINE
5
1CB
100
AcDbEntity
8
1
62
256
6
ByLayer
370
-1
48
1
60
0
100
AcDbSpline
70
4
71
3
72
8
73
4
40
0
40
0
40
0
40
0
40
1
40
1
40
1
40
1
41
1
10
200.085470224656
20
3.7880293439872
30
0
41
1
10
200.216966535459
20
3.73795901771061
30
0
41
1
10
200.347853388317
20
3.6896605136929
30
0
41
1
10
200.478133384189
20
3.6431262704032
30
0
0
SPLINE
5
1CC
100
AcDbEntity
8
1
62
256
6
ByLayer
370
-1
48
1
60
0
100
AcDbSpline
70
4
71
3
72
32
73
28
40
0
40
0
40
0
40
0
40
0.048272528281311
40
0.096814533473007
40
0.145356538664703
40
0.193898543856399
40
0.218169546452247
40
0.242440549048095
40
0.266711551643943
40
0.290982554239791
40
0.339524559431487
40
0.388066564623184
40
0.412337567219032
40
0.43660856981488
40
0.460879572410728
40
0.485150575006576
40
0.533692580198272
40
0.582234585389968
40
0.630776590581664
40
0.67931859577336
40
0.727860600965056
40
0.776402606156752
40
0.824944611348448
40
0.873486616540144
40
0.92202862173184
40
0.970570626923536
40
1
40
1
40
1
40
1
41
1
10
155.531852083298
20
-14.8953819573588
30
0
41
1
10
153.831778217007
20
-15.0664715003604
30
0
41
1
10
150.422453629023
20
-15.3952347438435
30
0
41
1
10
145.304076941456
20
-15.8440375865586
30
0
41
1
10
140.176826552167
20
-16.2475976249499
30
0
41
1
10
135.904517140145
20
-16.5447036032193
30
0
41
1
10
132.486023304001
20
-16.7585572813228
30
0
41
1
10
129.921302691048
20
-16.9061911646102
30
0
41
1
10
127.356368181576
20
-17.0403841951349
30
0
41
1
10
123.937846384772
20
-17.202413523406
30
0
41
1
10
119.666211872158
20
-17.3750776043086
30
0
41
1
10
115.394590007055
20
-17.5087892458236
30
0
41
1
10
111.976069860414
20
-17.5904965732161
30
0
41
1
10
109.411320961593
20
-17.6384395788745
30
0
41
1
10
106.846230102325
20
-17.6725106199221
30
0
41
1
10
103.426676937242
20
-17.6999251306019
30
0
41
1
10
99.1530158941091
20
-17.7013783735407
30
0
41
1
10
94.024838151084
20
-17.6524413973743
30
0
41
1
10
88.8965075711786
20
-17.5527194422794
30
0
41
1
10
83.7679502566507
20
-17.4022939784577
30
0
41
1
10
78.6393221649825
20
-17.2014044399663
30
0
41
1
10
73.510618781392
20
-16.9503315173386
30
0
41
1
10
68.3816522116443
20
-16.6492946094122
30
0
41
1
10
63.2529207760873
20
-16.298678674705
30
0
41
1
10
58.1249282295184
20
-15.8996296419063
30
0
41
1
10
53.6702775093222
20
-15.5118340665871
30
0
41
1
10
50.9248819137377
20
-15.2532809609363
30
0
41
1
10
49.8886660966782
20
-15.1529715478993
30
0
0
SPLINE
5
1CD
100
AcDbEntity
8
1
62
256
6
ByLayer
370
-1
48
1
60
0
100
AcDbSpline
70
4
71
3
72
34
73
30
40
0
40
0
40
0
40
0
40
0.0755386244092642
40
0.0755386244092642
40
0.151077248818528
40
0.151077248818528
40
0.226615873227793
40
0.226615873227793
40
0.302154497637057
40
0.302154497637057
40
0.377693122046321
40
0.377693122046321
40
0.453231746455585
40
0.453231746455585
40
0.528770370864849
40
0.528770370864849
40
0.604308995274113
40
0.604308995274113
40
0.679847619683377
40
0.679847619683377
40
0.755386244092642
40
0.755386244092642
40
0.830924868501906
40
0.830924868501906
40
0.90646349291117
40
0.90646349291117
40
0.982002117320434
40
0.982002117320434
40
1
40
1
40
1
40
1
41
1
10
29.4420096992133
20
4.80540942693179
30
0
41
1
10
29.1899218156173
20
4.70891700877331
30
0
41
1
10
28.9311232792914
20
4.55641957561187
30
0
41
1
10
28.4100250318752
20
4.14526013145999
30
0
41
1
10
28.1477382059658
20
3.88660828719708
30
0
41
1
10
27.6297429917396
20
3.27307486206797
30
0
41
1
10
27.3740474118751
20
2.91820845202474
30
0
41
1
10
26.8790614964286
20
2.12587879137214
30
0
41
1
10
26.6397834003488
20
1.68843513267495
30
0
41
1
10
26.1868288148244
20
0.747758021013397
30
0
41
1
10
25.9731635255746
20
0.244547828144334
30
0
41
1
10
25.579647060678
20
-0.80832704066367
30
0
41
1
10
25.3998056155014
20
-1.35796568219666
30
0
41
1
10
25.0808498882967
20
-2.48257691740287
30
0
41
1
10
24.9417434930775
20
-3.05752170284714
30
0
41
1
10
24.7096057932938
20
-4.210651125373
30
0
41
1
10
24.6165802287913
20
-4.78880724905727
30
0
41
1
10
24.4801814780523
20
-5.92614074187878
30
0
41
1
10
24.4368116645437
20
-6.48528998820419
30
0
41
1
10
24.4013935903525
20
-7.56312046301741
30
0
41
1
10
24.4093462054516
20
-8.08177504002276
30
0
41
1
10
24.4762699045422
20
-9.05868207613617
30
0
41
1
10
24.5352393337133
20
-9.51691037929263
30
0
41
1
10
24.7019329658659
20
-10.3553519871653
30
0
41
1
10
24.8096530470188
20
-10.7355445597605
30
0
41
1
10
25.0697106694372
20
-11.4032998986063
30
0
41
1
10
25.2220417802655
20
-11.6908461532903
30
0
41
1
10
25.4346683131933
20
-11.9827089008852
30
0
41
1
10
25.4766808153644
20
-12.0359241837456
30
0
41
1
10
25.5197436233516
20
-12.0861481461201
30
0
0
SPLINE
5
1CE
100
AcDbEntity
8
1
62
256
6
ByLayer
370
-1
48
1
60
0
100
AcDbSpline
70
4
71
3
72
16
73
12
40
0
40
0
40
0
40
0
40
0.250000000000006
40
0.250000000000006
40
0.500000000000011
40
0.500000000000011
40
0.625000000000009
40
0.625000000000009
40
0.750000000000006
40
0.750000000000006
40
1
40
1
40
1
40
1
41
1
10
207.215520903621
20
1.16707537304222
30
0
41
1
10
206.606552611927
20
1.13105608826581
30
0
41
1
10
206.001471937044
20
1.13157941531262
30
0
41
1
10
204.798861813868
20
1.20360521706812
30
0
41
1
10
204.201332533305
20
1.27510946550186
30
0
41
1
10
203.310828361181
20
1.43664005623023
30
0
41
1
10
203.014961610929
20
1.49955610223469
30
0
41
1
10
202.425224051729
20
1.64405193916304
30
0
41
1
10
202.130753472295
20
1.72585374927115
30
0
41
1
10
201.258847868948
20
1.99759708012482
30
0
41
1
10
200.690728241472
20
2.21414257495951
30
0
41
1
10
200.136226750046
20
2.46689609985862
30
0
0
SPLINE
5
1CF
100
AcDbEntity
8
1
62
256
6
ByLayer
370
-1
48
1
60
0
100
AcDbSpline
70
4
71
3
72
8
73
4
40
0
40
0
40
0
40
0
40
1
40
1
40
1
40
1
41
1
10
206.799884571886
20
3.66557523584012
30
0
41
1
10
206.332530813576
20
3.49551870404625
30
0
41
1
10
205.850472829983
20
3.3441867401265
30
0
41
1
10
205.355602718717
20
3.21478772811415
30
0
0
SPLINE
5
1D0
100
AcDbEntity
8
1
62
256
6
ByLayer
370
-1
48
1
60
0
100
AcDbSpline
70
4
71
3
72
8
73
4
40
0
40
0
40
0
40
0
40
1
40
1
40
1
40
1
41
1
10
27.9999999999999
20
-13.7260658318329
30
0
41
1
10
29.6666916314537
20
-13.9504451426668
30
0
41
1
10
31.3333263600248
20
-14.1684792177892
30
0
41
1
10
33
20
-14.3798426670667
30
0
0
SPLINE
5
1D1
100
AcDbEntity
8
1
62
256
6
ByLayer
370
-1
48
1
60
0
100
AcDbSpline
70
4
71
3
72
12
73
8
40
0
40
0
40
0
40
0
40
0.25
40
0.25
40
0.5
40
0.5
40
1
40
1
40
1
40
1
41
1
10
208.581785054746
20
18.3948811108468
30
0
41
1
10
208.587081835652
20
18.3934649976625
30
0
41
1
10
208.598984760569
20
18.3917965266936
30
0
41
1
10
208.635484660529
20
18.3880480298162
30
0
41
1
10
208.660498755035
20
18.3859432191018
30
0
41
1
10
208.751650222025
20
18.3795010714599
30
0
41
1
10
208.835668695261
20
18.3748956615481
30
0
41
1
10
208.935981823538
20
18.3711548030944
30
0
0
SPLINE
5
1D2
100
AcDbEntity
8
1
62
256
6
ByLayer
370
-1
48
1
60
0
100
AcDbSpline
70
4
71
3
72
8
73
4
40
0
40
0
40
0
40
0
40
1
40
1
40
1
40
1
41
1
10
11.8714319912116
20
-6.48234155468012
30
0
41
1
10
11.3353766381052
20
-6.21515445197835
30
0
41
1
10
10.8266225558234
20
-5.88905444417628
30
0
41
1
10
10.3459569540915
20
-5.50068240575263
30
0
0
SPLINE
5
1D3
100
AcDbEntity
8
1
62
256
6
ByLayer
370
-1
48
1
60
0
100
AcDbSpline
70
4
71
3
72
8
73
4
40
0
40
0
40
0
40
0
40
1
40
1
40
1
40
1
41
1
10
185.26072527012
20
12.4007251292923
30
0
41
1
10
184.785244597822
20
12.3642488549775
30
0
41
1
10
184.309243731494
20
12.3384290382662
30
0
41
1
10
183.832898835239
20
12.320760255917
30
0
0
SPLINE
5
1D4
100
AcDbEntity
8
1
62
256
6
ByLayer
370
-1
48
1
60
0
100
AcDbSpline
70
4
71
3
72
32
73
28
40
0
40
0
40
0
40
0
40
0.125000000000001
40
0.125000000000001
40
0.187500000000003
40
0.187500000000003
40
0.250000000000004
40
0.250000000000004
40
0.312500000000005
40
0.312500000000005
40
0.375000000000006
40
0.375000000000006
40
0.437500000000007
40
0.437500000000007
40
0.500000000000008
40
0.500000000000008
40
0.562500000000009
40
0.562500000000009
40
0.62500000000001
40
0.62500000000001
40
0.750000000000011
40
0.750000000000011
40
0.875000000000011
40
0.875000000000011
40
0.937500000000006
40
0.937500000000006
40
1
40
1
40
1
40
1
41
1
10
183.584828715747
20
12.3303542526263
30
0
41
1
10
183.442892457676
20
12.3467005151581
30
0
41
1
10
183.306457984996
20
12.3813548860074
30
0
41
1
10
183.110420144279
20
12.4618208712616
30
0
41
1
10
183.046301516311
20
12.4936756979739
30
0
41
1
10
182.925158748782
20
12.5653010010065
30
0
41
1
10
182.86761597778
20
12.6052352770846
30
0
41
1
10
182.758608222547
20
12.6933691485899
30
0
41
1
10
182.706885074222
20
12.7418528730718
30
0
41
1
10
182.611019606985
20
12.8462771026467
30
0
41
1
10
182.567480018362
20
12.9014714373469
30
0
41
1
10
182.488824411254
20
13.0175817403473
30
0
41
1
10
182.453709524503
20
13.0784984680725
30
0
41
1
10
182.391995712536
20
13.2061233458579
30
0
41
1
10
182.365688622683
20
13.2724020842928
30
0
41
1
10
182.322916963451
20
13.406732934761
30
0
41
1
10
182.306237901653
20
13.4752146742355
30
0
41
1
10
182.282071050462
20
13.6147573836891
30
0
41
1
10
182.274607751593
20
13.6862553867669
30
0
41
1
10
182.266345248678
20
13.8992682374158
30
0
41
1
10
182.279015317082
20
14.040528197291
30
0
41
1
10
182.339112724612
20
14.3216696700918
30
0
41
1
10
182.385406874064
20
14.4562353764352
30
0
41
1
10
182.477341566387
20
14.6497362395272
30
0
41
1
10
182.511966202662
20
14.7131000699512
30
0
41
1
10
182.587958283691
20
14.835273372956
30
0
41
1
10
182.629291297516
20
14.8941191153231
30
0
41
1
10
182.673950842788
20
14.9507310544095
30
0
0
SPLINE
5
1D5
100
AcDbEntity
8
1
62
256
6
ByLayer
370
-1
48
1
60
0
100
AcDbSpline
70
4
71
3
72
11
73
7
40
0
40
0
40
0
40
0
40
0.0024206116350579
40
0.420516946929687
40
0.838613282224316
40
1
40
1
40
1
40
1
41
1
10
183.584828715747
20
12.3303542526263
30
0
41
1
10
183.579879953635
20
12.3301409854751
30
0
41
1
10
182.720163206272
20
12.2930830920891
30
0
41
1
10
181.00538753428
20
12.2162733241867
30
0
41
1
10
178.965221143396
20
12.1180365114012
30
0
41
1
10
177.780151994343
20
12.0582063772169
30
0
41
1
10
177.450118840294
20
12.0413292577147
30
0
0
SPLINE
5
1D6
100
AcDbEntity
8
1
62
256
6
ByLayer
370
-1
48
1
60
0
100
AcDbSpline
70
4
71
3
72
8
73
4
40
0
40
0
40
0
40
0
40
1
40
1
40
1
40
1
41
1
10
13.0451516105828
20
-7.09489057516049
30
0
41
1
10
13.7779769813743
20
-7.41823138436999
30
0
41
1
10
14.510650424748
20
-7.73777678699571
30
0
41
1
10
15.2430265664978
20
-8.05320171890205
30
0
0
SPLINE
5
1D7
100
AcDbEntity
8
1
62
256
6
ByLayer
370
-1
48
1
60
0
100
AcDbSpline
70
4
71
3
72
16
73
12
40
0
40
0
40
0
40
0
40
0.153125665070165
40
0.153125665070165
40
0.435417110046793
40
0.435417110046793
40
0.717708555023421
40
0.717708555023421
40
0.858854277511711
40
0.858854277511711
40
1
40
1
40
1
40
1
41
1
10
212.113080793675
20
6.09925666807354
30
0
41
1
10
212.091949092805
20
6.07977340104461
30
0
41
1
10
212.070999136594
20
6.06132687147624
30
0
41
1
10
212.012258559344
20
6.0117156891215
30
0
41
1
10
211.975119855654
20
5.98292479112098
30
0
41
1
10
211.905588714564
20
5.93290079550428
30
0
41
1
10
211.873742311439
20
5.91209764878752
30
0
41
1
10
211.836575049316
20
5.89009560497388
30
0
41
1
10
211.825980539441
20
5.88431492795155
30
0
41
1
10
211.809939957026
20
5.87659162562807
30
0
41
1
10
211.80436914553
20
5.87457070866628
30
0
41
1
10
211.801572881739
20
5.87457070866628
30
0
0
SPLINE
5
1D8
100
AcDbEntity
8
1
62
256
6
ByLayer
370
-1
48
1
60
0
100
AcDbSpline
70
4
71
3
72
8
73
4
40
0
40
0
40
0
40
0
40
1
40
1
40
1
40
1
41
1
10
27.1629141703386
20
-12.4856274364434
30
0
41
1
10
26.4223159387051
20
-12.3175659928748
30
0
41
1
10
25.6872544398601
20
-12.1250938646737
30
0
41
1
10
24.957799913706
20
-11.9071700361685
30
0
0
SPLINE
5
1D9
100
AcDbEntity
8
1
62
256
6
ByLayer
370
-1
48
1
60
0
100
AcDbSpline
70
4
71
3
72
22
73
18
40
0
40
0
40
0
40
0
40
0.125
40
0.125
40
0.250000000000001
40
0.250000000000001
40
0.375000000000001
40
0.375000000000001
40
0.437500000000001
40
0.437500000000001
40
0.500000000000001
40
0.500000000000001
40
0.750000000000001
40
0.750000000000001
40
0.875
40
0.875
40
1
40
1
40
1
40
1
41
1
10
205.355602718718
20
3.2147877281144
30
0
41
1
10
205.207254339396
20
3.17599748137923
30
0
41
1
10
205.047595684639
20
3.14334485002306
30
0
41
1
10
204.709313661714
20
3.09074155697661
30
0
41
1
10
204.530667714432
20
3.07079666390106
30
0
41
1
10
204.156669865921
20
3.04454817300137
30
0
41
1
10
203.961307426514
20
3.03824538142317
30
0
41
1
10
203.656791571426
20
3.04002553045518
30
0
41
1
10
203.553288346694
20
3.04251058280604
30
0
41
1
10
203.345022199899
20
3.05128317795695
30
0
41
1
10
203.239965534862
20
3.05756782555878
30
0
41
1
10
202.710490429382
20
3.09855414836656
30
0
41
1
10
202.273713516788
20
3.16175503253422
30
0
41
1
10
201.603864254984
20
3.30589805082491
30
0
41
1
10
201.378063902496
20
3.36228425886267
30
0
41
1
10
200.927988612047
20
3.4906738239745
30
0
41
1
10
200.70296126813
20
3.56282080693083
30
0
41
1
10
200.478133384189
20
3.64312627040331
30
0
0
SPLINE
5
1DA
100
AcDbEntity
8
1
62
256
6
ByLayer
370
-1
48
1
60
0
100
AcDbSpline
70
4
71
3
72
34
73
30
40
0
40
0
40
0
40
0
40
0.0157293360786883
40
0.0157293360786883
40
0.0914424640726352
40
0.0914424640726352
40
0.167155592066582
40
0.167155592066582
40
0.242868720060529
40
0.242868720060529
40
0.318581848054476
40
0.318581848054476
40
0.394294976048423
40
0.394294976048423
40
0.47000810404237
40
0.47000810404237
40
0.507864668039343
40
0.507864668039343
40
0.545721232036317
40
0.545721232036317
40
0.697147488024211
40
0.697147488024211
40
0.848573744012106
40
0.848573744012106
40
0.924286872006053
40
0.924286872006053
40
0.962143436003026
40
0.962143436003026
40
1
40
1
40
1
40
1
41
1
10
156.173799613068
20
-14.9684685130285
30
0
41
1
10
155.498515148967
20
-15.0365914632976
30
0
41
1
10
154.8232176015
20
-15.103551045309
30
0
41
1
10
150.897274856126
20
-15.4859178864571
30
0
41
1
10
147.646160986983
20
-15.7751380968535
30
0
41
1
10
141.141733492793
20
-16.2967501143317
30
0
41
1
10
137.887696473759
20
-16.5294490192797
30
0
41
1
10
131.380181288299
20
-16.9372948286228
30
0
41
1
10
128.127783911119
20
-17.1118595605645
30
0
41
1
10
121.624640641274
20
-17.4005822347303
30
0
41
1
10
118.37376469649
20
-17.5154797644
30
0
41
1
10
111.872298032419
20
-17.6853290778042
30
0
41
1
10
108.621804073949
20
-17.7396288757062
30
0
41
1
10
102.120286443199
20
-17.7831733927518
30
0
41
1
10
98.8691780670988
20
-17.7732078103151
30
0
41
1
10
93.9910612748333
20
-17.7120151224469
30
0
41
1
10
92.3647854255175
20
-17.6838598685048
30
0
41
1
10
89.1116233132909
20
-17.6120673446407
30
0
41
1
10
87.4844783086119
20
-17.5684218156787
30
0
41
1
10
79.3511928529454
20
-17.3117485310362
30
0
41
1
10
72.8512648735808
20
-16.9832885489147
30
0
41
1
10
59.8561491187688
20
-16.0873579243702
30
0
41
1
10
53.3609506311608
20
-15.5198477108039
30
0
41
1
10
43.6144769340629
20
-14.5113444730468
30
0
41
1
10
40.3649711339723
20
-14.1498386655214
30
0
41
1
10
35.4888860720383
20
-13.5717298780554
30
0
41
1
10
33.863259585747
20
-13.3724109483128
30
0
41
1
10
30.6112478932017
20
-12.9621159280117
30
0
41
1
10
28.9848352624609
20
-12.7516944677267
30
0
41
1
10
27.357990300789
20
-12.5353788006712
30
0
0
SPLINE
5
1DB
100
AcDbEntity
8
1
62
256
6
ByLayer
370
-1
48
1
60
0
100
AcDbSpline
70
4
71
3
72
8
73
4
40
0
40
0
40
0
40
0
40
1
40
1
40
1
40
1
41
1
10
183.547108185854
20
11.065759246122
30
0
41
1
10
183.225668567598
20
11.1272623047901
30
0
41
1
10
182.900431889472
20
11.1919549222399
30
0
41
1
10
182.571448604229
20
11.2597947177814
30
0
0
SPLINE
5
1DC
100
AcDbEntity
8
1
62
256
6
ByLayer
370
-1
48
1
60
0
100
AcDbSpline
70
4
71
3
72
93
73
89
40
-0.03125000000001
40
-0.03125000000001
40
0
40
0
40
0.0312499999999877
40
0.0312499999999877
40
0.0468749999999815
40
0.0468749999999815
40
0.0624999999999754
40
0.0624999999999754
40
0.0937499999999632
40
0.0937499999999632
40
0.124999999999951
40
0.124999999999951
40
0.156249999999939
40
0.156249999999939
40
0.171874999999933
40
0.171874999999933
40
0.187499999999927
40
0.187499999999927
40
0.218749999999909
40
0.218749999999909
40
0.24999999999989
40
0.24999999999989
40
0.265624999999884
40
0.265624999999884
40
0.281249999999879
40
0.281249999999879
40
0.312499999999874
40
0.312499999999874
40
0.328124999999869
40
0.328124999999869
40
0.343749999999864
40
0.343749999999864
40
0.374999999999859
40
0.374999999999859
40
0.406249999999854
40
0.406249999999854
40
0.421874999999854
40
0.421874999999854
40
0.437499999999853
40
0.437499999999853
40
0.468749999999855
40
0.468749999999855
40
0.484374999999856
40
0.484374999999856
40
0.499999999999857
40
0.499999999999857
40
0.531249999999859
40
0.531249999999859
40
0.562499999999861
40
0.562499999999861
40
0.578124999999863
40
0.578124999999863
40
0.593749999999866
40
0.593749999999866
40
0.62499999999987
40
0.62499999999987
40
0.640624999999872
40
0.640624999999872
40
0.656249999999874
40
0.656249999999874
40
0.687499999999884
40
0.687499999999884
40
0.718749999999894
40
0.718749999999894
40
0.749999999999905
40
0.749999999999905
40
0.76562499999991
40
0.76562499999991
40
0.781249999999915
40
0.79687499999992
40
0.79687499999992
40
0.812499999999925
40
0.812499999999925
40
0.843749999999942
40
0.843749999999942
40
0.85937499999995
40
0.85937499999995
40
0.874999999999959
40
0.874999999999959
40
0.90624999999997
40
0.90624999999997
40
0.937499999999982
40
0.937499999999982
40
0.953124999999986
40
0.953124999999986
40
0.96874999999999
40
0.96874999999999
40
1
40
1
40
1.03124999999999
40
1.03124999999999
41
1
10
213.256977835497
20
-3.20070611255895
30
0
41
1
10
213.244380999286
20
-2.95633713949772
30
0
41
1
10
213.249785344763
20
-2.83529875120775
30
0
41
1
10
213.27500472277
20
-2.65542809759341
30
0
41
1
10
213.286283268401
20
-2.5957546270817
30
0
41
1
10
213.314754405714
20
-2.4769969157596
30
0
41
1
10
213.33205789128
20
-2.41766241295829
30
0
41
1
10
213.391968635097
20
-2.24421410172744
30
0
41
1
10
213.442632672871
20
-2.1336357771122
30
0
41
1
10
213.565412642704
20
-1.92265603166984
30
0
41
1
10
213.638442207242
20
-1.82149612205771
30
0
41
1
10
213.800691704096
20
-1.63827137764611
30
0
41
1
10
213.890253476103
20
-1.55519567642207
30
0
41
1
10
214.037539216061
20
-1.44372821470941
30
0
41
1
10
214.089029164107
20
-1.40867804485774
30
0
41
1
10
214.19416243352
20
-1.34459574040912
30
0
41
1
10
214.248030575942
20
-1.31536396653581
30
0
41
1
10
214.413468430135
20
-1.23595147216136
30
0
41
1
10
214.529369006098
20
-1.19383657860558
30
0
41
1
10
214.76958246396
20
-1.13329884497472
30
0
41
1
10
214.890855966158
20
-1.11552559475041
30
0
41
1
10
215.074460986768
20
-1.10702574368958
30
0
41
1
10
215.135947262398
20
-1.10724192189423
30
0
41
1
10
215.259505997941
20
-1.11395509373776
30
0
41
1
10
215.321277481386
20
-1.12047202305874
30
0
41
1
10
215.50340219085
20
-1.1489753165084
30
0
41
1
10
215.621840158133
20
-1.17987685783072
30
0
41
1
10
215.795004209141
20
-1.24416108021208
30
0
41
1
10
215.852254825006
20
-1.26876099879036
30
0
41
1
10
215.962949622955
20
-1.32309305588731
30
0
41
1
10
216.016580864728
20
-1.35285879756995
30
0
41
1
10
216.172448408731
20
-1.44976083679896
30
0
41
1
10
216.269944362449
20
-1.52465203874871
30
0
41
1
10
216.450112969649
20
-1.69440148752804
30
0
41
1
10
216.53027390014
20
-1.78680399579059
30
0
41
1
10
216.636292155352
20
-1.93614305324113
30
0
41
1
10
216.669243526318
20
-1.98772530136958
30
0
41
1
10
216.730274394682
20
-2.09455858669241
30
0
41
1
10
216.758261574256
20
-2.14972908976571
30
0
41
1
10
216.833158487406
20
-2.31712322581572
30
0
41
1
10
216.871771098693
20
-2.43235327938598
30
0
41
1
10
216.912980689049
20
-2.61051848439365
30
0
41
1
10
216.92394648544
20
-2.6711263075257
30
0
41
1
10
216.939865110348
20
-2.79227971283825
30
0
41
1
10
216.94485553083
20
-2.85279489882959
30
0
41
1
10
216.951209295027
20
-3.03415727084356
30
0
41
1
10
216.944034500868
20
-3.15482159969156
30
0
41
1
10
216.906438526767
20
-3.39566149441282
30
0
41
1
10
216.876341644387
20
-3.51314149914614
30
0
41
1
10
216.815466371598
20
-3.68292763284356
30
0
41
1
10
216.792514125698
20
-3.73857070823399
30
0
41
1
10
216.741197849755
20
-3.84793165346605
30
0
41
1
10
216.712665555451
20
-3.90192085151065
30
0
41
1
10
216.619938489494
20
-4.0586502759221
30
0
41
1
10
216.549023738804
20
-4.15591869361268
30
0
41
1
10
216.429111597118
20
-4.29119380428466
30
0
41
1
10
216.386868058481
20
-4.33450162173068
30
0
41
1
10
216.297645597142
20
-4.41742202255358
30
0
41
1
10
216.250621217043
20
-4.45701335215304
30
0
41
1
10
216.105520898708
20
-4.56746340504083
30
0
41
1
10
216.002463524336
20
-4.63106712172132
30
0
41
1
10
215.783355804823
20
-4.73784035003146
30
0
41
1
10
215.666297001836
20
-4.78100603666468
30
0
41
1
10
215.429491140798
20
-4.8418365352544
30
0
41
1
10
215.308601025532
20
-4.86025961316801
30
0
41
1
10
215.123378214668
20
-4.86919708761815
30
0
41
1
10
215.061108073202
20
-4.8689825767031
30
0
41
1
10
214.938305252441
20
-4.86227403977668
30
0
41
1
10
214.816479309527
20
-4.84934014147987
30
0
41
1
10
214.69657224916
20
-4.82416686615343
30
0
41
1
10
214.577634911675
20
-4.79279767363175
30
0
41
1
10
214.518407322898
20
-4.77389463683338
30
0
41
1
10
214.346000326635
20
-4.70908175167489
30
0
41
1
10
214.236950740884
20
-4.65496854599135
30
0
41
1
10
214.081871221647
20
-4.557951584568
30
0
41
1
10
214.031351069727
20
-4.52274422391611
30
0
41
1
10
213.934684445197
20
-4.44801494209503
30
0
41
1
10
213.888556931007
20
-4.40856014271662
30
0
41
1
10
213.756530529503
20
-4.28414061621379
30
0
41
1
10
213.676926868809
20
-4.19317900173004
30
0
41
1
10
213.534706067405
20
-3.99490196209413
30
0
41
1
10
213.474195237032
20
-3.8905041765361
30
0
41
1
10
213.398665771402
20
-3.72659323648526
30
0
41
1
10
213.376038181458
20
-3.67071367525946
30
0
41
1
10
213.335967825908
20
-3.55641453514113
30
0
41
1
10
213.318488645589
20
-3.49777653644574
30
0
41
1
10
213.274813988059
20
-3.32079411010884
30
0
41
1
10
213.256977835497
20
-3.20070611255895
30
0
41
1
10
213.244380999286
20
-2.95633713949772
30
0
0
SPLINE
5
1DD
100
AcDbEntity
8
1
62
256
6
ByLayer
370
-1
48
1
60
0
100
AcDbSpline
70
4
71
3
72
18
73
14
40
0
40
0
40
0
40
0
40
0.125
40
0.125
40
0.250000000000001
40
0.250000000000001
40
0.375000000000001
40
0.375000000000001
40
0.500000000000001
40
0.500000000000001
40
0.750000000000001
40
0.750000000000001
40
1
40
1
40
1
40
1
41
1
10
209.335556704525
20
5.83838357655341
30
0
41
1
10
209.340860745494
20
5.83838357655341
30
0
41
1
10
209.336113421446
20
5.84494635994884
30
0
41
1
10
209.310886910961
20
5.86937528165683
30
0
41
1
10
209.291212687657
20
5.88661145605491
30
0
41
1
10
209.243360473012
20
5.92937841750941
30
0
41
1
10
209.215448490413
20
5.95468722404115
30
0
41
1
10
209.156375173714
20
6.01114934537796
30
0
41
1
10
209.124951658414
20
6.04250832119888
30
0
41
1
10
209.027304567825
20
6.14648716404321
30
0
41
1
10
208.960581622901
20
6.22593068183363
30
0
41
1
10
208.82983672975
20
6.40858904936351
30
0
41
1
10
208.76904318222
20
6.50719831438948
30
0
41
1
10
208.713431067358
20
6.6146189824849
30
0
0
SPLINE
5
1DE
100
AcDbEntity
8
1
62
256
6
ByLayer
370
-1
48
1
60
0
100
AcDbSpline
70
4
71
3
72
22
73
18
40
0
40
0
40
0
40
0
40
0.125
40
0.125
40
0.249999999999999
40
0.249999999999999
40
0.499999999999998
40
0.499999999999998
40
0.624999999999997
40
0.624999999999997
40
0.687499999999997
40
0.687499999999997
40
0.749999999999997
40
0.749999999999997
40
0.874999999999998
40
0.874999999999998
40
1
40
1
40
1
40
1
41
1
10
125
20
-10.700785633266
30
0
41
1
10
127.857000843111
20
-11.1519004298992
30
0
41
1
10
130.712896421546
20
-11.5891809785028
30
0
41
1
10
136.424347345608
20
-12.4284920725576
30
0
41
1
10
139.279700462504
20
-12.8313951089458
30
0
41
1
10
147.845525801044
20
-13.9866310825174
30
0
41
1
10
153.556009665227
20
-14.6845204504488
30
0
41
1
10
162.126003407314
20
-15.6081934239348
30
0
41
1
10
164.982902184972
20
-15.8955757265086
30
0
41
1
10
169.266968200838
20
-16.2930478350455
30
0
41
1
10
170.694898778206
20
-16.4199697150488
30
0
41
1
10
173.550580895001
20
-16.6626711149992
30
0
41
1
10
174.978256100801
20
-16.7786044907341
30
0
41
1
10
179.26160274509
20
-17.1084011866391
30
0
41
1
10
182.117064488374
20
-17.3054082499618
30
0
41
1
10
187.8285818922
20
-17.6520472717535
30
0
41
1
10
190.68492126163
20
-17.801251521171
30
0
41
1
10
193.542009699201
20
-17.9261816079333
30
0
0
SPLINE
5
1DF
100
AcDbEntity
8
1
62
256
6
ByLayer
370
-1
48
1
60
0
100
AcDbSpline
70
4
71
3
72
30
73
26
40
0
40
0
40
0
40
0
40
0.031250000000003
40
0.031250000000003
40
0.0625000000000061
40
0.0625000000000061
40
0.0937500000000091
40
0.0937500000000091
40
0.125000000000012
40
0.125000000000012
40
0.156250000000015
40
0.156250000000015
40
0.187500000000018
40
0.187500000000018
40
0.250000000000014
40
0.250000000000014
40
0.312500000000009
40
0.312500000000009
40
0.375000000000004
40
0.375000000000004
40
0.499999999999995
40
0.499999999999995
40
0.749999999999997
40
0.749999999999997
40
1
40
1
40
1
40
1
41
1
10
198.108162486728
20
9.49120977376973
30
0
41
1
10
198.075192629982
20
9.48737067554998
30
0
41
1
10
198.042500535596
20
9.48225926666476
30
0
41
1
10
197.977986129822
20
9.46804749133781
30
0
41
1
10
197.946143266531
20
9.45904170808757
30
0
41
1
10
197.884081061285
20
9.43357484594173
30
0
41
1
10
197.854143789498
20
9.41707645052486
30
0
41
1
10
197.805672296205
20
9.3730208168864
30
0
41
1
10
197.78761971197
20
9.34431304922177
30
0
41
1
10
197.773834999591
20
9.28254015471884
30
0
41
1
10
197.777183186698
20
9.25097631135853
30
0
41
1
10
197.793694595691
20
9.19199744603716
30
0
41
1
10
197.806900213494
20
9.16386769696356
30
0
41
1
10
197.852453394949
20
9.0847603096594
30
0
41
1
10
197.891543737177
20
9.03685783801222
30
0
41
1
10
197.975123768485
20
8.94676367444796
30
0
41
1
10
198.019806817999
20
8.90484331026266
30
0
41
1
10
198.112356997962
20
8.82446808417762
30
0
41
1
10
198.160285847577
20
8.78607899243616
30
0
41
1
10
198.30741552339
20
8.67456425612576
30
0
41
1
10
198.410079117781
20
8.60491917045698
30
0
41
1
10
198.724675748894
20
8.40541341556897
30
0
41
1
10
198.942365519793
20
8.2852610263684
30
0
41
1
10
199.386551813048
20
8.05900065074897
30
0
41
1
10
199.613283894937
20
7.95326719342489
30
0
41
1
10
199.843527432966
20
7.85297960390935
30
0
0
SPLINE
5
1E0
100
AcDbEntity
8
1
62
256
6
ByLayer
370
-1
48
1
60
0
100
AcDbSpline
70
4
71
3
72
10
73
6
40
0
40
0
40
0
40
0
40
0.5
40
0.5
40
1
40
1
40
1
40
1
41
1
10
193.54200969916
20
-17.9261816079322
30
0
41
1
10
193.98326316955
20
-17.9379083556132
30
0
41
1
10
194.415038234435
20
-17.9567429303691
30
0
41
1
10
195.260537689896
20
-18.0054406971505
30
0
41
1
10
195.674259956943
20
-18.0353139736396
30
0
41
1
10
196.078831727852
20
-18.0686462334454
30
0
0
SPLINE
5
1E1
100
AcDbEntity
8
1
62
256
6
ByLayer
370
-1
48
1
60
0
100
AcDbSpline
70
4
71
4
72
13
73
8
40
0
40
0
40
0
40
0
40
0
40
0.587803117971226
40
0.587803117971226
40
0.587803117971226
40
1
40
1
40
1
40
1
40
1
41
1
10
29.4420096992134
20
4.80540942693187
30
0
41
1
10
29.4420096992134
20
4.05684858694838
30
0
41
0.942809041582064
10
29.2578066681198
20
1.52650021182078
30
0
41
1
10
28.7684060621895
20
-2.92854852765581
30
0
41
1
10
28.1416552830193
20
-8.15458358535309
30
0
41
0.971876264267036
10
27.8319606657367
20
-10.5583615243513
30
0
41
0.974794094033976
10
27.5947615229982
20
-12.0710182209722
30
0
41
0.984939466515625
10
27.4640011481781
20
-12.6182587988642
30
0
0
SPLINE
5
1E2
100
AcDbEntity
8
1
62
256
6
ByLayer
370
-1
48
1
60
0
100
AcDbSpline
70
4
71
3
72
16
73
12
40
0
40
0
40
0
40
0
40
0.124999999999995
40
0.124999999999995
40
0.24999999999999
40
0.24999999999999
40
0.499999999999993
40
0.499999999999993
40
0.749999999999997
40
0.749999999999997
40
1
40
1
40
1
40
1
41
1
10
189.04744261454
20
14.0859037888648
30
0
41
1
10
188.873031860859
20
14.2193944976489
30
0
41
1
10
188.692317545664
20
14.3427570150982
30
0
41
1
10
188.322753868997
20
14.5701648069043
30
0
41
1
10
188.133439720228
20
14.6745695029147
30
0
41
1
10
187.55402125092
20
14.9642375798502
30
0
41
1
10
187.152538241297
20
15.1261546552191
30
0
41
1
10
186.328359527417
20
15.4064655101876
30
0
41
1
10
185.910263174606
20
15.523404878497
30
0
41
1
10
185.067231103286
20
15.7260756517977
30
0
41
1
10
184.642016525519
20
15.8117299035819
30
0
41
1
10
184.214202161456
20
15.886361542035
30
0
0
SPLINE
5
1E3
100
AcDbEntity
8
1
62
256
6
ByLayer
370
-1
48
1
60
0
100
AcDbSpline
70
4
71
3
72
8
73
4
40
0
40
0
40
0
40
0
40
1
40
1
40
1
40
1
41
1
10
183.832898835239
20
12.3207602559171
30
0
41
1
10
183.749877584976
20
12.3176807972879
30
0
41
1
10
183.667186794936
20
12.3208700612985
30
0
41
1
10
183.584828715747
20
12.3303542526263
30
0
0
SPLINE
5
1E4
100
AcDbEntity
8
1
62
256
6
ByLayer
370
-1
48
1
60
0
100
AcDbSpline
70
4
71
3
72
22
73
18
40
0
40
0
40
0
40
0
40
0.339731647183617
40
0.339731647183617
40
0.424664558979521
40
0.424664558979521
40
0.509597470775426
40
0.509597470775426
40
0.679463294367221
40
0.679463294367221
40
0.764396206163107
40
0.764396206163107
40
0.849329117958993
40
0.849329117958993
40
0.934262029754878
40
0.934262029754878
40
1
40
1
40
1
40
1
41
1
10
214.434691790435
20
12.205803200604
30
0
41
1
10
214.458946466433
20
11.9904198421869
30
0
41
1
10
214.518884205863
20
11.7769654333381
30
0
41
1
10
214.645538314984
20
11.5148391510201
30
0
41
1
10
214.673579665515
20
11.462622523422
30
0
41
1
10
214.734363604132
20
11.3605129924363
30
0
41
1
10
214.76719965448
20
11.310405985956
30
0
41
1
10
214.873352856749
20
11.1631632115397
30
0
41
1
10
214.954218832843
20
11.0690577485981
30
0
41
1
10
215.09328730126
20
10.9355964146249
30
0
41
1
10
215.142341409677
20
10.8927207325617
30
0
41
1
10
215.244771000478
20
10.8115769871632
30
0
41
1
10
215.298326232504
20
10.7731304933478
30
0
41
1
10
215.410393514773
20
10.7008316321191
30
0
41
1
10
215.468903179942
20
10.6669768785517
30
0
41
1
10
215.577512258904
20
10.6114611719399
30
0
41
1
10
215.62641619885
20
10.5888704167108
30
0
41
1
10
215.676140212974
20
10.5683019325228
30
0
0
SPLINE
5
1E5
100
AcDbEntity
8
1
62
256
6
ByLayer
370
-1
48
1
60
0
100
AcDbSpline
70
4
71
3
72
14
73
10
40
0
40
0
40
0
40
0
40
0.0313204215381243
40
0.0313204215381243
40
0.354213614358749
40
0.354213614358749
40
0.677106807179375
40
0.677106807179375
40
1
40
1
40
1
40
1
41
1
10
214.582025594224
20
13.1581915754602
30
0
41
1
10
214.577746711636
20
13.1488834090111
30
0
41
1
10
214.573560430729
20
13.139553300531
30
0
41
1
10
214.527285292039
20
13.0338558670743
30
0
41
1
10
214.494733229541
20
12.9353176897391
30
0
41
1
10
214.447141296719
20
12.7339305495002
30
0
41
1
10
214.432119632959
20
12.6310802802195
30
0
41
1
10
214.419774199469
20
12.4209064532888
30
0
41
1
10
214.422564452436
20
12.3134948798126
30
0
41
1
10
214.434691790435
20
12.205803200604
30
0
0
SPLINE
5
1E6
100
AcDbEntity
8
1
62
256
6
ByLayer
370
-1
48
1
60
0
100
AcDbSpline
70
4
71
3
72
36
73
32
40
0
40
0
40
0
40
0
40
0.125000000000004
40
0.125000000000004
40
0.187500000000006
40
0.187500000000006
40
0.218750000000006
40
0.218750000000006
40
0.250000000000007
40
0.250000000000007
40
0.375000000000008
40
0.375000000000008
40
0.437500000000008
40
0.437500000000008
40
0.468750000000009
40
0.468750000000009
40
0.500000000000009
40
0.500000000000009
40
0.625000000000008
40
0.625000000000008
40
0.687500000000006
40
0.687500000000006
40
0.750000000000005
40
0.750000000000005
40
0.781250000000005
40
0.781250000000005
40
0.812500000000004
40
0.812500000000004
40
0.875000000000003
40
0.875000000000003
40
1
40
1
40
1
40
1
41
1
10
15.2430265664977
20
-11.1561198531472
30
0
41
1
10
15.4655645656605
20
-11.5618511892248
30
0
41
1
10
15.7124062308424
20
-11.9364241631548
30
0
41
1
10
16.1254863038676
20
-12.4485965706537
30
0
41
1
10
16.2703351249612
20
-12.611015569092
30
0
41
1
10
16.4993774997521
20
-12.8415429349341
30
0
41
1
10
16.5776885225444
20
-12.9161996382913
30
0
41
1
10
16.738439172027
20
-13.0610035787247
30
0
41
1
10
16.8210987904855
20
-13.1313173610055
30
0
41
1
10
17.2415187294334
20
-13.468290793061
30
0
41
1
10
17.6015275880195
20
-13.6926085737612
30
0
41
1
10
18.1793864168961
20
-13.9616849075675
30
0
41
1
10
18.3783267809395
20
-14.040103598586
30
0
41
1
10
18.6866572585704
20
-14.1404922801776
30
0
41
1
10
18.791088579891
20
-14.1710790654306
30
0
41
1
10
19.0033491453433
20
-14.2264083390497
30
0
41
1
10
19.1110556322836
20
-14.2510963498602
30
0
41
1
10
19.6520693795903
20
-14.3586830211223
30
0
41
1
10
20.0974460494388
20
-14.395583000938
30
0
41
1
10
20.7835819952078
20
-14.3828058604501
30
0
41
1
10
21.0153109689381
20
-14.3671362316592
30
0
41
1
10
21.4847281902136
20
-14.3133086994511
30
0
41
1
10
21.7215963713013
20
-14.2751794224636
30
0
41
1
10
22.0766781210528
20
-14.202470195272
30
0
41
1
10
22.194928852296
20
-14.1745357268154
30
0
41
1
10
22.4332772501474
20
-14.1209296141171
30
0
41
1
10
22.5533967443602
20
-14.0953398327703
30
0
41
1
10
22.9165972957315
20
-14.0221104726754
30
0
41
1
10
23.1625173293602
20
-13.9780025494211
30
0
41
1
10
23.9117967772095
20
-13.8593388155527
30
0
41
1
10
24.4266193327556
20
-13.7983255452424
30
0
41
1
10
24.9577999138935
20
-13.755654806528
30
0
0
SPLINE
5
1E7
100
AcDbEntity
8
1
62
256
6
ByLayer
370
-1
48
1
60
0
100
AcDbSpline
70
4
71
3
72
8
73
4
40
0
40
0
40
0
40
0
40
1
40
1
40
1
40
1
41
1
10
195.974487963406
20
12.6999999999998
30
0
41
1
10
195.962949591895
20
12.790126518628
30
0
41
1
10
195.956816967009
20
12.8806666497204
30
0
41
1
10
195.956816967009
20
12.9716747301791
30
0
0
SPLINE
5
1E8
100
AcDbEntity
8
1
62
256
6
ByLayer
370
-1
48
1
60
0
100
AcDbSpline
70
4
71
3
72
12
73
8
40
0
40
0
40
0
40
0
40
0.5
40
0.5
40
0.75
40
0.75
40
1
40
1
40
1
40
1
41
1
10
125
20
17.5436262825265
30
0
41
1
10
134.59879325248
20
16.9830261869158
30
0
41
1
10
144.188676618418
20
16.1552441270705
30
0
41
1
10
158.580627630819
20
14.5599859240148
30
0
41
1
10
163.380362261559
20
13.9694114744786
30
0
41
1
10
172.976073846079
20
12.6865953402493
30
0
41
1
10
177.773100811075
20
11.9943572842103
30
0
41
1
10
182.571448604227
20
11.2597947177823
30
0
0
SPLINE
5
1E9
100
AcDbEntity
8
1
62
256
6
ByLayer
370
-1
48
1
60
0
100
AcDbSpline
70
4
71
3
72
8
73
4
40
0
40
0
40
0
40
0
40
1
40
1
40
1
40
1
41
1
10
16.142009699211
20
9.91218582371695
30
0
41
1
10
16.142009699211
20
10.2486694420482
30
0
41
1
10
16.142009699211
20
10.5851530603794
30
0
41
1
10
16.142009699211
20
10.9216366787107
30
0
0
SPLINE
5
1EA
100
AcDbEntity
8
1
62
256
6
ByLayer
370
-1
48
1
60
0
100
AcDbSpline
70
4
71
3
72
8
73
4
40
0
40
0
40
0
40
0
40
1
40
1
40
1
40
1
41
1
10
201.639241275549
20
7.07004797147971
30
0
41
1
10
202.114783739108
20
6.86249946129627
30
0
41
1
10
202.602356121455
20
6.67885794032745
30
0
41
1
10
203.103599521413
20
6.51953860317383
30
0
0
SPLINE
5
1EB
100
AcDbEntity
8
1
62
256
6
ByLayer
370
-1
48
1
60
0
100
AcDbSpline
70
4
71
3
72
12
73
8
40
0
40
0
40
0
40
0
40
0.5
40
0.5
40
0.75
40
0.75
40
1
40
1
40
1
40
1
41
1
10
11.8714319912205
20
-6.48234155469572
30
0
41
1
10
12.3712964189146
20
-7.35881818122206
30
0
41
1
10
12.9033639259379
20
-8.18849306918477
30
0
41
1
10
13.7501624956211
20
-9.36311923655376
30
0
41
1
10
14.0410565554601
20
-9.74339755748861
30
0
41
1
10
14.6331699878247
20
-10.4720768382525
30
0
41
1
10
14.935095691166
20
-10.8215280918978
30
0
41
1
10
15.2430265664977
20
-11.1561198531473
30
0
0
SPLINE
5
1EC
100
AcDbEntity
8
1
62
256
6
ByLayer
370
-1
48
1
60
0
100
AcDbSpline
70
4
71
3
72
8
73
4
40
0
40
0
40
0
40
0
40
1
40
1
40
1
40
1
41
1
10
29.4420096992112
20
7.01206667849894
30
0
41
1
10
30.6280022843138
20
6.79489185276771
30
0
41
1
10
31.8139588668823
20
6.57597751578234
30
0
41
1
10
33
20
6.35589901520103
30
0
0
SPLINE
5
1ED
100
AcDbEntity
8
1
62
256
6
ByLayer
370
-1
48
1
60
0
100
AcDbSpline
70
4
71
3
72
8
73
4
40
0
40
0
40
0
40
0
40
1
40
1
40
1
40
1
41
1
10
28
20
7.40714430099203
30
0
41
1
10
28.4822314533351
20
7.28091131721683
30
0
41
1
10
28.9628817211489
20
7.1492037309512
30
0
41
1
10
29.4420096992106
20
7.01206667849914
30
0
0
SPLINE
5
1EE
100
AcDbEntity
8
1
62
256
6
ByLayer
370
-1
48
1
60
0
100
AcDbSpline
70
4
71
3
72
38
73
34
40
0
40
0
40
0
40
0
40
0.0312499999999858
40
0.0312499999999858
40
0.0624999999999716
40
0.0624999999999716
40
0.0781249999999641
40
0.0781249999999641
40
0.0937499999999565
40
0.0937499999999565
40
0.124999999999942
40
0.124999999999942
40
0.140624999999935
40
0.140624999999935
40
0.156249999999929
40
0.156249999999929
40
0.187499999999926
40
0.187499999999926
40
0.218749999999923
40
0.218749999999923
40
0.249999999999919
40
0.249999999999919
40
0.312499999999927
40
0.312499999999927
40
0.374999999999935
40
0.374999999999935
40
0.499999999999952
40
0.499999999999952
40
0.624999999999968
40
0.624999999999968
40
0.749999999999984
40
0.749999999999984
40
1
40
1
40
1
40
1
41
1
10
189.047442614539
20
14.0859037888647
30
0
41
1
10
189.089458141593
20
14.053745895111
30
0
41
1
10
189.129943661344
20
14.019837763485
30
0
41
1
10
189.206250825133
20
13.9466951932648
30
0
41
1
10
189.242210037217
20
13.9073039057871
30
0
41
1
10
189.288641153598
20
13.8435548340757
30
0
41
1
10
189.302910909015
20
13.8214683864962
30
0
41
1
10
189.328205987266
20
13.7750484055954
30
0
41
1
10
189.339322408397
20
13.7504259038756
30
0
41
1
10
189.364873174025
20
13.6745679880511
30
0
41
1
10
189.371306134312
20
13.6198467975833
30
0
41
1
10
189.360049797891
20
13.54072669847
30
0
41
1
10
189.352864060351
20
13.5143799213907
30
0
41
1
10
189.333123563092
20
13.4645405097601
30
0
41
1
10
189.320555756884
20
13.4407263880523
30
0
41
1
10
189.276867291293
20
13.3727731931149
30
0
41
1
10
189.241079549968
20
13.3334588343687
30
0
41
1
10
189.1621341479
20
13.2614505101701
30
0
41
1
10
189.119433332993
20
13.2294077334426
30
0
41
1
10
189.031627837985
20
13.1710317248525
30
0
41
1
10
188.986201242253
20
13.144516499102
30
0
41
1
10
188.84685820869
20
13.070339568071
30
0
41
1
10
188.749488920069
20
13.0277870723884
30
0
41
1
10
188.553117783439
20
12.9516749155086
30
0
41
1
10
188.453862791516
20
12.9180940558532
30
0
41
1
10
188.154059368395
20
12.825863521283
30
0
41
1
10
187.951509291283
20
12.7755715635718
30
0
41
1
10
187.543512819563
20
12.6870538678992
30
0
41
1
10
187.338006494446
20
12.6490803674313
30
0
41
1
10
186.924989881708
20
12.5814883999549
30
0
41
1
10
186.717519222139
20
12.5519454497311
30
0
41
1
10
186.094655170369
20
12.4729237427151
30
0
41
1
10
185.67810469938
20
12.4327450492373
30
0
41
1
10
185.26072527012
20
12.4007251292924
30
0
0
SPLINE
5
1EF
100
AcDbEntity
8
1
62
256
6
ByLayer
370
-1
48
1
60
0
100
AcDbSpline
70
4
71
3
72
10
73
6
40
0
40
0
40
0
40
0
40
0.218330565319118
40
0.218330565319118
40
1
40
1
40
1
40
1
41
1
10
95.5750871416468
20
18.5054605607764
30
0
41
1
10
97.7153205840373
20
18.4977632231648
30
0
41
1
10
99.8555711121234
20
18.4762996136837
30
0
41
1
10
109.659217654093
20
18.315058452947
30
0
41
1
10
117.324480109403
20
18.0125058594189
30
0
41
1
10
125
20
17.5436262825264
30
0
0
SPLINE
5
1F0
100
AcDbEntity
8
1
62
256
6
ByLayer
370
-1
48
1
60
0
100
AcDbSpline
70
4
71
3
72
18
73
14
40
0
40
0
40
0
40
0
40
0.25
40
0.25
40
0.375
40
0.375
40
0.4375
40
0.4375
40
0.5
40
0.5
40
0.75
40
0.75
40
1
40
1
40
1
40
1
41
1
10
32.9999999999999
20
-14.3798426670667
30
0
41
1
10
40.6695310555408
20
-15.3205407986887
30
0
41
1
10
48.3332524325641
20
-16.116964862335
30
0
41
1
10
59.8328447322604
20
-17.0637524485857
30
0
41
1
10
63.6666891310548
20
-17.3382716897125
30
0
41
1
10
69.4197408098671
20
-17.6861629715396
30
0
41
1
10
71.3378877166458
20
-17.7914764810116
30
0
41
1
10
75.1725940359797
20
-17.980321367462
30
0
41
1
10
77.0894749487764
20
-18.0638733640416
30
0
41
1
10
86.6721562489144
20
-18.4267149752302
30
0
41
1
10
94.3328657510724
20
-18.5404683132906
30
0
41
1
10
109.659108387415
20
-18.4135753071505
30
0
41
1
10
117.32437793248
20
-18.1726673461386
30
0
41
1
10
125
20
-17.7629431962655
30
0
0
SPLINE
5
1F1
100
AcDbEntity
8
1
62
256
6
ByLayer
370
-1
48
1
60
0
100
AcDbSpline
70
4
71
3
72
24
73
20
40
0
40
0
40
0
40
0
40
0.125
40
0.125
40
0.250000000000001
40
0.250000000000001
40
0.375000000000001
40
0.375000000000001
40
0.437500000000001
40
0.437500000000001
40
0.5
40
0.5
40
0.625
40
0.625
40
0.75
40
0.75
40
0.875
40
0.875
40
1
40
1
40
1
40
1
41
1
10
15.2430265664977
20
-8.05320171890205
30
0
41
1
10
15.5112955329393
20
-8.18411199793297
30
0
41
1
10
15.8005635459118
20
-8.31388939974858
30
0
41
1
10
16.4190170089921
20
-8.5801234158703
30
0
41
1
10
16.748203829308
20
-8.71657996105924
30
0
41
1
10
17.4455849900817
20
-9.00249553814072
30
0
41
1
10
17.813774831521
20
-9.15196420466233
30
0
41
1
10
18.3955361556145
20
-9.38857488153454
30
0
41
1
10
18.5948540272276
20
-9.46968407895301
30
0
41
1
10
18.998741408834
20
-9.6342066510133
30
0
41
1
10
19.2037530689283
20
-9.71779879921104
30
0
41
1
10
19.8277613200922
20
-9.97224657555205
30
0
41
1
10
20.2556886685341
20
-10.1468449600179
30
0
41
1
10
21.135228186994
20
-10.5023152953153
30
0
41
1
10
21.5868396521081
20
-10.6831793237652
30
0
41
1
10
22.5149633997044
20
-11.0452916987112
30
0
41
1
10
22.9927013375848
20
-11.2269305205945
30
0
41
1
10
23.9621122778712
20
-11.577818937669
30
0
41
1
10
24.4551315456552
20
-11.7476446422868
30
0
41
1
10
24.9577999138935
20
-11.907170036228
30
0
0
SPLINE
5
1F2
100
AcDbEntity
8
1
62
256
6
ByLayer
370
-1
48
1
60
0
100
AcDbSpline
70
4
71
3
72
14
73
10
40
0
40
0
40
0
40
0
40
0.124999999999998
40
0.124999999999998
40
0.249999999999996
40
0.249999999999996
40
0.499999999999992
40
0.499999999999992
40
1
40
1
40
1
40
1
41
1
10
203.103599521413
20
6.51953860317383
30
0
41
1
10
203.318574304652
20
6.45295481360995
30
0
41
1
10
203.535461397806
20
6.39069160163714
30
0
41
1
10
203.973132740568
20
6.27497340944402
30
0
41
1
10
204.193742639506
20
6.22159361649599
30
0
41
1
10
204.855068388256
20
6.0762014772148
30
0
41
1
10
205.297355470695
20
5.99833918248746
30
0
41
1
10
206.628354895761
20
5.82069746009014
30
0
41
1
10
207.521176575291
20
5.77647488881681
30
0
41
1
10
208.419641392851
20
5.80787239441324
30
0
0
SPLINE
5
1F3
100
AcDbEntity
8
1
62
256
6
ByLayer
370
-1
48
1
60
0
100
AcDbSpline
70
4
71
3
72
10
73
6
40
0
40
0
40
0
40
0
40
0.5
40
0.5
40
1
40
1
40
1
40
1
41
1
10
206.309670418678
20
-18.3153401545914
30
0
41
1
10
206.666405691177
20
-18.3211117833116
30
0
41
1
10
207.016938232777
20
-18.3286337957255
30
0
41
1
10
207.705864010971
20
-18.3454562588028
30
0
41
1
10
208.044257247708
20
-18.3547618465962
30
0
41
1
10
208.376448180849
20
-18.3637536557599
30
0
0
SPLINE
5
1F4
100
AcDbEntity
8
1
62
256
6
ByLayer
370
-1
48
1
60
0
100
AcDbSpline
70
4
71
3
72
8
73
4
40
0
40
0
40
0
40
0
40
1
40
1
40
1
40
1
41
1
10
183.547108185854
20
11.065759246122
30
0
41
1
10
184.012427585676
20
10.8562404347238
30
0
41
1
10
184.478281472873
20
10.6482856799767
30
0
41
1
10
184.944663263321
20
10.44187571493
30
0
0
SPLINE
5
1F5
100
AcDbEntity
8
1
62
256
6
ByLayer
370
-1
48
1
60
0
100
AcDbSpline
70
4
71
3
72
42
73
38
40
0
40
0
40
0
40
0
40
0.0624999999999884
40
0.0624999999999884
40
0.093749999999986
40
0.093749999999986
40
0.124999999999984
40
0.124999999999984
40
0.249999999999987
40
0.249999999999987
40
0.312499999999989
40
0.312499999999989
40
0.34374999999999
40
0.34374999999999
40
0.374999999999991
40
0.374999999999991
40
0.499999999999994
40
0.499999999999994
40
0.531249999999994
40
0.531249999999994
40
0.562499999999994
40
0.562499999999994
40
0.624999999999994
40
0.624999999999994
40
0.687499999999994
40
0.687499999999994
40
0.718749999999994
40
0.718749999999994
40
0.749999999999994
40
0.749999999999994
40
0.874999999999996
40
0.874999999999996
40
0.906249999999997
40
0.906249999999997
40
0.937499999999998
40
0.937499999999998
40
1
40
1
40
1
40
1
41
1
10
203.332115222882
20
6.42644171158074
30
0
41
1
10
203.52472318909
20
6.35004624205874
30
0
41
1
10
203.716076953693
20
6.27602495940442
30
0
41
1
10
204.000845423549
20
6.16810973826796
30
0
41
1
10
204.095615419573
20
6.13257345278927
30
0
41
1
10
204.282986456916
20
6.06294619807065
30
0
41
1
10
204.375578711372
20
6.02885613550202
30
0
41
1
10
204.832945982785
20
5.86169517386557
30
0
41
1
10
205.18112957753
20
5.73852253857731
30
0
41
1
10
205.672257476375
20
5.56311015484812
30
0
41
1
10
205.830740143328
20
5.50619219997876
30
0
41
1
10
206.059617796286
20
5.42221545374781
30
0
41
1
10
206.134432324314
20
5.39445535463804
30
0
41
1
10
206.280884419644
20
5.33922538124705
30
0
41
1
10
206.352722016398
20
5.3116756482278
30
0
41
1
10
206.699867695759
20
5.17553630462029
30
0
41
1
10
206.940742642954
20
5.07136504589812
30
0
41
1
10
207.187601930618
20
4.9392020190445
30
0
41
1
10
207.234231694735
20
4.91267052290777
30
0
41
1
10
207.32165882893
20
4.85920209386072
30
0
41
1
10
207.362523417007
20
4.83219976818884
30
0
41
1
10
207.474172447323
20
4.75148379439756
30
0
41
1
10
207.534674844343
20
4.69770123134992
30
0
41
1
10
207.627068629759
20
4.58900262044071
30
0
41
1
10
207.658966530953
20
4.53408671089619
30
0
41
1
10
207.684078853577
20
4.45021239679397
30
0
41
1
10
207.688652494946
20
4.42200669753058
30
0
41
1
10
207.689878948713
20
4.36502336428941
30
0
41
1
10
207.686479888779
20
4.33621344496524
30
0
41
1
10
207.649771787481
20
4.19329918558032
30
0
41
1
10
207.55824950653
20
4.0801787302002
30
0
41
1
10
207.369626215374
20
3.94261350512755
30
0
41
1
10
207.328090815815
20
3.9152983012533
30
0
41
1
10
207.238904705928
20
3.86200864198369
30
0
41
1
10
207.19112352531
20
3.83593056889217
30
0
41
1
10
207.038671015894
20
3.75954335204022
30
0
41
1
10
206.924917032001
20
3.7110709361543
30
0
41
1
10
206.799884571884
20
3.66557523583904
30
0
0
SPLINE
5
1F6
100
AcDbEntity
8
1
62
256
6
ByLayer
370
-1
48
1
60
0
100
AcDbSpline
70
4
71
3
72
8
73
4
40
0
40
0
40
0
40
0
40
1
40
1
40
1
40
1
41
1
10
203.103599521413
20
6.51953860317383
30
0
41
1
10
203.179368301136
20
6.48785341038345
30
0
41
1
10
203.255534367283
20
6.45681652179795
30
0
41
1
10
203.332115222882
20
6.42644171158074
30
0
0
SPLINE
5
1F7
100
AcDbEntity
8
1
62
256
6
ByLayer
370
-1
48
1
60
0
100
AcDbSpline
70
4
71
3
72
24
73
20
40
0
40
0
40
0
40
0
40
0.125
40
0.125
40
0.250000000000001
40
0.250000000000001
40
0.312500000000001
40
0.312500000000001
40
0.375000000000001
40
0.375000000000001
40
0.437500000000001
40
0.437500000000001
40
0.468750000000001
40
0.468750000000001
40
0.500000000000001
40
0.500000000000001
40
0.75
40
0.75
40
1
40
1
40
1
40
1
41
1
10
28
20
7.40714430099203
30
0
41
1
10
27.4821064653069
20
7.54271249280131
30
0
41
1
10
26.9665518043898
20
7.67933084243185
30
0
41
1
10
25.9410672645755
20
7.95810529662313
30
0
41
1
10
25.4311348968629
20
8.10025344432123
30
0
41
1
10
24.6714222023226
20
8.32074356095779
30
0
41
1
10
24.4190518444235
20
8.39545792355676
30
0
41
1
10
23.9162491802658
20
8.54793729976569
30
0
41
1
10
23.6665738373962
20
8.62548701964448
30
0
41
1
10
23.1755999337569
20
8.78224724518799
30
0
41
1
10
22.9335940868814
20
8.86167034969256
30
0
41
1
10
22.5758950329157
20
8.98275906731945
30
0
41
1
10
22.4575475174714
20
9.02344775011753
30
0
41
1
10
22.2226450931883
20
9.1055432540108
30
0
41
1
10
22.1062234416755
20
9.1470230715957
30
0
41
1
10
21.0527579709227
20
9.5166481098251
30
0
41
1
10
20.0955500978436
20
9.82948119713393
30
0
41
1
10
18.145767550759
20
10.4111613913402
30
0
41
1
10
17.1531773000333
20
10.6800884375401
30
0
41
1
10
16.1420096992106
20
10.9216366787071
30
0
0
SPLINE
5
1F8
100
AcDbEntity
8
1
62
256
6
ByLayer
370
-1
48
1
60
0
100
AcDbSpline
70
4
71
3
72
12
73
8
40
0
40
0
40
0
40
0
40
0.25
40
0.25
40
0.499999999999999
40
0.499999999999999
40
1
40
1
40
1
40
1
41
1
10
221.049238129828
20
-9.69346984523855
30
0
41
1
10
221.094817670046
20
-9.68104476419836
30
0
41
1
10
221.136959997516
20
-9.67079757785163
30
0
41
1
10
221.216980162452
20
-9.65304920981171
30
0
41
1
10
221.254968226526
20
-9.64554788782547
30
0
41
1
10
221.362860704711
20
-9.6262395382908
30
0
41
1
10
221.427401179212
20
-9.61739076332921
30
0
41
1
10
221.488304580322
20
-9.61061470418414
30
0
0
SPLINE
5
1F9
100
AcDbEntity
8
1
62
256
6
ByLayer
370
-1
48
1
60
0
100
AcDbSpline
70
4
71
3
72
10
73
6
40
0
40
0
40
0
40
0
40
0.857750003386306
40
0.857750003386306
40
1
40
1
40
1
40
1
41
1
10
220.663861822064
20
-6.31458692082384
30
0
41
1
10
220.647403897942
20
-6.77949699200789
30
0
41
1
10
220.630887592837
20
-7.24439531255553
30
0
41
1
10
220.611584773144
20
-7.78638282538609
30
0
41
1
10
220.608837827332
20
-7.86348031487665
30
0
41
1
10
220.606089838717
20
-7.94057758434818
30
0
0
SPLINE
5
1FA
100
AcDbEntity
8
1
62
256
6
ByLayer
370
-1
48
1
60
0
100
AcDbSpline
70
4
71
3
72
12
73
8
40
0
40
0
40
0
40
0
40
0.25
40
0.25
40
0.5
40
0.5
40
1
40
1
40
1
40
1
41
1
10
220.522074435553
20
1.16036140388701
30
0
41
1
10
220.507735856566
20
1.20393114070123
30
0
41
1
10
220.495164234754
20
1.24365787608798
30
0
41
1
10
220.472255967167
20
1.31834208455822
30
0
41
1
10
220.461901255355
20
1.35339157440342
30
0
41
1
10
220.433640169436
20
1.45208583919762
30
0
41
1
10
220.418290195833
20
1.50997347715943
30
0
41
1
10
220.404749489933
20
1.56396622813222
30
0
0
SPLINE
5
1FB
100
AcDbEntity
8
1
62
256
6
ByLayer
370
-1
48
1
60
0
100
AcDbSpline
70
4
71
3
72
10
73
6
40
0
40
0
40
0
40
0
40
0.811452853761492
40
0.811452853761492
40
1
40
1
40
1
40
1
41
1
10
220.54917285978
20
-6.01252968764388
30
0
41
1
10
220.48935516513
20
-5.89345805628881
30
0
41
1
10
220.435928680204
20
-5.77179226212778
30
0
41
1
10
220.377904694072
20
-5.61868381083386
30
0
41
1
10
220.367303682559
20
-5.58965710218573
30
0
41
1
10
220.357049436314
20
-5.56049729625519
30
0
0
SPLINE
5
1FC
100
AcDbEntity
8
1
62
256
6
ByLayer
370
-1
48
1
60
0
100
AcDbSpline
70
4
71
3
72
10
73
6
40
0
40
0
40
0
40
0
40
0.5
40
0.5
40
1
40
1
40
1
40
1
41
1
10
221.024830588728
20
-0.460995093225335
30
0
41
1
10
221.007998841118
20
-0.416586479864719
30
0
41
1
10
220.991416138054
20
-0.371553006069235
30
0
41
1
10
220.959935537709
20
-0.283372336083858
30
0
41
1
10
220.945483116524
20
-0.241496805166435
30
0
41
1
10
220.93229229588
20
-0.202094779402643
30
0
0
SPLINE
5
1FD
100
AcDbEntity
8
1
62
256
6
ByLayer
370
-1
48
1
60
0
100
AcDbSpline
70
4
71
3
72
10
73
6
40
0
40
0
40
0
40
0
40
0.367626034333036
40
0.367626034333036
40
1
40
1
40
1
40
1
41
1
10
220.557987381143
20
-7.9330424153971
30
0
41
1
10
220.564776900937
20
-7.73377387018783
30
0
41
1
10
220.571575975201
20
-7.53450564815302
30
0
41
1
10
220.590103591664
20
-6.99246621285653
30
0
41
1
10
220.60185603164
20
-6.64969580769531
30
0
41
1
10
220.613658255308
20
-6.30692710793173
30
0
0
SPLINE
5
1FE
100
AcDbEntity
8
1
62
256
6
ByLayer
370
-1
48
1
60
0
100
AcDbSpline
70
4
71
3
72
12
73
8
40
0
40
0
40
0
40
0
40
0.0754122648067345
40
0.0754122648067345
40
0.537706132403367
40
0.537706132403367
40
1
40
1
40
1
40
1
41
1
10
220.501336897772
20
-8.10307236297214
30
0
41
1
10
220.50394722494
20
-8.09933172611113
30
0
41
1
10
220.506472774432
20
-8.09553983981584
30
0
41
1
10
220.523847488143
20
-8.06817372479992
30
0
41
1
10
220.535828198725
20
-8.04225417388636
30
0
41
1
10
220.552302180931
20
-7.98898862889033
30
0
41
1
10
220.557025806875
20
-7.96126407337943
30
0
41
1
10
220.557987381143
20
-7.9330424153971
30
0
0
SPLINE
5
1FF
100
AcDbEntity
8
1
62
256
6
ByLayer
370
-1
48
1
60
0
100
AcDbSpline
70
4
71
3
72
18
73
14
40
0
40
0
40
0
40
0
40
0.249999999999997
40
0.249999999999997
40
0.499999999999995
40
0.499999999999995
40
0.624999999999996
40
0.624999999999996
40
0.749999999999997
40
0.749999999999997
40
0.874999999999999
40
0.874999999999999
40
1
40
1
40
1
40
1
41
1
10
221.730467494851
20
-9.21490571787049
30
0
41
1
10
221.720418519043
20
-9.14669403450856
30
0
41
1
10
221.710800177646
20
-9.07629932353319
30
0
41
1
10
221.692795829087
20
-8.92791649518034
30
0
41
1
10
221.684402349697
20
-8.85013409168977
30
0
41
1
10
221.67334846332
20
-8.7228333312477
30
0
41
1
10
221.669918908668
20
-8.67850603787582
30
0
41
1
10
221.663844707381
20
-8.58504381383278
30
0
41
1
10
221.661184209129
20
-8.53589707643422
30
0
41
1
10
221.657033466408
20
-8.42892164252018
30
0
41
1
10
221.655538984171
20
-8.37082096996676
30
0
41
1
10
221.654777910801
20
-8.24451718861241
30
0
41
1
10
221.655580958407
20
-8.17585883816872
30
0
41
1
10
221.657996534898
20
-8.10689901540209
30
0
0
SPLINE
5
200
100
AcDbEntity
8
1
62
256
6
ByLayer
370
-1
48
1
60
0
100
AcDbSpline
70
4
71
3
72
16
73
12
40
0
40
0
40
0
40
0
40
0.197451493535493
40
0.197451493535493
40
0.39808862015162
40
0.39808862015162
40
0.598725746767746
40
0.598725746767746
40
0.799362873383873
40
0.799362873383873
40
1
40
1
40
1
40
1
41
1
10
220.123102673037
20
1.8421997625637
30
0
41
1
10
220.15100712
20
1.83282511565534
30
0
41
1
10
220.179820386627
20
1.8209305680171
30
0
41
1
10
220.241029278521
20
1.78806613937905
30
0
41
1
10
220.273125944575
20
1.76675720003189
30
0
41
1
10
220.33207816946
20
1.71625126226294
30
0
41
1
10
220.358693640059
20
1.68714396376279
30
0
41
1
10
220.401428154224
20
1.62859658651052
30
0
41
1
10
220.417788326864
20
1.59936756273831
30
0
41
1
10
220.443121794573
20
1.54346814736269
30
0
41
1
10
220.452275682107
20
1.51644999854966
30
0
41
1
10
220.459016142433
20
1.49060696457025
30
0
0
SPLINE
5
201
100
AcDbEntity
8
1
62
256
6
ByLayer
370
-1
48
1
60
0
100
AcDbSpline
70
4
71
3
72
8
73
4
40
0
40
0
40
0
40
0
40
1
40
1
40
1
40
1
41
1
10
221.031309810538
20
-0.447033440289005
30
0
41
1
10
221.049334543321
20
-0.49453539927444
30
0
41
1
10
221.058240182972
20
-0.544484194293261
30
0
41
1
10
221.058503442254
20
-0.590423331067939
30
0
0
SPLINE
5
202
100
AcDbEntity
8
1
62
256
6
ByLayer
370
-1
48
1
60
0
100
AcDbSpline
70
4
71
3
72
12
73
8
40
0
40
0
40
0
40
0
40
0.360459024637386
40
0.360459024637386
40
0.720918049274772
40
0.720918049274772
40
1
40
1
40
1
40
1
41
1
10
220.606089838717
20
-7.94057758434818
30
0
41
1
10
220.60494630564
20
-7.97307494900363
30
0
41
1
10
220.599549543495
20
-8.00465263026607
30
0
41
1
10
220.580559398277
20
-8.06603562039155
30
0
41
1
10
220.566780554279
20
-8.09583727979199
30
0
41
1
10
220.536277036765
20
-8.14389850692874
30
0
41
1
10
220.520604659692
20
-8.16373414771502
30
0
41
1
10
220.50319025685
20
-8.1816836587206
30
0
0
SPLINE
5
203
100
AcDbEntity
8
1
62
256
6
ByLayer
370
-1
48
1
60
0
100
AcDbSpline
70
4
71
3
72
10
73
6
40
0
40
0
40
0
40
0
40
0.439854515314514
40
0.439854515314514
40
1
40
1
40
1
40
1
41
1
10
220.339577122089
20
-5.34156271830221
30
0
41
1
10
220.36778461326
20
-5.4398891834465
30
0
41
1
10
220.400007217062
20
-5.53731442003104
30
0
41
1
10
220.482587335422
20
-5.75671636499598
30
0
41
1
10
220.535523041195
20
-5.87802321946882
30
0
41
1
10
220.594521475858
20
-5.9960790640684
30
0
0
SPLINE
5
204
100
AcDbEntity
8
1
62
256
6
ByLayer
370
-1
48
1
60
0
100
AcDbSpline
70
4
71
3
72
22
73
18
40
0
40
0
40
0
40
0
40
0.125000000000101
40
0.125000000000101
40
0.250000000000203
40
0.250000000000203
40
0.312500000000214
40
0.312500000000214
40
0.375000000000226
40
0.375000000000226
40
0.500000000000181
40
0.500000000000181
40
0.625000000000136
40
0.625000000000136
40
0.750000000000091
40
0.750000000000091
40
1
40
1
40
1
40
1
41
1
10
221.488304580322
20
-9.61061470418414
30
0
41
1
10
221.506372127211
20
-9.60860452471812
30
0
41
1
10
221.525301018501
20
-9.60514056272635
30
0
41
1
10
221.565958052465
20
-9.59264230099069
30
0
41
1
10
221.587635680282
20
-9.58378252295853
30
0
41
1
10
221.622427629851
20
-9.56146863333794
30
0
41
1
10
221.634415960558
20
-9.55236090219123
30
0
41
1
10
221.656951421151
20
-9.53138395416104
30
0
41
1
10
221.667707217791
20
-9.51924672947658
30
0
41
1
10
221.694988481157
20
-9.48216525125906
30
0
41
1
10
221.706856766951
20
-9.4569793885201
30
0
41
1
10
221.723163319623
20
-9.4116628436629
30
0
41
1
10
221.728028373452
20
-9.39052262689302
30
0
41
1
10
221.734481863292
20
-9.35079920363853
30
0
41
1
10
221.736018996346
20
-9.33222139085464
30
0
41
1
10
221.73773683209
20
-9.27873245487783
30
0
41
1
10
221.735054647112
20
-9.246042958472
30
0
41
1
10
221.730467494851
20
-9.21490571787049
30
0
0
SPLINE
5
205
100
AcDbEntity
8
1
62
256
6
ByLayer
370
-1
48
1
60
0
100
AcDbSpline
70
4
71
3
72
22
73
18
40
0
40
0
40
0
40
0
40
0.125000000000052
40
0.125000000000052
40
0.250000000000105
40
0.250000000000105
40
0.312500000000131
40
0.312500000000131
40
0.375000000000157
40
0.375000000000157
40
0.500000000000126
40
0.500000000000126
40
0.625000000000095
40
0.625000000000095
40
0.750000000000063
40
0.750000000000063
40
1
40
1
40
1
40
1
41
1
10
220.404749489933
20
1.56396622813222
30
0
41
1
10
220.40073251659
20
1.57998366791492
30
0
41
1
10
220.395324700562
20
1.59692702420563
30
0
41
1
10
220.379237900681
20
1.63391977819177
30
0
41
1
10
220.368719305245
20
1.65390418903218
30
0
41
1
10
220.344680545132
20
1.68693811961558
30
0
41
1
10
220.335142843044
20
1.69848892491075
30
0
41
1
10
220.313805643195
20
1.72066043984617
30
0
41
1
10
220.301743443094
20
1.73149528827568
30
0
41
1
10
220.265587282802
20
1.75972922791289
30
0
41
1
10
220.241862134019
20
1.77309477841564
30
0
41
1
10
220.199816476141
20
1.79275156313776
30
0
41
1
10
220.180550540037
20
1.79953529074663
30
0
41
1
10
220.144698126757
20
1.80995041763052
30
0
41
1
10
220.128122617655
20
1.81353621266138
30
0
41
1
10
220.080757322084
20
1.82151840469527
30
0
41
1
10
220.052304701136
20
1.82316907339089
30
0
41
1
10
220.025484987761
20
1.8229962652419
30
0
0
SPLINE
5
206
100
AcDbEntity
8
1
62
256
6
ByLayer
370
-1
48
1
60
0
100
AcDbSpline
70
4
71
3
72
10
73
6
40
0
40
0
40
0
40
0
40
0.5
40
0.5
40
1
40
1
40
1
40
1
41
1
10
221.058503442254
20
-0.59042333106791
30
0
41
1
10
221.057230173274
20
-0.618878090533542
30
0
41
1
10
221.05643706638
20
-0.649419364813468
30
0
41
1
10
221.056510108348
20
-0.717712107210843
30
0
41
1
10
221.057400072523
20
-0.75384680811581
30
0
41
1
10
221.05941837879
20
-0.7922396675215
30
0
0
SPLINE
5
207
100
AcDbEntity
8
1
62
256
6
ByLayer
370
-1
48
1
60
0
100
AcDbSpline
70
4
71
3
72
20
73
16
40
0
40
0
40
0
40
0
40
0.249999999999999
40
0.249999999999999
40
0.374999999999999
40
0.374999999999999
40
0.499999999999999
40
0.499999999999999
40
0.624999999999999
40
0.624999999999999
40
0.75
40
0.75
40
0.875
40
0.875
40
1
40
1
40
1
40
1
41
1
10
221.786258268824
20
-9.09041899444551
30
0
41
1
10
221.792422344605
20
-9.13973787906914
30
0
41
1
10
221.794692036495
20
-9.19145510587438
30
0
41
1
10
221.786849200546
20
-9.27563743690774
30
0
41
1
10
221.782230679919
20
-9.30514359774085
30
0
41
1
10
221.767198203817
20
-9.36552041210777
30
0
41
1
10
221.756911948573
20
-9.39644268871504
30
0
41
1
10
221.726543574424
20
-9.46080385908871
30
0
41
1
10
221.706206780556
20
-9.49383641886018
30
0
41
1
10
221.65621600274
20
-9.55327617854743
30
0
41
1
10
221.626637756075
20
-9.57942983423234
30
0
41
1
10
221.566028174045
20
-9.62015724648879
30
0
41
1
10
221.535256191824
20
-9.63501888747871
30
0
41
1
10
221.475794207278
20
-9.6568949928448
30
0
41
1
10
221.446736404475
20
-9.66407058351763
30
0
41
1
10
221.41873464982
20
-9.66871786464202
30
0
0
SPLINE
5
208
100
AcDbEntity
8
1
62
256
6
ByLayer
370
-1
48
1
60
0
100
AcDbSpline
70
4
71
3
72
12
73
8
40
0
40
0
40
0
40
0
40
0.5
40
0.5
40
0.75
40
0.75
40
1
40
1
40
1
40
1
41
1
10
220.459016142433
20
1.49060696457025
30
0
41
1
10
220.467854542287
20
1.44313631178204
30
0
41
1
10
220.478140950707
20
1.39243240199841
30
0
41
1
10
220.498257247377
20
1.30591164484176
30
0
41
1
10
220.505795687785
20
1.27515078700736
30
0
41
1
10
220.523400861221
20
1.20825899497294
30
0
41
1
10
220.533350122425
20
1.17251553310518
30
0
41
1
10
220.545347764094
20
1.13266777741671
30
0
0
SPLINE
5
209
100
AcDbEntity
8
1
62
256
6
ByLayer
370
-1
48
1
60
0
100
AcDbSpline
70
4
71
3
72
10
73
6
40
0
40
0
40
0
40
0
40
0.5
40
0.5
40
1
40
1
40
1
40
1
41
1
10
220.613658255308
20
-6.30692710793181
30
0
41
1
10
220.615417094601
20
-6.25584562747386
30
0
41
1
10
220.610805699768
20
-6.20562266203206
30
0
41
1
10
220.589259850189
20
-6.10683750715287
30
0
41
1
10
220.572131357664
20
-6.05823030871426
30
0
41
1
10
220.54917285978
20
-6.01252968764388
30
0
0
SPLINE
5
20A
100
AcDbEntity
8
1
62
256
6
ByLayer
370
-1
48
1
60
0
100
AcDbSpline
70
4
71
3
72
12
73
8
40
0
40
0
40
0
40
0
40
0.500000000000044
40
0.500000000000044
40
0.750000000000022
40
0.750000000000022
40
1
40
1
40
1
40
1
41
1
10
221.418734649819
20
-9.66871786464202
30
0
41
1
10
221.364565440702
20
-9.6709974479229
30
0
41
1
10
221.307359382847
20
-9.67492634589274
30
0
41
1
10
221.211721106627
20
-9.68615793255819
30
0
41
1
10
221.178016814983
20
-9.69083359974314
30
0
41
1
10
221.10565949581
20
-9.70314202863361
30
0
41
1
10
221.067413647596
20
-9.71067613242556
30
0
41
1
10
221.02547504363
20
-9.7206752238119
30
0
0
SPLINE
5
20B
100
AcDbEntity
8
1
62
256
6
ByLayer
370
-1
48
1
60
0
100
AcDbSpline
70
4
71
3
72
22
73
18
40
0
40
0
40
0
40
0
40
0.0625000000000001
40
0.0625000000000001
40
0.125
40
0.125
40
0.1875
40
0.1875
40
0.25
40
0.25
40
0.375
40
0.375
40
0.499999999999999
40
0.499999999999999
40
0.75
40
0.75
40
1
40
1
40
1
40
1
41
1
10
221.669782643247
20
-8.11131312054835
30
0
41
1
10
221.668630016446
20
-8.14421828426472
30
0
41
1
10
221.668280292339
20
-8.17650804718161
30
0
41
1
10
221.66887499206
20
-8.24003430923776
30
0
41
1
10
221.669789972541
20
-8.26966323392304
30
0
41
1
10
221.672383479222
20
-8.32628267117357
30
0
41
1
10
221.674072092976
20
-8.35320511711853
30
0
41
1
10
221.677840172458
20
-8.40376147878143
30
0
41
1
10
221.679935739713
20
-8.42767009304944
30
0
41
1
10
221.686641734051
20
-8.49668116331418
30
0
41
1
10
221.691674878619
20
-8.53922439433723
30
0
41
1
10
221.702266578163
20
-8.62010978040527
30
0
41
1
10
221.707804939074
20
-8.65819160915413
30
0
41
1
10
221.724851350206
20
-8.76823808079806
30
0
41
1
10
221.73678114561
20
-8.8360970024232
30
0
41
1
10
221.761163404173
20
-8.96672663552891
30
0
41
1
10
221.773631437383
20
-9.02934577138174
30
0
41
1
10
221.786258268824
20
-9.09041899444881
30
0
0
SPLINE
5
20C
100
AcDbEntity
8
1
62
256
6
ByLayer
370
-1
48
1
60
0
100
AcDbSpline
70
4
71
3
72
10
73
6
40
0
40
0
40
0
40
0
40
0.5
40
0.5
40
1
40
1
40
1
40
1
41
1
10
221.047641248584
20
-0.788851184162382
30
0
41
1
10
221.04529889102
20
-0.744294118606149
30
0
41
1
10
221.043640985644
20
-0.701492016613059
30
0
41
1
10
221.041513220955
20
-0.619668556314309
30
0
41
1
10
221.041069594684
20
-0.582062985337075
30
0
41
1
10
221.041061831135
20
-0.546663386200123
30
0
0
SPLINE
5
20D
100
AcDbEntity
8
1
62
256
6
ByLayer
370
-1
48
1
60
0
100
AcDbSpline
70
4
71
3
72
10
73
6
40
0
40
0
40
0
40
0
40
0.5
40
0.5
40
1
40
1
40
1
40
1
41
1
10
221.041061831135
20
-0.546663386200152
30
0
41
1
10
221.041059087841
20
-0.534154740868786
30
0
41
1
10
221.03997891765
20
-0.520318542879039
30
0
41
1
10
221.034674494499
20
-0.491054122245345
30
0
41
1
10
221.030368410577
20
-0.475605993714396
30
0
41
1
10
221.024830588728
20
-0.460995093225335
30
0
0
SPLINE
5
20E
100
AcDbEntity
8
1
62
256
6
ByLayer
370
-1
48
1
60
0
100
AcDbSpline
70
4
71
3
72
10
73
6
40
0
40
0
40
0
40
0
40
0.5
40
0.5
40
1
40
1
40
1
40
1
41
1
10
220.594521475858
20
-5.9960790640684
30
0
41
1
10
220.619288720445
20
-6.0455944401146
30
0
41
1
10
220.63737257308
20
-6.09705969877359
30
0
41
1
10
220.660702326767
20
-6.20373565673549
30
0
41
1
10
220.665811008596
20
-6.25928912746542
30
0
41
1
10
220.663861822064
20
-6.31458692082384
30
0
0
SPLINE
5
20F
100
AcDbEntity
8
1
62
256
6
ByLayer
370
-1
48
1
60
0
100
AcDbSpline
70
4
71
3
72
10
73
6
40
0
40
0
40
0
40
0
40
0.5
40
0.5
40
1
40
1
40
1
40
1
41
1
10
220.955565624421
20
-0.229788405872938
30
0
41
1
10
220.965278565448
20
-0.262047987524284
30
0
41
1
10
220.976541787672
20
-0.297145001897519
30
0
41
1
10
221.002295896587
20
-0.37134808957407
30
0
41
1
10
221.016595346456
20
-0.409807614333374
30
0
41
1
10
221.031309810538
20
-0.447033440289005
30
0
0
SPLINE
5
210
100
AcDbEntity
8
1
62
256
6
ByLayer
370
-1
48
1
60
0
100
AcDbSpline
70
4
71
3
72
12
73
8
40
0
40
0
40
0
40
0
40
0.0112779549372702
40
0.0936714586924977
40
0.176064962447725
40
0.34085196995818
40
1
40
1
40
1
40
1
41
1
10
219.970246484222
20
17.7689672247233
30
0
41
1
10
219.970244152888
20
17.768872364253
30
0
41
1
10
219.970224942926
20
17.7680835285406
30
0
41
1
10
219.970191515925
20
17.7665842065116
30
0
41
1
10
219.970143773101
20
17.7636936637585
30
0
41
1
10
219.970080810492
20
17.7553867270258
30
0
41
1
10
219.97022250778
20
17.7470103580534
30
0
41
1
10
219.970455820694
20
17.7403036292361
30
0
0
SPLINE
5
211
100
AcDbEntity
8
1
62
256
6
ByLayer
370
-1
48
1
60
0
100
AcDbSpline
70
4
71
3
72
14
73
10
40
0
40
0
40
0
40
0
40
0.0138067085560121
40
0.0298030682371713
40
0.0617957875994897
40
0.317737542498037
40
0.829621052295131
40
0.957591929744404
40
1
40
1
40
1
40
1
41
1
10
210.263265099829
20
17.4286966076494
30
0
41
1
10
210.263279995841
20
17.4292935596761
30
0
41
1
10
210.263313681525
20
17.4305726351352
30
0
41
1
10
210.263383486123
20
17.4332249569529
30
0
41
1
10
210.263729223286
20
17.4462548524373
30
0
41
1
10
210.264627520148
20
17.4806160145004
30
0
41
1
10
210.265640032012
20
17.5190605919244
30
0
41
1
10
210.26640954576
20
17.5483509670976
30
0
41
1
10
210.266601212618
20
17.5556689227341
30
0
41
1
10
210.266648620815
20
17.5574922404632
30
0
0
SPLINE
5
212
100
AcDbEntity
8
1
62
256
6
ByLayer
370
-1
48
1
60
0
100
AcDbSpline
70
4
71
3
72
10
73
6
40
0
40
0
40
0
40
0
40
0.0485494410340927
40
0.365699627356062
40
1
40
1
40
1
40
1
41
1
10
209.327487390704
20
7.4604043701415
30
0
41
1
10
209.32646912969
20
7.46036934705799
30
0
41
1
10
209.318799601106
20
7.46010556677317
30
0
41
1
10
209.297835594824
20
7.45938473279591
30
0
41
1
10
209.277886306065
20
7.45869871907266
30
0
41
1
10
209.264587404997
20
7.4582414124647
30
0
0
SPLINE
5
213
100
AcDbEntity
8
1
62
256
6
ByLayer
370
-1
48
1
60
0
100
AcDbSpline
70
4
71
3
72
8
73
4
40
0
40
0
40
0
40
0
40
1
40
1
40
1
40
1
41
1
10
208.822207694493
20
17.9307476515986
30
0
41
1
10
208.822505555707
20
17.9144162812653
30
0
41
1
10
208.822883505747
20
17.8980861371075
30
0
41
1
10
208.823341387202
20
17.8817583957477
30
0
0
SPLINE
5
214
100
AcDbEntity
8
1
62
256
6
ByLayer
370
-1
48
1
60
0
100
AcDbSpline
70
4
71
3
72
12
73
8
40
0
40
0
40
0
40
0
40
0.659147749652595
40
0.823934687065744
40
0.906328155772318
40
0.988721624478893
40
1
40
1
40
1
40
1
41
1
10
210.458326439487
20
7.50082942439226
30
0
41
1
10
210.451645231638
20
7.50059522025234
30
0
41
1
10
210.443446860095
20
7.5003025997475
30
0
41
1
10
210.435529723822
20
7.50001270939325
30
0
41
1
10
210.43279096287
20
7.49991153576087
30
0
41
1
10
210.431386337084
20
7.49985928413824
30
0
41
1
10
210.430648974272
20
7.49983179392697
30
0
41
1
10
210.430560317819
20
7.49982848788775
30
0
0
SPLINE
5
215
100
AcDbEntity
8
1
62
256
6
ByLayer
370
-1
48
1
60
0
100
AcDbSpline
70
4
71
3
72
15
73
11
40
0
40
0
40
0
40
0
40
0.0138956313306041
40
0.101457951273463
40
0.189020271216322
40
0.364144911102039
40
0.714394190873475
40
0.889518830759192
40
0.977081150702051
40
1
40
1
40
1
40
1
41
1
10
221.309008185419
20
7.88033965252848
30
0
41
1
10
221.307943853566
20
7.88030261977013
30
0
41
1
10
221.300172691312
20
7.88003223865766
30
0
41
1
10
221.285694792741
20
7.87952857933337
30
0
41
1
10
221.258867707865
20
7.87859535745491
30
0
41
1
10
221.211920229038
20
7.87696216303385
30
0
41
1
10
221.158266042818
20
7.87509564439458
30
0
41
1
10
221.111318449652
20
7.87346246931963
30
0
41
1
10
221.089442827516
20
7.8727014297252
30
0
41
1
10
221.080980436049
20
7.87240707667112
30
0
41
1
10
221.079224963133
20
7.87234602104161
30
0
0
SPLINE
5
216
100
AcDbEntity
8
1
62
256
6
ByLayer
370
-1
48
1
60
0
100
AcDbSpline
70
4
71
3
72
15
73
11
40
0
40
0
40
0
40
0
40
0.0218721291688728
40
0.087080653890948
40
0.217497703335098
40
0.478331802223399
40
0.543540326945474
40
0.608748851667549
40
0.739165901111699
40
1
40
1
40
1
40
1
41
1
10
208.905950392399
20
17.7935900032638
30
0
41
1
10
208.906099012271
20
17.7892787115691
30
0
41
1
10
208.906717920376
20
17.7721147774371
30
0
41
1
10
208.908196433002
20
17.729241724857
30
0
41
1
10
208.911270404971
20
17.6392626605909
30
0
41
1
10
208.914183605331
20
17.549291589991
30
0
41
1
10
208.91658491682
20
17.4722008671615
30
0
41
1
10
208.918222944956
20
17.4207998194646
30
0
41
1
10
208.921157012115
20
17.3308381710584
30
0
41
1
10
208.923798540117
20
17.2537160524495
30
0
41
1
10
208.925612173192
20
17.2023019776017
30
0
0
SPLINE
5
217
100
AcDbEntity
8
1
62
256
6
ByLayer
370
-1
48
1
60
0
100
AcDbSpline
70
4
71
3
72
25
73
21
40
0
40
0
40
0
40
0
40
0.0099904601134689
40
0.0399882789191485
40
0.159979554141867
40
0.279970829364585
40
0.309968648170265
40
0.339966466975944
40
0.369964285781624
40
0.399962104587304
40
0.519953379810022
40
0.63994465503274
40
0.759935930255459
40
0.879927205478177
40
0.939922843089536
40
0.969920661895216
40
0.984919571298056
40
0.992419025999475
40
0.999918480700895
40
1
40
1
40
1
40
1
41
1
10
209.285152181041
20
6.86696373884064
30
0
41
1
10
209.285227892029
20
6.86482338400828
30
0
41
1
10
209.285537231427
20
6.85625653554158
30
0
41
1
10
209.286936254044
20
6.8219895026244
30
0
41
1
10
209.290409481616
20
6.7642107394804
30
0
41
1
10
209.295649916356
20
6.70656625971625
30
0
41
1
10
209.299901195414
20
6.66821869790209
30
0
41
1
10
209.302169859231
20
6.64906115814205
30
0
41
1
10
209.304549136706
20
6.62991629742993
30
0
41
1
10
209.310440575759
20
6.59178252547537
30
0
41
1
10
209.32406179415
20
6.53541536958409
30
0
41
1
10
209.351686986805
20
6.46323311843085
30
0
41
1
10
209.388303260799
20
6.39519645839806
30
0
41
1
10
209.425962299461
20
6.34300671957962
30
0
41
1
10
209.455646033364
20
6.30923630924283
30
0
41
1
10
209.47128101265
20
6.29310032751528
30
0
41
1
10
209.479291424123
20
6.28522728295025
30
0
41
1
10
209.483924265585
20
6.28078561007291
30
0
41
1
10
209.486270313445
20
6.27857177768325
30
0
41
1
10
209.487455741082
20
6.27746414373345
30
0
41
1
10
209.487468488854
20
6.27745223379543
30
0
0
SPLINE
5
218
100
AcDbEntity
8
1
62
256
6
ByLayer
370
-1
48
1
60
0
100
AcDbSpline
70
4
71
3
72
8
73
4
40
0
40
0
40
0
40
0
40
1
40
1
40
1
40
1
41
1
10
210.000157320268
20
6.03338977958794
30
0
41
1
10
210.030388055236
20
6.03422140804673
30
0
41
1
10
210.060615590458
20
6.03519171147874
30
0
41
1
10
210.090837724752
20
6.0362997836489
30
0
0
SPLINE
5
219
100
AcDbEntity
8
1
62
256
6
ByLayer
370
-1
48
1
60
0
100
AcDbSpline
70
4
71
3
72
8
73
4
40
0
40
0
40
0
40
0
40
1
40
1
40
1
40
1
41
1
10
221.309008201635
20
7.88033963100503
30
0
41
1
10
221.420932457721
20
7.88423322117359
30
0
41
1
10
221.532839639886
20
7.88817867179941
30
0
41
1
10
221.639581918929
20
7.89199448866955
30
0
0
SPLINE
5
21A
100
AcDbEntity
8
1
62
256
6
ByLayer
370
-1
48
1
60
0
100
AcDbSpline
70
4
71
3
72
8
73
4
40
0
40
0
40
0
40
0
40
1
40
1
40
1
40
1
41
1
10
221.805845368123
20
7.0056552847073
30
0
41
1
10
221.80586955565
20
7.05900937752213
30
0
41
1
10
221.805399732869
20
7.11236714048735
30
0
41
1
10
221.804502701792
20
7.16571170248227
30
0
0
SPLINE
5
21B
100
AcDbEntity
8
1
62
256
6
ByLayer
370
-1
48
1
60
0
100
AcDbSpline
70
4
71
3
72
15
73
11
40
0
40
0
40
0
40
0
40
0.0229190021791228
40
0.110481321488066
40
0.285605960105953
40
0.635855237341726
40
0.810979875959613
40
0.898542195268556
40
0.986104514577499
40
1
40
1
40
1
40
1
41
1
10
220.740249700234
20
17.6164065833422
30
0
41
1
10
220.74200518539
20
17.6164676391294
30
0
41
1
10
220.75046759073
20
17.6167619916195
30
0
41
1
10
220.772343221167
20
17.6175230350741
30
0
41
1
10
220.819290819415
20
17.6191562078635
30
0
41
1
10
220.87294500743
20
17.6210227276786
30
0
41
1
10
220.919892488519
20
17.6226559219257
30
0
41
1
10
220.946719575146
20
17.6235891439316
30
0
41
1
10
220.961197473304
20
17.624092810527
30
0
41
1
10
220.9689686103
20
17.6243631802929
30
0
41
1
10
220.970032929097
20
17.6244002111921
30
0
0
SPLINE
5
21C
100
AcDbEntity
8
1
62
256
6
ByLayer
370
-1
48
1
60
0
100
AcDbSpline
70
4
71
3
72
10
73
6
40
0
40
0
40
0
40
0
40
0.048549441033085
40
0.36569962735539
40
1
40
1
40
1
40
1
41
1
10
221.300603934259
20
17.6360549839394
30
0
41
1
10
221.301583900123
20
17.6360900070229
30
0
41
1
10
221.308964241574
20
17.6363537873077
30
0
41
1
10
221.329127106022
20
17.637074621285
30
0
41
1
10
221.348318033464
20
17.6377606350082
30
0
41
1
10
221.361110563075
20
17.6382179416162
30
0
0
SPLINE
5
21D
100
AcDbEntity
8
1
62
256
6
ByLayer
370
-1
48
1
60
0
100
AcDbSpline
70
4
71
3
72
10
73
6
40
0
40
0
40
0
40
0
40
0.634300400238627
40
0.95145060035794
40
1
40
1
40
1
40
1
41
1
10
219.949211116511
20
18.9598646769051
30
0
41
1
10
219.949919868827
20
18.9467691295592
30
0
41
1
10
219.950982453016
20
18.927124266773
30
0
41
1
10
219.952101115048
20
18.9064822857609
30
0
41
1
10
219.952508485189
20
18.8989286078298
30
0
41
1
10
219.952562522538
20
18.8979256788697
30
0
0
SPLINE
5
21E
100
AcDbEntity
8
1
62
256
6
ByLayer
370
-1
48
1
60
0
100
AcDbSpline
70
4
71
3
72
12
73
8
40
0
40
0
40
0
40
0
40
0.659147749652491
40
0.823934687065613
40
0.906328155772175
40
0.988721624478736
40
1
40
1
40
1
40
1
41
1
10
220.319861091184
20
7.69642581769418
30
0
41
1
10
220.320094404199
20
7.68971908862332
30
0
41
1
10
220.320535207807
20
7.68133953373169
30
0
41
1
10
220.321176643144
20
7.67303816012296
30
0
41
1
10
220.32142487974
20
7.67014092636143
30
0
41
1
10
220.321562903607
20
7.66864463566057
30
0
41
1
10
220.321637147452
20
7.66785741900836
30
0
41
1
10
220.321646096777
20
7.66776274643149
30
0
0
SPLINE
5
21F
100
AcDbEntity
8
1
62
256
6
ByLayer
370
-1
48
1
60
0
100
AcDbSpline
70
4
71
3
72
8
73
4
40
0
40
0
40
0
40
0
40
1
40
1
40
1
40
1
41
1
10
209.951319329504
20
6.03228704445735
30
0
41
1
10
209.967600172184
20
6.03257438093257
30
0
41
1
10
209.983879906875
20
6.03294199820502
30
0
41
1
10
210.000157320268
20
6.03338977958472
30
0
0
SPLINE
5
220
100
AcDbEntity
8
1
62
256
6
ByLayer
370
-1
48
1
60
0
100
AcDbSpline
70
4
71
3
72
8
73
4
40
0
40
0
40
0
40
0
40
1
40
1
40
1
40
1
41
1
10
209.322900106001
20
17.2161197230758
30
0
41
1
10
209.212677259436
20
17.2122261329073
30
0
41
1
10
209.099478462998
20
17.2082806822815
30
0
41
1
10
208.988510961286
20
17.2044648654113
30
0
0
SPLINE
5
221
100
AcDbEntity
8
1
62
256
6
ByLayer
370
-1
48
1
60
0
100
AcDbSpline
70
4
71
3
72
15
73
11
40
0
40
0
40
0
40
0
40
0.0229190021791505
40
0.110481321488102
40
0.285605960106006
40
0.635855237341813
40
0.810979875959717
40
0.898542195268669
40
0.98610451457762
40
1
40
1
40
1
40
1
41
1
10
220.363097889454
20
7.10146030131222
30
0
41
1
10
220.363172442299
20
7.09971189232525
30
0
41
1
10
220.363531003038
20
7.09128273986545
30
0
41
1
10
220.364454278398
20
7.06948930674045
30
0
41
1
10
220.366438851238
20
7.02272135709001
30
0
41
1
10
220.368705716111
20
6.96927122290811
30
0
41
1
10
220.370689581037
20
6.92250265878843
30
0
41
1
10
220.371824049571
20
6.89577867706151
30
0
41
1
10
220.372435457867
20
6.88135555286556
30
0
41
1
10
220.372763020776
20
6.8736131757687
30
0
41
1
10
220.372807838589
20
6.87255274955837
30
0
0
SPLINE
5
222
100
AcDbEntity
8
1
62
256
6
ByLayer
370
-1
48
1
60
0
100
AcDbSpline
70
4
71
2
72
9
73
6
40
0
40
0
40
0
40
0.25
40
0.5
40
0.75
40
1
40
1
40
1
41
1
10
220.125009001211
20
17.5956299296886
30
0
41
1
10
220.123850937707
20
17.6254200686178
30
0
41
1
10
220.09968209739
20
17.6792394552942
30
0
41
1
10
220.05637237989
20
17.7201149119141
30
0
41
1
10
220.000776579743
20
17.7412416896217
30
0
41
1
10
219.970455820694
20
17.7403036292361
30
0
0
SPLINE
5
223
100
AcDbEntity
8
1
62
256
6
ByLayer
370
-1
48
1
60
0
100
AcDbSpline
70
4
71
3
72
12
73
8
40
0
40
0
40
0
40
0
40
0.341077853836625
40
0.341077853836625
40
0.670538966398327
40
0.670538966398327
40
1
40
1
40
1
40
1
41
1
10
210.090837724752
20
6.0362997836653
30
0
41
1
10
210.157850163782
20
6.03875674504155
30
0
41
1
10
210.224880314535
20
6.04125870699917
30
0
41
1
10
210.3565655618
20
6.04594184086571
30
0
41
1
10
210.421211649328
20
6.04810794095738
30
0
41
1
10
210.550516664973
20
6.05247838090438
30
0
41
1
10
210.615177268175
20
6.05468006652256
30
0
41
1
10
210.679865257346
20
6.05694764971994
30
0
0
SPLINE
5
224
100
AcDbEntity
8
1
62
256
6
ByLayer
370
-1
48
1
60
0
100
AcDbSpline
70
4
71
3
72
8
73
4
40
0
40
0
40
0
40
0
40
1
40
1
40
1
40
1
41
1
10
221.416912631391
20
18.3232116199813
30
0
41
1
10
221.41619423044
20
18.3395288127289
30
0
41
1
10
221.415395531109
20
18.3558426032943
30
0
41
1
10
221.414516606807
20
18.3721517774812
30
0
0
SPLINE
5
225
100
AcDbEntity
8
1
62
256
6
ByLayer
370
-1
48
1
60
0
100
AcDbSpline
70
4
71
3
72
14
73
10
40
0
40
0
40
0
40
0
40
0.0138067085559267
40
0.0298030682370896
40
0.0617957875994153
40
0.317737542498021
40
0.829621052295233
40
0.957591929744535
40
1
40
1
40
1
40
1
41
1
10
220.154350878788
20
17.5966308661931
30
0
41
1
10
220.154981221943
20
17.5966517122173
30
0
41
1
10
220.156333612148
20
17.5966963785165
30
0
41
1
10
220.159137914346
20
17.5967889996353
30
0
41
1
10
220.172917246818
20
17.5972440136121
30
0
41
1
10
220.209241303317
20
17.598443931832
30
0
41
1
10
220.249889504935
20
17.5997864460584
30
0
41
1
10
220.280856885352
20
17.6008092884982
30
0
41
1
10
220.288593237017
20
17.6010648371401
30
0
41
1
10
220.290520454037
20
17.6011285087983
30
0
0
SPLINE
5
226
100
AcDbEntity
8
1
62
256
6
ByLayer
370
-1
48
1
60
0
100
AcDbSpline
70
4
71
3
72
8
73
4
40
0
40
0
40
0
40
0
40
1
40
1
40
1
40
1
41
1
10
209.212419090557
20
6.72430757659973
30
0
41
1
10
209.215310736584
20
6.67103343611191
30
0
41
1
10
209.218625823174
20
6.6177789732368
30
0
41
1
10
209.222479214971
20
6.5645659061372
30
0
0
SPLINE
5
227
100
AcDbEntity
8
1
62
256
6
ByLayer
370
-1
48
1
60
0
100
AcDbSpline
70
4
71
3
72
10
73
6
40
0
40
0
40
0
40
0
40
0.5
40
0.5
40
1
40
1
40
1
40
1
41
1
10
221.64763365403
20
6.61895137410423
30
0
41
1
10
221.683469783455
20
6.65752442880512
30
0
41
1
10
221.713544904186
20
6.69989441949102
30
0
41
1
10
221.762507258418
20
6.79201596618188
30
0
41
1
10
221.781164197452
20
6.84174459135022
30
0
41
1
10
221.793012165114
20
6.89312654662291
30
0
0
SPLINE
5
228
100
AcDbEntity
8
1
62
256
6
ByLayer
370
-1
48
1
60
0
100
AcDbSpline
70
4
71
3
72
8
73
4
40
0
40
0
40
0
40
0
40
1
40
1
40
1
40
1
41
1
10
220.834783923199
20
19.0655748112616
30
0
41
1
10
220.781613061811
20
19.0656189638068
30
0
41
1
10
220.728494687277
20
19.0651108615089
30
0
41
1
10
220.675391066781
20
19.0641723096236
30
0
0
SPLINE
5
229
100
AcDbEntity
8
1
62
256
6
ByLayer
370
-1
48
1
60
0
100
AcDbSpline
70
4
71
3
72
15
73
11
40
0
40
0
40
0
40
0
40
0.0204519912453758
40
0.0504132324411418
40
0.110335714832674
40
0.230180679615738
40
0.469870609181866
40
0.709560538747995
40
0.949250468314123
40
1
40
1
40
1
40
1
41
1
10
220.970032929097
20
17.6244002111921
30
0
41
1
10
220.972322009605
20
17.6244798552893
30
0
41
1
10
220.977964458826
20
17.624676191758
30
0
41
1
10
220.990313077887
20
17.6251061361851
30
0
41
1
10
221.01378071116
20
17.6259243061894
30
0
41
1
10
221.060672925758
20
17.6275629879817
30
0
41
1
10
221.127397765287
20
17.6299060572507
30
0
41
1
10
221.206630293637
20
17.6327062993724
30
0
41
1
10
221.264124432783
20
17.6347515569668
30
0
41
1
10
221.295182253683
20
17.6358612180352
30
0
41
1
10
221.300603934259
20
17.6360549839394
30
0
0
SPLINE
5
22A
100
AcDbEntity
8
1
62
256
6
ByLayer
370
-1
48
1
60
0
100
AcDbSpline
70
4
71
3
72
17
73
13
40
0
40
0
40
0
40
0
40
0.0285647612451331
40
0.114009773641688
40
0.284899798434798
40
0.455789823227909
40
0.626679848021019
40
0.797569872814129
40
0.883014885210684
40
0.925737391408962
40
0.968459897607239
40
1
40
1
40
1
40
1
41
1
10
210.310118839975
20
7.49533084528258
30
0
41
1
10
210.306677727211
20
7.49520238091779
30
0
41
1
10
210.292909614128
20
7.49468859693852
30
0
41
1
10
210.257566268877
20
7.49337555768648
30
0
41
1
10
210.201936735535
20
7.49132590148741
30
0
41
1
10
210.131396056498
20
7.48875345054628
30
0
41
1
10
210.057669031167
20
7.48608977428404
30
0
41
1
10
209.994053675294
20
7.48381142422369
30
0
41
1
10
209.948651520735
20
7.48219547210746
30
0
41
1
10
209.922498681477
20
7.48126744689444
30
0
41
1
10
209.904507030348
20
7.48063032655753
30
0
41
1
10
209.893038071419
20
7.4802249793097
30
0
41
1
10
209.888164152576
20
7.48005277073864
30
0
0
SPLINE
5
22B
100
AcDbEntity
8
1
62
256
6
ByLayer
370
-1
48
1
60
0
100
AcDbSpline
70
4
71
3
72
12
73
8
40
0
40
0
40
0
40
0
40
0.0112779549373482
40
0.0936714586925692
40
0.17606496244779
40
0.340851969958232
40
1
40
1
40
1
40
1
41
1
10
210.614664575283
20
7.32749212935755
30
0
41
1
10
210.614655643959
20
7.32758698982789
30
0
41
1
10
210.614581550144
20
7.32837582554023
30
0
41
1
10
210.614443806657
20
7.32987514756925
30
0
41
1
10
210.614194952093
20
7.33276569032236
30
0
41
1
10
210.613554027957
20
7.34107262705504
30
0
41
1
10
210.613112932917
20
7.34944899602743
30
0
41
1
10
210.612879620004
20
7.35615572484477
30
0
0
SPLINE
5
22C
100
AcDbEntity
8
1
62
256
6
ByLayer
370
-1
48
1
60
0
100
AcDbSpline
70
4
71
3
72
9
73
5
40
0
40
0
40
0
40
0
40
0.593750000000011
40
1
40
1
40
1
40
1
41
1
10
209.653202112736
20
18.5989467180015
30
0
41
1
10
209.652774006758
20
18.6147101921855
30
0
41
1
10
209.652052986163
20
18.6412592013375
30
0
41
1
10
209.651331965567
20
18.6678082104894
30
0
41
1
10
209.65103905095
20
18.6785937454574
30
0
0
SPLINE
5
22D
100
AcDbEntity
8
1
62
256
6
ByLayer
370
-1
48
1
60
0
100
AcDbSpline
70
4
71
3
72
9
73
5
40
0
40
0
40
0
40
0
40
0.406250000003963
40
1
40
1
40
1
40
1
41
1
10
208.8468759166
20
17.1995206421152
30
0
41
1
10
208.857538118014
20
17.1998972812957
30
0
41
1
10
208.883783536878
20
17.2008243931245
30
0
41
1
10
208.910028955741
20
17.2017515049533
30
0
41
1
10
208.925612173192
20
17.2023019776017
30
0
0
SPLINE
5
22E
100
AcDbEntity
8
1
62
256
6
ByLayer
370
-1
48
1
60
0
100
AcDbSpline
70
4
71
3
72
15
73
11
40
0
40
0
40
0
40
0
40
0.0218721291689348
40
0.0870806538910058
40
0.217497703335148
40
0.478331802223432
40
0.543540326945503
40
0.608748851667574
40
0.739165901111716
40
1
40
1
40
1
40
1
41
1
10
220.538856690069
20
18.9802114607012
30
0
41
1
10
220.534566039206
20
18.9800665243682
30
0
41
1
10
220.517483759068
20
18.9794616545935
30
0
41
1
10
220.474799765122
20
18.9780035070005
30
0
41
1
10
220.385156233488
20
18.974910901863
30
0
41
1
10
220.295394054657
20
18.9718525883789
30
0
41
1
10
220.218395215143
20
18.9692398645273
30
0
41
1
10
220.167079847694
20
18.9674852432708
30
0
41
1
10
220.077309871491
20
18.9643887339304
30
0
41
1
10
220.00042906902
20
18.9616847596828
30
0
41
1
10
219.949211116511
20
18.9598646769051
30
0
0
SPLINE
5
22F
100
AcDbEntity
8
1
62
256
6
ByLayer
370
-1
48
1
60
0
100
AcDbSpline
70
4
71
3
72
8
73
4
40
0
40
0
40
0
40
0
40
1
40
1
40
1
40
1
41
1
10
221.803439316722
20
7.21470095833308
30
0
41
1
10
221.802632775518
20
7.24502516339967
30
0
41
1
10
221.801688392796
20
7.27534584957505
30
0
41
1
10
221.800606690178
20
7.30566118988855
30
0
0
SPLINE
5
230
100
AcDbEntity
8
1
62
256
6
ByLayer
370
-1
48
1
60
0
100
AcDbSpline
70
4
71
3
72
12
73
8
40
0
40
0
40
0
40
0
40
0.521734132299734
40
0.782601198449601
40
0.913034731524534
40
0.978251498062001
40
1
40
1
40
1
40
1
41
1
10
220.383468306555
20
6.47686472134987
30
0
41
1
10
220.485906892479
20
6.48045562036074
30
0
41
1
10
220.639564407025
20
6.48584033115736
30
0
41
1
10
220.818832545029
20
6.49212919199212
30
0
41
1
10
220.908465872306
20
6.49526292377575
30
0
41
1
10
220.951150547881
20
6.49677239506798
30
0
41
1
10
220.968225803199
20
6.4973559744918
30
0
41
1
10
220.972495743147
20
6.49750829941289
30
0
0
SPLINE
5
231
100
AcDbEntity
8
1
62
256
6
ByLayer
370
-1
48
1
60
0
100
AcDbSpline
70
4
71
3
72
12
73
8
40
0
40
0
40
0
40
0
40
0.521734132299741
40
0.782601198449611
40
0.913034731524546
40
0.978251498062014
40
1
40
1
40
1
40
1
41
1
10
221.361110563075
20
17.6382179416162
30
0
41
1
10
221.357533328525
20
17.7410478262902
30
0
41
1
10
221.352168704421
20
17.8952926928792
30
0
41
1
10
221.345904528445
20
18.0752448493221
30
0
41
1
10
221.342782003995
20
18.1652212815503
30
0
41
1
10
221.341278811781
20
18.2080684685245
30
0
41
1
10
221.340697161308
20
18.2252092414023
30
0
41
1
10
221.340545293087
20
18.2294956152402
30
0
0
SPLINE
5
232
100
AcDbEntity
8
1
62
256
6
ByLayer
370
-1
48
1
60
0
100
AcDbSpline
70
4
71
3
72
8
73
4
40
0
40
0
40
0
40
0
40
1
40
1
40
1
40
1
41
1
10
221.404587599141
20
18.5318934479438
30
0
41
1
10
221.401910676152
20
18.5697523686433
30
0
41
1
10
221.395041271056
20
18.6068297495251
30
0
41
1
10
221.383978999976
20
18.6431255679793
30
0
0
SPLINE
5
233
100
AcDbEntity
8
1
62
256
6
ByLayer
370
-1
48
1
60
0
100
AcDbSpline
70
4
71
3
72
8
73
4
40
0
40
0
40
0
40
0
40
1
40
1
40
1
40
1
41
1
10
208.833689024615
20
18.2033328074587
30
0
41
1
10
208.825118636055
20
18.166314571204
30
0
41
1
10
208.820801459919
20
18.1288055954597
30
0
41
1
10
208.820756031432
20
18.0908040693736
30
0
0
SPLINE
5
234
100
AcDbEntity
8
1
62
256
6
ByLayer
370
-1
48
1
60
0
100
AcDbSpline
70
4
71
3
72
14
73
10
40
0
40
0
40
0
40
0
40
0.0138067085560505
40
0.0298030682372077
40
0.0617957875995221
40
0.317737542498037
40
0.829621052295067
40
0.957591929744325
40
1
40
1
40
1
40
1
41
1
10
210.430560317819
20
7.49982848788775
30
0
41
1
10
210.430001300085
20
7.49980764186361
30
0
41
1
10
210.428805273909
20
7.49976297556435
30
0
41
1
10
210.426325118242
20
7.49967035444553
30
0
41
1
10
210.414143825118
20
7.49921534046879
30
0
41
1
10
210.382007066681
20
7.4980154222489
30
0
41
1
10
210.346058699899
20
7.49667290802245
30
0
41
1
10
210.31866824741
20
7.49565006558265
30
0
41
1
10
210.311824381864
20
7.49539451694071
30
0
41
1
10
210.310118839975
20
7.49533084528258
30
0
0
SPLINE
5
235
100
AcDbEntity
8
1
62
256
6
ByLayer
370
-1
48
1
60
0
100
AcDbSpline
70
4
71
3
72
8
73
4
40
0
40
0
40
0
40
0
40
1
40
1
40
1
40
1
41
1
10
219.966081468953
20
18.5641762177086
30
0
41
1
10
219.963053399832
20
18.6756740519554
30
0
41
1
10
219.958477155701
20
18.788656975391
30
0
41
1
10
219.95256324783
20
18.8979276737657
30
0
0
SPLINE
5
236
100
AcDbEntity
8
1
62
256
6
ByLayer
370
-1
48
1
60
0
100
AcDbSpline
70
4
71
3
72
12
73
8
40
0
40
0
40
0
40
0
40
0.0112779549379721
40
0.0936714586931411
40
0.17606496244831
40
0.340851969958648
40
1
40
1
40
1
40
1
41
1
10
210.091584464622
20
17.2438890330176
30
0
41
1
10
210.091673332791
20
17.2438923456183
30
0
41
1
10
210.092412514856
20
17.2439198923683
30
0
41
1
10
210.093820546268
20
17.2439722498473
30
0
41
1
10
210.096551790941
20
17.2440731898245
30
0
41
1
10
210.104475173898
20
17.2443632744473
30
0
41
1
10
210.112669969382
20
17.2446557836974
30
0
41
1
10
210.119351177071
20
17.2448899878285
30
0
0
SPLINE
5
237
100
AcDbEntity
8
1
62
256
6
ByLayer
370
-1
48
1
60
0
100
AcDbSpline
70
4
71
3
72
9
73
5
40
0
40
0
40
0
40
0
40
0.406250000001886
40
1
40
1
40
1
40
1
41
1
10
221.780037395471
20
7.89693871196567
30
0
41
1
10
221.769210611382
20
7.8965620727852
30
0
41
1
10
221.742560065932
20
7.89563496095639
30
0
41
1
10
221.715909520482
20
7.89470784912754
30
0
41
1
10
221.700085759121
20
7.89415737647917
30
0
0
SPLINE
5
238
100
AcDbEntity
8
1
62
256
6
ByLayer
370
-1
48
1
60
0
100
AcDbSpline
70
4
71
3
72
15
73
11
40
0
40
0
40
0
40
0
40
0.0218721291688701
40
0.0870806538909455
40
0.217497703335096
40
0.478331802223397
40
0.543540326945473
40
0.608748851667548
40
0.739165901111699
40
1
40
1
40
1
40
1
41
1
10
221.72096269461
20
7.30286935081708
30
0
41
1
10
221.720822544869
20
7.30718064251181
30
0
41
1
10
221.720236316849
20
7.3243445766438
30
0
41
1
10
221.718809631673
20
7.36721762922389
30
0
41
1
10
221.715721929959
20
7.45719669349
30
0
41
1
10
221.712541778963
20
7.54716776408992
30
0
41
1
10
221.709737527155
20
7.62425848691939
30
0
41
1
10
221.707879666505
20
7.67565953461627
30
0
41
1
10
221.704644281289
20
7.76562118302246
30
0
41
1
10
221.701898439673
20
7.84274330163143
30
0
41
1
10
221.700085759121
20
7.89415737647917
30
0
0
SPLINE
5
239
100
AcDbEntity
8
1
62
256
6
ByLayer
370
-1
48
1
60
0
100
AcDbSpline
70
4
71
3
72
23
73
19
40
0
40
0
40
0
40
0
40
0.0074200078966808
40
0.0149215578680932
40
0.029924657810918
40
0.0599308576965675
40
0.119943257467867
40
0.239968057010465
40
0.480017656095663
40
0.600042455638261
40
0.630048655523911
40
0.66005485540956
40
0.69006105529521
40
0.72006725518086
40
0.840092054723458
40
0.960116854266057
40
0.990123054151707
40
1
40
1
40
1
40
1
41
1
10
209.065895982244
20
18.3958242751872
30
0
41
1
10
209.064817120714
20
18.3946606219895
30
0
41
1
10
209.062660077727
20
18.3923112989434
30
0
41
1
10
209.058370596538
20
18.3875645686898
30
0
41
1
10
209.050947132022
20
18.3791422060471
30
0
41
1
10
209.036513416439
20
18.3619354585981
30
0
41
1
10
209.009334563779
20
18.3261396588696
30
0
41
1
10
208.961998275543
20
18.2495050329869
30
0
41
1
10
208.925732919959
20
18.1523881193418
30
0
41
1
10
208.911957769475
20
18.0697801802564
30
0
41
1
10
208.908793898594
20
18.0313273876333
30
0
41
1
10
208.907771635227
20
18.0120636189939
30
0
41
1
10
208.906843371131
20
17.9927957994393
30
0
41
1
10
208.905267105709
20
17.9542479525842
30
0
41
1
10
208.904053928781
20
17.8963814594997
30
0
41
1
10
208.90460905479
20
17.8385034124882
30
0
41
1
10
208.905589641772
20
17.8042478440973
30
0
41
1
10
208.905877468165
20
17.7957054514829
30
0
41
1
10
208.905950392399
20
17.7935900032638
30
0
0
SPLINE
5
23A
100
AcDbEntity
8
1
62
256
6
ByLayer
370
-1
48
1
60
0
100
AcDbSpline
70
4
71
3
72
10
73
6
40
0
40
0
40
0
40
0
40
0.5
40
0.5
40
1
40
1
40
1
40
1
41
1
10
209.40674104714
20
6.18985715194336
30
0
41
1
10
209.445165822817
20
6.15388263170243
30
0
41
1
10
209.487360758379
20
6.12367875157017
30
0
41
1
10
209.579091412428
20
6.07448887265386
30
0
41
1
10
209.628604348063
20
6.05573410898052
30
0
41
1
10
209.67976683918
20
6.04381685225658
30
0
0
SPLINE
5
23B
100
AcDbEntity
8
1
62
256
6
ByLayer
370
-1
48
1
60
0
100
AcDbSpline
70
4
71
3
72
17
73
13
40
0
40
0
40
0
40
0
40
0.028564761245175
40
0.114009773641723
40
0.28489979843482
40
0.455789823227916
40
0.626679848021012
40
0.797569872814109
40
0.883014885210657
40
0.925737391408931
40
0.968459897607205
40
1
40
1
40
1
40
1
41
1
10
220.333990673197
20
7.53896711361773
30
0
41
1
10
220.334342275332
20
7.53528837552935
30
0
41
1
10
220.335742852457
20
7.52057552736724
30
0
41
1
10
220.339164993191
20
7.48297500277596
30
0
41
1
10
220.344048440352
20
7.42428052871796
30
0
41
1
10
220.349455461087
20
7.35061517201211
30
0
41
1
10
220.354369424325
20
7.27433746390429
30
0
41
1
10
220.358018887226
20
7.20909405451056
30
0
41
1
10
220.360325260051
20
7.16281924041871
30
0
41
1
10
220.361570953116
20
7.13624407536591
30
0
41
1
10
220.362389310487
20
7.11799933602671
30
0
41
1
10
220.362887612271
20
7.10639170957046
30
0
41
1
10
220.363097889454
20
7.10146030131222
30
0
0
SPLINE
5
23C
100
AcDbEntity
8
1
62
256
6
ByLayer
370
-1
48
1
60
0
100
AcDbSpline
70
4
71
3
72
15
73
11
40
0
40
0
40
0
40
0
40
0.250148781622213
40
0.500297563244426
40
0.750446344866639
40
0.875520735677745
40
0.938057931083298
40
0.969326528786075
40
0.984960827637463
40
1
40
1
40
1
40
1
41
1
10
209.487468081615
20
6.27745213737134
30
0
41
1
10
209.480740828743
20
6.27015255525234
30
0
41
1
10
209.467286322997
20
6.25555339101433
30
0
41
1
10
209.447108557034
20
6.23365897699381
30
0
41
1
10
209.430274454226
20
6.21539269235049
30
0
41
1
10
209.418531706621
20
6.20265091616562
30
0
41
1
10
209.412600442974
20
6.19621504302643
30
0
41
1
10
209.409724645917
20
6.19309458402699
30
0
41
1
10
209.407938714619
20
6.19115671244381
30
0
41
1
10
209.407426077255
20
6.19060046183085
30
0
41
1
10
209.406741045725
20
6.18985715040785
30
0
0
SPLINE
5
23D
100
AcDbEntity
8
1
62
256
6
ByLayer
370
-1
48
1
60
0
100
AcDbSpline
70
4
71
3
72
8
73
4
40
0
40
0
40
0
40
0
40
1
40
1
40
1
40
1
41
1
10
221.793012165114
20
6.89312654662214
30
0
41
1
10
221.801548057991
20
6.93014478287688
30
0
41
1
10
221.805828140523
20
6.96765375862114
30
0
41
1
10
221.805845368123
20
7.0056552847073
30
0
0
SPLINE
5
23E
100
AcDbEntity
8
1
62
256
6
ByLayer
370
-1
48
1
60
0
100
AcDbSpline
70
4
71
3
72
14
73
10
40
0
40
0
40
0
40
0
40
0.0424082128911259
40
0.170379060242185
40
0.682262449646423
40
0.938204144348542
40
0.970196856186307
40
0.98619321210519
40
1
40
1
40
1
40
1
41
1
10
219.973630088476
20
17.8977623553638
30
0
41
1
10
219.973582679198
20
17.8959390369496
30
0
41
1
10
219.9733910065
20
17.8886211109149
30
0
41
1
10
219.972621421367
20
17.8593311767241
30
0
41
1
10
219.971609951329
20
17.820880156718
30
0
41
1
10
219.970709612473
20
17.7865316333718
30
0
41
1
10
219.970365362356
20
17.7734925398091
30
0
41
1
10
219.97029450321
20
17.770846737634
30
0
41
1
10
219.970261184944
20
17.7695653876391
30
0
41
1
10
219.970246484222
20
17.7689672247233
30
0
0
SPLINE
5
23F
100
AcDbEntity
8
1
62
256
6
ByLayer
370
-1
48
1
60
0
100
AcDbSpline
70
4
71
3
72
10
73
6
40
0
40
0
40
0
40
0
40
0.5
40
0.5
40
1
40
1
40
1
40
1
41
1
10
212.378841687393
20
9.66194190881262
30
0
41
1
10
212.370874611446
20
9.70757637417924
30
0
41
1
10
212.35980227161
20
9.75552877670353
30
0
41
1
10
212.331551154093
20
9.85591135557377
30
0
41
1
10
212.314167607959
20
9.90848928989485
30
0
41
1
10
212.295298193918
20
9.95946183407219
30
0
0
SPLINE
5
240
100
AcDbEntity
8
1
62
256
6
ByLayer
370
-1
48
1
60
0
100
AcDbSpline
70
4
71
3
72
15
73
11
40
0
40
0
40
0
40
0
40
0.0144496252550278
40
0.0300932819970115
40
0.0613805954809789
40
0.123955222448914
40
0.249104476384783
40
0.499402984256522
40
0.749701492128261
40
1
40
1
40
1
40
1
41
1
10
208.826306573118
20
17.7907981624825
30
0
41
1
10
208.827134539221
20
17.7908271861398
30
0
41
1
10
208.827507851903
20
17.7908402723026
30
0
41
1
10
208.829248982223
20
17.7909013061655
30
0
41
1
10
208.832088509372
20
17.7910008434078
30
0
41
1
10
208.837938952275
20
17.7912059257762
30
0
41
1
10
208.849525579012
20
17.7916120852571
30
0
41
1
10
208.866133944274
20
17.7921942775695
30
0
41
1
10
208.886041892503
20
17.7928921339951
30
0
41
1
10
208.899316397079
20
17.7933574606178
30
0
41
1
10
208.905953649367
20
17.7935901239291
30
0
0
SPLINE
5
241
100
AcDbEntity
8
1
62
256
6
ByLayer
370
-1
48
1
60
0
100
AcDbSpline
70
4
71
3
72
14
73
10
40
0
40
0
40
0
40
0
40
0.0138067085560216
40
0.0298030682371808
40
0.0617957875994994
40
0.317737542498048
40
0.829621052295145
40
0.957591929744419
40
1
40
1
40
1
40
1
41
1
10
220.321646096777
20
7.66776274643149
30
0
41
1
10
220.321702526186
20
7.66716579440472
30
0
41
1
10
220.321825204531
20
7.6658867189457
30
0
41
1
10
220.322079546465
20
7.66323439712795
30
0
41
1
10
220.32333184865
20
7.65020450164351
30
0
41
1
10
220.32662084985
20
7.61584333958049
30
0
41
1
10
220.330308172822
20
7.57739876215646
30
0
41
1
10
220.333115587001
20
7.54810838698322
30
0
41
1
10
220.333816406264
20
7.54079043134678
30
0
41
1
10
220.333990673197
20
7.53896711361773
30
0
0
SPLINE
5
242
100
AcDbEntity
8
1
62
256
6
ByLayer
370
-1
48
1
60
0
100
AcDbSpline
70
4
71
3
72
8
73
4
40
0
40
0
40
0
40
0
40
1
40
1
40
1
40
1
41
1
10
220.62662338366
20
19.0630695744929
30
0
41
1
10
220.596436494006
20
19.0622379460341
30
0
41
1
10
220.566253415608
20
19.0612676426021
30
0
41
1
10
220.536075587319
20
19.060159570432
30
0
0
SPLINE
5
243
100
AcDbEntity
8
1
62
256
6
ByLayer
370
-1
48
1
60
0
100
AcDbSpline
70
4
71
3
72
8
73
4
40
0
40
0
40
0
40
0
40
1
40
1
40
1
40
1
41
1
10
210.62700973146
20
7.19870288240037
30
0
41
1
10
210.639335721298
20
7.0701091637429
30
0
41
1
10
210.649483547875
20
6.91757751377654
30
0
41
1
10
210.656117102336
20
6.76119094106684
30
0
0
SPLINE
5
244
100
AcDbEntity
8
1
62
256
6
ByLayer
370
-1
48
1
60
0
100
AcDbSpline
70
4
71
3
72
8
73
4
40
0
40
0
40
0
40
0
40
1
40
1
40
1
40
1
41
1
10
209.560453530786
20
18.6749965823081
30
0
41
1
10
209.544200551821
20
18.6742733071381
30
0
41
1
10
209.527951485518
20
18.6734689014368
30
0
41
1
10
209.511707530124
20
18.6725834502654
30
0
0
SPLINE
5
245
100
AcDbEntity
8
1
62
256
6
ByLayer
370
-1
48
1
60
0
100
AcDbSpline
70
4
71
3
72
15
73
11
40
0
40
0
40
0
40
0
40
0.250148781622229
40
0.500297563244459
40
0.750446344866688
40
0.875520735677803
40
0.93805793108336
40
0.969326528786139
40
0.984960827637528
40
1
40
1
40
1
40
1
41
1
10
221.138153670506
20
18.8190072167095
30
0
41
1
10
221.144988553375
20
18.8263067988285
30
0
41
1
10
221.158658319113
20
18.8409059630665
30
0
41
1
10
221.179158911183
20
18.8628003770871
30
0
41
1
10
221.196262344496
20
18.8810666617304
30
0
41
1
10
221.208192965502
20
18.8938084379152
30
0
41
1
10
221.214219124034
20
18.9002443110544
30
0
41
1
10
221.217140931257
20
18.9033647700539
30
0
41
1
10
221.21895543585
20
18.9053026416371
30
0
41
1
10
221.219476274951
20
18.90585889225
30
0
41
1
10
221.220172266369
20
18.906602203673
30
0
0
SPLINE
5
246
100
AcDbEntity
8
1
62
256
6
ByLayer
370
-1
48
1
60
0
100
AcDbSpline
70
4
71
3
72
8
73
4
40
0
40
0
40
0
40
0
40
1
40
1
40
1
40
1
41
1
10
209.222479214971
20
6.56456590613712
30
0
41
1
10
209.225220745622
20
6.52670698543756
30
0
41
1
10
209.232128505909
20
6.48962960455583
30
0
41
1
10
209.243202493564
20
6.45333378610158
30
0
0
SPLINE
5
247
100
AcDbEntity
8
1
62
256
6
ByLayer
370
-1
48
1
60
0
100
AcDbSpline
70
4
71
3
72
9
73
5
40
0
40
0
40
0
40
0
40
0.59374999999986
40
1
40
1
40
1
40
1
41
1
10
221.340541202015
20
18.2294954619931
30
0
41
1
10
221.356364963376
20
18.2300459346414
30
0
41
1
10
221.383015508826
20
18.2309730464703
30
0
41
1
10
221.409666054276
20
18.2319001582991
30
0
41
1
10
221.420492838365
20
18.2322767974796
30
0
0
SPLINE
5
248
100
AcDbEntity
8
1
62
256
6
ByLayer
370
-1
48
1
60
0
100
AcDbSpline
70
4
71
3
72
12
73
8
40
0
40
0
40
0
40
0
40
0.341077853836647
40
0.341077853836647
40
0.670538966398324
40
0.670538966398324
40
1
40
1
40
1
40
1
41
1
10
208.82630662191
20
17.7907981641929
30
0
41
1
10
208.828803354289
20
17.723579056646
30
0
41
1
10
208.831365120111
20
17.6563624510013
30
0
41
1
10
208.83606094354
20
17.5242048143296
30
0
41
1
10
208.838173268926
20
17.4592660832836
30
0
41
1
10
208.84245321789
20
17.329393001211
30
0
41
1
10
208.844616962242
20
17.2644557288959
30
0
41
1
10
208.846875916601
20
17.1995206421152
30
0
0
SPLINE
5
249
100
AcDbEntity
8
1
62
256
6
ByLayer
370
-1
48
1
60
0
100
AcDbSpline
70
4
71
3
72
12
73
8
40
0
40
0
40
0
40
0
40
0.659147749652459
40
0.823934687065574
40
0.906328155772131
40
0.988721624478688
40
1
40
1
40
1
40
1
41
1
10
210.263474349514
20
17.4000335363867
30
0
41
1
10
210.263241036684
20
17.4067402654576
30
0
41
1
10
210.263098826301
20
17.4151198203492
30
0
41
1
10
210.26316268717
20
17.4234211939579
30
0
41
1
10
210.263209346494
20
17.4263184277195
30
0
41
1
10
210.263243264782
20
17.4278147184203
30
0
41
1
10
210.263262737422
20
17.4286019350725
30
0
41
1
10
210.263265099829
20
17.4286966076494
30
0
0
SPLINE
5
24A
100
AcDbEntity
8
1
62
256
6
ByLayer
370
-1
48
1
60
0
100
AcDbSpline
70
4
71
3
72
15
73
11
40
0
40
0
40
0
40
0
40
0.0204519912453769
40
0.0504132324411457
40
0.110335714832684
40
0.230180679615759
40
0.46987060918191
40
0.709560538748061
40
0.949250468314212
40
1
40
1
40
1
40
1
41
1
10
210.259099493126
20
18.2239066045225
30
0
41
1
10
210.259037202852
20
18.2261873130624
30
0
41
1
10
210.258883116583
20
18.2318096539071
30
0
41
1
10
210.25853828064
20
18.2441216514201
30
0
41
1
10
210.257850689471
20
18.2675509748904
30
0
41
1
10
210.256363317586
20
18.3144766817428
30
0
41
1
10
210.253912602182
20
18.3815734067887
30
0
41
1
10
210.250472242763
20
18.4617618494368
30
0
41
1
10
210.247583263515
20
18.5203303639383
30
0
41
1
10
210.245880029839
20
18.5521068993517
30
0
41
1
10
210.245581066932
20
18.5576556288596
30
0
0
SPLINE
5
24B
100
AcDbEntity
8
1
62
256
6
ByLayer
370
-1
48
1
60
0
100
AcDbSpline
70
4
71
3
72
8
73
4
40
0
40
0
40
0
40
0
40
1
40
1
40
1
40
1
41
1
10
221.274427530794
20
6.43390864747394
30
0
41
1
10
221.312174690701
20
6.43662822310012
30
0
41
1
10
221.34913015855
20
6.44354311905846
30
0
41
1
10
221.385293718744
20
6.45465352688211
30
0
0
SPLINE
5
24C
100
AcDbEntity
8
1
62
256
6
ByLayer
370
-1
48
1
60
0
100
AcDbSpline
70
4
71
3
72
8
73
4
40
0
40
0
40
0
40
0
40
1
40
1
40
1
40
1
41
1
10
221.414516606807
20
18.3721517774812
30
0
41
1
10
221.411645588558
20
18.4254259179689
30
0
41
1
10
221.408350180852
20
18.4786803808441
30
0
41
1
10
221.404587599141
20
18.5318934479436
30
0
0
SPLINE
5
24D
100
AcDbEntity
8
1
62
256
6
ByLayer
370
-1
48
1
60
0
100
AcDbSpline
70
4
71
3
72
8
73
4
40
0
40
0
40
0
40
0
40
1
40
1
40
1
40
1
41
1
10
208.823341387205
20
17.8817583957478
30
0
41
1
10
208.824191773723
20
17.8514341906812
30
0
41
1
10
208.82518061327
20
17.8211135045058
30
0
41
1
10
208.826306621894
20
17.7907981641923
30
0
0
SPLINE
5
24E
100
AcDbEntity
8
1
62
256
6
ByLayer
370
-1
48
1
60
0
100
AcDbSpline
70
4
71
3
72
8
73
4
40
0
40
0
40
0
40
0
40
1
40
1
40
1
40
1
41
1
10
208.820756031432
20
18.0908040693736
30
0
41
1
10
208.820692249896
20
18.0374499765588
30
0
41
1
10
208.821234764746
20
17.9840922135935
30
0
41
1
10
208.822207694493
20
17.9307476515986
30
0
0
SPLINE
5
24F
100
AcDbEntity
8
1
62
256
6
ByLayer
370
-1
48
1
60
0
100
AcDbSpline
70
4
71
3
72
9
73
5
40
0
40
0
40
0
40
0
40
0.593750000000044
40
1
40
1
40
1
40
1
41
1
10
220.972495819576
20
6.49751263607931
30
0
41
1
10
220.973164469465
20
6.48174916189535
30
0
41
1
10
220.974290616647
20
6.4552001527434
30
0
41
1
10
220.975416763828
20
6.42865114359145
30
0
41
1
10
220.975874261121
20
6.41786560862349
30
0
0
SPLINE
5
250
100
AcDbEntity
8
1
62
256
6
ByLayer
370
-1
48
1
60
0
100
AcDbSpline
70
4
71
3
72
14
73
10
40
0
40
0
40
0
40
0
40
0.0424082128910792
40
0.170379060242163
40
0.6822624496465
40
0.938204144348668
40
0.970196856186439
40
0.986193212105325
40
1
40
1
40
1
40
1
41
1
10
209.97114355284
20
17.2393914079489
30
0
41
1
10
209.972849094307
20
17.2394550796309
30
0
41
1
10
209.979692925554
20
17.2397106272391
30
0
41
1
10
210.007082882695
20
17.2407334542795
30
0
41
1
10
210.043038485244
20
17.2420761934858
30
0
41
1
10
210.075161050738
20
17.2432756703519
30
0
41
1
10
210.087352674004
20
17.2437310055326
30
0
41
1
10
210.089825507094
20
17.2438233989805
30
0
41
1
10
210.091024087442
20
17.2438681447083
30
0
41
1
10
210.091584464622
20
17.2438890330176
30
0
0
SPLINE
5
251
100
AcDbEntity
8
1
62
256
6
ByLayer
370
-1
48
1
60
0
100
AcDbSpline
70
4
71
3
72
10
73
6
40
0
40
0
40
0
40
0
40
0.634300400238626
40
0.951450600357938
40
1
40
1
40
1
40
1
41
1
10
210.676486815801
20
6.13659467717579
30
0
41
1
10
210.676284435316
20
6.14969022452166
30
0
41
1
10
210.675980213034
20
6.16933508730784
30
0
41
1
10
210.675662693325
20
6.18997706832002
30
0
41
1
10
210.675544510501
20
6.19753074625109
30
0
41
1
10
210.675528768295
20
6.19853367521119
30
0
0
SPLINE
5
252
100
AcDbEntity
8
1
62
256
6
ByLayer
370
-1
48
1
60
0
100
AcDbSpline
70
4
71
3
72
23
73
19
40
0
40
0
40
0
40
0
40
0.0074200078966598
40
0.0149215578680723
40
0.0299246578108975
40
0.0599308576965476
40
0.119943257467848
40
0.239968057010449
40
0.480017656095651
40
0.600042455638252
40
0.630048655523902
40
0.660054855409552
40
0.690061055295203
40
0.720067255180853
40
0.840092054723454
40
0.960116854266055
40
0.990123054151705
40
1
40
1
40
1
40
1
41
1
10
209.487468488854
20
6.27745223379543
30
0
41
1
10
209.488628485933
20
6.27636847630734
30
0
41
1
10
209.490972864162
20
6.2741991834402
30
0
41
1
10
209.495707750929
20
6.26988707411874
30
0
41
1
10
209.504109744313
20
6.26242352818369
30
0
41
1
10
209.52127376367
20
6.24791184247744
30
0
41
1
10
209.556978891631
20
6.22058345499588
30
0
41
1
10
209.63341189946
20
6.17297600620847
30
0
41
1
10
209.730261202979
20
6.13646978437976
30
0
41
1
10
209.812639358706
20
6.12255712724388
30
0
41
1
10
209.850985088698
20
6.11934175906273
30
0
41
1
10
209.870195088035
20
6.11829598104154
30
0
41
1
10
209.889408946542
20
6.11734473835747
30
0
41
1
10
209.927848760465
20
6.11572365094486
30
0
41
1
10
209.985553121765
20
6.11444755037741
30
0
41
1
10
210.043268980806
20
6.11494651964179
30
0
41
1
10
210.077428515923
20
6.11589640170601
30
0
41
1
10
210.085946920594
20
6.11617677657085
30
0
41
1
10
210.08805639694
20
6.11624789337972
30
0
0
SPLINE
5
253
100
AcDbEntity
8
1
62
256
6
ByLayer
370
-1
48
1
60
0
100
AcDbSpline
70
4
71
3
72
10
73
6
40
0
40
0
40
0
40
0
40
0.634300400238548
40
0.951450600357823
40
1
40
1
40
1
40
1
41
1
10
221.700085759121
20
7.89415737647917
30
0
41
1
10
221.687293230201
20
7.89370006988895
30
0
41
1
10
221.668102303003
20
7.89301405616391
30
0
41
1
10
221.647939442122
20
7.89229322230312
30
0
41
1
10
221.640559101874
20
7.89202944205727
30
0
41
1
10
221.639579136933
20
7.89199441900624
30
0
0
SPLINE
5
254
100
AcDbEntity
8
1
62
256
6
ByLayer
370
-1
48
1
60
0
100
AcDbSpline
70
4
71
3
72
15
73
11
40
0
40
0
40
0
40
0
40
0.013895631330618
40
0.10145795127349
40
0.189020271216363
40
0.364144911102108
40
0.714394190873597
40
0.889518830759342
40
0.977081150702214
40
1
40
1
40
1
40
1
41
1
10
210.665826229902
20
6.53228252002148
30
0
41
1
10
210.665781450216
20
6.53334299946954
30
0
41
1
10
210.665454174431
20
6.54108570148864
30
0
41
1
10
210.664842565541
20
6.55550861746752
30
0
41
1
10
210.663708095254
20
6.58223259554816
30
0
41
1
10
210.66172423738
20
6.62900116465005
30
0
41
1
10
210.659457341929
20
6.68245126516155
30
0
41
1
10
210.657472837097
20
6.72921928026327
30
0
41
1
10
210.656549463764
20
6.75101260284737
30
0
41
1
10
210.656190932426
20
6.75944177145877
30
0
41
1
10
210.65611638748
20
6.76119017593015
30
0
0
SPLINE
5
255
100
AcDbEntity
8
1
62
256
6
ByLayer
370
-1
48
1
60
0
100
AcDbSpline
70
4
71
3
72
12
73
8
40
0
40
0
40
0
40
0
40
0.521734132299742
40
0.782601198449612
40
0.913034731524548
40
0.978251498062015
40
1
40
1
40
1
40
1
41
1
10
209.264587404997
20
7.4582414124647
30
0
41
1
10
209.268164639559
20
7.35541152779061
30
0
41
1
10
209.273528456148
20
7.20116666120171
30
0
41
1
10
209.279794139813
20
7.02121450475877
30
0
41
1
10
209.282915229339
20
6.93123807253053
30
0
41
1
10
209.284419491721
20
6.88839088555633
30
0
41
1
10
209.285000558705
20
6.87125011267861
30
0
41
1
10
209.285152181041
20
6.86696373884064
30
0
0
SPLINE
5
256
100
AcDbEntity
8
1
62
256
6
ByLayer
370
-1
48
1
60
0
100
AcDbSpline
70
4
71
3
72
15
73
11
40
0
40
0
40
0
40
0
40
0.25014878162224
40
0.50029756324448
40
0.750446344866721
40
0.875520735677841
40
0.938057931083401
40
0.969326528786181
40
0.984960827637571
40
1
40
1
40
1
40
1
41
1
10
209.06589553813
20
18.395824334595
30
0
41
1
10
209.058677548122
20
18.4026313050435
30
0
41
1
10
209.044241568108
20
18.4162452459404
30
0
41
1
10
209.022591881997
20
18.4366621173167
30
0
41
1
10
209.004529771334
20
18.4536957033143
30
0
41
1
10
208.991930418155
20
18.4655776018309
30
0
41
1
10
208.985566482898
20
18.4715791506257
30
0
41
1
10
208.98248090327
20
18.4744890257183
30
0
41
1
10
208.980564692521
20
18.4762961202046
30
0
41
1
10
208.980014659478
20
18.4768148322929
30
0
41
1
10
208.979279656523
20
18.4775079814085
30
0
0
SPLINE
5
257
100
AcDbEntity
8
1
62
256
6
ByLayer
370
-1
48
1
60
0
100
AcDbSpline
70
4
71
3
72
8
73
4
40
0
40
0
40
0
40
0
40
1
40
1
40
1
40
1
41
1
10
220.675391066781
20
19.0641723096235
30
0
41
1
10
220.659133460383
20
19.0638849731483
30
0
41
1
10
220.642877189016
20
19.0635173558758
30
0
41
1
10
220.62662338366
20
19.0630695744962
30
0
0
SPLINE
5
258
100
AcDbEntity
8
1
62
256
6
ByLayer
370
-1
48
1
60
0
100
AcDbSpline
70
4
71
3
72
15
73
11
40
0
40
0
40
0
40
0
40
0.0144496252550715
40
0.0300932819970545
40
0.0613805954810205
40
0.123955222448953
40
0.249104476384816
40
0.499402984256544
40
0.749701492128272
40
1
40
1
40
1
40
1
41
1
10
210.090837726455
20
6.03629973468696
30
0
41
1
10
210.090808813242
20
6.0371308634858
30
0
41
1
10
210.090795776876
20
6.03750560216122
30
0
41
1
10
210.090734975265
20
6.03925338331598
30
0
41
1
10
210.090635816792
20
6.04210375699807
30
0
41
1
10
210.090431514824
20
6.04797654764238
30
0
41
1
10
210.090026900903
20
6.05960743341092
30
0
41
1
10
210.089446924008
20
6.07627923993059
30
0
41
1
10
210.088751723137
20
6.09626323328698
30
0
41
1
10
210.088288167222
20
6.10958844431389
30
0
41
1
10
210.088056389265
20
6.11625104982735
30
0
0
SPLINE
5
259
100
AcDbEntity
8
1
62
256
6
ByLayer
370
-1
48
1
60
0
100
AcDbSpline
70
4
71
3
72
10
73
6
40
0
40
0
40
0
40
0
40
0.5
40
0.5
40
1
40
1
40
1
40
1
41
1
10
221.220172264931
20
18.9066022021375
30
0
41
1
10
221.181744495444
20
18.9425767223784
30
0
41
1
10
221.139521910846
20
18.9727806025107
30
0
41
1
10
221.047710572109
20
19.021970481427
30
0
41
1
10
220.998144722271
20
19.0407252451004
30
0
41
1
10
220.946934350548
20
19.0526425018243
30
0
0
SPLINE
5
25A
100
AcDbEntity
8
1
62
256
6
ByLayer
370
-1
48
1
60
0
100
AcDbSpline
70
4
71
3
72
15
73
11
40
0
40
0
40
0
40
0
40
0.022919002179131
40
0.110481321488084
40
0.285605960105991
40
0.635855237341804
40
0.810979875959711
40
0.898542195268664
40
0.986104514577618
40
1
40
1
40
1
40
1
41
1
10
210.265315963356
20
17.9949990527687
30
0
41
1
10
210.265268869298
20
17.9967474617556
30
0
41
1
10
210.265040965257
20
18.0051766142154
30
0
41
1
10
210.264447945708
20
18.0269700473404
30
0
41
1
10
210.2631786024
20
18.0737379969909
30
0
41
1
10
210.261726632986
20
18.1271881311727
30
0
41
1
10
210.260456539012
20
18.1739566952925
30
0
41
1
10
210.259731665917
20
18.2006806770194
30
0
41
1
10
210.259339574229
20
18.2151038012153
30
0
41
1
10
210.259128455284
20
18.2228461783122
30
0
41
1
10
210.259099493126
20
18.2239066045225
30
0
0
SPLINE
5
25B
100
AcDbEntity
8
1
62
256
6
ByLayer
370
-1
48
1
60
0
100
AcDbSpline
70
4
71
2
72
9
73
6
40
0
40
0
40
0
40
0.25
40
0.5
40
0.75
40
1
40
1
40
1
41
1
10
210.263474349514
20
17.4000335363867
30
0
41
1
10
210.233797571057
20
17.3988710492684
30
0
41
1
10
210.180182983395
20
17.3746098879082
30
0
41
1
10
210.139463070229
20
17.331134734323
30
0
41
1
10
210.118416686289
20
17.2753265672516
30
0
41
1
10
210.119351177071
20
17.2448899878285
30
0
0
SPLINE
5
25C
100
AcDbEntity
8
1
62
256
6
ByLayer
370
-1
48
1
60
0
100
AcDbSpline
70
4
71
3
72
8
73
4
40
0
40
0
40
0
40
0
40
1
40
1
40
1
40
1
41
1
10
219.973631029265
20
17.8977564716805
30
0
41
1
10
219.977010012003
20
18.026350190338
30
0
41
1
10
219.976545331456
20
18.1788818403043
30
0
41
1
10
219.972298169571
20
18.335268413014
30
0
0
SPLINE
5
25D
100
AcDbEntity
8
1
62
256
6
ByLayer
370
-1
48
1
60
0
100
AcDbSpline
70
4
71
3
72
9
73
5
40
0
40
0
40
0
40
0
40
0.59374999999818
40
1
40
1
40
1
40
1
41
1
10
209.285156730297
20
6.86696389208777
30
0
41
1
10
209.269573512847
20
6.8664134194394
30
0
41
1
10
209.243328093984
20
6.86548630761058
30
0
41
1
10
209.21708267512
20
6.86455919578174
30
0
41
1
10
209.206420473706
20
6.86418255660126
30
0
0
SPLINE
5
25E
100
AcDbEntity
8
1
62
256
6
ByLayer
370
-1
48
1
60
0
100
AcDbSpline
70
4
71
3
72
9
73
5
40
0
40
0
40
0
40
0
40
0.406250000000554
40
1
40
1
40
1
40
1
41
1
10
219.947048054725
20
19.039511704361
30
0
41
1
10
219.947340969342
20
19.028726169393
30
0
41
1
10
219.948061989937
20
19.002177160241
30
0
41
1
10
219.948783010533
20
18.9756281510891
30
0
41
1
10
219.949211116511
20
18.9598646769051
30
0
0
SPLINE
5
25F
100
AcDbEntity
8
1
62
256
6
ByLayer
370
-1
48
1
60
0
100
AcDbSpline
70
4
71
3
72
8
73
4
40
0
40
0
40
0
40
0
40
1
40
1
40
1
40
1
41
1
10
209.791817476356
20
6.03088454281925
30
0
41
1
10
209.844948743735
20
6.03084039027402
30
0
41
1
10
209.898139810338
20
6.03134849257194
30
0
41
1
10
209.951319329504
20
6.03228704445726
30
0
0
SPLINE
5
260
100
AcDbEntity
8
1
62
256
6
ByLayer
370
-1
48
1
60
0
100
AcDbSpline
70
4
71
3
72
12
73
8
40
0
40
0
40
0
40
0
40
0.341077853836657
40
0.341077853836657
40
0.670538966398354
40
0.670538966398354
40
1
40
1
40
1
40
1
41
1
10
220.53607558732
20
19.0601595704156
30
0
41
1
10
220.469161389253
20
19.0577026090393
30
0
41
1
10
220.402269887672
20
19.0552006470817
30
0
41
1
10
220.270645661008
20
19.0505175132152
30
0
41
1
10
220.205908509398
20
19.0483514131235
30
0
41
1
10
220.076455773472
20
19.0439809731765
30
0
41
1
10
220.011736043896
20
19.0417792875583
30
0
41
1
10
219.947048054725
20
19.0395117043609
30
0
0
SPLINE
5
261
100
AcDbEntity
8
1
62
256
6
ByLayer
370
-1
48
1
60
0
100
AcDbSpline
70
4
71
3
72
8
73
4
40
0
40
0
40
0
40
0
40
1
40
1
40
1
40
1
41
1
10
209.67976683918
20
6.04381685225675
30
0
41
1
10
209.716626962028
20
6.03523103993027
30
0
41
1
10
209.753974657993
20
6.03091599053044
30
0
41
1
10
209.791817476356
20
6.03088454281928
30
0
0
SPLINE
5
262
100
AcDbEntity
8
1
62
256
6
ByLayer
370
-1
48
1
60
0
100
AcDbSpline
70
4
71
3
72
25
73
21
40
0
40
0
40
0
40
0
40
0.0099904601134567
40
0.0399882789191392
40
0.159979554141869
40
0.279970829364599
40
0.309968648170282
40
0.339966466975965
40
0.369964285781647
40
0.39996210458733
40
0.51995337981006
40
0.63994465503279
40
0.75993593025552
40
0.87992720547825
40
0.939922843089615
40
0.969920661895298
40
0.984919571298139
40
0.99241902599956
40
0.999918480700981
40
1
40
1
40
1
40
1
41
1
10
220.972495743147
20
6.49750829941289
30
0
41
1
10
220.974627891893
20
6.49758436122954
30
0
41
1
10
220.983161845307
20
6.49789517899114
30
0
41
1
10
221.017296353946
20
6.49930168164744
30
0
41
1
10
221.074851893091
20
6.50279154757416
30
0
41
1
10
221.132273603537
20
6.50805542763749
30
0
41
1
10
221.170472973251
20
6.51232522260341
30
0
41
1
10
221.189556476113
20
6.51460369336596
30
0
41
1
10
221.208627334381
20
6.51699321415768
30
0
41
1
10
221.246613697142
20
6.5229094650098
30
0
41
1
10
221.30276291006
20
6.53658617634369
30
0
41
1
10
221.374665952308
20
6.564321443712
30
0
41
1
10
221.442439150294
20
6.60108216536452
30
0
41
1
10
221.49442655669
20
6.63888880441155
30
0
41
1
10
221.528065581565
20
6.66868881520836
30
0
41
1
10
221.544139075237
20
6.68438460749567
30
0
41
1
10
221.551981152898
20
6.69242662888101
30
0
41
1
10
221.556406004767
20
6.69707708583732
30
0
41
1
10
221.558610398565
20
6.6994331133842
30
0
41
1
10
221.559714592891
20
6.70062229094285
30
0
41
1
10
221.559726465992
20
6.70063507889364
30
0
0
SPLINE
5
263
100
AcDbEntity
8
1
62
256
6
ByLayer
370
-1
48
1
60
0
100
AcDbSpline
70
4
71
3
72
8
73
4
40
0
40
0
40
0
40
0
40
1
40
1
40
1
40
1
41
1
10
209.352639283319
20
18.6625507066069
30
0
41
1
10
209.314956731073
20
18.6598311309808
30
0
41
1
10
209.278039618415
20
18.6529162350224
30
0
41
1
10
209.241887774795
20
18.6418058271988
30
0
0
SPLINE
5
264
100
AcDbEntity
8
1
62
256
6
ByLayer
370
-1
48
1
60
0
100
AcDbSpline
70
4
71
3
72
15
73
11
40
0
40
0
40
0
40
0
40
0.0138956313306229
40
0.101457951273494
40
0.189020271216366
40
0.364144911102109
40
0.714394190873596
40
0.889518830759339
40
0.977081150702211
40
1
40
1
40
1
40
1
41
1
10
219.966080817291
20
18.5641768340594
30
0
41
1
10
219.966109821279
20
18.5631163546113
30
0
41
1
10
219.966321249955
20
18.5553736525922
30
0
41
1
10
219.966713126563
20
18.5409507366133
30
0
41
1
10
219.96743799765
20
18.5142267585327
30
0
41
1
10
219.968708099023
20
18.4674581894308
30
0
41
1
10
219.970160035517
20
18.4140080889193
30
0
41
1
10
219.971429451387
20
18.3672400738176
30
0
41
1
10
219.972022365272
20
18.3454467512335
30
0
41
1
10
219.972250299837
20
18.3370175826221
30
0
41
1
10
219.97229740148
20
18.3352691781507
30
0
0
SPLINE
5
265
100
AcDbEntity
8
1
62
256
6
ByLayer
370
-1
48
1
60
0
100
AcDbSpline
70
4
71
3
72
8
73
4
40
0
40
0
40
0
40
0
40
1
40
1
40
1
40
1
41
1
10
220.629490610483
20
7.85706774066924
30
0
41
1
10
220.765447477505
20
7.86155833227656
30
0
41
1
10
220.922240271508
20
7.86688485486525
30
0
41
1
10
221.079224942382
20
7.87234599432244
30
0
0
SPLINE
5
266
100
AcDbEntity
8
1
62
256
6
ByLayer
370
-1
48
1
60
0
100
AcDbSpline
70
4
71
3
72
15
73
11
40
0
40
0
40
0
40
0
40
0.0144496252551776
40
0.0300932819971589
40
0.0613805954811215
40
0.123955222449047
40
0.249104476384897
40
0.499402984256598
40
0.749701492128299
40
1
40
1
40
1
40
1
41
1
10
221.800606738953
20
7.30566119159832
30
0
41
1
10
221.79977877285
20
7.30563216794113
30
0
41
1
10
221.799405460169
20
7.30561908177822
30
0
41
1
10
221.797664329849
20
7.30555804791538
30
0
41
1
10
221.794824802699
20
7.30545851067308
30
0
41
1
10
221.788974359796
20
7.30525342830472
30
0
41
1
10
221.77738773306
20
7.30484726882381
30
0
41
1
10
221.760779367797
20
7.30426507651131
30
0
41
1
10
221.740871419569
20
7.3035672200858
30
0
41
1
10
221.727596914993
20
7.30310189346309
30
0
41
1
10
221.720959662705
20
7.30286923015174
30
0
0
SPLINE
5
267
100
AcDbEntity
8
1
62
256
6
ByLayer
370
-1
48
1
60
0
100
AcDbSpline
70
4
71
3
72
15
73
11
40
0
40
0
40
0
40
0
40
0.0138956313308273
40
0.101457951273669
40
0.189020271216511
40
0.364144911102196
40
0.714394190873564
40
0.889518830759249
40
0.977081150702091
40
1
40
1
40
1
40
1
41
1
10
209.322898861774
20
17.2161197015524
30
0
41
1
10
209.323947417929
20
17.2161567343107
30
0
41
1
10
209.331602733075
20
17.2164271154232
30
0
41
1
10
209.345860899363
20
17.2169307747475
30
0
41
1
10
209.372278385038
20
17.2178639966259
30
0
41
1
10
209.418512107364
20
17.219497191047
30
0
41
1
10
209.471351334628
20
17.2213637096863
30
0
41
1
10
209.517583838832
20
17.2229968847612
30
0
41
1
10
209.53912900152
20
17.2237579243556
30
0
41
1
10
209.547460796213
20
17.2240522774098
30
0
41
1
10
209.549188825826
20
17.2241133330393
30
0
0
SPLINE
5
268
100
AcDbEntity
8
1
62
256
6
ByLayer
370
-1
48
1
60
0
100
AcDbSpline
70
4
71
3
72
14
73
10
40
0
40
0
40
0
40
0
40
0.0424082128910652
40
0.170379060242133
40
0.682262449646405
40
0.938204144348541
40
0.970196856186308
40
0.986193212105191
40
1
40
1
40
1
40
1
41
1
10
220.629495735668
20
7.85706794613199
30
0
41
1
10
220.627568516861
20
7.85700427444993
30
0
41
1
10
220.619832189874
20
7.85674872684172
30
0
41
1
10
220.588865192718
20
7.8557258998014
30
0
41
1
10
220.548211390736
20
7.85438316059506
30
0
41
1
10
220.51189832254
20
7.8531836837289
30
0
41
1
10
220.498110994055
20
7.85272834854823
30
0
41
1
10
220.495312358947
20
7.85263595510034
30
0
41
1
10
220.493957991153
20
7.85259120937252
30
0
41
1
10
220.493326594883
20
7.85257032106324
30
0
0
SPLINE
5
269
100
AcDbEntity
8
1
62
256
6
ByLayer
370
-1
48
1
60
0
100
AcDbSpline
70
4
71
3
72
10
73
6
40
0
40
0
40
0
40
0
40
0.5
40
0.5
40
1
40
1
40
1
40
1
41
1
10
221.385293718746
20
6.45465352689033
30
0
41
1
10
221.435520330005
20
6.47008447814903
30
0
41
1
10
221.48264530544
20
6.49167844112253
30
0
41
1
10
221.570878258584
20
6.54682413333231
30
0
41
1
10
221.611785933573
20
6.58047654093755
30
0
41
1
10
221.64763365411
20
6.61895137402988
30
0
0
SPLINE
5
26A
100
AcDbEntity
8
1
62
256
6
ByLayer
370
-1
48
1
60
0
100
AcDbSpline
70
4
71
3
72
15
73
11
40
0
40
0
40
0
40
0
40
0.250148781622202
40
0.500297563244405
40
0.750446344866607
40
0.875520735677708
40
0.938057931083259
40
0.969326528786034
40
0.984960827637421
40
1
40
1
40
1
40
1
41
1
10
221.559726213992
20
6.70063501948582
30
0
41
1
10
221.567051833995
20
6.69382804903736
30
0
41
1
10
221.581703074001
20
6.68021410814043
30
0
41
1
10
221.603675586221
20
6.65979723676412
30
0
41
1
10
221.622007027389
20
6.64276365076657
30
0
41
1
10
221.634794253969
20
6.63088175224999
30
0
41
1
10
221.64125308411
20
6.62488020345521
30
0
41
1
10
221.644384673904
20
6.62197032836255
30
0
41
1
10
221.646329457948
20
6.62016323387624
30
0
41
1
10
221.646887692728
20
6.61964452178799
30
0
41
1
10
221.647633655571
20
6.61895137267234
30
0
0
SPLINE
5
26B
100
AcDbEntity
8
1
62
256
6
ByLayer
370
-1
48
1
60
0
100
AcDbSpline
70
4
71
3
72
8
73
4
40
0
40
0
40
0
40
0
40
1
40
1
40
1
40
1
41
1
10
221.066466317052
20
6.42146277177272
30
0
41
1
10
221.082723539894
20
6.42218604694276
30
0
41
1
10
221.098977896925
20
6.42299045264409
30
0
41
1
10
221.115228167241
20
6.42387590381543
30
0
0
SPLINE
5
26C
100
AcDbEntity
8
1
62
256
6
ByLayer
370
-1
48
1
60
0
100
AcDbSpline
70
4
71
3
72
10
73
6
40
0
40
0
40
0
40
0
40
0.5
40
0.5
40
1
40
1
40
1
40
1
41
1
10
209.243202493572
20
6.45333378609942
30
0
41
1
10
209.258582861822
20
6.40292348484545
30
0
41
1
10
209.280087096922
20
6.35561091447082
30
0
41
1
10
209.334978294865
20
6.26699610697182
30
0
41
1
10
209.368464580919
20
6.22589396193032
30
0
41
1
10
209.406741047067
20
6.18985715186363
30
0
0
SPLINE
5
26D
100
AcDbEntity
8
1
62
256
6
ByLayer
370
-1
48
1
60
0
100
AcDbSpline
70
4
71
3
72
8
73
4
40
0
40
0
40
0
40
0
40
1
40
1
40
1
40
1
41
1
10
209.206420473706
20
6.86418255660129
30
0
41
1
10
209.207469434283
20
6.83386558872866
30
0
41
1
10
209.208665065769
20
6.80355325966551
30
0
41
1
10
209.210007216447
20
6.77324773409953
30
0
0
SPLINE
5
26E
100
AcDbEntity
8
1
62
256
6
ByLayer
370
-1
48
1
60
0
100
AcDbSpline
70
4
71
3
72
8
73
4
40
0
40
0
40
0
40
0
40
1
40
1
40
1
40
1
41
1
10
210.665826838682
20
6.53228313637226
30
0
41
1
10
210.670556317325
20
6.42078530212552
30
0
41
1
10
210.673840947184
20
6.30780237868981
30
0
41
1
10
210.675529632384
20
6.19853168031517
30
0
0
SPLINE
5
26F
100
AcDbEntity
8
1
62
256
6
ByLayer
370
-1
48
1
60
0
100
AcDbSpline
70
4
71
3
72
8
73
4
40
0
40
0
40
0
40
0
40
1
40
1
40
1
40
1
41
1
10
209.971150150242
20
17.2393916134116
30
0
41
1
10
209.850898255796
20
17.2349010218043
30
0
41
1
10
209.703788607823
20
17.2295744992156
30
0
41
1
10
209.549190329525
20
17.2241133597584
30
0
0
SPLINE
5
270
100
AcDbEntity
8
1
62
256
6
ByLayer
370
-1
48
1
60
0
100
AcDbSpline
70
4
71
3
72
15
73
11
40
0
40
0
40
0
40
0
40
0.0229190021792238
40
0.11048132148817
40
0.285605960106063
40
0.635855237341849
40
0.810979875959742
40
0.898542195268689
40
0.986104514577635
40
1
40
1
40
1
40
1
41
1
10
209.888164152576
20
7.48005277073864
30
0
41
1
10
209.886436126207
20
7.47999171495141
30
0
41
1
10
209.878104377566
20
7.47969736246137
30
0
41
1
10
209.856559002939
20
7.47893631900675
30
0
41
1
10
209.810326634222
20
7.47730314621737
30
0
41
1
10
209.757487341668
20
7.47543662640226
30
0
41
1
10
209.711253631531
20
7.47380343215514
30
0
41
1
10
209.684836140342
20
7.47287021014932
30
0
41
1
10
209.670577558792
20
7.4723665435539
30
0
41
1
10
209.662922865759
20
7.472096173788
30
0
41
1
10
209.661874402619
20
7.47205914288872
30
0
0
SPLINE
5
271
100
AcDbEntity
8
1
62
256
6
ByLayer
370
-1
48
1
60
0
100
AcDbSpline
70
4
71
3
72
8
73
4
40
0
40
0
40
0
40
0
40
1
40
1
40
1
40
1
41
1
10
209.210007216448
20
6.77324773409956
30
0
41
1
10
209.210729861276
20
6.75693054135195
30
0
41
1
10
209.211533851334
20
6.74061675078656
30
0
41
1
10
209.212419090557
20
6.72430757659973
30
0
0
SPLINE
5
272
100
AcDbEntity
8
1
62
256
6
ByLayer
370
-1
48
1
60
0
100
AcDbSpline
70
4
71
3
72
25
73
21
40
0
40
0
40
0
40
0
40
0.0099904601134592
40
0.0399882789191398
40
0.159979554141862
40
0.279970829364584
40
0.309968648170264
40
0.339966466975945
40
0.369964285781626
40
0.399962104587306
40
0.519953379810028
40
0.63994465503275
40
0.759935930255472
40
0.879927205478195
40
0.939922843089556
40
0.969920661895236
40
0.984919571298076
40
0.992419025999497
40
0.999918480700917
40
1
40
1
40
1
40
1
41
1
10
209.65320173098
20
18.598951054668
30
0
41
1
10
209.651069459453
20
18.5988749928513
30
0
41
1
10
209.642534914823
20
18.5985641750897
30
0
41
1
10
209.60839615044
20
18.5971576724334
30
0
41
1
10
209.550833894572
20
18.5936678065067
30
0
41
1
10
209.493405354787
20
18.5884039264434
30
0
41
1
10
209.455201448974
20
18.5841341314774
30
0
41
1
10
209.43611567276
20
18.5818556607149
30
0
41
1
10
209.417042513554
20
18.5794661399232
30
0
41
1
10
209.379051553436
20
18.5735498890711
30
0
41
1
10
209.322895442664
20
18.5598731777372
30
0
41
1
10
209.250983333121
20
18.5321379103689
30
0
41
1
10
209.183201011106
20
18.4953771887163
30
0
41
1
10
209.131206135291
20
18.4575705496693
30
0
41
1
10
209.097561352706
20
18.4277705388725
30
0
41
1
10
209.081485687487
20
18.4120747465852
30
0
41
1
10
209.073641594641
20
18.4040327251998
30
0
41
1
10
209.069216904568
20
18.3993822682435
30
0
41
1
10
209.067010482188
20
18.3970262406967
30
0
41
1
10
209.065907838378
20
18.395837063138
30
0
41
1
10
209.065895982244
20
18.3958242751872
30
0
0
SPLINE
5
273
100
AcDbEntity
8
1
62
256
6
ByLayer
370
-1
48
1
60
0
100
AcDbSpline
70
4
71
3
72
12
73
8
40
0
40
0
40
0
40
0
40
0.341077853836652
40
0.341077853836652
40
0.67053896639833
40
0.67053896639833
40
1
40
1
40
1
40
1
41
1
10
221.800606690161
20
7.30566118988796
30
0
41
1
10
221.798208198747
20
7.37288029743488
30
0
41
1
10
221.795785082095
20
7.44009690307959
30
0
41
1
10
221.791150279268
20
7.5722545397513
30
0
41
1
10
221.7889468898
20
7.63719327079727
30
0
41
1
10
221.784519220556
20
7.76706635286985
30
0
41
1
10
221.782296349829
20
7.83200362518497
30
0
41
1
10
221.780037395471
20
7.89693871196567
30
0
0
SPLINE
5
274
100
AcDbEntity
8
1
62
256
6
ByLayer
370
-1
48
1
60
0
100
AcDbSpline
70
4
71
3
72
10
73
6
40
0
40
0
40
0
40
0
40
0.5
40
0.5
40
1
40
1
40
1
40
1
41
1
10
209.241887774793
20
18.6418058271905
30
0
41
1
10
209.191677436375
20
18.6263748759318
30
0
41
1
10
209.144537348289
20
18.6047809129584
30
0
41
1
10
209.056215098627
20
18.5496352207485
30
0
41
1
10
209.015231295676
20
18.5159828131433
30
0
41
1
10
208.979279657964
20
18.477507980051
30
0
0
SPLINE
5
275
100
AcDbEntity
8
1
62
256
6
ByLayer
370
-1
48
1
60
0
100
AcDbSpline
70
4
71
3
72
14
73
10
40
0
40
0
40
0
40
0
40
0.0424082128911437
40
0.170379060242203
40
0.682262449646439
40
0.938204144348558
40
0.970196856186322
40
0.986193212105205
40
1
40
1
40
1
40
1
41
1
10
210.627009200032
20
7.19869699871705
30
0
41
1
10
210.62683493197
20
7.20052031713126
30
0
41
1
10
210.626134108928
20
7.20783824316598
30
0
41
1
10
210.623326654045
20
7.23712817735682
30
0
41
1
10
210.619639924651
20
7.27557919736284
30
0
41
1
10
210.616349760805
20
7.30992772070903
30
0
41
1
10
210.615098305703
20
7.32296681427178
30
0
41
1
10
210.614843362831
20
7.32561261644685
30
0
41
1
10
210.614720893651
20
7.32689396644173
30
0
41
1
10
210.614664575283
20
7.32749212935755
30
0
0
SPLINE
5
276
100
AcDbEntity
8
1
62
256
6
ByLayer
370
-1
48
1
60
0
100
AcDbSpline
70
4
71
3
72
8
73
4
40
0
40
0
40
0
40
0
40
1
40
1
40
1
40
1
41
1
10
220.975874261121
20
6.41786560862349
30
0
41
1
10
221.006074094496
20
6.41892035209889
30
0
41
1
10
221.036272172136
20
6.42011945037555
30
0
41
1
10
221.066466317052
20
6.42146277177255
30
0
0
SPLINE
5
277
100
AcDbEntity
8
1
62
256
6
ByLayer
370
-1
48
1
60
0
100
AcDbSpline
70
4
71
3
72
12
73
8
40
0
40
0
40
0
40
0
40
0.521734132299736
40
0.782601198449604
40
0.913034731524537
40
0.978251498062004
40
1
40
1
40
1
40
1
41
1
10
210.242229661516
20
18.619594632731
30
0
41
1
10
210.139791075604
20
18.6160037337201
30
0
41
1
10
209.986132753543
20
18.6106190229235
30
0
41
1
10
209.806866123229
20
18.6043301620888
30
0
41
1
10
209.717231361029
20
18.6011964303051
30
0
41
1
10
209.674547755621
20
18.5996869590129
30
0
41
1
10
209.657471916814
20
18.599103379589
30
0
41
1
10
209.65320173098
20
18.598951054668
30
0
0
SPLINE
5
278
100
AcDbEntity
8
1
62
256
6
ByLayer
370
-1
48
1
60
0
100
AcDbSpline
70
4
71
3
72
9
73
5
40
0
40
0
40
0
40
0
40
0.406250000000109
40
1
40
1
40
1
40
1
41
1
10
210.679865257346
20
6.05694764971992
30
0
41
1
10
210.679407760054
20
6.06773318468791
30
0
41
1
10
210.678281612872
20
6.09428219383986
30
0
41
1
10
210.677155465691
20
6.12083120299181
30
0
41
1
10
210.676486815801
20
6.13659467717576
30
0
0
SPLINE
5
279
100
AcDbEntity
8
1
62
256
6
ByLayer
370
-1
48
1
60
0
100
AcDbSpline
70
4
71
3
72
8
73
4
40
0
40
0
40
0
40
0
40
1
40
1
40
1
40
1
41
1
10
221.804502701792
20
7.16571170248224
30
0
41
1
10
221.804228076859
20
7.18204307281559
30
0
41
1
10
221.803873590144
20
7.19837321697341
30
0
41
1
10
221.803439316726
20
7.21470095833314
30
0
0
SPLINE
5
27A
100
AcDbEntity
8
1
62
256
6
ByLayer
370
-1
48
1
60
0
100
AcDbSpline
70
4
71
3
72
10
73
6
40
0
40
0
40
0
40
0
40
0.5
40
0.5
40
1
40
1
40
1
40
1
41
1
10
221.383978999967
20
18.6431255679815
30
0
41
1
10
221.368614904557
20
18.6935358692354
30
0
41
1
10
221.347095556807
20
18.74084843961
30
0
41
1
10
221.292115062346
20
18.829463247109
30
0
41
1
10
221.258552648331
20
18.8705653921505
30
0
41
1
10
221.220172265007
20
18.9066022022172
30
0
0
SPLINE
5
27B
100
AcDbEntity
8
1
62
256
6
ByLayer
370
-1
48
1
60
0
100
AcDbSpline
70
4
71
3
72
8
73
4
40
0
40
0
40
0
40
0
40
1
40
1
40
1
40
1
41
1
10
209.511707530124
20
18.6725834502655
30
0
41
1
10
209.458646427713
20
18.669691111907
30
0
41
1
10
209.405604453589
20
18.6663732392519
30
0
41
1
10
209.352639283319
20
18.6625507066069
30
0
0
SPLINE
5
27C
100
AcDbEntity
8
1
62
256
6
ByLayer
370
-1
48
1
60
0
100
AcDbSpline
70
4
71
3
72
15
73
11
40
0
40
0
40
0
40
0
40
0.0144496252550837
40
0.0300932819970665
40
0.0613805954810321
40
0.123955222448963
40
0.249104476384826
40
0.499402984256551
40
0.749701492128275
40
1
40
1
40
1
40
1
41
1
10
220.536075585616
20
19.0601596193939
30
0
41
1
10
220.536104498829
20
19.0593284905951
30
0
41
1
10
220.536117535196
20
19.0589537519197
30
0
41
1
10
220.536178336806
20
19.0572059707649
30
0
41
1
10
220.536277495279
20
19.0543555970828
30
0
41
1
10
220.536481797247
20
19.0484828064385
30
0
41
1
10
220.536886411169
20
19.0368519206699
30
0
41
1
10
220.537466388064
20
19.0201801141503
30
0
41
1
10
220.538161588935
20
19.0001961207939
30
0
41
1
10
220.538625144849
20
18.986870909767
30
0
41
1
10
220.538856922806
20
18.9802083042535
30
0
0
SPLINE
5
27D
100
AcDbEntity
8
1
62
256
6
ByLayer
370
-1
48
1
60
0
100
AcDbSpline
70
4
71
3
72
8
73
4
40
0
40
0
40
0
40
0
40
1
40
1
40
1
40
1
41
1
10
221.420492838365
20
18.2322767974796
30
0
41
1
10
221.419440339225
20
18.2625937653522
30
0
41
1
10
221.41824690002
20
18.2929060944154
30
0
41
1
10
221.416912631391
20
18.3232116199813
30
0
0
SPLINE
5
27E
100
AcDbEntity
8
1
62
256
6
ByLayer
370
-1
48
1
60
0
100
AcDbSpline
70
4
71
3
72
23
73
19
40
0
40
0
40
0
40
0
40
0.0074200078966901
40
0.0149215578681029
40
0.0299246578109284
40
0.0599308576965796
40
0.119943257467882
40
0.239968057010486
40
0.480017656095695
40
0.6000424556383
40
0.630048655523951
40
0.660054855409602
40
0.690061055295253
40
0.720067255180905
40
0.840092054723509
40
0.960116854266114
40
0.990123054151765
40
1
40
1
40
1
40
1
41
1
10
221.138153959381
20
18.8190071202854
30
0
41
1
10
221.136995506169
20
18.8200908777735
30
0
41
1
10
221.134659118072
20
18.8222601706407
30
0
41
1
10
221.129936669815
20
18.8265722799621
30
0
41
1
10
221.121558037179
20
18.8340358258972
30
0
41
1
10
221.104439515376
20
18.8485475116034
30
0
41
1
10
221.06882547153
20
18.875875899085
30
0
41
1
10
220.99257246337
20
18.9234833478724
30
0
41
1
10
220.895927057952
20
18.9599895697011
30
0
41
1
10
220.813718031805
20
18.973902226837
30
0
41
1
10
220.775450825521
20
18.9771175950181
30
0
41
1
10
220.756279896491
20
18.9781633730393
30
0
41
1
10
220.737104755629
20
18.9791146157234
30
0
41
1
10
220.698742248232
20
18.980735703136
30
0
41
1
10
220.641154022316
20
18.9820118037034
30
0
41
1
10
220.58355427422
20
18.9815128344391
30
0
41
1
10
220.549463378115
20
18.9805629523748
30
0
41
1
10
220.540962010323
20
18.98028257751
30
0
41
1
10
220.538856690069
20
18.9802114607012
30
0
0
SPLINE
5
27F
100
AcDbEntity
8
1
62
256
6
ByLayer
370
-1
48
1
60
0
100
AcDbSpline
70
4
71
3
72
25
73
21
40
0
40
0
40
0
40
0
40
0.0099904601134682
40
0.0399882789191487
40
0.159979554141871
40
0.279970829364593
40
0.309968648170273
40
0.339966466975954
40
0.369964285781634
40
0.399962104587315
40
0.519953379810037
40
0.639944655032759
40
0.759935930255481
40
0.879927205478203
40
0.939922843089565
40
0.969920661895245
40
0.984919571298085
40
0.992419025999505
40
0.999918480700926
40
1
40
1
40
1
40
1
41
1
10
221.340545293087
20
18.2294956152402
30
0
41
1
10
221.340469459318
20
18.2316359700726
30
0
41
1
10
221.340159528703
20
18.2402028185393
30
0
41
1
10
221.338756250342
20
18.2744698514565
30
0
41
1
10
221.335276306047
20
18.3322486146005
30
0
41
1
10
221.330029041967
20
18.3898930943646
30
0
41
1
10
221.325773226811
20
18.4282406561788
30
0
41
1
10
221.323502289641
20
18.4473981959388
30
0
41
1
10
221.321120711229
20
18.4665430566509
30
0
41
1
10
221.315224674819
20
18.5046768286055
30
0
41
1
10
221.301596558574
20
18.5610439844968
30
0
41
1
10
221.273962298624
20
18.63322623565
30
0
41
1
10
221.237336900601
20
18.7012628956828
30
0
41
1
10
221.19967039252
20
18.7534526345013
30
0
41
1
10
221.169980900906
20
18.787223044838
30
0
41
1
10
221.154343750074
20
18.8033590265656
30
0
41
1
10
221.146331323415
20
18.8112320711306
30
0
41
1
10
221.14169864375
20
18.8156737440079
30
0
41
1
10
221.139350567308
20
18.8178875763976
30
0
41
1
10
221.138166690187
20
18.8189952103474
30
0
41
1
10
221.138153959381
20
18.8190071202854
30
0
0
SPLINE
5
280
100
AcDbEntity
8
1
62
256
6
ByLayer
370
-1
48
1
60
0
100
AcDbSpline
70
4
71
2
72
9
73
6
40
0
40
0
40
0
40
0.25
40
0.5
40
0.75
40
1
40
1
40
1
41
1
10
220.319861091184
20
7.69642581769418
30
0
41
1
10
220.349537869641
20
7.69758830481248
30
0
41
1
10
220.403152457302
20
7.7218494661727
30
0
41
1
10
220.443872370469
20
7.76532461975788
30
0
41
1
10
220.464918754409
20
7.82113278682931
30
0
41
1
10
220.463984263626
20
7.85156936625242
30
0
0
SPLINE
5
281
100
AcDbEntity
8
1
62
256
6
ByLayer
370
-1
48
1
60
0
100
AcDbSpline
70
4
71
3
72
15
73
11
40
0
40
0
40
0
40
0
40
0.0204519912453582
40
0.0504132324411309
40
0.110335714832676
40
0.230180679615767
40
0.469870609181949
40
0.70956053874813
40
0.949250468314312
40
1
40
1
40
1
40
1
41
1
10
209.661874402619
20
7.47205914288872
30
0
41
1
10
209.659619423616
20
7.47197949879154
30
0
41
1
10
209.654059980556
20
7.47178316232288
30
0
41
1
10
209.641878306327
20
7.47135321789574
30
0
41
1
10
209.618665603957
20
7.47053504789147
30
0
41
1
10
209.572063537814
20
7.46889636609922
30
0
41
1
10
209.505105573843
20
7.46655329683017
30
0
41
1
10
209.424571499365
20
7.46375305470849
30
0
41
1
10
209.365374351267
20
7.46170779711406
30
0
41
1
10
209.333120939962
20
7.46059813604563
30
0
41
1
10
209.327487390704
20
7.4604043701415
30
0
0
SPLINE
5
282
100
AcDbEntity
8
1
62
256
6
ByLayer
370
-1
48
1
60
0
100
AcDbSpline
70
4
71
3
72
8
73
4
40
0
40
0
40
0
40
0
40
1
40
1
40
1
40
1
41
1
10
220.946934350549
20
19.0526425018241
30
0
41
1
10
220.910039732019
20
19.0612283141506
30
0
41
1
10
220.872654942449
20
19.0655433635504
30
0
41
1
10
220.834783923199
20
19.0655748112616
30
0
0
SPLINE
5
283
100
AcDbEntity
8
1
62
256
6
ByLayer
370
-1
48
1
60
0
100
AcDbSpline
70
4
71
3
72
17
73
13
40
0
40
0
40
0
40
0
40
0.0285647612452826
40
0.11400977364182
40
0.284899798434896
40
0.455789823227971
40
0.626679848021046
40
0.797569872814122
40
0.883014885210659
40
0.925737391408928
40
0.968459897607197
40
1
40
1
40
1
40
1
41
1
10
220.290520454037
20
17.6011285087983
30
0
41
1
10
220.294408820032
20
17.6012569731631
30
0
41
1
10
220.309954429614
20
17.6017707571423
30
0
41
1
10
220.34952597085
20
17.6030837963944
30
0
41
1
10
220.410838685237
20
17.6051334525935
30
0
41
1
10
220.487068081766
20
17.6077059035346
30
0
41
1
10
220.565315953234
20
17.6103695797968
30
0
41
1
10
220.631690874408
20
17.6126479298572
30
0
41
1
10
220.678486168756
20
17.6142638819734
30
0
41
1
10
220.705281406551
20
17.6151919071864
30
0
41
1
10
220.723640380617
20
17.6158290275234
30
0
41
1
10
220.735298333555
20
17.6162343747712
30
0
41
1
10
220.740249700234
20
17.6164065833422
30
0
0
SPLINE
5
284
100
AcDbEntity
8
1
62
256
6
ByLayer
370
-1
48
1
60
0
100
AcDbSpline
70
4
71
3
72
12
73
8
40
0
40
0
40
0
40
0
40
0.0112779549372846
40
0.0936714586925109
40
0.176064962447737
40
0.34085196995819
40
1
40
1
40
1
40
1
41
1
10
220.493326594883
20
7.85257032106324
30
0
41
1
10
220.493226464056
20
7.85256700846261
30
0
41
1
10
220.492393978213
20
7.85253946171252
30
0
41
1
10
220.490814776313
20
7.85248710423357
30
0
41
1
10
220.487786934255
20
7.85238616425639
30
0
41
1
10
220.479159664551
20
7.85209607963355
30
0
41
1
10
220.470665471316
20
7.85180357038348
30
0
41
1
10
220.463984263626
20
7.85156936625242
30
0
0
SPLINE
5
285
100
AcDbEntity
8
1
62
256
6
ByLayer
370
-1
48
1
60
0
100
AcDbSpline
70
4
71
3
72
8
73
4
40
0
40
0
40
0
40
0
40
1
40
1
40
1
40
1
41
1
10
209.65103905095
20
18.6785937454574
30
0
41
1
10
209.620835679011
20
18.677539001982
30
0
41
1
10
209.590639793653
20
18.6763399037053
30
0
41
1
10
209.560453530786
20
18.6749965823083
30
0
0
SPLINE
5
286
100
AcDbEntity
8
1
62
256
6
ByLayer
370
-1
48
1
60
0
100
AcDbSpline
70
4
71
3
72
23
73
19
40
0
40
0
40
0
40
0
40
0.0074200078967444
40
0.0149215578681563
40
0.0299246578109802
40
0.0599308576966279
40
0.119943257467923
40
0.239968057010514
40
0.480017656095695
40
0.600042455638286
40
0.630048655523933
40
0.660054855409581
40
0.690061055295229
40
0.720067255180876
40
0.840092054723467
40
0.960116854266058
40
0.990123054151705
40
1
40
1
40
1
40
1
41
1
10
221.559726465992
20
6.70063507889364
30
0
41
1
10
221.560806871389
20
6.70179873209133
30
0
41
1
10
221.562971904508
20
6.70414805513741
30
0
41
1
10
221.567273824206
20
6.7088947853911
30
0
41
1
10
221.574720649469
20
6.71731714803371
30
0
41
1
10
221.589199862608
20
6.73452389548279
30
0
41
1
10
221.616469799381
20
6.77031969521124
30
0
41
1
10
221.663986087288
20
6.84695432109393
30
0
41
1
10
221.700455340971
20
6.94407123473906
30
0
41
1
10
221.714399621037
20
7.02667917382445
30
0
41
1
10
221.717642015625
20
7.06513196644755
30
0
41
1
10
221.718703349298
20
7.08439573508693
30
0
41
1
10
221.71967033104
20
7.1036635546416
30
0
41
1
10
221.721323902988
20
7.14221140149661
30
0
41
1
10
221.7226532153
20
7.2000778945812
30
0
41
1
10
221.722214200237
20
7.25795594159268
30
0
41
1
10
221.721302252266
20
7.29221150998359
30
0
41
1
10
221.721031462752
20
7.30075390259799
30
0
41
1
10
221.72096269461
20
7.30286935081708
30
0
0
SPLINE
5
287
100
AcDbEntity
8
1
62
256
6
ByLayer
370
-1
48
1
60
0
100
AcDbSpline
70
4
71
3
72
12
73
8
40
0
40
0
40
0
40
0
40
0.659147749652158
40
0.823934687065198
40
0.906328155771717
40
0.988721624478237
40
1
40
1
40
1
40
1
41
1
10
220.125009001211
20
17.5956299296886
30
0
41
1
10
220.131690209246
20
17.5958641338285
30
0
41
1
10
220.140187174013
20
17.5961567543334
30
0
41
1
10
220.148809606492
20
17.5964466446876
30
0
41
1
10
220.151843263364
20
17.59654781832
30
0
41
1
10
220.153419831305
20
17.5966000699426
30
0
41
1
10
220.154250910603
20
17.5966275601539
30
0
41
1
10
220.154350878788
20
17.5966308661931
30
0
0
SPLINE
5
288
100
AcDbEntity
8
1
62
256
6
ByLayer
370
-1
48
1
60
0
100
AcDbSpline
70
4
71
3
72
15
73
11
40
0
40
0
40
0
40
0
40
0.0204519912453858
40
0.0504132324411541
40
0.110335714832691
40
0.230180679615764
40
0.46987060918191
40
0.709560538748056
40
0.949250468314202
40
1
40
1
40
1
40
1
41
1
10
220.372807838589
20
6.87255274955837
30
0
41
1
10
220.37290423037
20
6.87027204101847
30
0
41
1
10
220.373141322799
20
6.8646497001738
30
0
41
1
10
220.373653103574
20
6.85233770266081
30
0
41
1
10
220.374595625645
20
6.82890837919049
30
0
41
1
10
220.376373145987
20
6.78198267233813
30
0
41
1
10
220.378590736949
20
6.7148859472922
30
0
41
1
10
220.38072955024
20
6.63469750464407
30
0
41
1
10
220.381915520535
20
6.57612899014254
30
0
41
1
10
220.382423163806
20
6.54435245472916
30
0
41
1
10
220.382510258031
20
6.53880372522127
30
0
0
SPLINE
5
289
100
AcDbEntity
8
1
62
256
6
ByLayer
370
-1
48
1
60
0
100
AcDbSpline
70
4
71
3
72
10
73
6
40
0
40
0
40
0
40
0
40
0.0485494410335588
40
0.365699627355706
40
1
40
1
40
1
40
1
41
1
10
210.245581066932
20
18.5576556288596
30
0
41
1
10
210.245527029546
20
18.5586585587501
30
0
41
1
10
210.245119659459
20
18.5662122377967
30
0
41
1
10
210.244000997556
20
18.586854222144
30
0
41
1
10
210.242938413663
20
18.6064990848781
30
0
41
1
10
210.242229661516
20
18.619594632731
30
0
0
SPLINE
5
28A
100
AcDbEntity
8
1
62
256
6
ByLayer
370
-1
48
1
60
0
100
AcDbSpline
70
4
71
3
72
10
73
6
40
0
40
0
40
0
40
0
40
0.0485494410335009
40
0.365699627355667
40
1
40
1
40
1
40
1
41
1
10
220.382510258031
20
6.53880372522127
30
0
41
1
10
220.382526000266
20
6.53780079533081
30
0
41
1
10
220.382644183221
20
6.53024711628419
30
0
41
1
10
220.38296170329
20
6.50960513193689
30
0
41
1
10
220.383265925866
20
6.48996026920278
30
0
41
1
10
220.383468306555
20
6.47686472134987
30
0
0
SPLINE
5
28B
100
AcDbEntity
8
1
62
256
6
ByLayer
370
-1
48
1
60
0
100
AcDbSpline
70
4
71
3
72
15
73
11
40
0
40
0
40
0
40
0
40
0.0218721291688713
40
0.0870806538909465
40
0.217497703335097
40
0.478331802223398
40
0.543540326945473
40
0.608748851667549
40
0.739165901111699
40
1
40
1
40
1
40
1
41
1
10
210.08805639694
20
6.11624789337972
30
0
41
1
10
210.092355517934
20
6.11639282971268
30
0
41
1
10
210.109470478157
20
6.11699769948734
30
0
41
1
10
210.152206299553
20
6.11845584708036
30
0
41
1
10
210.241836101441
20
6.12154845221789
30
0
41
1
10
210.331331329638
20
6.12460676570203
30
0
41
1
10
210.407927228833
20
6.12721948955357
30
0
41
1
10
210.459022763768
20
6.12897411081005
30
0
41
1
10
210.548491421913
20
6.13207062015044
30
0
41
1
10
210.62526791077
20
6.13477459439807
30
0
41
1
10
210.676486815801
20
6.13659467717579
30
0
0
SPLINE
5
28C
100
AcDbEntity
8
1
62
256
6
ByLayer
370
-1
48
1
60
0
100
AcDbSpline
70
4
71
3
72
8
73
4
40
0
40
0
40
0
40
0
40
1
40
1
40
1
40
1
41
1
10
221.115228167241
20
6.42387590381534
30
0
41
1
10
221.168309897429
20
6.42676824217389
30
0
41
1
10
221.221371550437
20
6.43008611482898
30
0
41
1
10
221.274427530794
20
6.43390864747394
30
0
0
SPLINE
5
28D
100
AcDbEntity
8
1
62
256
6
ByLayer
370
-1
48
1
60
0
100
AcDbSpline
70
4
71
3
72
10
73
6
40
0
40
0
40
0
40
0
40
0.5
40
0.5
40
1
40
1
40
1
40
1
41
1
10
208.979279658042
20
18.4775079799767
30
0
41
1
10
208.943440534806
20
18.4389349252757
30
0
41
1
10
208.913337765039
20
18.3965649345898
30
0
41
1
10
208.864294726118
20
18.304443387899
30
0
41
1
10
208.845584872881
20
18.2547147627307
30
0
41
1
10
208.833689024615
20
18.2033328074579
30
0
0
SPLINE
5
28E
100
AcDbEntity
8
1
62
256
6
ByLayer
370
-1
48
1
60
0
100
AcDbSpline
70
4
71
2
72
9
73
6
40
0
40
0
40
0
40
0.25
40
0.5
40
0.75
40
1
40
1
40
1
41
1
10
210.458326439487
20
7.50082942439226
30
0
41
1
10
210.459484502991
20
7.47103928546304
30
0
41
1
10
210.483653343307
20
7.41721989878667
30
0
41
1
10
210.526963060808
20
7.37634444216673
30
0
41
1
10
210.582558860954
20
7.35521766445922
30
0
41
1
10
210.612879620004
20
7.35615572484477
30
0
0
SPLINE
5
28F
100
AcDbEntity
8
1
62
256
6
ByLayer
370
-1
48
1
60
0
100
AcDbSpline
70
4
71
3
72
17
73
13
40
0
40
0
40
0
40
0
40
0.0285647612451746
40
0.114009773641722
40
0.284899798434817
40
0.455789823227912
40
0.626679848021006
40
0.797569872814101
40
0.883014885210648
40
0.925737391408922
40
0.968459897607196
40
1
40
1
40
1
40
1
41
1
10
210.266648620815
20
17.5574922404632
30
0
41
1
10
210.266744271911
20
17.5611709785515
30
0
41
1
10
210.267121191285
20
17.5758838267136
30
0
41
1
10
210.267927246536
20
17.6134843513049
30
0
41
1
10
210.26872698042
20
17.6721788253629
30
0
41
1
10
210.269008677178
20
17.7458441820687
30
0
41
1
10
210.268615560076
20
17.8221218901766
30
0
41
1
10
210.267725662476
20
17.8873652995703
30
0
41
1
10
210.26681242944
20
17.9336401136622
30
0
41
1
10
210.266209134911
20
17.960215278715
30
0
41
1
10
210.265758100478
20
17.9784600180541
30
0
41
1
10
210.265448792704
20
17.9900676445104
30
0
41
1
10
210.265315963356
20
17.9949990527687
30
0
0
SPLINE
5
290
100
AcDbEntity
8
1
62
256
6
ByLayer
370
-1
48
1
60
0
100
AcDbSpline
70
4
71
3
72
10
73
6
40
0
40
0
40
0
40
0
40
0.634300400238503
40
0.951450600357754
40
1
40
1
40
1
40
1
41
1
10
208.925612173192
20
17.2023019776017
30
0
41
1
10
208.938911073941
20
17.2027592841919
30
0
41
1
10
208.958860363047
20
17.203445297917
30
0
41
1
10
208.979824366251
20
17.2041661317778
30
0
41
1
10
208.987493893815
20
17.2044299120236
30
0
41
1
10
208.9885121539
20
17.2044649350746
30
0
0
SPLINE
5
291
100
AcDbEntity
8
SK1
62
256
6
ByLayer
370
-1
48
1
60
0
100
AcDbSpline
70
4
71
3
72
8
73
4
40
0
40
0
40
0
40
0
40
1
40
1
40
1
40
1
41
1
10
-66.6
20
-9.10261500888609
30
0
41
1
10
-66.9484012097206
20
-8.8388177253639
30
0
41
1
10
-67.2932836983815
20
-8.56864972916986
30
0
41
1
10
-67.6338144512153
20
-8.2906028309236
30
0
0
SPLINE
5
292
100
AcDbEntity
8
SK1
62
256
6
ByLayer
370
-1
48
1
60
0
100
AcDbSpline
70
4
71
3
72
20
73
16
40
0
40
0
40
0
40
0
40
0.249999999999997
40
0.249999999999997
40
0.374999999999998
40
0.374999999999998
40
0.499999999999998
40
0.499999999999998
40
0.624999999999999
40
0.624999999999999
40
0.749999999999999
40
0.749999999999999
40
0.875
40
0.875
40
1
40
1
40
1
40
1
41
1
10
-68.5162227297303
20
8.87304222606699
30
0
41
1
10
-68.4805102229812
20
8.77417123253394
30
0
41
1
10
-68.4382573152345
20
8.67693148618665
30
0
41
1
10
-68.3621710721186
20
8.53985159931514
30
0
41
1
10
-68.3346894685715
20
8.49562896904695
30
0
41
1
10
-68.2739659602408
20
8.41118058772861
30
0
41
1
10
-68.2407881315988
20
8.37091037639976
30
0
41
1
10
-68.1654488761744
20
8.29660337023134
30
0
41
1
10
-68.123541484252
20
8.2629600402953
30
0
41
1
10
-68.0305243323762
20
8.21104725205689
30
0
41
1
10
-67.9795833203366
20
8.19319188549028
30
0
41
1
10
-67.872813969243
20
8.18306085753042
30
0
41
1
10
-67.8196144054522
20
8.19122791676685
30
0
41
1
10
-67.7199392264586
20
8.22879859450236
30
0
41
1
10
-67.6749143258214
20
8.2570443562262
30
0
41
1
10
-67.6338144512151
20
8.29060283092346
30
0
0
SPLINE
5
293
100
AcDbEntity
8
SK1
62
256
6
ByLayer
370
-1
48
1
60
0
100
AcDbSpline
70
4
71
3
72
8
73
4
40
0
40
0
40
0
40
0
40
1
40
1
40
1
40
1
41
1
10
-69
20
-9.10261500888609
30
0
41
1
10
-69.3687115489839
20
-8.2926547802831
30
0
41
1
10
-69.7055026821388
20
-7.46777015601629
30
0
41
1
10
-70
20
-6.62311105146205
30
0
0
SPLINE
5
294
100
AcDbEntity
8
SK1
62
256
6
ByLayer
370
-1
48
1
60
0
100
AcDbSpline
70
4
71
3
72
20
73
16
40
0
40
0
40
0
40
0
40
0.125000000000019
40
0.125000000000019
40
0.187500000000028
40
0.187500000000028
40
0.250000000000038
40
0.250000000000038
40
0.375000000000024
40
0.375000000000024
40
0.50000000000001
40
0.50000000000001
40
0.750000000000005
40
0.750000000000005
40
1
40
1
40
1
40
1
41
1
10
-67.6338144512151
20
-8.29060283092329
30
0
41
1
10
-67.6746000935235
20
-8.25730093016261
30
0
41
1
10
-67.7199836490944
20
-8.22876323292448
30
0
41
1
10
-67.7948550962205
20
-8.20056981372309
30
0
41
1
10
-67.8205420829085
20
-8.19379354056497
30
0
41
1
10
-67.8728129362724
20
-8.18630243082055
30
0
41
1
10
-67.8998340844743
20
-8.1856286499503
30
0
41
1
10
-67.9787783127119
20
-8.19310764466417
30
0
41
1
10
-68.0301252704948
20
-8.21095104743222
30
0
41
1
10
-68.1222359195847
20
-8.26210721442101
30
0
41
1
10
-68.1643255549633
20
-8.29567338223035
30
0
41
1
10
-68.2768770736766
20
-8.40615789436035
30
0
41
1
10
-68.3371994967397
20
-8.49473748926303
30
0
41
1
10
-68.4387470357031
20
-8.67793923211124
30
0
41
1
10
-68.4804562077026
20
-8.77402168984949
30
0
41
1
10
-68.516222729729
20
-8.87304222606727
30
0
0
SPLINE
5
295
100
AcDbEntity
8
SK1
62
256
6
ByLayer
370
-1
48
1
60
0
100
AcDbSpline
70
4
71
3
72
8
73
4
40
0
40
0
40
0
40
0
40
1
40
1
40
1
40
1
41
1
10
-70
20
6.62311105146222
30
0
41
1
10
-69.7055026821388
20
7.46777015601646
30
0
41
1
10
-69.3687115489839
20
8.29265478028327
30
0
41
1
10
-69
20
9.10261500888626
30
0
0
SPLINE
5
296
100
AcDbEntity
8
SK1
62
256
6
ByLayer
370
-1
48
1
60
0
100
AcDbSpline
70
4
71
3
72
8
73
4
40
0
40
0
40
0
40
0
40
1
40
1
40
1
40
1
41
1
10
-68.516222729729
20
-8.87304222606727
30
0
41
1
10
-68.5439066952102
20
-8.94968599658964
30
0
41
1
10
-68.571834450002
20
-9.02620926996545
30
0
41
1
10
-68.6
20
-9.10261500888612
30
0
0
SPLINE
5
297
100
AcDbEntity
8
SK1
62
256
6
ByLayer
370
-1
48
1
60
0
100
AcDbSpline
70
4
71
3
72
72
73
68
40
0
40
0
40
0
40
0
40
0.0156250000000003
40
0.0156250000000003
40
0.0312500000000005
40
0.0312500000000005
40
0.0468750000000008
40
0.0468750000000008
40
0.062500000000001
40
0.062500000000001
40
0.0937500000000014
40
0.0937500000000014
40
0.109375000000002
40
0.109375000000002
40
0.125000000000002
40
0.125000000000002
40
0.156250000000002
40
0.156250000000002
40
0.187500000000002
40
0.187500000000002
40
0.218750000000001
40
0.218750000000001
40
0.250000000000001
40
0.250000000000001
40
0.312500000000001
40
0.312500000000001
40
0.375000000000002
40
0.375000000000002
40
0.406250000000002
40
0.406250000000002
40
0.437500000000002
40
0.437500000000002
40
0.500000000000002
40
0.500000000000002
40
0.562500000000002
40
0.562500000000002
40
0.625000000000002
40
0.625000000000002
40
0.687500000000002
40
0.687500000000002
40
0.718750000000002
40
0.718750000000002
40
0.750000000000002
40
0.750000000000002
40
0.812500000000002
40
0.812500000000002
40
0.843750000000001
40
0.843750000000001
40
0.859375000000001
40
0.859375000000001
40
0.875000000000001
40
0.875000000000001
40
0.906250000000001
40
0.906250000000001
40
0.921875000000001
40
0.921875000000001
40
0.937500000000001
40
0.937500000000001
40
0.953125000000001
40
0.953125000000001
40
0.96875
40
0.96875
40
0.9765625
40
0.9765625
40
0.984375
40
0.984375
40
1
40
1
40
1
40
1
41
1
10
-6.50000000000003
20
-9.10261500888618
30
0
41
1
10
-6.38914660019728
20
-9.1026150088862
30
0
41
1
10
-6.27612961385469
20
-9.09015098385046
30
0
41
1
10
-6.05985917895462
20
-9.04281130004992
30
0
41
1
10
-5.95475985097423
20
-9.00792576349431
30
0
41
1
10
-5.75343258145494
20
-8.91941414226187
30
0
41
1
10
-5.65919810333845
20
-8.86684398682266
30
0
41
1
10
-5.48088894318995
20
-8.74834825662376
30
0
41
1
10
-5.39640443529882
20
-8.68198569080923
30
0
41
1
10
-5.15892238475901
20
-8.4684605676342
30
0
41
1
10
-5.02365441240057
20
-8.30974008062717
30
0
41
1
10
-4.84296399719622
20
-8.05482884459988
30
0
41
1
10
-4.78642322072848
20
-7.96675301550394
30
0
41
1
10
-4.68042079967145
20
-7.78654390286022
30
0
41
1
10
-4.63122526195846
20
-7.69491452027412
30
0
41
1
10
-4.49299887645104
20
-7.41608134345648
30
0
41
1
10
-4.4132303846899
20
-7.22496300624556
30
0
41
1
10
-4.27152687943764
20
-6.8343560263894
30
0
41
1
10
-4.20965906429049
20
-6.6348461887967
30
0
41
1
10
-4.09961007502052
20
-6.2286775881141
30
0
41
1
10
-4.05150917072524
20
-6.02203194443632
30
0
41
1
10
-3.96692144189856
20
-5.6074574550413
30
0
41
1
10
-3.93025488815388
20
-5.39884469275898
30
0
41
1
10
-3.83321097175367
20
-4.76942146087168
30
0
41
1
10
-3.78559277520367
20
-4.34504706257979
30
0
41
1
10
-3.71123618991469
20
-3.48808137992401
30
0
41
1
10
-3.68460707386045
20
-3.05547999795235
30
0
41
1
10
-3.65470782442822
20
-2.40091890566339
30
0
41
1
10
-3.64643900603767
20
-2.18145148399697
30
0
41
1
10
-3.63274891948819
20
-1.74230735687166
30
0
41
1
10
-3.62733252136272
20
-1.52296705685933
30
0
41
1
10
-3.61463310465442
20
-0.865617065631682
30
0
41
1
10
-3.61080933488053
20
-0.428275684574771
30
0
41
1
10
-3.61090950897167
20
0.444684991040077
30
0
41
1
10
-3.61483745040269
20
0.88030412472645
30
0
41
1
10
-3.63179619285315
20
1.74979970758309
30
0
41
1
10
-3.64481102904035
20
2.18367646184913
30
0
41
1
10
-3.68431141261161
20
3.04958358359085
30
0
41
1
10
-3.71074384326305
20
3.48161507013518
30
0
41
1
10
-3.76673696017029
20
4.12812283873399
30
0
41
1
10
-3.78821526595233
20
4.34375014492497
30
0
41
1
10
-3.83787895821774
20
4.77101649951717
30
0
41
1
10
-3.86607610819138
20
4.9829568382882
30
0
41
1
10
-3.96342969061479
20
5.61325776204001
30
0
41
1
10
-4.04484226281082
20
6.02618785295124
30
0
41
1
10
-4.20877761048992
20
6.63176810724454
30
0
41
1
10
-4.27047938114892
20
6.83131020667685
30
0
41
1
10
-4.37747378301123
20
7.12647785984242
30
0
41
1
10
-4.41562361112285
20
7.22427655673613
30
0
41
1
10
-4.4967927903067
20
7.41629459142595
30
0
41
1
10
-4.53988777333238
20
7.51074836914336
30
0
41
1
10
-4.67791145216944
20
7.78892537172752
30
0
41
1
10
-4.78135481362551
20
7.96756739375849
30
0
41
1
10
-4.96130737226686
20
8.22195198147358
30
0
41
1
10
-5.02546297402536
20
8.30446540137604
30
0
41
1
10
-5.16438164479459
20
8.46391044858186
30
0
41
1
10
-5.23841496286947
20
8.53994273964545
30
0
41
1
10
-5.39629023089527
20
8.68187427767452
30
0
41
1
10
-5.48049549477207
20
8.74813957968226
30
0
41
1
10
-5.66096910628902
20
8.86796771603022
30
0
41
1
10
-5.75541196182654
20
8.92033547523616
30
0
41
1
10
-5.90448373735468
20
8.98579651940287
30
0
41
1
10
-5.95541416893875
20
9.00542573092372
30
0
41
1
10
-6.06002939197238
20
9.03984379515771
30
0
41
1
10
-6.11410520411337
20
9.05470732343474
30
0
41
1
10
-6.27758354254897
20
9.09042477028081
30
0
41
1
10
-6.38802552881094
20
9.10261500888618
30
0
41
1
10
-6.49999999999999
20
9.1026150088862
30
0
0
SPLINE
5
298
100
AcDbEntity
8
SK1
62
256
6
ByLayer
370
-1
48
1
60
0
100
AcDbSpline
70
4
71
3
72
8
73
4
40
0
40
0
40
0
40
0
40
1
40
1
40
1
40
1
41
1
10
-67.6338144512152
20
8.29060283092377
30
0
41
1
10
-67.2932836983815
20
8.56864972917003
30
0
41
1
10
-66.9484012097206
20
8.83881772536409
30
0
41
1
10
-66.6
20
9.10261500888626
30
0
0
SPLINE
5
299
100
AcDbEntity
8
SK1
62
256
6
ByLayer
370
-1
48
1
60
0
100
AcDbSpline
70
4
71
3
72
8
73
4
40
0
40
0
40
0
40
0
40
1
40
1
40
1
40
1
41
1
10
-68.6
20
9.10261500888626
30
0
41
1
10
-68.571834450002
20
9.02620926996562
30
0
41
1
10
-68.5439066952102
20
8.94968599658984
30
0
41
1
10
-68.516222729729
20
8.87304222606744
30
0
0
LINE
5
45
100
AcDbEntity
8
80
62
256
6
ByLayer
370
-1
48
1
60
0
100
AcDbLine
10
0
20
0
30
0
11
-7
21
0
31
0
39
0
210
0
220
0
230
1
0
LINE
5
46
100
AcDbEntity
8
81
62
256
6
ByLayer
370
-1
48
1
60
0
100
AcDbLine
10
222
20
0
30
0
11
229
21
0
31
0
39
0
210
0
220
0
230
1
0
LINE
5
47
100
AcDbEntity
8
SK1
62
256
6
ByLayer
370
-1
48
1
60
0
100
AcDbLine
10
-2
20
-19.996
30
0
11
-1.552821
21
-19.787477
31
0
39
0
210
0
220
0
230
1
0
LINE
5
49
100
AcDbEntity
8
SK1
62
256
6
ByLayer
370
-1
48
1
60
0
100
AcDbLine
10
-1.552821
20
19.787477
30
0
11
-2
21
19.996
31
0
39
0
210
0
220
0
230
1
0
LINE
5
4A
100
AcDbEntity
8
SK1
62
256
6
ByLayer
370
-1
48
1
60
0
100
AcDbLine
10
-2
20
19.996
30
0
11
-66.6
21
19.996
31
0
39
0
210
0
220
0
230
1
0
LINE
5
4B
100
AcDbEntity
8
SK1
62
256
6
ByLayer
370
-1
48
1
60
0
100
AcDbLine
10
-66.6
20
-19.996
30
0
11
-2
21
-19.996
31
0
39
0
210
0
220
0
230
1
0
LINE
5
4C
100
AcDbEntity
8
SK1
62
256
6
ByLayer
370
-1
48
1
60
0
100
AcDbLine
10
-0.15
20
19.75
30
0
11
-1.383773
21
19.75
31
0
39
0
210
0
220
0
230
1
0
LINE
5
4D
100
AcDbEntity
8
SK1
62
256
6
ByLayer
370
-1
48
1
60
0
100
AcDbLine
10
-1.383773
20
-19.75
30
0
11
-0.15
21
-19.75
31
0
39
0
210
0
220
0
230
1
0
LINE
5
4E
100
AcDbEntity
8
SK1
62
256
6
ByLayer
370
-1
48
1
60
0
100
AcDbLine
10
-68.6
20
-19.996
30
0
11
-68.516223
21
-19.892544
31
0
39
0
210
0
220
0
230
1
0
LINE
5
4F
100
AcDbEntity
8
SK1
62
256
6
ByLayer
370
-1
48
1
60
0
100
AcDbLine
10
-68.516223
20
19.892544
30
0
11
-68.6
21
19.996
31
0
39
0
210
0
220
0
230
1
0
LINE
5
50
100
AcDbEntity
8
SK1
62
256
6
ByLayer
370
-1
48
1
60
0
100
AcDbLine
10
-68.6
20
19.996
30
0
11
-69
21
19.996
31
0
39
0
210
0
220
0
230
1
0
LINE
5
51
100
AcDbEntity
8
SK1
62
256
6
ByLayer
370
-1
48
1
60
0
100
AcDbLine
10
-69
20
-19.996
30
0
11
-68.6
21
-19.996
31
0
39
0
210
0
220
0
230
1
0
LINE
5
52
100
AcDbEntity
8
SK1
62
256
6
ByLayer
370
-1
48
1
60
0
100
AcDbLine
10
-66.6
20
19.996
30
0
11
-67.633814
21
19.639667
31
0
39
0
210
0
220
0
230
1
0
LINE
5
53
100
AcDbEntity
8
SK1
62
256
6
ByLayer
370
-1
48
1
60
0
100
AcDbLine
10
-67.633814
20
-19.639667
30
0
11
-66.6
21
-19.996
31
0
39
0
210
0
220
0
230
1
0
LINE
5
54
100
AcDbEntity
8
SK1
62
256
6
ByLayer
370
-1
48
1
60
0
100
AcDbLine
10
-69
20
19.996
30
0
11
-70
21
18.996
31
0
39
0
210
0
220
0
230
1
0
LINE
5
55
100
AcDbEntity
8
SK1
62
256
6
ByLayer
370
-1
48
1
60
0
100
AcDbLine
10
-70
20
-18.996
30
0
11
-69
21
-19.996
31
0
39
0
210
0
220
0
230
1
0
LINE
5
56
100
AcDbEntity
8
1
62
256
6
ByLayer
370
-1
48
1
60
0
100
AcDbLine
10
5
20
24.75
30
0
11
0.2
21
24.75
31
0
39
0
210
0
220
0
230
1
0
LINE
5
58
100
AcDbEntity
8
1
62
256
6
ByLayer
370
-1
48
1
60
0
100
AcDbLine
10
0.2
20
-24.75
30
0
11
5
21
-24.75
31
0
39
0
210
0
220
0
230
1
0
LINE
5
59
100
AcDbEntity
8
1
62
256
6
ByLayer
370
-1
48
1
60
0
100
AcDbLine
10
0.2
20
24.75
30
0
11
0
21
24.55
31
0
39
0
210
0
220
0
230
1
0
LINE
5
5A
100
AcDbEntity
8
1
62
256
6
ByLayer
370
-1
48
1
60
0
100
AcDbLine
10
0
20
-24.55
30
0
11
0.2
21
-24.75
31
0
39
0
210
0
220
0
230
1
0
LINE
5
5B
100
AcDbEntity
8
1
62
256
6
ByLayer
370
-1
48
1
60
0
100
AcDbLine
10
95.568699
20
18.505569
30
0
11
33
21
18.73
31
0
39
0
210
0
220
0
230
1
0
LINE
5
5C
100
AcDbEntity
8
1
62
256
6
ByLayer
370
-1
48
1
60
0
100
AcDbLine
10
33
20
18.73
30
0
11
28
21
18.73
31
0
39
0
210
0
220
0
230
1
0
LINE
5
5D
100
AcDbEntity
8
1
62
256
6
ByLayer
370
-1
48
1
60
0
100
AcDbLine
10
28
20
-18.73
30
0
11
33
21
-18.73
31
0
39
0
210
0
220
0
230
1
0
LINE
5
5E
100
AcDbEntity
8
1
62
256
6
ByLayer
370
-1
48
1
60
0
100
AcDbLine
10
33
20
-18.73
30
0
11
99.65901
21
-18.490897
31
0
39
0
210
0
220
0
230
1
0
LINE
5
5F
100
AcDbEntity
8
SK4
62
256
6
ByLayer
370
-1
48
0.05
60
0
100
AcDbLine
10
222
20
0
30
0
11
-70
21
0
31
0
39
0
210
0
220
0
230
1
0
LINE
5
61
100
AcDbEntity
8
4
62
256
6
ByLayer
370
-1
48
0.05
60
0
100
AcDbLine
10
222
20
0
30
0
11
0
21
0
31
0
39
0
210
0
220
0
230
1
0
LINE
5
63
100
AcDbEntity
8
1
62
256
6
ByLayer
370
-1
48
1
60
0
100
AcDbLine
10
33
20
-18.73
30
0
11
33
21
-14.379843
31
0
39
0
210
0
220
0
230
1
0
LINE
5
64
100
AcDbEntity
8
1
62
256
6
ByLayer
370
-1
48
1
60
0
100
AcDbLine
10
218.27834
20
1.824602
30
0
11
218.303655
21
1.891766
31
0
39
0
210
0
220
0
230
1
0
LINE
5
65
100
AcDbEntity
8
1
62
256
6
ByLayer
370
-1
48
1
60
0
100
AcDbLine
10
220.025589
20
0.879908
30
0
11
220.544762
21
-8.995959
31
0
39
0
210
0
220
0
230
1
0
LINE
5
66
100
AcDbEntity
8
1
62
256
6
ByLayer
370
-1
48
1
60
0
100
AcDbLine
10
220.148821
20
1.835218
30
0
11
220.15776
21
1.864473
31
0
39
0
210
0
220
0
230
1
0
LINE
5
67
100
AcDbEntity
8
1
62
256
6
ByLayer
370
-1
48
1
60
0
100
AcDbLine
10
0.2
20
24.75
30
0
11
0.2
21
-24.75
31
0
39
0
210
0
220
0
230
1
0
LINE
5
68
100
AcDbEntity
8
1
62
256
6
ByLayer
370
-1
48
1
60
0
100
AcDbLine
10
201.68098
20
7.070048
30
0
11
201.639241
21
7.070048
31
0
39
0
210
0
220
0
230
1
0
LINE
5
69
100
AcDbEntity
8
1
62
256
6
ByLayer
370
-1
48
1
60
0
100
AcDbLine
10
208.764949
20
12.171014
30
0
11
208.566384
21
18.398175
31
0
39
0
210
0
220
0
230
1
0
LINE
5
6A
100
AcDbEntity
8
1
62
256
6
ByLayer
370
-1
48
1
60
0
100
AcDbLine
10
220.150122
20
6.16722
30
0
11
220.184936
21
6.165388
31
0
39
0
210
0
220
0
230
1
0
LINE
5
6B
100
AcDbEntity
8
1
62
256
6
ByLayer
370
-1
48
1
60
0
100
AcDbLine
10
219.585721
20
-8.432399
30
0
11
219.11084
21
-8.153345
31
0
39
0
210
0
220
0
230
1
0
LINE
5
6C
100
AcDbEntity
8
1
62
256
6
ByLayer
370
-1
48
1
60
0
100
AcDbLine
10
208.362535
20
10.857663
30
0
11
208.676296
21
10.857663
31
0
39
0
210
0
220
0
230
1
0
LINE
5
6D
100
AcDbEntity
8
1
62
256
6
ByLayer
370
-1
48
1
60
0
100
AcDbLine
10
220.540587
20
-10.205197
30
0
11
220.994587
21
-10.322917
31
0
39
0
210
0
220
0
230
1
0
LINE
5
6E
100
AcDbEntity
8
1
62
256
6
ByLayer
370
-1
48
1
60
0
100
AcDbLine
10
220.184936
20
6.165388
30
0
11
220.054067
21
6.16722
31
0
39
0
210
0
220
0
230
1
0
LINE
5
6F
100
AcDbEntity
8
1
62
256
6
ByLayer
370
-1
48
1
60
0
100
AcDbLine
10
208.362535
20
10.857663
30
0
11
208.479004
21
7.509704
31
0
39
0
210
0
220
0
230
1
0
LINE
5
70
100
AcDbEntity
8
1
62
256
6
ByLayer
370
-1
48
1
60
0
100
AcDbLine
10
218.303655
20
1.891766
30
0
11
219.98644
21
6.166591
31
0
39
0
210
0
220
0
230
1
0
LINE
5
71
100
AcDbEntity
8
1
62
256
6
ByLayer
370
-1
48
1
60
0
100
AcDbLine
10
195.956817
20
18.275063
30
0
11
195.956817
21
12.971675
31
0
39
0
210
0
220
0
230
1
0
LINE
5
72
100
AcDbEntity
8
1
62
256
6
ByLayer
370
-1
48
1
60
0
100
AcDbLine
10
220.066066
20
1.916558
30
0
11
220.081091
21
1.916035
31
0
39
0
210
0
220
0
230
1
0
LINE
5
73
100
AcDbEntity
8
1
62
256
6
ByLayer
370
-1
48
1
60
0
100
AcDbLine
10
189.047443
20
14.085904
30
0
11
184.297081
21
14.851963
31
0
39
0
210
0
220
0
230
1
0
LINE
5
74
100
AcDbEntity
8
1
62
256
6
ByLayer
370
-1
48
1
60
0
100
AcDbLine
10
208.985619
20
12.36761
30
0
11
209.01497
21
12.36761
31
0
39
0
210
0
220
0
230
1
0
LINE
5
75
100
AcDbEntity
8
1
62
256
6
ByLayer
370
-1
48
1
60
0
100
AcDbLine
10
203.600899
20
11.738964
30
0
11
195.956817
21
12.971675
31
0
39
0
210
0
220
0
230
1
0
LINE
5
76
100
AcDbEntity
8
1
62
256
6
ByLayer
370
-1
48
1
60
0
100
AcDbLine
10
202.0621
20
7.806452
30
0
11
198.108162
21
9.49121
31
0
39
0
210
0
220
0
230
1
0
LINE
5
77
100
AcDbEntity
8
1
62
256
6
ByLayer
370
-1
48
1
60
0
100
AcDbLine
10
28
20
18.73
30
0
11
28
21
7.407144
31
0
39
0
210
0
220
0
230
1
0
LINE
5
78
100
AcDbEntity
8
1
62
256
6
ByLayer
370
-1
48
1
60
0
100
AcDbLine
10
220.081091
20
1.916035
30
0
11
220.15776
21
1.864473
31
0
39
0
210
0
220
0
230
1
0
LINE
5
79
100
AcDbEntity
8
1
62
256
6
ByLayer
370
-1
48
1
60
0
100
AcDbLine
10
209.290269
20
5.838384
30
0
11
209.335557
21
5.838384
31
0
39
0
210
0
220
0
230
1
0
LINE
5
7A
100
AcDbEntity
8
1
62
256
6
ByLayer
370
-1
48
1
60
0
100
AcDbLine
10
208.376448
20
-18.363754
30
0
11
220.280518
21
-18.363754
31
0
39
0
210
0
220
0
230
1
0
LINE
5
7B
100
AcDbEntity
8
1
62
256
6
ByLayer
370
-1
48
1
60
0
100
AcDbLine
10
220.544762
20
-8.995959
30
0
11
220.004701
21
-8.678603
31
0
39
0
210
0
220
0
230
1
0
LINE
5
7C
100
AcDbEntity
8
1
62
256
6
ByLayer
370
-1
48
1
60
0
100
AcDbLine
10
28
20
-18.73
30
0
11
28
21
-13.726066
31
0
39
0
210
0
220
0
230
1
0
LINE
5
7D
100
AcDbEntity
8
1
62
256
6
ByLayer
370
-1
48
1
60
0
100
AcDbLine
10
125
20
17.543626
30
0
11
125
21
-10.700786
31
0
39
0
210
0
220
0
230
1
0
LINE
5
7E
100
AcDbEntity
8
1
62
256
6
ByLayer
370
-1
48
1
60
0
100
AcDbLine
10
184.214202
20
14.950731
30
0
11
184.214202
21
15.886362
31
0
39
0
210
0
220
0
230
1
0
LINE
5
7F
100
AcDbEntity
8
1
62
256
6
ByLayer
370
-1
48
1
60
0
100
AcDbLine
10
199.843527
20
7.85298
30
0
11
201.68098
21
7.070048
31
0
39
0
210
0
220
0
230
1
0
LINE
5
80
100
AcDbEntity
8
1
62
256
6
ByLayer
370
-1
48
1
60
0
100
AcDbLine
10
33
20
18.73
30
0
11
33
21
6.355899
31
0
39
0
210
0
220
0
230
1
0
LINE
5
81
100
AcDbEntity
8
1
62
256
6
ByLayer
370
-1
48
1
60
0
100
AcDbLine
10
220.15776
20
1.864473
30
0
11
220.472687
21
6.400158
31
0
39
0
210
0
220
0
230
1
0
LINE
5
82
100
AcDbEntity
8
1
62
256
6
ByLayer
370
-1
48
1
60
0
100
AcDbLine
10
208.581785
20
18.394881
30
0
11
208.780244
21
12.171014
31
0
39
0
210
0
220
0
230
1
0
LINE
5
83
100
AcDbEntity
8
1
62
256
6
ByLayer
370
-1
48
1
60
0
100
AcDbLine
10
208.676296
20
10.857663
30
0
11
208.792765
21
7.509704
31
0
39
0
210
0
220
0
230
1
0
LINE
5
84
100
AcDbEntity
8
1
62
256
6
ByLayer
370
-1
48
1
60
0
100
AcDbLine
10
220.054067
20
6.16722
30
0
11
220.150048
21
6.16722
31
0
39
0
210
0
220
0
230
1
0
LINE
5
85
100
AcDbEntity
8
1
62
256
6
ByLayer
370
-1
48
1
60
0
100
AcDbLine
10
193.824833
20
12.7
30
0
11
195.974488
21
12.7
31
0
39
0
210
0
220
0
230
1
0
LINE
5
86
100
AcDbEntity
8
1
62
256
6
ByLayer
370
-1
48
1
60
0
100
AcDbLine
10
220.013782
20
1.183125
30
0
11
220.025589
21
0.879908
31
0
39
0
210
0
220
0
230
1
0
LINE
5
87
100
AcDbEntity
8
1
62
256
6
ByLayer
370
-1
48
1
60
0
100
AcDbLine
10
220.025589
20
0.879908
30
0
11
218.303655
21
1.891766
31
0
39
0
210
0
220
0
230
1
0
LINE
5
88
100
AcDbEntity
8
1
62
256
6
ByLayer
370
-1
48
1
60
0
100
AcDbLine
10
209.290269
20
5.838384
30
0
11
208.565997
21
5.812995
31
0
39
0
210
0
220
0
230
1
0
LINE
5
89
100
AcDbEntity
8
1
62
256
6
ByLayer
370
-1
48
1
60
0
100
AcDbLine
10
184.214202
20
14.950731
30
0
11
182.673951
21
14.950731
31
0
39
0
210
0
220
0
230
1
0
LINE
5
8A
100
AcDbEntity
8
1
62
256
6
ByLayer
370
-1
48
1
60
0
100
AcDbLine
10
200.478133
20
3.643126
30
0
11
200.136227
21
2.466896
31
0
39
0
210
0
220
0
230
1
0
LINE
5
8B
100
AcDbEntity
8
1
62
256
6
ByLayer
370
-1
48
1
60
0
100
AcDbLine
10
208.479004
20
7.509704
30
0
11
208.792765
21
7.509704
31
0
39
0
210
0
220
0
230
1
0
LINE
5
8C
100
AcDbEntity
8
1
62
256
6
ByLayer
370
-1
48
1
60
0
100
AcDbLine
10
211.655897
20
5.874571
30
0
11
219.98644
21
6.166591
31
0
39
0
210
0
220
0
230
1
0
LINE
5
8D
100
AcDbEntity
8
1
62
256
6
ByLayer
370
-1
48
1
60
0
100
AcDbLine
10
208.713431
20
6.614619
30
0
11
208.507067
21
6.607385
31
0
39
0
210
0
220
0
230
1
0
LINE
5
8E
100
AcDbEntity
8
1
62
256
6
ByLayer
370
-1
48
1
60
0
100
AcDbLine
10
220.280518
20
-18.363754
30
0
11
220.994587
21
-10.322917
31
0
39
0
210
0
220
0
230
1
0
LINE
5
8F
100
AcDbEntity
8
1
62
256
6
ByLayer
370
-1
48
1
60
0
100
AcDbLine
10
203.600899
20
11.738964
30
0
11
203.600899
21
18.386923
31
0
39
0
210
0
220
0
230
1
0
LINE
5
90
100
AcDbEntity
8
1
62
256
6
ByLayer
370
-1
48
1
60
0
100
AcDbLine
10
220.03542
20
1.839166
30
0
11
220.148821
21
1.835218
31
0
39
0
210
0
220
0
230
1
0
LINE
5
91
100
AcDbEntity
8
1
62
256
6
ByLayer
370
-1
48
1
60
0
100
AcDbLine
10
207.215521
20
1.167075
30
0
11
208.565997
21
5.812995
31
0
39
0
210
0
220
0
230
1
0
LINE
5
92
100
AcDbEntity
8
1
62
256
6
ByLayer
370
-1
48
1
60
0
100
AcDbLine
10
0
20
24.55
30
0
11
0
21
-24.55
31
0
39
0
210
0
220
0
230
1
0
LINE
5
93
100
AcDbEntity
8
1
62
256
6
ByLayer
370
-1
48
1
60
0
100
AcDbLine
10
219.98644
20
6.166591
30
0
11
220.054067
21
6.16722
31
0
39
0
210
0
220
0
230
1
0
LINE
5
94
100
AcDbEntity
8
1
62
256
6
ByLayer
370
-1
48
1
60
0
100
AcDbLine
10
208.764949
20
12.171014
30
0
11
208.780244
21
12.171014
31
0
39
0
210
0
220
0
230
1
0
LINE
5
95
100
AcDbEntity
8
1
62
256
6
ByLayer
370
-1
48
1
60
0
100
AcDbLine
10
5
20
24.75
30
0
11
5
21
-24.75
31
0
39
0
210
0
220
0
230
1
0
LINE
5
96
100
AcDbEntity
8
1
62
256
6
ByLayer
370
-1
48
1
60
0
100
AcDbLine
10
220.544762
20
-8.995959
30
0
11
220.517579
21
-9.302061
31
0
39
0
210
0
220
0
230
1
0
LINE
5
97
100
AcDbEntity
8
1
62
256
6
ByLayer
370
-1
48
1
60
0
100
AcDbLine
10
221.53049
20
-4.726311
30
0
11
221.257808
21
-4.566075
31
0
39
0
210
0
220
0
230
1
0
LINE
5
98
100
AcDbEntity
8
1
62
256
6
ByLayer
370
-1
48
1
60
0
100
AcDbLine
10
220.515538
20
-10.163215
30
0
11
221.514473
21
-9.800753
31
0
39
0
210
0
220
0
230
1
0
LINE
5
99
100
AcDbEntity
8
1
62
256
6
ByLayer
370
-1
48
1
60
0
100
AcDbLine
10
221.289656
20
-0.561249
30
0
11
220.528574
21
1.52336
31
0
39
0
210
0
220
0
230
1
0
LINE
5
9A
100
AcDbEntity
8
1
62
256
6
ByLayer
370
-1
48
1
60
0
100
AcDbLine
10
221.908896
20
-9.25955
30
0
11
221.786258
21
-9.090419
31
0
39
0
210
0
220
0
230
1
0
LINE
5
9B
100
AcDbEntity
8
1
62
256
6
ByLayer
370
-1
48
1
60
0
100
AcDbLine
10
220.528574
20
1.52336
30
0
11
220.459016
21
1.490607
31
0
39
0
210
0
220
0
230
1
0
LINE
5
9C
100
AcDbEntity
8
1
62
256
6
ByLayer
370
-1
48
1
60
0
100
AcDbLine
10
220.276808
20
-0.417861
30
0
11
220.073191
21
-0.02564
31
0
39
0
210
0
220
0
230
1
0
LINE
5
9D
100
AcDbEntity
8
1
62
256
6
ByLayer
370
-1
48
1
60
0
100
AcDbLine
10
221.16688
20
-7.977989
30
0
11
221.223842
21
-6.351838
31
0
39
0
210
0
220
0
230
1
0
LINE
5
9E
100
AcDbEntity
8
1
62
256
6
ByLayer
370
-1
48
1
60
0
100
AcDbLine
10
221.79028
20
-5.709033
30
0
11
221.545973
21
-5.656133
31
0
39
0
210
0
220
0
230
1
0
LINE
5
9F
100
AcDbEntity
8
1
62
256
6
ByLayer
370
-1
48
1
60
0
100
AcDbLine
10
220.45443
20
-0.326218
30
0
11
220.047826
21
0.45701
31
0
39
0
210
0
220
0
230
1
0
LINE
5
A0
100
AcDbEntity
8
1
62
256
6
ByLayer
370
-1
48
1
60
0
100
AcDbLine
10
221.246031
20
-4.562687
30
0
11
220.755289
21
-4.476514
31
0
39
0
210
0
220
0
230
1
0
LINE
5
A1
100
AcDbEntity
8
1
62
256
6
ByLayer
370
-1
48
1
60
0
100
AcDbLine
10
221.726745
20
-6.485162
30
0
11
221.669783
21
-8.111313
31
0
39
0
210
0
220
0
230
1
0
LINE
5
A2
100
AcDbEntity
8
1
62
256
6
ByLayer
370
-1
48
1
60
0
100
AcDbLine
10
221.535421
20
-5.65738
30
0
11
221.095745
21
-5.764377
31
0
39
0
210
0
220
0
230
1
0
LINE
5
A3
100
AcDbEntity
8
1
62
256
6
ByLayer
370
-1
48
1
60
0
100
AcDbLine
10
220.755289
20
-4.476514
30
0
11
220.556899
21
-0.702678
31
0
39
0
210
0
220
0
230
1
0
LINE
5
A4
100
AcDbEntity
8
1
62
256
6
ByLayer
370
-1
48
1
60
0
100
AcDbLine
10
221.657997
20
-8.106899
30
0
11
221.16688
21
-7.977989
31
0
39
0
210
0
220
0
230
1
0
LINE
5
A5
100
AcDbEntity
8
1
62
256
6
ByLayer
370
-1
48
1
60
0
100
AcDbLine
10
221.049238
20
-9.69347
30
0
11
220.666441
21
-8.766606
31
0
39
0
210
0
220
0
230
1
0
LINE
5
A6
100
AcDbEntity
8
1
62
256
6
ByLayer
370
-1
48
1
60
0
100
AcDbLine
10
220.932292
20
-0.202095
30
0
11
220.522074
21
1.160361
31
0
39
0
210
0
220
0
230
1
0
LINE
5
A7
100
AcDbEntity
8
1
62
256
6
ByLayer
370
-1
48
1
60
0
100
AcDbLine
10
221.53049
20
-4.726311
30
0
11
221.319124
21
-0.705644
31
0
39
0
210
0
220
0
230
1
0
LINE
5
A8
100
AcDbEntity
8
1
62
256
6
ByLayer
370
-1
48
1
60
0
100
AcDbLine
10
221.714959
20
-6.480747
30
0
11
221.223842
21
-6.351838
31
0
39
0
210
0
220
0
230
1
0
LINE
5
A9
100
AcDbEntity
8
1
62
256
6
ByLayer
370
-1
48
1
60
0
100
AcDbLine
10
221.059418
20
-0.79224
30
0
11
221.257808
21
-4.566075
31
0
39
0
210
0
220
0
230
1
0
LINE
5
AA
100
AcDbEntity
8
1
62
256
6
ByLayer
370
-1
48
1
60
0
100
AcDbLine
10
220.545348
20
1.132668
30
0
11
220.955566
21
-0.229788
31
0
39
0
210
0
220
0
230
1
0
LINE
5
AB
100
AcDbEntity
8
1
62
256
6
ByLayer
370
-1
48
1
60
0
100
AcDbLine
10
221.246031
20
-4.562687
30
0
11
221.047641
21
-0.788851
31
0
39
0
210
0
220
0
230
1
0
LINE
5
AC
100
AcDbEntity
8
1
62
256
6
ByLayer
370
-1
48
1
60
0
100
AcDbLine
10
220.53623
20
-8.833787
30
0
11
220.666441
21
-8.766606
31
0
39
0
210
0
220
0
230
1
0
LINE
5
AD
100
AcDbEntity
8
1
62
256
6
ByLayer
370
-1
48
1
60
0
100
AcDbLine
10
221.908896
20
-9.25955
30
0
11
221.999634
21
-6.669144
31
0
39
0
210
0
220
0
230
1
0
LINE
5
AE
100
AcDbEntity
8
1
62
256
6
ByLayer
370
-1
48
1
60
0
100
AcDbLine
10
220.555563
20
-4.486949
30
0
11
220.357173
21
-0.713113
31
0
39
0
210
0
220
0
230
1
0
LINE
5
AF
100
AcDbEntity
8
1
62
256
6
ByLayer
370
-1
48
1
60
0
100
AcDbLine
10
221.657997
20
-8.106899
30
0
11
221.714959
21
-6.480747
31
0
39
0
210
0
220
0
230
1
0
LINE
5
B0
100
AcDbEntity
8
1
62
256
6
ByLayer
370
-1
48
1
60
0
100
AcDbLine
10
220.932292
20
-0.202095
30
0
11
220.45443
21
-0.326218
31
0
39
0
210
0
220
0
230
1
0
LINE
5
B1
100
AcDbEntity
8
1
62
256
6
ByLayer
370
-1
48
1
60
0
100
AcDbLine
10
221.025475
20
-9.720675
30
0
11
220.491017
21
-9.848102
31
0
39
0
210
0
220
0
230
1
0
LINE
5
B2
100
AcDbEntity
8
1
62
256
6
ByLayer
370
-1
48
1
60
0
100
AcDbLine
10
221.514473
20
-9.800753
30
0
11
221.418735
21
-9.668718
31
0
39
0
210
0
220
0
230
1
0
LINE
5
B3
100
AcDbEntity
8
1
62
256
6
ByLayer
370
-1
48
1
60
0
100
AcDbLine
10
221.999634
20
-6.669144
30
0
11
221.726745
21
-6.485162
31
0
39
0
210
0
220
0
230
1
0
LINE
5
B4
100
AcDbEntity
8
1
62
256
6
ByLayer
370
-1
48
1
60
0
100
AcDbLine
10
221.047641
20
-0.788851
30
0
11
220.556899
21
-0.702678
31
0
39
0
210
0
220
0
230
1
0
LINE
5
B5
100
AcDbEntity
8
1
62
256
6
ByLayer
370
-1
48
1
60
0
100
AcDbLine
10
220.49103
20
-9.826559
30
0
11
221.049238
21
-9.69347
31
0
39
0
210
0
220
0
230
1
0
LINE
5
B6
100
AcDbEntity
8
1
62
256
6
ByLayer
370
-1
48
1
60
0
100
AcDbLine
10
221.319124
20
-0.705644
30
0
11
221.058503
21
-0.590423
31
0
39
0
210
0
220
0
230
1
0
LINE
5
B7
100
AcDbEntity
8
1
62
256
6
ByLayer
370
-1
48
1
60
0
100
AcDbLine
10
220.967002
20
-7.971031
30
0
11
221.023964
21
-6.344879
31
0
39
0
210
0
220
0
230
1
0
LINE
5
B8
100
AcDbEntity
8
1
62
256
6
ByLayer
370
-1
48
1
60
0
100
AcDbLine
10
221.289656
20
-0.561249
30
0
11
221.03131
21
-0.447033
31
0
39
0
210
0
220
0
230
1
0
LINE
5
B9
100
AcDbEntity
8
1
62
256
6
ByLayer
370
-1
48
1
60
0
100
AcDbLine
10
220.522074
20
1.160361
30
0
11
220.019761
21
1.029887
31
0
39
0
210
0
220
0
230
1
0
LINE
5
BA
100
AcDbEntity
8
1
62
256
6
ByLayer
370
-1
48
1
60
0
100
AcDbLine
10
220.524727
20
-8.615219
30
0
11
220.574515
21
-8.589531
31
0
39
0
210
0
220
0
230
1
0
LINE
5
BB
100
AcDbEntity
8
1
62
256
6
ByLayer
370
-1
48
1
60
0
100
AcDbLine
10
211.454469
20
16.544342
30
0
11
211.593129
21
16.030857
31
0
39
0
210
0
220
0
230
1
0
LINE
5
BC
100
AcDbEntity
8
1
62
256
6
ByLayer
370
-1
48
1
60
0
100
AcDbLine
10
210.62701
20
7.198703
30
0
11
220.333991
21
7.538973
31
0
39
0
210
0
220
0
230
1
0
LINE
5
BD
100
AcDbEntity
8
1
62
256
6
ByLayer
370
-1
48
1
60
0
100
AcDbLine
10
210.263474
20
17.400034
30
0
11
219.970456
21
17.740304
31
0
39
0
210
0
220
0
230
1
0
LINE
5
BE
100
AcDbEntity
8
1
62
256
6
ByLayer
370
-1
48
1
60
0
100
AcDbLine
10
210.2591
20
18.223906
30
0
11
219.966081
21
18.564176
31
0
39
0
210
0
220
0
230
1
0
LINE
5
BF
100
AcDbEntity
8
1
62
256
6
ByLayer
370
-1
48
1
60
0
100
AcDbLine
10
210.614665
20
7.327494
30
0
11
220.321646
21
7.667764
31
0
39
0
210
0
220
0
230
1
0
LINE
5
C0
100
AcDbEntity
8
1
62
256
6
ByLayer
370
-1
48
1
60
0
100
AcDbLine
10
211.671911
20
9.692747
30
0
11
211.672277
21
9.692404
31
0
39
0
210
0
220
0
230
1
0
LINE
5
C1
100
AcDbEntity
8
1
62
256
6
ByLayer
370
-1
48
1
60
0
100
AcDbLine
10
221.780037
20
7.896939
30
0
11
221.420493
21
18.232277
31
0
39
0
210
0
220
0
230
1
0
LINE
5
C2
100
AcDbEntity
8
1
62
256
6
ByLayer
370
-1
48
1
60
0
100
AcDbLine
10
219.947048
20
19.039512
30
0
11
209.651039
21
18.678594
31
0
39
0
210
0
220
0
230
1
0
LINE
5
C3
100
AcDbEntity
8
1
62
256
6
ByLayer
370
-1
48
1
60
0
100
AcDbLine
10
211.894329
20
15.420752
30
0
11
211.913992
21
15.416856
31
0
39
0
210
0
220
0
230
1
0
LINE
5
C4
100
AcDbEntity
8
1
62
256
6
ByLayer
370
-1
48
1
60
0
100
AcDbLine
10
212.259965
20
9.533976
30
0
11
212.378842
21
9.661942
31
0
39
0
210
0
220
0
230
1
0
LINE
5
C5
100
AcDbEntity
8
1
62
256
6
ByLayer
370
-1
48
1
60
0
100
AcDbLine
10
212.220442
20
15.771802
30
0
11
212.225686
21
15.752384
31
0
39
0
210
0
220
0
230
1
0
LINE
5
C6
100
AcDbEntity
8
1
62
256
6
ByLayer
370
-1
48
1
60
0
100
AcDbLine
10
210.665827
20
6.532283
30
0
11
220.372808
21
6.872553
31
0
39
0
210
0
220
0
230
1
0
LINE
5
C7
100
AcDbEntity
8
1
62
256
6
ByLayer
370
-1
48
1
60
0
100
AcDbLine
10
220.319861
20
7.696426
30
0
11
210.61288
21
7.356156
31
0
39
0
210
0
220
0
230
1
0
LINE
5
C8
100
AcDbEntity
8
1
62
256
6
ByLayer
370
-1
48
1
60
0
100
AcDbLine
10
221.309008
20
7.88034
30
0
11
220.970033
21
17.6244
31
0
39
0
210
0
220
0
230
1
0
LINE
5
C9
100
AcDbEntity
8
1
62
256
6
ByLayer
370
-1
48
1
60
0
100
AcDbLine
10
221.079225
20
7.872346
30
0
11
220.74025
21
17.616407
31
0
39
0
210
0
220
0
230
1
0
LINE
5
CA
100
AcDbEntity
8
1
62
256
6
ByLayer
370
-1
48
1
60
0
100
AcDbLine
10
219.379867
20
11.673913
30
0
11
219.477214
21
8.875619
31
0
39
0
210
0
220
0
230
1
0
LINE
5
CB
100
AcDbEntity
8
1
62
256
6
ByLayer
370
-1
48
1
60
0
100
AcDbLine
10
219.237008
20
8.617046
30
0
11
216.449363
21
8.519327
31
0
39
0
210
0
220
0
230
1
0
LINE
5
CC
100
AcDbEntity
8
1
62
256
6
ByLayer
370
-1
48
1
60
0
100
AcDbLine
10
208.988511
20
17.204465
30
0
11
209.327486
21
7.460404
31
0
39
0
210
0
220
0
230
1
0
LINE
5
CD
100
AcDbEntity
8
1
62
256
6
ByLayer
370
-1
48
1
60
0
100
AcDbLine
10
210.458326
20
7.500829
30
0
11
210.119351
21
17.24489
31
0
39
0
210
0
220
0
230
1
0
LINE
5
CE
100
AcDbEntity
8
1
62
256
6
ByLayer
370
-1
48
1
60
0
100
AcDbLine
10
211.88844
20
9.497378
30
0
11
211.876443
21
9.508607
31
0
39
0
210
0
220
0
230
1
0
LINE
5
CF
100
AcDbEntity
8
1
62
256
6
ByLayer
370
-1
48
1
60
0
100
AcDbLine
10
220.629491
20
7.857068
30
0
11
220.290515
21
17.601128
31
0
39
0
210
0
220
0
230
1
0
LINE
5
D0
100
AcDbEntity
8
1
62
256
6
ByLayer
370
-1
48
1
60
0
100
AcDbLine
10
211.894329
20
15.420752
30
0
11
212.406662
21
14.941169
31
0
39
0
210
0
220
0
230
1
0
LINE
5
D1
100
AcDbEntity
8
1
62
256
6
ByLayer
370
-1
48
1
60
0
100
AcDbLine
10
220.125009
20
17.59563
30
0
11
220.463984
21
7.851569
31
0
39
0
210
0
220
0
230
1
0
LINE
5
D2
100
AcDbEntity
8
1
62
256
6
ByLayer
370
-1
48
1
60
0
100
AcDbLine
10
221.700086
20
7.894157
30
0
11
221.36111
21
17.638218
31
0
39
0
210
0
220
0
230
1
0
LINE
5
D3
100
AcDbEntity
8
1
62
256
6
ByLayer
370
-1
48
1
60
0
100
AcDbLine
10
216.449835
20
8.393012
30
0
11
219.237481
21
8.490731
31
0
39
0
210
0
220
0
230
1
0
LINE
5
D4
100
AcDbEntity
8
1
62
256
6
ByLayer
370
-1
48
1
60
0
100
AcDbLine
10
210.676487
20
6.136595
30
0
11
220.383468
21
6.476865
31
0
39
0
210
0
220
0
230
1
0
LINE
5
D5
100
AcDbEntity
8
1
62
256
6
ByLayer
370
-1
48
1
60
0
100
AcDbLine
10
210.837643
20
15.671535
30
0
11
212.039784
21
14.546238
31
0
39
0
210
0
220
0
230
1
0
LINE
5
D6
100
AcDbEntity
8
1
62
256
6
ByLayer
370
-1
48
1
60
0
100
AcDbLine
10
210.26665
20
17.557486
30
0
11
219.973631
21
17.897756
31
0
39
0
210
0
220
0
230
1
0
LINE
5
D7
100
AcDbEntity
8
1
62
256
6
ByLayer
370
-1
48
1
60
0
100
AcDbLine
10
208.925612
20
17.202302
30
0
11
209.264587
21
7.458241
31
0
39
0
210
0
220
0
230
1
0
LINE
5
D8
100
AcDbEntity
8
1
62
256
6
ByLayer
370
-1
48
1
60
0
100
AcDbLine
10
211.671911
20
9.692747
30
0
11
212.09074
21
10.143601
31
0
39
0
210
0
220
0
230
1
0
LINE
5
D9
100
AcDbEntity
8
1
62
256
6
ByLayer
370
-1
48
1
60
0
100
AcDbLine
10
208.846876
20
17.199521
30
0
11
209.20642
21
6.864183
31
0
39
0
210
0
220
0
230
1
0
LINE
5
DA
100
AcDbEntity
8
1
62
256
6
ByLayer
370
-1
48
1
60
0
100
AcDbLine
10
210.24223
20
18.619595
30
0
11
219.949211
21
18.959865
31
0
39
0
210
0
220
0
230
1
0
LINE
5
DB
100
AcDbEntity
8
1
62
256
6
ByLayer
370
-1
48
1
60
0
100
AcDbLine
10
211.073172
20
16.133889
30
0
11
211.593129
21
16.030857
31
0
39
0
210
0
220
0
230
1
0
LINE
5
DC
100
AcDbEntity
8
1
62
256
6
ByLayer
370
-1
48
1
60
0
100
AcDbLine
10
211.696373
20
9.323184
30
0
11
212.02423
21
9.016285
31
0
39
0
210
0
220
0
230
1
0
LINE
5
DD
100
AcDbEntity
8
1
62
256
6
ByLayer
370
-1
48
1
60
0
100
AcDbLine
10
212.259965
20
9.533976
30
0
11
212.391108
21
9.411216
31
0
39
0
210
0
220
0
230
1
0
LINE
5
DE
100
AcDbEntity
8
1
62
256
6
ByLayer
370
-1
48
1
60
0
100
AcDbLine
10
221.639582
20
7.891994
30
0
11
221.300607
21
17.636055
31
0
39
0
210
0
220
0
230
1
0
LINE
5
DF
100
AcDbEntity
8
1
62
256
6
ByLayer
370
-1
48
1
60
0
100
AcDbLine
10
211.897512
20
16.812447
30
0
11
213.099653
21
15.68715
31
0
39
0
210
0
220
0
230
1
0
LINE
5
E0
100
AcDbEntity
8
1
62
256
6
ByLayer
370
-1
48
1
60
0
100
AcDbLine
10
219.431073
20
13.710821
30
0
11
219.333727
21
16.509115
31
0
39
0
210
0
220
0
230
1
0
LINE
5
E1
100
AcDbEntity
8
1
62
256
6
ByLayer
370
-1
48
1
60
0
100
AcDbLine
10
220.493325
20
7.85257
30
0
11
220.154349
21
17.596631
31
0
39
0
210
0
220
0
230
1
0
LINE
5
E2
100
AcDbEntity
8
1
62
256
6
ByLayer
370
-1
48
1
60
0
100
AcDbLine
10
218.945909
20
16.872142
30
0
11
216.158263
21
16.774423
31
0
39
0
210
0
220
0
230
1
0
LINE
5
E3
100
AcDbEntity
8
1
62
256
6
ByLayer
370
-1
48
1
60
0
100
AcDbLine
10
209.97115
20
17.239392
30
0
11
210.310125
21
7.495331
31
0
39
0
210
0
220
0
230
1
0
LINE
5
E4
100
AcDbEntity
8
1
62
256
6
ByLayer
370
-1
48
1
60
0
100
AcDbLine
10
210.245582
20
18.557658
30
0
11
219.952563
21
18.897928
31
0
39
0
210
0
220
0
230
1
0
LINE
5
E5
100
AcDbEntity
8
1
62
256
6
ByLayer
370
-1
48
1
60
0
100
AcDbLine
10
210.091587
20
17.243889
30
0
11
210.430562
21
7.499829
31
0
39
0
210
0
220
0
230
1
0
LINE
5
E6
100
AcDbEntity
8
1
62
256
6
ByLayer
370
-1
48
1
60
0
100
AcDbLine
10
210.263265
20
17.428695
30
0
11
219.970247
21
17.768965
31
0
39
0
210
0
220
0
230
1
0
LINE
5
E7
100
AcDbEntity
8
1
62
256
6
ByLayer
370
-1
48
1
60
0
100
AcDbLine
10
210.656117
20
6.761191
30
0
11
220.363099
21
7.101461
31
0
39
0
210
0
220
0
230
1
0
LINE
5
E8
100
AcDbEntity
8
1
62
256
6
ByLayer
370
-1
48
1
60
0
100
AcDbLine
10
219.599126
20
8.88003
30
0
11
219.50178
21
11.678324
31
0
39
0
210
0
220
0
230
1
0
LINE
5
E9
100
AcDbEntity
8
1
62
256
6
ByLayer
370
-1
48
1
60
0
100
AcDbLine
10
209.54919
20
17.224113
30
0
11
209.888166
21
7.480053
31
0
39
0
210
0
220
0
230
1
0
LINE
5
EA
100
AcDbEntity
8
1
62
256
6
ByLayer
370
-1
48
1
60
0
100
AcDbLine
10
209.3229
20
17.21612
30
0
11
209.661875
21
7.472059
31
0
39
0
210
0
220
0
230
1
0
LINE
5
EB
100
AcDbEntity
8
1
62
256
6
ByLayer
370
-1
48
1
60
0
100
AcDbLine
10
219.309161
20
13.70641
30
0
11
219.211814
21
16.504704
31
0
39
0
210
0
220
0
230
1
0
LINE
5
EC
100
AcDbEntity
8
1
62
256
6
ByLayer
370
-1
48
1
60
0
100
AcDbLine
10
210.265317
20
17.994998
30
0
11
219.972298
21
18.335268
31
0
39
0
210
0
220
0
230
1
0
LINE
5
ED
100
AcDbEntity
8
1
62
256
6
ByLayer
370
-1
48
1
60
0
100
AcDbLine
10
212.220442
20
15.771802
30
0
11
212.732775
21
15.292219
31
0
39
0
210
0
220
0
230
1
0
LINE
5
EE
100
AcDbEntity
8
1
62
256
6
ByLayer
370
-1
48
1
60
0
100
AcDbLine
10
218.954225
20
16.745827
30
0
11
216.166579
21
16.648108
31
0
39
0
210
0
220
0
230
1
0
LINE
5
EF
100
AcDbEntity
8
1
62
256
6
ByLayer
370
-1
48
1
60
0
100
AcDbLine
10
210.679865
20
6.056948
30
0
11
220.975874
21
6.417866
31
0
39
0
210
0
220
0
230
1
0
LINE
5
F0
100
AcDbEntity
8
1
62
256
6
ByLayer
370
-1
48
1
60
0
100
AcDbLine
10
210.67553
20
6.198532
30
0
11
220.382511
21
6.538802
31
0
39
0
210
0
220
0
230
1
0
LINE
5
F1
100
AcDbEntity
8
SK1
62
256
6
ByLayer
370
-1
48
1
60
0
100
AcDbLine
10
-6.5
20
-9.102615
30
0
11
-66.6
21
-9.102615
31
0
39
0
210
0
220
0
230
1
0
LINE
5
F2
100
AcDbEntity
8
SK1
62
256
6
ByLayer
370
-1
48
1
60
0
100
AcDbLine
10
-70
20
-6.623111
30
0
11
-70
21
-18.996
31
0
39
0
210
0
220
0
230
1
0
LINE
5
F3
100
AcDbEntity
8
SK1
62
256
6
ByLayer
370
-1
48
1
60
0
100
AcDbLine
10
-70
20
18.996
30
0
11
-70
21
6.623111
31
0
39
0
210
0
220
0
230
1
0
LINE
5
F4
100
AcDbEntity
8
SK1
62
256
6
ByLayer
370
-1
48
1
60
0
100
AcDbLine
10
-70
20
6.623111
30
0
11
-70
21
-6.623111
31
0
39
0
210
0
220
0
230
1
0
LINE
5
F5
100
AcDbEntity
8
SK1
62
256
6
ByLayer
370
-1
48
1
60
0
100
AcDbLine
10
-0.15
20
19.75
30
0
11
-0.15
21
-19.75
31
0
39
0
210
0
220
0
230
1
0
LINE
5
F6
100
AcDbEntity
8
SK1
62
256
6
ByLayer
370
-1
48
1
60
0
100
AcDbLine
10
-6.5
20
9.102615
30
0
11
-6.5
21
-9.102615
31
0
39
0
210
0
220
0
230
1
0
LINE
5
F7
100
AcDbEntity
8
SK1
62
256
6
ByLayer
370
-1
48
1
60
0
100
AcDbLine
10
-68.6
20
-19.996
30
0
11
-68.6
21
-9.102615
31
0
39
0
210
0
220
0
230
1
0
LINE
5
F8
100
AcDbEntity
8
SK1
62
256
6
ByLayer
370
-1
48
1
60
0
100
AcDbLine
10
-68.6
20
9.102615
30
0
11
-68.6
21
19.996
31
0
39
0
210
0
220
0
230
1
0
LINE
5
F9
100
AcDbEntity
8
SK1
62
256
6
ByLayer
370
-1
48
1
60
0
100
AcDbLine
10
-67.633814
20
-8.290603
30
0
11
-67.633814
21
-19.639667
31
0
39
0
210
0
220
0
230
1
0
LINE
5
FA
100
AcDbEntity
8
SK1
62
256
6
ByLayer
370
-1
48
1
60
0
100
AcDbLine
10
-67.633814
20
19.639667
30
0
11
-67.633814
21
8.290603
31
0
39
0
210
0
220
0
230
1
0
LINE
5
FB
100
AcDbEntity
8
SK1
62
256
6
ByLayer
370
-1
48
1
60
0
100
AcDbLine
10
-66.6
20
9.102615
30
0
11
-6.5
21
9.102615
31
0
39
0
210
0
220
0
230
1
0
LINE
5
FC
100
AcDbEntity
8
SK1
62
256
6
ByLayer
370
-1
48
1
60
0
100
AcDbLine
10
-68.516223
20
-8.873042
30
0
11
-68.516223
21
-19.892544
31
0
39
0
210
0
220
0
230
1
0
LINE
5
FD
100
AcDbEntity
8
SK1
62
256
6
ByLayer
370
-1
48
1
60
0
100
AcDbLine
10
-68.516223
20
19.892544
30
0
11
-68.516223
21
8.873042
31
0
39
0
210
0
220
0
230
1
0
LINE
5
FE
100
AcDbEntity
8
SK1
62
256
6
ByLayer
370
-1
48
1
60
0
100
AcDbLine
10
-69
20
9.102615
30
0
11
-68.6
21
9.102615
31
0
39
0
210
0
220
0
230
1
0
LINE
5
FF
100
AcDbEntity
8
SK1
62
256
6
ByLayer
370
-1
48
1
60
0
100
AcDbLine
10
-1.552821
20
19.787477
30
0
11
-1.552821
21
-19.787477
31
0
39
0
210
0
220
0
230
1
0
LINE
5
100
100
AcDbEntity
8
SK1
62
256
6
ByLayer
370
-1
48
1
60
0
100
AcDbLine
10
-68.6
20
-9.102615
30
0
11
-69
21
-9.102615
31
0
39
0
210
0
220
0
230
1
0
LINE
5
101
100
AcDbEntity
8
SK1
62
256
6
ByLayer
370
-1
48
1
60
0
100
AcDbLine
10
-69
20
-9.102615
30
0
11
-69
21
-19.996
31
0
39
0
210
0
220
0
230
1
0
LINE
5
102
100
AcDbEntity
8
SK1
62
256
6
ByLayer
370
-1
48
1
60
0
100
AcDbLine
10
-69
20
19.996
30
0
11
-69
21
9.102615
31
0
39
0
210
0
220
0
230
1
0
LINE
5
103
100
AcDbEntity
8
SK1
62
256
6
ByLayer
370
-1
48
1
60
0
100
AcDbLine
10
-2
20
-19.996
30
0
11
-2
21
19.996
31
0
39
0
210
0
220
0
230
1
0
LINE
5
104
100
AcDbEntity
8
SK1
62
256
6
ByLayer
370
-1
48
1
60
0
100
AcDbLine
10
-1.383773
20
19.75
30
0
11
-1.383773
21
-19.75
31
0
39
0
210
0
220
0
230
1
0
LINE
5
105
100
AcDbEntity
8
SK1
62
256
6
ByLayer
370
-1
48
1
60
0
100
AcDbLine
10
-66.6
20
9.102615
30
0
11
-66.6
21
19.996
31
0
39
0
210
0
220
0
230
1
0
LINE
5
106
100
AcDbEntity
8
SK1
62
256
6
ByLayer
370
-1
48
1
60
0
100
AcDbLine
10
-66.6
20
-19.996
30
0
11
-66.6
21
-9.102615
31
0
39
0
210
0
220
0
230
1
0
MTEXT
5
29A
100
AcDbEntity
8
SK6
62
256
6
ByLayer
370
-1
48
1
60
0
100
AcDbMText
10
0.79375
20
-80.79375
30
0
210
0
220
0
230
1
1
\W00.747;\fsimplex.shx,bigfont.shx;880-D3800L40-05 
40
3.175
41
0
44
1.084337
50
0
71
7
72
5
7
DEFAULT
0
DIMENSION
5
2CA
100
AcDbEntity
8
SK2
62
256
6
ByLayer
370
-3
48
1
60
0
100
AcDbDimension
2
DimnDraft3D1
10
222
20
-63.61955
30
0
11
76
21
-63.61955
31
0
70
32
71
5
72
1
41
1
210
0
220
0
230
1
3
Standard
100
AcDbAlignedDimension
13
-70
23
-21.5875
33
0
14
222
24
-20.5875
34
0
50
0
100
AcDbRotatedDimension
1001
ACAD
1000
DSTYLE
1002
{
1070
   279
1070
     0
1070
   172
1070
     1
1070
   173
1070
     1
1070
   340
1005
29B
1070
   271
1070
     1
1070
   272
1070
     2
1070
    77
1070
     1
1070
    73
1070
     0
1070
   171
1070
     3
1070
   274
1070
     4
1070
   177
1070
   150
1070
   176
1070
     9
1070
   178
1070
    43
1070
    78
1070
     8
1070
    48
1040
-0.005
1070
    41
1041
4.175
1070
   147
1041
2.25
1070
    42
1041
1.5875
1070
    44
1041
3.175
1070
   140
1041
4.5
1070
   343
1005
0
1070
   344
1005
0
1002
}
0
DIMENSION
5
2D4
100
AcDbEntity
8
SK2
62
256
6
ByLayer
370
-3
48
1
60
0
100
AcDbDimension
2
DimnDraft3D2
10
0
20
-51.6508
30
0
11
-35
21
-51.6508
31
0
70
32
71
5
72
1
41
1
210
0
220
0
230
1
3
Standard
100
AcDbAlignedDimension
13
-70
23
-21.5875
33
0
14
0
24
-26.3375
34
0
50
0
100
AcDbRotatedDimension
1001
ACAD
1000
DSTYLE
1002
{
1070
   279
1070
     0
1070
   172
1070
     1
1070
   173
1070
     1
1070
   340
1005
29B
1070
   271
1070
     1
1070
   272
1070
     2
1070
    77
1070
     1
1070
    73
1070
     0
1070
   171
1070
     3
1070
   274
1070
     4
1070
   177
1070
   150
1070
   176
1070
     9
1070
   178
1070
    43
1070
    78
1070
     8
1070
    48
1040
-0.005
1070
    41
1041
4.175
1070
   147
1041
2.25
1070
    42
1041
1.5875
1070
    44
1041
3.175
1070
   140
1041
4.5
1070
   343
1005
0
1070
   344
1005
0
1002
}
0
DIMENSION
5
2DF
100
AcDbEntity
8
2
62
256
6
ByLayer
370
-3
48
1
60
0
100
AcDbDimension
2
DimnDraft3D3
10
222
20
-51.6508
30
0
11
111
21
-51.6508
31
0
70
32
71
5
72
1
41
1
210
0
220
0
230
1
3
Standard
100
AcDbAlignedDimension
13
0
23
-26.3375
33
0
14
222
24
-20.5875
34
0
50
0
100
AcDbRotatedDimension
1001
ACAD
1000
DSTYLE
1002
{
1070
   279
1070
     0
1070
   172
1070
     1
1070
   173
1070
     1
1070
   340
1005
29B
1070
   271
1070
     1
1070
   272
1070
     2
1070
    77
1070
     1
1070
    73
1070
     0
1070
   171
1070
     3
1070
   274
1070
     4
1070
   177
1070
   150
1070
   176
1070
     9
1070
   178
1070
    43
1070
    78
1070
     8
1070
    48
1040
-0.005
1070
    41
1041
4.175
1070
   147
1041
2.25
1070
    42
1041
1.5875
1070
    44
1041
3.175
1070
   140
1041
4.5
1070
   343
1005
0
1070
   344
1005
0
1002
}
0
DIMENSION
5
2E9
100
AcDbEntity
8
SK2
62
256
6
ByLayer
370
-3
48
1
60
0
100
AcDbDimension
2
DimnDraft3D4
10
222
20
-41.6508
30
0
11
125
21
-41.6508
31
0
70
32
71
5
72
1
41
1
210
0
220
0
230
1
3
Standard
100
AcDbAlignedDimension
13
28
23
-11.5875
33
0
14
222
24
-20.5875
34
0
50
0
100
AcDbRotatedDimension
1001
ACAD
1000
DSTYLE
1002
{
1070
   279
1070
     0
1070
   172
1070
     1
1070
   173
1070
     1
1070
   340
1005
29B
1070
   271
1070
     1
1070
   272
1070
     2
1070
    77
1070
     1
1070
    73
1070
     0
1070
   171
1070
     3
1070
   274
1070
     4
1070
   177
1070
   150
1070
   176
1070
     9
1070
   178
1070
    43
1070
    78
1070
     8
1070
    48
1040
-0.005
1070
    41
1041
4.175
1070
   147
1041
2.25
1070
    42
1041
1.5875
1070
    44
1041
3.175
1070
   140
1041
4.5
1070
   343
1005
0
1070
   344
1005
0
1002
}
0
DIMENSION
5
2F4
100
AcDbEntity
8
SK2
62
256
6
ByLayer
370
-3
48
1
60
0
100
AcDbDimension
2
DimnDraft3D5
10
-81.9
20
-20
30
0
11
-82.1
21
3.884211
31
0
70
33
71
5
72
1
41
1
210
0
220
0
230
1
3
Standard
100
AcDbAlignedDimension
13
-71.5875
23
20
33
0
14
-71.5875
24
-20
34
0
1001
ACAD
1000
DSTYLE
1002
{
1070
   279
1070
     0
1070
    74
1070
     0
1070
   173
1070
     1
1070
   340
1005
29B
1070
   271
1070
     2
1070
   272
1070
     2
1070
    77
1070
     1
1070
    73
1070
     0
1070
   171
1070
     3
1070
   274
1070
     4
1070
   177
1070
   150
1070
   176
1070
     9
1070
   178
1070
    43
1070
    78
1070
     8
1070
    48
1040
-0.005
1070
    41
1041
4.175
1070
   147
1041
2.25
1070
    42
1041
1.5875
1070
    44
1041
3.175
1070
   140
1041
4.5
1070
   343
1005
0
1070
   344
1005
0
1002
}
0
DIMENSION
5
2FF
100
AcDbEntity
8
SK2
62
256
6
ByLayer
370
-3
48
1
60
0
100
AcDbDimension
2
DimnDraft3D6
10
-91.9
20
24.75
30
0
11
-92.1
21
1.35
31
0
70
33
71
5
72
1
41
1
210
0
220
0
230
1
3
Standard
100
AcDbAlignedDimension
13
-1.5875
23
-24.75
33
0
14
-1.5875
24
24.75
34
0
1001
ACAD
1000
DSTYLE
1002
{
1070
   279
1070
     0
1070
    74
1070
     0
1070
   173
1070
     1
1070
   340
1005
29B
1070
   271
1070
     1
1070
   272
1070
     2
1070
    77
1070
     1
1070
    73
1070
     0
1070
   171
1070
     3
1070
   274
1070
     4
1070
   177
1070
   150
1070
   176
1070
     9
1070
   178
1070
    43
1070
    78
1070
     8
1070
    48
1040
-0.005
1070
    41
1041
4.175
1070
   147
1041
2.25
1070
    42
1041
1.5875
1070
    44
1041
3.175
1070
   140
1041
4.5
1070
   343
1005
0
1070
   344
1005
0
1002
}
0
DIMENSION
5
30A
100
AcDbEntity
8
2
62
256
6
ByLayer
370
-3
48
1
60
0
100
AcDbDimension
2
DimnDraft3D7
10
252.15
20
-19
30
0
11
245.6
21
4.121053
31
0
70
33
71
5
72
1
41
1
210
0
220
0
230
1
3
Standard
100
AcDbAlignedDimension
13
223.5875
23
19
33
0
14
223.5875
24
-19
34
0
1001
ACAD
1000
DSTYLE
1002
{
1070
   279
1070
     0
1070
    74
1070
     0
1070
   173
1070
     1
1070
   340
1005
29B
1070
   271
1070
     2
1070
   272
1070
     2
1070
    77
1070
     1
1070
    73
1070
     0
1070
   171
1070
     3
1070
   274
1070
     4
1070
   177
1070
   150
1070
   176
1070
     9
1070
   178
1070
    43
1070
    78
1070
     8
1070
    48
1040
-0.005
1070
    41
1041
4.175
1070
   147
1041
2.25
1070
    42
1041
1.5875
1070
    44
1041
3.175
1070
   140
1041
4.5
1070
   343
1005
0
1070
   344
1005
0
1002
}
0
ENDSEC
0
SECTION
2
OBJECTS
0
DICTIONARY
5
33b
330
0
100
AcDbDictionary
280
0
281
1
3
ACAD_GROUP
350
33c
3
ACAD_MLINESTYLE
350
33d
0
DICTIONARY
5
33c
330
0
100
AcDbDictionary
280
0
281
1
0
DICTIONARY
5
33d
330
0
100
AcDbDictionary
280
0
281
1
3
Standard
350
18
0
MLINESTYLE
5
18
330
33d
100
AcDbMlineStyle
2
Standard
70
0
3

62
256
51
90
52
90
71
2
49
-0.5
62
256
6
ByLayer
49
0.5
62
256
6
ByLayer
0
RASTERVARIABLES
5
329
330

100
AcDbRasterVariables
90
0
70
1
71
1
72
1
0
ENDSEC
0
EOF
