0
SECTION
2
HEADER
9
$ACADVER
1
AC1015
9
$DWGCODEPAGE
3
ANSI_1252
9
$HANDSEED
5
370
9
$ANGBASE
50
0
9
$ANGDIR
70
0
9
$ATTMODE
70
1
9
$AUNITS
70
0
9
$AUPREC
70
0
9
$CECOLOR
62
256
9
$CELTSCALE
40
1
9
$CELTYPE
6
ByLayer
9
$CELWEIGHT
370
-1
9
$CLAYER
8
0
9
$CMLJUST
70
0
9
$CMLSCALE
40
1
9
$CMLSTYLE
2
Standard
9
$DIMSTYLE
2
Standard
9
$TEXTSIZE
40
0.2
9
$TEXTSTYLE
7
Standard
9
$LUNITS
70
2
9
$LUPREC
70
4
9
$EXTNAMES
290
1
9
$INSUNITS
70
4
9
$LTSCALE
40
1
9
$LWDISPLAY
290
0
9
$PDMODE
70
0
9
$PDSIZE
40
0
9
$PLINEGEN
70
0
0
ENDSEC
0
SECTION
2
CLASSES
0
CLASS
1
RASTERVARIABLES
2
AcDbRasterVariables
3
ISM
90
0
280
0
281
0
0
ENDSEC
0
SECTION
2
TABLES
0
TABLE
2
VPORT
5
366
100
AcDbSymbolTable
0
VPORT
5
1
100
AcDbSymbolTableRecord
100
AcDbViewportTableRecord
2
*Active
70
0
10
0
20
0
11
1
21
1
12
-1
22
1
13
0
23
0
14
0.5
24
0.5
15
10
25
10
16
0
26
0
36
1
17
0
27
0
37
0
0
ENDTAB
0
TABLE
2
LTYPE
5
367
100
AcDbSymbolTable
0
LTYPE
5
14
100
AcDbSymbolTableRecord
100
AcDbLinetypeTableRecord
70
0
2
ByBlock
3

72
65
73
0
40
0
0
LTYPE
5
15
100
AcDbSymbolTableRecord
100
AcDbLinetypeTableRecord
70
0
2
ByLayer
3

72
65
73
0
40
0
0
LTYPE
5
16
100
AcDbSymbolTableRecord
100
AcDbLinetypeTableRecord
70
0
2
CONTINUOUS
3
Solid line
72
65
73
0
40
0
0
LTYPE
5
3B
100
AcDbSymbolTableRecord
100
AcDbLinetypeTableRecord
70
0
2
DASHED
3
__ __ __ __ __ __ __ __ __
72
65
73
2
40
25.72
49
12.86
74
0
49
-12.86
74
0
0
LTYPE
5
3C
100
AcDbSymbolTableRecord
100
AcDbLinetypeTableRecord
70
0
2
HIDDEN
3
_ _ _ _ _ _ _ _ _ _ _ _ _ _ _
72
65
73
2
40
0.5
49
0.25
74
0
49
-0.25
74
0
0
LTYPE
5
3D
100
AcDbSymbolTableRecord
100
AcDbLinetypeTableRecord
70
0
2
PHANTOM
3
____ _ _ ____ _ _ _____ _ _ ____
72
65
73
6
40
50.5
49
18
74
0
49
-6.5
74
0
49
6.5
74
0
49
-6.5
74
0
49
6.5
74
0
49
-6.5
74
0
0
LTYPE
5
3E
100
AcDbSymbolTableRecord
100
AcDbLinetypeTableRecord
70
0
2
CENTER
3
____ _ ____ _ ____ _ ____
72
65
73
4
40
47.5
49
22
74
0
49
-8.5
74
0
49
8.5
74
0
49
-8.5
74
0
0
LTYPE
5
3F
100
AcDbSymbolTableRecord
100
AcDbLinetypeTableRecord
70
0
2
DOT
3
.........................
72
65
73
2
40
10
49
0
74
0
49
-10
74
0
0
LTYPE
5
40
100
AcDbSymbolTableRecord
100
AcDbLinetypeTableRecord
70
0
2
DASHDOT
3
_._._._._._._._._._._._._._._._.
72
65
73
4
40
70
49
31
74
0
49
-13
74
0
49
13
74
0
49
-13
74
0
0
ENDTAB
0
TABLE
2
LAYER
5
368
100
AcDbSymbolTable
0
LAYER
5
10
100
AcDbSymbolTableRecord
100
AcDbLayerTableRecord
2
0
70
0
62
7
6
CONTINUOUS
290
1
370
-3
390
0
0
LAYER
5
42
100
AcDbSymbolTableRecord
100
AcDbLayerTableRecord
2
81
70
0
62
-3
6
CONTINUOUS
290
1
370
-3
390
0
0
LAYER
5
44
100
AcDbSymbolTableRecord
100
AcDbLayerTableRecord
2
80
70
0
62
-6
6
CONTINUOUS
290
1
370
-3
390
0
0
LAYER
5
57
100
AcDbSymbolTableRecord
100
AcDbLayerTableRecord
2
1
70
0
62
4
6
CONTINUOUS
290
1
370
-3
390
0
0
LAYER
5
62
100
AcDbSymbolTableRecord
100
AcDbLayerTableRecord
2
4
70
0
62
-2
6
CENTER
290
1
370
-3
390
0
0
LAYER
5
2FF
100
AcDbSymbolTableRecord
100
AcDbLayerTableRecord
2
2
70
0
62
7
6
CONTINUOUS
290
1
370
-3
390
0
0
LAYER
5
352
100
AcDbSymbolTableRecord
100
AcDbLayerTableRecord
2
SK1
70
0
62
4
6
CONTINUOUS
290
1
370
-3
390
0
0
LAYER
5
353
100
AcDbSymbolTableRecord
100
AcDbLayerTableRecord
2
SK4
70
0
62
2
6
CENTER
290
1
370
-3
390
0
0
LAYER
5
354
100
AcDbSymbolTableRecord
100
AcDbLayerTableRecord
2
SK6
70
0
62
5
6
CONTINUOUS
290
1
370
-3
390
0
0
LAYER
5
355
100
AcDbSymbolTableRecord
100
AcDbLayerTableRecord
2
SK2
70
0
62
7
6
CONTINUOUS
290
1
370
-3
390
0
0
ENDTAB
0
TABLE
2
STYLE
5
369
100
AcDbSymbolTable
0
STYLE
5
11
100
AcDbSymbolTableRecord
100
AcDbTextStyleTableRecord
2
Standard
3
txt
70
0
71
0
40
0
41
1
42
0
50
0
0
STYLE
5
2C3
100
AcDbSymbolTableRecord
100
AcDbTextStyleTableRecord
2
DEFAULT
3
simplex.shx
70
0
71
0
40
0
41
1
42
0
50
0
0
STYLE
5
2E6
100
AcDbSymbolTableRecord
100
AcDbTextStyleTableRecord
2
DWGDirectTextStyle
3
SIMPLEX
70
0
71
0
40
0
41
1
42
0
50
0
0
ENDTAB
0
TABLE
2
DIMSTYLE
5
36a
100
AcDbSymbolTable
100
AcDbDimStyleTable
0
DIMSTYLE
105
27
100
AcDbSymbolTableRecord
100
AcDbDimStyleTableRecord
2
Standard
70
0
3
<>
41
0.18
42
0.0625
44
0.18
140
0.18
147
0.09
73
0
74
0
77
1
271
2
275
0
278
52
280
0
340
11
0
ENDTAB
0
TABLE
2
VIEW
5
36b
100
AcDbSymbolTable
0
ENDTAB
0
TABLE
2
UCS
5
36c
100
AcDbSymbolTable
0
ENDTAB
0
TABLE
2
APPID
5
36d
100
AcDbSymbolTable
0
APPID
5
12
100
AcDbSymbolTableRecord
100
AcDbRegAppTableRecord
2
ACAD
70
0
0
ENDTAB
0
TABLE
2
BLOCK_RECORD
5
36e
100
AcDbSymbolTable
0
BLOCK_RECORD
5
1F
100
AcDbSymbolTableRecord
100
AcDbBlockTableRecord
2
*Model_Space
340
0
70
0
0
BLOCK_RECORD
5
1B
100
AcDbSymbolTableRecord
100
AcDbBlockTableRecord
2
*Paper_Space
340
0
70
0
0
BLOCK_RECORD
5
23
100
AcDbSymbolTableRecord
100
AcDbBlockTableRecord
2
*Paper_Space0
340
0
70
0
0
BLOCK_RECORD
5
2E8
100
AcDbSymbolTableRecord
100
AcDbBlockTableRecord
2
DimnDraft3D1
340
0
70
0
0
BLOCK_RECORD
5
2F3
100
AcDbSymbolTableRecord
100
AcDbBlockTableRecord
2
DimnDraft3D2
340
0
70
0
0
BLOCK_RECORD
5
2FD
100
AcDbSymbolTableRecord
100
AcDbBlockTableRecord
2
DimnDraft3D3
340
0
70
0
0
BLOCK_RECORD
5
308
100
AcDbSymbolTableRecord
100
AcDbBlockTableRecord
2
DimnDraft3D4
340
0
70
0
0
BLOCK_RECORD
5
312
100
AcDbSymbolTableRecord
100
AcDbBlockTableRecord
2
DimnDraft3D5
340
0
70
0
0
BLOCK_RECORD
5
31D
100
AcDbSymbolTableRecord
100
AcDbBlockTableRecord
2
DimnDraft3D6
340
0
70
0
0
BLOCK_RECORD
5
328
100
AcDbSymbolTableRecord
100
AcDbBlockTableRecord
2
DimnDraft3D7
340
0
70
0
0
ENDTAB
0
ENDSEC
0
SECTION
2
BLOCKS
0
BLOCK
5
20
100
AcDbEntity
8
0
100
AcDbBlockBegin
2
*Model_Space
70
0
10
0
20
0
30
0
3
*Model_Space
0
ENDBLK
5
21
100
AcDbEntity
8
0
100
AcDbBlockEnd
0
BLOCK
5
1C
100
AcDbEntity
8
0
100
AcDbBlockBegin
2
*Paper_Space
70
0
10
0
20
0
30
0
3
*Paper_Space
0
ENDBLK
5
1D
100
AcDbEntity
8
0
100
AcDbBlockEnd
0
BLOCK
5
24
100
AcDbEntity
8
0
100
AcDbBlockBegin
2
*Paper_Space0
70
0
10
0
20
0
30
0
3
*Paper_Space0
0
ENDBLK
5
25
100
AcDbEntity
8
0
100
AcDbBlockEnd
0
BLOCK
5
2F0
100
AcDbEntity
8
0
100
AcDbBlockBegin
2
DimnDraft3D1
70
0
10
0
20
0
30
0
3
DimnDraft3D1
0
MTEXT
5
2E9
100
AcDbEntity
8
SK2
62
256
6
ByLayer
370
-1
48
1
60
0
100
AcDbMText
10
46.607237
20
-60.5258
30
0
210
0
220
0
230
1
1
\W01.000;\fsimplex.shx,bigfont.shx;(249) 
40
4.5
41
0
44
1.084337
50
0
71
7
72
5
7
DEFAULT
0
LINE
5
2EB
100
AcDbEntity
8
SK2
62
256
6
ByLayer
370
-1
48
1
60
0
100
AcDbLine
10
-70
20
-21.5875
30
0
11
-70
21
-66.79455
31
0
39
0
210
0
220
0
230
1
0
LINE
5
2EC
100
AcDbEntity
8
SK2
62
256
6
ByLayer
370
-1
48
1
60
0
100
AcDbLine
10
179
20
-20.0875
30
0
11
179
21
-66.79455
31
0
39
0
210
0
220
0
230
1
0
LINE
5
2ED
100
AcDbEntity
8
SK2
62
256
6
ByLayer
370
-1
48
1
60
0
100
AcDbLine
10
-70
20
-63.61955
30
0
11
179
21
-63.61955
31
0
39
0
210
0
220
0
230
1
0
SOLID
5
2EE
100
AcDbEntity
8
SK2
62
256
6
ByLayer
370
-1
48
1
60
0
100
AcDbTrace
10
-70
20
-63.61955
30
0
11
-65.825003
21
-62.693975
31
0
12
-65.824997
22
-64.545125
32
0
13
-70
23
-63.61955
33
0
39
0
210
0
220
0
230
1
0
SOLID
5
2EF
100
AcDbEntity
8
SK2
62
256
6
ByLayer
370
-1
48
1
60
0
100
AcDbTrace
10
179
20
-63.61955
30
0
11
174.825003
21
-64.545125
31
0
12
174.824997
22
-62.693975
32
0
13
179
23
-63.61955
33
0
39
0
210
0
220
0
230
1
0
ENDBLK
5
2F1
100
AcDbEntity
8
0
100
AcDbBlockEnd
0
BLOCK
5
2FA
100
AcDbEntity
8
0
100
AcDbBlockBegin
2
DimnDraft3D2
70
0
10
0
20
0
30
0
3
DimnDraft3D2
0
MTEXT
5
2F4
100
AcDbEntity
8
SK2
62
256
6
ByLayer
370
-1
48
1
60
0
100
AcDbMText
10
-36.503947
20
-50.5258
30
0
210
0
220
0
230
1
1
\W01.000;\fsimplex.shx,bigfont.shx;70 
40
4.5
41
0
44
1.084337
50
0
71
7
72
5
7
DEFAULT
0
LINE
5
2F5
100
AcDbEntity
8
SK2
62
256
6
ByLayer
370
-1
48
1
60
0
100
AcDbLine
10
-70
20
-21.5875
30
0
11
-70
21
-54.8258
31
0
39
0
210
0
220
0
230
1
0
LINE
5
2F6
100
AcDbEntity
8
SK2
62
256
6
ByLayer
370
-1
48
1
60
0
100
AcDbLine
10
0
20
-26.3375
30
0
11
0
21
-54.8258
31
0
39
0
210
0
220
0
230
1
0
LINE
5
2F7
100
AcDbEntity
8
SK2
62
256
6
ByLayer
370
-1
48
1
60
0
100
AcDbLine
10
-70
20
-51.6508
30
0
11
0
21
-51.6508
31
0
39
0
210
0
220
0
230
1
0
SOLID
5
2F8
100
AcDbEntity
8
SK2
62
256
6
ByLayer
370
-1
48
1
60
0
100
AcDbTrace
10
-70
20
-51.6508
30
0
11
-65.825003
21
-50.725225
31
0
12
-65.824997
22
-52.576375
32
0
13
-70
23
-51.6508
33
0
39
0
210
0
220
0
230
1
0
SOLID
5
2F9
100
AcDbEntity
8
SK2
62
256
6
ByLayer
370
-1
48
1
60
0
100
AcDbTrace
10
0
20
-51.6508
30
0
11
-4.174997
21
-52.576375
31
0
12
-4.175003
22
-50.725225
32
0
13
0
23
-51.6508
33
0
39
0
210
0
220
0
230
1
0
ENDBLK
5
2FB
100
AcDbEntity
8
0
100
AcDbBlockEnd
0
BLOCK
5
305
100
AcDbEntity
8
0
100
AcDbBlockBegin
2
DimnDraft3D3
70
0
10
0
20
0
30
0
3
DimnDraft3D3
0
MTEXT
5
2FE
100
AcDbEntity
8
2
62
256
6
ByLayer
370
-1
48
1
60
0
100
AcDbMText
10
86.906579
20
-50.5258
30
0
210
0
220
0
230
1
1
\W01.000;\fsimplex.shx,bigfont.shx;179 
40
4.5
41
0
44
1.084337
50
0
71
7
72
5
7
DEFAULT
0
LINE
5
300
100
AcDbEntity
8
2
62
256
6
ByLayer
370
-1
48
1
60
0
100
AcDbLine
10
0
20
-26.3375
30
0
11
0
21
-54.8258
31
0
39
0
210
0
220
0
230
1
0
LINE
5
301
100
AcDbEntity
8
2
62
256
6
ByLayer
370
-1
48
1
60
0
100
AcDbLine
10
179
20
-20.0875
30
0
11
179
21
-54.8258
31
0
39
0
210
0
220
0
230
1
0
LINE
5
302
100
AcDbEntity
8
2
62
256
6
ByLayer
370
-1
48
1
60
0
100
AcDbLine
10
0
20
-51.6508
30
0
11
179
21
-51.6508
31
0
39
0
210
0
220
0
230
1
0
SOLID
5
303
100
AcDbEntity
8
2
62
256
6
ByLayer
370
-1
48
1
60
0
100
AcDbTrace
10
0
20
-51.6508
30
0
11
4.174997
21
-50.725225
31
0
12
4.175003
22
-52.576375
32
0
13
0
23
-51.6508
33
0
39
0
210
0
220
0
230
1
0
SOLID
5
304
100
AcDbEntity
8
2
62
256
6
ByLayer
370
-1
48
1
60
0
100
AcDbTrace
10
179
20
-51.6508
30
0
11
174.825003
21
-52.576375
31
0
12
174.824997
22
-50.725225
32
0
13
179
23
-51.6508
33
0
39
0
210
0
220
0
230
1
0
ENDBLK
5
306
100
AcDbEntity
8
0
100
AcDbBlockEnd
0
BLOCK
5
30F
100
AcDbEntity
8
0
100
AcDbBlockBegin
2
DimnDraft3D4
70
0
10
0
20
0
30
0
3
DimnDraft3D4
0
MTEXT
5
309
100
AcDbEntity
8
SK2
62
256
6
ByLayer
370
-1
48
1
60
0
100
AcDbMText
10
100.406579
20
-40.5258
30
0
210
0
220
0
230
1
1
\W01.000;\fsimplex.shx,bigfont.shx;152 
40
4.5
41
0
44
1.084337
50
0
71
7
72
5
7
DEFAULT
0
LINE
5
30A
100
AcDbEntity
8
SK2
62
256
6
ByLayer
370
-1
48
1
60
0
100
AcDbLine
10
27
20
-11.5875
30
0
11
27
21
-44.8258
31
0
39
0
210
0
220
0
230
1
0
LINE
5
30B
100
AcDbEntity
8
SK2
62
256
6
ByLayer
370
-1
48
1
60
0
100
AcDbLine
10
179
20
-20.0875
30
0
11
179
21
-44.8258
31
0
39
0
210
0
220
0
230
1
0
LINE
5
30C
100
AcDbEntity
8
SK2
62
256
6
ByLayer
370
-1
48
1
60
0
100
AcDbLine
10
27
20
-41.6508
30
0
11
179
21
-41.6508
31
0
39
0
210
0
220
0
230
1
0
SOLID
5
30D
100
AcDbEntity
8
SK2
62
256
6
ByLayer
370
-1
48
1
60
0
100
AcDbTrace
10
27
20
-41.6508
30
0
11
31.174997
21
-40.725225
31
0
12
31.175003
22
-42.576375
32
0
13
27
23
-41.6508
33
0
39
0
210
0
220
0
230
1
0
SOLID
5
30E
100
AcDbEntity
8
SK2
62
256
6
ByLayer
370
-1
48
1
60
0
100
AcDbTrace
10
179
20
-41.6508
30
0
11
174.825003
21
-42.576375
31
0
12
174.824997
22
-40.725225
32
0
13
179
23
-41.6508
33
0
39
0
210
0
220
0
230
1
0
ENDBLK
5
310
100
AcDbEntity
8
0
100
AcDbBlockEnd
0
BLOCK
5
31A
100
AcDbEntity
8
0
100
AcDbBlockBegin
2
DimnDraft3D5
70
0
10
0
20
0
30
0
3
DimnDraft3D5
0
MTEXT
5
313
100
AcDbEntity
8
SK2
62
256
6
ByLayer
370
-1
48
1
60
0
100
AcDbMText
10
-80.975
20
5.009211
30
0
210
0
220
0
230
1
1
\W01.000;\fsimplex.shx,bigfont.shx;40 
40
4.5
41
0
44
1.084337
50
90
71
7
72
5
7
DEFAULT
0
MTEXT
5
314
100
AcDbEntity
8
SK2
62
256
6
ByLayer
370
-1
48
1
60
0
100
AcDbMText
10
-80.975
20
-8.490789
30
0
210
0
220
0
230
1
1
\W01.000;\fsimplex.shx,bigfont.shx;%%c 
40
4.5
41
0
44
1.084337
50
90
71
7
72
5
7
DEFAULT
0
LINE
5
315
100
AcDbEntity
8
SK2
62
256
6
ByLayer
370
-1
48
1
60
0
100
AcDbLine
10
-71.5875
20
20
30
0
11
-81.9
21
20
31
0
39
0
210
0
220
0
230
1
0
LINE
5
316
100
AcDbEntity
8
SK2
62
256
6
ByLayer
370
-1
48
1
60
0
100
AcDbLine
10
-71.5875
20
-20
30
0
11
-81.9
21
-20
31
0
39
0
210
0
220
0
230
1
0
LINE
5
317
100
AcDbEntity
8
SK2
62
256
6
ByLayer
370
-1
48
1
60
0
100
AcDbLine
10
-78.725
20
20
30
0
11
-78.725
21
-20
31
0
39
0
210
0
220
0
230
1
0
SOLID
5
318
100
AcDbEntity
8
SK2
62
256
6
ByLayer
370
-1
48
1
60
0
100
AcDbTrace
10
-78.725
20
20
30
0
11
-77.799425
21
15.825003
31
0
12
-79.650575
22
15.824997
32
0
13
-78.725
23
20
33
0
39
0
210
0
220
0
230
1
0
SOLID
5
319
100
AcDbEntity
8
SK2
62
256
6
ByLayer
370
-1
48
1
60
0
100
AcDbTrace
10
-78.725
20
-20
30
0
11
-79.650575
21
-15.825003
31
0
12
-77.799425
22
-15.824997
32
0
13
-78.725
23
-20
33
0
39
0
210
0
220
0
230
1
0
ENDBLK
5
31B
100
AcDbEntity
8
0
100
AcDbBlockEnd
0
BLOCK
5
325
100
AcDbEntity
8
0
100
AcDbBlockBegin
2
DimnDraft3D6
70
0
10
0
20
0
30
0
3
DimnDraft3D6
0
MTEXT
5
31E
100
AcDbEntity
8
SK2
62
256
6
ByLayer
370
-1
48
1
60
0
100
AcDbMText
10
-90.975
20
2.475
30
0
210
0
220
0
230
1
1
\W01.000;\fsimplex.shx,bigfont.shx;49.5 
40
4.5
41
0
44
1.084337
50
90
71
7
72
5
7
DEFAULT
0
MTEXT
5
31F
100
AcDbEntity
8
SK2
62
256
6
ByLayer
370
-1
48
1
60
0
100
AcDbMText
10
-90.975
20
-11.025
30
0
210
0
220
0
230
1
1
\W01.000;\fsimplex.shx,bigfont.shx;%%c 
40
4.5
41
0
44
1.084337
50
90
71
7
72
5
7
DEFAULT
0
LINE
5
320
100
AcDbEntity
8
SK2
62
256
6
ByLayer
370
-1
48
1
60
0
100
AcDbLine
10
-1.5875
20
-24.75
30
0
11
-91.9
21
-24.75
31
0
39
0
210
0
220
0
230
1
0
LINE
5
321
100
AcDbEntity
8
SK2
62
256
6
ByLayer
370
-1
48
1
60
0
100
AcDbLine
10
-1.5875
20
24.75
30
0
11
-91.9
21
24.75
31
0
39
0
210
0
220
0
230
1
0
LINE
5
322
100
AcDbEntity
8
SK2
62
256
6
ByLayer
370
-1
48
1
60
0
100
AcDbLine
10
-88.725
20
-24.75
30
0
11
-88.725
21
24.75
31
0
39
0
210
0
220
0
230
1
0
SOLID
5
323
100
AcDbEntity
8
SK2
62
256
6
ByLayer
370
-1
48
1
60
0
100
AcDbTrace
10
-88.725
20
-24.75
30
0
11
-89.650575
21
-20.575003
31
0
12
-87.799425
22
-20.574997
32
0
13
-88.725
23
-24.75
33
0
39
0
210
0
220
0
230
1
0
SOLID
5
324
100
AcDbEntity
8
SK2
62
256
6
ByLayer
370
-1
48
1
60
0
100
AcDbTrace
10
-88.725
20
24.75
30
0
11
-87.799425
21
20.575003
31
0
12
-89.650575
22
20.574997
32
0
13
-88.725
23
24.75
33
0
39
0
210
0
220
0
230
1
0
ENDBLK
5
326
100
AcDbEntity
8
0
100
AcDbBlockEnd
0
BLOCK
5
330
100
AcDbEntity
8
0
100
AcDbBlockBegin
2
DimnDraft3D7
70
0
10
0
20
0
30
0
3
DimnDraft3D7
0
MTEXT
5
329
100
AcDbEntity
8
2
62
256
6
ByLayer
370
-1
48
1
60
0
100
AcDbMText
10
203.725
20
5.246053
30
0
210
0
220
0
230
1
1
\W01.000;\fsimplex.shx,bigfont.shx;37 
40
4.5
41
0
44
1.084337
50
90
71
7
72
5
7
DEFAULT
0
MTEXT
5
32A
100
AcDbEntity
8
2
62
256
6
ByLayer
370
-1
48
1
60
0
100
AcDbMText
10
203.725
20
-8.253947
30
0
210
0
220
0
230
1
1
\W01.000;\fsimplex.shx,bigfont.shx;%%c 
40
4.5
41
0
44
1.084337
50
90
71
7
72
5
7
DEFAULT
0
LINE
5
32B
100
AcDbEntity
8
2
62
256
6
ByLayer
370
-1
48
1
60
0
100
AcDbLine
10
180.5875
20
18.5
30
0
11
209.15
21
18.5
31
0
39
0
210
0
220
0
230
1
0
LINE
5
32C
100
AcDbEntity
8
2
62
256
6
ByLayer
370
-1
48
1
60
0
100
AcDbLine
10
180.5875
20
-18.5
30
0
11
209.15
21
-18.5
31
0
39
0
210
0
220
0
230
1
0
LINE
5
32D
100
AcDbEntity
8
2
62
256
6
ByLayer
370
-1
48
1
60
0
100
AcDbLine
10
205.975
20
18.5
30
0
11
205.975
21
-18.5
31
0
39
0
210
0
220
0
230
1
0
SOLID
5
32E
100
AcDbEntity
8
2
62
256
6
ByLayer
370
-1
48
1
60
0
100
AcDbTrace
10
205.975
20
18.5
30
0
11
206.900575
21
14.325003
31
0
12
205.049425
22
14.324997
32
0
13
205.975
23
18.5
33
0
39
0
210
0
220
0
230
1
0
SOLID
5
32F
100
AcDbEntity
8
2
62
256
6
ByLayer
370
-1
48
1
60
0
100
AcDbTrace
10
205.975
20
-18.5
30
0
11
205.049425
21
-14.325003
31
0
12
206.900575
22
-14.324997
32
0
13
205.975
23
-18.5
33
0
39
0
210
0
220
0
230
1
0
ENDBLK
5
331
100
AcDbEntity
8
0
100
AcDbBlockEnd
0
ENDSEC
0
SECTION
2
ENTITIES
0
ARC
5
104
100
AcDbEntity
8
SK1
62
256
6
ByLayer
370
-1
48
1
60
0
100
AcDbCircle
39
0
10
1.383773
20
20.15
30
0
40
0.4
210
0
220
0
230
-1
100
AcDbArc
50
270
51
295
0
ARC
5
105
100
AcDbEntity
8
SK1
62
256
6
ByLayer
370
-1
48
1
60
0
100
AcDbCircle
39
0
10
1.383773
20
-20.15
30
0
40
0.4
210
0
220
0
230
-1
100
AcDbArc
50
65
51
90
0
ARC
5
106
100
AcDbEntity
8
SK1
62
256
6
ByLayer
370
-1
48
1
60
0
100
AcDbCircle
39
0
10
0.15
20
20.15
30
0
40
0.4
210
0
220
0
230
-1
100
AcDbArc
50
247.975687
51
270
0
ARC
5
107
100
AcDbEntity
8
SK1
62
256
6
ByLayer
370
-1
48
1
60
0
100
AcDbCircle
39
0
10
0.15
20
-20.15
30
0
40
0.4
210
0
220
0
230
-1
100
AcDbArc
50
90
51
112.024313
0
ARC
5
108
100
AcDbEntity
8
SK1
62
256
6
ByLayer
370
-1
48
1
60
0
100
AcDbCircle
39
0
10
67.894506
20
20.396
30
0
40
0.8
210
0
220
0
230
-1
100
AcDbArc
50
250.982048
51
321
0
ARC
5
109
100
AcDbEntity
8
SK1
62
256
6
ByLayer
370
-1
48
1
60
0
100
AcDbCircle
39
0
10
67.894506
20
-20.396
30
0
40
0.8
210
0
220
0
230
-1
100
AcDbArc
50
39
51
109.017952
0
ELLIPSE
5
10A
100
AcDbEntity
8
1
62
256
6
ByLayer
370
-1
48
1
60
0
100
AcDbEllipse
10
169.176381
20
8.713631
30
0
11
-1.09330676022895E-15
21
-1.02
31
0
210
0
220
0
230
1
40
0.996195
41
0.920472169598896
42
3.03460218402553
0
ELLIPSE
5
10B
100
AcDbEntity
8
1
62
256
6
ByLayer
370
-1
48
1
60
0
100
AcDbEllipse
10
172.611652
20
11.770248
30
0
11
2.34290668463255E-15
21
2
31
0
210
0
220
0
230
1
40
0.996195
41
0.0503637830432939
42
1.49510350031179
0
ELLIPSE
5
10C
100
AcDbEntity
8
1
62
256
6
ByLayer
370
-1
48
1
60
0
100
AcDbEllipse
10
14.7
20
5.738327
30
0
11
-9
21
9.09575149574127E-15
31
0
210
0
220
0
230
1
40
0.835196
41
-1.73811909091007
42
-0.131482417993979
0
ELLIPSE
5
10D
100
AcDbEntity
8
1
62
256
6
ByLayer
370
-1
48
1
60
0
100
AcDbEllipse
10
167.53845
20
7.082874
30
0
11
2.46005201886418E-15
21
2.1
31
0
210
0
220
0
230
1
40
0.996195
41
1.60570291183478
42
2.05006495228011
0
ELLIPSE
5
10E
100
AcDbEntity
8
1
62
256
6
ByLayer
370
-1
48
1
60
0
100
AcDbEllipse
10
173.021284
20
11.770248
30
0
11
2.05004334905348E-15
21
1.75
31
0
210
0
220
0
230
1
40
0.996195
41
0.117809954735436
42
1.57079669158491
0
ELLIPSE
5
10F
100
AcDbEntity
8
1
62
256
6
ByLayer
370
-1
48
1
60
0
100
AcDbEllipse
10
173.021284
20
11.770248
30
0
11
2.05004334905348E-15
21
1.75
31
0
210
0
220
0
230
1
40
0.996195
41
1.57079612015634
42
2.93090943872902
0
ELLIPSE
5
110
100
AcDbEntity
8
1
62
256
6
ByLayer
370
-1
48
1
60
0
100
AcDbEllipse
10
166.599103
20
0
30
0
11
-94.6084060121521
21
-1.07200755567719E-13
31
0
210
0
220
0
230
-1
40
0.189201
41
1.37743449666926
42
1.51837209145762
0
ELLIPSE
5
111
100
AcDbEntity
8
1
62
256
6
ByLayer
370
-1
48
1
60
0
100
AcDbEllipse
10
177.573333
20
0
30
0
11
-1.1048964396847
21
17.8995207226825
31
0
210
0
220
0
230
-1
40
0.118552
41
-2.03149011097114
42
-1.48211106328226
0
ELLIPSE
5
112
100
AcDbEntity
8
1
62
256
6
ByLayer
370
-1
48
1
60
0
100
AcDbEllipse
10
167.977292
20
7.082874
30
0
11
-1.83236116208179
21
-1.63166900511886
31
0
210
0
220
0
230
-1
40
0.721468
41
-1.30152588459509
42
-0.0906202832452951
0
ELLIPSE
5
113
100
AcDbEntity
8
1
62
256
6
ByLayer
370
-1
48
1
60
0
100
AcDbEllipse
10
177.618467
20
-9.113855
30
0
11
-0.076693151564341
21
-0.877709776620697
31
0
210
0
220
0
230
-1
40
0.115977
41
0.0117126501966308
42
1.58250897700202
0
ELLIPSE
5
114
100
AcDbEntity
8
1
62
256
6
ByLayer
370
-1
48
1
60
0
100
AcDbEllipse
10
166.087499
20
0.000118
30
0
11
-0.579568749375693
21
17.8998106796104
31
0
210
0
220
0
230
-1
40
0.087398
41
0.0173090683235806
42
0.0270776143285073
0
ELLIPSE
5
115
100
AcDbEntity
8
1
62
256
6
ByLayer
370
-1
48
1
60
0
100
AcDbEllipse
10
172.098144
20
-3.116268
30
0
11
1.85
21
0
31
0
210
0
220
0
230
1
40
0.997564
41
0.0645990465151623
42
3.06226726543586
0
ELLIPSE
5
116
100
AcDbEntity
8
1
62
256
6
ByLayer
370
-1
48
1
60
0
100
AcDbEllipse
10
158.961087
20
7.306333
30
0
11
-0.313595748497236
21
-0.735973984950867
31
0
210
0
220
0
230
1
40
0.080227
41
0.0341712377316007
42
1.60496756452655
0
ELLIPSE
5
117
100
AcDbEntity
8
1
62
256
6
ByLayer
370
-1
48
1
60
0
100
AcDbEllipse
10
164.947325
20
21.298006
30
0
11
1.78060908032074E-14
21
15.2
31
0
210
0
220
0
230
1
40
0.996195
41
2.7401669256311
42
-3.1066860685499
0
ELLIPSE
5
118
100
AcDbEntity
8
1
62
256
6
ByLayer
370
-1
48
1
60
0
100
AcDbEllipse
10
167.735743
20
10.430833
30
0
11
-2.25092568282431E-15
21
-2.1
31
0
210
0
220
0
230
1
40
0.996195
41
-2.15719865040108
42
-1.53588974175501
0
ELLIPSE
5
14E
100
AcDbEntity
8
1
62
256
6
ByLayer
370
-1
48
1
60
0
100
AcDbEllipse
10
164.8776
20
21.298006
30
0
11
-1.71499099643757E-14
21
-16
31
0
210
0
220
0
230
1
40
0.996195
41
-0.401425727958692
42
-6.79213922487711E-06
0
ELLIPSE
5
14F
100
AcDbEntity
8
1
62
256
6
ByLayer
370
-1
48
1
60
0
100
AcDbEllipse
10
172.098144
20
-3.688271
30
0
11
-1.75
21
1.76861834639414E-15
31
0
210
0
220
0
230
1
40
0.997564
41
-2.00728153348336
42
-1.13440943792853
0
ELLIPSE
5
150
100
AcDbEntity
8
1
62
256
6
ByLayer
370
-1
48
1
60
0
100
AcDbEllipse
10
166.557947
20
7.037504
30
0
11
-0.799516360141551
21
-0.0278134835287917
31
0
210
0
220
0
230
1
40
0.003042
41
0.087213571465873
42
1.03850214476361
0
ELLIPSE
5
151
100
AcDbEntity
8
1
62
256
6
ByLayer
370
-1
48
1
60
0
100
AcDbEllipse
10
168.497416
20
-3.7E-05
30
0
11
-204.59814917781
21
7.63516812436493E-07
31
0
210
0
220
0
230
-1
40
0.087489
41
1.54537196720168
42
1.55631708657148
0
ELLIPSE
5
152
100
AcDbEntity
8
1
62
256
6
ByLayer
370
-1
48
1
60
0
100
AcDbEllipse
10
176.636825
20
-10.202406
30
0
11
-0.202193694693927
21
-2.51164632760082
31
0
210
0
220
0
230
-1
40
0.125621
41
-2.32033768265632
42
2.42543691540782
0
ELLIPSE
5
153
100
AcDbEntity
8
1
62
256
6
ByLayer
370
-1
48
1
60
0
100
AcDbEllipse
10
167.852211
20
7.082874
30
0
11
-2.25092568282431E-15
21
-2.1
31
0
210
0
220
0
230
1
40
0.996195
41
-1.535889741755
42
-0.132996608383597
0
ELLIPSE
5
154
100
AcDbEntity
8
1
62
256
6
ByLayer
370
-1
48
1
60
0
100
AcDbEllipse
10
177.123038
20
6.467977
30
0
11
-0.047495132342734
21
0.803535541863668
31
0
210
0
220
0
230
-1
40
0.117428
41
2.37613983646839
42
-3.13301275648625
0
ELLIPSE
5
155
100
AcDbEntity
8
1
62
256
6
ByLayer
370
-1
48
1
60
0
100
AcDbEllipse
10
174.23058
20
0
30
0
11
-42.7436008218481
21
17.3360787798907
31
0
210
0
220
0
230
-1
40
0.104287
41
-1.2021305035656
42
-0.638785585543074
0
ELLIPSE
5
156
100
AcDbEntity
8
1
62
256
6
ByLayer
370
-1
48
1
60
0
100
AcDbEllipse
10
160.144996
20
5.312877
30
0
11
-16.8190772751787
21
-0.529094560047412
31
0
210
0
220
0
230
-1
40
0.01063
41
-1.89666887185051
42
-1.88749677662012
0
ELLIPSE
5
157
100
AcDbEntity
8
1
62
256
6
ByLayer
370
-1
48
1
60
0
100
AcDbEllipse
10
166.441478
20
10.385463
30
0
11
-0.799516360141551
21
-0.0278134835287917
31
0
210
0
220
0
230
1
40
0.003042
41
0.087213571465873
42
1.03850214476361
0
ELLIPSE
5
158
100
AcDbEntity
8
1
62
256
6
ByLayer
370
-1
48
1
60
0
100
AcDbEllipse
10
140.106201
20
14.259405
30
0
11
-31.8068285793132
21
13.6703263411005
31
0
210
0
220
0
230
-1
40
0.008892
41
2.16366545113354
42
2.18873634885339
0
ELLIPSE
5
159
100
AcDbEntity
8
1
62
256
6
ByLayer
370
-1
48
1
60
0
100
AcDbEllipse
10
172.098144
20
-3.321148
30
0
11
1.425
21
0
31
0
210
0
220
0
230
1
40
0.997564
41
0.0721587694856026
42
3.06953293300307
0
ELLIPSE
5
15A
100
AcDbEntity
8
1
62
256
6
ByLayer
370
-1
48
1
60
0
100
AcDbEllipse
10
172.098144
20
-3.321148
30
0
11
1.425
21
0
31
0
210
0
220
0
230
1
40
0.997564
41
3.14159237282315
42
-3.12402563416454E-16
0
ELLIPSE
5
15B
100
AcDbEntity
8
1
62
256
6
ByLayer
370
-1
48
1
60
0
100
AcDbEllipse
10
178.851769
20
0
30
0
11
-1.45199372412468
21
-17.89904858728
31
0
210
0
220
0
230
-1
40
0.127103
41
0.043300958979932
42
1.09247431843772
0
ELLIPSE
5
15C
100
AcDbEntity
8
1
62
256
6
ByLayer
370
-1
48
1
60
0
100
AcDbEllipse
10
161.543345
20
11.45
30
0
11
1.1714533423164E-16
21
0.100000000000011
31
0
210
0
220
0
230
1
40
0.982568
41
2.99802160331079
42
-1.5707963267949
0
ELLIPSE
5
15D
100
AcDbEntity
8
1
62
256
6
ByLayer
370
-1
48
1
60
0
100
AcDbEllipse
10
75.91216
20
23.704484
30
0
11
-89.0448387961573
21
12.9874985093695
31
0
210
0
220
0
230
-1
40
0.098895
41
-2.8599739401318
42
-2.72410504418857
0
ELLIPSE
5
15E
100
AcDbEntity
8
1
62
256
6
ByLayer
370
-1
48
1
60
0
100
AcDbEllipse
10
177.108824
20
1.338191
30
0
11
-0.0481358117820533
21
0.802111458596414
31
0
210
0
220
0
230
-1
40
0.118363
41
-1.48977616035657
42
0.0810201664337809
0
ELLIPSE
5
15F
100
AcDbEntity
8
1
62
256
6
ByLayer
370
-1
48
1
60
0
100
AcDbEllipse
10
176.889192
20
-10.255324
30
0
11
-0.152871755328604
21
2.58519375813212
31
0
210
0
220
0
230
-1
40
0.114035
41
-0.701083278428991
42
0.836327430685562
0
ELLIPSE
5
160
100
AcDbEntity
8
1
62
256
6
ByLayer
370
-1
48
1
60
0
100
AcDbEllipse
10
138.366137
20
14.51193
30
0
11
-24.2917709431593
21
12.3497633392855
31
0
210
0
220
0
230
-1
40
0.089401
41
-2.49847439341958
42
-1.69026887337489
0
ELLIPSE
5
161
100
AcDbEntity
8
1
62
256
6
ByLayer
370
-1
48
1
60
0
100
AcDbEllipse
10
159.874751
20
11.351029
30
0
11
-1.29551402244832
21
-8.80520547276665
31
0
210
0
220
0
230
1
40
0.18399
41
1.30181832782998
42
1.59786027235809
0
ELLIPSE
5
162
100
AcDbEntity
8
1
62
256
6
ByLayer
370
-1
48
1
60
0
100
AcDbEllipse
10
165.406054
20
6.107266
30
0
11
0.0280261150489094
21
-0.799508934831416
31
0
210
0
220
0
230
1
40
0.087103
41
0.0631426160417556
42
1.56774302595899
0
ELLIPSE
5
163
100
AcDbEntity
8
1
62
256
6
ByLayer
370
-1
48
1
60
0
100
AcDbEllipse
10
164.314483
20
0
30
0
11
-96.9861057669793
21
1.29243992058178
31
0
210
0
220
0
230
-1
40
0.184081
41
-1.56373370712304
42
-1.4564679185652
0
ELLIPSE
5
164
100
AcDbEntity
8
1
62
256
6
ByLayer
370
-1
48
1
60
0
100
AcDbEllipse
10
69.340647
20
0
30
0
11
-318.344993288626
21
-17.3103849518084
31
0
210
0
220
0
230
-1
40
0.014313
41
-1.90954214458443
42
-1.87266181128019
0
ELLIPSE
5
165
100
AcDbEntity
8
1
62
256
6
ByLayer
370
-1
48
1
60
0
100
AcDbEllipse
10
172.411193
20
11.770248
30
0
11
-2.14373874554696E-15
21
-2
31
0
210
0
220
0
230
1
40
0.996195
41
1.57079654872778
42
-2.28776637790648
0
ELLIPSE
5
166
100
AcDbEntity
8
1
62
256
6
ByLayer
370
-1
48
1
60
0
100
AcDbEllipse
10
172.411193
20
11.770248
30
0
11
-2.14373874554696E-15
21
-2
31
0
210
0
220
0
230
1
40
0.996195
41
1.43845662458553
42
1.57079604872776
0
ELLIPSE
5
167
100
AcDbEntity
8
1
62
256
6
ByLayer
370
-1
48
1
60
0
100
AcDbEllipse
10
172.098144
20
-3.116268
30
0
11
-1.425
21
1.44016065349237E-15
31
0
210
0
220
0
230
1
40
0.997564
41
0
42
6.28318530717959
0
ELLIPSE
5
168
100
AcDbEntity
8
1
62
256
6
ByLayer
370
-1
48
1
60
0
100
AcDbEllipse
10
172.611652
20
11.770248
30
0
11
2.05004334905348E-15
21
1.75
31
0
210
0
220
0
230
1
40
0.996195
41
-1.92834881270219
42
0
0
ELLIPSE
5
169
100
AcDbEntity
8
1
62
256
6
ByLayer
370
-1
48
1
60
0
100
AcDbEllipse
10
172.611652
20
11.770248
30
0
11
2.05004334905348E-15
21
1.75
31
0
210
0
220
0
230
1
40
0.996195
41
0
42
1.57079639567442
0
ELLIPSE
5
16A
100
AcDbEntity
8
1
62
256
6
ByLayer
370
-1
48
1
60
0
100
AcDbEllipse
10
172.611652
20
11.770248
30
0
11
2.05004334905348E-15
21
1.75
31
0
210
0
220
0
230
1
40
0.996195
41
1.57079612015634
42
2.65012947763562
0
ELLIPSE
5
16B
100
AcDbEntity
8
1
62
256
6
ByLayer
370
-1
48
1
60
0
100
AcDbEllipse
10
159.874751
20
11.351029
30
0
11
-1.29551402244832
21
-8.80520547276665
31
0
210
0
220
0
230
1
40
0.18399
41
0.254706059608161
42
0.934004993454309
0
ELLIPSE
5
16C
100
AcDbEntity
8
1
62
256
6
ByLayer
370
-1
48
1
60
0
100
AcDbEllipse
10
167.421982
20
10.430833
30
0
11
2.46005201886418E-15
21
2.1
31
0
210
0
220
0
230
1
40
0.996195
41
0.93911116205501
42
1.60570291183478
0
ELLIPSE
5
16D
100
AcDbEntity
8
1
62
256
6
ByLayer
370
-1
48
1
60
0
100
AcDbEllipse
10
166.519308
20
12.518039
30
0
11
-0.773306880641343
21
-0.824449232017834
31
0
210
0
220
0
230
-1
40
0.04503
41
-0.757075825397716
42
-0.704857686484454
0
ELLIPSE
5
16E
100
AcDbEntity
8
1
62
256
6
ByLayer
370
-1
48
1
60
0
100
AcDbEllipse
10
178.478759
20
-6.253894
30
0
11
-0.249846962761144
21
0.00874615338486086
31
0
210
0
220
0
230
1
40
0.069714
41
-3.01697920025202
42
-2.80709278034877
0
ELLIPSE
5
16F
100
AcDbEntity
8
1
62
256
6
ByLayer
370
-1
48
1
60
0
100
AcDbEllipse
10
181.027064
20
-4.092329
30
0
11
3.27626526203155
21
0
31
0
210
0
220
0
230
1
40
0.997564
41
-3.08923277602995
42
-2.67858589191473
0
ELLIPSE
5
170
100
AcDbEntity
8
1
62
256
6
ByLayer
370
-1
48
1
60
0
100
AcDbEllipse
10
172.34196
20
-4.116139
30
0
11
2
21
0
31
0
210
0
220
0
230
1
40
0.997564
41
1.22276661401008
42
2.5126848753598
0
ELLIPSE
5
171
100
AcDbEntity
8
1
62
256
6
ByLayer
370
-1
48
1
60
0
100
AcDbEllipse
10
178.023964
20
-6.105053
30
0
11
-0.39975514041783
21
0.0139938454157774
31
0
210
0
220
0
230
1
40
0.069714
41
0.45161904577827
42
1.5732367324931
0
ELLIPSE
5
172
100
AcDbEntity
8
1
62
256
6
ByLayer
370
-1
48
1
60
0
100
AcDbEllipse
10
176.631018
20
-0.535499
30
0
11
-0.92715143767036
21
9.37015452885427E-16
31
0
210
0
220
0
230
1
40
0.997564
41
-3.08923277602995
42
-2.66401252086409
0
ELLIPSE
5
173
100
AcDbEntity
8
1
62
256
6
ByLayer
370
-1
48
1
60
0
100
AcDbEllipse
10
181.027064
20
-4.092329
30
0
11
3.47626526203155
21
0
31
0
210
0
220
0
230
1
40
0.997564
41
-3.08923277602994
42
-2.67858589191472
0
ELLIPSE
5
174
100
AcDbEntity
8
1
62
256
6
ByLayer
370
-1
48
1
60
0
100
AcDbEllipse
10
177.574515
20
-8.351161
30
0
11
-0.183499052386941
21
0.355426641901102
31
0
210
0
220
0
230
1
40
0.032062
41
1.31694742633455
42
1.63281935779656
0
ELLIPSE
5
175
100
AcDbEntity
8
1
62
256
6
ByLayer
370
-1
48
1
60
0
100
AcDbEllipse
10
177.3936
20
-6.104901
30
0
11
-0.299809486263426
21
0.0106898057260548
31
0
210
0
220
0
230
1
40
0.071044
41
-2.68992827922788
42
-2.39152410038067
0
ELLIPSE
5
176
100
AcDbEntity
8
1
62
256
6
ByLayer
370
-1
48
1
60
0
100
AcDbEllipse
10
177.312176
20
1.284245
30
0
11
0.239505994938122
21
0.0716720195662172
31
0
210
0
220
0
230
1
40
0.554236
41
0.117880887624318
42
0.362140757013362
0
ELLIPSE
5
177
100
AcDbEntity
8
1
62
256
6
ByLayer
370
-1
48
1
60
0
100
AcDbEllipse
10
181.027064
20
-4.191739
30
0
11
2.78484942505676
21
0
31
0
210
0
220
0
230
1
40
0.997564
41
-3.08923277602994
42
-2.67858589191473
0
ELLIPSE
5
178
100
AcDbEntity
8
1
62
256
6
ByLayer
370
-1
48
1
60
0
100
AcDbEllipse
10
177.722394
20
-0.086578
30
0
11
0.239505994938122
21
0.0716720195662172
31
0
210
0
220
0
230
1
40
0.554236
41
0.117880887624335
42
0.362140757013264
0
ELLIPSE
5
179
100
AcDbEntity
8
1
62
256
6
ByLayer
370
-1
48
1
60
0
100
AcDbEllipse
10
178.538273
20
-8.850334
30
0
11
-0.244655809288996
21
-0.0514153185456071
31
0
210
0
220
0
230
1
40
0.879812
41
2.27069982083948
42
2.87768784125846
0
ELLIPSE
5
17A
100
AcDbEntity
8
1
62
256
6
ByLayer
370
-1
48
1
60
0
100
AcDbEllipse
10
181.027064
20
-4.350428
30
0
11
2.50000000000001
21
0
31
0
210
0
220
0
230
1
40
0.997564
41
-3.08923277602995
42
-2.67858589191473
0
ELLIPSE
5
17B
100
AcDbEntity
8
1
62
256
6
ByLayer
370
-1
48
1
60
0
100
AcDbEllipse
10
177.916802
20
-5.613284
30
0
11
-0.357711019788724
21
-0.179005101384599
31
0
210
0
220
0
230
1
40
0.062412
41
0.418624757056383
42
1.53957434280956
0
ELLIPSE
5
17C
100
AcDbEntity
8
1
62
256
6
ByLayer
370
-1
48
1
60
0
100
AcDbEllipse
10
177.240293
20
-7.734846
30
0
11
-0.927151437670361
21
9.37015452885428E-16
31
0
210
0
220
0
230
1
40
0.997564
41
2.0483764595206
42
3.10668606854992
0
ELLIPSE
5
17D
100
AcDbEntity
8
1
62
256
6
ByLayer
370
-1
48
1
60
0
100
AcDbEllipse
10
177.352811
20
-5.915375
30
0
11
-0.26845875855505
21
-0.133902557686854
31
0
210
0
220
0
230
1
40
0.065342
41
-2.72288428857893
42
-2.42324090310979
0
ELLIPSE
5
17E
100
AcDbEntity
8
1
62
256
6
ByLayer
370
-1
48
1
60
0
100
AcDbEllipse
10
177.335092
20
-7.732279
30
0
11
-0.299804926425985
21
0.0108169353658748
31
0
210
0
220
0
230
1
40
0.07194
41
-2.69458703470417
42
-2.40485831912958
0
ELLIPSE
5
17F
100
AcDbEntity
8
1
62
256
6
ByLayer
370
-1
48
1
60
0
100
AcDbEllipse
10
176.964759
20
1.568064
30
0
11
0.600000000000001
21
0
31
0
210
0
220
0
230
1
40
0.997564
41
0.349065850398916
42
1.23141424410143
0
ELLIPSE
5
180
100
AcDbEntity
8
1
62
256
6
ByLayer
370
-1
48
1
60
0
100
AcDbEllipse
10
177.000853
20
-6.097314
30
0
11
-1.02373473796844
21
1.03462630823541E-15
31
0
210
0
220
0
230
1
40
0.997564
41
3.10668606854993
42
-2.67858589191472
0
ELLIPSE
5
181
100
AcDbEntity
8
1
62
256
6
ByLayer
370
-1
48
1
60
0
100
AcDbEllipse
10
177.240293
20
-7.734846
30
0
11
-0.72715143767036
21
7.34887641868954E-16
31
0
210
0
220
0
230
1
40
0.997564
41
2.04837645952055
42
3.10668606854992
0
ELLIPSE
5
182
100
AcDbEntity
8
1
62
256
6
ByLayer
370
-1
48
1
60
0
100
AcDbEllipse
10
177.940607
20
-9.258874
30
0
11
-0.0592144354721258
21
0.242886085710395
31
0
210
0
220
0
230
1
40
0.512695
41
-2.92246623210482
42
-2.67820636271599
0
ELLIPSE
5
183
100
AcDbEntity
8
1
62
256
6
ByLayer
370
-1
48
1
60
0
100
AcDbEllipse
10
177.276808
20
-0.174189
30
0
11
-0.355060563388639
21
-0.184206395996833
31
0
210
0
220
0
230
1
40
0.061951
41
1.01222687071474
42
1.53866682760994
0
ELLIPSE
5
184
100
AcDbEntity
8
1
62
256
6
ByLayer
370
-1
48
1
60
0
100
AcDbEllipse
10
177.225844
20
1.646222
30
0
11
0.245905071924185
21
0.0450632400295533
31
0
210
0
220
0
230
1
40
0.870739
41
0.200409976058144
42
0.610992467133139
0
ELLIPSE
5
185
100
AcDbEntity
8
1
62
256
6
ByLayer
370
-1
48
1
60
0
100
AcDbEllipse
10
178.421797
20
-7.8811
30
0
11
-0.249846962761144
21
0.00874615338486086
31
0
210
0
220
0
230
1
40
0.069714
41
-3.01697920025202
42
-2.80709278034881
0
ELLIPSE
5
186
100
AcDbEntity
8
1
62
256
6
ByLayer
370
-1
48
1
60
0
100
AcDbEllipse
10
178.010012
20
-4.355156
30
0
11
0.249655711836595
21
0.0131158509965199
31
0
210
0
220
0
230
1
40
0.069661
41
0.118513377408017
42
0.328399797311197
0
ELLIPSE
5
187
100
AcDbEntity
8
1
62
256
6
ByLayer
370
-1
48
1
60
0
100
AcDbEllipse
10
177.798138
20
-0.30427
30
0
11
0.232434865925165
21
0.0920545115806413
31
0
210
0
220
0
230
1
40
0.206674
41
-0.318675503861261
42
-0.100220024639686
0
ELLIPSE
5
188
100
AcDbEntity
8
1
62
256
6
ByLayer
370
-1
48
1
60
0
100
AcDbEllipse
10
178.323962
20
-5.543524
30
0
11
-0.223569387367953
21
-0.111878188365375
31
0
210
0
220
0
230
1
40
0.062412
41
-3.05064158993541
42
-2.84075517003141
0
ELLIPSE
5
189
100
AcDbEntity
8
1
62
256
6
ByLayer
370
-1
48
1
60
0
100
AcDbEllipse
10
177.811622
20
-0.578872
30
0
11
0.249655711836595
21
0.0131158509965199
31
0
210
0
220
0
230
1
40
0.069661
41
0.118513377407884
42
0.328399797311088
0
ELLIPSE
5
18A
100
AcDbEntity
8
1
62
256
6
ByLayer
370
-1
48
1
60
0
100
AcDbEllipse
10
172.34196
20
-4.250376
30
0
11
2
21
0
31
0
210
0
220
0
230
1
40
0.997564
41
1.10721507969208
42
2.54645746397026
0
ELLIPSE
5
18B
100
AcDbEntity
8
1
62
256
6
ByLayer
370
-1
48
1
60
0
100
AcDbEllipse
10
177.810707
20
-0.376211
30
0
11
0.249753943357905
21
-0.0110890836941717
31
0
210
0
220
0
230
1
40
0.662171
41
0.158058401897145
42
0.427157403838316
0
ELLIPSE
5
18C
100
AcDbEntity
8
1
62
256
6
ByLayer
370
-1
48
1
60
0
100
AcDbEllipse
10
177.000853
20
-6.355413
30
0
11
1.99999999999999
21
0
31
0
210
0
220
0
230
1
40
0.997564
41
-0.0349065850398698
42
0.463006761675077
0
ELLIPSE
5
18D
100
AcDbEntity
8
1
62
256
6
ByLayer
370
-1
48
1
60
0
100
AcDbEllipse
10
177.000853
20
-6.097314
30
0
11
-1.22373473796845
21
1.2367541192519E-15
31
0
210
0
220
0
230
1
40
0.997564
41
3.10668606854992
42
-2.67858589191474
0
ELLIPSE
5
18E
100
AcDbEntity
8
1
62
256
6
ByLayer
370
-1
48
1
60
0
100
AcDbEllipse
10
177.967002
20
-7.732259
30
0
11
-0.39975514041783
21
0.0139938454157774
31
0
210
0
220
0
230
1
40
0.069714
41
0.446930345650327
42
1.57323673249303
0
ELLIPSE
5
18F
100
AcDbEntity
8
1
62
256
6
ByLayer
370
-1
48
1
60
0
100
AcDbEllipse
10
177.000853
20
-6.200284
30
0
11
1.72694386744699
21
0
31
0
210
0
220
0
230
1
40
0.997564
41
-0.0349065850398717
42
0.463006761675065
0
ELLIPSE
5
190
100
AcDbEntity
8
1
62
256
6
ByLayer
370
-1
48
1
60
0
100
AcDbEllipse
10
177.555563
20
-4.245917
30
0
11
-0.399449138938552
21
-0.0209853615944236
31
0
210
0
220
0
230
1
40
0.069661
41
0.898561908726667
42
1.56713665656312
0
ELLIPSE
5
191
100
AcDbEntity
8
1
62
256
6
ByLayer
370
-1
48
1
60
0
100
AcDbEllipse
10
176.631018
20
-0.535499
30
0
11
-0.72715143767036
21
7.34887641868954E-16
31
0
210
0
220
0
230
1
40
0.997564
41
-3.08923277602995
42
-2.66401252086407
0
ELLIPSE
5
192
100
AcDbEntity
8
1
62
256
6
ByLayer
370
-1
48
1
60
0
100
AcDbEllipse
10
177.357173
20
-0.469633
30
0
11
-0.399449138938552
21
-0.0209853615944236
31
0
210
0
220
0
230
1
40
0.069661
41
0.898558718456979
42
1.56713665656312
0
ELLIPSE
5
193
100
AcDbEntity
8
1
62
256
6
ByLayer
370
-1
48
1
60
0
100
AcDbEllipse
10
178.309261
20
-8.99624
30
0
11
0.600000000000001
21
0
31
0
210
0
220
0
230
1
40
0.997564
41
-1.22173047639601
42
-0.0349065850399371
0
ELLIPSE
5
194
100
AcDbEntity
8
1
62
256
6
ByLayer
370
-1
48
1
60
0
100
AcDbEllipse
10
181.027064
20
-4.195299
30
0
11
-2.773056132553
21
2.80255882949372E-15
31
0
210
0
220
0
230
1
40
0.997564
41
0.0523598775598451
42
0.46300676167507
0
ELLIPSE
5
195
100
AcDbEntity
8
1
62
256
6
ByLayer
370
-1
48
1
60
0
100
AcDbEllipse
10
177.000853
20
-6.196725
30
0
11
-1.71515057494323
21
1.7333981563846E-15
31
0
210
0
220
0
230
1
40
0.997564
41
3.10668606854993
42
-2.67858589191471
0
ELLIPSE
5
196
100
AcDbEntity
8
1
62
256
6
ByLayer
370
-1
48
1
60
0
100
AcDbEllipse
10
177.81981
20
-0.483778
30
0
11
0.500000000000012
21
0
31
0
210
0
220
0
230
1
40
0.997564
41
0.0523598775598338
42
0.349065850398894
0
ELLIPSE
5
197
100
AcDbEntity
8
1
62
256
6
ByLayer
370
-1
48
1
60
0
100
AcDbEllipse
10
178.333867
20
-9.203077
30
0
11
-0.0138692297638048
21
0.249614992469921
31
0
210
0
220
0
230
1
40
0.839027
41
-2.79146272521829
42
-2.38088023414342
0
ELLIPSE
5
198
100
AcDbEntity
8
1
62
256
6
ByLayer
370
-1
48
1
60
0
100
AcDbEllipse
10
172.449999
20
12.048111
30
0
11
-2.14373874554696E-15
21
-2
31
0
210
0
220
0
230
1
40
0.996195
41
-3.14159250506939
42
0
0
ELLIPSE
5
199
100
AcDbEntity
8
1
62
256
6
ByLayer
370
-1
48
1
60
0
100
AcDbEllipse
10
172.449999
20
12.048111
30
0
11
-2.14373874554696E-15
21
-2
31
0
210
0
220
0
230
1
40
0.996195
41
0
42
0.373555078115227
0
ELLIPSE
5
19A
100
AcDbEntity
8
1
62
256
6
ByLayer
370
-1
48
1
60
0
100
AcDbEllipse
10
172.26038
20
12.048111
30
0
11
4.18631474685054E-15
21
3.57360775340235
31
0
210
0
220
0
230
1
40
0.996195
41
-2.84631939108316
42
-1.79625641922174
0
ELLIPSE
5
19B
100
AcDbEntity
8
1
62
256
6
ByLayer
370
-1
48
1
60
0
100
AcDbEllipse
10
172.331671
20
12.048111
30
0
11
-2.71334196247261E-15
21
-2.53141103887668
31
0
210
0
220
0
230
1
40
0.996195
41
0
42
6.28318530717959
0
ELLIPSE
5
19C
100
AcDbEntity
8
1
62
256
6
ByLayer
370
-1
48
1
60
0
100
AcDbEllipse
10
173.143983
20
15.898141
30
0
11
-2.67967343193372E-16
21
-0.250000000000001
31
0
210
0
220
0
230
1
40
0.996195
41
-3.10668606855002
42
-0.225460092426749
0
ELLIPSE
5
19D
100
AcDbEntity
8
1
62
256
6
ByLayer
370
-1
48
1
60
0
100
AcDbEllipse
10
168.651409
20
16.114862
30
0
11
-0.844368655735352
21
1.40519245646133
31
0
210
0
220
0
230
-1
40
0.020508
41
1.58311883801805
42
2.22661994682836
0
ELLIPSE
5
19E
100
AcDbEntity
8
1
62
256
6
ByLayer
370
-1
48
1
60
0
100
AcDbEllipse
10
169.256166
20
9.459343
30
0
11
3.16292402425394E-16
21
0.27
31
0
210
0
220
0
230
1
40
0.996195
41
-0.106990469564315
42
0.820304748434638
0
ELLIPSE
5
19F
100
AcDbEntity
8
1
62
256
6
ByLayer
370
-1
48
1
60
0
100
AcDbEllipse
10
168.903418
20
15.181625
30
0
11
-0.622555845080018
21
0.581525140991044
31
0
210
0
220
0
230
-1
40
0.031444
41
0.960945087805633
42
1.60444619705852
0
ELLIPSE
5
1A0
100
AcDbEntity
8
1
62
256
6
ByLayer
370
-1
48
1
60
0
100
AcDbEllipse
10
176.193107
20
8.366775
30
0
11
-4.03443321277421E-16
21
-0.376392246597646
31
0
210
0
220
0
230
1
40
0.996195
41
0.0349065850399337
42
1.60570291183476
0
ELLIPSE
5
1A1
100
AcDbEntity
8
1
62
256
6
ByLayer
370
-1
48
1
60
0
100
AcDbEllipse
10
168.805961
20
9.008488
30
0
11
0.329692102348112
21
-0.306272946322855
31
0
210
0
220
0
230
1
40
0.05944
41
1.47029936263283
42
2.15039938434817
0
ELLIPSE
5
1A2
100
AcDbEntity
8
1
62
256
6
ByLayer
370
-1
48
1
60
0
100
AcDbEllipse
10
176.197029
20
8.366775
30
0
11
2.9286333557907E-16
21
0.250000000000001
31
0
210
0
220
0
230
1
40
0.996195
41
-3.10668606854979
42
-1.53588974175495
0
ELLIPSE
5
1A3
100
AcDbEntity
8
1
62
256
6
ByLayer
370
-1
48
1
60
0
100
AcDbEllipse
10
169.074471
20
8.603928
30
0
11
1.1948824091626E-15
21
1.02
31
0
210
0
220
0
230
1
40
0.996195
41
1.74759996643899
42
-2.42145532631398
0
ELLIPSE
5
1A4
100
AcDbEntity
8
1
62
256
6
ByLayer
370
-1
48
1
60
0
100
AcDbEllipse
10
176.025054
20
13.197566
30
0
11
-4.03443321277419E-16
21
-0.376392246597645
31
0
210
0
220
0
230
1
40
0.996195
41
-1.27552306428833
42
1.60570291183476
0
ELLIPSE
5
1A5
100
AcDbEntity
8
1
62
256
6
ByLayer
370
-1
48
1
60
0
100
AcDbEllipse
10
176.428495
20
8.375499
30
0
11
0.199879090035388
21
0.0069533708821979
31
0
210
0
220
0
230
1
40
0.003042
41
-1.48358275532896
42
-0.799501523532794
0
ELLIPSE
5
1A6
100
AcDbEntity
8
1
62
256
6
ByLayer
370
-1
48
1
60
0
100
AcDbEllipse
10
172.264302
20
12.048111
30
0
11
-3.96591667926188E-15
21
-3.7
31
0
210
0
220
0
230
1
40
0.996195
41
0.295273262506632
42
1.34533623436805
0
ELLIPSE
5
1A7
100
AcDbEntity
8
1
62
256
6
ByLayer
370
-1
48
1
60
0
100
AcDbEllipse
10
169.535828
20
8.040142
30
0
11
-0.297408541509673
21
0.337710170763466
31
0
210
0
220
0
230
1
40
0.065516
41
-2.27193125321725
42
-0.984929035630892
0
ELLIPSE
5
1A8
100
AcDbEntity
8
1
62
256
6
ByLayer
370
-1
48
1
60
0
100
AcDbEllipse
10
169.176381
20
8.713631
30
0
11
-5.14497298931271E-16
21
-0.48
31
0
210
0
220
0
230
1
40
0.996195
41
0.920472169598918
42
2.77549784972785
0
ELLIPSE
5
1A9
100
AcDbEntity
8
1
62
256
6
ByLayer
370
-1
48
1
60
0
100
AcDbEllipse
10
173.409383
20
8.269056
30
0
11
2.9286333557907E-16
21
0.250000000000001
31
0
210
0
220
0
230
1
40
0.996195
41
0.295273262506656
42
-3.10668606854989
0
ELLIPSE
5
1AA
100
AcDbEntity
8
1
62
256
6
ByLayer
370
-1
48
1
60
0
100
AcDbEllipse
10
176.028976
20
13.197566
30
0
11
-2.67967343193369E-16
21
-0.249999999999999
31
0
210
0
220
0
230
1
40
0.996195
41
-1.27552306428819
42
1.60570291183485
0
ELLIPSE
5
1AB
100
AcDbEntity
8
1
62
256
6
ByLayer
370
-1
48
1
60
0
100
AcDbEllipse
10
169.22479
20
9.459343
30
0
11
0.329692102348112
21
-0.306272946322855
31
0
210
0
220
0
230
1
40
0.05944
41
1.50689827555575
42
2.15039938434846
0
ELLIPSE
5
1AC
100
AcDbEntity
8
1
62
256
6
ByLayer
370
-1
48
1
60
0
100
AcDbEllipse
10
172.61336
20
12.048111
30
0
11
2.34290668463255E-15
21
2
31
0
210
0
220
0
230
1
40
0.996195
41
0.0349502378747951
42
1.57079654872776
0
ELLIPSE
5
1AD
100
AcDbEntity
8
1
62
256
6
ByLayer
370
-1
48
1
60
0
100
AcDbEllipse
10
172.61336
20
12.048111
30
0
11
2.34290668463255E-15
21
2
31
0
210
0
220
0
230
1
40
0.996195
41
1.57079654872776
42
3.10055573146276
0
ELLIPSE
5
1AE
100
AcDbEntity
8
1
62
256
6
ByLayer
370
-1
48
1
60
0
100
AcDbEllipse
10
175.905506
20
16.245708
30
0
11
-0.00700652876222976
21
0.199877233707854
31
0
210
0
220
0
230
1
40
0.087103
41
-1.5738496276308
42
-0.889768395835374
0
ELLIPSE
5
1AF
100
AcDbEntity
8
1
62
256
6
ByLayer
370
-1
48
1
60
0
100
AcDbEllipse
10
173.11786
20
16.147989
30
0
11
0.00700652876222734
21
-0.199877233707854
31
0
210
0
220
0
230
1
40
0.087103
41
1.56774302595899
42
2.25182425775442
0
ELLIPSE
5
1B0
100
AcDbEntity
8
1
62
256
6
ByLayer
370
-1
48
1
60
0
100
AcDbEllipse
10
175.931629
20
15.99586
30
0
11
-2.67967343193372E-16
21
-0.250000000000001
31
0
210
0
220
0
230
1
40
0.996195
41
1.60570291183485
42
-3.10668606854989
0
ELLIPSE
5
1B1
100
AcDbEntity
8
1
62
256
6
ByLayer
370
-1
48
1
60
0
100
AcDbEllipse
10
175.839505
20
11.220958
30
0
11
0.19497528358439
21
-0.0445492849682989
31
0
210
0
220
0
230
1
40
0.019484
41
1.4857276832808
42
2.16980891507548
0
ELLIPSE
5
1B2
100
AcDbEntity
8
1
62
256
6
ByLayer
370
-1
48
1
60
0
100
AcDbEllipse
10
168.903418
20
15.181625
30
0
11
0.434438947393044
21
0.117314964893762
31
0
210
0
220
0
230
1
40
0.022802
41
-1.48655483674057
42
-0.843053727947371
0
ELLIPSE
5
1B3
100
AcDbEntity
8
1
62
256
6
ByLayer
370
-1
48
1
60
0
100
AcDbEllipse
10
176.188289
20
8.116927
30
0
11
0.00700652876222734
21
-0.199877233707854
31
0
210
0
220
0
230
1
40
0.087103
41
0.883661794163252
42
1.56774302595899
0
ELLIPSE
5
1B4
100
AcDbEntity
8
1
62
256
6
ByLayer
370
-1
48
1
60
0
100
AcDbEllipse
10
169.739649
20
8.259548
30
0
11
-0.358649081170716
21
0.271791899392534
31
0
210
0
220
0
230
1
40
0.052768
41
-2.28381636720067
42
-0.99681414961437
0
ELLIPSE
5
1B5
100
AcDbEntity
8
1
62
256
6
ByLayer
370
-1
48
1
60
0
100
AcDbEllipse
10
173.070876
20
15.654469
30
0
11
0.0448731734378583
21
0.194900996163734
31
0
210
0
220
0
230
1
40
0.08495
41
-2.23532153831823
42
-1.55124030652268
0
ELLIPSE
5
1B6
100
AcDbEntity
8
1
62
256
6
ByLayer
370
-1
48
1
60
0
100
AcDbEllipse
10
173.400643
20
8.019208
30
0
11
-0.00700652876222976
21
0.199877233707854
31
0
210
0
220
0
230
1
40
0.087103
41
-2.25793085942765
42
-1.5738496276308
0
ELLIPSE
5
1B7
100
AcDbEntity
8
1
62
256
6
ByLayer
370
-1
48
1
60
0
100
AcDbEllipse
10
168.805961
20
9.008488
30
0
11
-0.329471318935308
21
0.306067845909912
31
0
210
0
220
0
230
1
40
0.05944
41
-1.63469437803419
42
-0.992087287819995
0
ELLIPSE
5
1B8
100
AcDbEntity
8
1
62
256
6
ByLayer
370
-1
48
1
60
0
100
AcDbEllipse
10
168.581737
20
9.167715
30
0
11
2.07347241589981E-15
21
1.77
31
0
210
0
220
0
230
1
40
0.996195
41
-2.42145532631401
42
-2.22112048399092
0
ELLIPSE
5
1B9
100
AcDbEntity
8
1
62
256
6
ByLayer
370
-1
48
1
60
0
100
AcDbEllipse
10
168.651409
20
16.114862
30
0
11
0.434438947393044
21
0.117314964893762
31
0
210
0
220
0
230
1
40
0.022802
41
-2.13005594553443
42
-1.48655483674057
0
ELLIPSE
5
1BA
100
AcDbEntity
8
1
62
256
6
ByLayer
370
-1
48
1
60
0
100
AcDbEllipse
10
169.85355
20
14.989565
30
0
11
0.307524634367036
21
0.328524883772022
31
0
210
0
220
0
230
1
40
0.063742
41
-2.15470096795618
42
-0.867698750368753
0
ELLIPSE
5
1BB
100
AcDbEntity
8
1
62
256
6
ByLayer
370
-1
48
1
60
0
100
AcDbEllipse
10
169.074471
20
8.603928
30
0
11
5.62297604311812E-16
21
0.48
31
0
210
0
220
0
230
1
40
0.996195
41
1.74759996643897
42
-2.42145532631397
0
ELLIPSE
5
1BC
100
AcDbEntity
8
1
62
256
6
ByLayer
370
-1
48
1
60
0
100
AcDbEllipse
10
169.160559
20
14.243584
30
0
11
0.307524634367036
21
0.328524883772022
31
0
210
0
220
0
230
1
40
0.063742
41
-2.15470096795618
42
-0.867698750368753
0
ELLIPSE
5
1BD
100
AcDbEntity
8
1
62
256
6
ByLayer
370
-1
48
1
60
0
100
AcDbEllipse
10
167.958417
20
15.368882
30
0
11
0.307524634367036
21
0.328524883772022
31
0
210
0
220
0
230
1
40
0.063742
41
-2.15470096795595
42
-1.51119985916252
0
ELLIPSE
5
1BE
100
AcDbEntity
8
1
62
256
6
ByLayer
370
-1
48
1
60
0
100
AcDbEllipse
10
172.26038
20
12.048111
30
0
11
4.18631474685054E-15
21
3.57360775340235
31
0
210
0
220
0
230
1
40
0.996195
41
-1.27552306428827
42
-0.225460092426846
0
ELLIPSE
5
1BF
100
AcDbEntity
8
1
62
256
6
ByLayer
370
-1
48
1
60
0
100
AcDbEllipse
10
169.145005
20
8.713631
30
0
11
-0.307524634367036
21
-0.328524883772022
31
0
210
0
220
0
230
1
40
0.063742
41
0.986891685633931
42
2.27389390322073
0
ELLIPSE
5
1C0
100
AcDbEntity
8
1
62
256
6
ByLayer
370
-1
48
1
60
0
100
AcDbEllipse
10
169.22479
20
9.459343
30
0
11
-0.048235363267179
21
-0.447407364412437
31
0
210
0
220
0
230
1
40
0.086657
41
1.58013866027564
42
2.22363976906888
0
ELLIPSE
5
1C1
100
AcDbEntity
8
1
62
256
6
ByLayer
370
-1
48
1
60
0
100
AcDbEllipse
10
172.305129
20
12.048111
30
0
11
-2.85443725674398E-15
21
-2.66304582372577
31
0
210
0
220
0
230
1
40
0.996195
41
2.21550992406688
42
0
0
ELLIPSE
5
1C2
100
AcDbEntity
8
1
62
256
6
ByLayer
370
-1
48
1
60
0
100
AcDbEllipse
10
172.305129
20
12.048111
30
0
11
-2.85443725674398E-15
21
-2.66304582372577
31
0
210
0
220
0
230
1
40
0.996195
41
0
42
0.926082659473384
0
ELLIPSE
5
1C3
100
AcDbEntity
8
1
62
256
6
ByLayer
370
-1
48
1
60
0
100
AcDbEllipse
10
175.927707
20
15.99586
30
0
11
-4.03443321277421E-16
21
-0.376392246597646
31
0
210
0
220
0
230
1
40
0.996195
41
1.60570291183476
42
-3.10668606854986
0
ELLIPSE
5
1C4
100
AcDbEntity
8
1
62
256
6
ByLayer
370
-1
48
1
60
0
100
AcDbEllipse
10
168.651409
20
16.114862
30
0
11
0.307524634367036
21
0.328524883772022
31
0
210
0
220
0
230
1
40
0.063742
41
-1.51119985916239
42
-0.867698750369066
0
ELLIPSE
5
1C5
100
AcDbEntity
8
1
62
256
6
ByLayer
370
-1
48
1
60
0
100
AcDbEllipse
10
168.307596
20
8.472015
30
0
11
0.443036966151022
21
0.0788558597930302
31
0
210
0
220
0
230
1
40
0.015329
41
-2.1283846410784
42
-0.841382423492022
0
ELLIPSE
5
1C6
100
AcDbEntity
8
1
62
256
6
ByLayer
370
-1
48
1
60
0
100
AcDbEllipse
10
173.405461
20
8.269056
30
0
11
-4.03443321277421E-16
21
-0.376392246597646
31
0
210
0
220
0
230
1
40
0.996195
41
-2.84631939108317
42
0.0349065850398532
0
ELLIPSE
5
1C7
100
AcDbEntity
8
1
62
256
6
ByLayer
370
-1
48
1
60
0
100
AcDbEllipse
10
167.989793
20
15.368882
30
0
11
3.16292402425394E-16
21
0.27
31
0
210
0
220
0
230
1
40
0.996195
41
-0.194895099805911
42
2.39110107523228
0
ELLIPSE
5
1C8
100
AcDbEntity
8
1
62
256
6
ByLayer
370
-1
48
1
60
0
100
AcDbEllipse
10
173.319478
20
8.508237
30
0
11
0.0584036501431938
21
-0.191282549256202
31
0
210
0
220
0
230
1
40
0.083384
41
1.54534251077267
42
2.22942374256773
0
ELLIPSE
5
1C9
100
AcDbEntity
8
1
62
256
6
ByLayer
370
-1
48
1
60
0
100
AcDbEllipse
10
168.581737
20
9.167715
30
0
11
1.44088761104902E-15
21
1.23
31
0
210
0
220
0
230
1
40
0.996195
41
-2.42145532631401
42
-2.2211204839909
0
ELLIPSE
5
1CA
100
AcDbEntity
8
1
62
256
6
ByLayer
370
-1
48
1
60
0
100
AcDbEllipse
10
168.817148
20
9.02053
30
0
11
0.307524634367036
21
0.328524883772022
31
0
210
0
220
0
230
1
40
0.063742
41
-2.15470096795618
42
-1.5477987720853
0
ELLIPSE
5
1CB
100
AcDbEntity
8
1
62
256
6
ByLayer
370
-1
48
1
60
0
100
AcDbEllipse
10
176.260442
20
13.206291
30
0
11
0.199879090035388
21
0.0069533708821979
31
0
210
0
220
0
230
1
40
0.003042
41
-1.48358275532896
42
-0.799501523532794
0
ELLIPSE
5
1CC
100
AcDbEntity
8
1
62
256
6
ByLayer
370
-1
48
1
60
0
100
AcDbEllipse
10
168.903418
20
15.181625
30
0
11
0.0874689691203325
21
0.441417239628253
31
0
210
0
220
0
230
1
40
0.085506
41
-2.19735568521935
42
-1.55385457642579
0
ELLIPSE
5
1CD
100
AcDbEntity
8
1
62
256
6
ByLayer
370
-1
48
1
60
0
100
AcDbEllipse
10
176.163095
20
16.004585
30
0
11
0.199879090035388
21
0.0069533708821979
31
0
210
0
220
0
230
1
40
0.003042
41
-1.48358275532882
42
-0.799501523532794
0
ELLIPSE
5
1CE
100
AcDbEntity
8
1
62
256
6
ByLayer
370
-1
48
1
60
0
100
AcDbEllipse
10
168.817148
20
9.02053
30
0
11
-0.634800952702509
21
-0.0221675770253931
31
0
210
0
220
0
230
-1
40
0.002159
41
-2.27604469501249
42
-1.63254358597247
0
ELLIPSE
5
1CF
100
AcDbEntity
8
1
62
256
6
ByLayer
370
-1
48
1
60
0
100
AcDbEllipse
10
176.099682
20
11.165069
30
0
11
2.92863335579068E-16
21
0.249999999999999
31
0
210
0
220
0
230
1
40
0.996195
41
-1.53588974175495
42
1.34533623436813
0
ELLIPSE
5
1D0
100
AcDbEntity
8
1
62
256
6
ByLayer
370
-1
48
1
60
0
100
AcDbEllipse
10
169.176381
20
8.713631
30
0
11
-2.8940473064884E-16
21
-0.27
31
0
210
0
220
0
230
1
40
0.996195
41
-0.750491578357352
42
2.39110107523215
0
ELLIPSE
5
1D1
100
AcDbEntity
8
1
62
256
6
ByLayer
370
-1
48
1
60
0
100
AcDbEllipse
10
173.140061
20
15.898141
30
0
11
-4.03443321277421E-16
21
-0.376392246597646
31
0
210
0
220
0
230
1
40
0.996195
41
-3.10668606854994
42
-0.225460092426888
0
ELLIPSE
5
1D2
100
AcDbEntity
8
1
62
256
6
ByLayer
370
-1
48
1
60
0
100
AcDbEllipse
10
172.26038
20
12.048111
30
0
11
3.16169255543626E-15
21
2.69894876836046
31
0
210
0
220
0
230
1
40
0.996195
41
0
42
6.28318530717959
0
ELLIPSE
5
1D3
100
AcDbEntity
8
1
62
256
6
ByLayer
370
-1
48
1
60
0
100
AcDbEllipse
10
172.264302
20
12.048111
30
0
11
4.33437736657022E-15
21
3.7
31
0
210
0
220
0
230
1
40
0.996195
41
-1.27552306428828
42
-0.225460092426843
0
ELLIPSE
5
1D4
100
AcDbEntity
8
1
62
256
6
ByLayer
370
-1
48
1
60
0
100
AcDbEllipse
10
168.934794
20
15.181625
30
0
11
-2.8940473064884E-16
21
-0.27
31
0
210
0
220
0
230
1
40
0.996195
41
-0.194895099806092
42
1.83550459668071
0
ELLIPSE
5
1D5
100
AcDbEntity
8
1
62
256
6
ByLayer
370
-1
48
1
60
0
100
AcDbEllipse
10
176.09576
20
11.165069
30
0
11
-4.03443321277419E-16
21
-0.376392246597645
31
0
210
0
220
0
230
1
40
0.996195
41
1.60570291183476
42
-1.79625641922177
0
ELLIPSE
5
1D6
100
AcDbEntity
8
1
62
256
6
ByLayer
370
-1
48
1
60
0
100
AcDbEllipse
10
168.817157
20
9.020528
30
0
11
-0.022207018426392
21
0.635935403832476
31
0
210
0
220
0
230
-1
40
0.061584
41
1.57294291711714
42
1.60954594721887
0
ELLIPSE
5
1D7
100
AcDbEntity
8
1
62
256
6
ByLayer
370
-1
48
1
60
0
100
AcDbEllipse
10
168.848524
20
9.02053
30
0
11
3.16292402425394E-16
21
0.27
31
0
210
0
220
0
230
1
40
0.996195
41
0.881327184779054
42
2.39110107523227
0
ELLIPSE
5
1D8
100
AcDbEntity
8
1
62
256
6
ByLayer
370
-1
48
1
60
0
100
AcDbEllipse
10
169.191935
20
14.243584
30
0
11
-2.8940473064884E-16
21
-0.27
31
0
210
0
220
0
230
1
40
0.996195
41
-0.750491578357515
42
2.39110107523212
0
ELLIPSE
5
1D9
100
AcDbEntity
8
1
62
256
6
ByLayer
370
-1
48
1
60
0
100
AcDbEllipse
10
169.884926
20
14.989565
30
0
11
-2.8940473064884E-16
21
-0.27
31
0
210
0
220
0
230
1
40
0.996195
41
-0.750491578357525
42
2.39110107523212
0
ELLIPSE
5
1DA
100
AcDbEntity
8
1
62
256
6
ByLayer
370
-1
48
1
60
0
100
AcDbEllipse
10
175.773274
20
13.124815
30
0
11
0.191406102844321
21
0.0579974464433487
31
0
210
0
220
0
230
1
40
0.025362
41
-2.17136982970072
42
-1.48728859790621
0
ELLIPSE
5
1DB
100
AcDbEntity
8
1
62
256
6
ByLayer
370
-1
48
1
60
0
100
AcDbEllipse
10
168.682785
20
16.114862
30
0
11
3.16292402425394E-16
21
0.27
31
0
210
0
220
0
230
1
40
0.996195
41
-0.750491578357679
42
1.83550459668071
0
ELLIPSE
5
1DC
100
AcDbEntity
8
1
62
256
6
ByLayer
370
-1
48
1
60
0
100
AcDbEllipse
10
176.331148
20
11.173794
30
0
11
0.199879090035388
21
0.0069533708821979
31
0
210
0
220
0
230
1
40
0.003042
41
-1.48358275532896
42
-0.799501523532692
0
ELLIPSE
5
1DD
100
AcDbEntity
8
1
62
256
6
ByLayer
370
-1
48
1
60
0
100
AcDbEllipse
10
167.958417
20
15.368882
30
0
11
0.0874689691203325
21
0.441417239628253
31
0
210
0
220
0
230
1
40
0.085506
41
-1.55385457642579
42
-0.91035346763266
0
ELLIPSE
5
1DE
100
AcDbEntity
8
1
62
256
6
ByLayer
370
-1
48
1
60
0
100
AcDbEllipse
10
168.338972
20
8.472015
30
0
11
3.16292402425394E-16
21
0.27
31
0
210
0
220
0
230
1
40
0.996195
41
-1.39399268715084
42
1.74759996643906
0
ELLIPSE
5
1DF
100
AcDbEntity
8
1
62
256
6
ByLayer
370
-1
48
1
60
0
100
AcDbEllipse
10
167.958417
20
15.368882
30
0
11
-1.45591769428419
21
0.746910915736185
31
0
210
0
220
0
230
-1
40
0.010943
41
1.59212368501469
42
2.23562479423441
0
POINT
5
41
100
AcDbEntity
8
81
62
256
6
ByLayer
370
-1
48
1
60
0
100
AcDbPoint
10
179
20
0
30
0
39
0
210
0
220
0
230
1
50
360
0
POINT
5
43
100
AcDbEntity
8
80
62
256
6
ByLayer
370
-1
48
1
60
0
100
AcDbPoint
10
0
20
0
30
0
39
0
210
0
220
0
230
1
50
360
0
SPLINE
5
1E0
100
AcDbEntity
8
1
62
256
6
ByLayer
370
-1
48
1
60
0
100
AcDbSpline
70
4
71
3
72
21
73
17
40
0
40
0
40
0
40
0
40
0.0358131454748062
40
0.110580332528516
40
0.185323684373548
40
0.259965025529457
40
0.334453740995488
40
0.408768254454386
40
0.482917891103213
40
0.556939062437495
40
0.630887842334031
40
0.704825165528446
40
0.778802272338594
40
0.852881566471636
40
0.927110213745146
40
1
40
1
40
1
40
1
41
1
10
172.34484328824
20
14.0342903537925
30
0
41
1
10
172.411430239668
20
14.0426954058922
30
0
41
1
10
172.615989936984
20
14.0556009632362
30
0
41
1
10
172.959487362381
20
13.9943473221614
30
0
41
1
10
173.351489562658
20
13.8470250157364
30
0
41
1
10
173.70419477106
20
13.617089750921
30
0
41
1
10
174.001470282204
20
13.319035737879
30
0
41
1
10
174.23034993405
20
12.9650267979461
30
0
41
1
10
174.380850299866
20
12.5711013878008
30
0
41
1
10
174.446572668049
20
12.1545722435378
30
0
41
1
10
174.424845605332
20
11.7337176108522
30
0
41
1
10
174.316839308422
20
11.3269163476817
30
0
41
1
10
174.127300805917
20
10.9517282220165
30
0
41
1
10
173.864907400465
20
10.6247115479045
30
0
41
1
10
173.541760791698
20
10.3605295834318
30
0
41
1
10
173.29885599638
20
10.2357182099218
30
0
41
1
10
173.170574588862
20
10.185509935138
30
0
0
SPLINE
5
1E1
100
AcDbEntity
8
1
62
256
6
ByLayer
370
-1
48
1
60
0
100
AcDbSpline
70
4
71
3
72
15
73
11
40
0
40
0
40
0
40
0
40
0.0255517627397207
40
0.175587687437088
40
0.32540006439216
40
0.474994759689357
40
0.624414400288624
40
0.773729862000383
40
0.923023907487714
40
1
40
1
40
1
40
1
41
1
10
170.714343604099
20
-3.09378502368878
30
0
41
1
10
170.728203330536
20
-3.0744661789191
30
0
41
1
10
170.825840600274
20
-2.94339631176592
30
0
41
1
10
171.036607103409
20
-2.72313144665057
30
0
41
1
10
171.385457260846
20
-2.48577645393138
30
0
41
1
10
171.776176710036
20
-2.32612316227917
30
0
41
1
10
172.191520616924
20
-2.25105783926517
30
0
41
1
10
172.613244754353
20
-2.26373429826637
30
0
41
1
10
172.956709332427
20
-2.34735554603489
30
0
41
1
10
173.152118577451
20
-2.42932502475932
30
0
41
1
10
173.216883608196
20
-2.46067858326947
30
0
0
SPLINE
5
1E2
100
AcDbEntity
8
1
62
256
6
ByLayer
370
-1
48
1
60
0
100
AcDbSpline
70
4
71
3
72
18
73
14
40
0
40
0
40
0
40
0
40
0.080013399738299
40
0.160832225788561
40
0.241475084791633
40
0.321500716470753
40
0.401693652587298
40
0.481632223920277
40
0.561380844710507
40
0.670835388743104
40
0.780260456163642
40
0.88988944474847
40
1
40
1
40
1
40
1
41
1
10
27
20
18.23
30
0
41
1
10
26.3743333896456
20
18.2305804245059
30
0
41
1
10
25.1334711608988
20
18.3260276480898
30
0
41
1
10
23.3047384201541
20
18.7643947849329
30
0
41
1
10
21.5592833689349
20
19.4674075792746
30
0
41
1
10
19.9881370415472
20
20.4831332728715
30
0
41
1
10
18.3729691175034
20
21.4082777870332
30
0
41
1
10
16.7016420789185
20
22.2259021637053
30
0
41
1
10
14.7732328290178
20
23.0237964999438
30
0
41
1
10
12.5707372908397
20
23.7450496573421
30
0
41
1
10
10.0877344099395
20
24.3205350277537
30
0
41
1
10
7.55605396956253
20
24.6713700726619
30
0
41
1
10
5.85600581062059
20
24.7495795908401
30
0
41
1
10
5.00000000000003
20
24.75
30
0
0
SPLINE
5
1E3
100
AcDbEntity
8
1
62
256
6
ByLayer
370
-1
48
1
60
0
100
AcDbSpline
70
4
71
3
72
17
73
13
40
0
40
0
40
0
40
0
40
0.140028113604191
40
0.279403759965334
40
0.418660959877384
40
0.558232187842142
40
0.631617844012435
40
0.705239074423628
40
0.778557031151724
40
0.85261340470869
40
0.926679332954884
40
1
40
1
40
1
40
1
41
1
10
4.99999999999997
20
-24.75
30
0
41
1
10
6.09053496804376
20
-24.7490150932302
30
0
41
1
10
8.24980769829932
20
-24.6229734969969
30
0
41
1
10
11.4542177091877
20
-24.0566643699559
30
0
41
1
10
14.5675728927077
20
-23.1343719004586
30
0
41
1
10
17.0839362441943
20
-22.0638839773084
30
0
41
1
10
19.0563234185874
20
-21.0388413808236
30
0
41
1
10
20.5005282938356
20
-20.1285804549211
30
0
41
1
10
21.9887234452958
20
-19.2729826393723
30
0
41
1
10
23.6063440508288
20
-18.6788394191732
30
0
41
1
10
25.2897872750184
20
-18.3106840048882
30
0
41
1
10
26.4275424669939
20
-18.2304091162099
30
0
41
1
10
27
20
-18.23
30
0
0
SPLINE
5
1E4
100
AcDbEntity
8
1
62
256
6
ByLayer
370
-1
48
1
60
0
100
AcDbSpline
70
4
71
3
72
10
73
6
40
0
40
0
40
0
40
0
40
0.5
40
0.5
40
1
40
1
40
1
40
1
41
1
10
160.89201912805
20
5.78900384152416
30
0
41
1
10
161.633226162994
20
5.60158103509451
30
0
41
1
10
162.378969219319
20
5.4687757999373
30
0
41
1
10
163.877749760475
20
5.30865754584363
30
0
41
1
10
164.631042956582
20
5.28128847817379
30
0
41
1
10
165.388353392851
20
5.30775324139685
30
0
0
SPLINE
5
1E5
100
AcDbEntity
8
1
62
256
6
ByLayer
370
-1
48
1
60
0
100
AcDbSpline
70
4
71
3
72
8
73
4
40
0
40
0
40
0
40
0
40
1
40
1
40
1
40
1
41
1
10
27
20
9.94292191358744
30
0
41
1
10
27.6382811341901
20
9.7313522182142
30
0
41
1
10
28.2710746627092
20
9.50603172894475
30
0
41
1
10
28.8988879269905
20
9.26712793204922
30
0
0
SPLINE
5
1E6
100
AcDbEntity
8
1
62
256
6
ByLayer
370
-1
48
1
60
0
100
AcDbSpline
70
4
71
3
72
8
73
4
40
0
40
0
40
0
40
0
40
1
40
1
40
1
40
1
41
1
10
140.008242570999
20
10.9573087967542
30
0
41
1
10
140.060559646806
20
10.9327732431301
30
0
41
1
10
140.112888361453
20
10.9082560409395
30
0
41
1
10
140.165228713999
20
10.8837571886973
30
0
0
SPLINE
5
1E7
100
AcDbEntity
8
1
62
256
6
ByLayer
370
-1
48
1
60
0
100
AcDbSpline
70
4
71
3
72
26
73
22
40
0
40
0
40
0
40
0
40
0.250000000000002
40
0.250000000000002
40
0.375000000000002
40
0.375000000000002
40
0.500000000000003
40
0.500000000000003
40
0.625000000000003
40
0.625000000000003
40
0.687500000000003
40
0.687500000000003
40
0.750000000000002
40
0.750000000000002
40
0.812500000000002
40
0.812500000000002
40
0.875000000000001
40
0.875000000000001
40
0.937500000000001
40
0.937500000000001
40
1
40
1
40
1
40
1
41
1
10
103
20
-10.2435603010819
30
0
41
1
10
107.004819364979
20
-11.152638705589
30
0
41
1
10
111.004168926007
20
-11.9970055109415
30
0
41
1
10
116.998019844127
20
-13.1588739965965
30
0
41
1
10
118.995100594201
20
-13.5285847260753
30
0
41
1
10
122.990081632604
20
-14.2266343978902
30
0
41
1
10
124.987819097151
20
-14.5554401737059
30
0
41
1
10
128.984262181089
20
-15.171530762094
30
0
41
1
10
130.983049522144
20
-15.458601056204
30
0
41
1
10
133.983236751037
20
-15.8554151824302
30
0
41
1
10
134.983664943676
20
-15.982008960635
30
0
41
1
10
136.985201950231
20
-16.2239056020575
30
0
41
1
10
137.986489081419
20
-16.3392127972887
30
0
41
1
10
139.988586655466
20
-16.5578694799606
30
0
41
1
10
140.989391639686
20
-16.6614044790408
30
0
41
1
10
142.991313295589
20
-16.8558651207815
30
0
41
1
10
143.992073323657
20
-16.9472557407283
30
0
41
1
10
145.993574380355
20
-17.1178220022174
30
0
41
1
10
146.99439975456
20
-17.1969083508911
30
0
41
1
10
148.996409008342
20
-17.3425357873366
30
0
41
1
10
149.997625181352
20
-17.4090604424678
30
0
41
1
10
150.99888792698
20
-17.4694338731938
30
0
0
SPLINE
5
1E8
100
AcDbEntity
8
1
62
256
6
ByLayer
370
-1
48
1
60
0
100
AcDbSpline
70
4
71
4
72
10
73
5
40
0
40
0
40
0
40
0
40
0
40
1
40
1
40
1
40
1
40
1
41
0.997772194678013
10
150.794967517006
20
5.8638967115833
30
0
41
0.99675042958247
10
150.901791183229
20
6.34701590939432
30
0
41
0.995788852381137
10
150.999621483823
20
6.89020673417843
30
0
41
0.995400138821212
10
151.085090735275
20
7.4846068158039
30
0
41
0.995536096655677
10
151.156530859308
20
8.11504466658053
30
0
0
SPLINE
5
1E9
100
AcDbEntity
8
1
62
256
6
ByLayer
370
-1
48
1
60
0
100
AcDbSpline
70
4
71
3
72
8
73
4
40
0
40
0
40
0
40
0
40
1
40
1
40
1
40
1
41
1
10
150.99888792694
20
-17.4694338731923
30
0
41
1
10
151.698218742215
20
-17.4954774238804
30
0
41
1
10
152.369463528947
20
-17.5382278888366
30
0
41
1
10
153.013995969862
20
-17.5892859381539
30
0
0
SPLINE
5
1EA
100
AcDbEntity
8
1
62
256
6
ByLayer
370
-1
48
1
60
0
100
AcDbSpline
70
4
71
3
72
14
73
10
40
0
40
0
40
0
40
0
40
0.500000000000004
40
0.500000000000004
40
0.750000000000002
40
0.750000000000002
40
0.875000000000001
40
0.875000000000001
40
1
40
1
40
1
40
1
41
1
10
151.156530859392
20
8.1150446673243
30
0
41
1
10
149.90020258214
20
8.85604035255164
30
0
41
1
10
148.59999255265
20
9.56818942599142
30
0
41
1
10
146.576887500785
20
10.5422847308957
30
0
41
1
10
145.890417337829
20
10.8513836512361
30
0
41
1
10
144.842661069117
20
11.2876041817524
30
0
41
1
10
144.490343689321
20
11.4283423005328
30
0
41
1
10
143.779586514517
20
11.6998621138578
30
0
41
1
10
143.421039665848
20
11.8304361832017
30
0
41
1
10
143.06003894341
20
11.9569070366658
30
0
0
SPLINE
5
1EB
100
AcDbEntity
8
1
62
256
6
ByLayer
370
-1
48
1
60
0
100
AcDbSpline
70
4
71
3
72
8
73
4
40
0
40
0
40
0
40
0
40
1
40
1
40
1
40
1
41
1
10
26.9999999999996
20
-12.0506891270845
30
0
41
1
10
28.6667510709766
20
-12.40467987072
30
0
41
1
10
30.3332807207341
20
-12.7466120038585
30
0
41
1
10
31.9999999999999
20
-13.0754248066493
30
0
0
SPLINE
5
1EC
100
AcDbEntity
8
1
62
256
6
ByLayer
370
-1
48
1
60
0
100
AcDbSpline
70
4
71
3
72
10
73
6
40
0
40
0
40
0
40
0
40
0.5
40
0.5
40
1
40
1
40
1
40
1
41
1
10
11.9569968301676
20
-2.47884369149509
30
0
41
1
10
11.6634808435413
20
-2.27649284825242
30
0
41
1
10
11.3771570911691
20
-2.03877102517214
30
0
41
1
10
10.8168194696583
20
-1.49591276621666
30
0
41
1
10
10.5428130960852
20
-1.19077840002856
30
0
41
1
10
10.2746060213402
20
-0.850431113207122
30
0
0
SPLINE
5
1ED
100
AcDbEntity
8
1
62
256
6
ByLayer
370
-1
48
1
60
0
100
AcDbSpline
70
4
71
3
72
8
73
4
40
0
40
0
40
0
40
0
40
1
40
1
40
1
40
1
41
1
10
25.6596883605382
20
-10.6970845707552
30
0
41
1
10
24.5642000513724
20
-10.2747736394624
30
0
41
1
10
23.482445543346
20
-9.81485876089423
30
0
41
1
10
22.4173843390262
20
-9.30844284238864
30
0
0
SPLINE
5
1EE
100
AcDbEntity
8
1
62
256
6
ByLayer
370
-1
48
1
60
0
100
AcDbSpline
70
4
71
3
72
16
73
12
40
0
40
0
40
0
40
0
40
0.25
40
0.25
40
0.5
40
0.5
40
0.625
40
0.625
40
0.75
40
0.75
40
1
40
1
40
1
40
1
41
1
10
164.221759718565
20
0.796056294530615
30
0
41
1
10
163.6128270716
20
0.760222343158347
30
0
41
1
10
163.00777391944
20
0.76074670503769
30
0
41
1
10
161.805199646702
20
0.832384664736679
30
0
41
1
10
161.207678715956
20
0.903500180560258
30
0
41
1
10
160.317167163223
20
1.06413344206504
30
0
41
1
10
160.021294599097
20
1.12669793203961
30
0
41
1
10
159.43153726782
20
1.27038089378004
30
0
41
1
10
159.136993881852
20
1.35173257969726
30
0
41
1
10
158.264443941474
20
1.62213009728663
30
0
41
1
10
157.695761699638
20
1.83765426750506
30
0
41
1
10
157.140558495748
20
2.08931630518742
30
0
0
SPLINE
5
1EF
100
AcDbEntity
8
1
62
256
6
ByLayer
370
-1
48
1
60
0
100
AcDbSpline
70
4
71
3
72
16
73
12
40
0
40
0
40
0
40
0
40
0.0475051748399657
40
0.221834730072699
40
0.396164285305433
40
0.483329062921798
40
0.570493840538166
40
0.657658618154532
40
0.7448233957709
40
0.919152951003633
40
1
40
1
40
1
40
1
41
0.999999999999999
10
143.060038943371
20
11.9569070366633
30
0
41
0.999999999999999
10
142.97338139892
20
11.9512806783676
30
0
41
0.999999999999999
10
142.568659368554
20
11.9248653125983
30
0
41
0.999999999999999
10
141.845282745767
20
11.8765038459291
30
0
41
0.999999999999999
10
141.049467419016
20
11.8212812718004
30
0
41
0.999999999999999
10
140.413592820727
20
11.7759382073113
30
0
41
0.999999999999999
10
139.937084459129
20
11.7413446739191
30
0
41
0.999999999999999
10
139.460598220777
20
11.7061646159422
30
0
41
0.999999999999999
10
138.824839184998
20
11.6584445907541
30
0
41
0.999999999999999
10
138.19988822062
20
11.6103778251605
30
0
41
0.999999999999999
10
137.733840194603
20
11.573657617045
30
0
41
0.999999999999999
10
137.586194532758
20
11.5619353419938
30
0
0
SPLINE
5
1F0
100
AcDbEntity
8
1
62
256
6
ByLayer
370
-1
48
1
60
0
100
AcDbSpline
70
4
71
3
72
16
73
12
40
0
40
0
40
0
40
0
40
0.249999999999999
40
0.249999999999999
40
0.499999999999998
40
0.499999999999998
40
0.749999999999998
40
0.749999999999998
40
0.874999999999999
40
0.874999999999999
40
1
40
1
40
1
40
1
41
1
10
103
20
16.8835236229851
30
0
41
1
10
105.990737167483
20
16.6090694534119
30
0
41
1
10
108.977867429451
20
16.2812610948168
30
0
41
1
10
114.948556056901
20
15.5252516540539
30
0
41
1
10
117.932021526433
20
15.0968521912818
30
0
41
1
10
123.899417111557
20
14.1475626915666
30
0
41
1
10
126.883372590032
20
13.6267285720472
30
0
41
1
10
131.362820457459
20
12.7836403164218
30
0
41
1
10
132.856553121176
20
12.4923130459661
30
0
41
1
10
135.845663096124
20
11.8903331220773
30
0
41
1
10
137.341398397893
20
11.579604988447
30
0
41
1
10
138.837216277962
20
11.2600317751173
30
0
0
SPLINE
5
1F1
100
AcDbEntity
8
1
62
256
6
ByLayer
370
-1
48
1
60
0
100
AcDbSpline
70
4
71
3
72
32
73
28
40
0
40
0
40
0
40
0
40
0.0826189994975359
40
0.0826189994975359
40
0.165237998995072
40
0.165237998995072
40
0.247856998492608
40
0.247856998492608
40
0.330475997990144
40
0.330475997990144
40
0.413094997487681
40
0.413094997487681
40
0.495713996985217
40
0.495713996985217
40
0.578332996482753
40
0.578332996482753
40
0.660951995980289
40
0.660951995980289
40
0.743570995477825
40
0.743570995477825
40
0.826189994975362
40
0.826189994975362
40
0.908808994472898
40
0.908808994472898
40
0.991427993970434
40
0.991427993970434
40
1
40
1
40
1
40
1
41
1
10
28.8988879269934
20
5.86614677972224
30
0
41
1
10
28.6282452050756
20
5.71689269275376
30
0
41
1
10
28.3483008947794
20
5.5165896801692
30
0
41
1
10
27.780149813663
20
5.02128469182369
30
0
41
1
10
27.4919560843616
20
4.7262940854495
30
0
41
1
10
26.9179776854718
20
4.05253315178012
30
0
41
1
10
26.6322061911643
20
3.67377829020569
30
0
41
1
10
26.0736545763536
20
2.84651040500341
30
0
41
1
10
25.80088727702
20
2.39801637074328
30
0
41
1
10
25.2784453028791
20
1.44787480509896
30
0
41
1
10
25.0287826203696
20
0.946249083563657
30
0
41
1
10
24.5617960235168
20
-0.0915829471751692
30
0
41
1
10
24.344482828531
20
-0.627765433655298
30
0
41
1
10
23.9502438637112
20
-1.71485758484064
30
0
41
1
10
23.7733271433627
20
-2.26574229609011
30
0
41
1
10
23.4664342608431
20
-3.3618401481271
30
0
41
1
10
23.336465143188
20
-3.90702812873917
30
0
41
1
10
23.1282824162391
20
-4.97154378592376
30
0
41
1
10
23.0500735856372
20
-5.49084702726847
30
0
41
1
10
22.9483099052007
20
-6.4843620650604
30
0
41
1
10
22.9247573912818
20
-6.9585510560504
30
0
41
1
10
22.9331810100141
20
-7.8442761634775
30
0
41
1
10
22.9651569493069
20
-8.25579194870141
30
0
41
1
10
23.0834559452722
20
-9.00092921614623
30
0
41
1
10
23.1697762864724
20
-9.33453359425152
30
0
41
1
10
23.2932828904983
20
-9.65294295811455
30
0
41
1
10
23.3051678518609
20
-9.68238770774852
30
0
41
1
10
23.3173252483502
20
-9.71134152735016
30
0
0
SPLINE
5
1F2
100
AcDbEntity
8
1
62
256
6
ByLayer
370
-1
48
1
60
0
100
AcDbSpline
70
4
71
3
72
18
73
14
40
0
40
0
40
0
40
0
40
0.170662197970065
40
0.170662197970065
40
0.377996648477549
40
0.377996648477549
40
0.585331098985033
40
0.585331098985033
40
0.688998324238775
40
0.688998324238775
40
0.792665549492516
40
0.792665549492516
40
1
40
1
40
1
40
1
41
1
10
121.030227079179
20
14.6026641314557
30
0
41
1
10
122.586288474553
20
14.851344244851
30
0
41
1
10
124.142393201508
20
15.0873951372901
30
0
41
1
10
127.589257321495
20
15.5817521261466
30
0
41
1
10
129.480117062905
20
15.8337879706724
30
0
41
1
10
133.264287459143
20
16.2959565214653
30
0
41
1
10
135.15789438218
20
16.5057228374927
30
0
41
1
10
138.000079298032
20
16.7891758601038
30
0
41
1
10
138.947898744779
20
16.8780412834284
30
0
41
1
10
140.842507089807
20
17.0454707996762
30
0
41
1
10
141.789539471719
20
17.1238964979839
30
0
41
1
10
144.631245135594
20
17.3418258104549
30
0
41
1
10
146.524860140371
20
17.465621840397
30
0
41
1
10
148.419232296742
20
17.566411582139
30
0
0
SPLINE
5
1F3
100
AcDbEntity
8
1
62
256
6
ByLayer
370
-1
48
1
60
0
100
AcDbSpline
70
4
71
3
72
8
73
4
40
0
40
0
40
0
40
0
40
1
40
1
40
1
40
1
41
1
10
163.391605544126
20
-17.8437065841444
30
0
41
1
10
163.947052420508
20
-17.8518307720032
30
0
41
1
10
164.488054255574
20
-17.8633295237038
30
0
41
1
10
165.014607901749
20
-17.8742822836718
30
0
0
SPLINE
5
1F4
100
AcDbEntity
8
1
62
256
6
ByLayer
370
-1
48
1
60
0
100
AcDbSpline
70
4
71
3
72
8
73
4
40
0
40
0
40
0
40
0
40
1
40
1
40
1
40
1
41
1
10
28.8988879269907
20
9.26712793204899
30
0
41
1
10
29.9326054150995
20
9.01634348612424
30
0
41
1
10
30.9662963961208
20
8.76207553088773
30
0
41
1
10
32
20
8.50444362034847
30
0
0
SPLINE
5
1F5
100
AcDbEntity
8
1
62
256
6
ByLayer
370
-1
48
1
60
0
100
AcDbSpline
70
4
71
3
72
28
73
24
40
0
40
0
40
0
40
0
40
0.124999999999984
40
0.124999999999984
40
0.249999999999969
40
0.249999999999969
40
0.374999999999953
40
0.374999999999953
40
0.437499999999951
40
0.437499999999951
40
0.499999999999949
40
0.499999999999949
40
0.624999999999944
40
0.624999999999944
40
0.68749999999995
40
0.68749999999995
40
0.749999999999956
40
0.749999999999956
40
0.874999999999967
40
0.874999999999967
40
0.937499999999984
40
0.937499999999984
40
1
40
1
40
1
40
1
41
1
10
163.296199718737
20
11.4499999999998
30
0
41
1
10
163.296199718737
20
11.2918219286121
30
0
41
1
10
163.282594241195
20
11.1359692310896
30
0
41
1
10
163.229296233527
20
10.8287224925019
30
0
41
1
10
163.189473443724
20
10.6769665620965
30
0
41
1
10
163.082984576065
20
10.379633203834
30
0
41
1
10
163.017686830178
20
10.2376819171098
30
0
41
1
10
162.902317064863
20
10.0344621334941
30
0
41
1
10
162.860939777325
20
9.96834944637266
30
0
41
1
10
162.772254592805
20
9.83942825685847
30
0
41
1
10
162.724749954884
20
9.77638515992152
30
0
41
1
10
162.574389604612
20
9.59406329216418
30
0
41
1
10
162.464998241663
20
9.48287384273254
30
0
41
1
10
162.287638551779
20
9.33111340964771
30
0
41
1
10
162.226293833893
20
9.28304494649453
30
0
41
1
10
162.099079010553
20
9.19203045423555
30
0
41
1
10
162.032874883925
20
9.14889566852884
30
0
41
1
10
161.829914860723
20
9.02903513599907
30
0
41
1
10
161.689408878196
20
8.96192482272781
30
0
41
1
10
161.4710807614
20
8.87988880461569
30
0
41
1
10
161.397035982285
20
8.85566613502016
30
0
41
1
10
161.246360552335
20
8.81358523794557
30
0
41
1
10
161.169352472957
20
8.79567218549718
30
0
41
1
10
161.092291243078
20
8.78128686408922
30
0
0
SPLINE
5
1F6
100
AcDbEntity
8
1
62
256
6
ByLayer
370
-1
48
1
60
0
100
AcDbSpline
70
4
71
3
72
8
73
4
40
0
40
0
40
0
40
0
40
1
40
1
40
1
40
1
41
1
10
158.632800054775
20
6.56992881846332
30
0
41
1
10
159.205324745839
20
6.31956337936984
30
0
41
1
10
159.795573419206
20
6.10381311113889
30
0
41
1
10
160.406964125218
20
5.9236441580351
30
0
0
SPLINE
5
1F7
100
AcDbEntity
8
1
62
256
6
ByLayer
370
-1
48
1
60
0
100
AcDbSpline
70
4
71
3
72
14
73
10
40
0
40
0
40
0
40
0
40
0.500000000000001
40
0.500000000000001
40
0.750000000000002
40
0.750000000000002
40
0.875000000000001
40
0.875000000000001
40
1
40
1
40
1
40
1
41
1
10
27
20
-12.0506891270846
30
0
41
1
10
26.2285159787294
20
-11.8868385034684
30
0
41
1
10
25.4585040835281
20
-11.8032949905258
30
0
41
1
10
24.3090157849467
20
-11.7973322673813
30
0
41
1
10
23.9267767741755
20
-11.8153074958954
30
0
41
1
10
23.3552598279879
20
-11.8729041744509
30
0
41
1
10
23.1652871708482
20
-11.8972167294729
30
0
41
1
10
22.7890714022268
20
-11.9556640194121
30
0
41
1
10
22.6024635643603
20
-11.9898314520176
30
0
41
1
10
22.4173843390261
20
-12.028894677297
30
0
0
SPLINE
5
1F8
100
AcDbEntity
8
1
62
256
6
ByLayer
370
-1
48
1
60
0
100
AcDbSpline
70
4
71
3
72
8
73
4
40
0
40
0
40
0
40
0
40
1
40
1
40
1
40
1
41
1
10
10.2746060213517
20
-0.850431113216501
30
0
41
1
10
10.2326892548859
20
-0.816320822559703
30
0
41
1
10
10.1909777771218
20
-0.781790540012025
30
0
41
1
10
10.1494730219913
20
-0.746836951482237
30
0
0
SPLINE
5
1F9
100
AcDbEntity
8
1
62
256
6
ByLayer
370
-1
48
1
60
0
100
AcDbSpline
70
4
71
3
72
12
73
8
40
0
40
0
40
0
40
0
40
0.104898575170596
40
0.104898575170596
40
0.403265716780397
40
0.403265716780397
40
1
40
1
40
1
40
1
41
1
10
177.158458573653
20
5.88199892041857
30
0
41
1
10
177.157513034091
20
5.86778693262244
30
0
41
1
10
177.156486525224
20
5.85418587829417
30
0
41
1
10
177.152293370027
20
5.80421737817667
30
0
41
1
10
177.14860183625
20
5.77195793051519
30
0
41
1
10
177.136808127083
20
5.69470692120373
30
0
41
1
10
177.1277428984
20
5.66718331894711
30
0
41
1
10
177.118834038949
20
5.66710066997294
30
0
0
SPLINE
5
1FA
100
AcDbEntity
8
1
62
256
6
ByLayer
370
-1
48
1
60
0
100
AcDbSpline
70
4
71
3
72
34
73
30
40
0
40
0
40
0
40
0
40
0.125000000000003
40
0.125000000000003
40
0.187500000000004
40
0.187500000000004
40
0.250000000000006
40
0.250000000000006
40
0.375000000000014
40
0.375000000000014
40
0.406250000000016
40
0.406250000000016
40
0.437500000000017
40
0.437500000000017
40
0.500000000000015
40
0.500000000000015
40
0.562500000000012
40
0.562500000000012
40
0.593750000000012
40
0.593750000000012
40
0.625000000000011
40
0.625000000000011
40
0.750000000000008
40
0.750000000000008
40
0.875000000000006
40
0.875000000000006
40
0.937500000000003
40
0.937500000000003
40
1
40
1
40
1
40
1
41
1
10
160.892019128049
20
5.78900384152416
30
0
41
1
10
161.235469485451
20
5.65808944727524
30
0
41
1
10
161.569819363717
20
5.53544753447838
30
0
41
1
10
162.054081477603
20
5.35989164736193
30
0
41
1
10
162.213113912786
20
5.30257935889534
30
0
41
1
10
162.519218583066
20
5.19178418723732
30
0
41
1
10
162.666856297392
20
5.13809623779005
30
0
41
1
10
163.09234120973
20
4.98060752065047
30
0
41
1
10
163.353025473674
20
4.88044983441387
30
0
41
1
10
163.643121741192
20
4.7554974736268
30
0
41
1
10
163.699310664724
20
4.73051631562055
30
0
41
1
10
163.806628574674
20
4.68096361257633
30
0
41
1
10
163.857922882682
20
4.65632233005056
30
0
41
1
10
164.004513804055
20
4.58256926013163
30
0
41
1
10
164.092540185358
20
4.53362731866662
30
0
41
1
10
164.247670432135
20
4.43498148896723
30
0
41
1
10
164.314784185044
20
4.38527869387769
30
0
41
1
10
164.398023562501
20
4.30925585528303
30
0
41
1
10
164.422692558781
20
4.28380114632239
30
0
41
1
10
164.465393321642
20
4.23300539690479
30
0
41
1
10
164.483501884028
20
4.20759582923293
30
0
41
1
10
164.557783391696
20
4.08026504776407
30
0
41
1
10
164.56567708737
20
3.97728482185468
30
0
41
1
10
164.469426858678
20
3.76667013291453
30
0
41
1
10
164.367518041055
20
3.66413280528877
30
0
41
1
10
164.141730079191
20
3.51743323811078
30
0
41
1
10
164.053543889569
20
3.46948971945886
30
0
41
1
10
163.857519396085
20
3.37897284889235
30
0
41
1
10
163.749564561607
20
3.33621329280666
30
0
41
1
10
163.632531332627
20
3.29629916795153
30
0
0
SPLINE
5
1FB
100
AcDbEntity
8
1
62
256
6
ByLayer
370
-1
48
1
60
0
100
AcDbSpline
70
4
71
4
72
13
73
8
40
0
40
0
40
0
40
0
40
0
40
0.64060729108166
40
0.64060729108166
40
0.64060729108166
40
1
40
1
40
1
40
1
40
1
41
1
10
28.8988879269935
20
5.8661467797223
30
0
41
1
10
28.8988879269934
20
4.66808133461106
30
0
41
0.942809041582063
10
28.63391947264
20
1.62321336676635
30
0
41
1
10
27.9299369087097
20
-2.83709294356282
30
0
41
1
10
27.1026954519164
20
-7.37442916677037
30
0
41
0.981999600476134
10
26.7613260750941
20
-9.06578955356042
30
0
41
0.976294486959415
10
26.4589420908946
20
-10.2693747850295
30
0
41
0.979187449042551
10
26.2386496032437
20
-10.8672801197078
30
0
0
SPLINE
5
1FC
100
AcDbEntity
8
1
62
256
6
ByLayer
370
-1
48
1
60
0
100
AcDbSpline
70
4
71
3
72
8
73
4
40
0
40
0
40
0
40
0
40
1
40
1
40
1
40
1
41
1
10
163.632531332629
20
3.29629916795247
30
0
41
1
10
163.014843310699
20
3.08563697360188
30
0
41
1
10
162.372641216212
20
2.90836009704077
30
0
41
1
10
161.710505044853
20
2.77154921660554
30
0
0
SPLINE
5
1FD
100
AcDbEntity
8
1
62
256
6
ByLayer
370
-1
48
1
60
0
100
AcDbSpline
70
4
71
3
72
20
73
16
40
0
40
0
40
0
40
0
40
0.25
40
0.25
40
0.3125
40
0.3125
40
0.375
40
0.375
40
0.5
40
0.5
40
0.625
40
0.625
40
0.75
40
0.75
40
1
40
1
40
1
40
1
41
1
10
148.41923229674
20
17.5664115821392
30
0
41
1
10
148.167789218761
20
17.1005180332749
30
0
41
1
10
147.870526563165
20
16.6669602584928
30
0
41
1
10
147.42618066832
20
16.1763665443322
30
0
41
1
10
147.333357592186
20
16.0804822862859
30
0
41
1
10
147.142976202125
20
15.8964483537835
30
0
41
1
10
147.045254082215
20
15.8080678406374
30
0
41
1
10
146.744885277097
20
15.5532727883106
30
0
41
1
10
146.535026599362
20
15.3972184509416
30
0
41
1
10
146.098566901641
20
15.1091605560462
30
0
41
1
10
145.871979189664
20
14.9771378812418
30
0
41
1
10
145.404717492698
20
14.7333278037311
30
0
41
1
10
145.166304656249
20
14.6227194135088
30
0
41
1
10
144.444490561139
20
14.3194868314791
30
0
41
1
10
143.952352565703
20
14.1539611229281
30
0
41
1
10
143.453628815999
20
14.0105088639905
30
0
0
SPLINE
5
1FE
100
AcDbEntity
8
1
62
256
6
ByLayer
370
-1
48
1
60
0
100
AcDbSpline
70
4
71
3
72
80
73
76
40
0
40
0
40
0
40
0
40
0.0244245774921805
40
0.0488491549843612
40
0.0610614437304516
40
0.0732737324765419
40
0.0915921655956773
40
0.0976983099687226
40
0.109910598714813
40
0.122122887460903
40
0.140441320580039
40
0.146547464953084
40
0.158759753699174
40
0.170972042445265
40
0.1892904755644
40
0.195396619937445
40
0.207608908683536
40
0.219821197429626
40
0.238139630548761
40
0.244245774921806
40
0.256458063667897
40
0.268670352413987
40
0.286988785533123
40
0.293094929906168
40
0.305307218652258
40
0.317519507398348
40
0.335837940517484
40
0.341944084890529
40
0.354156373636619
40
0.36636866238271
40
0.384687095501845
40
0.39079323987489
40
0.40300552862098
40
0.415217817367071
40
0.433536250486207
40
0.439642394859252
40
0.451854683605342
40
0.464066972351433
40
0.482385405470568
40
0.488491549843613
40
0.500703838589704
40
0.512916127335794
40
0.531234560454929
40
0.537340704827974
40
0.549552993574065
40
0.561765282320155
40
0.586189859812335
40
0.598402148558426
40
0.610614437304516
40
0.635039014796697
40
0.647251303542787
40
0.659463592288877
40
0.683888169781058
40
0.696100458527149
40
0.708312747273238
40
0.726631180392374
40
0.732737324765419
40
0.74494961351151
40
0.7571619022576
40
0.76937419100369
40
0.778533407563258
40
0.78158647974978
40
0.787692624122826
40
0.793798768495871
40
0.806011057241961
40
0.818223345988051
40
0.830435634734142
40
0.879284789718503
40
0.903709367210684
40
0.928133944702864
40
0.940346233448955
40
0.952558522195045
40
0.976983099687226
40
0.989195388433316
40
1
40
1
40
1
40
1
41
1
10
16.1988879269903
20
13.1501164618948
30
0
41
1
10
16.1368274064573
20
13.0946967898752
30
0
41
1
10
16.0105870915228
20
12.9780067733784
30
0
41
1
10
15.8477860891952
20
12.8172721765575
30
0
41
1
10
15.7147234677445
20
12.6796140163472
30
0
41
1
10
15.5967194953201
20
12.5538628602037
30
0
41
1
10
15.4939636305098
20
12.4403874938881
30
0
41
1
10
15.3900125042204
20
12.3223494331355
30
0
41
1
10
15.3026587815351
20
12.221130247319
30
0
41
1
10
15.1790964703947
20
12.0741267977891
30
0
41
1
10
15.0719262732507
20
11.9424822770268
30
0
41
1
10
14.9638659144066
20
11.8063645288603
30
0
41
1
10
14.8732837547426
20
11.6901456432219
30
0
41
1
10
14.7455848507752
20
11.5223115123025
30
0
41
1
10
14.6352983391196
20
11.3730406341256
30
0
41
1
10
14.5244876286594
20
11.219536398204
30
0
41
1
10
14.4318469223148
20
11.0889905787612
30
0
41
1
10
14.3017156104135
20
10.9014466274146
30
0
41
1
10
14.1898406889997
20
10.735703477386
30
0
41
1
10
14.0778565890413
20
10.5661234063432
30
0
41
1
10
13.9845011564435
20
10.4224411115843
30
0
41
1
10
13.8538688277816
20
10.2170350266356
30
0
41
1
10
13.7421088381879
20
10.0365947938466
30
0
41
1
10
13.6306860767164
20
9.85286421975914
30
0
41
1
10
13.5380797026202
20
9.69774310264791
30
0
41
1
10
13.4090230954195
20
9.47701977220839
30
0
41
1
10
13.2991805418462
20
9.28423774296701
30
0
41
1
10
13.1901312293551
20
9.08884363576107
30
0
41
1
10
13.0997882706051
20
8.92443691531076
30
0
41
1
10
12.9744283235534
20
8.69155204378768
30
0
41
1
10
12.8683144219968
20
8.48927418612683
30
0
41
1
10
12.763435232732
20
8.28516313090296
30
0
41
1
10
12.6768419216493
20
8.11398662916358
30
0
41
1
10
12.5572318783221
20
7.87256309067294
30
0
41
1
10
12.4565696549789
20
7.66398989185817
30
0
41
1
10
12.3575451549821
20
7.45442320775484
30
0
41
1
10
12.2760793959506
20
7.27922952280352
30
0
41
1
10
12.164094052648
20
7.03317268371774
30
0
41
1
10
12.0704259845695
20
6.82169278437817
30
0
41
1
10
11.9787394439852
20
6.61007497070437
30
0
41
1
10
11.9035987049039
20
6.43370753690874
30
0
41
1
10
11.8008380297187
20
6.18699694577404
30
0
41
1
10
11.7154487985962
20
5.97600598522527
30
0
41
1
10
11.6323098004378
20
5.76570349615082
30
0
41
1
10
11.5644539381746
20
5.5909459380801
30
0
41
1
10
11.4589860868412
20
5.31263816338159
30
0
41
1
10
11.3582575845245
20
5.03666089162161
30
0
41
1
10
11.2624425443944
20
4.76376217403313
30
0
41
1
10
11.1699323700513
20
4.49313023500136
30
0
41
1
10
11.0824233308826
20
4.22622007746827
30
0
41
1
10
11.0000030998761
20
3.96367492876092
30
0
41
1
10
10.9209776068346
20
3.70421293042077
30
0
41
1
10
10.8470475195256
20
3.44963537435638
30
0
41
1
10
10.7782194355195
20
3.20046169401772
30
0
41
1
10
10.7209521716852
20
2.98569986623957
30
0
41
1
10
10.6750142856289
20
2.8052376112116
30
0
41
1
10
10.6315708244567
20
2.62781593908102
30
0
41
1
10
10.5969219042018
20
2.48189514611354
30
0
41
1
10
10.557824377042
20
2.31006910185792
30
0
41
1
10
10.5242546546321
20
2.15574167732052
30
0
41
1
10
10.5011630882296
20
2.04505163791978
30
0
41
1
10
10.4843722440909
20
1.96254476392386
30
0
41
1
10
10.4707016277568
20
1.89407635978802
30
0
41
1
10
10.4494980449004
20
1.7850198704279
30
0
41
1
10
10.4242168134962
20
1.64939855166608
30
0
41
1
10
10.3957345025409
20
1.48705183171217
30
0
41
1
10
10.342682613533
20
1.16372597674348
30
0
41
1
10
10.2927912123677
20
0.792163359823405
30
0
41
1
10
10.2545065511012
20
0.380858522864173
30
0
41
1
10
10.2387959834029
20
0.130573914071704
30
0
41
1
10
10.2314048232257
20
-0.0648512142454649
30
0
41
1
10
10.2275289187988
20
-0.25682941747425
30
0
41
1
10
10.2290214876412
20
-0.44326940415479
30
0
41
1
10
10.2358704864647
20
-0.618243702495448
30
0
41
1
10
10.2408566536505
20
-0.70117441227589
30
0
41
1
10
10.2435671933741
20
-0.739651647792556
30
0
0
SPLINE
5
1FF
100
AcDbEntity
8
1
62
256
6
ByLayer
370
-1
48
1
60
0
100
AcDbSpline
70
4
71
3
72
32
73
28
40
0
40
0
40
0
40
0
40
0.0673482198341987
40
0.0673482198341987
40
0.139090664462337
40
0.139090664462337
40
0.210833109090476
40
0.210833109090476
40
0.282575553718615
40
0.282575553718615
40
0.354317998346753
40
0.354317998346753
40
0.426060442974892
40
0.426060442974892
40
0.49780288760303
40
0.49780288760303
40
0.569545332231169
40
0.569545332231169
40
0.641287776859308
40
0.641287776859308
40
0.713030221487446
40
0.713030221487446
40
0.784772666115585
40
0.784772666115585
40
0.856515110743723
40
0.856515110743723
40
1
40
1
40
1
40
1
41
1
10
123.013096169315
20
-14.2297068029504
30
0
41
1
10
120.831136248785
20
-14.5584241458541
30
0
41
1
10
118.64977649585
20
-14.8630202304798
30
0
41
1
10
114.144509624833
20
-15.4382915325858
30
0
41
1
10
111.820604371392
20
-15.7050331372974
30
0
41
1
10
107.170307824716
20
-16.1789767358626
30
0
41
1
10
104.846824165244
20
-16.3861518082434
30
0
41
1
10
100.20312247474
20
-16.7364517573274
30
0
41
1
10
97.8828029262877
20
-16.879325164909
30
0
41
1
10
93.2430469496722
20
-17.1003522009604
30
0
41
1
10
90.9236039474814
20
-17.1786181318564
30
0
41
1
10
86.283870393396
20
-17.2686865303036
30
0
41
1
10
83.9636820630839
20
-17.2796316696017
30
0
41
1
10
79.3205279050534
20
-17.2341429832075
30
0
41
1
10
76.9974549000771
20
-17.1779347295059
30
0
41
1
10
72.3476065801957
20
-16.9990679721744
30
0
41
1
10
70.0237833850916
20
-16.8767375325998
30
0
41
1
10
65.3764948795936
20
-16.5686894645957
30
0
41
1
10
63.0530306703891
20
-16.3830287239344
30
0
41
1
10
58.4048851363792
20
-15.9486745625177
30
0
41
1
10
56.0796321569262
20
-15.6995216994631
30
0
41
1
10
51.4342366784482
20
-15.1407172379029
30
0
41
1
10
49.1131115891125
20
-14.8312956222334
30
0
41
1
10
44.47220675862
20
-14.1569162340421
30
0
41
1
10
42.1524278637297
20
-13.7920180961299
30
0
41
1
10
35.1927807538413
20
-12.6176569255542
30
0
41
1
10
30.5522954993023
20
-11.730641940441
30
0
41
1
10
25.9035796051847
20
-10.7571789740004
30
0
0
SPLINE
5
200
100
AcDbEntity
8
1
62
256
6
ByLayer
370
-1
48
1
60
0
100
AcDbSpline
70
4
71
3
72
26
73
22
40
0
40
0
40
0
40
0
40
0.125
40
0.125
40
0.250000000000001
40
0.250000000000001
40
0.375000000000001
40
0.375000000000001
40
0.437500000000001
40
0.437500000000001
40
0.500000000000001
40
0.500000000000001
40
0.625000000000001
40
0.625000000000001
40
0.750000000000001
40
0.750000000000001
40
0.8125
40
0.8125
40
0.875
40
0.875
40
1
40
1
40
1
40
1
41
1
10
13.5056816428574
20
-3.63515340695079
30
0
41
1
10
13.7280015088678
20
-3.84701727000231
30
0
41
1
10
13.9735347665922
20
-4.05465601009445
30
0
41
1
10
14.5086788888168
20
-4.4724509518891
30
0
41
1
10
14.7982912993031
20
-4.68261020077185
30
0
41
1
10
15.4203838863505
20
-5.11431342573175
30
0
41
1
10
15.7528588721073
20
-5.33587626567439
30
0
41
1
10
16.2836957038365
20
-5.68161941298209
30
0
41
1
10
16.4662658368769
20
-5.7992390064862
30
0
41
1
10
16.8371926197422
20
-6.03622071065467
30
0
41
1
10
17.0261042547217
20
-6.15594752477406
30
0
41
1
10
17.6027449697059
20
-6.51895860188884
30
0
41
1
10
18.000327328502
20
-6.76616140326564
30
0
41
1
10
18.820781089857
20
-7.26922218480073
30
0
41
1
10
19.2436551671149
20
-7.52505819555822
30
0
41
1
10
19.8974081516989
20
-7.91206065272206
30
0
41
1
10
20.1189824117128
20
-8.04181715983179
30
0
41
1
10
20.5667603201904
20
-8.30042648613417
30
0
41
1
10
20.7927311831684
20
-8.42914846386103
30
0
41
1
10
21.4772182982455
20
-8.81241795026003
30
0
41
1
10
21.9422649243786
20
-9.06412426278885
30
0
41
1
10
22.4173843401384
20
-9.30844284296046
30
0
0
SPLINE
5
201
100
AcDbEntity
8
1
62
256
6
ByLayer
370
-1
48
1
60
0
100
AcDbSpline
70
4
71
1
72
4
73
2
40
0
40
0
40
1
40
1
41
1
10
28.8988879269905
20
5.86614677972275
30
0
41
1
10
28.8988879269905
20
9.26712793204931
30
0
0
SPLINE
5
202
100
AcDbEntity
8
1
62
256
6
ByLayer
370
-1
48
1
60
0
100
AcDbSpline
70
4
71
3
72
8
73
4
40
0
40
0
40
0
40
0
40
1
40
1
40
1
40
1
41
1
10
11.9569977160626
20
-2.47883911723295
30
0
41
1
10
12.473240790551
20
-2.86928049928525
30
0
41
1
10
12.989478113161
20
-3.2548741308637
30
0
41
1
10
13.5056816428574
20
-3.63515340695076
30
0
0
SPLINE
5
203
100
AcDbEntity
8
1
62
256
6
ByLayer
370
-1
48
1
60
0
100
AcDbSpline
70
4
71
3
72
8
73
4
40
0
40
0
40
0
40
0
40
1
40
1
40
1
40
1
41
1
10
161.641601628495
20
17.8754083438455
30
0
41
1
10
162.212408999985
20
17.8810752118332
30
0
41
1
10
162.763687750621
20
17.8887912400968
30
0
41
1
10
163.296199718737
20
17.8942150563567
30
0
0
SPLINE
5
204
100
AcDbEntity
8
1
62
256
6
ByLayer
370
-1
48
1
60
0
100
AcDbSpline
70
4
71
3
72
8
73
4
40
0
40
0
40
0
40
0
40
1
40
1
40
1
40
1
41
1
10
157.143023043719
20
3.32692661293135
30
0
41
1
10
157.251526842792
20
3.28712225245638
30
0
41
1
10
157.359440453867
20
3.24866157905996
30
0
41
1
10
157.466766273984
20
3.21153913537538
30
0
0
SPLINE
5
205
100
AcDbEntity
8
1
62
256
6
ByLayer
370
-1
48
1
60
0
100
AcDbSpline
70
4
71
3
72
18
73
14
40
0
40
0
40
0
40
0
40
0.125
40
0.125
40
0.25
40
0.25
40
0.375000000000001
40
0.375000000000001
40
0.500000000000001
40
0.500000000000001
40
0.75
40
0.75
40
1
40
1
40
1
40
1
41
1
10
166.304268704525
20
5.33826442353703
30
0
41
1
10
166.309572745494
20
5.33826442353703
30
0
41
1
10
166.304825421446
20
5.34482720693248
30
0
41
1
10
166.279598910961
20
5.36925612864044
30
0
41
1
10
166.259924687658
20
5.38649230303852
30
0
41
1
10
166.212072473012
20
5.42925926449306
30
0
41
1
10
166.184160490413
20
5.4545680710248
30
0
41
1
10
166.125087173714
20
5.5110301923616
30
0
41
1
10
166.093663658414
20
5.54238916818249
30
0
41
1
10
165.996016567825
20
5.64636801102685
30
0
41
1
10
165.929293622901
20
5.72581152881727
30
0
41
1
10
165.79854872975
20
5.90846989634716
30
0
41
1
10
165.73775518222
20
6.00707916137313
30
0
41
1
10
165.682143067358
20
6.11449982946854
30
0
0
SPLINE
5
206
100
AcDbEntity
8
1
62
256
6
ByLayer
370
-1
48
1
60
0
100
AcDbSpline
70
4
71
3
72
12
73
8
40
0
40
0
40
0
40
0
40
0.249999999999986
40
0.249999999999986
40
0.499999999999973
40
0.499999999999973
40
1
40
1
40
1
40
1
41
1
10
165.748956428613
20
11.6708945043806
30
0
41
1
10
165.753151327029
20
11.6708945043806
30
0
41
1
10
165.761322162061
20
11.6765711845784
30
0
41
1
10
165.784707675153
20
11.6973695206577
30
0
41
1
10
165.800140543561
20
11.7127110223038
30
0
41
1
10
165.853922400103
20
11.7674037312152
30
0
41
1
10
165.900392001527
20
11.8157596536542
30
0
41
1
10
165.954330987746
20
11.8674908619037
30
0
0
SPLINE
5
207
100
AcDbEntity
8
1
62
256
6
ByLayer
370
-1
48
1
60
0
100
AcDbSpline
70
4
71
3
72
14
73
10
40
0
40
0
40
0
40
0
40
0.25
40
0.25
40
0.375
40
0.375
40
0.5
40
0.5
40
1
40
1
40
1
40
1
41
1
10
10.2746060213451
20
-0.850431113220367
30
0
41
1
10
10.498841310618
20
-1.45253204755758
30
0
41
1
10
10.7352473147353
20
-2.04666199517837
30
0
41
1
10
11.108010942132
20
-2.92592692844497
30
0
41
1
10
11.2352991221313
20
-3.21702245314358
30
0
41
1
10
11.4960207767692
20
-3.79517831324279
30
0
41
1
10
11.6297478866493
20
-4.08283820929418
30
0
41
1
10
12.3095575596017
20
-5.50147610380077
30
0
41
1
10
12.8889237109577
20
-6.57537214570328
30
0
41
1
10
13.5056816428574
20
-7.58756112105621
30
0
0
SPLINE
5
208
100
AcDbEntity
8
1
62
256
6
ByLayer
370
-1
48
1
60
0
100
AcDbSpline
70
4
71
3
72
58
73
54
40
0
40
0
40
0
40
0
40
0.0624999999999996
40
0.0624999999999996
40
0.124999999999999
40
0.124999999999999
40
0.187499999999999
40
0.187499999999999
40
0.249999999999999
40
0.249999999999999
40
0.312499999999998
40
0.312499999999998
40
0.343749999999998
40
0.343749999999998
40
0.359374999999998
40
0.359374999999998
40
0.374999999999998
40
0.374999999999998
40
0.437499999999998
40
0.437499999999998
40
0.468749999999998
40
0.468749999999998
40
0.484374999999998
40
0.484374999999998
40
0.499999999999998
40
0.499999999999998
40
0.562499999999999
40
0.562499999999999
40
0.578124999999999
40
0.578124999999999
40
0.593749999999999
40
0.593749999999999
40
0.624999999999999
40
0.624999999999999
40
0.687499999999999
40
0.687499999999999
40
0.718749999999999
40
0.718749999999999
40
0.749999999999999
40
0.749999999999999
40
0.78125
40
0.78125
40
0.796875
40
0.796875
40
0.8125
40
0.8125
40
0.875
40
0.875
40
0.90625
40
0.90625
40
0.9375
40
0.9375
40
1
40
1
40
1
40
1
41
1
10
16.1988879269905
20
14.4787748750841
30
0
41
1
10
15.6946775421951
20
14.6641313196328
30
0
41
1
10
15.1868753477428
20
14.8076899923432
30
0
41
1
10
14.1644581042139
20
15.0118023258135
30
0
41
1
10
13.6498449314432
20
15.0724072898043
30
0
41
1
10
12.613487067739
20
15.1036519039377
30
0
41
1
10
12.1072568704234
20
15.0737816338349
30
0
41
1
10
11.1192184168907
20
14.9235728786496
30
0
41
1
10
10.6373184091595
20
14.8033029077864
30
0
41
1
10
9.70016045101991
20
14.4638700407763
30
0
41
1
10
9.26032973438612
20
14.2501486736916
30
0
41
1
10
8.64494482323491
20
13.865294646055
30
0
41
1
10
8.44714433522759
20
13.7261921473858
30
0
41
1
10
8.161749438908
20
13.5008155990966
30
0
41
1
10
8.06850503298475
20
13.4228984578886
30
0
41
1
10
7.88588111842188
20
13.2613395290463
30
0
41
1
10
7.79626972810613
20
13.1774516502408
30
0
41
1
10
7.36271094853731
20
12.7478980494477
30
0
41
1
10
7.05944450844586
20
12.3704087263025
30
0
41
1
10
6.66796722011057
20
11.7545023467468
30
0
41
1
10
6.54811179500407
20
11.5408680178444
30
0
41
1
10
6.38464388502678
20
11.2075654741271
30
0
41
1
10
6.33277305210979
20
11.0940390196507
30
0
41
1
10
6.23556801648127
20
10.8650219797246
30
0
41
1
10
6.19011705488009
20
10.7493304746012
30
0
41
1
10
5.97824712332869
20
10.165072204998
30
0
41
1
10
5.85761440740834
20
9.67924627902244
30
0
41
1
10
5.76585525113174
20
9.04925918156101
30
0
41
1
10
5.7504775120766
20
8.92211773185372
30
0
41
1
10
5.72570799491899
20
8.66551963456993
30
0
41
1
10
5.71634579206031
20
8.53617099406534
30
0
41
1
10
5.69739877531984
20
8.14860331802899
30
0
41
1
10
5.69679447262479
20
7.88956882202262
30
0
41
1
10
5.72932679208498
20
7.11048390795506
30
0
41
1
10
5.79657280102072
20
6.58846621649073
30
0
41
1
10
5.96372212847035
20
5.80118277241269
30
0
41
1
10
6.03011003494817
20
5.54032505307674
30
0
41
1
10
6.1821480079164
20
5.02516964618084
30
0
41
1
10
6.26792665048166
20
4.77027179484801
30
0
41
1
10
6.45820945015365
20
4.26558124019152
30
0
41
1
10
6.56271552205089
20
4.01578911147936
30
0
41
1
10
6.73323360576598
20
3.64482668073182
30
0
41
1
10
6.79236914014692
20
3.52179434628374
30
0
41
1
10
6.91521976535751
20
3.27696585988045
30
0
41
1
10
6.97906718084343
20
3.1549355137779
30
0
41
1
10
7.30755824071781
20
2.55186106055439
30
0
41
1
10
7.60021586786246
20
2.09060927642398
30
0
41
1
10
8.08039320309248
20
1.42798367253039
30
0
41
1
10
8.24735818467917
20
1.21201272583815
30
0
41
1
10
8.59494237811467
20
0.7897676234995
30
0
41
1
10
8.7758328960976
20
0.583203966417983
30
0
41
1
10
9.33738259644994
20
-0.0199167873878707
30
0
41
1
10
9.73299078497533
20
-0.396092833204364
30
0
41
1
10
10.1494730220019
20
-0.74683695149119
30
0
0
SPLINE
5
209
100
AcDbEntity
8
1
62
256
6
ByLayer
370
-1
48
1
60
0
100
AcDbSpline
70
4
71
3
72
30
73
26
40
0
40
0
40
0
40
0
40
0.0624999999999715
40
0.0624999999999715
40
0.0937499999999716
40
0.0937499999999716
40
0.124999999999972
40
0.124999999999972
40
0.156249999999972
40
0.156249999999972
40
0.187499999999972
40
0.187499999999972
40
0.218749999999972
40
0.218749999999972
40
0.249999999999973
40
0.249999999999973
40
0.312499999999962
40
0.312499999999962
40
0.374999999999952
40
0.374999999999952
40
0.499999999999952
40
0.499999999999952
40
0.749999999999976
40
0.749999999999976
40
1
40
1
40
1
40
1
41
1
10
156.788202221686
20
8.26190030568551
30
0
41
1
10
156.729890457228
20
8.25754586501074
30
0
41
1
10
156.67187361441
20
8.25055037867219
30
0
41
1
10
156.585731104833
20
8.23210212903857
30
0
41
1
10
156.557396282709
20
8.22463512140752
30
0
41
1
10
156.502295109399
20
8.20572278843315
30
0
41
1
10
156.475181089757
20
8.19418180777143
30
0
41
1
10
156.424906272305
20
8.16462098352716
30
0
41
1
10
156.401708942582
20
8.14632100400448
30
0
41
1
10
156.366788312254
20
8.10286126302182
30
0
41
1
10
156.355163880411
20
8.07714691499908
30
0
41
1
10
156.346536585385
20
8.02466016874013
30
0
41
1
10
156.348947272722
20
7.99826458538561
30
0
41
1
10
156.36162025246
20
7.94755919938476
30
0
41
1
10
156.37169669086
20
7.92352001928862
30
0
41
1
10
156.407828308094
20
7.85453028312239
30
0
41
1
10
156.439937339802
20
7.81219046500084
30
0
41
1
10
156.50892035809
20
7.73351245257564
30
0
41
1
10
156.546431262711
20
7.69671413662007
30
0
41
1
10
156.664233186632
20
7.59078137944382
30
0
41
1
10
156.749993205185
20
7.52592801846362
30
0
41
1
10
157.013665426101
20
7.34345497347493
30
0
41
1
10
157.19981581918
20
7.23636452160198
30
0
41
1
10
157.582042157285
20
7.03599385254182
30
0
41
1
10
157.778535210393
20
6.94329120216273
30
0
41
1
10
157.978850739028
20
6.85577175861485
30
0
0
SPLINE
5
20A
100
AcDbEntity
8
1
62
256
6
ByLayer
370
-1
48
1
60
0
100
AcDbSpline
70
4
71
3
72
8
73
4
40
0
40
0
40
0
40
0
40
1
40
1
40
1
40
1
41
1
10
140.008242570999
20
10.9573087967542
30
0
41
1
10
139.623139582969
20
11.0528356230905
30
0
41
1
10
139.232695887996
20
11.1538476281536
30
0
41
1
10
138.837216277962
20
11.2600317751173
30
0
0
SPLINE
5
20B
100
AcDbEntity
8
1
62
256
6
ByLayer
370
-1
48
1
60
0
100
AcDbSpline
70
4
71
3
72
12
73
8
40
0
40
0
40
0
40
0
40
0.198798791696153
40
0.198798791696153
40
0.599399395848077
40
0.599399395848077
40
1
40
1
40
1
40
1
41
1
10
80.8368622666837
20
18.0029704664466
30
0
41
1
10
82.3044403022067
20
17.9961217448903
30
0
41
1
10
83.7718423205597
20
17.9757196786521
30
0
41
1
10
88.1963006419211
20
17.8734146009751
30
0
41
1
10
91.1534802395582
20
17.7501144489777
30
0
41
1
10
97.0723556263297
20
17.3961668189334
30
0
41
1
10
100.034065192238
20
17.1655481089608
30
0
41
1
10
103
20
16.8835236229851
30
0
0
SPLINE
5
20C
100
AcDbEntity
8
1
62
256
6
ByLayer
370
-1
48
1
60
0
100
AcDbSpline
70
4
71
3
72
36
73
32
40
0
40
0
40
0
40
0
40
0.124999999999966
40
0.124999999999966
40
0.249999999999933
40
0.249999999999933
40
0.312499999999925
40
0.312499999999925
40
0.343749999999921
40
0.343749999999921
40
0.374999999999918
40
0.374999999999918
40
0.406249999999914
40
0.406249999999914
40
0.43749999999991
40
0.43749999999991
40
0.468749999999906
40
0.468749999999906
40
0.499999999999902
40
0.499999999999902
40
0.531249999999898
40
0.531249999999898
40
0.562499999999895
40
0.562499999999895
40
0.624999999999902
40
0.624999999999902
40
0.749999999999935
40
0.749999999999935
40
0.874999999999967
40
0.874999999999967
40
1
40
1
40
1
40
1
41
1
10
143.06003894341
20
11.9569070366658
30
0
41
1
10
142.910655095165
20
12.0092430408267
30
0
41
1
10
142.763449292348
20
12.0657984054347
30
0
41
1
10
142.476101186873
20
12.1927424115077
30
0
41
1
10
142.335733859613
20
12.2626776275255
30
0
41
1
10
142.135736015359
20
12.3884894131742
30
0
41
1
10
142.070408391393
20
12.4343516451188
30
0
41
1
10
141.979334668613
20
12.5108596129958
30
0
41
1
10
141.950133490123
20
12.5376554993799
30
0
41
1
10
141.89491586112
20
12.5948181317848
30
0
41
1
10
141.868908680949
20
12.6252171232263
30
0
41
1
10
141.822712406685
20
12.6895027926881
30
0
41
1
10
141.802340668018
20
12.7235103003709
30
0
41
1
10
141.769668805407
20
12.7970622601576
30
0
41
1
10
141.757958634553
20
12.8355003140881
30
0
41
1
10
141.746719759404
20
12.9155706435577
30
0
41
1
10
141.747493996842
20
12.9565732754792
30
0
41
1
10
141.761738393347
20
13.0364902427848
30
0
41
1
10
141.775297329732
20
13.0758633291616
30
0
41
1
10
141.810931766364
20
13.1490834496434
30
0
41
1
10
141.833379675036
20
13.1839893483924
30
0
41
1
10
141.883158806214
20
13.2487422930226
30
0
41
1
10
141.910503674639
20
13.2787821359578
30
0
41
1
10
141.997648171861
20
13.3640369254906
30
0
41
1
10
142.062573520353
20
13.4144205155259
30
0
41
1
10
142.262179122695
20
13.5503910203262
30
0
41
1
10
142.404350744714
20
13.6237672349527
30
0
41
1
10
142.696399307537
20
13.755830166676
30
0
41
1
10
142.846222675128
20
13.8136268092322
30
0
41
1
10
143.147896357059
20
13.9188789213391
30
0
41
1
10
143.300258751558
20
13.9663936956026
30
0
41
1
10
143.453628815999
20
14.0105088639906
30
0
0
SPLINE
5
20D
100
AcDbEntity
8
1
62
256
6
ByLayer
370
-1
48
1
60
0
100
AcDbSpline
70
4
71
3
72
8
73
4
40
0
40
0
40
0
40
0
40
1
40
1
40
1
40
1
41
1
10
160.406964125218
20
5.92364415803513
30
0
41
1
10
160.568867243368
20
5.87593339793588
30
0
41
1
10
160.73056843269
20
5.8310696502638
30
0
41
1
10
160.89201912805
20
5.78900384152416
30
0
0
SPLINE
5
20E
100
AcDbEntity
8
1
62
256
6
ByLayer
370
-1
48
1
60
0
100
AcDbSpline
70
4
71
3
72
8
73
4
40
0
40
0
40
0
40
0
40
1
40
1
40
1
40
1
41
1
10
25.9035796051872
20
-10.7571789740008
30
0
41
1
10
25.8220824942914
20
-10.7382399150632
30
0
41
1
10
25.7407862369342
20
-10.7182076749465
30
0
41
1
10
25.6596881238597
20
-10.6970858073079
30
0
0
SPLINE
5
20F
100
AcDbEntity
8
1
62
256
6
ByLayer
370
-1
48
1
60
0
100
AcDbSpline
70
4
71
3
72
24
73
20
40
0
40
0
40
0
40
0
40
0.249999999999997
40
0.249999999999997
40
0.312499999999997
40
0.312499999999997
40
0.374999999999997
40
0.374999999999997
40
0.499999999999997
40
0.499999999999997
40
0.562499999999996
40
0.562499999999996
40
0.593749999999997
40
0.593749999999997
40
0.624999999999997
40
0.624999999999997
40
0.749999999999998
40
0.749999999999998
40
1
40
1
40
1
40
1
41
1
10
27
20
9.94292191358744
30
0
41
1
10
26.0600638954136
20
10.2544805429522
30
0
41
1
10
25.1190625706304
20
10.5771507615207
30
0
41
1
10
23.9488960571203
20
11.0160194973594
30
0
41
1
10
23.7151783193326
20
11.1056063509207
30
0
41
1
10
23.2486104263577
20
11.2891119185728
30
0
41
1
10
23.0149965760967
20
11.3833548851981
30
0
41
1
10
22.323334205228
20
11.6706182839662
30
0
41
1
10
21.8737290276461
20
11.8683723115371
30
0
41
1
10
21.2176714170181
20
12.1777185554936
30
0
41
1
10
21.0020481317925
20
12.2829547701066
30
0
41
1
10
20.6833905323451
20
12.4444332914556
30
0
41
1
10
20.578218788046
20
12.4990798123534
30
0
41
1
10
20.3682383099881
20
12.6085686803006
30
0
41
1
10
20.2630029092427
20
12.6630419474749
30
0
41
1
10
19.7347836133671
20
12.9333035428093
30
0
41
1
10
19.3064775183541
20
13.1434952618531
30
0
41
1
10
18.0045354693046
20
13.7535724615042
30
0
41
1
10
17.1137915976142
20
14.1331122409301
30
0
41
1
10
16.1988879269899
20
14.4787748750815
30
0
0
SPLINE
5
210
100
AcDbEntity
8
1
62
256
6
ByLayer
370
-1
48
1
60
0
100
AcDbSpline
70
4
71
3
72
18
73
14
40
0
40
0
40
0
40
0
40
0.0105132108106179
40
0.0105132108106179
40
0.340342140540411
40
0.340342140540411
40
0.505256605405308
40
0.505256605405308
40
0.670171070270206
40
0.670171070270206
40
0.835085535135103
40
0.835085535135103
40
1
40
1
40
1
40
1
41
1
10
151.664972505247
20
5.52124575024018
30
0
41
1
10
151.66470744325
20
5.52885414968398
30
0
41
1
10
151.664433794566
20
5.53648110783112
30
0
41
1
10
151.655294545221
20
5.78398660555965
30
0
41
1
10
151.638075724427
20
6.04210882747901
30
0
41
1
10
151.592256493114
20
6.45550423629294
30
0
41
1
10
151.573606723117
20
6.59767725405641
30
0
41
1
10
151.527088683768
20
6.89053783701075
30
0
41
1
10
151.499451245032
20
7.03993927548782
30
0
41
1
10
151.431870393894
20
7.34299533095145
30
0
41
1
10
151.392046142433
20
7.49676367803167
30
0
41
1
10
151.292791526657
20
7.80654777961823
30
0
41
1
10
151.233287924974
20
7.96376602975525
30
0
41
1
10
151.156530859769
20
8.11504466658059
30
0
0
SPLINE
5
211
100
AcDbEntity
8
1
62
256
6
ByLayer
370
-1
48
1
60
0
100
AcDbSpline
70
4
71
3
72
26
73
22
40
0
40
0
40
0
40
0
40
0.125
40
0.125
40
0.25
40
0.25
40
0.375
40
0.375
40
0.4375
40
0.4375
40
0.5
40
0.5
40
0.625
40
0.625
40
0.75
40
0.75
40
0.875
40
0.875
40
0.9375
40
0.9375
40
1
40
1
40
1
40
1
41
1
10
32
20
8.50444362034847
30
0
41
1
10
34.961636322494
20
7.76169362881791
30
0
41
1
10
37.919772083456
20
6.99553509557458
30
0
41
1
10
43.8323283798828
20
5.42781428646612
30
0
41
1
10
46.7868343650382
20
4.62653196161736
30
0
41
1
10
52.696417411193
20
3.00363059041951
30
0
41
1
10
55.6516208026752
20
2.18246658260415
30
0
41
1
10
60.0877291431345
20
0.945857311797511
30
0
41
1
10
61.5669825583599
20
0.532845241722669
30
0
41
1
10
64.5270340367753
20
-0.29318001518584
30
0
41
1
10
66.008147539845
20
-0.70629166812941
30
0
41
1
10
70.4527056512666
20
-1.94149008349945
30
0
41
1
10
73.4122528649548
20
-2.75803868924308
30
0
41
1
10
79.3282724037451
20
-4.36341214059487
30
0
41
1
10
82.2845872378854
20
-5.15279632914059
30
0
41
1
10
88.1981213200714
20
-6.69015189377774
30
0
41
1
10
91.1552720531299
20
-7.43838572088379
30
0
41
1
10
95.5940933479815
20
-8.52168370418011
30
0
41
1
10
97.0742314289159
20
-8.87622850948858
30
0
41
1
10
100.035812594856
20
-9.5713834105747
30
0
41
1
10
101.517314944676
20
-9.91179373467318
30
0
41
1
10
103
20
-10.2435603010819
30
0
0
SPLINE
5
212
100
AcDbEntity
8
1
62
256
6
ByLayer
370
-1
48
1
60
0
100
AcDbSpline
70
4
71
3
72
22
73
18
40
0
40
0
40
0
40
0
40
0.336955568285515
40
0.336955568285515
40
0.421194460356903
40
0.421194460356903
40
0.50543335242829
40
0.50543335242829
40
0.673911136571065
40
0.673911136571065
40
0.758150028642452
40
0.758150028642452
40
0.842388920713838
40
0.842388920713838
40
0.926627812785225
40
0.926627812785225
40
1
40
1
40
1
40
1
41
1
10
171.383569946724
20
11.7056840475877
30
0
41
1
10
171.407513697285
20
11.4893489283283
30
0
41
1
10
171.467440919492
20
11.2751518355922
30
0
41
1
10
171.594298780627
20
11.0123826660067
30
0
41
1
10
171.622412960666
20
10.9600136631343
30
0
41
1
10
171.683350936328
20
10.8576660468818
30
0
41
1
10
171.716266028359
20
10.8074732884804
30
0
41
1
10
171.822643405888
20
10.6600691011041
30
0
41
1
10
171.903643632173
20
10.5659837440035
30
0
41
1
10
172.042793673093
20
10.4327328088812
30
0
41
1
10
172.09187317254
20
10.3899406166293
30
0
41
1
10
172.194270194979
20
10.3090360883924
30
0
41
1
10
172.247775503643
20
10.2707377363174
30
0
41
1
10
172.359653822431
20
10.1987770930608
30
0
41
1
10
172.418024633302
20
10.1651125407906
30
0
41
1
10
172.53220127402
20
10.106938780495
30
0
41
1
10
172.587275367632
20
10.0819093068447
30
0
41
1
10
172.643242662442
20
10.059498692751
30
0
0
SPLINE
5
213
100
AcDbEntity
8
1
62
256
6
ByLayer
370
-1
48
1
60
0
100
AcDbSpline
70
4
71
3
72
12
73
8
40
0
40
0
40
0
40
0
40
0.319148967212058
40
0.319148967212058
40
0.659574483606029
40
0.659574483606029
40
1
40
1
40
1
40
1
41
1
10
171.513828821543
20
12.6155029006472
30
0
41
1
10
171.474799805244
20
12.5244837854317
30
0
41
1
10
171.444311761723
20
12.4315759476343
30
0
41
1
10
171.397363054707
20
12.2357248203427
30
0
41
1
10
171.381993027861
20
12.1325239954031
30
0
41
1
10
171.369055104109
20
11.9217451637335
30
0
41
1
10
171.371598071443
20
11.8138516072174
30
0
41
1
10
171.383569946724
20
11.7056840475877
30
0
0
SPLINE
5
214
100
AcDbEntity
8
1
62
256
6
ByLayer
370
-1
48
1
60
0
100
AcDbSpline
70
4
71
3
72
93
73
89
40
-0.0312500000000101
40
-0.0312500000000101
40
0
40
0
40
0.0312499999999959
40
0.0312499999999959
40
0.0468749999999939
40
0.0468749999999939
40
0.0624999999999918
40
0.0624999999999918
40
0.0937499999999856
40
0.0937499999999856
40
0.124999999999979
40
0.124999999999979
40
0.156249999999973
40
0.156249999999973
40
0.171874999999967
40
0.171874999999967
40
0.187499999999961
40
0.187499999999961
40
0.218749999999949
40
0.218749999999949
40
0.249999999999937
40
0.249999999999937
40
0.265624999999931
40
0.265624999999931
40
0.281249999999925
40
0.281249999999925
40
0.312499999999914
40
0.312499999999914
40
0.328124999999911
40
0.328124999999911
40
0.343749999999908
40
0.343749999999908
40
0.374999999999909
40
0.374999999999909
40
0.40624999999991
40
0.40624999999991
40
0.42187499999991
40
0.42187499999991
40
0.43749999999991
40
0.43749999999991
40
0.468749999999911
40
0.468749999999911
40
0.484374999999912
40
0.484374999999912
40
0.499999999999912
40
0.499999999999912
40
0.531249999999913
40
0.531249999999913
40
0.562499999999914
40
0.562499999999914
40
0.578124999999914
40
0.578124999999914
40
0.593749999999914
40
0.593749999999914
40
0.624999999999911
40
0.624999999999911
40
0.640624999999912
40
0.640624999999912
40
0.656249999999913
40
0.656249999999913
40
0.687499999999915
40
0.687499999999915
40
0.718749999999916
40
0.718749999999916
40
0.749999999999918
40
0.749999999999918
40
0.765624999999922
40
0.765624999999922
40
0.781249999999927
40
0.796874999999931
40
0.796874999999931
40
0.812499999999936
40
0.812499999999936
40
0.843749999999944
40
0.843749999999944
40
0.859374999999948
40
0.859374999999948
40
0.874999999999953
40
0.874999999999953
40
0.906249999999966
40
0.906249999999966
40
0.937499999999979
40
0.937499999999979
40
0.953124999999985
40
0.953124999999985
40
0.96874999999999
40
0.96874999999999
40
1
40
1
40
1.03125
40
1.03125
41
1
10
170.256983882577
20
-3.14097970690048
30
0
41
1
10
170.244374952207
20
-2.89687883233083
30
0
41
1
10
170.249795735692
20
-2.7759697148675
30
0
41
1
10
170.275069511073
20
-2.5962860221328
30
0
41
1
10
170.286371223537
20
-2.5366737203563
30
0
41
1
10
170.314899008424
20
-2.41803615676059
30
0
41
1
10
170.332234307127
20
-2.3587691647443
30
0
41
1
10
170.392237417835
20
-2.18554938342675
30
0
41
1
10
170.442971969814
20
-2.07512034225127
30
0
41
1
10
170.565907927683
20
-1.86443346460408
30
0
41
1
10
170.639004296251
20
-1.76345164210426
30
0
41
1
10
170.801325700027
20
-1.58060364507159
30
0
41
1
10
170.8909201941
20
-1.4976979051109
30
0
41
1
10
171.038254450738
20
-1.38646247343127
30
0
41
1
10
171.089734462872
20
-1.3515050226957
30
0
41
1
10
171.194815520723
20
-1.28760537610663
30
0
41
1
10
171.248657669295
20
-1.25845479008424
30
0
41
1
10
171.414019589399
20
-1.17925973725369
30
0
41
1
10
171.529943516888
20
-1.13723913740384
30
0
41
1
10
171.769889084696
20
-1.07691079908892
30
0
41
1
10
171.891046245877
20
-1.05919093120977
30
0
41
1
10
172.074504364294
20
-1.05071802865672
30
0
41
1
10
172.135946298795
20
-1.05093416216678
30
0
41
1
10
172.259426171729
20
-1.05763171082535
30
0
41
1
10
172.321113375394
20
-1.06412802109105
30
0
41
1
10
172.503055943272
20
-1.09254297185356
30
0
41
1
10
172.621405263912
20
-1.12335038232686
30
0
41
1
10
172.794480845013
20
-1.1874601783648
30
0
41
1
10
172.851702763797
20
-1.21199366456213
30
0
41
1
10
172.96233408321
20
-1.26617257754967
30
0
41
1
10
173.015942930833
20
-1.29585744334776
30
0
41
1
10
173.171767780291
20
-1.39250855106019
30
0
41
1
10
173.269275347029
20
-1.46722798002656
30
0
41
1
10
173.449487241228
20
-1.63660469110357
30
0
41
1
10
173.529693693503
20
-1.72882257233772
30
0
41
1
10
173.635800249392
20
-1.87789688634862
30
0
41
1
10
173.668784442295
20
-1.92939291493235
30
0
41
1
10
173.729885223831
20
-2.0360597179471
30
0
41
1
10
173.75791065404
20
-2.09115279133269
30
0
41
1
10
173.832915615001
20
-2.25831825788691
30
0
41
1
10
173.871595533136
20
-2.37340360239
30
0
41
1
10
173.912887278188
20
-2.55136566213986
30
0
41
1
10
173.923877523185
20
-2.61190917895161
30
0
41
1
10
173.939834473805
20
-2.73293345420402
30
0
41
1
10
173.944838962317
20
-2.7933835926942
30
0
41
1
10
173.951219362564
20
-2.97454924905952
30
0
41
1
10
173.944041896462
20
-3.09508030728796
30
0
41
1
10
173.906391133392
20
-3.3356494723262
30
0
41
1
10
173.876255629047
20
-3.45293845973592
30
0
41
1
10
173.815294375073
20
-3.62245873871797
30
0
41
1
10
173.792309390899
20
-3.67801148253273
30
0
41
1
10
173.740919078186
20
-3.78718863149405
30
0
41
1
10
173.712342130974
20
-3.84108716421471
30
0
41
1
10
173.619534962528
20
-3.99744454442018
30
0
41
1
10
173.548563191408
20
-4.09447120990089
30
0
41
1
10
173.428557276822
20
-4.2293951384805
30
0
41
1
10
173.3862810886
20
-4.2725878118101
30
0
41
1
10
173.296989731079
20
-4.35528217811134
30
0
41
1
10
173.249973219876
20
-4.3947245475083
30
0
41
1
10
173.10489513948
20
-4.50476730510505
30
0
41
1
10
173.001851182805
20
-4.56813805031285
30
0
41
1
10
172.782757265713
20
-4.67451489658364
30
0
41
1
10
172.665784071317
20
-4.71748079586843
30
0
41
1
10
172.429189930567
20
-4.77803006669069
30
0
41
1
10
172.308386931606
20
-4.79637412226026
30
0
41
1
10
172.123260356234
20
-4.80526657690049
30
0
41
1
10
172.061081960172
20
-4.80504921879384
30
0
41
1
10
171.938418922109
20
-4.79837003970547
30
0
41
1
10
171.816713084667
20
-4.78549600230352
30
0
41
1
10
171.696889024139
20
-4.76043210953674
30
0
41
1
10
171.578016663907
20
-4.72919221389094
30
0
41
1
10
171.518829966108
20
-4.71036896033505
30
0
41
1
10
171.346553793472
20
-4.64583681349046
30
0
41
1
10
171.23754669898
20
-4.59194437826974
30
0
41
1
10
171.082479604702
20
-4.49527816831491
30
0
41
1
10
171.0319540668
20
-4.46019054015872
30
0
41
1
10
170.93528742107
20
-4.38572128006138
30
0
41
1
10
170.889152046686
20
-4.34639708541567
30
0
41
1
10
170.757083701691
20
-4.22236583169237
30
0
41
1
10
170.677427622379
20
-4.13165854400455
30
0
41
1
10
170.535075112933
20
-3.93385279105692
30
0
41
1
10
170.474504524034
20
-3.82969285560338
30
0
41
1
10
170.39887941483
20
-3.66609082786044
30
0
41
1
10
170.376220561921
20
-3.61030856136844
30
0
41
1
10
170.336091588031
20
-3.49619068102109
30
0
41
1
10
170.318585639994
20
-3.437638050532
30
0
41
1
10
170.274846825399
20
-3.26091088613731
30
0
41
1
10
170.256983882577
20
-3.14097970690048
30
0
41
1
10
170.244374952207
20
-2.89687883233083
30
0
0
SPLINE
5
215
100
AcDbEntity
8
1
62
256
6
ByLayer
370
-1
48
1
60
0
100
AcDbSpline
70
4
71
3
72
12
73
8
40
0
40
0
40
0
40
0
40
0.25
40
0.25
40
0.500000000000001
40
0.500000000000001
40
1
40
1
40
1
40
1
41
1
10
165.550497815967
20
17.8947380852584
30
0
41
1
10
165.555796014806
20
17.8932823529365
30
0
41
1
10
165.567700902051
20
17.8915672029221
30
0
41
1
10
165.604204978574
20
17.8877138403135
30
0
41
1
10
165.629221275011
20
17.8855501524696
30
0
41
1
10
165.720378648401
20
17.8789277852543
30
0
41
1
10
165.804399840505
20
17.8741935118708
30
0
41
1
10
165.904715754878
20
17.8703478631907
30
0
0
SPLINE
5
216
100
AcDbEntity
8
1
62
256
6
ByLayer
370
-1
48
1
60
0
100
AcDbSpline
70
4
71
3
72
23
73
19
40
0
40
0
40
0
40
0
40
0.083549717374068
40
0.236291431145057
40
0.389033144916045
40
0.427218573358792
40
0.46540400180154
40
0.541774858687034
40
0.618145715572528
40
0.656331144015275
40
0.694516572458023
40
0.73270200090077
40
0.770887429343517
40
0.847258286229011
40
0.885443714671758
40
0.923629143114506
40
0.961814571557253
40
1
40
1
40
1
40
1
41
1
10
53.8802213767984
20
2.67328636678005
30
0
41
1
10
53.1845772828786
20
2.77008912568522
30
0
41
1
10
51.21714148703
20
3.04258705011469
30
0
41
1
10
47.9776994227681
20
3.48471279662783
30
0
41
1
10
45.1159065837827
20
3.86627037684877
30
0
41
1
10
43.2079747577831
20
4.11611028631074
30
0
41
1
10
41.9358485016235
20
4.28134378782545
30
0
41
1
10
40.3458482886779
20
4.48574452850644
30
0
41
1
10
38.7559865978167
20
4.68673836542115
30
0
41
1
10
37.4840340133281
20
4.84551909478873
30
0
41
1
10
36.530164107224
20
4.96346184039444
30
0
41
1
10
35.5762915120906
20
5.08026463583528
30
0
41
1
10
34.3041058077963
20
5.23455444842699
30
0
41
1
10
33.0319512081229
20
5.38680859805478
30
0
41
1
10
31.7602182035545
20
5.536717054044
30
0
41
1
10
30.8066767304743
20
5.64782072246547
30
0
41
1
10
29.85304976322
20
5.75762836229572
30
0
41
1
10
29.2169909842164
20
5.83009451664702
30
0
41
1
10
28.8988879269934
20
5.86614677972233
30
0
0
SPLINE
5
217
100
AcDbEntity
8
1
62
256
6
ByLayer
370
-1
48
1
60
0
100
AcDbSpline
70
4
71
3
72
16
73
12
40
0
40
0
40
0
40
0
40
0.153125665069295
40
0.153125665069295
40
0.435417110046213
40
0.435417110046213
40
0.71770855502313
40
0.71770855502313
40
0.858854277511565
40
0.858854277511565
40
1
40
1
40
1
40
1
41
1
10
169.081792793675
20
5.59913751505675
30
0
41
1
10
169.060661092805
20
5.57965424802794
30
0
41
1
10
169.039711136594
20
5.56120771845971
30
0
41
1
10
168.980970559344
20
5.51159653610512
30
0
41
1
10
168.943831855654
20
5.48280563810462
30
0
41
1
10
168.874300714564
20
5.43278164248793
30
0
41
1
10
168.842454311439
20
5.41197849577114
30
0
41
1
10
168.805287049316
20
5.38997645195749
30
0
41
1
10
168.794692539441
20
5.38419577493517
30
0
41
1
10
168.778651957026
20
5.37647247261168
30
0
41
1
10
168.77308114553
20
5.3744515556499
30
0
41
1
10
168.770284881739
20
5.3744515556499
30
0
0
SPLINE
5
218
100
AcDbEntity
8
1
62
256
6
ByLayer
370
-1
48
1
60
0
100
AcDbSpline
70
4
71
3
72
8
73
4
40
0
40
0
40
0
40
0
40
1
40
1
40
1
40
1
41
1
10
16.1988879269903
20
13.1501164618948
30
0
41
1
10
20.4615743878169
20
10.7128585177602
30
0
41
1
10
24.6926604244267
20
8.27896641033226
30
0
41
1
10
28.8988879269905
20
5.86614677972275
30
0
0
SPLINE
5
219
100
AcDbEntity
8
1
62
256
6
ByLayer
370
-1
48
1
60
0
100
AcDbSpline
70
4
71
2
72
6
73
3
40
0
40
0
40
0
40
1
40
1
40
1
41
1
10
22.4173843390262
20
-9.30844284280582
30
0
41
1
10
22.4173843390262
20
-10.6686687599169
30
0
41
1
10
22.4173843390261
20
-12.0288946770281
30
0
0
SPLINE
5
21A
100
AcDbEntity
8
1
62
256
6
ByLayer
370
-1
48
1
60
0
100
AcDbSpline
70
4
71
3
72
22
73
18
40
0
40
0
40
0
40
0
40
0.125
40
0.125
40
0.250000000000001
40
0.250000000000001
40
0.375000000000001
40
0.375000000000001
40
0.437500000000001
40
0.437500000000001
40
0.500000000000002
40
0.500000000000002
40
0.750000000000001
40
0.750000000000001
40
0.875
40
0.875
40
1
40
1
40
1
40
1
41
1
10
32
20
-13.0754248066493
30
0
41
1
10
34.9607934826665
20
-13.6438642206256
30
0
41
1
10
37.9179822074489
20
-14.16951360657
30
0
41
1
10
43.8293909067815
20
-15.1265305146685
30
0
41
1
10
46.7836243457856
20
-15.5579027623225
30
0
41
1
10
52.6929368511694
20
-16.3201839854503
30
0
41
1
10
55.6479335048565
20
-16.6512286497922
30
0
41
1
10
60.0838336703654
20
-17.0686468703321
30
0
41
1
10
61.5630431738735
20
-17.19459269374
30
0
41
1
10
64.5231212311067
20
-17.419545641077
30
0
41
1
10
66.0042907217102
20
-17.5185697496818
30
0
41
1
10
73.4122695537781
20
-17.9450912537228
30
0
41
1
10
79.3255474666662
20
-18.0650539909938
30
0
41
1
10
88.1964282879418
20
-17.9138775438836
30
0
41
1
10
91.1535674700995
20
-17.8083306787093
30
0
41
1
10
97.0723842821091
20
-17.4891143640253
30
0
41
1
10
100.034075361679
20
-17.275470221813
30
0
41
1
10
103
20
-17.0098597218566
30
0
0
SPLINE
5
21B
100
AcDbEntity
8
1
62
256
6
ByLayer
370
-1
48
1
60
0
100
AcDbSpline
70
4
71
3
72
40
73
36
40
0
40
0
40
0
40
0
40
0.125000000000001
40
0.125000000000001
40
0.187500000000001
40
0.187500000000001
40
0.218750000000001
40
0.218750000000001
40
0.250000000000002
40
0.250000000000002
40
0.375000000000003
40
0.375000000000003
40
0.437500000000004
40
0.437500000000004
40
0.468750000000004
40
0.468750000000004
40
0.500000000000004
40
0.500000000000004
40
0.625000000000003
40
0.625000000000003
40
0.687500000000002
40
0.687500000000002
40
0.718750000000002
40
0.718750000000002
40
0.750000000000001
40
0.750000000000001
40
0.8125
40
0.8125
40
0.828125
40
0.828125
40
0.84375
40
0.84375
40
0.875
40
0.875
40
1
40
1
40
1
40
1
41
1
10
13.5056816428573
20
-7.58756112105615
30
0
41
1
10
13.6799976990778
20
-8.07472338946872
30
0
41
1
10
13.8773697803508
20
-8.53758895262922
30
0
41
1
10
14.2155996622776
20
-9.19173765563465
30
0
41
1
10
14.3353946028828
20
-9.40307398381222
30
0
41
1
10
14.5269086111752
20
-9.70928394091465
30
0
41
1
10
14.5927194138995
20
-9.8095526570759
30
0
41
1
10
14.7285302546025
20
-10.0063360346681
30
0
41
1
10
14.7987183294144
20
-10.1030905722828
30
0
41
1
10
15.1581926571362
20
-10.5736680013879
30
0
41
1
10
15.4720655721288
20
-10.9073935208769
30
0
41
1
10
15.9867386305184
20
-11.341257552163
30
0
41
1
10
16.1656252862268
20
-11.4747174633595
30
0
41
1
10
16.445725046702
20
-11.6573953208072
30
0
41
1
10
16.5410551305062
20
-11.7153657842886
30
0
41
1
10
16.7357977632712
20
-11.8252868353613
30
0
41
1
10
16.8354599364919
20
-11.8773370222838
30
0
41
1
10
17.3380938727183
20
-12.1191711977082
30
0
41
1
10
17.7578056099784
20
-12.2565018847418
30
0
41
1
10
18.4131286941298
20
-12.3823502588461
30
0
41
1
10
18.6358708269038
20
-12.410877753189
30
0
41
1
10
18.9764270411729
20
-12.4334974897072
30
0
41
1
10
19.0911932339829
20
-12.4376562849262
30
0
41
1
10
19.3204695043612
20
-12.4392426555883
30
0
41
1
10
19.4352521180271
20
-12.4366991910573
30
0
41
1
10
19.7799977643495
20
-12.4194095186634
30
0
41
1
10
20.0103594094374
20
-12.3950203151749
30
0
41
1
10
20.2988447617119
20
-12.3493448535085
30
0
41
1
10
20.3565684335429
20
-12.3394490178036
30
0
41
1
10
20.4720654531986
20
-12.3181531741031
30
0
41
1
10
20.5298083291745
20
-12.306640706508
30
0
41
1
10
20.7038577068058
20
-12.2726784550947
30
0
41
1
10
20.8210597062011
20
-12.2510735831583
30
0
41
1
10
21.4129535884245
20
-12.1480110075601
30
0
41
1
10
21.9052084788148
20
-12.0812622959052
30
0
41
1
10
22.4173843401385
20
-12.0288946771828
30
0
0
SPLINE
5
21C
100
AcDbEntity
8
1
62
256
6
ByLayer
370
-1
48
1
60
0
100
AcDbSpline
70
4
71
3
72
12
73
8
40
0
40
0
40
0
40
0
40
0.455192072543485
40
0.455192072543485
40
0.91038414508697
40
0.91038414508697
40
1
40
1
40
1
40
1
41
1
10
103
20
-17.0098597218566
30
0
41
1
10
106.17505979631
20
-16.7367044132634
30
0
41
1
10
109.346044533791
20
-16.4029050639257
30
0
41
1
10
115.684202983362
20
-15.6212282370146
30
0
41
1
10
118.851282933126
20
-15.1731438988734
30
0
41
1
10
122.642500293227
20
-14.5741031053877
30
0
41
1
10
123.266141417382
20
-14.473536831109
30
0
41
1
10
123.889822437336
20
-14.3709854019665
30
0
0
SPLINE
5
21D
100
AcDbEntity
8
1
62
256
6
ByLayer
370
-1
48
1
60
0
100
AcDbSpline
70
4
71
3
72
8
73
4
40
0
40
0
40
0
40
0
40
1
40
1
40
1
40
1
41
1
10
16.1988879269905
20
13.1501164618958
30
0
41
1
10
16.1988879269905
20
13.5930025996252
30
0
41
1
10
16.1988879269905
20
14.0358887373547
30
0
41
1
10
16.1988879269905
20
14.4787748750841
30
0
0
SPLINE
5
21E
100
AcDbEntity
8
1
62
256
6
ByLayer
370
-1
48
1
60
0
100
AcDbSpline
70
4
71
3
72
8
73
4
40
0
40
0
40
0
40
0
40
1
40
1
40
1
40
1
41
1
10
13.5056816428574
20
-3.63515340695076
30
0
41
1
10
13.5056816428574
20
-4.95262264498592
30
0
41
1
10
13.5056816428574
20
-6.27009188302105
30
0
41
1
10
13.5056816428574
20
-7.58756112105621
30
0
0
SPLINE
5
21F
100
AcDbEntity
8
1
62
256
6
ByLayer
370
-1
48
1
60
0
100
AcDbSpline
70
4
71
3
72
18
73
14
40
0
40
0
40
0
40
0
40
0.24999999999999
40
0.24999999999999
40
0.374999999999985
40
0.374999999999985
40
0.49999999999998
40
0.49999999999998
40
0.749999999999982
40
0.749999999999982
40
0.874999999999991
40
0.874999999999991
40
1
40
1
40
1
40
1
41
1
10
161.710505044853
20
2.77154921660545
30
0
41
1
10
161.441603101306
20
2.7159885732836
30
0
41
1
10
161.139258205993
20
2.68153991428636
30
0
41
1
10
160.648907786376
20
2.66318847984934
30
0
41
1
10
160.47920035814
20
2.66267181185114
30
0
41
1
10
160.128458653954
20
2.6735804220543
30
0
41
1
10
159.946469830316
20
2.68512463738972
30
0
41
1
10
159.394307788086
20
2.73809236988183
30
0
41
1
10
159.016971461043
20
2.79750723699527
30
0
41
1
10
158.441322664849
20
2.92410486934676
30
0
41
1
10
158.247802295458
20
2.97257523327107
30
0
41
1
10
157.857902236038
20
3.08257985347208
30
0
41
1
10
157.662080229505
20
3.14398287252342
30
0
41
1
10
157.466766273984
20
3.21153913537529
30
0
0
SPLINE
5
220
100
AcDbEntity
8
1
62
256
6
ByLayer
370
-1
48
1
60
0
100
AcDbSpline
70
4
71
3
72
12
73
8
40
0
40
0
40
0
40
0
40
0.360402975382537
40
0.360402975382537
40
0.720805950765082
40
0.720805950765082
40
1
40
1
40
1
40
1
41
1
10
177.606089838717
20
-7.73168447534266
30
0
41
1
10
177.60494630564
20
-7.76420301636855
30
0
41
1
10
177.599549543495
20
-7.79580125685979
30
0
41
1
10
177.580559398277
20
-7.85722417636808
30
0
41
1
10
177.566780554279
20
-7.88704520277815
30
0
41
1
10
177.536269619172
20
-7.93514932373895
30
0
41
1
10
177.520587192109
20
-7.95500825426072
30
0
41
1
10
177.503161142724
20
-7.97297729638939
30
0
0
SPLINE
5
221
100
AcDbEntity
8
1
62
256
6
ByLayer
370
-1
48
1
60
0
100
AcDbSpline
70
4
71
3
72
10
73
6
40
0
40
0
40
0
40
0
40
0.439971762231159
40
0.439971762231159
40
1
40
1
40
1
40
1
41
1
10
177.339536846793
20
-5.13081694153749
30
0
41
1
10
177.367753940001
20
-5.2292559494698
30
0
41
1
10
177.399989928176
20
-5.32679243132429
30
0
41
1
10
177.482587335422
20
-5.5463856911083
30
0
41
1
10
177.535523041195
20
-5.66777313584271
30
0
41
1
10
177.594521475858
20
-5.78590761506177
30
0
0
SPLINE
5
222
100
AcDbEntity
8
1
62
256
6
ByLayer
370
-1
48
1
60
0
100
AcDbSpline
70
4
71
3
72
16
73
12
40
0
40
0
40
0
40
0
40
0.139286816973009
40
0.139286816973009
40
0.354465112729757
40
0.354465112729757
40
0.569643408486505
40
0.569643408486505
40
0.784821704243252
40
0.784821704243252
40
1
40
1
40
1
40
1
41
1
10
177.152098279033
20
2.07477357486312
30
0
41
1
10
177.170910784214
20
2.06745255777523
30
0
41
1
10
177.190210866775
20
2.05874987141954
30
0
41
1
10
177.241029278521
20
2.03170876520375
30
0
41
1
10
177.273125944575
20
2.01050145703547
30
0
41
1
10
177.33207816946
20
1.96003742374049
30
0
41
1
10
177.358693640059
20
1.93086887289431
30
0
41
1
10
177.401428154225
20
1.87207428432021
30
0
41
1
10
177.417788326864
20
1.84266473781537
30
0
41
1
10
177.443121794573
20
1.78635204164004
30
0
41
1
10
177.452275682108
20
1.7590987994746
30
0
41
1
10
177.459016142433
20
1.7330077872308
30
0
0
SPLINE
5
223
100
AcDbEntity
8
1
62
256
6
ByLayer
370
-1
48
1
60
0
100
AcDbSpline
70
4
71
3
72
12
73
8
40
0
40
0
40
0
40
0
40
0.0754145580406344
40
0.0754145580406344
40
0.53770727902031
40
0.53770727902031
40
1
40
1
40
1
40
1
41
1
10
177.501336640214
20
-7.89491528075126
30
0
41
1
10
177.503947058811
20
-7.89117209754352
30
0
41
1
10
177.506472694288
20
-7.88737762811422
30
0
41
1
10
177.523847488143
20
-7.85999363393947
30
0
41
1
10
177.535828198725
20
-7.8340572685907
30
0
41
1
10
177.552302180931
20
-7.78075716936726
30
0
41
1
10
177.557025806875
20
-7.7530146284852
30
0
41
1
10
177.557987381143
20
-7.72477466265326
30
0
0
SPLINE
5
224
100
AcDbEntity
8
1
62
256
6
ByLayer
370
-1
48
1
60
0
100
AcDbSpline
70
4
71
3
72
22
73
18
40
0
40
0
40
0
40
0
40
0.0625000000000004
40
0.0625000000000004
40
0.125000000000001
40
0.125000000000001
40
0.187500000000001
40
0.187500000000001
40
0.250000000000002
40
0.250000000000002
40
0.375
40
0.375
40
0.499999999999998
40
0.499999999999998
40
0.749999999999999
40
0.749999999999999
40
1
40
1
40
1
40
1
41
1
10
178.669782643247
20
-7.88761357119483
30
0
41
1
10
178.668630016446
20
-7.92054008102736
30
0
41
1
10
178.668280292339
20
-7.95279633935453
30
0
41
1
10
178.66887499206
20
-8.0161672918004
30
0
41
1
10
178.669789972541
20
-8.04567934479195
30
0
41
1
10
178.672383479222
20
-8.1020165567852
30
0
41
1
10
178.674072092976
20
-8.12877306817515
30
0
41
1
10
178.677840172458
20
-8.1789762169204
30
0
41
1
10
178.679935739713
20
-8.20269593834729
30
0
41
1
10
178.686641734051
20
-8.27111597586307
30
0
41
1
10
178.691674878619
20
-8.31323219526695
30
0
41
1
10
178.702266578163
20
-8.39323447266048
30
0
41
1
10
178.707804939074
20
-8.43086207827764
30
0
41
1
10
178.724851350206
20
-8.53952334790867
30
0
41
1
10
178.73678114561
20
-8.60642925866239
30
0
41
1
10
178.761163404173
20
-8.73512556583475
30
0
41
1
10
178.773631437383
20
-8.79676357324536
30
0
41
1
10
178.786258268824
20
-8.85684737224244
30
0
0
SPLINE
5
225
100
AcDbEntity
8
1
62
256
6
ByLayer
370
-1
48
1
60
0
100
AcDbSpline
70
4
71
3
72
18
73
14
40
0
40
0
40
0
40
0
40
0.250000000000001
40
0.250000000000001
40
0.500000000000003
40
0.500000000000003
40
0.625000000000002
40
0.625000000000002
40
0.750000000000001
40
0.750000000000001
40
0.875000000000001
40
0.875000000000001
40
1
40
1
40
1
40
1
41
1
10
178.730467494851
20
-8.98186154727244
30
0
41
1
10
178.720418519043
20
-8.9146810653464
30
0
41
1
10
178.710800177646
20
-8.84530614827071
30
0
41
1
10
178.692795829087
20
-8.6989230391564
30
0
41
1
10
178.684402349697
20
-8.62212110511243
30
0
41
1
10
178.67334846332
20
-8.49622139800786
30
0
41
1
10
178.669918908668
20
-8.45234996164615
30
0
41
1
10
178.663844707381
20
-8.35975205570898
30
0
41
1
10
178.661184209129
20
-8.31101543791314
30
0
41
1
10
178.657033466408
20
-8.20478093985929
30
0
41
1
10
178.655538984171
20
-8.14701271354653
30
0
41
1
10
178.654777910801
20
-8.02117724555578
30
0
41
1
10
178.655580958407
20
-7.9526478557159
30
0
41
1
10
178.657996534899
20
-7.88364329758804
30
0
0
SPLINE
5
226
100
AcDbEntity
8
1
62
256
6
ByLayer
370
-1
48
1
60
0
100
AcDbSpline
70
4
71
3
72
8
73
4
40
0
40
0
40
0
40
0
40
1
40
1
40
1
40
1
41
1
10
178.031309810538
20
-0.217484118999579
30
0
41
1
10
178.049334543322
20
-0.26495837847267
30
0
41
1
10
178.058240182972
20
-0.315003262345527
30
0
41
1
10
178.058503442254
20
-0.361130709865336
30
0
0
SPLINE
5
227
100
AcDbEntity
8
1
62
256
6
ByLayer
370
-1
48
1
60
0
100
AcDbSpline
70
4
71
3
72
10
73
6
40
0
40
0
40
0
40
0
40
0.811452480134843
40
0.811452480134843
40
1
40
1
40
1
40
1
41
1
10
177.54917285978
20
-5.80301606698427
30
0
41
1
10
177.48935516513
20
-5.68386719192077
30
0
41
1
10
177.435928680204
20
-5.56212247117563
30
0
41
1
10
177.377904667355
20
-5.40891462539003
30
0
41
1
10
177.367303630782
20
-5.37986901532466
30
0
41
1
10
177.357049361189
20
-5.35069022104619
30
0
0
SPLINE
5
228
100
AcDbEntity
8
1
62
256
6
ByLayer
370
-1
48
1
60
0
100
AcDbSpline
70
4
71
3
72
10
73
6
40
0
40
0
40
0
40
0
40
0.5
40
0.5
40
1
40
1
40
1
40
1
41
1
10
178.024830588728
20
-0.231901524129199
30
0
41
1
10
178.007998841118
20
-0.187560308740132
30
0
41
1
10
177.991416138054
20
-0.142519874286847
30
0
41
1
10
177.959935537709
20
-0.0541705767885219
30
0
41
1
10
177.945483116524
20
-0.012137406909801
30
0
41
1
10
177.93229229588
20
0.0274731465453613
30
0
0
SPLINE
5
229
100
AcDbEntity
8
1
62
256
6
ByLayer
370
-1
48
1
60
0
100
AcDbSpline
70
4
71
3
72
12
73
8
40
0
40
0
40
0
40
0
40
0.5
40
0.5
40
0.75
40
0.75
40
1
40
1
40
1
40
1
41
1
10
177.459016142433
20
1.7330077872308
30
0
41
1
10
177.467854542287
20
1.68477762556478
30
0
41
1
10
177.478140950708
20
1.63333506675508
30
0
41
1
10
177.498257247377
20
1.54577385191283
30
0
41
1
10
177.505795687785
20
1.5146762379687
30
0
41
1
10
177.523400861221
20
1.44715616015068
30
0
41
1
10
177.533350122425
20
1.41112347859627
30
0
41
1
10
177.545347764094
20
1.37103102519077
30
0
0
SPLINE
5
22A
100
AcDbEntity
8
1
62
256
6
ByLayer
370
-1
48
1
60
0
100
AcDbSpline
70
4
71
3
72
22
73
18
40
0
40
0
40
0
40
0
40
0.124999999999905
40
0.124999999999905
40
0.249999999999811
40
0.249999999999811
40
0.312499999999791
40
0.312499999999791
40
0.374999999999771
40
0.374999999999771
40
0.499999999999817
40
0.499999999999817
40
0.624999999999862
40
0.624999999999862
40
0.749999999999908
40
0.749999999999908
40
1
40
1
40
1
40
1
41
1
10
177.404749489933
20
1.8059679451016
30
0
41
1
10
177.40073251659
20
1.82221828797276
30
0
41
1
10
177.395324700562
20
1.83938764759282
30
0
41
1
10
177.379237900681
20
1.87679923250943
30
0
41
1
10
177.368719305245
20
1.89697806077732
30
0
41
1
10
177.344680545132
20
1.93021759368543
30
0
41
1
10
177.335142843044
20
1.9418205828778
30
0
41
1
10
177.313805643195
20
1.96403933495645
30
0
41
1
10
177.301743443094
20
1.97486869327758
30
0
41
1
10
177.265587282802
20
2.00300527784719
30
0
41
1
10
177.241862134019
20
2.01620837024078
30
0
41
1
10
177.199816476142
20
2.03549851989223
30
0
41
1
10
177.180550540037
20
2.04207091251277
30
0
41
1
10
177.144698126757
20
2.05204858464794
30
0
41
1
10
177.128122617656
20
2.05540761218501
30
0
41
1
10
177.080757322084
20
2.06269549026123
30
0
41
1
10
177.052304701136
20
2.06386474468925
30
0
41
1
10
177.025484987761
20
2.06320090280244
30
0
0
SPLINE
5
22B
100
AcDbEntity
8
1
62
256
6
ByLayer
370
-1
48
1
60
0
100
AcDbSpline
70
4
71
3
72
10
73
6
40
0
40
0
40
0
40
0
40
0.5
40
0.5
40
1
40
1
40
1
40
1
41
1
10
178.058503442254
20
-0.361130709865307
30
0
41
1
10
178.057230173274
20
-0.389807916886127
30
0
41
1
10
178.05643706638
20
-0.420545701223659
30
0
41
1
10
178.056510108348
20
-0.489141833706384
30
0
41
1
10
178.057400072524
20
-0.525374350419895
30
0
41
1
10
178.05941837879
20
-0.563792115899389
30
0
0
SPLINE
5
22C
100
AcDbEntity
8
1
62
256
6
ByLayer
370
-1
48
1
60
0
100
AcDbSpline
70
4
71
3
72
10
73
6
40
0
40
0
40
0
40
0
40
0.5
40
0.5
40
1
40
1
40
1
40
1
41
1
10
177.594521475858
20
-5.78590761506177
30
0
41
1
10
177.619288720445
20
-5.83545558877842
30
0
41
1
10
177.637372573081
20
-5.88695464597541
30
0
41
1
10
177.660702326767
20
-5.99370051184491
30
0
41
1
10
177.665811008596
20
-6.04929031434219
30
0
41
1
10
177.663861822064
20
-6.10462419996242
30
0
0
SPLINE
5
22D
100
AcDbEntity
8
1
62
256
6
ByLayer
370
-1
48
1
60
0
100
AcDbSpline
70
4
71
3
72
22
73
18
40
0
40
0
40
0
40
0
40
0.124999999999964
40
0.124999999999964
40
0.249999999999928
40
0.249999999999928
40
0.312499999999909
40
0.312499999999909
40
0.374999999999891
40
0.374999999999891
40
0.499999999999913
40
0.499999999999913
40
0.624999999999935
40
0.624999999999935
40
0.749999999999956
40
0.749999999999956
40
1
40
1
40
1
40
1
41
1
10
178.488304580323
20
-9.37586212003984
30
0
41
1
10
178.506372127211
20
-9.37362812422344
30
0
41
1
10
178.525301018501
20
-9.36994690320515
30
0
41
1
10
178.565958052465
20
-9.3570457005155
30
0
41
1
10
178.587635680282
20
-9.34799872178652
30
0
41
1
10
178.622427629852
20
-9.32548618410658
30
0
41
1
10
178.634415960558
20
-9.31632785392469
30
0
41
1
10
178.656951421151
20
-9.29530444368629
30
0
41
1
10
178.667707217791
20
-9.28317186423746
30
0
41
1
10
178.694988481157
20
-9.24618200154504
30
0
41
1
10
178.706856766952
20
-9.221150928886
30
0
41
1
10
178.723163319623
20
-9.17618437319479
30
0
41
1
10
178.728028373452
20
-9.15524617812463
30
0
41
1
10
178.734481863292
20
-9.11594119684921
30
0
41
1
10
178.736018996346
20
-9.09758042599279
30
0
41
1
10
178.73773683209
20
-9.04475628300696
30
0
41
1
10
178.735054647112
20
-9.01252806547521
30
0
41
1
10
178.730467494851
20
-8.98186154727244
30
0
0
SPLINE
5
22E
100
AcDbEntity
8
1
62
256
6
ByLayer
370
-1
48
1
60
0
100
AcDbSpline
70
4
71
3
72
10
73
6
40
0
40
0
40
0
40
0
40
0.5
40
0.5
40
1
40
1
40
1
40
1
41
1
10
178.041061831135
20
-0.317789072249326
30
0
41
1
10
178.041059087841
20
-0.305197304807223
30
0
41
1
10
178.03997891765
20
-0.291292553291271
30
0
41
1
10
178.034674494499
20
-0.261948174856741
30
0
41
1
10
178.030368410578
20
-0.246490249977313
30
0
41
1
10
178.024830588728
20
-0.231901524129199
30
0
0
SPLINE
5
22F
100
AcDbEntity
8
1
62
256
6
ByLayer
370
-1
48
1
60
0
100
AcDbSpline
70
4
71
3
72
10
73
6
40
0
40
0
40
0
40
0
40
0.5
40
0.5
40
1
40
1
40
1
40
1
41
1
10
178.047641248584
20
-0.560848129417309
30
0
41
1
10
178.04529889102
20
-0.516262158966242
30
0
41
1
10
178.043640985644
20
-0.47336237669117
30
0
41
1
10
178.041513220955
20
-0.391231987214638
30
0
41
1
10
178.041069594684
20
-0.353423907842426
30
0
41
1
10
178.041061831135
20
-0.317789072249326
30
0
0
SPLINE
5
230
100
AcDbEntity
8
1
62
256
6
ByLayer
370
-1
48
1
60
0
100
AcDbSpline
70
4
71
3
72
20
73
16
40
0
40
0
40
0
40
0
40
0.249999999999995
40
0.249999999999995
40
0.374999999999996
40
0.374999999999996
40
0.499999999999997
40
0.499999999999997
40
0.624999999999998
40
0.624999999999998
40
0.749999999999998
40
0.749999999999998
40
0.874999999999999
40
0.874999999999999
40
1
40
1
40
1
40
1
41
1
10
178.786258268825
20
-8.85684737223914
30
0
41
1
10
178.792422344605
20
-8.90564828661519
30
0
41
1
10
178.794692036495
20
-8.95686840466001
30
0
41
1
10
178.786849200546
20
-9.04036261079517
30
0
41
1
10
178.782230679919
20
-9.06964717818806
30
0
41
1
10
178.767198203817
20
-9.12962788808406
30
0
41
1
10
178.756911948573
20
-9.16037390170047
30
0
41
1
10
178.726543574424
20
-9.22445855861747
30
0
41
1
10
178.706206780556
20
-9.25739709251366
30
0
41
1
10
178.65621600274
20
-9.31680074324288
30
0
41
1
10
178.626637756076
20
-9.34301373519753
30
0
41
1
10
178.566028174045
20
-9.38397679867401
30
0
41
1
10
178.535256191825
20
-9.39900964204116
30
0
41
1
10
178.475794207278
20
-9.42127695673111
30
0
41
1
10
178.446736404475
20
-9.42867476856537
30
0
41
1
10
178.41873464982
20
-9.43355627792371
30
0
0
SPLINE
5
231
100
AcDbEntity
8
1
62
256
6
ByLayer
370
-1
48
1
60
0
100
AcDbSpline
70
4
71
3
72
10
73
6
40
0
40
0
40
0
40
0
40
0.857750003386306
40
0.857750003386306
40
1
40
1
40
1
40
1
41
1
10
177.663861822064
20
-6.10462419996242
30
0
41
1
10
177.647403897942
20
-6.56983898240674
30
0
41
1
10
177.630887592837
20
-7.03504307911794
30
0
41
1
10
177.611584773144
20
-7.57738797771989
30
0
41
1
10
177.608837827332
20
-7.6545363265648
30
0
41
1
10
177.606089838717
20
-7.73168447534266
30
0
0
SPLINE
5
232
100
AcDbEntity
8
1
62
256
6
ByLayer
370
-1
48
1
60
0
100
AcDbSpline
70
4
71
3
72
12
73
8
40
0
40
0
40
0
40
0
40
0.25
40
0.25
40
0.5
40
0.5
40
1
40
1
40
1
40
1
41
1
10
177.522074435553
20
1.3982959219266
30
0
41
1
10
177.507735856566
20
1.44210247674286
30
0
41
1
10
177.495164234754
20
1.48210999227021
30
0
41
1
10
177.472255967167
20
1.55741045020116
30
0
41
1
10
177.461901255355
20
1.59279746278432
30
0
41
1
10
177.433640169437
20
1.69254487076938
30
0
41
1
10
177.418290195833
20
1.751190107459
30
0
41
1
10
177.404749489933
20
1.80596794510157
30
0
0
SPLINE
5
233
100
AcDbEntity
8
1
62
256
6
ByLayer
370
-1
48
1
60
0
100
AcDbSpline
70
4
71
3
72
10
73
6
40
0
40
0
40
0
40
0
40
0.5
40
0.5
40
1
40
1
40
1
40
1
41
1
10
177.613658255308
20
-6.0976044676782
30
0
41
1
10
177.615417094601
20
-6.04648984983109
30
0
41
1
10
177.610805699768
20
-5.99623430393285
30
0
41
1
10
177.589259850189
20
-5.89738506551325
30
0
41
1
10
177.572131357664
20
-5.84874633479259
30
0
41
1
10
177.54917285978
20
-5.80301606698427
30
0
0
SPLINE
5
234
100
AcDbEntity
8
1
62
256
6
ByLayer
370
-1
48
1
60
0
100
AcDbSpline
70
4
71
3
72
12
73
8
40
0
40
0
40
0
40
0
40
0.500000000000045
40
0.500000000000045
40
0.750000000000022
40
0.750000000000022
40
1
40
1
40
1
40
1
41
1
10
178.41873464982
20
-9.43355627792371
30
0
41
1
10
178.364565440702
20
-9.4365660538989
30
0
41
1
10
178.307359382847
20
-9.44120325718208
30
0
41
1
10
178.211721106627
20
-9.45342646022084
30
0
41
1
10
178.178016814983
20
-9.4584219616271
30
0
41
1
10
178.105659495811
20
-9.47132326718366
30
0
41
1
10
178.067413647597
20
-9.47912829079178
30
0
41
1
10
178.02547504363
20
-9.48935271658002
30
0
0
SPLINE
5
235
100
AcDbEntity
8
1
62
256
6
ByLayer
370
-1
48
1
60
0
100
AcDbSpline
70
4
71
3
72
10
73
6
40
0
40
0
40
0
40
0
40
0.5
40
0.5
40
1
40
1
40
1
40
1
41
1
10
177.955565624421
20
0.0002082498095319
30
0
41
1
10
177.965278565448
20
-0.0322494319818816
30
0
41
1
10
177.976541787672
20
-0.0675022550030917
30
0
41
1
10
178.002295896587
20
-0.141868207493161
30
0
41
1
10
178.016595346456
20
-0.180330540893891
30
0
41
1
10
178.031309810538
20
-0.217484118999579
30
0
0
SPLINE
5
236
100
AcDbEntity
8
1
62
256
6
ByLayer
370
-1
48
1
60
0
100
AcDbSpline
70
4
71
3
72
10
73
6
40
0
40
0
40
0
40
0
40
0.367626034333035
40
0.367626034333035
40
1
40
1
40
1
40
1
41
1
10
177.557987381143
20
-7.72477466265326
30
0
41
1
10
177.564776900937
20
-7.52537684869014
30
0
41
1
10
177.571575975201
20
-7.32597935811111
30
0
41
1
10
177.590103591664
20
-6.78358829299629
30
0
41
1
10
177.601856031641
20
-6.44059552708524
30
0
41
1
10
177.613658255308
20
-6.09760446767811
30
0
0
SPLINE
5
237
100
AcDbEntity
8
1
62
256
6
ByLayer
370
-1
48
1
60
0
100
AcDbSpline
70
4
71
3
72
12
73
8
40
0
40
0
40
0
40
0
40
0.25
40
0.25
40
0.500000000000001
40
0.500000000000001
40
1
40
1
40
1
40
1
41
1
10
178.049238129828
20
-9.46257638447548
30
0
41
1
10
178.094817670046
20
-9.44993468947916
30
0
41
1
10
178.136959997516
20
-9.43942584685593
30
0
41
1
10
178.216980162452
20
-9.42109816456318
30
0
41
1
10
178.254968226526
20
-9.41327719078456
30
0
41
1
10
178.362860704711
20
-9.39296719699647
30
0
41
1
10
178.427401179212
20
-9.38339263561699
30
0
41
1
10
178.488304580323
20
-9.37586212003984
30
0
0
SPLINE
5
238
100
AcDbEntity
8
1
62
256
6
ByLayer
370
-1
48
1
60
0
100
AcDbSpline
70
4
71
3
72
10
73
6
40
0
40
0
40
0
40
0
40
0.5
40
0.5
40
1
40
1
40
1
40
1
41
1
10
166.37545304714
20
5.68973799892697
30
0
41
1
10
166.413877822817
20
5.65376347868605
30
0
41
1
10
166.456072758379
20
5.62355959855381
30
0
41
1
10
166.547803412428
20
5.5743697196375
30
0
41
1
10
166.597316348063
20
5.55561495596413
30
0
41
1
10
166.64847883918
20
5.5436976992402
30
0
0
SPLINE
5
239
100
AcDbEntity
8
1
62
256
6
ByLayer
370
-1
48
1
60
0
100
AcDbSpline
70
4
71
3
72
8
73
4
40
0
40
0
40
0
40
0
40
1
40
1
40
1
40
1
41
1
10
166.529165530786
20
18.1748774292918
30
0
41
1
10
166.512912551822
20
18.1741541541217
30
0
41
1
10
166.496663485518
20
18.1733497484204
30
0
41
1
10
166.480419530124
20
18.172464297249
30
0
0
SPLINE
5
23A
100
AcDbEntity
8
1
62
256
6
ByLayer
370
-1
48
1
60
0
100
AcDbSpline
70
4
71
3
72
10
73
6
40
0
40
0
40
0
40
0
40
0.5
40
0.5
40
1
40
1
40
1
40
1
41
1
10
178.188884264931
20
18.4064830491211
30
0
41
1
10
178.150456495444
20
18.4424575693621
30
0
41
1
10
178.108233910846
20
18.4726614494943
30
0
41
1
10
178.016422572108
20
18.5218513284106
30
0
41
1
10
177.966856722271
20
18.540606092084
30
0
41
1
10
177.915646350548
20
18.5525233488079
30
0
0
SPLINE
5
23B
100
AcDbEntity
8
1
62
256
6
ByLayer
370
-1
48
1
60
0
100
AcDbSpline
70
4
71
3
72
15
73
11
40
0
40
0
40
0
40
0
40
0.0229190021791488
40
0.110481321488101
40
0.285605960106006
40
0.635855237341817
40
0.810979875959722
40
0.898542195268675
40
0.986104514577627
40
1
40
1
40
1
40
1
41
1
10
167.234027963356
20
17.4948798997523
30
0
41
1
10
167.233980869298
20
17.4966283087393
30
0
41
1
10
167.233752965258
20
17.505057461199
30
0
41
1
10
167.233159945708
20
17.526850894324
30
0
41
1
10
167.2318906024
20
17.5736188439745
30
0
41
1
10
167.230438632986
20
17.6270689781564
30
0
41
1
10
167.229168539012
20
17.6738375422761
30
0
41
1
10
167.228443665917
20
17.700561524003
30
0
41
1
10
167.228051574229
20
17.7149846481989
30
0
41
1
10
167.227840455284
20
17.7227270252958
30
0
41
1
10
167.227811493126
20
17.7237874515061
30
0
0
SPLINE
5
23C
100
AcDbEntity
8
1
62
256
6
ByLayer
370
-1
48
1
60
0
100
AcDbSpline
70
4
71
3
72
8
73
4
40
0
40
0
40
0
40
0
40
1
40
1
40
1
40
1
41
1
10
178.383228606807
20
17.8720326244648
30
0
41
1
10
178.380357588558
20
17.9253067649526
30
0
41
1
10
178.377062180852
20
17.9785612278277
30
0
41
1
10
178.373299599141
20
18.0317742949273
30
0
0
SPLINE
5
23D
100
AcDbEntity
8
1
62
256
6
ByLayer
370
-1
48
1
60
0
100
AcDbSpline
70
4
71
3
72
8
73
4
40
0
40
0
40
0
40
0
40
1
40
1
40
1
40
1
41
1
10
166.968869320267
20
5.53327062657155
30
0
41
1
10
166.999100055236
20
5.53410225503035
30
0
41
1
10
167.029327590458
20
5.53507255846236
30
0
41
1
10
167.059549724752
20
5.53618063063252
30
0
0
SPLINE
5
23E
100
AcDbEntity
8
1
62
256
6
ByLayer
370
-1
48
1
60
0
100
AcDbSpline
70
4
71
3
72
9
73
5
40
0
40
0
40
0
40
0
40
0.406250000000388
40
1
40
1
40
1
40
1
41
1
10
176.915760054725
20
18.5393925513446
30
0
41
1
10
176.916052969342
20
18.5286070163766
30
0
41
1
10
176.916773989937
20
18.5020580072246
30
0
41
1
10
176.917495010532
20
18.4755089980727
30
0
41
1
10
176.917923116511
20
18.4597455238887
30
0
0
SPLINE
5
23F
100
AcDbEntity
8
1
62
256
6
ByLayer
370
-1
48
1
60
0
100
AcDbSpline
70
4
71
3
72
8
73
4
40
0
40
0
40
0
40
0
40
1
40
1
40
1
40
1
41
1
10
166.175132473707
20
6.36406340358491
30
0
41
1
10
166.176181434283
20
6.33374643571227
30
0
41
1
10
166.177377065769
20
6.30343410664912
30
0
41
1
10
166.178719216447
20
6.27312858108314
30
0
0
SPLINE
5
240
100
AcDbEntity
8
1
62
256
6
ByLayer
370
-1
48
1
60
0
100
AcDbSpline
70
4
71
3
72
10
73
6
40
0
40
0
40
0
40
0
40
0.634300400238575
40
0.951450600357863
40
1
40
1
40
1
40
1
41
1
10
178.668797759121
20
7.39403822346281
30
0
41
1
10
178.656005230201
20
7.39358091687256
30
0
41
1
10
178.636814303002
20
7.39289490314752
30
0
41
1
10
178.616651442122
20
7.39217406928674
30
0
41
1
10
178.609271101874
20
7.39191028904091
30
0
41
1
10
178.608291136933
20
7.39187526598988
30
0
0
SPLINE
5
241
100
AcDbEntity
8
1
62
256
6
ByLayer
370
-1
48
1
60
0
100
AcDbSpline
70
4
71
3
72
8
73
4
40
0
40
0
40
0
40
0
40
1
40
1
40
1
40
1
41
1
10
178.389204838365
20
17.7321576444632
30
0
41
1
10
178.388152339225
20
17.7624746123358
30
0
41
1
10
178.38695890002
20
17.792786941399
30
0
41
1
10
178.385624631391
20
17.823092466965
30
0
0
SPLINE
5
242
100
AcDbEntity
8
1
62
256
6
ByLayer
370
-1
48
1
60
0
100
AcDbSpline
70
4
71
3
72
10
73
6
40
0
40
0
40
0
40
0
40
0.048549441033443
40
0.365699627355629
40
1
40
1
40
1
40
1
41
1
10
167.214293066932
20
18.0575364758432
30
0
41
1
10
167.214239029546
20
18.0585394057337
30
0
41
1
10
167.213831659459
20
18.0660930847803
30
0
41
1
10
167.212712997556
20
18.0867350691276
30
0
41
1
10
167.211650413663
20
18.1063799318617
30
0
41
1
10
167.210941661516
20
18.1194754797146
30
0
0
SPLINE
5
243
100
AcDbEntity
8
1
62
256
6
ByLayer
370
-1
48
1
60
0
100
AcDbSpline
70
4
71
3
72
25
73
21
40
0
40
0
40
0
40
0
40
0.0099904601134564
40
0.0399882789191381
40
0.159979554141865
40
0.279970829364592
40
0.309968648170273
40
0.339966466975955
40
0.369964285781636
40
0.399962104587318
40
0.519953379810045
40
0.639944655032772
40
0.759935930255498
40
0.879927205478225
40
0.939922843089588
40
0.96992066189527
40
0.984919571298111
40
0.992419025999531
40
0.999918480700952
40
1
40
1
40
1
40
1
41
1
10
177.941207743147
20
5.99738914639653
30
0
41
1
10
177.943339891893
20
5.99746520821316
30
0
41
1
10
177.951873845307
20
5.99777602597476
30
0
41
1
10
177.986008353946
20
5.99918252863108
30
0
41
1
10
178.043563893091
20
6.00267239455781
30
0
41
1
10
178.100985603537
20
6.00793627462113
30
0
41
1
10
178.139184973252
20
6.01220606958702
30
0
41
1
10
178.158268476113
20
6.01448454034957
30
0
41
1
10
178.177339334381
20
6.01687406114132
30
0
41
1
10
178.215325697142
20
6.02279031199342
30
0
41
1
10
178.27147491006
20
6.03646702332733
30
0
41
1
10
178.343377952308
20
6.06420229069562
30
0
41
1
10
178.411151150294
20
6.10096301234816
30
0
41
1
10
178.46313855669
20
6.13876965139517
30
0
41
1
10
178.496777581565
20
6.168569662192
30
0
41
1
10
178.512851075237
20
6.18426545447932
30
0
41
1
10
178.520693152898
20
6.19230747586465
30
0
41
1
10
178.525118004767
20
6.19695793282096
30
0
41
1
10
178.527322398566
20
6.19931396036785
30
0
41
1
10
178.528426592891
20
6.20050313792646
30
0
41
1
10
178.528438465992
20
6.20051592587728
30
0
0
SPLINE
5
244
100
AcDbEntity
8
1
62
256
6
ByLayer
370
-1
48
1
60
0
100
AcDbSpline
70
4
71
3
72
23
73
19
40
0
40
0
40
0
40
0
40
0.0074200078967157
40
0.0149215578681278
40
0.0299246578109522
40
0.0599308576966009
40
0.119943257467898
40
0.239968057010493
40
0.480017656095682
40
0.600042455638277
40
0.630048655523925
40
0.660054855409574
40
0.690061055295223
40
0.720067255180871
40
0.840092054723466
40
0.960116854266061
40
0.990123054151709
40
1
40
1
40
1
40
1
41
1
10
178.528438465992
20
6.20051592587728
30
0
41
1
10
178.529518871389
20
6.20167957907498
30
0
41
1
10
178.531683904508
20
6.20402890212105
30
0
41
1
10
178.535985824206
20
6.20877563237474
30
0
41
1
10
178.543432649469
20
6.21719799501736
30
0
41
1
10
178.557911862608
20
6.23440474246644
30
0
41
1
10
178.585181799381
20
6.27020054219489
30
0
41
1
10
178.632698087288
20
6.34683516807755
30
0
41
1
10
178.669167340971
20
6.44395208172267
30
0
41
1
10
178.683111621037
20
6.52656002080809
30
0
41
1
10
178.686354015625
20
6.5650128134312
30
0
41
1
10
178.687415349298
20
6.58427658207054
30
0
41
1
10
178.688382331039
20
6.60354440162524
30
0
41
1
10
178.690035902988
20
6.64209224848025
30
0
41
1
10
178.6913652153
20
6.69995874156481
30
0
41
1
10
178.690926200237
20
6.75783678857633
30
0
41
1
10
178.690014252266
20
6.7920923569672
30
0
41
1
10
178.689743462752
20
6.80063474958163
30
0
41
1
10
178.68967469461
20
6.80275019780072
30
0
0
SPLINE
5
245
100
AcDbEntity
8
1
62
256
6
ByLayer
370
-1
48
1
60
0
100
AcDbSpline
70
4
71
3
72
15
73
11
40
0
40
0
40
0
40
0
40
0.250148781622273
40
0.500297563244546
40
0.75044634486682
40
0.875520735677956
40
0.938057931083525
40
0.969326528786309
40
0.984960827637701
40
1
40
1
40
1
40
1
41
1
10
166.03460753813
20
17.8957051815786
30
0
41
1
10
166.027389548122
20
17.9025121520271
30
0
41
1
10
166.012953568108
20
17.9161260929241
30
0
41
1
10
165.991303881997
20
17.9365429643004
30
0
41
1
10
165.973241771334
20
17.9535765502979
30
0
41
1
10
165.960642418155
20
17.9654584488145
30
0
41
1
10
165.954278482898
20
17.9714599976093
30
0
41
1
10
165.95119290327
20
17.9743698727019
30
0
41
1
10
165.949276692521
20
17.9761769671882
30
0
41
1
10
165.948726659478
20
17.9766956792765
30
0
41
1
10
165.947991656523
20
17.9773888283921
30
0
0
SPLINE
5
246
100
AcDbEntity
8
1
62
256
6
ByLayer
370
-1
48
1
60
0
100
AcDbSpline
70
4
71
3
72
14
73
10
40
0
40
0
40
0
40
0
40
0.0424082128911334
40
0.170379060242193
40
0.682262449646432
40
0.938204144348552
40
0.970196856186317
40
0.986193212105199
40
1
40
1
40
1
40
1
41
1
10
167.595721200032
20
6.69857784570067
30
0
41
1
10
167.59554693197
20
6.70040116411488
30
0
41
1
10
167.594846108928
20
6.7077190901496
30
0
41
1
10
167.592038654045
20
6.73700902434044
30
0
41
1
10
167.588351924651
20
6.77546004434646
30
0
41
1
10
167.585061760805
20
6.80980856769264
30
0
41
1
10
167.583810305703
20
6.82284766125539
30
0
41
1
10
167.583555362831
20
6.82549346343049
30
0
41
1
10
167.583432893651
20
6.82677481342535
30
0
41
1
10
167.583376575283
20
6.82737297634117
30
0
0
SPLINE
5
247
100
AcDbEntity
8
1
62
256
6
ByLayer
370
-1
48
1
60
0
100
AcDbSpline
70
4
71
3
72
12
73
8
40
0
40
0
40
0
40
0
40
0.52173413229974
40
0.78260119844961
40
0.913034731524545
40
0.978251498062013
40
1
40
1
40
1
40
1
41
1
10
166.233299404997
20
6.95812225944832
30
0
41
1
10
166.236876639559
20
6.85529237477422
30
0
41
1
10
166.242240456148
20
6.70104750818533
30
0
41
1
10
166.248506139813
20
6.52109535174242
30
0
41
1
10
166.25162722934
20
6.43111891951415
30
0
41
1
10
166.253131491721
20
6.38827173253995
30
0
41
1
10
166.253712558705
20
6.37113095966222
30
0
41
1
10
166.253864181041
20
6.36684458582425
30
0
0
SPLINE
5
248
100
AcDbEntity
8
1
62
256
6
ByLayer
370
-1
48
1
60
0
100
AcDbSpline
70
4
71
3
72
10
73
6
40
0
40
0
40
0
40
0
40
0.5
40
0.5
40
1
40
1
40
1
40
1
41
1
10
165.947991658042
20
17.9773888269603
30
0
41
1
10
165.912152534806
20
17.9388157722594
30
0
41
1
10
165.882049765039
20
17.8964457815735
30
0
41
1
10
165.833006726118
20
17.8043242348826
30
0
41
1
10
165.814296872881
20
17.7545956097143
30
0
41
1
10
165.802401024615
20
17.7032136544416
30
0
0
SPLINE
5
249
100
AcDbEntity
8
1
62
256
6
ByLayer
370
-1
48
1
60
0
100
AcDbSpline
70
4
71
3
72
9
73
5
40
0
40
0
40
0
40
0
40
0.593750000000011
40
1
40
1
40
1
40
1
41
1
10
166.621914112736
20
18.0988275649852
30
0
41
1
10
166.621486006758
20
18.1145910391691
30
0
41
1
10
166.620764986163
20
18.1411400483211
30
0
41
1
10
166.620043965567
20
18.167689057473
30
0
41
1
10
166.61975105095
20
18.178474592441
30
0
0
SPLINE
5
24A
100
AcDbEntity
8
1
62
256
6
ByLayer
370
-1
48
1
60
0
100
AcDbSpline
70
4
71
3
72
8
73
4
40
0
40
0
40
0
40
0
40
1
40
1
40
1
40
1
41
1
10
178.774557368123
20
6.50553613169092
30
0
41
1
10
178.774581555649
20
6.55889022450575
30
0
41
1
10
178.774111732869
20
6.61224798747099
30
0
41
1
10
178.773214701792
20
6.66559254946589
30
0
0
SPLINE
5
24B
100
AcDbEntity
8
1
62
256
6
ByLayer
370
-1
48
1
60
0
100
AcDbSpline
70
4
71
3
72
17
73
13
40
0
40
0
40
0
40
0
40
0.0285647612451753
40
0.114009773641723
40
0.284899798434819
40
0.455789823227915
40
0.62667984802101
40
0.797569872814106
40
0.883014885210654
40
0.925737391408928
40
0.968459897607202
40
1
40
1
40
1
40
1
41
1
10
177.259232454037
20
17.1010093557819
30
0
41
1
10
177.263120820032
20
17.1011378201467
30
0
41
1
10
177.278666429615
20
17.101651604126
30
0
41
1
10
177.31823797085
20
17.102964643378
30
0
41
1
10
177.379550685237
20
17.1050142995771
30
0
41
1
10
177.455780081766
20
17.1075867505182
30
0
41
1
10
177.534027953234
20
17.1102504267805
30
0
41
1
10
177.600402874408
20
17.1125287768408
30
0
41
1
10
177.647198168756
20
17.114144728957
30
0
41
1
10
177.673993406551
20
17.1150727541701
30
0
41
1
10
177.692352380617
20
17.115709874507
30
0
41
1
10
177.704010333555
20
17.1161152217548
30
0
41
1
10
177.708961700234
20
17.1162874303259
30
0
0
SPLINE
5
24C
100
AcDbEntity
8
1
62
256
6
ByLayer
370
-1
48
1
60
0
100
AcDbSpline
70
4
71
3
72
17
73
13
40
0
40
0
40
0
40
0
40
0.0285647612452325
40
0.114009773641779
40
0.284899798434872
40
0.455789823227965
40
0.626679848021057
40
0.79756987281415
40
0.883014885210696
40
0.92573739140897
40
0.968459897607243
40
1
40
1
40
1
40
1
41
1
10
167.278830839975
20
6.9952116922662
30
0
41
1
10
167.275389727211
20
6.9950832279014
30
0
41
1
10
167.261621614128
20
6.99456944392216
30
0
41
1
10
167.226278268877
20
6.99325640467009
30
0
41
1
10
167.170648735536
20
6.99120674847103
30
0
41
1
10
167.100108056498
20
6.9886342975299
30
0
41
1
10
167.026381031167
20
6.98597062126765
30
0
41
1
10
166.962765675294
20
6.9836922712073
30
0
41
1
10
166.917363520735
20
6.98207631909111
30
0
41
1
10
166.891210681477
20
6.98114829387805
30
0
41
1
10
166.873219030348
20
6.98051117354115
30
0
41
1
10
166.861750071419
20
6.98010582629331
30
0
41
1
10
166.856876152576
20
6.97993361772225
30
0
0
SPLINE
5
24D
100
AcDbEntity
8
1
62
256
6
ByLayer
370
-1
48
1
60
0
100
AcDbSpline
70
4
71
3
72
12
73
8
40
0
40
0
40
0
40
0
40
0.521734132299739
40
0.782601198449609
40
0.913034731524544
40
0.978251498062011
40
1
40
1
40
1
40
1
41
1
10
178.329822563075
20
17.1380987885998
30
0
41
1
10
178.326245328525
20
17.2409286732739
30
0
41
1
10
178.320880704421
20
17.3951735398628
30
0
41
1
10
178.314616528445
20
17.5751256963057
30
0
41
1
10
178.311494003995
20
17.665102128534
30
0
41
1
10
178.309990811781
20
17.7079493155082
30
0
41
1
10
178.309409161309
20
17.7250900883859
30
0
41
1
10
178.309257293086
20
17.7293764622239
30
0
0
SPLINE
5
24E
100
AcDbEntity
8
1
62
256
6
ByLayer
370
-1
48
1
60
0
100
AcDbSpline
70
4
71
3
72
8
73
4
40
0
40
0
40
0
40
0
40
1
40
1
40
1
40
1
41
1
10
178.773214701791
20
6.66559254946589
30
0
41
1
10
178.772940076859
20
6.68192391979923
30
0
41
1
10
178.772585590144
20
6.69825406395702
30
0
41
1
10
178.772151316726
20
6.71458180531676
30
0
0
SPLINE
5
24F
100
AcDbEntity
8
1
62
256
6
ByLayer
370
-1
48
1
60
0
100
AcDbSpline
70
4
71
3
72
10
73
6
40
0
40
0
40
0
40
0
40
0.5
40
0.5
40
1
40
1
40
1
40
1
41
1
10
178.61634565403
20
6.11883222108784
30
0
41
1
10
178.652181783455
20
6.15740527578873
30
0
41
1
10
178.682256904186
20
6.19977526647469
30
0
41
1
10
178.731219258418
20
6.29189681316552
30
0
41
1
10
178.749876197452
20
6.34162543833384
30
0
41
1
10
178.761724165114
20
6.39300739360655
30
0
0
SPLINE
5
250
100
AcDbEntity
8
1
62
256
6
ByLayer
370
-1
48
1
60
0
100
AcDbSpline
70
4
71
3
72
15
73
11
40
0
40
0
40
0
40
0
40
0.0218721291688439
40
0.087080653890921
40
0.217497703335075
40
0.478331802223384
40
0.543540326945461
40
0.608748851667538
40
0.739165901111692
40
1
40
1
40
1
40
1
41
1
10
177.507568690069
20
18.4800923076848
30
0
41
1
10
177.503278039206
20
18.4799473713518
30
0
41
1
10
177.486195759068
20
18.4793425015772
30
0
41
1
10
177.443511765122
20
18.4778843539841
30
0
41
1
10
177.353868233488
20
18.4747917488466
30
0
41
1
10
177.264106054657
20
18.4717334353625
30
0
41
1
10
177.187107215143
20
18.4691207115109
30
0
41
1
10
177.135791847694
20
18.4673660902544
30
0
41
1
10
177.046021871491
20
18.464269580914
30
0
41
1
10
176.96914106902
20
18.4615656066664
30
0
41
1
10
176.917923116511
20
18.4597455238887
30
0
0
SPLINE
5
251
100
AcDbEntity
8
1
62
256
6
ByLayer
370
-1
48
1
60
0
100
AcDbSpline
70
4
71
3
72
8
73
4
40
0
40
0
40
0
40
0
40
1
40
1
40
1
40
1
41
1
10
165.790919694493
20
17.4306284985822
30
0
41
1
10
165.791217555707
20
17.4142971282489
30
0
41
1
10
165.791595505747
20
17.3979669840911
30
0
41
1
10
165.792053387202
20
17.3816392427314
30
0
0
SPLINE
5
252
100
AcDbEntity
8
1
62
256
6
ByLayer
370
-1
48
1
60
0
100
AcDbSpline
70
4
71
3
72
10
73
6
40
0
40
0
40
0
40
0
40
0.634300400238621
40
0.951450600357932
40
1
40
1
40
1
40
1
41
1
10
167.645198815801
20
5.63647552415941
30
0
41
1
10
167.644996435316
20
5.64957107150528
30
0
41
1
10
167.644692213034
20
5.66921593429146
30
0
41
1
10
167.644374693325
20
5.68985791530363
30
0
41
1
10
167.644256510501
20
5.6974115932347
30
0
41
1
10
167.644240768295
20
5.69841452219481
30
0
0
SPLINE
5
253
100
AcDbEntity
8
1
62
256
6
ByLayer
370
-1
48
1
60
0
100
AcDbSpline
70
4
71
3
72
8
73
4
40
0
40
0
40
0
40
0
40
1
40
1
40
1
40
1
41
1
10
165.792053387205
20
17.3816392427314
30
0
41
1
10
165.792903773723
20
17.3513150376648
30
0
41
1
10
165.79389261327
20
17.3209943514895
30
0
41
1
10
165.795018621894
20
17.2906790111759
30
0
0
SPLINE
5
254
100
AcDbEntity
8
1
62
256
6
ByLayer
370
-1
48
1
60
0
100
AcDbSpline
70
4
71
3
72
9
73
5
40
0
40
0
40
0
40
0
40
0.406250000000104
40
1
40
1
40
1
40
1
41
1
10
167.648577257346
20
5.55682849670356
30
0
41
1
10
167.648119760054
20
5.56761403167152
30
0
41
1
10
167.646993612872
20
5.59416304082347
30
0
41
1
10
167.64586746569
20
5.62071204997542
30
0
41
1
10
167.645198815801
20
5.63647552415941
30
0
0
SPLINE
5
255
100
AcDbEntity
8
1
62
256
6
ByLayer
370
-1
48
1
60
0
100
AcDbSpline
70
4
71
3
72
25
73
21
40
0
40
0
40
0
40
0
40
0.009990460113467
40
0.0399882789191493
40
0.159979554141878
40
0.279970829364607
40
0.309968648170289
40
0.339966466975971
40
0.369964285781654
40
0.399962104587336
40
0.519953379810065
40
0.639944655032794
40
0.759935930255523
40
0.879927205478252
40
0.939922843089616
40
0.969920661895298
40
0.984919571298139
40
0.99241902599956
40
0.999918480700981
40
1
40
1
40
1
40
1
41
1
10
166.253864181041
20
6.36684458582425
30
0
41
1
10
166.253939892029
20
6.36470423099189
30
0
41
1
10
166.254249231427
20
6.35613738252519
30
0
41
1
10
166.255648254044
20
6.32187034960802
30
0
41
1
10
166.259121481616
20
6.26409158646402
30
0
41
1
10
166.264361916357
20
6.20644710669987
30
0
41
1
10
166.268613195414
20
6.16809954488571
30
0
41
1
10
166.270881859231
20
6.14894200512566
30
0
41
1
10
166.273261136706
20
6.12979714441354
30
0
41
1
10
166.279152575759
20
6.09166337245898
30
0
41
1
10
166.29277379415
20
6.0352962165677
30
0
41
1
10
166.320398986805
20
5.96311396541446
30
0
41
1
10
166.357015260799
20
5.89507730538168
30
0
41
1
10
166.394674299461
20
5.84288756656323
30
0
41
1
10
166.424358033364
20
5.80911715622645
30
0
41
1
10
166.43999301265
20
5.79298117449889
30
0
41
1
10
166.448003424123
20
5.78510812993386
30
0
41
1
10
166.452636265585
20
5.78066645705655
30
0
41
1
10
166.454982313445
20
5.7784526246669
30
0
41
1
10
166.456167741082
20
5.7773449907171
30
0
41
1
10
166.456180488854
20
5.7773330807791
30
0
0
SPLINE
5
256
100
AcDbEntity
8
1
62
256
6
ByLayer
370
-1
48
1
60
0
100
AcDbSpline
70
4
71
3
72
15
73
11
40
0
40
0
40
0
40
0
40
0.0204519912453736
40
0.0504132324411422
40
0.110335714832679
40
0.230180679615753
40
0.469870609181901
40
0.70956053874805
40
0.949250468314198
40
1
40
1
40
1
40
1
41
1
10
177.341519838589
20
6.37243359654198
30
0
41
1
10
177.34161623037
20
6.37015288800208
30
0
41
1
10
177.341853322799
20
6.36453054715741
30
0
41
1
10
177.342365103574
20
6.35221854964442
30
0
41
1
10
177.343307625645
20
6.32878922617411
30
0
41
1
10
177.345085145987
20
6.28186351932175
30
0
41
1
10
177.347302736949
20
6.21476679427582
30
0
41
1
10
177.34944155024
20
6.13457835162768
30
0
41
1
10
177.350627520535
20
6.07600983712618
30
0
41
1
10
177.351135163806
20
6.04423330171278
30
0
41
1
10
177.351222258031
20
6.03868457220492
30
0
0
SPLINE
5
257
100
AcDbEntity
8
1
62
256
6
ByLayer
370
-1
48
1
60
0
100
AcDbSpline
70
4
71
3
72
8
73
4
40
0
40
0
40
0
40
0
40
1
40
1
40
1
40
1
41
1
10
178.243139530794
20
5.93378949445759
30
0
41
1
10
178.280886690701
20
5.93650907008373
30
0
41
1
10
178.31784215855
20
5.9434239660421
30
0
41
1
10
178.354005718744
20
5.95453437386573
30
0
0
SPLINE
5
258
100
AcDbEntity
8
1
62
256
6
ByLayer
370
-1
48
1
60
0
100
AcDbSpline
70
4
71
3
72
14
73
10
40
0
40
0
40
0
40
0
40
0.0138067085559719
40
0.0298030682371321
40
0.0617957875994524
40
0.317737542498015
40
0.829621052295139
40
0.95759192974442
40
1
40
1
40
1
40
1
41
1
10
177.290358096777
20
7.16764359341511
30
0
41
1
10
177.290414526186
20
7.16704664138837
30
0
41
1
10
177.290537204531
20
7.16576756592931
30
0
41
1
10
177.290791546465
20
7.16311524411159
30
0
41
1
10
177.29204384865
20
7.15008534862716
30
0
41
1
10
177.29533284985
20
7.11572418656414
30
0
41
1
10
177.299020172822
20
7.07727960914011
30
0
41
1
10
177.301827587001
20
7.04798923396686
30
0
41
1
10
177.302528406264
20
7.04067127833039
30
0
41
1
10
177.302702673197
20
7.03884796060134
30
0
0
SPLINE
5
259
100
AcDbEntity
8
1
62
256
6
ByLayer
370
-1
48
1
60
0
100
AcDbSpline
70
4
71
3
72
9
73
5
40
0
40
0
40
0
40
0
40
0.406250000001882
40
1
40
1
40
1
40
1
41
1
10
178.748749395471
20
7.39681955894932
30
0
41
1
10
178.737922611382
20
7.39644291976884
30
0
41
1
10
178.711272065932
20
7.39551580794
30
0
41
1
10
178.684621520482
20
7.39458869611119
30
0
41
1
10
178.668797759121
20
7.39403822346281
30
0
0
SPLINE
5
25A
100
AcDbEntity
8
1
62
256
6
ByLayer
370
-1
48
1
60
0
100
AcDbSpline
70
4
71
3
72
10
73
6
40
0
40
0
40
0
40
0
40
0.5
40
0.5
40
1
40
1
40
1
40
1
41
1
10
169.347553687393
20
9.16182275579624
30
0
41
1
10
169.339586611446
20
9.20745722116285
30
0
41
1
10
169.32851427161
20
9.25540962368714
30
0
41
1
10
169.300263154093
20
9.35579220255738
30
0
41
1
10
169.282879607958
20
9.4083701368784
30
0
41
1
10
169.264010193918
20
9.45934268105583
30
0
0
SPLINE
5
25B
100
AcDbEntity
8
1
62
256
6
ByLayer
370
-1
48
1
60
0
100
AcDbSpline
70
4
71
3
72
8
73
4
40
0
40
0
40
0
40
0
40
1
40
1
40
1
40
1
41
1
10
177.59533538366
20
18.5629504214766
30
0
41
1
10
177.565148494006
20
18.5621187930178
30
0
41
1
10
177.534965415608
20
18.5611484895858
30
0
41
1
10
177.504787587319
20
18.5600404174156
30
0
0
SPLINE
5
25C
100
AcDbEntity
8
1
62
256
6
ByLayer
370
-1
48
1
60
0
100
AcDbSpline
70
4
71
3
72
14
73
10
40
0
40
0
40
0
40
0
40
0.0424082128911426
40
0.170379060242176
40
0.682262449646308
40
0.938204144348375
40
0.970196856186133
40
0.986193212105012
40
1
40
1
40
1
40
1
41
1
10
177.598207735668
20
7.35694879311561
30
0
41
1
10
177.596280516861
20
7.35688512143355
30
0
41
1
10
177.588544189874
20
7.35662957382536
30
0
41
1
10
177.557577192718
20
7.35560674678504
30
0
41
1
10
177.516923390736
20
7.35426400757868
30
0
41
1
10
177.48061032254
20
7.35306453071254
30
0
41
1
10
177.466822994055
20
7.35260919553184
30
0
41
1
10
177.464024358947
20
7.35251680208398
30
0
41
1
10
177.462669991153
20
7.35247205635616
30
0
41
1
10
177.462038594883
20
7.35245116804685
30
0
0
SPLINE
5
25D
100
AcDbEntity
8
1
62
256
6
ByLayer
370
-1
48
1
60
0
100
AcDbSpline
70
4
71
3
72
12
73
8
40
0
40
0
40
0
40
0
40
0.341077853836652
40
0.341077853836652
40
0.670538966398329
40
0.670538966398329
40
1
40
1
40
1
40
1
41
1
10
178.769318690161
20
6.8055420368716
30
0
41
1
10
178.766920198747
20
6.87276114441852
30
0
41
1
10
178.764497082095
20
6.93997775006324
30
0
41
1
10
178.759862279268
20
7.07213538673491
30
0
41
1
10
178.7576588898
20
7.13707411778091
30
0
41
1
10
178.753231220556
20
7.26694719985349
30
0
41
1
10
178.751008349829
20
7.33188447216858
30
0
41
1
10
178.748749395471
20
7.39681955894929
30
0
0
SPLINE
5
25E
100
AcDbEntity
8
1
62
256
6
ByLayer
370
-1
48
1
60
0
100
AcDbSpline
70
4
71
3
72
12
73
8
40
0
40
0
40
0
40
0
40
0.65914774965232
40
0.8239346870654
40
0.90632815577194
40
0.98872162447848
40
1
40
1
40
1
40
1
41
1
10
177.288573091184
20
7.19630666467779
30
0
41
1
10
177.288806404199
20
7.18959993560694
30
0
41
1
10
177.289247207807
20
7.1812203807153
30
0
41
1
10
177.289888643144
20
7.1729190071066
30
0
41
1
10
177.29013687974
20
7.17002177334504
30
0
41
1
10
177.290274903607
20
7.16852548264418
30
0
41
1
10
177.290349147453
20
7.16773826599197
30
0
41
1
10
177.290358096777
20
7.16764359341511
30
0
0
SPLINE
5
25F
100
AcDbEntity
8
1
62
256
6
ByLayer
370
-1
48
1
60
0
100
AcDbSpline
70
4
71
3
72
8
73
4
40
0
40
0
40
0
40
0
40
1
40
1
40
1
40
1
41
1
10
177.644103066781
20
18.5640531566071
30
0
41
1
10
177.627845460383
20
18.5637658201319
30
0
41
1
10
177.611589189016
20
18.5633982028595
30
0
41
1
10
177.59533538366
20
18.5629504214798
30
0
0
SPLINE
5
260
100
AcDbEntity
8
1
62
256
6
ByLayer
370
-1
48
1
60
0
100
AcDbSpline
70
4
71
3
72
12
73
8
40
0
40
0
40
0
40
0
40
0.659147749652326
40
0.823934687065408
40
0.906328155771948
40
0.988721624478489
40
1
40
1
40
1
40
1
41
1
10
167.427038439487
20
7.00071027137588
30
0
41
1
10
167.420357231638
20
7.00047606723595
30
0
41
1
10
167.412158860095
20
7.00018344673111
30
0
41
1
10
167.404241723822
20
6.99989355637686
30
0
41
1
10
167.40150296287
20
6.99979238274452
30
0
41
1
10
167.400098337084
20
6.99974013112185
30
0
41
1
10
167.399360974272
20
6.99971264091059
30
0
41
1
10
167.399272317819
20
6.99970933487137
30
0
0
SPLINE
5
261
100
AcDbEntity
8
1
62
256
6
ByLayer
370
-1
48
1
60
0
100
AcDbSpline
70
4
71
3
72
12
73
8
40
0
40
0
40
0
40
0
40
0.0112779549363505
40
0.0936714586916546
40
0.176064962446959
40
0.340851969957567
40
1
40
1
40
1
40
1
41
1
10
177.462038594883
20
7.35245116804685
30
0
41
1
10
177.461938464056
20
7.35244785544623
30
0
41
1
10
177.461105978213
20
7.35242030869617
30
0
41
1
10
177.459526776313
20
7.35236795121719
30
0
41
1
10
177.456498934255
20
7.35226701124
30
0
41
1
10
177.447871664551
20
7.35197692661717
30
0
41
1
10
177.439377471316
20
7.35168441736713
30
0
41
1
10
177.432696263626
20
7.35145021323603
30
0
0
SPLINE
5
262
100
AcDbEntity
8
1
62
256
6
ByLayer
370
-1
48
1
60
0
100
AcDbSpline
70
4
71
3
72
8
73
4
40
0
40
0
40
0
40
0
40
1
40
1
40
1
40
1
41
1
10
166.920031329504
20
5.53216789144096
30
0
41
1
10
166.936312172184
20
5.53245522791622
30
0
41
1
10
166.952591906875
20
5.53282284518866
30
0
41
1
10
166.968869320267
20
5.53327062656834
30
0
0
SPLINE
5
263
100
AcDbEntity
8
1
62
256
6
ByLayer
370
-1
48
1
60
0
100
AcDbSpline
70
4
71
3
72
14
73
10
40
0
40
0
40
0
40
0
40
0.0138067085561098
40
0.0298030682372671
40
0.0617957875995817
40
0.317737542498098
40
0.829621052295132
40
0.95759192974439
40
1
40
1
40
1
40
1
41
1
10
177.123062878788
20
17.0965117131767
30
0
41
1
10
177.123693221942
20
17.0965325592009
30
0
41
1
10
177.125045612148
20
17.0965772255001
30
0
41
1
10
177.127849914346
20
17.096669846619
30
0
41
1
10
177.141629246818
20
17.0971248605957
30
0
41
1
10
177.177953303317
20
17.0983247788156
30
0
41
1
10
177.218601504935
20
17.099667293042
30
0
41
1
10
177.249568885351
20
17.1006901354818
30
0
41
1
10
177.257305237017
20
17.1009456841238
30
0
41
1
10
177.259232454037
20
17.1010093557819
30
0
0
SPLINE
5
264
100
AcDbEntity
8
1
62
256
6
ByLayer
370
-1
48
1
60
0
100
AcDbSpline
70
4
71
3
72
15
73
11
40
0
40
0
40
0
40
0
40
0.014449625254995
40
0.0300932819969792
40
0.0613805954809476
40
0.123955222448884
40
0.249104476384758
40
0.499402984256505
40
0.749701492128253
40
1
40
1
40
1
40
1
41
1
10
165.795018573118
20
17.2906790094662
30
0
41
1
10
165.795846539221
20
17.2907080331234
30
0
41
1
10
165.796219851903
20
17.2907211192863
30
0
41
1
10
165.797960982222
20
17.2907821531491
30
0
41
1
10
165.800800509372
20
17.2908816903914
30
0
41
1
10
165.806650952275
20
17.2910867727598
30
0
41
1
10
165.818237579012
20
17.2914929322407
30
0
41
1
10
165.834845944274
20
17.2920751245532
30
0
41
1
10
165.854753892503
20
17.2927729809787
30
0
41
1
10
165.868028397079
20
17.2932383076014
30
0
41
1
10
165.874665649367
20
17.2934709709127
30
0
0
SPLINE
5
265
100
AcDbEntity
8
1
62
256
6
ByLayer
370
-1
48
1
60
0
100
AcDbSpline
70
4
71
3
72
14
73
10
40
0
40
0
40
0
40
0
40
0.0138067085560343
40
0.0298030682371934
40
0.0617957875995117
40
0.317737542498058
40
0.829621052295151
40
0.957591929744424
40
1
40
1
40
1
40
1
41
1
10
167.231977099829
20
16.928577454633
30
0
41
1
10
167.231991995841
20
16.9291744066597
30
0
41
1
10
167.232025681525
20
16.9304534821188
30
0
41
1
10
167.232095486123
20
16.9331058039365
30
0
41
1
10
167.232441223286
20
16.946135699421
30
0
41
1
10
167.233339520148
20
16.980496861484
30
0
41
1
10
167.234352032012
20
17.018941438908
30
0
41
1
10
167.23512154576
20
17.0482318140813
30
0
41
1
10
167.235313212618
20
17.0555497697177
30
0
41
1
10
167.235360620815
20
17.0573730874468
30
0
0
SPLINE
5
266
100
AcDbEntity
8
1
62
256
6
ByLayer
370
-1
48
1
60
0
100
AcDbSpline
70
4
71
3
72
8
73
4
40
0
40
0
40
0
40
0
40
1
40
1
40
1
40
1
41
1
10
178.761724165114
20
6.39300739360579
30
0
41
1
10
178.770260057991
20
6.43002562986052
30
0
41
1
10
178.774540140523
20
6.46753460560475
30
0
41
1
10
178.774557368123
20
6.50553613169092
30
0
0
SPLINE
5
267
100
AcDbEntity
8
1
62
256
6
ByLayer
370
-1
48
1
60
0
100
AcDbSpline
70
4
71
3
72
8
73
4
40
0
40
0
40
0
40
0
40
1
40
1
40
1
40
1
41
1
10
176.934793468953
20
18.0640570646922
30
0
41
1
10
176.931765399832
20
18.175554898939
30
0
41
1
10
176.9271891557
20
18.2885378223747
30
0
41
1
10
176.92127524783
20
18.3978085207493
30
0
0
SPLINE
5
268
100
AcDbEntity
8
1
62
256
6
ByLayer
370
-1
48
1
60
0
100
AcDbSpline
70
4
71
3
72
23
73
19
40
0
40
0
40
0
40
0
40
0.0074200078967444
40
0.0149215578681561
40
0.0299246578109795
40
0.0599308576966263
40
0.11994325746792
40
0.239968057010507
40
0.480017656095681
40
0.600042455638269
40
0.630048655523915
40
0.660054855409562
40
0.690061055295209
40
0.720067255180856
40
0.840092054723443
40
0.96011685426603
40
0.990123054151677
40
1
40
1
40
1
40
1
41
1
10
166.456180488854
20
5.7773330807791
30
0
41
1
10
166.457340485933
20
5.77624932329098
30
0
41
1
10
166.459684864162
20
5.77408003042385
30
0
41
1
10
166.464419750929
20
5.76976792110236
30
0
41
1
10
166.472821744313
20
5.7623043751673
30
0
41
1
10
166.48998576367
20
5.74779268946105
30
0
41
1
10
166.52569089163
20
5.72046430197952
30
0
41
1
10
166.602123899461
20
5.67285685319209
30
0
41
1
10
166.698973202978
20
5.63635063136337
30
0
41
1
10
166.781351358706
20
5.62243797422749
30
0
41
1
10
166.819697088698
20
5.61922260604635
30
0
41
1
10
166.838907088035
20
5.61817682802518
30
0
41
1
10
166.858120946542
20
5.61722558534109
30
0
41
1
10
166.896560760465
20
5.61560449792847
30
0
41
1
10
166.954265121765
20
5.61432839736102
30
0
41
1
10
167.011980980806
20
5.61482736662541
30
0
41
1
10
167.046140515923
20
5.61577724868962
30
0
41
1
10
167.054658920594
20
5.61605762355447
30
0
41
1
10
167.05676839694
20
5.61612874036334
30
0
0
SPLINE
5
269
100
AcDbEntity
8
1
62
256
6
ByLayer
370
-1
48
1
60
0
100
AcDbSpline
70
4
71
3
72
8
73
4
40
0
40
0
40
0
40
0
40
1
40
1
40
1
40
1
41
1
10
178.277720201635
20
7.38022047798867
30
0
41
1
10
178.389644457721
20
7.38411406815723
30
0
41
1
10
178.501551639886
20
7.38805951878302
30
0
41
1
10
178.608293918929
20
7.39187533565317
30
0
0
SPLINE
5
26A
100
AcDbEntity
8
1
62
256
6
ByLayer
370
-1
48
1
60
0
100
AcDbSpline
70
4
71
3
72
8
73
4
40
0
40
0
40
0
40
0
40
1
40
1
40
1
40
1
41
1
10
166.480419530124
20
18.1724642972491
30
0
41
1
10
166.427358427713
20
18.1695719588906
30
0
41
1
10
166.374316453589
20
18.1662540862355
30
0
41
1
10
166.321351283319
20
18.1624315535906
30
0
0
SPLINE
5
26B
100
AcDbEntity
8
1
62
256
6
ByLayer
370
-1
48
1
60
0
100
AcDbSpline
70
4
71
3
72
10
73
6
40
0
40
0
40
0
40
0
40
0.5
40
0.5
40
1
40
1
40
1
40
1
41
1
10
178.352690999968
20
18.1430064149651
30
0
41
1
10
178.337326904557
20
18.193416716219
30
0
41
1
10
178.315807556807
20
18.2407292865936
30
0
41
1
10
178.260827062346
20
18.3293440940927
30
0
41
1
10
178.227264648331
20
18.3704462391342
30
0
41
1
10
178.188884265006
20
18.4064830492009
30
0
0
SPLINE
5
26C
100
AcDbEntity
8
1
62
256
6
ByLayer
370
-1
48
1
60
0
100
AcDbSpline
70
4
71
3
72
10
73
6
40
0
40
0
40
0
40
0
40
0.5
40
0.5
40
1
40
1
40
1
40
1
41
1
10
166.211914493572
20
5.95321463308304
30
0
41
1
10
166.227294861822
20
5.90280433182909
30
0
41
1
10
166.248799096922
20
5.85549176145446
30
0
41
1
10
166.303690294865
20
5.76687695395543
30
0
41
1
10
166.337176580919
20
5.72577480891394
30
0
41
1
10
166.375453047067
20
5.68973799884725
30
0
0
SPLINE
5
26D
100
AcDbEntity
8
1
62
256
6
ByLayer
370
-1
48
1
60
0
100
AcDbSpline
70
4
71
3
72
8
73
4
40
0
40
0
40
0
40
0
40
1
40
1
40
1
40
1
41
1
10
178.035178317052
20
5.92134361875637
30
0
41
1
10
178.051435539894
20
5.9220668939264
30
0
41
1
10
178.067689896924
20
5.92287129962773
30
0
41
1
10
178.083940167241
20
5.92375675079907
30
0
0
SPLINE
5
26E
100
AcDbEntity
8
1
62
256
6
ByLayer
370
-1
48
1
60
0
100
AcDbSpline
70
4
71
3
72
12
73
8
40
0
40
0
40
0
40
0
40
0.0112779549373644
40
0.0936714586925841
40
0.176064962447804
40
0.340851969958243
40
1
40
1
40
1
40
1
41
1
10
176.938958484222
20
17.2688480717069
30
0
41
1
10
176.938956152888
20
17.2687532112366
30
0
41
1
10
176.938936942926
20
17.2679643755243
30
0
41
1
10
176.938903515925
20
17.2664650534952
30
0
41
1
10
176.938855773101
20
17.2635745107421
30
0
41
1
10
176.938792810492
20
17.2552675740095
30
0
41
1
10
176.93893450778
20
17.2468912050371
30
0
41
1
10
176.939167820694
20
17.2401844762197
30
0
0
SPLINE
5
26F
100
AcDbEntity
8
1
62
256
6
ByLayer
370
-1
48
1
60
0
100
AcDbSpline
70
4
71
3
72
15
73
11
40
0
40
0
40
0
40
0
40
0.0204519912453437
40
0.0504132324411163
40
0.110335714832661
40
0.230180679615752
40
0.469870609181933
40
0.709560538748114
40
0.949250468314295
40
1
40
1
40
1
40
1
41
1
10
166.630586402618
20
6.97193998987234
30
0
41
1
10
166.628331423616
20
6.97186034577516
30
0
41
1
10
166.622771980556
20
6.97166400930649
30
0
41
1
10
166.610590306326
20
6.97123406487935
30
0
41
1
10
166.587377603957
20
6.97041589487509
30
0
41
1
10
166.540775537814
20
6.96877721308283
30
0
41
1
10
166.473817573843
20
6.96643414381379
30
0
41
1
10
166.393283499365
20
6.96363390169211
30
0
41
1
10
166.334086351267
20
6.96158864409767
30
0
41
1
10
166.301832939962
20
6.96047898302925
30
0
41
1
10
166.296199390704
20
6.96028521712512
30
0
0
SPLINE
5
270
100
AcDbEntity
8
1
62
256
6
ByLayer
370
-1
48
1
60
0
100
AcDbSpline
70
4
71
3
72
12
73
8
40
0
40
0
40
0
40
0
40
0.659147749652796
40
0.823934687065995
40
0.906328155772595
40
0.988721624479194
40
1
40
1
40
1
40
1
41
1
10
177.093721001211
20
17.0955107766722
30
0
41
1
10
177.100402209246
20
17.0957449808122
30
0
41
1
10
177.108899174013
20
17.096037601317
30
0
41
1
10
177.117521606492
20
17.0963274916713
30
0
41
1
10
177.120555263364
20
17.0964286653036
30
0
41
1
10
177.122131831305
20
17.0964809169263
30
0
41
1
10
177.122962910603
20
17.0965084071375
30
0
41
1
10
177.123062878788
20
17.0965117131767
30
0
0
SPLINE
5
271
100
AcDbEntity
8
1
62
256
6
ByLayer
370
-1
48
1
60
0
100
AcDbSpline
70
4
71
3
72
12
73
8
40
0
40
0
40
0
40
0
40
0.341077853836671
40
0.341077853836671
40
0.670538966398327
40
0.670538966398327
40
1
40
1
40
1
40
1
41
1
10
167.059549724751
20
5.53618063064891
30
0
41
1
10
167.126562163782
20
5.53863759202517
30
0
41
1
10
167.193592314535
20
5.54113955398279
30
0
41
1
10
167.3252775618
20
5.54582268784932
30
0
41
1
10
167.389923649328
20
5.54798878794099
30
0
41
1
10
167.519228664974
20
5.55235922788799
30
0
41
1
10
167.583889268175
20
5.55456091350618
30
0
41
1
10
167.648577257346
20
5.55682849670356
30
0
0
SPLINE
5
272
100
AcDbEntity
8
1
62
256
6
ByLayer
370
-1
48
1
60
0
100
AcDbSpline
70
4
71
3
72
8
73
4
40
0
40
0
40
0
40
0
40
1
40
1
40
1
40
1
41
1
10
178.373299599141
20
18.0317742949274
30
0
41
1
10
178.370622676152
20
18.0696332156269
30
0
41
1
10
178.363753271056
20
18.1067105965087
30
0
41
1
10
178.352690999976
20
18.1430064149629
30
0
0
SPLINE
5
273
100
AcDbEntity
8
1
62
256
6
ByLayer
370
-1
48
1
60
0
100
AcDbSpline
70
4
71
3
72
15
73
11
40
0
40
0
40
0
40
0
40
0.0138956313305362
40
0.101457951273422
40
0.189020271216308
40
0.364144911102081
40
0.714394190873625
40
0.889518830759397
40
0.977081150702283
40
1
40
1
40
1
40
1
41
1
10
178.277720185419
20
7.38022049951212
30
0
41
1
10
178.276655853566
20
7.38018346675375
30
0
41
1
10
178.268884691311
20
7.37991308564131
30
0
41
1
10
178.254406792741
20
7.37940942631701
30
0
41
1
10
178.227579707865
20
7.37847620443856
30
0
41
1
10
178.180632229038
20
7.37684301001747
30
0
41
1
10
178.126978042818
20
7.37497649137822
30
0
41
1
10
178.080030449652
20
7.37334331630325
30
0
41
1
10
178.058154827516
20
7.37258227670884
30
0
41
1
10
178.049692436049
20
7.37228792365474
30
0
41
1
10
178.047936963134
20
7.37222686802522
30
0
0
SPLINE
5
274
100
AcDbEntity
8
1
62
256
6
ByLayer
370
-1
48
1
60
0
100
AcDbSpline
70
4
71
3
72
9
73
5
40
0
40
0
40
0
40
0
40
0.593750000002453
40
1
40
1
40
1
40
1
41
1
10
166.253868730297
20
6.36684473907138
30
0
41
1
10
166.238285512847
20
6.36629426642301
30
0
41
1
10
166.212040093984
20
6.3653671545942
30
0
41
1
10
166.18579467512
20
6.36444004276538
30
0
41
1
10
166.175132473707
20
6.36406340358491
30
0
0
SPLINE
5
275
100
AcDbEntity
8
1
62
256
6
ByLayer
370
-1
48
1
60
0
100
AcDbSpline
70
4
71
2
72
9
73
6
40
0
40
0
40
0
40
0.25
40
0.5
40
0.75
40
1
40
1
40
1
41
1
10
177.093721001211
20
17.0955107766722
30
0
41
1
10
177.092562937707
20
17.1253009156015
30
0
41
1
10
177.06839409739
20
17.1791203022778
30
0
41
1
10
177.02508437989
20
17.2199957588978
30
0
41
1
10
176.969488579743
20
17.2411225366053
30
0
41
1
10
176.939167820694
20
17.2401844762197
30
0
0
SPLINE
5
276
100
AcDbEntity
8
1
62
256
6
ByLayer
370
-1
48
1
60
0
100
AcDbSpline
70
4
71
3
72
25
73
21
40
0
40
0
40
0
40
0
40
0.0099904601135136
40
0.0399882789191943
40
0.159979554141917
40
0.27997082936464
40
0.30996864817032
40
0.339966466976001
40
0.369964285781682
40
0.399962104587363
40
0.519953379810085
40
0.639944655032808
40
0.759935930255531
40
0.879927205478254
40
0.939922843089615
40
0.969920661895296
40
0.984919571298136
40
0.992419025999556
40
0.999918480700976
40
1
40
1
40
1
40
1
41
1
10
166.62191373098
20
18.0988319016516
30
0
41
1
10
166.619781459453
20
18.098755839835
30
0
41
1
10
166.611246914823
20
18.0984450220733
30
0
41
1
10
166.57710815044
20
18.097038519417
30
0
41
1
10
166.519545894572
20
18.0935486534903
30
0
41
1
10
166.462117354787
20
18.088284773427
30
0
41
1
10
166.423913448974
20
18.0840149784611
30
0
41
1
10
166.40482767276
20
18.0817365076985
30
0
41
1
10
166.385754513554
20
18.0793469869068
30
0
41
1
10
166.347763553436
20
18.0734307360547
30
0
41
1
10
166.291607442664
20
18.0597540247208
30
0
41
1
10
166.219695333121
20
18.0320187573525
30
0
41
1
10
166.151913011106
20
17.9952580357
30
0
41
1
10
166.099918135291
20
17.9574513966529
30
0
41
1
10
166.066273352706
20
17.9276513858561
30
0
41
1
10
166.050197687487
20
17.9119555935688
30
0
41
1
10
166.042353594641
20
17.9039135721835
30
0
41
1
10
166.037928904568
20
17.8992631152271
30
0
41
1
10
166.035722482188
20
17.8969070876803
30
0
41
1
10
166.034619838378
20
17.8957179101217
30
0
41
1
10
166.034607982244
20
17.8957051221708
30
0
0
SPLINE
5
277
100
AcDbEntity
8
1
62
256
6
ByLayer
370
-1
48
1
60
0
100
AcDbSpline
70
4
71
3
72
8
73
4
40
0
40
0
40
0
40
0
40
1
40
1
40
1
40
1
41
1
10
166.178719216448
20
6.27312858108317
30
0
41
1
10
166.179441861276
20
6.25681138833556
30
0
41
1
10
166.180245851334
20
6.24049759777017
30
0
41
1
10
166.181131090557
20
6.22418842358334
30
0
0
SPLINE
5
278
100
AcDbEntity
8
1
62
256
6
ByLayer
370
-1
48
1
60
0
100
AcDbSpline
70
4
71
3
72
12
73
8
40
0
40
0
40
0
40
0
40
0.341077853836657
40
0.341077853836657
40
0.670538966398354
40
0.670538966398354
40
1
40
1
40
1
40
1
41
1
10
177.50478758732
20
18.5600404173992
30
0
41
1
10
177.437873389253
20
18.557583456023
30
0
41
1
10
177.370981887672
20
18.5550814940653
30
0
41
1
10
177.239357661008
20
18.5503983601988
30
0
41
1
10
177.174620509398
20
18.5482322601071
30
0
41
1
10
177.045167773472
20
18.5438618201601
30
0
41
1
10
176.980448043896
20
18.5416601345419
30
0
41
1
10
176.915760054725
20
18.5393925513446
30
0
0
SPLINE
5
279
100
AcDbEntity
8
1
62
256
6
ByLayer
370
-1
48
1
60
0
100
AcDbSpline
70
4
71
3
72
8
73
4
40
0
40
0
40
0
40
0
40
1
40
1
40
1
40
1
41
1
10
165.789468031432
20
17.5906849163572
30
0
41
1
10
165.789404249896
20
17.5373308235424
30
0
41
1
10
165.789946764746
20
17.4839730605771
30
0
41
1
10
165.790919694493
20
17.4306284985822
30
0
0
SPLINE
5
27A
100
AcDbEntity
8
1
62
256
6
ByLayer
370
-1
48
1
60
0
100
AcDbSpline
70
4
71
3
72
8
73
4
40
0
40
0
40
0
40
0
40
1
40
1
40
1
40
1
41
1
10
177.598202610483
20
7.35694858765288
30
0
41
1
10
177.734159477505
20
7.3614391792602
30
0
41
1
10
177.890952271508
20
7.36676570184886
30
0
41
1
10
178.047936942382
20
7.37222684130606
30
0
0
SPLINE
5
27B
100
AcDbEntity
8
1
62
256
6
ByLayer
370
-1
48
1
60
0
100
AcDbSpline
70
4
71
3
72
23
73
19
40
0
40
0
40
0
40
0
40
0.0074200078967402
40
0.0149215578681522
40
0.0299246578109762
40
0.059930857696624
40
0.11994325746792
40
0.239968057010511
40
0.480017656095695
40
0.600042455638286
40
0.630048655523934
40
0.660054855409582
40
0.69006105529523
40
0.720067255180878
40
0.840092054723469
40
0.960116854266061
40
0.990123054151709
40
1
40
1
40
1
40
1
41
1
10
166.034607982244
20
17.8957051221708
30
0
41
1
10
166.033529120714
20
17.8945414689732
30
0
41
1
10
166.031372077727
20
17.8921921459271
30
0
41
1
10
166.027082596538
20
17.8874454156734
30
0
41
1
10
166.019659132022
20
17.8790230530308
30
0
41
1
10
166.005225416439
20
17.8618163055817
30
0
41
1
10
165.978046563779
20
17.8260205058533
30
0
41
1
10
165.930710275543
20
17.7493858799706
30
0
41
1
10
165.894444919959
20
17.6522689663254
30
0
41
1
10
165.880669769475
20
17.56966102724
30
0
41
1
10
165.877505898594
20
17.5312082346169
30
0
41
1
10
165.876483635227
20
17.5119444659776
30
0
41
1
10
165.875555371131
20
17.4926766464229
30
0
41
1
10
165.873979105709
20
17.4541287995679
30
0
41
1
10
165.872765928781
20
17.3962623064833
30
0
41
1
10
165.87332105479
20
17.3383842594718
30
0
41
1
10
165.874301641772
20
17.3041286910809
30
0
41
1
10
165.874589468165
20
17.2955862984665
30
0
41
1
10
165.874662392399
20
17.2934708502474
30
0
0
SPLINE
5
27C
100
AcDbEntity
8
1
62
256
6
ByLayer
370
-1
48
1
60
0
100
AcDbSpline
70
4
71
3
72
15
73
11
40
0
40
0
40
0
40
0
40
0.0144496252550438
40
0.0300932819970272
40
0.0613805954809941
40
0.123955222448928
40
0.249104476384795
40
0.49940298425653
40
0.749701492128265
40
1
40
1
40
1
40
1
41
1
10
177.504787585616
20
18.5600404663775
30
0
41
1
10
177.504816498829
20
18.5592093375787
30
0
41
1
10
177.504829535196
20
18.5588345989033
30
0
41
1
10
177.504890336806
20
18.5570868177485
30
0
41
1
10
177.504989495279
20
18.5542364440664
30
0
41
1
10
177.505193797247
20
18.5483636534221
30
0
41
1
10
177.505598411169
20
18.5367327676536
30
0
41
1
10
177.506178388064
20
18.5200609611339
30
0
41
1
10
177.506873588935
20
18.5000769677775
30
0
41
1
10
177.507337144849
20
18.4867517567506
30
0
41
1
10
177.507568922806
20
18.4800891512371
30
0
0
SPLINE
5
27D
100
AcDbEntity
8
1
62
256
6
ByLayer
370
-1
48
1
60
0
100
AcDbSpline
70
4
71
3
72
15
73
11
40
0
40
0
40
0
40
0
40
0.0144496252547916
40
0.0300932819967791
40
0.0613805954807539
40
0.123955222448704
40
0.249104476384603
40
0.499402984256402
40
0.749701492128201
40
1
40
1
40
1
40
1
41
1
10
178.769318738953
20
6.80554203858196
30
0
41
1
10
178.76849077285
20
6.80551301492477
30
0
41
1
10
178.768117460169
20
6.80549992876186
30
0
41
1
10
178.766376329849
20
6.80543889489903
30
0
41
1
10
178.763536802699
20
6.80533935765672
30
0
41
1
10
178.757686359796
20
6.80513427528834
30
0
41
1
10
178.74609973306
20
6.80472811580745
30
0
41
1
10
178.729491367797
20
6.80414592349496
30
0
41
1
10
178.709583419569
20
6.80344806706944
30
0
41
1
10
178.696308914993
20
6.80298274044674
30
0
41
1
10
178.689671662705
20
6.80275007713539
30
0
0
SPLINE
5
27E
100
AcDbEntity
8
1
62
256
6
ByLayer
370
-1
48
1
60
0
100
AcDbSpline
70
4
71
3
72
15
73
11
40
0
40
0
40
0
40
0
40
0.0204519912454628
40
0.0504132324412286
40
0.11033571483276
40
0.230180679615823
40
0.469870609181949
40
0.709560538748074
40
0.9492504683142
40
1
40
1
40
1
40
1
41
1
10
177.938744929097
20
17.1242810581758
30
0
41
1
10
177.941034009605
20
17.1243607022729
30
0
41
1
10
177.946676458826
20
17.1245570387416
30
0
41
1
10
177.959025077887
20
17.1249869831688
30
0
41
1
10
177.98249271116
20
17.125805153173
30
0
41
1
10
178.029384925758
20
17.1274438349653
30
0
41
1
10
178.096109765287
20
17.1297869042343
30
0
41
1
10
178.175342293637
20
17.132587146356
30
0
41
1
10
178.232836432783
20
17.1346324039504
30
0
41
1
10
178.263894253683
20
17.1357420650189
30
0
41
1
10
178.269315934259
20
17.135935830923
30
0
0
SPLINE
5
27F
100
AcDbEntity
8
1
62
256
6
ByLayer
370
-1
48
1
60
0
100
AcDbSpline
70
4
71
3
72
9
73
5
40
0
40
0
40
0
40
0
40
0.406249999997964
40
1
40
1
40
1
40
1
41
1
10
165.815587916601
20
16.6994014890988
30
0
41
1
10
165.826250118014
20
16.6997781282793
30
0
41
1
10
165.852495536878
20
16.7007052401081
30
0
41
1
10
165.878740955741
20
16.7016323519369
30
0
41
1
10
165.894324173192
20
16.7021828245853
30
0
0
SPLINE
5
280
100
AcDbEntity
8
1
62
256
6
ByLayer
370
-1
48
1
60
0
100
AcDbSpline
70
4
71
3
72
12
73
8
40
0
40
0
40
0
40
0
40
0.0112779549370578
40
0.093671458692303
40
0.176064962447548
40
0.340851969958039
40
1
40
1
40
1
40
1
41
1
10
167.060296464622
20
16.7437698800012
30
0
41
1
10
167.060385332791
20
16.7437731926019
30
0
41
1
10
167.061124514856
20
16.7438007393519
30
0
41
1
10
167.062532546269
20
16.7438530968309
30
0
41
1
10
167.06526379094
20
16.7439540368081
30
0
41
1
10
167.073187173898
20
16.7442441214309
30
0
41
1
10
167.081381969382
20
16.744536630681
30
0
41
1
10
167.088063177071
20
16.7447708348121
30
0
0
SPLINE
5
281
100
AcDbEntity
8
1
62
256
6
ByLayer
370
-1
48
1
60
0
100
AcDbSpline
70
4
71
3
72
15
73
11
40
0
40
0
40
0
40
0
40
0.020451991245376
40
0.0504132324411442
40
0.110335714832681
40
0.230180679615753
40
0.469870609181899
40
0.709560538748045
40
0.94925046831419
40
1
40
1
40
1
40
1
41
1
10
167.227811493126
20
17.7237874515061
30
0
41
1
10
167.227749202852
20
17.726068160046
30
0
41
1
10
167.227595116583
20
17.7316905008907
30
0
41
1
10
167.22725028064
20
17.7440024984037
30
0
41
1
10
167.226562689471
20
17.767431821874
30
0
41
1
10
167.225075317586
20
17.8143575287264
30
0
41
1
10
167.222624602182
20
17.8814542537723
30
0
41
1
10
167.219184242763
20
17.9616426964204
30
0
41
1
10
167.216295263515
20
18.0202112109219
30
0
41
1
10
167.214592029839
20
18.0519877463353
30
0
41
1
10
167.214293066932
20
18.0575364758432
30
0
0
SPLINE
5
282
100
AcDbEntity
8
1
62
256
6
ByLayer
370
-1
48
1
60
0
100
AcDbSpline
70
4
71
3
72
15
73
11
40
0
40
0
40
0
40
0
40
0.0229190021792253
40
0.110481321488173
40
0.285605960106068
40
0.635855237341858
40
0.810979875959753
40
0.898542195268701
40
0.986104514577648
40
1
40
1
40
1
40
1
41
1
10
166.856876152576
20
6.97993361772225
30
0
41
1
10
166.855148126207
20
6.97987256193503
30
0
41
1
10
166.846816377566
20
6.97957820944498
30
0
41
1
10
166.825271002939
20
6.97881716599036
30
0
41
1
10
166.779038634223
20
6.97718399320098
30
0
41
1
10
166.726199341668
20
6.97531747338587
30
0
41
1
10
166.679965631531
20
6.97368427913875
30
0
41
1
10
166.653548140342
20
6.97275105713294
30
0
41
1
10
166.639289558792
20
6.97224739053752
30
0
41
1
10
166.631634865759
20
6.97197702077162
30
0
41
1
10
166.630586402618
20
6.97193998987237
30
0
0
SPLINE
5
283
100
AcDbEntity
8
1
62
256
6
ByLayer
370
-1
48
1
60
0
100
AcDbSpline
70
4
71
3
72
12
73
8
40
0
40
0
40
0
40
0
40
0.659147749652534
40
0.823934687065668
40
0.906328155772235
40
0.988721624478802
40
1
40
1
40
1
40
1
41
1
10
167.232186349514
20
16.8999143833703
30
0
41
1
10
167.231953036684
20
16.9066211124412
30
0
41
1
10
167.231810826301
20
16.9150006673328
30
0
41
1
10
167.23187468717
20
16.9233020409415
30
0
41
1
10
167.231921346494
20
16.9261992747031
30
0
41
1
10
167.231955264782
20
16.9276955654039
30
0
41
1
10
167.231974737422
20
16.9284827820561
30
0
41
1
10
167.231977099829
20
16.928577454633
30
0
0
SPLINE
5
284
100
AcDbEntity
8
1
62
256
6
ByLayer
370
-1
48
1
60
0
100
AcDbSpline
70
4
71
3
72
10
73
6
40
0
40
0
40
0
40
0
40
0.0485494410340091
40
0.365699627356006
40
1
40
1
40
1
40
1
41
1
10
166.296199390704
20
6.96028521712512
30
0
41
1
10
166.295181129689
20
6.96025019404161
30
0
41
1
10
166.287511601106
20
6.95998641375678
30
0
41
1
10
166.266547594824
20
6.95926557977953
30
0
41
1
10
166.246598306065
20
6.95857956605627
30
0
41
1
10
166.233299404997
20
6.95812225944832
30
0
0
SPLINE
5
285
100
AcDbEntity
8
1
62
256
6
ByLayer
370
-1
48
1
60
0
100
AcDbSpline
70
4
71
3
72
14
73
10
40
0
40
0
40
0
40
0
40
0.0424082128911089
40
0.170379060242165
40
0.68226244964639
40
0.938204144348502
40
0.970196856186266
40
0.986193212105148
40
1
40
1
40
1
40
1
41
1
10
166.93985555284
20
16.7392722549325
30
0
41
1
10
166.941561094307
20
16.7393359266146
30
0
41
1
10
166.948404925554
20
16.7395914742228
30
0
41
1
10
166.975794882694
20
16.7406143012631
30
0
41
1
10
167.011750485244
20
16.7419570404694
30
0
41
1
10
167.043873050738
20
16.7431565173356
30
0
41
1
10
167.056064674004
20
16.7436118525163
30
0
41
1
10
167.058537507093
20
16.7437042459642
30
0
41
1
10
167.059736087442
20
16.7437489916919
30
0
41
1
10
167.060296464622
20
16.7437698800012
30
0
0
SPLINE
5
286
100
AcDbEntity
8
1
62
256
6
ByLayer
370
-1
48
1
60
0
100
AcDbSpline
70
4
71
3
72
8
73
4
40
0
40
0
40
0
40
0
40
1
40
1
40
1
40
1
41
1
10
166.291612106001
20
16.7160005700594
30
0
41
1
10
166.181389259436
20
16.7121069798909
30
0
41
1
10
166.068190462998
20
16.7081615292651
30
0
41
1
10
165.957222961286
20
16.7043457123949
30
0
0
SPLINE
5
287
100
AcDbEntity
8
1
62
256
6
ByLayer
370
-1
48
1
60
0
100
AcDbSpline
70
4
71
3
72
8
73
4
40
0
40
0
40
0
40
0
40
1
40
1
40
1
40
1
41
1
10
166.939862150242
20
16.7392724603953
30
0
41
1
10
166.819610255796
20
16.7347818687879
30
0
41
1
10
166.672500607823
20
16.7294553461992
30
0
41
1
10
166.517902329525
20
16.723994206742
30
0
0
SPLINE
5
288
100
AcDbEntity
8
1
62
256
6
ByLayer
370
-1
48
1
60
0
100
AcDbSpline
70
4
71
3
72
10
73
6
40
0
40
0
40
0
40
0
40
0.0485494410334838
40
0.365699627355656
40
1
40
1
40
1
40
1
41
1
10
177.351222258031
20
6.03868457220492
30
0
41
1
10
177.351238000266
20
6.03768164231442
30
0
41
1
10
177.351356183221
20
6.0301279632678
30
0
41
1
10
177.35167370329
20
6.00948597892054
30
0
41
1
10
177.351977925866
20
5.9898411161864
30
0
41
1
10
177.352180306555
20
5.97674556833348
30
0
0
SPLINE
5
289
100
AcDbEntity
8
1
62
256
6
ByLayer
370
-1
48
1
60
0
100
AcDbSpline
70
4
71
3
72
15
73
11
40
0
40
0
40
0
40
0
40
0.0218721291688401
40
0.0870806538909174
40
0.217497703335072
40
0.478331802223381
40
0.543540326945459
40
0.608748851667536
40
0.739165901111691
40
1
40
1
40
1
40
1
41
1
10
167.05676839694
20
5.61612874036334
30
0
41
1
10
167.061067517934
20
5.6162736766963
30
0
41
1
10
167.078182478156
20
5.61687854647099
30
0
41
1
10
167.120918299553
20
5.61833669406397
30
0
41
1
10
167.210548101441
20
5.62142929920154
30
0
41
1
10
167.300043329638
20
5.62448761268564
30
0
41
1
10
167.376639228833
20
5.62710033653718
30
0
41
1
10
167.427734763768
20
5.62885495779369
30
0
41
1
10
167.517203421913
20
5.63195146713406
30
0
41
1
10
167.59397991077
20
5.63465544138168
30
0
41
1
10
167.645198815801
20
5.63647552415941
30
0
0
SPLINE
5
28A
100
AcDbEntity
8
1
62
256
6
ByLayer
370
-1
48
1
60
0
100
AcDbSpline
70
4
71
3
72
15
73
11
40
0
40
0
40
0
40
0
40
0.0138956313306377
40
0.101457951273497
40
0.189020271216356
40
0.364144911102075
40
0.714394190873512
40
0.88951883075923
40
0.97708115070209
40
1
40
1
40
1
40
1
41
1
10
166.291610861774
20
16.716000548536
30
0
41
1
10
166.292659417929
20
16.7160375812944
30
0
41
1
10
166.300314733074
20
16.7163079624068
30
0
41
1
10
166.314572899363
20
16.7168116217311
30
0
41
1
10
166.340990385039
20
16.7177448436096
30
0
41
1
10
166.387224107364
20
16.7193780380306
30
0
41
1
10
166.440063334628
20
16.7212445566699
30
0
41
1
10
166.486295838832
20
16.7228777317449
30
0
41
1
10
166.50784100152
20
16.7236387713393
30
0
41
1
10
166.516172796213
20
16.7239331243934
30
0
41
1
10
166.517900825826
20
16.7239941800229
30
0
0
SPLINE
5
28B
100
AcDbEntity
8
1
62
256
6
ByLayer
370
-1
48
1
60
0
100
AcDbSpline
70
4
71
3
72
8
73
4
40
0
40
0
40
0
40
0
40
1
40
1
40
1
40
1
41
1
10
178.385624631391
20
17.8230924669649
30
0
41
1
10
178.38490623044
20
17.8394096597125
30
0
41
1
10
178.384107531109
20
17.8557234502779
30
0
41
1
10
178.383228606807
20
17.8720326244648
30
0
0
SPLINE
5
28C
100
AcDbEntity
8
1
62
256
6
ByLayer
370
-1
48
1
60
0
100
AcDbSpline
70
4
71
3
72
8
73
4
40
0
40
0
40
0
40
0
40
1
40
1
40
1
40
1
41
1
10
166.321351283319
20
18.1624315535905
30
0
41
1
10
166.283668731073
20
18.1597119779644
30
0
41
1
10
166.246751618415
20
18.152797082006
30
0
41
1
10
166.210599774795
20
18.1416866741824
30
0
0
SPLINE
5
28D
100
AcDbEntity
8
1
62
256
6
ByLayer
370
-1
48
1
60
0
100
AcDbSpline
70
4
71
3
72
8
73
4
40
0
40
0
40
0
40
0
40
1
40
1
40
1
40
1
41
1
10
165.802401024615
20
17.7032136544423
30
0
41
1
10
165.793830636056
20
17.6661954181876
30
0
41
1
10
165.789513459919
20
17.6286864424434
30
0
41
1
10
165.789468031432
20
17.5906849163572
30
0
0
SPLINE
5
28E
100
AcDbEntity
8
1
62
256
6
ByLayer
370
-1
48
1
60
0
100
AcDbSpline
70
4
71
3
72
15
73
11
40
0
40
0
40
0
40
0
40
0.250148781622249
40
0.500297563244497
40
0.750446344866746
40
0.87552073567787
40
0.938057931083432
40
0.969326528786213
40
0.984960827637604
40
1
40
1
40
1
40
1
41
1
10
178.528438213992
20
6.20051586646946
30
0
41
1
10
178.535763833995
20
6.19370889602098
30
0
41
1
10
178.550415074001
20
6.18009495512405
30
0
41
1
10
178.572387586221
20
6.15967808374776
30
0
41
1
10
178.590719027389
20
6.14264449775018
30
0
41
1
10
178.603506253969
20
6.13076259923361
30
0
41
1
10
178.60996508411
20
6.12476105043885
30
0
41
1
10
178.613096673904
20
6.12185117534619
30
0
41
1
10
178.615041457948
20
6.12004408085988
30
0
41
1
10
178.615599692728
20
6.11952536877163
30
0
41
1
10
178.616345655571
20
6.11883221965599
30
0
0
SPLINE
5
28F
100
AcDbEntity
8
1
62
256
6
ByLayer
370
-1
48
1
60
0
100
AcDbSpline
70
4
71
3
72
12
73
8
40
0
40
0
40
0
40
0
40
0.341077853836653
40
0.341077853836653
40
0.670538966398331
40
0.670538966398331
40
1
40
1
40
1
40
1
41
1
10
165.79501862191
20
17.2906790111765
30
0
41
1
10
165.797515354289
20
17.2234599036296
30
0
41
1
10
165.800077120111
20
17.1562432979849
30
0
41
1
10
165.80477294354
20
17.0240856613132
30
0
41
1
10
165.806885268926
20
16.9591469302672
30
0
41
1
10
165.81116521789
20
16.8292738481946
30
0
41
1
10
165.813328962242
20
16.7643365758795
30
0
41
1
10
165.815587916601
20
16.6994014890988
30
0
0
SPLINE
5
290
100
AcDbEntity
8
1
62
256
6
ByLayer
370
-1
48
1
60
0
100
AcDbSpline
70
4
71
3
72
25
73
21
40
0
40
0
40
0
40
0
40
0.0099904601134653
40
0.0399882789191454
40
0.159979554141866
40
0.279970829364587
40
0.309968648170267
40
0.339966466975947
40
0.369964285781627
40
0.399962104587307
40
0.519953379810028
40
0.639944655032748
40
0.759935930255469
40
0.879927205478189
40
0.93992284308955
40
0.96992066189523
40
0.98491957129807
40
0.99241902599949
40
0.99991848070091
40
1
40
1
40
1
40
1
41
1
10
178.309257293086
20
17.7293764622239
30
0
41
1
10
178.309181459318
20
17.7315168170562
30
0
41
1
10
178.308871528703
20
17.7400836655229
30
0
41
1
10
178.307468250343
20
17.7743506984401
30
0
41
1
10
178.303988306048
20
17.8321294615841
30
0
41
1
10
178.298741041968
20
17.8897739413483
30
0
41
1
10
178.294485226811
20
17.9281215031624
30
0
41
1
10
178.292214289641
20
17.9472790429225
30
0
41
1
10
178.289832711229
20
17.9664239036346
30
0
41
1
10
178.283936674819
20
18.0045576755891
30
0
41
1
10
178.270308558574
20
18.0609248314804
30
0
41
1
10
178.242674298624
20
18.1331070826336
30
0
41
1
10
178.206048900601
20
18.2011437426664
30
0
41
1
10
178.16838239252
20
18.2533334814849
30
0
41
1
10
178.138692900906
20
18.2871038918217
30
0
41
1
10
178.123055750074
20
18.3032398735492
30
0
41
1
10
178.115043323415
20
18.3111129181143
30
0
41
1
10
178.11041064375
20
18.3155545909916
30
0
41
1
10
178.108062567308
20
18.3177684233812
30
0
41
1
10
178.106878690187
20
18.318876057331
30
0
41
1
10
178.106865959381
20
18.3188879672691
30
0
0
SPLINE
5
291
100
AcDbEntity
8
1
62
256
6
ByLayer
370
-1
48
1
60
0
100
AcDbSpline
70
4
71
3
72
8
73
4
40
0
40
0
40
0
40
0
40
1
40
1
40
1
40
1
41
1
10
166.191191214971
20
6.06444675312073
30
0
41
1
10
166.193932745622
20
6.02658783242117
30
0
41
1
10
166.200840505909
20
5.98951045153945
30
0
41
1
10
166.211914493564
20
5.9532146330852
30
0
0
SPLINE
5
292
100
AcDbEntity
8
1
62
256
6
ByLayer
370
-1
48
1
60
0
100
AcDbSpline
70
4
71
3
72
15
73
11
40
0
40
0
40
0
40
0
40
0.0138956313306168
40
0.101457951273489
40
0.189020271216362
40
0.364144911102107
40
0.714394190873598
40
0.889518830759343
40
0.977081150702216
40
1
40
1
40
1
40
1
41
1
10
167.634538229902
20
6.0321633670051
30
0
41
1
10
167.634493450216
20
6.03322384645315
30
0
41
1
10
167.634166174431
20
6.04096654847226
30
0
41
1
10
167.633554565541
20
6.05538946445114
30
0
41
1
10
167.632420095254
20
6.08211344253178
30
0
41
1
10
167.63043623738
20
6.12888201163366
30
0
41
1
10
167.628169341929
20
6.18233211214516
30
0
41
1
10
167.626184837097
20
6.22910012724688
30
0
41
1
10
167.625261463764
20
6.25089344983098
30
0
41
1
10
167.624902932426
20
6.25932261844238
30
0
41
1
10
167.62482838748
20
6.26107102291377
30
0
0
SPLINE
5
293
100
AcDbEntity
8
1
62
256
6
ByLayer
370
-1
48
1
60
0
100
AcDbSpline
70
4
71
3
72
23
73
19
40
0
40
0
40
0
40
0
40
0.007420007896674
40
0.0149215578680862
40
0.0299246578109108
40
0.0599308576965598
40
0.119943257467858
40
0.239968057010454
40
0.480017656095646
40
0.600042455638242
40
0.630048655523891
40
0.66005485540954
40
0.690061055295189
40
0.720067255180839
40
0.840092054723435
40
0.960116854266031
40
0.99012305415168
40
1
40
1
40
1
40
1
41
1
10
178.106865959381
20
18.3188879672691
30
0
41
1
10
178.105707506169
20
18.3199717247571
30
0
41
1
10
178.103371118072
20
18.3221410176243
30
0
41
1
10
178.098648669815
20
18.3264531269458
30
0
41
1
10
178.090270037179
20
18.3339166728808
30
0
41
1
10
178.073151515376
20
18.3484283585871
30
0
41
1
10
178.03753747153
20
18.3757567460686
30
0
41
1
10
177.961284463371
20
18.423364194856
30
0
41
1
10
177.864639057952
20
18.4598704166847
30
0
41
1
10
177.782430031805
20
18.4737830738206
30
0
41
1
10
177.744162825521
20
18.4769984420018
30
0
41
1
10
177.724991896491
20
18.4780442200229
30
0
41
1
10
177.705816755629
20
18.478995462707
30
0
41
1
10
177.667454248233
20
18.4806165501196
30
0
41
1
10
177.609866022316
20
18.4818926506871
30
0
41
1
10
177.552266274221
20
18.4813936814227
30
0
41
1
10
177.518175378115
20
18.4804437993585
30
0
41
1
10
177.509674010323
20
18.4801634244936
30
0
41
1
10
177.507568690069
20
18.4800923076848
30
0
0
SPLINE
5
294
100
AcDbEntity
8
1
62
256
6
ByLayer
370
-1
48
1
60
0
100
AcDbSpline
70
4
71
3
72
8
73
4
40
0
40
0
40
0
40
0
40
1
40
1
40
1
40
1
41
1
10
176.942343029265
20
17.3976373186641
30
0
41
1
10
176.945722012003
20
17.5262310373216
30
0
41
1
10
176.945257331456
20
17.678762687288
30
0
41
1
10
176.941010169571
20
17.8351492599977
30
0
0
SPLINE
5
295
100
AcDbEntity
8
1
62
256
6
ByLayer
370
-1
48
1
60
0
100
AcDbSpline
70
4
71
3
72
14
73
10
40
0
40
0
40
0
40
0
40
0.0138067085559766
40
0.02980306823714
40
0.0617957875994667
40
0.31773754249808
40
0.829621052295308
40
0.957591929744615
40
1
40
1
40
1
40
1
41
1
10
167.399272317819
20
6.99970933487137
30
0
41
1
10
167.398713300085
20
6.99968848884723
30
0
41
1
10
167.397517273909
20
6.99964382254797
30
0
41
1
10
167.395037118242
20
6.99955120142914
30
0
41
1
10
167.382855825118
20
6.99909618745244
30
0
41
1
10
167.350719066681
20
6.99789626923251
30
0
41
1
10
167.314770699899
20
6.99655375500606
30
0
41
1
10
167.28738024741
20
6.99553091256627
30
0
41
1
10
167.280536381864
20
6.99527536392435
30
0
41
1
10
167.278830839975
20
6.9952116922662
30
0
0
SPLINE
5
296
100
AcDbEntity
8
1
62
256
6
ByLayer
370
-1
48
1
60
0
100
AcDbSpline
70
4
71
3
72
10
73
6
40
0
40
0
40
0
40
0
40
0.5
40
0.5
40
1
40
1
40
1
40
1
41
1
10
178.354005718746
20
5.95453437387397
30
0
41
1
10
178.404232330005
20
5.96996532513265
30
0
41
1
10
178.45135730544
20
5.99155928810617
30
0
41
1
10
178.539590258584
20
6.04670498031595
30
0
41
1
10
178.580497933573
20
6.08035738792117
30
0
41
1
10
178.61634565411
20
6.11883222101352
30
0
0
SPLINE
5
297
100
AcDbEntity
8
1
62
256
6
ByLayer
370
-1
48
1
60
0
100
AcDbSpline
70
4
71
3
72
14
73
10
40
0
40
0
40
0
40
0
40
0.0424082128911223
40
0.170379060242185
40
0.682262449646434
40
0.938204144348559
40
0.970196856186325
40
0.986193212105208
40
1
40
1
40
1
40
1
41
1
10
176.942342088476
20
17.3976432023474
30
0
41
1
10
176.942294679198
20
17.3958198839332
30
0
41
1
10
176.9421030065
20
17.3885019578985
30
0
41
1
10
176.941333421367
20
17.3592120237077
30
0
41
1
10
176.940321951329
20
17.3207610037017
30
0
41
1
10
176.939421612473
20
17.2864124803555
30
0
41
1
10
176.939077362356
20
17.2733733867927
30
0
41
1
10
176.93900650321
20
17.2707275846176
30
0
41
1
10
176.938973184944
20
17.2694462346228
30
0
41
1
10
176.938958484222
20
17.2688480717069
30
0
0
SPLINE
5
298
100
AcDbEntity
8
1
62
256
6
ByLayer
370
-1
48
1
60
0
100
AcDbSpline
70
4
71
3
72
15
73
11
40
0
40
0
40
0
40
0
40
0.250148781622202
40
0.500297563244404
40
0.750446344866607
40
0.875520735677708
40
0.938057931083258
40
0.969326528786034
40
0.984960827637421
40
1
40
1
40
1
40
1
41
1
10
178.106865670506
20
18.3188880636932
30
0
41
1
10
178.113700553375
20
18.3261876458122
30
0
41
1
10
178.127370319113
20
18.3407868100502
30
0
41
1
10
178.147870911184
20
18.3626812240707
30
0
41
1
10
178.164974344496
20
18.380947508714
30
0
41
1
10
178.176904965502
20
18.3936892848989
30
0
41
1
10
178.182931124034
20
18.4001251580381
30
0
41
1
10
178.185852931257
20
18.4032456170375
30
0
41
1
10
178.18766743585
20
18.4051834886207
30
0
41
1
10
178.188188274951
20
18.4057397392336
30
0
41
1
10
178.188884266369
20
18.4064830506567
30
0
0
SPLINE
5
299
100
AcDbEntity
8
1
62
256
6
ByLayer
370
-1
48
1
60
0
100
AcDbSpline
70
4
71
3
72
9
73
5
40
0
40
0
40
0
40
0
40
0.59374999999987
40
1
40
1
40
1
40
1
41
1
10
178.309253202015
20
17.7293763089767
30
0
41
1
10
178.325076963376
20
17.7299267816251
30
0
41
1
10
178.351727508826
20
17.7308538934539
30
0
41
1
10
178.378378054276
20
17.7317810052828
30
0
41
1
10
178.389204838365
20
17.7321576444632
30
0
0
SPLINE
5
29A
100
AcDbEntity
8
1
62
256
6
ByLayer
370
-1
48
1
60
0
100
AcDbSpline
70
4
71
3
72
15
73
11
40
0
40
0
40
0
40
0
40
0.0144496252550536
40
0.0300932819970368
40
0.0613805954810034
40
0.123955222448937
40
0.249104476384803
40
0.499402984256535
40
0.749701492128268
40
1
40
1
40
1
40
1
41
1
10
167.059549726455
20
5.53618058167058
30
0
41
1
10
167.059520813242
20
5.53701171046942
30
0
41
1
10
167.059507776876
20
5.53738644914483
30
0
41
1
10
167.059446975265
20
5.53913423029962
30
0
41
1
10
167.059347816792
20
5.54198460398169
30
0
41
1
10
167.059143514824
20
5.54785739462602
30
0
41
1
10
167.058738900903
20
5.55948828039453
30
0
41
1
10
167.058158924008
20
5.5761600869142
30
0
41
1
10
167.057463723137
20
5.59614408027059
30
0
41
1
10
167.057000167222
20
5.6094692912975
30
0
41
1
10
167.056768389265
20
5.61613189681097
30
0
0
SPLINE
5
29B
100
AcDbEntity
8
1
62
256
6
ByLayer
370
-1
48
1
60
0
100
AcDbSpline
70
4
71
3
72
15
73
11
40
0
40
0
40
0
40
0
40
0.250148781622279
40
0.500297563244559
40
0.750446344866839
40
0.875520735677978
40
0.938057931083548
40
0.969326528786333
40
0.984960827637726
40
1
40
1
40
1
40
1
41
1
10
166.456180081616
20
5.77733298435496
30
0
41
1
10
166.449452828742
20
5.77003340223595
30
0
41
1
10
166.435998322997
20
5.75543423799797
30
0
41
1
10
166.415820557034
20
5.73353982397742
30
0
41
1
10
166.398986454227
20
5.71527353933411
30
0
41
1
10
166.387243706621
20
5.70253176314924
30
0
41
1
10
166.381312442974
20
5.69609589001004
30
0
41
1
10
166.378436645918
20
5.69297543101061
30
0
41
1
10
166.376650714619
20
5.69103755942743
30
0
41
1
10
166.376138077255
20
5.6904813088145
30
0
41
1
10
166.375453045725
20
5.68973799739149
30
0
0
SPLINE
5
29C
100
AcDbEntity
8
1
62
256
6
ByLayer
370
-1
48
1
60
0
100
AcDbSpline
70
4
71
3
72
15
73
11
40
0
40
0
40
0
40
0
40
0.0229190021791454
40
0.110481321488097
40
0.285605960105999
40
0.635855237341805
40
0.810979875959707
40
0.898542195268659
40
0.98610451457761
40
1
40
1
40
1
40
1
41
1
10
177.331809889454
20
6.60134114829583
30
0
41
1
10
177.331884442299
20
6.59959273930889
30
0
41
1
10
177.332243003038
20
6.59116358684906
30
0
41
1
10
177.333166278398
20
6.56937015372407
30
0
41
1
10
177.335150851238
20
6.52260220407362
30
0
41
1
10
177.337417716111
20
6.46915206989175
30
0
41
1
10
177.339401581037
20
6.42238350577205
30
0
41
1
10
177.340536049571
20
6.39565952404513
30
0
41
1
10
177.341147457867
20
6.38123639984917
30
0
41
1
10
177.341475020776
20
6.37349402275231
30
0
41
1
10
177.341519838589
20
6.37243359654198
30
0
0
SPLINE
5
29D
100
AcDbEntity
8
1
62
256
6
ByLayer
370
-1
48
1
60
0
100
AcDbSpline
70
4
71
3
72
10
73
6
40
0
40
0
40
0
40
0
40
0.634300400238587
40
0.95145060035788
40
1
40
1
40
1
40
1
41
1
10
176.917923116511
20
18.4597455238887
30
0
41
1
10
176.918631868827
20
18.4466499765428
30
0
41
1
10
176.919694453016
20
18.4270051137567
30
0
41
1
10
176.920813115048
20
18.4063631327445
30
0
41
1
10
176.921220485189
20
18.3988094548134
30
0
41
1
10
176.921274522538
20
18.3978065258533
30
0
0
SPLINE
5
29E
100
AcDbEntity
8
1
62
256
6
ByLayer
370
-1
48
1
60
0
100
AcDbSpline
70
4
71
3
72
9
73
5
40
0
40
0
40
0
40
0
40
0.59375000000004
40
1
40
1
40
1
40
1
41
1
10
177.941207819576
20
5.99739348306295
30
0
41
1
10
177.941876469465
20
5.98163000887897
30
0
41
1
10
177.943002616647
20
5.95508099972704
30
0
41
1
10
177.944128763828
20
5.9285319905751
30
0
41
1
10
177.944586261121
20
5.9177464556071
30
0
0
SPLINE
5
29F
100
AcDbEntity
8
1
62
256
6
ByLayer
370
-1
48
1
60
0
100
AcDbSpline
70
4
71
2
72
9
73
6
40
0
40
0
40
0
40
0.25
40
0.5
40
0.75
40
1
40
1
40
1
41
1
10
177.288573091184
20
7.19630666467779
30
0
41
1
10
177.318249869641
20
7.19746915179613
30
0
41
1
10
177.371864457302
20
7.22173031315634
30
0
41
1
10
177.412584370469
20
7.26520546674149
30
0
41
1
10
177.433630754409
20
7.32101363381292
30
0
41
1
10
177.432696263626
20
7.35145021323603
30
0
0
SPLINE
5
2A0
100
AcDbEntity
8
1
62
256
6
ByLayer
370
-1
48
1
60
0
100
AcDbSpline
70
4
71
3
72
8
73
4
40
0
40
0
40
0
40
0
40
1
40
1
40
1
40
1
41
1
10
178.772151316723
20
6.71458180531673
30
0
41
1
10
178.771344775518
20
6.74490601038329
30
0
41
1
10
178.770400392796
20
6.77522669655869
30
0
41
1
10
178.769318690178
20
6.80554203687217
30
0
0
SPLINE
5
2A1
100
AcDbEntity
8
1
62
256
6
ByLayer
370
-1
48
1
60
0
100
AcDbSpline
70
4
71
3
72
8
73
4
40
0
40
0
40
0
40
0
40
1
40
1
40
1
40
1
41
1
10
177.803495923199
20
18.5654556582452
30
0
41
1
10
177.750325061811
20
18.5654998107905
30
0
41
1
10
177.697206687277
20
18.5649917084926
30
0
41
1
10
177.644103066781
20
18.5640531566072
30
0
0
SPLINE
5
2A2
100
AcDbEntity
8
1
62
256
6
ByLayer
370
-1
48
1
60
0
100
AcDbSpline
70
4
71
3
72
8
73
4
40
0
40
0
40
0
40
0
40
1
40
1
40
1
40
1
41
1
10
166.61975105095
20
18.178474592441
30
0
41
1
10
166.589547679012
20
18.1774198489656
30
0
41
1
10
166.559351793653
20
18.1762207506889
30
0
41
1
10
166.529165530786
20
18.1748774292919
30
0
0
SPLINE
5
2A3
100
AcDbEntity
8
1
62
256
6
ByLayer
370
-1
48
1
60
0
100
AcDbSpline
70
4
71
3
72
8
73
4
40
0
40
0
40
0
40
0
40
1
40
1
40
1
40
1
41
1
10
166.760529476356
20
5.53076538980287
30
0
41
1
10
166.813660743735
20
5.53072123725764
30
0
41
1
10
166.866851810337
20
5.53122933955555
30
0
41
1
10
166.920031329504
20
5.53216789144088
30
0
0
SPLINE
5
2A4
100
AcDbEntity
8
1
62
256
6
ByLayer
370
-1
48
1
60
0
100
AcDbSpline
70
4
71
2
72
9
73
6
40
0
40
0
40
0
40
0.25
40
0.5
40
0.75
40
1
40
1
40
1
41
1
10
167.427038439487
20
7.00071027137588
30
0
41
1
10
167.428196502991
20
6.97092013244665
30
0
41
1
10
167.452365343307
20
6.91710074577028
30
0
41
1
10
167.495675060808
20
6.87622528915034
30
0
41
1
10
167.551270860954
20
6.85509851144283
30
0
41
1
10
167.581591620004
20
6.85603657182838
30
0
0
SPLINE
5
2A5
100
AcDbEntity
8
1
62
256
6
ByLayer
370
-1
48
1
60
0
100
AcDbSpline
70
4
71
3
72
8
73
4
40
0
40
0
40
0
40
0
40
1
40
1
40
1
40
1
41
1
10
178.083940167241
20
5.92375675079899
30
0
41
1
10
178.137021897429
20
5.92664908915754
30
0
41
1
10
178.190083550437
20
5.9299669618126
30
0
41
1
10
178.243139530794
20
5.93378949445756
30
0
0
SPLINE
5
2A6
100
AcDbEntity
8
1
62
256
6
ByLayer
370
-1
48
1
60
0
100
AcDbSpline
70
4
71
3
72
15
73
11
40
0
40
0
40
0
40
0
40
0.0229190021791417
40
0.110481321488089
40
0.285605960105982
40
0.63585523734177
40
0.810979875959663
40
0.89854219526861
40
0.986104514577557
40
1
40
1
40
1
40
1
41
1
10
177.708961700234
20
17.1162874303259
30
0
41
1
10
177.710717185391
20
17.1163484861131
30
0
41
1
10
177.71917959073
20
17.1166428386031
30
0
41
1
10
177.741055221167
20
17.1174038820577
30
0
41
1
10
177.788002819415
20
17.1190370548471
30
0
41
1
10
177.841657007429
20
17.1209035746622
30
0
41
1
10
177.888604488519
20
17.1225367689094
30
0
41
1
10
177.915431575146
20
17.1234699909152
30
0
41
1
10
177.929909473304
20
17.1239736575106
30
0
41
1
10
177.937680610301
20
17.1242440272765
30
0
41
1
10
177.938744929097
20
17.1242810581758
30
0
0
SPLINE
5
2A7
100
AcDbEntity
8
1
62
256
6
ByLayer
370
-1
48
1
60
0
100
AcDbSpline
70
4
71
3
72
15
73
11
40
0
40
0
40
0
40
0
40
0.0218721291688747
40
0.0870806538909497
40
0.2174977033351
40
0.4783318022234
40
0.543540326945475
40
0.60874885166755
40
0.7391659011117
40
1
40
1
40
1
40
1
41
1
10
178.68967469461
20
6.80275019780072
30
0
41
1
10
178.689534544869
20
6.80706148949542
30
0
41
1
10
178.688948316848
20
6.82422542362741
30
0
41
1
10
178.687521631672
20
6.86709847620753
30
0
41
1
10
178.684433929958
20
6.95707754047362
30
0
41
1
10
178.681253778964
20
7.04704861107354
30
0
41
1
10
178.678449527155
20
7.124139333903
30
0
41
1
10
178.676591666505
20
7.17554038159989
30
0
41
1
10
178.673356281289
20
7.2655020300061
30
0
41
1
10
178.670610439673
20
7.34262414861505
30
0
41
1
10
178.668797759121
20
7.39403822346281
30
0
0
SPLINE
5
2A8
100
AcDbEntity
8
1
62
256
6
ByLayer
370
-1
48
1
60
0
100
AcDbSpline
70
4
71
3
72
15
73
11
40
0
40
0
40
0
40
0
40
0.0218721291688743
40
0.0870806538909494
40
0.217497703335099
40
0.4783318022234
40
0.543540326945475
40
0.60874885166755
40
0.7391659011117
40
1
40
1
40
1
40
1
41
1
10
165.874662392399
20
17.2934708502474
30
0
41
1
10
165.874811012271
20
17.2891595585527
30
0
41
1
10
165.875429920376
20
17.2719956244207
30
0
41
1
10
165.876908433002
20
17.2291225718406
30
0
41
1
10
165.879982404971
20
17.1391435075745
30
0
41
1
10
165.882895605331
20
17.0491724369746
30
0
41
1
10
165.88529691682
20
16.9720817141451
30
0
41
1
10
165.886934944956
20
16.9206806664482
30
0
41
1
10
165.889869012115
20
16.830719018042
30
0
41
1
10
165.892510540117
20
16.7535968994331
30
0
41
1
10
165.894324173192
20
16.7021828245853
30
0
0
SPLINE
5
2A9
100
AcDbEntity
8
1
62
256
6
ByLayer
370
-1
48
1
60
0
100
AcDbSpline
70
4
71
3
72
8
73
4
40
0
40
0
40
0
40
0
40
1
40
1
40
1
40
1
41
1
10
177.915646350549
20
18.5525233488077
30
0
41
1
10
177.878751732018
20
18.5611091611342
30
0
41
1
10
177.841366942449
20
18.5654242105341
30
0
41
1
10
177.803495923199
20
18.5654556582452
30
0
0
SPLINE
5
2AA
100
AcDbEntity
8
1
62
256
6
ByLayer
370
-1
48
1
60
0
100
AcDbSpline
70
4
71
3
72
8
73
4
40
0
40
0
40
0
40
0
40
1
40
1
40
1
40
1
41
1
10
167.59572173146
20
6.69858372938401
30
0
41
1
10
167.608047721298
20
6.56999001072651
30
0
41
1
10
167.618195547875
20
6.41745836076015
30
0
41
1
10
167.624829102336
20
6.26107178805046
30
0
0
SPLINE
5
2AB
100
AcDbEntity
8
1
62
256
6
ByLayer
370
-1
48
1
60
0
100
AcDbSpline
70
4
71
3
72
17
73
13
40
0
40
0
40
0
40
0
40
0.0285647612451814
40
0.114009773641729
40
0.284899798434824
40
0.455789823227919
40
0.626679848021013
40
0.797569872814108
40
0.883014885210656
40
0.925737391408929
40
0.968459897607203
40
1
40
1
40
1
40
1
41
1
10
177.302702673197
20
7.03884796060134
30
0
41
1
10
177.303054275332
20
7.03516922251296
30
0
41
1
10
177.304454852457
20
7.02045637435089
30
0
41
1
10
177.307876993191
20
6.98285584975957
30
0
41
1
10
177.312760440352
20
6.9241613757016
30
0
41
1
10
177.318167461087
20
6.85049601899576
30
0
41
1
10
177.323081424325
20
6.77421831088793
30
0
41
1
10
177.326730887226
20
6.70897490149417
30
0
41
1
10
177.329037260052
20
6.66270008740233
30
0
41
1
10
177.330282953116
20
6.63612492234952
30
0
41
1
10
177.331101310487
20
6.61788018301036
30
0
41
1
10
177.331599612271
20
6.60627255655408
30
0
41
1
10
177.331809889454
20
6.60134114829583
30
0
0
SPLINE
5
2AC
100
AcDbEntity
8
1
62
256
6
ByLayer
370
-1
48
1
60
0
100
AcDbSpline
70
4
71
3
72
12
73
8
40
0
40
0
40
0
40
0
40
0.521734132299734
40
0.782601198449601
40
0.913034731524534
40
0.978251498062001
40
1
40
1
40
1
40
1
41
1
10
177.352180306555
20
5.97674556833348
30
0
41
1
10
177.454618892479
20
5.98033646734436
30
0
41
1
10
177.608276407025
20
5.98572117814101
30
0
41
1
10
177.787544545029
20
5.99201003897574
30
0
41
1
10
177.877177872306
20
5.9951437707594
30
0
41
1
10
177.919862547882
20
5.99665324205159
30
0
41
1
10
177.936937803199
20
5.99723682147544
30
0
41
1
10
177.941207743147
20
5.99738914639653
30
0
0
SPLINE
5
2AD
100
AcDbEntity
8
1
62
256
6
ByLayer
370
-1
48
1
60
0
100
AcDbSpline
70
4
71
3
72
8
73
4
40
0
40
0
40
0
40
0
40
1
40
1
40
1
40
1
41
1
10
166.64847883918
20
5.5436976992404
30
0
41
1
10
166.685338962028
20
5.53511188691388
30
0
41
1
10
166.722686657993
20
5.53079683751406
30
0
41
1
10
166.760529476356
20
5.53076538980292
30
0
0
SPLINE
5
2AE
100
AcDbEntity
8
1
62
256
6
ByLayer
370
-1
48
1
60
0
100
AcDbSpline
70
4
71
3
72
10
73
6
40
0
40
0
40
0
40
0
40
0.5
40
0.5
40
1
40
1
40
1
40
1
41
1
10
166.210599774793
20
18.1416866741741
30
0
41
1
10
166.160389436375
20
18.1262557229155
30
0
41
1
10
166.113249348289
20
18.104661759942
30
0
41
1
10
166.024927098627
20
18.0495160677322
30
0
41
1
10
165.983943295676
20
18.0158636601269
30
0
41
1
10
165.947991657964
20
17.9773888270346
30
0
0
SPLINE
5
2AF
100
AcDbEntity
8
1
62
256
6
ByLayer
370
-1
48
1
60
0
100
AcDbSpline
70
4
71
2
72
9
73
6
40
0
40
0
40
0
40
0.25
40
0.5
40
0.75
40
1
40
1
40
1
41
1
10
167.232186349514
20
16.8999143833703
30
0
41
1
10
167.202509571057
20
16.898751896252
30
0
41
1
10
167.148894983396
20
16.8744907348918
30
0
41
1
10
167.108175070229
20
16.8310155813066
30
0
41
1
10
167.087128686289
20
16.7752074142352
30
0
41
1
10
167.088063177071
20
16.7447708348121
30
0
0
SPLINE
5
2B0
100
AcDbEntity
8
1
62
256
6
ByLayer
370
-1
48
1
60
0
100
AcDbSpline
70
4
71
3
72
10
73
6
40
0
40
0
40
0
40
0
40
0.634300400238774
40
0.951450600358161
40
1
40
1
40
1
40
1
41
1
10
165.894324173192
20
16.7021828245853
30
0
41
1
10
165.907623073941
20
16.7026401311755
30
0
41
1
10
165.927572363047
20
16.7033261449006
30
0
41
1
10
165.948536366251
20
16.7040469787614
30
0
41
1
10
165.956205893815
20
16.7043107590072
30
0
41
1
10
165.9572241539
20
16.7043457820583
30
0
0
SPLINE
5
2B1
100
AcDbEntity
8
1
62
256
6
ByLayer
370
-1
48
1
60
0
100
AcDbSpline
70
4
71
3
72
17
73
13
40
0
40
0
40
0
40
0
40
0.0285647612451825
40
0.11400977364173
40
0.284899798434825
40
0.45578982322792
40
0.626679848021015
40
0.79756987281411
40
0.883014885210657
40
0.925737391408931
40
0.968459897607205
40
1
40
1
40
1
40
1
41
1
10
167.235360620815
20
17.0573730874468
30
0
41
1
10
167.235456271911
20
17.0610518255351
30
0
41
1
10
167.235833191285
20
17.0757646736973
30
0
41
1
10
167.236639246536
20
17.1133651982885
30
0
41
1
10
167.23743898042
20
17.1720596723465
30
0
41
1
10
167.237720677178
20
17.2457250290523
30
0
41
1
10
167.237327560076
20
17.3220027371602
30
0
41
1
10
167.236437662476
20
17.3872461465539
30
0
41
1
10
167.23552442944
20
17.4335209606458
30
0
41
1
10
167.234921134911
20
17.4600961256986
30
0
41
1
10
167.234470100478
20
17.4783408650378
30
0
41
1
10
167.234160792704
20
17.489948491494
30
0
41
1
10
167.234027963356
20
17.4948798997523
30
0
0
SPLINE
5
2B2
100
AcDbEntity
8
1
62
256
6
ByLayer
370
-1
48
1
60
0
100
AcDbSpline
70
4
71
3
72
15
73
11
40
0
40
0
40
0
40
0
40
0.0138956313306262
40
0.101457951273499
40
0.189020271216372
40
0.364144911102118
40
0.714394190873609
40
0.889518830759355
40
0.977081150702228
40
1
40
1
40
1
40
1
41
1
10
176.934792817291
20
18.064057681043
30
0
41
1
10
176.934821821279
20
18.062997201595
30
0
41
1
10
176.935033249955
20
18.0552544995758
30
0
41
1
10
176.935425126563
20
18.040831583597
30
0
41
1
10
176.93614999765
20
18.0141076055163
30
0
41
1
10
176.937420099023
20
17.9673390364144
30
0
41
1
10
176.938872035517
20
17.913888935903
30
0
41
1
10
176.940141451386
20
17.8671209208012
30
0
41
1
10
176.940734365272
20
17.8453275982171
30
0
41
1
10
176.940962299837
20
17.8368984296058
30
0
41
1
10
176.94100940148
20
17.8351500251343
30
0
0
SPLINE
5
2B3
100
AcDbEntity
8
1
62
256
6
ByLayer
370
-1
48
1
60
0
100
AcDbSpline
70
4
71
3
72
8
73
4
40
0
40
0
40
0
40
0
40
1
40
1
40
1
40
1
41
1
10
166.181131090557
20
6.22418842358334
30
0
41
1
10
166.184022736584
20
6.17091428309553
30
0
41
1
10
166.187337823174
20
6.11765982022044
30
0
41
1
10
166.191191214971
20
6.06444675312082
30
0
0
SPLINE
5
2B4
100
AcDbEntity
8
1
62
256
6
ByLayer
370
-1
48
1
60
0
100
AcDbSpline
70
4
71
3
72
8
73
4
40
0
40
0
40
0
40
0
40
1
40
1
40
1
40
1
41
1
10
167.634538838682
20
6.03216398335587
30
0
41
1
10
167.639268317325
20
5.92066614910914
30
0
41
1
10
167.642552947184
20
5.80768322567343
30
0
41
1
10
167.644241632384
20
5.69841252729879
30
0
0
SPLINE
5
2B5
100
AcDbEntity
8
1
62
256
6
ByLayer
370
-1
48
1
60
0
100
AcDbSpline
70
4
71
3
72
12
73
8
40
0
40
0
40
0
40
0
40
0.521734132299767
40
0.78260119844965
40
0.913034731524592
40
0.978251498062062
40
1
40
1
40
1
40
1
41
1
10
167.210941661516
20
18.1194754797146
30
0
41
1
10
167.108503075604
20
18.1158845807037
30
0
41
1
10
166.954844753543
20
18.1104998699071
30
0
41
1
10
166.775578123229
20
18.1042110090724
30
0
41
1
10
166.685943361029
20
18.1010772772887
30
0
41
1
10
166.643259755621
20
18.0995678059965
30
0
41
1
10
166.626183916814
20
18.0989842265727
30
0
41
1
10
166.62191373098
20
18.0988319016516
30
0
0
SPLINE
5
2B6
100
AcDbEntity
8
1
62
256
6
ByLayer
370
-1
48
1
60
0
100
AcDbSpline
70
4
71
3
72
10
73
6
40
0
40
0
40
0
40
0
40
0.0485494410334709
40
0.365699627355647
40
1
40
1
40
1
40
1
41
1
10
178.269315934259
20
17.135935830923
30
0
41
1
10
178.270295900123
20
17.1359708540065
30
0
41
1
10
178.277676241574
20
17.1362346342913
30
0
41
1
10
178.297839106022
20
17.1369554682686
30
0
41
1
10
178.317030033464
20
17.1376414819918
30
0
41
1
10
178.329822563075
20
17.1380987885998
30
0
0
SPLINE
5
2B7
100
AcDbEntity
8
1
62
256
6
ByLayer
370
-1
48
1
60
0
100
AcDbSpline
70
4
71
3
72
12
73
8
40
0
40
0
40
0
40
0
40
0.0112779549373186
40
0.093671458692542
40
0.176064962447766
40
0.340851969958212
40
1
40
1
40
1
40
1
41
1
10
167.583376575283
20
6.82737297634117
30
0
41
1
10
167.583367643959
20
6.82746783681154
30
0
41
1
10
167.583293550144
20
6.82825667252385
30
0
41
1
10
167.583155806657
20
6.82975599455287
30
0
41
1
10
167.582906952094
20
6.832646537306
30
0
41
1
10
167.582266027957
20
6.84095347403866
30
0
41
1
10
167.581824932917
20
6.84932984301105
30
0
41
1
10
167.581591620004
20
6.85603657182838
30
0
0
SPLINE
5
2B8
100
AcDbEntity
8
1
62
256
6
ByLayer
370
-1
48
1
60
0
100
AcDbSpline
70
4
71
3
72
8
73
4
40
0
40
0
40
0
40
0
40
1
40
1
40
1
40
1
41
1
10
177.944586261121
20
5.91774645560713
30
0
41
1
10
177.974786094496
20
5.91880119908254
30
0
41
1
10
178.004984172136
20
5.92000029735917
30
0
41
1
10
178.035178317052
20
5.92134361875617
30
0
0
SPLINE
5
2B9
100
AcDbEntity
8
SK1
62
256
6
ByLayer
370
-1
48
1
60
0
100
AcDbSpline
70
4
71
3
72
20
73
16
40
0
40
0
40
0
40
0
40
0.125000000000019
40
0.125000000000019
40
0.187500000000028
40
0.187500000000028
40
0.250000000000038
40
0.250000000000038
40
0.375000000000024
40
0.375000000000024
40
0.50000000000001
40
0.50000000000001
40
0.750000000000005
40
0.750000000000005
40
1
40
1
40
1
40
1
41
1
10
-67.6338144512151
20
-8.29060283092329
30
0
41
1
10
-67.6746000935235
20
-8.25730093016261
30
0
41
1
10
-67.7199836490945
20
-8.22876323292448
30
0
41
1
10
-67.7948550962205
20
-8.20056981372309
30
0
41
1
10
-67.8205420829085
20
-8.19379354056497
30
0
41
1
10
-67.8728129362724
20
-8.18630243082055
30
0
41
1
10
-67.8998340844743
20
-8.1856286499503
30
0
41
1
10
-67.9787783127119
20
-8.19310764466417
30
0
41
1
10
-68.0301252704948
20
-8.21095104743222
30
0
41
1
10
-68.1222359195847
20
-8.26210721442101
30
0
41
1
10
-68.1643255549633
20
-8.29567338223035
30
0
41
1
10
-68.2768770736766
20
-8.40615789436035
30
0
41
1
10
-68.3371994967397
20
-8.49473748926303
30
0
41
1
10
-68.4387470357031
20
-8.67793923211124
30
0
41
1
10
-68.4804562077026
20
-8.77402168984949
30
0
41
1
10
-68.5162227297291
20
-8.87304222606727
30
0
0
SPLINE
5
2BA
100
AcDbEntity
8
SK1
62
256
6
ByLayer
370
-1
48
1
60
0
100
AcDbSpline
70
4
71
3
72
8
73
4
40
0
40
0
40
0
40
0
40
1
40
1
40
1
40
1
41
1
10
-70
20
6.62311105146222
30
0
41
1
10
-69.7055026821388
20
7.46777015601646
30
0
41
1
10
-69.3687115489839
20
8.29265478028327
30
0
41
1
10
-69
20
9.10261500888626
30
0
0
SPLINE
5
2BB
100
AcDbEntity
8
SK1
62
256
6
ByLayer
370
-1
48
1
60
0
100
AcDbSpline
70
4
71
3
72
20
73
16
40
0
40
0
40
0
40
0
40
0.249999999999997
40
0.249999999999997
40
0.374999999999998
40
0.374999999999998
40
0.499999999999998
40
0.499999999999998
40
0.624999999999999
40
0.624999999999999
40
0.749999999999999
40
0.749999999999999
40
0.875
40
0.875
40
1
40
1
40
1
40
1
41
1
10
-68.5162227297303
20
8.87304222606696
30
0
41
1
10
-68.4805102229812
20
8.77417123253394
30
0
41
1
10
-68.4382573152345
20
8.67693148618665
30
0
41
1
10
-68.3621710721186
20
8.53985159931514
30
0
41
1
10
-68.3346894685715
20
8.49562896904695
30
0
41
1
10
-68.2739659602408
20
8.41118058772861
30
0
41
1
10
-68.2407881315988
20
8.37091037639976
30
0
41
1
10
-68.1654488761744
20
8.29660337023134
30
0
41
1
10
-68.123541484252
20
8.2629600402953
30
0
41
1
10
-68.0305243323762
20
8.21104725205689
30
0
41
1
10
-67.9795833203366
20
8.19319188549028
30
0
41
1
10
-67.872813969243
20
8.18306085753042
30
0
41
1
10
-67.8196144054522
20
8.19122791676685
30
0
41
1
10
-67.7199392264586
20
8.22879859450236
30
0
41
1
10
-67.6749143258214
20
8.2570443562262
30
0
41
1
10
-67.6338144512151
20
8.29060283092346
30
0
0
SPLINE
5
2BC
100
AcDbEntity
8
SK1
62
256
6
ByLayer
370
-1
48
1
60
0
100
AcDbSpline
70
4
71
3
72
8
73
4
40
0
40
0
40
0
40
0
40
1
40
1
40
1
40
1
41
1
10
-66.6
20
-9.10261500888609
30
0
41
1
10
-66.9484012097206
20
-8.83881772536392
30
0
41
1
10
-67.2932836983816
20
-8.56864972916986
30
0
41
1
10
-67.6338144512153
20
-8.2906028309236
30
0
0
SPLINE
5
2BD
100
AcDbEntity
8
SK1
62
256
6
ByLayer
370
-1
48
1
60
0
100
AcDbSpline
70
4
71
3
72
8
73
4
40
0
40
0
40
0
40
0
40
1
40
1
40
1
40
1
41
1
10
-69
20
-9.10261500888609
30
0
41
1
10
-69.3687115489839
20
-8.2926547802831
30
0
41
1
10
-69.7055026821388
20
-7.46777015601629
30
0
41
1
10
-70
20
-6.62311105146205
30
0
0
SPLINE
5
2BE
100
AcDbEntity
8
SK1
62
256
6
ByLayer
370
-1
48
1
60
0
100
AcDbSpline
70
4
71
3
72
8
73
4
40
0
40
0
40
0
40
0
40
1
40
1
40
1
40
1
41
1
10
-68.6
20
9.10261500888626
30
0
41
1
10
-68.571834450002
20
9.02620926996562
30
0
41
1
10
-68.5439066952102
20
8.94968599658984
30
0
41
1
10
-68.516222729729
20
8.87304222606744
30
0
0
SPLINE
5
2BF
100
AcDbEntity
8
SK1
62
256
6
ByLayer
370
-1
48
1
60
0
100
AcDbSpline
70
4
71
3
72
72
73
68
40
0
40
0
40
0
40
0
40
0.0156250000000003
40
0.0156250000000003
40
0.0312500000000005
40
0.0312500000000005
40
0.0468750000000008
40
0.0468750000000008
40
0.062500000000001
40
0.062500000000001
40
0.0937500000000014
40
0.0937500000000014
40
0.109375000000002
40
0.109375000000002
40
0.125000000000002
40
0.125000000000002
40
0.156250000000002
40
0.156250000000002
40
0.187500000000002
40
0.187500000000002
40
0.218750000000001
40
0.218750000000001
40
0.250000000000001
40
0.250000000000001
40
0.312500000000001
40
0.312500000000001
40
0.375000000000002
40
0.375000000000002
40
0.406250000000002
40
0.406250000000002
40
0.437500000000002
40
0.437500000000002
40
0.500000000000002
40
0.500000000000002
40
0.562500000000002
40
0.562500000000002
40
0.625000000000002
40
0.625000000000002
40
0.687500000000002
40
0.687500000000002
40
0.718750000000002
40
0.718750000000002
40
0.750000000000002
40
0.750000000000002
40
0.812500000000002
40
0.812500000000002
40
0.843750000000001
40
0.843750000000001
40
0.859375000000001
40
0.859375000000001
40
0.875000000000001
40
0.875000000000001
40
0.906250000000001
40
0.906250000000001
40
0.921875000000001
40
0.921875000000001
40
0.937500000000001
40
0.937500000000001
40
0.953125000000001
40
0.953125000000001
40
0.96875
40
0.96875
40
0.9765625
40
0.9765625
40
0.984375
40
0.984375
40
1
40
1
40
1
40
1
41
1
10
-6.5
20
-9.10261500888618
30
0
41
1
10
-6.38914660019725
20
-9.10261500888618
30
0
41
1
10
-6.27612961385466
20
-9.09015098385046
30
0
41
1
10
-6.05985917895461
20
-9.04281130004992
30
0
41
1
10
-5.95475985097423
20
-9.00792576349431
30
0
41
1
10
-5.75343258145492
20
-8.91941414226187
30
0
41
1
10
-5.65919810333844
20
-8.86684398682266
30
0
41
1
10
-5.48088894318994
20
-8.74834825662376
30
0
41
1
10
-5.39640443529882
20
-8.68198569080923
30
0
41
1
10
-5.15892238475899
20
-8.4684605676342
30
0
41
1
10
-5.02365441240056
20
-8.30974008062717
30
0
41
1
10
-4.84296399719619
20
-8.05482884459988
30
0
41
1
10
-4.78642322072847
20
-7.96675301550394
30
0
41
1
10
-4.68042079967142
20
-7.78654390286022
30
0
41
1
10
-4.63122526195846
20
-7.69491452027412
30
0
41
1
10
-4.49299887645103
20
-7.41608134345648
30
0
41
1
10
-4.41323038468988
20
-7.22496300624556
30
0
41
1
10
-4.27152687943763
20
-6.8343560263894
30
0
41
1
10
-4.20965906429049
20
-6.6348461887967
30
0
41
1
10
-4.09961007502051
20
-6.2286775881141
30
0
41
1
10
-4.05150917072524
20
-6.02203194443632
30
0
41
1
10
-3.96692144189856
20
-5.6074574550413
30
0
41
1
10
-3.93025488815388
20
-5.39884469275898
30
0
41
1
10
-3.83321097175369
20
-4.76942146087168
30
0
41
1
10
-3.78559277520367
20
-4.34504706257979
30
0
41
1
10
-3.7112361899147
20
-3.48808137992401
30
0
41
1
10
-3.68460707386046
20
-3.05547999795235
30
0
41
1
10
-3.65470782442822
20
-2.40091890566339
30
0
41
1
10
-3.64643900603767
20
-2.18145148399697
30
0
41
1
10
-3.63274891948819
20
-1.74230735687166
30
0
41
1
10
-3.62733252136272
20
-1.52296705685933
30
0
41
1
10
-3.61463310465442
20
-0.865617065631682
30
0
41
1
10
-3.61080933488054
20
-0.428275684574771
30
0
41
1
10
-3.61090950897167
20
0.444684991040077
30
0
41
1
10
-3.61483745040269
20
0.88030412472645
30
0
41
1
10
-3.63179619285316
20
1.74979970758309
30
0
41
1
10
-3.64481102904037
20
2.18367646184913
30
0
41
1
10
-3.68431141261161
20
3.04958358359085
30
0
41
1
10
-3.71074384326306
20
3.48161507013518
30
0
41
1
10
-3.76673696017031
20
4.12812283873399
30
0
41
1
10
-3.78821526595235
20
4.34375014492497
30
0
41
1
10
-3.83787895821774
20
4.77101649951717
30
0
41
1
10
-3.86607610819138
20
4.9829568382882
30
0
41
1
10
-3.96342969061479
20
5.61325776204001
30
0
41
1
10
-4.04484226281082
20
6.02618785295124
30
0
41
1
10
-4.20877761048993
20
6.63176810724454
30
0
41
1
10
-4.27047938114893
20
6.83131020667685
30
0
41
1
10
-4.37747378301123
20
7.1264778598424
30
0
41
1
10
-4.41562361112287
20
7.22427655673613
30
0
41
1
10
-4.49679279030673
20
7.41629459142595
30
0
41
1
10
-4.5398877733324
20
7.51074836914336
30
0
41
1
10
-4.67791145216944
20
7.78892537172752
30
0
41
1
10
-4.78135481362554
20
7.96756739375849
30
0
41
1
10
-4.96130737226687
20
8.22195198147358
30
0
41
1
10
-5.02546297402537
20
8.30446540137604
30
0
41
1
10
-5.16438164479459
20
8.46391044858186
30
0
41
1
10
-5.23841496286948
20
8.53994273964545
30
0
41
1
10
-5.39629023089529
20
8.68187427767452
30
0
41
1
10
-5.4804954947721
20
8.74813957968226
30
0
41
1
10
-5.66096910628903
20
8.86796771603022
30
0
41
1
10
-5.75541196182655
20
8.92033547523616
30
0
41
1
10
-5.90448373735469
20
8.98579651940287
30
0
41
1
10
-5.95541416893875
20
9.00542573092372
30
0
41
1
10
-6.06002939197239
20
9.03984379515771
30
0
41
1
10
-6.1141052041134
20
9.05470732343474
30
0
41
1
10
-6.277583542549
20
9.09042477028081
30
0
41
1
10
-6.38802552881097
20
9.10261500888618
30
0
41
1
10
-6.5
20
9.10261500888618
30
0
0
SPLINE
5
2C0
100
AcDbEntity
8
SK1
62
256
6
ByLayer
370
-1
48
1
60
0
100
AcDbSpline
70
4
71
3
72
8
73
4
40
0
40
0
40
0
40
0
40
1
40
1
40
1
40
1
41
1
10
-67.6338144512152
20
8.29060283092377
30
0
41
1
10
-67.2932836983815
20
8.56864972917003
30
0
41
1
10
-66.9484012097206
20
8.83881772536409
30
0
41
1
10
-66.6
20
9.10261500888626
30
0
0
SPLINE
5
2C1
100
AcDbEntity
8
SK1
62
256
6
ByLayer
370
-1
48
1
60
0
100
AcDbSpline
70
4
71
3
72
8
73
4
40
0
40
0
40
0
40
0
40
1
40
1
40
1
40
1
41
1
10
-68.5162227297291
20
-8.87304222606727
30
0
41
1
10
-68.5439066952102
20
-8.94968599658964
30
0
41
1
10
-68.571834450002
20
-9.02620926996545
30
0
41
1
10
-68.6
20
-9.10261500888612
30
0
0
LINE
5
45
100
AcDbEntity
8
80
62
256
6
ByLayer
370
-1
48
1
60
0
100
AcDbLine
10
0
20
0
30
0
11
-7
21
0
31
0
39
0
210
0
220
0
230
1
0
LINE
5
46
100
AcDbEntity
8
81
62
256
6
ByLayer
370
-1
48
1
60
0
100
AcDbLine
10
179
20
0
30
0
11
186
21
0
31
0
39
0
210
0
220
0
230
1
0
LINE
5
47
100
AcDbEntity
8
SK1
62
256
6
ByLayer
370
-1
48
1
60
0
100
AcDbLine
10
-2
20
-19.996
30
0
11
-1.552821
21
-19.787477
31
0
39
0
210
0
220
0
230
1
0
LINE
5
49
100
AcDbEntity
8
SK1
62
256
6
ByLayer
370
-1
48
1
60
0
100
AcDbLine
10
-1.552821
20
19.787477
30
0
11
-2
21
19.996
31
0
39
0
210
0
220
0
230
1
0
LINE
5
4A
100
AcDbEntity
8
SK1
62
256
6
ByLayer
370
-1
48
1
60
0
100
AcDbLine
10
-2
20
19.996
30
0
11
-66.6
21
19.996
31
0
39
0
210
0
220
0
230
1
0
LINE
5
4B
100
AcDbEntity
8
SK1
62
256
6
ByLayer
370
-1
48
1
60
0
100
AcDbLine
10
-66.6
20
-19.996
30
0
11
-2
21
-19.996
31
0
39
0
210
0
220
0
230
1
0
LINE
5
4C
100
AcDbEntity
8
SK1
62
256
6
ByLayer
370
-1
48
1
60
0
100
AcDbLine
10
-0.15
20
19.75
30
0
11
-1.383773
21
19.75
31
0
39
0
210
0
220
0
230
1
0
LINE
5
4D
100
AcDbEntity
8
SK1
62
256
6
ByLayer
370
-1
48
1
60
0
100
AcDbLine
10
-1.383773
20
-19.75
30
0
11
-0.15
21
-19.75
31
0
39
0
210
0
220
0
230
1
0
LINE
5
4E
100
AcDbEntity
8
SK1
62
256
6
ByLayer
370
-1
48
1
60
0
100
AcDbLine
10
-68.6
20
-19.996
30
0
11
-68.516223
21
-19.892544
31
0
39
0
210
0
220
0
230
1
0
LINE
5
4F
100
AcDbEntity
8
SK1
62
256
6
ByLayer
370
-1
48
1
60
0
100
AcDbLine
10
-68.516223
20
19.892544
30
0
11
-68.6
21
19.996
31
0
39
0
210
0
220
0
230
1
0
LINE
5
50
100
AcDbEntity
8
SK1
62
256
6
ByLayer
370
-1
48
1
60
0
100
AcDbLine
10
-69
20
19.996
30
0
11
-70
21
18.996
31
0
39
0
210
0
220
0
230
1
0
LINE
5
51
100
AcDbEntity
8
SK1
62
256
6
ByLayer
370
-1
48
1
60
0
100
AcDbLine
10
-70
20
-18.996
30
0
11
-69
21
-19.996
31
0
39
0
210
0
220
0
230
1
0
LINE
5
52
100
AcDbEntity
8
SK1
62
256
6
ByLayer
370
-1
48
1
60
0
100
AcDbLine
10
-66.6
20
19.996
30
0
11
-67.633814
21
19.639667
31
0
39
0
210
0
220
0
230
1
0
LINE
5
53
100
AcDbEntity
8
SK1
62
256
6
ByLayer
370
-1
48
1
60
0
100
AcDbLine
10
-67.633814
20
-19.639667
30
0
11
-66.6
21
-19.996
31
0
39
0
210
0
220
0
230
1
0
LINE
5
54
100
AcDbEntity
8
SK1
62
256
6
ByLayer
370
-1
48
1
60
0
100
AcDbLine
10
-68.6
20
19.996
30
0
11
-69
21
19.996
31
0
39
0
210
0
220
0
230
1
0
LINE
5
55
100
AcDbEntity
8
SK1
62
256
6
ByLayer
370
-1
48
1
60
0
100
AcDbLine
10
-69
20
-19.996
30
0
11
-68.6
21
-19.996
31
0
39
0
210
0
220
0
230
1
0
LINE
5
56
100
AcDbEntity
8
1
62
256
6
ByLayer
370
-1
48
1
60
0
100
AcDbLine
10
0.2
20
24.75
30
0
11
0
21
24.55
31
0
39
0
210
0
220
0
230
1
0
LINE
5
58
100
AcDbEntity
8
1
62
256
6
ByLayer
370
-1
48
1
60
0
100
AcDbLine
10
0
20
-24.55
30
0
11
0.2
21
-24.75
31
0
39
0
210
0
220
0
230
1
0
LINE
5
59
100
AcDbEntity
8
1
62
256
6
ByLayer
370
-1
48
1
60
0
100
AcDbLine
10
5
20
24.75
30
0
11
0.2
21
24.75
31
0
39
0
210
0
220
0
230
1
0
LINE
5
5A
100
AcDbEntity
8
1
62
256
6
ByLayer
370
-1
48
1
60
0
100
AcDbLine
10
0.2
20
-24.75
30
0
11
5
21
-24.75
31
0
39
0
210
0
220
0
230
1
0
LINE
5
5B
100
AcDbEntity
8
1
62
256
6
ByLayer
370
-1
48
1
60
0
100
AcDbLine
10
80.834041
20
18.003025
30
0
11
32
21
18.23
31
0
39
0
210
0
220
0
230
1
0
LINE
5
5C
100
AcDbEntity
8
1
62
256
6
ByLayer
370
-1
48
1
60
0
100
AcDbLine
10
32
20
18.23
30
0
11
27
21
18.23
31
0
39
0
210
0
220
0
230
1
0
LINE
5
5D
100
AcDbEntity
8
1
62
256
6
ByLayer
370
-1
48
1
60
0
100
AcDbLine
10
27
20
-18.23
30
0
11
32
21
-18.23
31
0
39
0
210
0
220
0
230
1
0
LINE
5
5E
100
AcDbEntity
8
1
62
256
6
ByLayer
370
-1
48
1
60
0
100
AcDbLine
10
32
20
-18.23
30
0
11
82.296234
21
-17.996229
31
0
39
0
210
0
220
0
230
1
0
LINE
5
5F
100
AcDbEntity
8
SK4
62
256
6
ByLayer
370
-1
48
0.05
60
0
100
AcDbLine
10
179
20
0
30
0
11
-70
21
0
31
0
39
0
210
0
220
0
230
1
0
LINE
5
61
100
AcDbEntity
8
4
62
256
6
ByLayer
370
-1
48
0.05
60
0
100
AcDbLine
10
179
20
0
30
0
11
0
21
0
31
0
39
0
210
0
220
0
230
1
0
LINE
5
63
100
AcDbEntity
8
1
62
256
6
ByLayer
370
-1
48
1
60
0
100
AcDbLine
10
164.22176
20
0.796056
30
0
11
165.534709
21
5.312876
31
0
39
0
210
0
220
0
230
1
0
LINE
5
64
100
AcDbEntity
8
1
62
256
6
ByLayer
370
-1
48
1
60
0
100
AcDbLine
10
176.582214
20
-8.291109
30
0
11
176.163739
21
-8.074916
31
0
39
0
210
0
220
0
230
1
0
LINE
5
65
100
AcDbEntity
8
1
62
256
6
ByLayer
370
-1
48
1
60
0
100
AcDbLine
10
27
20
18.23
30
0
11
27
21
9.942922
31
0
39
0
210
0
220
0
230
1
0
LINE
5
66
100
AcDbEntity
8
1
62
256
6
ByLayer
370
-1
48
1
60
0
100
AcDbLine
10
165.550498
20
17.894738
30
0
11
165.748956
21
11.670895
31
0
39
0
210
0
220
0
230
1
0
LINE
5
67
100
AcDbEntity
8
1
62
256
6
ByLayer
370
-1
48
1
60
0
100
AcDbLine
10
165.447716
20
7.009585
30
0
11
165.761477
21
7.009585
31
0
39
0
210
0
220
0
230
1
0
LINE
5
68
100
AcDbEntity
8
1
62
256
6
ByLayer
370
-1
48
1
60
0
100
AcDbLine
10
166.258981
20
5.338264
30
0
11
166.304269
21
5.338264
31
0
39
0
210
0
220
0
230
1
0
LINE
5
69
100
AcDbEntity
8
1
62
256
6
ByLayer
370
-1
48
1
60
0
100
AcDbLine
10
177.155049
20
2.065362
30
0
11
177.16088
21
2.082607
31
0
39
0
210
0
220
0
230
1
0
LINE
5
6A
100
AcDbEntity
8
1
62
256
6
ByLayer
370
-1
48
1
60
0
100
AcDbLine
10
157.978851
20
6.855772
30
0
11
158.649692
21
6.569929
31
0
39
0
210
0
220
0
230
1
0
LINE
5
6B
100
AcDbEntity
8
1
62
256
6
ByLayer
370
-1
48
1
60
0
100
AcDbLine
10
5
20
24.75
30
0
11
5
21
-24.75
31
0
39
0
210
0
220
0
230
1
0
LINE
5
6C
100
AcDbEntity
8
1
62
256
6
ByLayer
370
-1
48
1
60
0
100
AcDbLine
10
177.544762
20
-8.788381
30
0
11
177.517579
21
-9.094681
31
0
39
0
210
0
220
0
230
1
0
LINE
5
6D
100
AcDbEntity
8
1
62
256
6
ByLayer
370
-1
48
1
60
0
100
AcDbLine
10
177.302657
20
-17.874282
30
0
11
177.994587
21
-10.077684
31
0
39
0
210
0
220
0
230
1
0
LINE
5
6E
100
AcDbEntity
8
1
62
256
6
ByLayer
370
-1
48
1
60
0
100
AcDbLine
10
177.118834
20
5.667101
30
0
11
177.169721
21
5.664424
31
0
39
0
210
0
220
0
230
1
0
LINE
5
6F
100
AcDbEntity
8
1
62
256
6
ByLayer
370
-1
48
1
60
0
100
AcDbLine
10
157.466766
20
3.211539
30
0
11
157.140558
21
2.089316
31
0
39
0
210
0
220
0
230
1
0
LINE
5
70
100
AcDbEntity
8
1
62
256
6
ByLayer
370
-1
48
1
60
0
100
AcDbLine
10
32
20
-18.23
30
0
11
32
21
-13.075425
31
0
39
0
210
0
220
0
230
1
0
LINE
5
71
100
AcDbEntity
8
1
62
256
6
ByLayer
370
-1
48
1
60
0
100
AcDbLine
10
159.030812
20
7.306333
30
0
11
156.788202
21
8.2619
31
0
39
0
210
0
220
0
230
1
0
LINE
5
72
100
AcDbEntity
8
1
62
256
6
ByLayer
370
-1
48
1
60
0
100
AcDbLine
10
165.682143
20
6.1145
30
0
11
165.475779
21
6.107266
31
0
39
0
210
0
220
0
230
1
0
LINE
5
73
100
AcDbEntity
8
1
62
256
6
ByLayer
370
-1
48
1
60
0
100
AcDbLine
10
177.02645
20
2.069842
30
0
11
177.155049
21
2.065362
31
0
39
0
210
0
220
0
230
1
0
LINE
5
74
100
AcDbEntity
8
1
62
256
6
ByLayer
370
-1
48
1
60
0
100
AcDbLine
10
165.331247
20
10.357544
30
0
11
165.645008
21
10.357544
31
0
39
0
210
0
220
0
230
1
0
LINE
5
75
100
AcDbEntity
8
1
62
256
6
ByLayer
370
-1
48
1
60
0
100
AcDbLine
10
165.014608
20
-17.874282
30
0
11
177.302657
21
-17.874282
31
0
39
0
210
0
220
0
230
1
0
LINE
5
76
100
AcDbEntity
8
1
62
256
6
ByLayer
370
-1
48
1
60
0
100
AcDbLine
10
161.641602
20
11.45
30
0
11
163.2962
21
11.45
31
0
39
0
210
0
220
0
230
1
0
LINE
5
77
100
AcDbEntity
8
1
62
256
6
ByLayer
370
-1
48
1
60
0
100
AcDbLine
10
165.645008
20
10.357544
30
0
11
165.761477
21
7.009585
31
0
39
0
210
0
220
0
230
1
0
LINE
5
78
100
AcDbEntity
8
1
62
256
6
ByLayer
370
-1
48
1
60
0
100
AcDbLine
10
103
20
16.883524
30
0
11
103
21
-10.24356
31
0
39
0
210
0
220
0
230
1
0
LINE
5
79
100
AcDbEntity
8
1
62
256
6
ByLayer
370
-1
48
1
60
0
100
AcDbLine
10
177.169721
20
5.664424
30
0
11
176.977141
21
5.6671
31
0
39
0
210
0
220
0
230
1
0
LINE
5
7A
100
AcDbEntity
8
1
62
256
6
ByLayer
370
-1
48
1
60
0
100
AcDbLine
10
177.025589
20
1.093893
30
0
11
177.544762
21
-8.788381
31
0
39
0
210
0
220
0
230
1
0
LINE
5
7B
100
AcDbEntity
8
1
62
256
6
ByLayer
370
-1
48
1
60
0
100
AcDbLine
10
165.733661
20
11.670895
30
0
11
165.535094
21
17.898124
31
0
39
0
210
0
220
0
230
1
0
LINE
5
7C
100
AcDbEntity
8
1
62
256
6
ByLayer
370
-1
48
1
60
0
100
AcDbLine
10
177.540587
20
-9.991401
30
0
11
177.994587
21
-10.077684
31
0
39
0
210
0
220
0
230
1
0
LINE
5
7D
100
AcDbEntity
8
1
62
256
6
ByLayer
370
-1
48
1
60
0
100
AcDbLine
10
27
20
-18.23
30
0
11
27
21
-12.050689
31
0
39
0
210
0
220
0
230
1
0
LINE
5
7E
100
AcDbEntity
8
1
62
256
6
ByLayer
370
-1
48
1
60
0
100
AcDbLine
10
165.331247
20
10.357544
30
0
11
165.447716
21
7.009585
31
0
39
0
210
0
220
0
230
1
0
LINE
5
7F
100
AcDbEntity
8
1
62
256
6
ByLayer
370
-1
48
1
60
0
100
AcDbLine
10
177.544762
20
-8.788381
30
0
11
177.005538
21
-8.509807
31
0
39
0
210
0
220
0
230
1
0
LINE
5
80
100
AcDbEntity
8
1
62
256
6
ByLayer
370
-1
48
1
60
0
100
AcDbLine
10
177.0103
20
1.397428
30
0
11
177.025589
21
1.093893
31
0
39
0
210
0
220
0
230
1
0
LINE
5
81
100
AcDbEntity
8
1
62
256
6
ByLayer
370
-1
48
1
60
0
100
AcDbLine
10
175.5201
20
1.871659
30
0
11
176.971635
21
5.66705
31
0
39
0
210
0
220
0
230
1
0
LINE
5
82
100
AcDbEntity
8
1
62
256
6
ByLayer
370
-1
48
1
60
0
100
AcDbLine
10
163.2962
20
17.894215
30
0
11
163.2962
21
11.45
31
0
39
0
210
0
220
0
230
1
0
LINE
5
83
100
AcDbEntity
8
1
62
256
6
ByLayer
370
-1
48
1
60
0
100
AcDbLine
10
177.025589
20
1.093893
30
0
11
175.5201
21
1.871659
31
0
39
0
210
0
220
0
230
1
0
LINE
5
84
100
AcDbEntity
8
1
62
256
6
ByLayer
370
-1
48
1
60
0
100
AcDbLine
10
177.16088
20
2.082607
30
0
11
177.43765
21
5.899926
31
0
39
0
210
0
220
0
230
1
0
LINE
5
85
100
AcDbEntity
8
1
62
256
6
ByLayer
370
-1
48
1
60
0
100
AcDbLine
10
177.055211
20
2.138596
30
0
11
177.06853
21
2.138132
31
0
39
0
210
0
220
0
230
1
0
LINE
5
86
100
AcDbEntity
8
1
62
256
6
ByLayer
370
-1
48
1
60
0
100
AcDbLine
10
165.733661
20
11.670895
30
0
11
165.748956
21
11.670895
31
0
39
0
210
0
220
0
230
1
0
LINE
5
87
100
AcDbEntity
8
1
62
256
6
ByLayer
370
-1
48
1
60
0
100
AcDbLine
10
166.258981
20
5.338264
30
0
11
165.534709
21
5.312876
31
0
39
0
210
0
220
0
230
1
0
LINE
5
88
100
AcDbEntity
8
1
62
256
6
ByLayer
370
-1
48
1
60
0
100
AcDbLine
10
0
20
24.55
30
0
11
0
21
-24.55
31
0
39
0
210
0
220
0
230
1
0
LINE
5
89
100
AcDbEntity
8
1
62
256
6
ByLayer
370
-1
48
1
60
0
100
AcDbLine
10
161.641602
20
17.875408
30
0
11
161.641602
21
11.45
31
0
39
0
210
0
220
0
230
1
0
LINE
5
8A
100
AcDbEntity
8
1
62
256
6
ByLayer
370
-1
48
1
60
0
100
AcDbLine
10
176.971635
20
5.66705
30
0
11
176.977141
21
5.6671
31
0
39
0
210
0
220
0
230
1
0
LINE
5
8B
100
AcDbEntity
8
1
62
256
6
ByLayer
370
-1
48
1
60
0
100
AcDbLine
10
175.361781
20
1.45487
30
0
11
175.5201
21
1.871659
31
0
39
0
210
0
220
0
230
1
0
LINE
5
8C
100
AcDbEntity
8
1
62
256
6
ByLayer
370
-1
48
1
60
0
100
AcDbLine
10
32
20
18.23
30
0
11
32
21
8.504444
31
0
39
0
210
0
220
0
230
1
0
LINE
5
8D
100
AcDbEntity
8
1
62
256
6
ByLayer
370
-1
48
1
60
0
100
AcDbLine
10
165.954331
20
11.867491
30
0
11
165.983682
21
11.867491
31
0
39
0
210
0
220
0
230
1
0
LINE
5
8E
100
AcDbEntity
8
1
62
256
6
ByLayer
370
-1
48
1
60
0
100
AcDbLine
10
177.06853
20
2.138132
30
0
11
177.16088
21
2.082607
31
0
39
0
210
0
220
0
230
1
0
LINE
5
8F
100
AcDbEntity
8
1
62
256
6
ByLayer
370
-1
48
1
60
0
100
AcDbLine
10
0.2
20
24.75
30
0
11
0.2
21
-24.75
31
0
39
0
210
0
220
0
230
1
0
LINE
5
90
100
AcDbEntity
8
1
62
256
6
ByLayer
370
-1
48
1
60
0
100
AcDbLine
10
168.624609
20
5.374452
30
0
11
176.971635
21
5.66705
31
0
39
0
210
0
220
0
230
1
0
LINE
5
91
100
AcDbEntity
8
1
62
256
6
ByLayer
370
-1
48
1
60
0
100
AcDbLine
10
176.977141
20
5.6671
30
0
11
177.11876
21
5.6671
31
0
39
0
210
0
220
0
230
1
0
LINE
5
92
100
AcDbEntity
8
1
62
256
6
ByLayer
370
-1
48
1
60
0
100
AcDbLine
10
161.529286
20
11.351029
30
0
11
143.453629
21
14.010509
31
0
39
0
210
0
220
0
230
1
0
LINE
5
93
100
AcDbEntity
8
1
62
256
6
ByLayer
370
-1
48
1
60
0
100
AcDbLine
10
158.649692
20
6.569929
30
0
11
158.6328
21
6.569929
31
0
39
0
210
0
220
0
230
1
0
LINE
5
94
100
AcDbEntity
8
1
62
256
6
ByLayer
370
-1
48
1
60
0
100
AcDbLine
10
167.624829
20
6.261072
30
0
11
177.331811
21
6.601342
31
0
39
0
210
0
220
0
230
1
0
LINE
5
95
100
AcDbEntity
8
1
62
256
6
ByLayer
370
-1
48
1
60
0
100
AcDbLine
10
178.535421
20
-5.432535
30
0
11
178.095745
21
-5.552077
31
0
39
0
210
0
220
0
230
1
0
LINE
5
96
100
AcDbEntity
8
1
62
256
6
ByLayer
370
-1
48
1
60
0
100
AcDbLine
10
178.049238
20
-9.462576
30
0
11
177.666441
21
-8.556253
31
0
39
0
210
0
220
0
230
1
0
LINE
5
97
100
AcDbEntity
8
1
62
256
6
ByLayer
370
-1
48
1
60
0
100
AcDbLine
10
177.967002
20
-7.760162
30
0
11
178.023964
21
-6.132955
31
0
39
0
210
0
220
0
230
1
0
LINE
5
98
100
AcDbEntity
8
1
62
256
6
ByLayer
370
-1
48
1
60
0
100
AcDbLine
10
178.657997
20
-7.883643
30
0
11
178.714959
21
-6.256437
31
0
39
0
210
0
220
0
230
1
0
LINE
5
99
100
AcDbEntity
8
1
62
256
6
ByLayer
370
-1
48
1
60
0
100
AcDbLine
10
178.714959
20
-6.256437
30
0
11
178.223842
21
-6.139918
31
0
39
0
210
0
220
0
230
1
0
LINE
5
9A
100
AcDbEntity
8
1
62
256
6
ByLayer
370
-1
48
1
60
0
100
AcDbLine
10
178.289656
20
-0.313185
30
0
11
178.03131
21
-0.217484
31
0
39
0
210
0
220
0
230
1
0
LINE
5
9B
100
AcDbEntity
8
1
62
256
6
ByLayer
370
-1
48
1
60
0
100
AcDbLine
10
177.536088
20
-8.623551
30
0
11
177.666441
21
-8.556253
31
0
39
0
210
0
220
0
230
1
0
LINE
5
9C
100
AcDbEntity
8
1
62
256
6
ByLayer
370
-1
48
1
60
0
100
AcDbLine
10
178.289656
20
-0.313185
30
0
11
177.528574
21
1.772776
31
0
39
0
210
0
220
0
230
1
0
LINE
5
9D
100
AcDbEntity
8
1
62
256
6
ByLayer
370
-1
48
1
60
0
100
AcDbLine
10
178.79028
20
-5.464309
30
0
11
178.545973
21
-5.430841
31
0
39
0
210
0
220
0
230
1
0
LINE
5
9E
100
AcDbEntity
8
1
62
256
6
ByLayer
370
-1
48
1
60
0
100
AcDbLine
10
177.522074
20
1.398296
30
0
11
177.017588
21
1.252753
31
0
39
0
210
0
220
0
230
1
0
LINE
5
9F
100
AcDbEntity
8
1
62
256
6
ByLayer
370
-1
48
1
60
0
100
AcDbLine
10
178.999634
20
-6.425042
30
0
11
178.726745
21
-6.260407
31
0
39
0
210
0
220
0
230
1
0
LINE
5
A0
100
AcDbEntity
8
1
62
256
6
ByLayer
370
-1
48
1
60
0
100
AcDbLine
10
178.059418
20
-0.563792
30
0
11
178.257808
21
-4.340076
31
0
39
0
210
0
220
0
230
1
0
LINE
5
A1
100
AcDbEntity
8
1
62
256
6
ByLayer
370
-1
48
1
60
0
100
AcDbLine
10
177.545348
20
1.371031
30
0
11
177.955566
21
0.000208
31
0
39
0
210
0
220
0
230
1
0
LINE
5
A2
100
AcDbEntity
8
1
62
256
6
ByLayer
370
-1
48
1
60
0
100
AcDbLine
10
177.528574
20
1.772776
30
0
11
177.459016
21
1.733008
31
0
39
0
210
0
220
0
230
1
0
LINE
5
A3
100
AcDbEntity
8
1
62
256
6
ByLayer
370
-1
48
1
60
0
100
AcDbLine
10
178.025475
20
-9.489353
30
0
11
177.491039
21
-9.619646
31
0
39
0
210
0
220
0
230
1
0
LINE
5
A4
100
AcDbEntity
8
1
62
256
6
ByLayer
370
-1
48
1
60
0
100
AcDbLine
10
177.555563
20
-4.273819
30
0
11
177.357173
21
-0.497536
31
0
39
0
210
0
220
0
230
1
0
LINE
5
A5
100
AcDbEntity
8
1
62
256
6
ByLayer
370
-1
48
1
60
0
100
AcDbLine
10
178.319124
20
-0.457674
30
0
11
178.058503
21
-0.361131
31
0
39
0
210
0
220
0
230
1
0
LINE
5
A6
100
AcDbEntity
8
1
62
256
6
ByLayer
370
-1
48
1
60
0
100
AcDbLine
10
178.908896
20
-9.017129
30
0
11
178.999634
21
-6.425042
31
0
39
0
210
0
220
0
230
1
0
LINE
5
A7
100
AcDbEntity
8
1
62
256
6
ByLayer
370
-1
48
1
60
0
100
AcDbLine
10
178.246031
20
-4.337132
30
0
11
177.755289
21
-4.263378
31
0
39
0
210
0
220
0
230
1
0
LINE
5
A8
100
AcDbEntity
8
1
62
256
6
ByLayer
370
-1
48
1
60
0
100
AcDbLine
10
177.45443
20
-0.110389
30
0
11
177.047668
21
0.673651
31
0
39
0
210
0
220
0
230
1
0
LINE
5
A9
100
AcDbEntity
8
1
62
256
6
ByLayer
370
-1
48
1
60
0
100
AcDbLine
10
178.726745
20
-6.260407
30
0
11
178.669783
21
-7.887614
31
0
39
0
210
0
220
0
230
1
0
LINE
5
AA
100
AcDbEntity
8
1
62
256
6
ByLayer
370
-1
48
1
60
0
100
AcDbLine
10
178.908896
20
-9.017129
30
0
11
178.786258
21
-8.856847
31
0
39
0
210
0
220
0
230
1
0
LINE
5
AB
100
AcDbEntity
8
1
62
256
6
ByLayer
370
-1
48
1
60
0
100
AcDbLine
10
178.514473
20
-9.558682
30
0
11
178.418735
21
-9.433556
31
0
39
0
210
0
220
0
230
1
0
LINE
5
AC
100
AcDbEntity
8
1
62
256
6
ByLayer
370
-1
48
1
60
0
100
AcDbLine
10
177.524605
20
-8.404831
30
0
11
177.574515
21
-8.379063
31
0
39
0
210
0
220
0
230
1
0
LINE
5
AD
100
AcDbEntity
8
1
62
256
6
ByLayer
370
-1
48
1
60
0
100
AcDbLine
10
177.932292
20
0.027473
30
0
11
177.45443
21
-0.110389
31
0
39
0
210
0
220
0
230
1
0
LINE
5
AE
100
AcDbEntity
8
1
62
256
6
ByLayer
370
-1
48
1
60
0
100
AcDbLine
10
177.932292
20
0.027473
30
0
11
177.522074
21
1.398296
31
0
39
0
210
0
220
0
230
1
0
LINE
5
AF
100
AcDbEntity
8
1
62
256
6
ByLayer
370
-1
48
1
60
0
100
AcDbLine
10
178.657997
20
-7.883643
30
0
11
178.16688
21
-7.767125
31
0
39
0
210
0
220
0
230
1
0
LINE
5
B0
100
AcDbEntity
8
1
62
256
6
ByLayer
370
-1
48
1
60
0
100
AcDbLine
10
178.246031
20
-4.337132
30
0
11
178.047641
21
-0.560848
31
0
39
0
210
0
220
0
230
1
0
LINE
5
B1
100
AcDbEntity
8
1
62
256
6
ByLayer
370
-1
48
1
60
0
100
AcDbLine
10
178.16688
20
-7.767125
30
0
11
178.223842
21
-6.139918
31
0
39
0
210
0
220
0
230
1
0
LINE
5
B2
100
AcDbEntity
8
1
62
256
6
ByLayer
370
-1
48
1
60
0
100
AcDbLine
10
177.509101
20
-9.923717
30
0
11
178.514473
21
-9.558682
31
0
39
0
210
0
220
0
230
1
0
LINE
5
B3
100
AcDbEntity
8
1
62
256
6
ByLayer
370
-1
48
1
60
0
100
AcDbLine
10
178.047641
20
-0.560848
30
0
11
177.556899
21
-0.487094
31
0
39
0
210
0
220
0
230
1
0
LINE
5
B4
100
AcDbEntity
8
1
62
256
6
ByLayer
370
-1
48
1
60
0
100
AcDbLine
10
178.53049
20
-4.480949
30
0
11
178.257808
21
-4.340076
31
0
39
0
210
0
220
0
230
1
0
LINE
5
B5
100
AcDbEntity
8
1
62
256
6
ByLayer
370
-1
48
1
60
0
100
AcDbLine
10
177.276808
20
-0.202091
30
0
11
177.073034
21
0.190687
31
0
39
0
210
0
220
0
230
1
0
LINE
5
B6
100
AcDbEntity
8
1
62
256
6
ByLayer
370
-1
48
1
60
0
100
AcDbLine
10
177.755289
20
-4.263378
30
0
11
177.556899
21
-0.487094
31
0
39
0
210
0
220
0
230
1
0
LINE
5
B7
100
AcDbEntity
8
1
62
256
6
ByLayer
370
-1
48
1
60
0
100
AcDbLine
10
178.53049
20
-4.480949
30
0
11
178.319124
21
-0.457674
31
0
39
0
210
0
220
0
230
1
0
LINE
5
B8
100
AcDbEntity
8
1
62
256
6
ByLayer
370
-1
48
1
60
0
100
AcDbLine
10
177.491164
20
-9.598632
30
0
11
178.049238
21
-9.462576
31
0
39
0
210
0
220
0
230
1
0
LINE
5
B9
100
AcDbEntity
8
1
62
256
6
ByLayer
370
-1
48
1
60
0
100
AcDbLine
10
168.041884
20
15.63377
30
0
11
168.561841
21
15.530738
31
0
39
0
210
0
220
0
230
1
0
LINE
5
BA
100
AcDbEntity
8
1
62
256
6
ByLayer
370
-1
48
1
60
0
100
AcDbLine
10
165.957223
20
16.704346
30
0
11
166.296198
21
6.960285
31
0
39
0
210
0
220
0
230
1
0
LINE
5
BB
100
AcDbEntity
8
1
62
256
6
ByLayer
370
-1
48
1
60
0
100
AcDbLine
10
176.277873
20
13.206291
30
0
11
176.180526
21
16.004585
31
0
39
0
210
0
220
0
230
1
0
LINE
5
BC
100
AcDbEntity
8
1
62
256
6
ByLayer
370
-1
48
1
60
0
100
AcDbLine
10
177.462037
20
7.352451
30
0
11
177.123061
21
17.096512
31
0
39
0
210
0
220
0
230
1
0
LINE
5
BD
100
AcDbEntity
8
1
62
256
6
ByLayer
370
-1
48
1
60
0
100
AcDbLine
10
176.20572
20
8.116927
30
0
11
173.418075
21
8.019208
31
0
39
0
210
0
220
0
230
1
0
LINE
5
BE
100
AcDbEntity
8
1
62
256
6
ByLayer
370
-1
48
1
60
0
100
AcDbLine
10
168.665085
20
8.823065
30
0
11
168.992942
21
8.516166
31
0
39
0
210
0
220
0
230
1
0
LINE
5
BF
100
AcDbEntity
8
1
62
256
6
ByLayer
370
-1
48
1
60
0
100
AcDbLine
10
167.645199
20
5.636476
30
0
11
177.35218
21
5.976746
31
0
39
0
210
0
220
0
230
1
0
LINE
5
C0
100
AcDbEntity
8
1
62
256
6
ByLayer
370
-1
48
1
60
0
100
AcDbLine
10
166.939862
20
16.739272
30
0
11
167.278837
21
6.995212
31
0
39
0
210
0
220
0
230
1
0
LINE
5
C1
100
AcDbEntity
8
1
62
256
6
ByLayer
370
-1
48
1
60
0
100
AcDbLine
10
167.427038
20
7.00071
30
0
11
167.088063
21
16.744771
31
0
39
0
210
0
220
0
230
1
0
LINE
5
C2
100
AcDbEntity
8
1
62
256
6
ByLayer
370
-1
48
1
60
0
100
AcDbLine
10
167.214294
20
18.057538
30
0
11
176.921275
21
18.397809
31
0
39
0
210
0
220
0
230
1
0
LINE
5
C3
100
AcDbEntity
8
1
62
256
6
ByLayer
370
-1
48
1
60
0
100
AcDbLine
10
168.640623
20
9.192628
30
0
11
168.640989
21
9.192285
31
0
39
0
210
0
220
0
230
1
0
LINE
5
C4
100
AcDbEntity
8
1
62
256
6
ByLayer
370
-1
48
1
60
0
100
AcDbLine
10
167.583377
20
6.827375
30
0
11
177.290358
21
7.167645
31
0
39
0
210
0
220
0
230
1
0
LINE
5
C5
100
AcDbEntity
8
1
62
256
6
ByLayer
370
-1
48
1
60
0
100
AcDbLine
10
177.093721
20
17.095511
30
0
11
177.432696
21
7.35145
31
0
39
0
210
0
220
0
230
1
0
LINE
5
C6
100
AcDbEntity
8
1
62
256
6
ByLayer
370
-1
48
1
60
0
100
AcDbLine
10
167.644242
20
5.698413
30
0
11
177.351223
21
6.038683
31
0
39
0
210
0
220
0
230
1
0
LINE
5
C7
100
AcDbEntity
8
1
62
256
6
ByLayer
370
-1
48
1
60
0
100
AcDbLine
10
169.189154
20
15.271683
30
0
11
169.194398
21
15.252265
31
0
39
0
210
0
220
0
230
1
0
LINE
5
C8
100
AcDbEntity
8
1
62
256
6
ByLayer
370
-1
48
1
60
0
100
AcDbLine
10
176.348579
20
11.173794
30
0
11
176.445926
21
8.375499
31
0
39
0
210
0
220
0
230
1
0
LINE
5
C9
100
AcDbEntity
8
1
62
256
6
ByLayer
370
-1
48
1
60
0
100
AcDbLine
10
176.399785
20
13.210702
30
0
11
176.302439
21
16.008996
31
0
39
0
210
0
220
0
230
1
0
LINE
5
CA
100
AcDbEntity
8
1
62
256
6
ByLayer
370
-1
48
1
60
0
100
AcDbLine
10
168.863041
20
14.920633
30
0
11
169.375374
21
14.44105
31
0
39
0
210
0
220
0
230
1
0
LINE
5
CB
100
AcDbEntity
8
1
62
256
6
ByLayer
370
-1
48
1
60
0
100
AcDbLine
10
167.806355
20
15.171416
30
0
11
169.008496
21
14.046119
31
0
39
0
210
0
220
0
230
1
0
LINE
5
CC
100
AcDbEntity
8
1
62
256
6
ByLayer
370
-1
48
1
60
0
100
AcDbLine
10
177.598203
20
7.356949
30
0
11
177.259227
21
17.101009
31
0
39
0
210
0
220
0
230
1
0
LINE
5
CD
100
AcDbEntity
8
1
62
256
6
ByLayer
370
-1
48
1
60
0
100
AcDbLine
10
167.595722
20
6.698584
30
0
11
177.302703
21
7.038854
31
0
39
0
210
0
220
0
230
1
0
LINE
5
CE
100
AcDbEntity
8
1
62
256
6
ByLayer
370
-1
48
1
60
0
100
AcDbLine
10
169.228677
20
9.033856
30
0
11
169.35982
21
8.911097
31
0
39
0
210
0
220
0
230
1
0
LINE
5
CF
100
AcDbEntity
8
1
62
256
6
ByLayer
370
-1
48
1
60
0
100
AcDbLine
10
167.234029
20
17.494879
30
0
11
176.94101
21
17.835149
31
0
39
0
210
0
220
0
230
1
0
LINE
5
D0
100
AcDbEntity
8
1
62
256
6
ByLayer
370
-1
48
1
60
0
100
AcDbLine
10
166.517902
20
16.723994
30
0
11
166.856878
21
6.979934
31
0
39
0
210
0
220
0
230
1
0
LINE
5
D1
100
AcDbEntity
8
1
62
256
6
ByLayer
370
-1
48
1
60
0
100
AcDbLine
10
178.668798
20
7.394038
30
0
11
178.329822
21
17.138099
31
0
39
0
210
0
220
0
230
1
0
LINE
5
D2
100
AcDbEntity
8
1
62
256
6
ByLayer
370
-1
48
1
60
0
100
AcDbLine
10
168.863041
20
14.920633
30
0
11
168.882704
21
14.916737
31
0
39
0
210
0
220
0
230
1
0
LINE
5
D3
100
AcDbEntity
8
1
62
256
6
ByLayer
370
-1
48
1
60
0
100
AcDbLine
10
168.857152
20
8.997258
30
0
11
168.845155
21
9.008488
31
0
39
0
210
0
220
0
230
1
0
LINE
5
D4
100
AcDbEntity
8
1
62
256
6
ByLayer
370
-1
48
1
60
0
100
AcDbLine
10
178.748749
20
7.39682
30
0
11
178.389205
21
17.732158
31
0
39
0
210
0
220
0
230
1
0
LINE
5
D5
100
AcDbEntity
8
1
62
256
6
ByLayer
370
-1
48
1
60
0
100
AcDbLine
10
169.228677
20
9.033856
30
0
11
169.347554
21
9.161823
31
0
39
0
210
0
220
0
230
1
0
LINE
5
D6
100
AcDbEntity
8
1
62
256
6
ByLayer
370
-1
48
1
60
0
100
AcDbLine
10
175.914621
20
16.372023
30
0
11
173.126975
21
16.274304
31
0
39
0
210
0
220
0
230
1
0
LINE
5
D7
100
AcDbEntity
8
1
62
256
6
ByLayer
370
-1
48
1
60
0
100
AcDbLine
10
168.866224
20
16.312328
30
0
11
170.068365
21
15.187031
31
0
39
0
210
0
220
0
230
1
0
LINE
5
D8
100
AcDbEntity
8
1
62
256
6
ByLayer
370
-1
48
1
60
0
100
AcDbLine
10
178.608294
20
7.391875
30
0
11
178.269319
21
17.135936
31
0
39
0
210
0
220
0
230
1
0
LINE
5
D9
100
AcDbEntity
8
1
62
256
6
ByLayer
370
-1
48
1
60
0
100
AcDbLine
10
167.634539
20
6.032164
30
0
11
177.34152
21
6.372434
31
0
39
0
210
0
220
0
230
1
0
LINE
5
DA
100
AcDbEntity
8
1
62
256
6
ByLayer
370
-1
48
1
60
0
100
AcDbLine
10
167.231977
20
16.928576
30
0
11
176.938959
21
17.268846
31
0
39
0
210
0
220
0
230
1
0
LINE
5
DB
100
AcDbEntity
8
1
62
256
6
ByLayer
370
-1
48
1
60
0
100
AcDbLine
10
169.189154
20
15.271683
30
0
11
169.701487
21
14.7921
31
0
39
0
210
0
220
0
230
1
0
LINE
5
DC
100
AcDbEntity
8
1
62
256
6
ByLayer
370
-1
48
1
60
0
100
AcDbLine
10
167.648577
20
5.556828
30
0
11
177.944586
21
5.917746
31
0
39
0
210
0
220
0
230
1
0
LINE
5
DD
100
AcDbEntity
8
1
62
256
6
ByLayer
370
-1
48
1
60
0
100
AcDbLine
10
173.418547
20
7.892893
30
0
11
176.206193
21
7.990612
31
0
39
0
210
0
220
0
230
1
0
LINE
5
DE
100
AcDbEntity
8
1
62
256
6
ByLayer
370
-1
48
1
60
0
100
AcDbLine
10
167.235362
20
17.057367
30
0
11
176.942343
21
17.397637
31
0
39
0
210
0
220
0
230
1
0
LINE
5
DF
100
AcDbEntity
8
1
62
256
6
ByLayer
370
-1
48
1
60
0
100
AcDbLine
10
176.567838
20
8.379911
30
0
11
176.470492
21
11.178205
31
0
39
0
210
0
220
0
230
1
0
LINE
5
E0
100
AcDbEntity
8
1
62
256
6
ByLayer
370
-1
48
1
60
0
100
AcDbLine
10
168.640623
20
9.192628
30
0
11
169.059452
21
9.643482
31
0
39
0
210
0
220
0
230
1
0
LINE
5
E1
100
AcDbEntity
8
1
62
256
6
ByLayer
370
-1
48
1
60
0
100
AcDbLine
10
167.232186
20
16.899914
30
0
11
176.939168
21
17.240184
31
0
39
0
210
0
220
0
230
1
0
LINE
5
E2
100
AcDbEntity
8
1
62
256
6
ByLayer
370
-1
48
1
60
0
100
AcDbLine
10
167.227812
20
17.723787
30
0
11
176.934793
21
18.064057
31
0
39
0
210
0
220
0
230
1
0
LINE
5
E3
100
AcDbEntity
8
1
62
256
6
ByLayer
370
-1
48
1
60
0
100
AcDbLine
10
165.894324
20
16.702183
30
0
11
166.233299
21
6.958122
31
0
39
0
210
0
220
0
230
1
0
LINE
5
E4
100
AcDbEntity
8
1
62
256
6
ByLayer
370
-1
48
1
60
0
100
AcDbLine
10
175.922937
20
16.245708
30
0
11
173.135291
21
16.147989
31
0
39
0
210
0
220
0
230
1
0
LINE
5
E5
100
AcDbEntity
8
1
62
256
6
ByLayer
370
-1
48
1
60
0
100
AcDbLine
10
165.815588
20
16.699401
30
0
11
166.175132
21
6.364063
31
0
39
0
210
0
220
0
230
1
0
LINE
5
E6
100
AcDbEntity
8
1
62
256
6
ByLayer
370
-1
48
1
60
0
100
AcDbLine
10
176.91576
20
18.539393
30
0
11
166.619751
21
18.178475
31
0
39
0
210
0
220
0
230
1
0
LINE
5
E7
100
AcDbEntity
8
1
62
256
6
ByLayer
370
-1
48
1
60
0
100
AcDbLine
10
178.27772
20
7.38022
30
0
11
177.938745
21
17.124281
31
0
39
0
210
0
220
0
230
1
0
LINE
5
E8
100
AcDbEntity
8
1
62
256
6
ByLayer
370
-1
48
1
60
0
100
AcDbLine
10
168.423181
20
16.044223
30
0
11
168.561841
21
15.530738
31
0
39
0
210
0
220
0
230
1
0
LINE
5
E9
100
AcDbEntity
8
1
62
256
6
ByLayer
370
-1
48
1
60
0
100
AcDbLine
10
178.047937
20
7.372227
30
0
11
177.708962
21
17.116287
31
0
39
0
210
0
220
0
230
1
0
LINE
5
EA
100
AcDbEntity
8
1
62
256
6
ByLayer
370
-1
48
1
60
0
100
AcDbLine
10
167.210942
20
18.119475
30
0
11
176.917923
21
18.459746
31
0
39
0
210
0
220
0
230
1
0
LINE
5
EB
100
AcDbEntity
8
1
62
256
6
ByLayer
370
-1
48
1
60
0
100
AcDbLine
10
167.060299
20
16.74377
30
0
11
167.399274
21
6.999709
31
0
39
0
210
0
220
0
230
1
0
LINE
5
EC
100
AcDbEntity
8
1
62
256
6
ByLayer
370
-1
48
1
60
0
100
AcDbLine
10
177.288573
20
7.196307
30
0
11
167.581592
21
6.856037
31
0
39
0
210
0
220
0
230
1
0
LINE
5
ED
100
AcDbEntity
8
1
62
256
6
ByLayer
370
-1
48
1
60
0
100
AcDbLine
10
166.291612
20
16.716001
30
0
11
166.630587
21
6.97194
31
0
39
0
210
0
220
0
230
1
0
LINE
5
EE
100
AcDbEntity
8
SK1
62
256
6
ByLayer
370
-1
48
1
60
0
100
AcDbLine
10
-69
20
-9.102615
30
0
11
-69
21
-19.996
31
0
39
0
210
0
220
0
230
1
0
LINE
5
EF
100
AcDbEntity
8
SK1
62
256
6
ByLayer
370
-1
48
1
60
0
100
AcDbLine
10
-69
20
19.996
30
0
11
-69
21
9.102615
31
0
39
0
210
0
220
0
230
1
0
LINE
5
F0
100
AcDbEntity
8
SK1
62
256
6
ByLayer
370
-1
48
1
60
0
100
AcDbLine
10
-67.633814
20
-8.290603
30
0
11
-67.633814
21
-19.639667
31
0
39
0
210
0
220
0
230
1
0
LINE
5
F1
100
AcDbEntity
8
SK1
62
256
6
ByLayer
370
-1
48
1
60
0
100
AcDbLine
10
-67.633814
20
19.639667
30
0
11
-67.633814
21
8.290603
31
0
39
0
210
0
220
0
230
1
0
LINE
5
F2
100
AcDbEntity
8
SK1
62
256
6
ByLayer
370
-1
48
1
60
0
100
AcDbLine
10
-68.6
20
-9.102615
30
0
11
-69
21
-9.102615
31
0
39
0
210
0
220
0
230
1
0
LINE
5
F3
100
AcDbEntity
8
SK1
62
256
6
ByLayer
370
-1
48
1
60
0
100
AcDbLine
10
-6.5
20
-9.102615
30
0
11
-66.6
21
-9.102615
31
0
39
0
210
0
220
0
230
1
0
LINE
5
F4
100
AcDbEntity
8
SK1
62
256
6
ByLayer
370
-1
48
1
60
0
100
AcDbLine
10
-68.6
20
-19.996
30
0
11
-68.6
21
-9.102615
31
0
39
0
210
0
220
0
230
1
0
LINE
5
F5
100
AcDbEntity
8
SK1
62
256
6
ByLayer
370
-1
48
1
60
0
100
AcDbLine
10
-68.6
20
9.102615
30
0
11
-68.6
21
19.996
31
0
39
0
210
0
220
0
230
1
0
LINE
5
F6
100
AcDbEntity
8
SK1
62
256
6
ByLayer
370
-1
48
1
60
0
100
AcDbLine
10
-66.6
20
9.102615
30
0
11
-66.6
21
19.996
31
0
39
0
210
0
220
0
230
1
0
LINE
5
F7
100
AcDbEntity
8
SK1
62
256
6
ByLayer
370
-1
48
1
60
0
100
AcDbLine
10
-66.6
20
-19.996
30
0
11
-66.6
21
-9.102615
31
0
39
0
210
0
220
0
230
1
0
LINE
5
F8
100
AcDbEntity
8
SK1
62
256
6
ByLayer
370
-1
48
1
60
0
100
AcDbLine
10
-66.6
20
9.102615
30
0
11
-6.5
21
9.102615
31
0
39
0
210
0
220
0
230
1
0
LINE
5
F9
100
AcDbEntity
8
SK1
62
256
6
ByLayer
370
-1
48
1
60
0
100
AcDbLine
10
-68.516223
20
-8.873042
30
0
11
-68.516223
21
-19.892544
31
0
39
0
210
0
220
0
230
1
0
LINE
5
FA
100
AcDbEntity
8
SK1
62
256
6
ByLayer
370
-1
48
1
60
0
100
AcDbLine
10
-68.516223
20
19.892544
30
0
11
-68.516223
21
8.873042
31
0
39
0
210
0
220
0
230
1
0
LINE
5
FB
100
AcDbEntity
8
SK1
62
256
6
ByLayer
370
-1
48
1
60
0
100
AcDbLine
10
-69
20
9.102615
30
0
11
-68.6
21
9.102615
31
0
39
0
210
0
220
0
230
1
0
LINE
5
FC
100
AcDbEntity
8
SK1
62
256
6
ByLayer
370
-1
48
1
60
0
100
AcDbLine
10
-70
20
6.623111
30
0
11
-70
21
-6.623111
31
0
39
0
210
0
220
0
230
1
0
LINE
5
FD
100
AcDbEntity
8
SK1
62
256
6
ByLayer
370
-1
48
1
60
0
100
AcDbLine
10
-1.383773
20
19.75
30
0
11
-1.383773
21
-19.75
31
0
39
0
210
0
220
0
230
1
0
LINE
5
FE
100
AcDbEntity
8
SK1
62
256
6
ByLayer
370
-1
48
1
60
0
100
AcDbLine
10
-6.5
20
9.102615
30
0
11
-6.5
21
-9.102615
31
0
39
0
210
0
220
0
230
1
0
LINE
5
FF
100
AcDbEntity
8
SK1
62
256
6
ByLayer
370
-1
48
1
60
0
100
AcDbLine
10
-70
20
-6.623111
30
0
11
-70
21
-18.996
31
0
39
0
210
0
220
0
230
1
0
LINE
5
100
100
AcDbEntity
8
SK1
62
256
6
ByLayer
370
-1
48
1
60
0
100
AcDbLine
10
-70
20
18.996
30
0
11
-70
21
6.623111
31
0
39
0
210
0
220
0
230
1
0
LINE
5
101
100
AcDbEntity
8
SK1
62
256
6
ByLayer
370
-1
48
1
60
0
100
AcDbLine
10
-2
20
-19.996
30
0
11
-2
21
19.996
31
0
39
0
210
0
220
0
230
1
0
LINE
5
102
100
AcDbEntity
8
SK1
62
256
6
ByLayer
370
-1
48
1
60
0
100
AcDbLine
10
-0.15
20
19.75
30
0
11
-0.15
21
-19.75
31
0
39
0
210
0
220
0
230
1
0
LINE
5
103
100
AcDbEntity
8
SK1
62
256
6
ByLayer
370
-1
48
1
60
0
100
AcDbLine
10
-1.552821
20
19.787477
30
0
11
-1.552821
21
-19.787477
31
0
39
0
210
0
220
0
230
1
0
POLYLINE
5
119
100
AcDbEntity
8
1
62
256
6
ByLayer
370
-1
48
1
60
0
100
AcDb3dPolyline
10
0
20
0
30
0
70
8
75
0
210
0
220
0
230
1
0
VERTEX
5
11A
100
AcDbEntity
8
1
62
256
100
AcDbVertex
100
AcDb3dPolylineVertex
10
177.11876
20
5.6671
30
0
70
32
0
VERTEX
5
11B
100
AcDbEntity
8
1
62
256
100
AcDbVertex
100
AcDb3dPolylineVertex
10
177.118762
20
5.6671
30
0
70
32
0
VERTEX
5
11C
100
AcDbEntity
8
1
62
256
100
AcDbVertex
100
AcDb3dPolylineVertex
10
177.118763
20
5.6671
30
0
70
32
0
VERTEX
5
11D
100
AcDbEntity
8
1
62
256
100
AcDbVertex
100
AcDb3dPolylineVertex
10
177.118765
20
5.6671
30
0
70
32
0
VERTEX
5
11E
100
AcDbEntity
8
1
62
256
100
AcDbVertex
100
AcDb3dPolylineVertex
10
177.118767
20
5.6671
30
0
70
32
0
VERTEX
5
11F
100
AcDbEntity
8
1
62
256
100
AcDbVertex
100
AcDb3dPolylineVertex
10
177.118768
20
5.6671
30
0
70
32
0
VERTEX
5
120
100
AcDbEntity
8
1
62
256
100
AcDbVertex
100
AcDb3dPolylineVertex
10
177.11877
20
5.6671
30
0
70
32
0
VERTEX
5
121
100
AcDbEntity
8
1
62
256
100
AcDbVertex
100
AcDb3dPolylineVertex
10
177.118771
20
5.6671
30
0
70
32
0
VERTEX
5
122
100
AcDbEntity
8
1
62
256
100
AcDbVertex
100
AcDb3dPolylineVertex
10
177.118773
20
5.6671
30
0
70
32
0
VERTEX
5
123
100
AcDbEntity
8
1
62
256
100
AcDbVertex
100
AcDb3dPolylineVertex
10
177.118774
20
5.6671
30
0
70
32
0
VERTEX
5
124
100
AcDbEntity
8
1
62
256
100
AcDbVertex
100
AcDb3dPolylineVertex
10
177.118776
20
5.6671
30
0
70
32
0
VERTEX
5
125
100
AcDbEntity
8
1
62
256
100
AcDbVertex
100
AcDb3dPolylineVertex
10
177.118777
20
5.6671
30
0
70
32
0
VERTEX
5
126
100
AcDbEntity
8
1
62
256
100
AcDbVertex
100
AcDb3dPolylineVertex
10
177.118779
20
5.6671
30
0
70
32
0
VERTEX
5
127
100
AcDbEntity
8
1
62
256
100
AcDbVertex
100
AcDb3dPolylineVertex
10
177.118781
20
5.6671
30
0
70
32
0
VERTEX
5
128
100
AcDbEntity
8
1
62
256
100
AcDbVertex
100
AcDb3dPolylineVertex
10
177.118782
20
5.6671
30
0
70
32
0
VERTEX
5
129
100
AcDbEntity
8
1
62
256
100
AcDbVertex
100
AcDb3dPolylineVertex
10
177.118784
20
5.6671
30
0
70
32
0
VERTEX
5
12A
100
AcDbEntity
8
1
62
256
100
AcDbVertex
100
AcDb3dPolylineVertex
10
177.118785
20
5.6671
30
0
70
32
0
VERTEX
5
12B
100
AcDbEntity
8
1
62
256
100
AcDbVertex
100
AcDb3dPolylineVertex
10
177.118787
20
5.6671
30
0
70
32
0
VERTEX
5
12C
100
AcDbEntity
8
1
62
256
100
AcDbVertex
100
AcDb3dPolylineVertex
10
177.118788
20
5.6671
30
0
70
32
0
VERTEX
5
12D
100
AcDbEntity
8
1
62
256
100
AcDbVertex
100
AcDb3dPolylineVertex
10
177.11879
20
5.6671
30
0
70
32
0
VERTEX
5
12E
100
AcDbEntity
8
1
62
256
100
AcDbVertex
100
AcDb3dPolylineVertex
10
177.118791
20
5.6671
30
0
70
32
0
VERTEX
5
12F
100
AcDbEntity
8
1
62
256
100
AcDbVertex
100
AcDb3dPolylineVertex
10
177.118793
20
5.6671
30
0
70
32
0
VERTEX
5
130
100
AcDbEntity
8
1
62
256
100
AcDbVertex
100
AcDb3dPolylineVertex
10
177.118794
20
5.6671
30
0
70
32
0
VERTEX
5
131
100
AcDbEntity
8
1
62
256
100
AcDbVertex
100
AcDb3dPolylineVertex
10
177.118796
20
5.6671
30
0
70
32
0
VERTEX
5
132
100
AcDbEntity
8
1
62
256
100
AcDbVertex
100
AcDb3dPolylineVertex
10
177.118797
20
5.6671
30
0
70
32
0
VERTEX
5
133
100
AcDbEntity
8
1
62
256
100
AcDbVertex
100
AcDb3dPolylineVertex
10
177.118799
20
5.6671
30
0
70
32
0
VERTEX
5
134
100
AcDbEntity
8
1
62
256
100
AcDbVertex
100
AcDb3dPolylineVertex
10
177.1188
20
5.6671
30
0
70
32
0
VERTEX
5
135
100
AcDbEntity
8
1
62
256
100
AcDbVertex
100
AcDb3dPolylineVertex
10
177.118802
20
5.6671
30
0
70
32
0
VERTEX
5
136
100
AcDbEntity
8
1
62
256
100
AcDbVertex
100
AcDb3dPolylineVertex
10
177.118803
20
5.6671
30
0
70
32
0
VERTEX
5
137
100
AcDbEntity
8
1
62
256
100
AcDbVertex
100
AcDb3dPolylineVertex
10
177.118804
20
5.6671
30
0
70
32
0
VERTEX
5
138
100
AcDbEntity
8
1
62
256
100
AcDbVertex
100
AcDb3dPolylineVertex
10
177.118806
20
5.6671
30
0
70
32
0
VERTEX
5
139
100
AcDbEntity
8
1
62
256
100
AcDbVertex
100
AcDb3dPolylineVertex
10
177.118807
20
5.6671
30
0
70
32
0
VERTEX
5
13A
100
AcDbEntity
8
1
62
256
100
AcDbVertex
100
AcDb3dPolylineVertex
10
177.118809
20
5.6671
30
0
70
32
0
VERTEX
5
13B
100
AcDbEntity
8
1
62
256
100
AcDbVertex
100
AcDb3dPolylineVertex
10
177.11881
20
5.6671
30
0
70
32
0
VERTEX
5
13C
100
AcDbEntity
8
1
62
256
100
AcDbVertex
100
AcDb3dPolylineVertex
10
177.118812
20
5.667101
30
0
70
32
0
VERTEX
5
13D
100
AcDbEntity
8
1
62
256
100
AcDbVertex
100
AcDb3dPolylineVertex
10
177.118813
20
5.667101
30
0
70
32
0
VERTEX
5
13E
100
AcDbEntity
8
1
62
256
100
AcDbVertex
100
AcDb3dPolylineVertex
10
177.118815
20
5.667101
30
0
70
32
0
VERTEX
5
13F
100
AcDbEntity
8
1
62
256
100
AcDbVertex
100
AcDb3dPolylineVertex
10
177.118816
20
5.667101
30
0
70
32
0
VERTEX
5
140
100
AcDbEntity
8
1
62
256
100
AcDbVertex
100
AcDb3dPolylineVertex
10
177.118817
20
5.667101
30
0
70
32
0
VERTEX
5
141
100
AcDbEntity
8
1
62
256
100
AcDbVertex
100
AcDb3dPolylineVertex
10
177.118819
20
5.667101
30
0
70
32
0
VERTEX
5
142
100
AcDbEntity
8
1
62
256
100
AcDbVertex
100
AcDb3dPolylineVertex
10
177.11882
20
5.667101
30
0
70
32
0
VERTEX
5
143
100
AcDbEntity
8
1
62
256
100
AcDbVertex
100
AcDb3dPolylineVertex
10
177.118822
20
5.667101
30
0
70
32
0
VERTEX
5
144
100
AcDbEntity
8
1
62
256
100
AcDbVertex
100
AcDb3dPolylineVertex
10
177.118823
20
5.667101
30
0
70
32
0
VERTEX
5
145
100
AcDbEntity
8
1
62
256
100
AcDbVertex
100
AcDb3dPolylineVertex
10
177.118824
20
5.667101
30
0
70
32
0
VERTEX
5
146
100
AcDbEntity
8
1
62
256
100
AcDbVertex
100
AcDb3dPolylineVertex
10
177.118826
20
5.667101
30
0
70
32
0
VERTEX
5
147
100
AcDbEntity
8
1
62
256
100
AcDbVertex
100
AcDb3dPolylineVertex
10
177.118827
20
5.667101
30
0
70
32
0
VERTEX
5
148
100
AcDbEntity
8
1
62
256
100
AcDbVertex
100
AcDb3dPolylineVertex
10
177.118829
20
5.667101
30
0
70
32
0
VERTEX
5
149
100
AcDbEntity
8
1
62
256
100
AcDbVertex
100
AcDb3dPolylineVertex
10
177.11883
20
5.667101
30
0
70
32
0
VERTEX
5
14A
100
AcDbEntity
8
1
62
256
100
AcDbVertex
100
AcDb3dPolylineVertex
10
177.118831
20
5.667101
30
0
70
32
0
VERTEX
5
14B
100
AcDbEntity
8
1
62
256
100
AcDbVertex
100
AcDb3dPolylineVertex
10
177.118833
20
5.667101
30
0
70
32
0
VERTEX
5
14C
100
AcDbEntity
8
1
62
256
100
AcDbVertex
100
AcDb3dPolylineVertex
10
177.118834
20
5.667101
30
0
70
32
0
SEQEND
5
14D
100
AcDbEntity
8
1
0
MTEXT
5
2C2
100
AcDbEntity
8
SK6
62
256
6
ByLayer
370
-1
48
1
60
0
100
AcDbMText
10
0.79375
20
-80.79375
30
0
210
0
220
0
230
1
1
\W00.751;\fsimplex.shx,bigfont.shx;880-D3700L40-04 
40
3.175
41
0
44
1.084337
50
0
71
7
72
5
7
DEFAULT
0
DIMENSION
5
2F2
100
AcDbEntity
8
SK2
62
256
6
ByLayer
370
-3
48
1
60
0
100
AcDbDimension
2
DimnDraft3D1
10
179
20
-63.61955
30
0
11
54.5
21
-63.61955
31
0
70
32
71
5
72
1
41
1
210
0
220
0
230
1
3
Standard
100
AcDbAlignedDimension
13
-70
23
-21.5875
33
0
14
179
24
-20.0875
34
0
50
0
100
AcDbRotatedDimension
1001
ACAD
1000
DSTYLE
1002
{
1070
   279
1070
     0
1070
   172
1070
     1
1070
   173
1070
     1
1070
   340
1005
2C3
1070
   271
1070
     1
1070
   272
1070
     2
1070
    77
1070
     1
1070
    73
1070
     0
1070
   171
1070
     3
1070
   274
1070
     4
1070
   177
1070
   150
1070
   176
1070
     9
1070
   178
1070
    43
1070
    78
1070
     8
1070
    48
1040
-0.005
1070
    41
1041
4.175
1070
   147
1041
2.25
1070
    42
1041
1.5875
1070
    44
1041
3.175
1070
   140
1041
4.5
1070
   343
1005
0
1070
   344
1005
0
1002
}
0
DIMENSION
5
2FC
100
AcDbEntity
8
SK2
62
256
6
ByLayer
370
-3
48
1
60
0
100
AcDbDimension
2
DimnDraft3D2
10
0
20
-51.6508
30
0
11
-35
21
-51.6508
31
0
70
32
71
5
72
1
41
1
210
0
220
0
230
1
3
Standard
100
AcDbAlignedDimension
13
-70
23
-21.5875
33
0
14
0
24
-26.3375
34
0
50
0
100
AcDbRotatedDimension
1001
ACAD
1000
DSTYLE
1002
{
1070
   279
1070
     0
1070
   172
1070
     1
1070
   173
1070
     1
1070
   340
1005
2C3
1070
   271
1070
     1
1070
   272
1070
     2
1070
    77
1070
     1
1070
    73
1070
     0
1070
   171
1070
     3
1070
   274
1070
     4
1070
   177
1070
   150
1070
   176
1070
     9
1070
   178
1070
    43
1070
    78
1070
     8
1070
    48
1040
-0.005
1070
    41
1041
4.175
1070
   147
1041
2.25
1070
    42
1041
1.5875
1070
    44
1041
3.175
1070
   140
1041
4.5
1070
   343
1005
0
1070
   344
1005
0
1002
}
0
DIMENSION
5
307
100
AcDbEntity
8
2
62
256
6
ByLayer
370
-3
48
1
60
0
100
AcDbDimension
2
DimnDraft3D3
10
179
20
-51.6508
30
0
11
89.5
21
-51.6508
31
0
70
32
71
5
72
1
41
1
210
0
220
0
230
1
3
Standard
100
AcDbAlignedDimension
13
0
23
-26.3375
33
0
14
179
24
-20.0875
34
0
50
0
100
AcDbRotatedDimension
1001
ACAD
1000
DSTYLE
1002
{
1070
   279
1070
     0
1070
   172
1070
     1
1070
   173
1070
     1
1070
   340
1005
2C3
1070
   271
1070
     1
1070
   272
1070
     2
1070
    77
1070
     1
1070
    73
1070
     0
1070
   171
1070
     3
1070
   274
1070
     4
1070
   177
1070
   150
1070
   176
1070
     9
1070
   178
1070
    43
1070
    78
1070
     8
1070
    48
1040
-0.005
1070
    41
1041
4.175
1070
   147
1041
2.25
1070
    42
1041
1.5875
1070
    44
1041
3.175
1070
   140
1041
4.5
1070
   343
1005
0
1070
   344
1005
0
1002
}
0
DIMENSION
5
311
100
AcDbEntity
8
SK2
62
256
6
ByLayer
370
-3
48
1
60
0
100
AcDbDimension
2
DimnDraft3D4
10
179
20
-41.6508
30
0
11
103
21
-41.6508
31
0
70
32
71
5
72
1
41
1
210
0
220
0
230
1
3
Standard
100
AcDbAlignedDimension
13
27
23
-11.5875
33
0
14
179
24
-20.0875
34
0
50
0
100
AcDbRotatedDimension
1001
ACAD
1000
DSTYLE
1002
{
1070
   279
1070
     0
1070
   172
1070
     1
1070
   173
1070
     1
1070
   340
1005
2C3
1070
   271
1070
     1
1070
   272
1070
     2
1070
    77
1070
     1
1070
    73
1070
     0
1070
   171
1070
     3
1070
   274
1070
     4
1070
   177
1070
   150
1070
   176
1070
     9
1070
   178
1070
    43
1070
    78
1070
     8
1070
    48
1040
-0.005
1070
    41
1041
4.175
1070
   147
1041
2.25
1070
    42
1041
1.5875
1070
    44
1041
3.175
1070
   140
1041
4.5
1070
   343
1005
0
1070
   344
1005
0
1002
}
0
DIMENSION
5
31C
100
AcDbEntity
8
SK2
62
256
6
ByLayer
370
-3
48
1
60
0
100
AcDbDimension
2
DimnDraft3D5
10
-81.9
20
-20
30
0
11
-82.1
21
3.884211
31
0
70
33
71
5
72
1
41
1
210
0
220
0
230
1
3
Standard
100
AcDbAlignedDimension
13
-71.5875
23
20
33
0
14
-71.5875
24
-20
34
0
1001
ACAD
1000
DSTYLE
1002
{
1070
   279
1070
     0
1070
    74
1070
     0
1070
   173
1070
     1
1070
   340
1005
2C3
1070
   271
1070
     2
1070
   272
1070
     2
1070
    77
1070
     1
1070
    73
1070
     0
1070
   171
1070
     3
1070
   274
1070
     4
1070
   177
1070
   150
1070
   176
1070
     9
1070
   178
1070
    43
1070
    78
1070
     8
1070
    48
1040
-0.005
1070
    41
1041
4.175
1070
   147
1041
2.25
1070
    42
1041
1.5875
1070
    44
1041
3.175
1070
   140
1041
4.5
1070
   343
1005
0
1070
   344
1005
0
1002
}
0
DIMENSION
5
327
100
AcDbEntity
8
SK2
62
256
6
ByLayer
370
-3
48
1
60
0
100
AcDbDimension
2
DimnDraft3D6
10
-91.9
20
24.75
30
0
11
-92.1
21
1.35
31
0
70
33
71
5
72
1
41
1
210
0
220
0
230
1
3
Standard
100
AcDbAlignedDimension
13
-1.5875
23
-24.75
33
0
14
-1.5875
24
24.75
34
0
1001
ACAD
1000
DSTYLE
1002
{
1070
   279
1070
     0
1070
    74
1070
     0
1070
   173
1070
     1
1070
   340
1005
2C3
1070
   271
1070
     1
1070
   272
1070
     2
1070
    77
1070
     1
1070
    73
1070
     0
1070
   171
1070
     3
1070
   274
1070
     4
1070
   177
1070
   150
1070
   176
1070
     9
1070
   178
1070
    43
1070
    78
1070
     8
1070
    48
1040
-0.005
1070
    41
1041
4.175
1070
   147
1041
2.25
1070
    42
1041
1.5875
1070
    44
1041
3.175
1070
   140
1041
4.5
1070
   343
1005
0
1070
   344
1005
0
1002
}
0
DIMENSION
5
332
100
AcDbEntity
8
2
62
256
6
ByLayer
370
-3
48
1
60
0
100
AcDbDimension
2
DimnDraft3D7
10
209.15
20
-18.5
30
0
11
202.6
21
4.121053
31
0
70
33
71
5
72
1
41
1
210
0
220
0
230
1
3
Standard
100
AcDbAlignedDimension
13
180.5875
23
18.5
33
0
14
180.5875
24
-18.5
34
0
1001
ACAD
1000
DSTYLE
1002
{
1070
   279
1070
     0
1070
    74
1070
     0
1070
   173
1070
     1
1070
   340
1005
2C3
1070
   271
1070
     2
1070
   272
1070
     2
1070
    77
1070
     1
1070
    73
1070
     0
1070
   171
1070
     3
1070
   274
1070
     4
1070
   177
1070
   150
1070
   176
1070
     9
1070
   178
1070
    43
1070
    78
1070
     8
1070
    48
1040
-0.005
1070
    41
1041
4.175
1070
   147
1041
2.25
1070
    42
1041
1.5875
1070
    44
1041
3.175
1070
   140
1041
4.5
1070
   343
1005
0
1070
   344
1005
0
1002
}
0
ENDSEC
0
SECTION
2
OBJECTS
0
DICTIONARY
5
363
330
0
100
AcDbDictionary
280
0
281
1
3
ACAD_GROUP
350
364
3
ACAD_MLINESTYLE
350
365
0
DICTIONARY
5
364
330
0
100
AcDbDictionary
280
0
281
1
0
DICTIONARY
5
365
330
0
100
AcDbDictionary
280
0
281
1
3
Standard
350
18
0
MLINESTYLE
5
18
330
365
100
AcDbMlineStyle
2
Standard
70
0
3

62
256
51
90
52
90
71
2
49
-0.5
62
256
6
ByLayer
49
0.5
62
256
6
ByLayer
0
RASTERVARIABLES
5
351
330

100
AcDbRasterVariables
90
0
70
1
71
1
72
1
0
ENDSEC
0
EOF
