0
SECTION
2
HEADER
9
$ACADVER
1
AC1015
9
$DWGCODEPAGE
3
ANSI_1252
9
$HANDSEED
5
356
9
$ANGBASE
50
0
9
$ANGDIR
70
0
9
$ATTMODE
70
1
9
$AUNITS
70
0
9
$AUPREC
70
0
9
$CECOLOR
62
256
9
$CELTSCALE
40
1
9
$CELTYPE
6
ByLayer
9
$CELWEIGHT
370
-1
9
$CLAYER
8
0
9
$CMLJUST
70
0
9
$CMLSCALE
40
1
9
$CMLSTYLE
2
Standard
9
$DIMSTYLE
2
Standard
9
$TEXTSIZE
40
0.2
9
$TEXTSTYLE
7
Standard
9
$LUNITS
70
2
9
$LUPREC
70
4
9
$EXTNAMES
290
1
9
$INSUNITS
70
4
9
$LTSCALE
40
1
9
$LWDISPLAY
290
0
9
$PDMODE
70
0
9
$PDSIZE
40
0
9
$PLINEGEN
70
0
0
ENDSEC
0
SECTION
2
CLASSES
0
CLASS
1
RASTERVARIABLES
2
AcDbRasterVariables
3
ISM
90
0
280
0
281
0
0
ENDSEC
0
SECTION
2
TABLES
0
TABLE
2
VPORT
5
34c
100
AcDbSymbolTable
0
VPORT
5
1
100
AcDbSymbolTableRecord
100
AcDbViewportTableRecord
2
*Active
70
0
10
0
20
0
11
1
21
1
12
-1
22
1
13
0
23
0
14
0.5
24
0.5
15
10
25
10
16
0
26
0
36
1
17
0
27
0
37
0
0
ENDTAB
0
TABLE
2
LTYPE
5
34d
100
AcDbSymbolTable
0
LTYPE
5
14
100
AcDbSymbolTableRecord
100
AcDbLinetypeTableRecord
70
0
2
ByBlock
3

72
65
73
0
40
0
0
LTYPE
5
15
100
AcDbSymbolTableRecord
100
AcDbLinetypeTableRecord
70
0
2
ByLayer
3

72
65
73
0
40
0
0
LTYPE
5
16
100
AcDbSymbolTableRecord
100
AcDbLinetypeTableRecord
70
0
2
CONTINUOUS
3
Solid line
72
65
73
0
40
0
0
LTYPE
5
3B
100
AcDbSymbolTableRecord
100
AcDbLinetypeTableRecord
70
0
2
DASHED
3
__ __ __ __ __ __ __ __ __
72
65
73
2
40
25.72
49
12.86
74
0
49
-12.86
74
0
0
LTYPE
5
3C
100
AcDbSymbolTableRecord
100
AcDbLinetypeTableRecord
70
0
2
HIDDEN
3
_ _ _ _ _ _ _ _ _ _ _ _ _ _ _
72
65
73
2
40
0.5
49
0.25
74
0
49
-0.25
74
0
0
LTYPE
5
3D
100
AcDbSymbolTableRecord
100
AcDbLinetypeTableRecord
70
0
2
PHANTOM
3
____ _ _ ____ _ _ _____ _ _ ____
72
65
73
6
40
50.5
49
18
74
0
49
-6.5
74
0
49
6.5
74
0
49
-6.5
74
0
49
6.5
74
0
49
-6.5
74
0
0
LTYPE
5
3E
100
AcDbSymbolTableRecord
100
AcDbLinetypeTableRecord
70
0
2
CENTER
3
____ _ ____ _ ____ _ ____
72
65
73
4
40
47.5
49
22
74
0
49
-8.5
74
0
49
8.5
74
0
49
-8.5
74
0
0
LTYPE
5
3F
100
AcDbSymbolTableRecord
100
AcDbLinetypeTableRecord
70
0
2
DOT
3
.........................
72
65
73
2
40
10
49
0
74
0
49
-10
74
0
0
LTYPE
5
40
100
AcDbSymbolTableRecord
100
AcDbLinetypeTableRecord
70
0
2
DASHDOT
3
_._._._._._._._._._._._._._._._.
72
65
73
4
40
70
49
31
74
0
49
-13
74
0
49
13
74
0
49
-13
74
0
0
ENDTAB
0
TABLE
2
LAYER
5
34e
100
AcDbSymbolTable
0
LAYER
5
10
100
AcDbSymbolTableRecord
100
AcDbLayerTableRecord
2
0
70
0
62
7
6
CONTINUOUS
290
1
370
-3
390
0
0
LAYER
5
42
100
AcDbSymbolTableRecord
100
AcDbLayerTableRecord
2
81
70
0
62
-3
6
CONTINUOUS
290
1
370
-3
390
0
0
LAYER
5
44
100
AcDbSymbolTableRecord
100
AcDbLayerTableRecord
2
80
70
0
62
-6
6
CONTINUOUS
290
1
370
-3
390
0
0
LAYER
5
48
100
AcDbSymbolTableRecord
100
AcDbLayerTableRecord
2
1
70
0
62
4
6
CONTINUOUS
290
1
370
-3
390
0
0
LAYER
5
5F
100
AcDbSymbolTableRecord
100
AcDbLayerTableRecord
2
4
70
0
62
-2
6
CENTER
290
1
370
-3
390
0
0
LAYER
5
2F0
100
AcDbSymbolTableRecord
100
AcDbLayerTableRecord
2
2
70
0
62
7
6
CONTINUOUS
290
1
370
-3
390
0
0
LAYER
5
338
100
AcDbSymbolTableRecord
100
AcDbLayerTableRecord
2
SK4
70
0
62
2
6
CENTER
290
1
370
-3
390
0
0
LAYER
5
339
100
AcDbSymbolTableRecord
100
AcDbLayerTableRecord
2
SK1
70
0
62
4
6
CONTINUOUS
290
1
370
-3
390
0
0
LAYER
5
33a
100
AcDbSymbolTableRecord
100
AcDbLayerTableRecord
2
SK6
70
0
62
5
6
CONTINUOUS
290
1
370
-3
390
0
0
LAYER
5
33b
100
AcDbSymbolTableRecord
100
AcDbLayerTableRecord
2
SK2
70
0
62
7
6
CONTINUOUS
290
1
370
-3
390
0
0
ENDTAB
0
TABLE
2
STYLE
5
34f
100
AcDbSymbolTable
0
STYLE
5
11
100
AcDbSymbolTableRecord
100
AcDbTextStyleTableRecord
2
Standard
3
txt
70
0
71
0
40
0
41
1
42
0
50
0
0
STYLE
5
2B4
100
AcDbSymbolTableRecord
100
AcDbTextStyleTableRecord
2
DEFAULT
3
simplex.shx
70
0
71
0
40
0
41
1
42
0
50
0
0
STYLE
5
2D7
100
AcDbSymbolTableRecord
100
AcDbTextStyleTableRecord
2
DWGDirectTextStyle
3
SIMPLEX
70
0
71
0
40
0
41
1
42
0
50
0
0
ENDTAB
0
TABLE
2
DIMSTYLE
5
350
100
AcDbSymbolTable
100
AcDbDimStyleTable
0
DIMSTYLE
105
27
100
AcDbSymbolTableRecord
100
AcDbDimStyleTableRecord
2
Standard
70
0
3
<>
41
0.18
42
0.0625
44
0.18
140
0.18
147
0.09
73
0
74
0
77
1
271
2
275
0
278
52
280
0
340
11
0
ENDTAB
0
TABLE
2
VIEW
5
351
100
AcDbSymbolTable
0
ENDTAB
0
TABLE
2
UCS
5
352
100
AcDbSymbolTable
0
ENDTAB
0
TABLE
2
APPID
5
353
100
AcDbSymbolTable
0
APPID
5
12
100
AcDbSymbolTableRecord
100
AcDbRegAppTableRecord
2
ACAD
70
0
0
ENDTAB
0
TABLE
2
BLOCK_RECORD
5
354
100
AcDbSymbolTable
0
BLOCK_RECORD
5
1F
100
AcDbSymbolTableRecord
100
AcDbBlockTableRecord
2
*Model_Space
340
0
70
0
0
BLOCK_RECORD
5
1B
100
AcDbSymbolTableRecord
100
AcDbBlockTableRecord
2
*Paper_Space
340
0
70
0
0
BLOCK_RECORD
5
23
100
AcDbSymbolTableRecord
100
AcDbBlockTableRecord
2
*Paper_Space0
340
0
70
0
0
BLOCK_RECORD
5
2D9
100
AcDbSymbolTableRecord
100
AcDbBlockTableRecord
2
DimnDraft3D1
340
0
70
0
0
BLOCK_RECORD
5
2E4
100
AcDbSymbolTableRecord
100
AcDbBlockTableRecord
2
DimnDraft3D2
340
0
70
0
0
BLOCK_RECORD
5
2EE
100
AcDbSymbolTableRecord
100
AcDbBlockTableRecord
2
DimnDraft3D3
340
0
70
0
0
BLOCK_RECORD
5
2F9
100
AcDbSymbolTableRecord
100
AcDbBlockTableRecord
2
DimnDraft3D4
340
0
70
0
0
BLOCK_RECORD
5
303
100
AcDbSymbolTableRecord
100
AcDbBlockTableRecord
2
DimnDraft3D5
340
0
70
0
0
BLOCK_RECORD
5
30E
100
AcDbSymbolTableRecord
100
AcDbBlockTableRecord
2
DimnDraft3D6
340
0
70
0
0
ENDTAB
0
ENDSEC
0
SECTION
2
BLOCKS
0
BLOCK
5
20
100
AcDbEntity
8
0
100
AcDbBlockBegin
2
*Model_Space
70
0
10
0
20
0
30
0
3
*Model_Space
0
ENDBLK
5
21
100
AcDbEntity
8
0
100
AcDbBlockEnd
0
BLOCK
5
1C
100
AcDbEntity
8
0
100
AcDbBlockBegin
2
*Paper_Space
70
0
10
0
20
0
30
0
3
*Paper_Space
0
ENDBLK
5
1D
100
AcDbEntity
8
0
100
AcDbBlockEnd
0
BLOCK
5
24
100
AcDbEntity
8
0
100
AcDbBlockBegin
2
*Paper_Space0
70
0
10
0
20
0
30
0
3
*Paper_Space0
0
ENDBLK
5
25
100
AcDbEntity
8
0
100
AcDbBlockEnd
0
BLOCK
5
2E1
100
AcDbEntity
8
0
100
AcDbBlockBegin
2
DimnDraft3D1
70
0
10
0
20
0
30
0
3
DimnDraft3D1
0
MTEXT
5
2DA
100
AcDbEntity
8
SK2
62
256
6
ByLayer
370
-1
48
1
60
0
100
AcDbMText
10
55.344079
20
-67.225
30
0
210
0
220
0
230
1
1
\W01.000;\fsimplex.shx,bigfont.shx;(202) 
40
4.5
41
0
44
1.084337
50
0
71
7
72
5
7
DEFAULT
0
LINE
5
2DC
100
AcDbEntity
8
SK2
62
256
6
ByLayer
370
-1
48
1
60
0
100
AcDbLine
10
-38
20
-4.5875
30
0
11
-38
21
-73.49375
31
0
39
0
210
0
220
0
230
1
0
LINE
5
2DD
100
AcDbEntity
8
SK2
62
256
6
ByLayer
370
-1
48
1
60
0
100
AcDbLine
10
164
20
-20.0875
30
0
11
164
21
-73.49375
31
0
39
0
210
0
220
0
230
1
0
LINE
5
2DE
100
AcDbEntity
8
SK2
62
256
6
ByLayer
370
-1
48
1
60
0
100
AcDbLine
10
-38
20
-70.31875
30
0
11
164
21
-70.31875
31
0
39
0
210
0
220
0
230
1
0
SOLID
5
2DF
100
AcDbEntity
8
SK2
62
256
6
ByLayer
370
-1
48
1
60
0
100
AcDbTrace
10
-38
20
-70.31875
30
0
11
-33.825003
21
-69.393175
31
0
12
-33.824997
22
-71.244325
32
0
13
-38
23
-70.31875
33
0
39
0
210
0
220
0
230
1
0
SOLID
5
2E0
100
AcDbEntity
8
SK2
62
256
6
ByLayer
370
-1
48
1
60
0
100
AcDbTrace
10
164
20
-70.31875
30
0
11
159.825003
21
-71.244325
31
0
12
159.824997
22
-69.393175
32
0
13
164
23
-70.31875
33
0
39
0
210
0
220
0
230
1
0
ENDBLK
5
2E2
100
AcDbEntity
8
0
100
AcDbBlockEnd
0
BLOCK
5
2EB
100
AcDbEntity
8
0
100
AcDbBlockBegin
2
DimnDraft3D2
70
0
10
0
20
0
30
0
3
DimnDraft3D2
0
MTEXT
5
2E5
100
AcDbEntity
8
SK2
62
256
6
ByLayer
370
-1
48
1
60
0
100
AcDbMText
10
-20.503947
20
-57.225
30
0
210
0
220
0
230
1
1
\W01.000;\fsimplex.shx,bigfont.shx;38 
40
4.5
41
0
44
1.084337
50
0
71
7
72
5
7
DEFAULT
0
LINE
5
2E6
100
AcDbEntity
8
SK2
62
256
6
ByLayer
370
-1
48
1
60
0
100
AcDbLine
10
-38
20
-4.5875
30
0
11
-38
21
-61.525
31
0
39
0
210
0
220
0
230
1
0
LINE
5
2E7
100
AcDbEntity
8
SK2
62
256
6
ByLayer
370
-1
48
1
60
0
100
AcDbLine
10
0
20
-33.0875
30
0
11
0
21
-61.525
31
0
39
0
210
0
220
0
230
1
0
LINE
5
2E8
100
AcDbEntity
8
SK2
62
256
6
ByLayer
370
-1
48
1
60
0
100
AcDbLine
10
-38
20
-58.35
30
0
11
0
21
-58.35
31
0
39
0
210
0
220
0
230
1
0
SOLID
5
2E9
100
AcDbEntity
8
SK2
62
256
6
ByLayer
370
-1
48
1
60
0
100
AcDbTrace
10
-38
20
-58.35
30
0
11
-33.825003
21
-57.424425
31
0
12
-33.824997
22
-59.275575
32
0
13
-38
23
-58.35
33
0
39
0
210
0
220
0
230
1
0
SOLID
5
2EA
100
AcDbEntity
8
SK2
62
256
6
ByLayer
370
-1
48
1
60
0
100
AcDbTrace
10
0
20
-58.35
30
0
11
-4.174997
21
-59.275575
31
0
12
-4.175003
22
-57.424425
32
0
13
0
23
-58.35
33
0
39
0
210
0
220
0
230
1
0
ENDBLK
5
2EC
100
AcDbEntity
8
0
100
AcDbBlockEnd
0
BLOCK
5
2F6
100
AcDbEntity
8
0
100
AcDbBlockBegin
2
DimnDraft3D3
70
0
10
0
20
0
30
0
3
DimnDraft3D3
0
MTEXT
5
2EF
100
AcDbEntity
8
2
62
256
6
ByLayer
370
-1
48
1
60
0
100
AcDbMText
10
79.169737
20
-57.225
30
0
210
0
220
0
230
1
1
\W01.000;\fsimplex.shx,bigfont.shx;164 
40
4.5
41
0
44
1.084337
50
0
71
7
72
5
7
DEFAULT
0
LINE
5
2F1
100
AcDbEntity
8
2
62
256
6
ByLayer
370
-1
48
1
60
0
100
AcDbLine
10
0
20
-33.0875
30
0
11
0
21
-61.525
31
0
39
0
210
0
220
0
230
1
0
LINE
5
2F2
100
AcDbEntity
8
2
62
256
6
ByLayer
370
-1
48
1
60
0
100
AcDbLine
10
164
20
-20.0875
30
0
11
164
21
-61.525
31
0
39
0
210
0
220
0
230
1
0
LINE
5
2F3
100
AcDbEntity
8
2
62
256
6
ByLayer
370
-1
48
1
60
0
100
AcDbLine
10
0
20
-58.35
30
0
11
164
21
-58.35
31
0
39
0
210
0
220
0
230
1
0
SOLID
5
2F4
100
AcDbEntity
8
2
62
256
6
ByLayer
370
-1
48
1
60
0
100
AcDbTrace
10
0
20
-58.35
30
0
11
4.174997
21
-57.424425
31
0
12
4.175003
22
-59.275575
32
0
13
0
23
-58.35
33
0
39
0
210
0
220
0
230
1
0
SOLID
5
2F5
100
AcDbEntity
8
2
62
256
6
ByLayer
370
-1
48
1
60
0
100
AcDbTrace
10
164
20
-58.35
30
0
11
159.825003
21
-59.275575
31
0
12
159.824997
22
-57.424425
32
0
13
164
23
-58.35
33
0
39
0
210
0
220
0
230
1
0
ENDBLK
5
2F7
100
AcDbEntity
8
0
100
AcDbBlockEnd
0
BLOCK
5
300
100
AcDbEntity
8
0
100
AcDbBlockBegin
2
DimnDraft3D4
70
0
10
0
20
0
30
0
3
DimnDraft3D4
0
MTEXT
5
2FA
100
AcDbEntity
8
SK2
62
256
6
ByLayer
370
-1
48
1
60
0
100
AcDbMText
10
104.469079
20
-47.225
30
0
210
0
220
0
230
1
1
\W01.000;\fsimplex.shx,bigfont.shx;115 
40
4.5
41
0
44
1.084337
50
0
71
7
72
5
7
DEFAULT
0
LINE
5
2FB
100
AcDbEntity
8
SK2
62
256
6
ByLayer
370
-1
48
1
60
0
100
AcDbLine
10
49
20
-11.5875
30
0
11
49
21
-51.525
31
0
39
0
210
0
220
0
230
1
0
LINE
5
2FC
100
AcDbEntity
8
SK2
62
256
6
ByLayer
370
-1
48
1
60
0
100
AcDbLine
10
164
20
-20.0875
30
0
11
164
21
-51.525
31
0
39
0
210
0
220
0
230
1
0
LINE
5
2FD
100
AcDbEntity
8
SK2
62
256
6
ByLayer
370
-1
48
1
60
0
100
AcDbLine
10
49
20
-48.35
30
0
11
164
21
-48.35
31
0
39
0
210
0
220
0
230
1
0
SOLID
5
2FE
100
AcDbEntity
8
SK2
62
256
6
ByLayer
370
-1
48
1
60
0
100
AcDbTrace
10
49
20
-48.35
30
0
11
53.174997
21
-47.424425
31
0
12
53.175003
22
-49.275575
32
0
13
49
23
-48.35
33
0
39
0
210
0
220
0
230
1
0
SOLID
5
2FF
100
AcDbEntity
8
SK2
62
256
6
ByLayer
370
-1
48
1
60
0
100
AcDbTrace
10
164
20
-48.35
30
0
11
159.825003
21
-49.275575
31
0
12
159.824997
22
-47.424425
32
0
13
164
23
-48.35
33
0
39
0
210
0
220
0
230
1
0
ENDBLK
5
301
100
AcDbEntity
8
0
100
AcDbBlockEnd
0
BLOCK
5
30B
100
AcDbEntity
8
0
100
AcDbBlockBegin
2
DimnDraft3D5
70
0
10
0
20
0
30
0
3
DimnDraft3D5
0
MTEXT
5
304
100
AcDbEntity
8
SK2
62
256
6
ByLayer
370
-1
48
1
60
0
100
AcDbMText
10
-59.164798
20
5.246053
30
0
210
0
220
0
230
1
1
\W01.000;\fsimplex.shx,bigfont.shx;63 
40
4.5
41
0
44
1.084337
50
90
71
7
72
5
7
DEFAULT
0
MTEXT
5
305
100
AcDbEntity
8
SK2
62
256
6
ByLayer
370
-1
48
1
60
0
100
AcDbMText
10
-59.164798
20
-8.253947
30
0
210
0
220
0
230
1
1
\W01.000;\fsimplex.shx,bigfont.shx;%%c 
40
4.5
41
0
44
1.084337
50
90
71
7
72
5
7
DEFAULT
0
LINE
5
306
100
AcDbEntity
8
SK2
62
256
6
ByLayer
370
-1
48
1
60
0
100
AcDbLine
10
-1.5875
20
-31.5
30
0
11
-60.089798
21
-31.5
31
0
39
0
210
0
220
0
230
1
0
LINE
5
307
100
AcDbEntity
8
SK2
62
256
6
ByLayer
370
-1
48
1
60
0
100
AcDbLine
10
-1.5875
20
31.5
30
0
11
-60.089798
21
31.5
31
0
39
0
210
0
220
0
230
1
0
LINE
5
308
100
AcDbEntity
8
SK2
62
256
6
ByLayer
370
-1
48
1
60
0
100
AcDbLine
10
-56.914798
20
-31.5
30
0
11
-56.914798
21
31.5
31
0
39
0
210
0
220
0
230
1
0
SOLID
5
309
100
AcDbEntity
8
SK2
62
256
6
ByLayer
370
-1
48
1
60
0
100
AcDbTrace
10
-56.914798
20
-31.5
30
0
11
-57.840373
21
-27.325003
31
0
12
-55.989223
22
-27.324997
32
0
13
-56.914798
23
-31.5
33
0
39
0
210
0
220
0
230
1
0
SOLID
5
30A
100
AcDbEntity
8
SK2
62
256
6
ByLayer
370
-1
48
1
60
0
100
AcDbTrace
10
-56.914798
20
31.5
30
0
11
-55.989223
21
27.325003
31
0
12
-57.840373
22
27.324997
32
0
13
-56.914798
23
31.5
33
0
39
0
210
0
220
0
230
1
0
ENDBLK
5
30C
100
AcDbEntity
8
0
100
AcDbBlockEnd
0
BLOCK
5
316
100
AcDbEntity
8
0
100
AcDbBlockBegin
2
DimnDraft3D6
70
0
10
0
20
0
30
0
3
DimnDraft3D6
0
MTEXT
5
30F
100
AcDbEntity
8
2
62
256
6
ByLayer
370
-1
48
1
60
0
100
AcDbMText
10
188.725
20
5.246053
30
0
210
0
220
0
230
1
1
\W01.000;\fsimplex.shx,bigfont.shx;37 
40
4.5
41
0
44
1.084337
50
90
71
7
72
5
7
DEFAULT
0
MTEXT
5
310
100
AcDbEntity
8
2
62
256
6
ByLayer
370
-1
48
1
60
0
100
AcDbMText
10
188.725
20
-8.253947
30
0
210
0
220
0
230
1
1
\W01.000;\fsimplex.shx,bigfont.shx;%%c 
40
4.5
41
0
44
1.084337
50
90
71
7
72
5
7
DEFAULT
0
LINE
5
311
100
AcDbEntity
8
2
62
256
6
ByLayer
370
-1
48
1
60
0
100
AcDbLine
10
165.5875
20
18.5
30
0
11
194.15
21
18.5
31
0
39
0
210
0
220
0
230
1
0
LINE
5
312
100
AcDbEntity
8
2
62
256
6
ByLayer
370
-1
48
1
60
0
100
AcDbLine
10
165.5875
20
-18.5
30
0
11
194.15
21
-18.5
31
0
39
0
210
0
220
0
230
1
0
LINE
5
313
100
AcDbEntity
8
2
62
256
6
ByLayer
370
-1
48
1
60
0
100
AcDbLine
10
190.975
20
18.5
30
0
11
190.975
21
-18.5
31
0
39
0
210
0
220
0
230
1
0
SOLID
5
314
100
AcDbEntity
8
2
62
256
6
ByLayer
370
-1
48
1
60
0
100
AcDbTrace
10
190.975
20
18.5
30
0
11
191.900575
21
14.325003
31
0
12
190.049425
22
14.324997
32
0
13
190.975
23
18.5
33
0
39
0
210
0
220
0
230
1
0
SOLID
5
315
100
AcDbEntity
8
2
62
256
6
ByLayer
370
-1
48
1
60
0
100
AcDbTrace
10
190.975
20
-18.5
30
0
11
190.049425
21
-14.325003
31
0
12
191.900575
22
-14.324997
32
0
13
190.975
23
-18.5
33
0
39
0
210
0
220
0
230
1
0
ENDBLK
5
317
100
AcDbEntity
8
0
100
AcDbBlockEnd
0
ENDSEC
0
SECTION
2
ENTITIES
0
ARC
5
102
100
AcDbEntity
8
1
62
256
6
ByLayer
370
-1
48
1
60
0
100
AcDbCircle
39
0
10
-28.015785
20
24.05
30
0
40
0.8
210
0
220
0
230
-1
100
AcDbArc
50
270
51
345
0
ARC
5
103
100
AcDbEntity
8
1
62
256
6
ByLayer
370
-1
48
1
60
0
100
AcDbCircle
39
0
10
-28.015785
20
-24.05
30
0
40
0.8
210
0
220
0
230
-1
100
AcDbArc
50
15
51
90
0
ELLIPSE
5
104
100
AcDbEntity
8
1
62
256
6
ByLayer
370
-1
48
1
60
0
100
AcDbEllipse
10
162.086172
20
6.447791
30
0
11
-0.0523837217779342
21
0.803784948282943
31
0
210
0
220
0
230
-1
40
0.117421
41
2.37576805695222
42
-3.13229499395739
0
ELLIPSE
5
105
100
AcDbEntity
8
1
62
256
6
ByLayer
370
-1
48
1
60
0
100
AcDbEllipse
10
87.570404
20
19.040666
30
0
11
-61.3061221729118
21
8.11021673055779
31
0
210
0
220
0
230
-1
40
0.14391
41
-2.88895372223313
42
-2.69906634278503
0
ELLIPSE
5
106
100
AcDbEntity
8
1
62
256
6
ByLayer
370
-1
48
1
60
0
100
AcDbEllipse
10
54.64432
20
0
30
0
11
-318.344980751329
21
-17.3103843673031
31
0
210
0
220
0
230
-1
40
0.014313
41
-1.90849118475936
42
-1.87152976610923
0
ELLIPSE
5
107
100
AcDbEntity
8
1
62
256
6
ByLayer
370
-1
48
1
60
0
100
AcDbEllipse
10
163.846887
20
0
30
0
11
-1.47197868550631
21
-17.8990332543348
31
0
210
0
220
0
230
-1
40
0.126383
41
0.0322565904731115
42
1.08364826583854
0
ELLIPSE
5
108
100
AcDbEntity
8
1
62
256
6
ByLayer
370
-1
48
1
60
0
100
AcDbEllipse
10
157.098144
20
-3.248299
30
0
11
-1.425
21
1.44016065349237E-15
31
0
210
0
220
0
230
1
40
0.998135
41
0
42
6.28318530717959
0
ELLIPSE
5
109
100
AcDbEntity
8
1
62
256
6
ByLayer
370
-1
48
1
60
0
100
AcDbEllipse
10
150.5547
20
6.253335
30
0
11
-11.5240026037457
21
0.60622583789418
31
0
210
0
220
0
230
-1
40
0.000357
41
-3.13583344338373
42
-3.13481450702372
0
ELLIPSE
5
10A
100
AcDbEntity
8
1
62
256
6
ByLayer
370
-1
48
1
60
0
100
AcDbEllipse
10
124.965942
20
14.030331
30
0
11
-1.18188032641002
21
-8.82117672955513
31
0
210
0
220
0
230
1
40
0.228351
41
1.31677084735
42
1.45143809729572
0
ELLIPSE
5
10B
100
AcDbEntity
8
1
62
256
6
ByLayer
370
-1
48
1
60
0
100
AcDbEllipse
10
151.401154
20
10.365459
30
0
11
-0.799516360141551
21
-0.0278134835287907
31
0
210
0
220
0
230
1
40
0.003042
41
0.087213571465873
42
1.03850214476361
0
ELLIPSE
5
10C
100
AcDbEntity
8
1
62
256
6
ByLayer
370
-1
48
1
60
0
100
AcDbEllipse
10
151.478984
20
12.498034
30
0
11
-0.773306909992939
21
-0.824449265316857
31
0
210
0
220
0
230
-1
40
0.04503
41
-0.757075813661851
42
-0.704857676159299
0
ELLIPSE
5
10D
100
AcDbEntity
8
1
62
256
6
ByLayer
370
-1
48
1
60
0
100
AcDbEllipse
10
36.7
20
8.002784
30
0
11
-9
21
9.09575149574127E-15
31
0
210
0
220
0
230
1
40
0.766281
41
-1.81264650385275
42
-0.0940331924659938
0
ELLIPSE
5
10E
100
AcDbEntity
8
1
62
256
6
ByLayer
370
-1
48
1
60
0
100
AcDbEllipse
10
147.026922
20
11.45
30
0
11
1.17145334231629E-16
21
0.100000000000001
31
0
210
0
220
0
230
1
40
0.973123
41
3.01194281957607
42
-1.5707963267949
0
ELLIPSE
5
10F
100
AcDbEntity
8
1
62
256
6
ByLayer
370
-1
48
1
60
0
100
AcDbEllipse
10
157.098144
20
-3.248299
30
0
11
1.85
21
0
31
0
210
0
220
0
230
1
40
0.998135
41
0.0643045845819728
42
-3.14159241084495
0
ELLIPSE
5
110
100
AcDbEntity
8
1
62
256
6
ByLayer
370
-1
48
1
60
0
100
AcDbEllipse
10
144.964813
20
11.350839
30
0
11
-1.18188032641002
21
-8.82117672955513
31
0
210
0
220
0
230
1
40
0.228351
41
1.32970726199924
42
1.60138179341822
0
ELLIPSE
5
111
100
AcDbEntity
8
1
62
256
6
ByLayer
370
-1
48
1
60
0
100
AcDbEllipse
10
157.571328
20
11.750243
30
0
11
2.34290668463255E-15
21
2
31
0
210
0
220
0
230
1
40
0.996195
41
0.0503637830432939
42
1.49510350031179
0
ELLIPSE
5
112
100
AcDbEntity
8
1
62
256
6
ByLayer
370
-1
48
1
60
0
100
AcDbEllipse
10
157.571328
20
11.750243
30
0
11
2.34290668463255E-15
21
2
31
0
210
0
220
0
230
1
40
0.996195
41
1.57079654872778
42
-1.57079625281727
0
ELLIPSE
5
113
100
AcDbEntity
8
1
62
256
6
ByLayer
370
-1
48
1
60
0
100
AcDbEllipse
10
153.457106
20
-0.000101
30
0
11
-204.598515322216
21
2.0220208051048E-06
31
0
210
0
220
0
230
-1
40
0.087489
41
1.54558955722965
42
1.55631392417892
0
ELLIPSE
5
114
100
AcDbEntity
8
1
62
256
6
ByLayer
370
-1
48
1
60
0
100
AcDbEllipse
10
149.907001
20
21.278002
30
0
11
1.78060908032074E-14
21
15.2
31
0
210
0
220
0
230
1
40
0.996195
41
2.7401669256311
42
-3.1066860685499
0
ELLIPSE
5
115
100
AcDbEntity
8
1
62
256
6
ByLayer
370
-1
48
1
60
0
100
AcDbEllipse
10
151.046528
20
0.000248
30
0
11
-0.57956475671023
21
17.8996800421587
31
0
210
0
220
0
230
-1
40
0.087398
41
0.0173122506423609
42
0.027080832804608
0
ELLIPSE
5
116
100
AcDbEntity
8
1
62
256
6
ByLayer
370
-1
48
1
60
0
100
AcDbEllipse
10
148.614616
20
0
30
0
11
-72.563500730765
21
1.16326453394284
31
0
210
0
220
0
230
-1
40
0.246159
41
-1.57850308966219
42
-1.37089739045627
0
ELLIPSE
5
117
100
AcDbEntity
8
1
62
256
6
ByLayer
370
-1
48
1
60
0
100
AcDbEllipse
10
152.695419
20
10.410828
30
0
11
-2.25092568282431E-15
21
-2.1
31
0
210
0
220
0
230
1
40
0.996195
41
-2.15719865040108
42
-1.53588974175501
0
ELLIPSE
5
118
100
AcDbEntity
8
1
62
256
6
ByLayer
370
-1
48
1
60
0
100
AcDbEllipse
10
143.920763
20
7.286328
30
0
11
-0.313595748497264
21
-0.735973984950855
31
0
210
0
220
0
230
1
40
0.080227
41
0.0341712377320433
42
1.60496756452651
0
ELLIPSE
5
119
100
AcDbEntity
8
1
62
256
6
ByLayer
370
-1
48
1
60
0
100
AcDbEllipse
10
159.144494
20
0
30
0
11
-42.7436008219199
21
17.3360787799137
31
0
210
0
220
0
230
-1
40
0.104287
41
-1.20329219703826
42
-0.524125401191675
0
ELLIPSE
5
11A
100
AcDbEntity
8
1
62
256
6
ByLayer
370
-1
48
1
60
0
100
AcDbEllipse
10
-2.347154
20
0
30
0
11
-14.753683160657
21
31.093254915582
31
0
210
0
220
0
230
-1
40
0.341999
41
2.05035306783699
42
2.98378646694437
0
ELLIPSE
5
11B
100
AcDbEntity
8
1
62
256
6
ByLayer
370
-1
48
1
60
0
100
AcDbEllipse
10
162.618467
20
-9.150467
30
0
11
-0.0775054657245784
21
-0.878086631934292
31
0
210
0
220
0
230
-1
40
0.115224
41
0.00370845515695697
42
1.57450478194665
0
ELLIPSE
5
11C
100
AcDbEntity
8
1
62
256
6
ByLayer
370
-1
48
1
60
0
100
AcDbEllipse
10
26.347154
20
0
30
0
11
-14.7536831606552
21
31.0932549155797
31
0
210
0
220
0
230
-1
40
0.341999
41
-1.09123958575286
42
-0.157806186645432
0
ELLIPSE
5
11D
100
AcDbEntity
8
1
62
256
6
ByLayer
370
-1
48
1
60
0
100
AcDbEllipse
10
152.498126
20
7.062869
30
0
11
2.46005201886418E-15
21
2.1
31
0
210
0
220
0
230
1
40
0.996195
41
1.60570291183478
42
2.05006495228011
0
ELLIPSE
5
11E
100
AcDbEntity
8
1
62
256
6
ByLayer
370
-1
48
1
60
0
100
AcDbEllipse
10
157.571328
20
11.750243
30
0
11
2.05004334905348E-15
21
1.75
31
0
210
0
220
0
230
1
40
0.996195
41
-1.92834881270219
42
0
0
ELLIPSE
5
11F
100
AcDbEntity
8
1
62
256
6
ByLayer
370
-1
48
1
60
0
100
AcDbEllipse
10
157.571328
20
11.750243
30
0
11
2.05004334905348E-15
21
1.75
31
0
210
0
220
0
230
1
40
0.996195
41
0
42
1.57079639567442
0
ELLIPSE
5
120
100
AcDbEntity
8
1
62
256
6
ByLayer
370
-1
48
1
60
0
100
AcDbEllipse
10
157.571328
20
11.750243
30
0
11
2.05004334905348E-15
21
1.75
31
0
210
0
220
0
230
1
40
0.996195
41
1.57079612015634
42
2.65012947763562
0
ELLIPSE
5
121
100
AcDbEntity
8
1
62
256
6
ByLayer
370
-1
48
1
60
0
100
AcDbEllipse
10
151.517623
20
7.017499
30
0
11
-0.799516360141551
21
-0.0278134835287907
31
0
210
0
220
0
230
1
40
0.003042
41
0.0872135714662366
42
1.03850214476364
0
ELLIPSE
5
122
100
AcDbEntity
8
1
62
256
6
ByLayer
370
-1
48
1
60
0
100
AcDbEllipse
10
125.939336
20
13.897197
30
0
11
-30.1451904680068
21
13.0101616467404
31
0
210
0
220
0
230
-1
40
0.009457
41
2.18087814005802
42
2.19265172539658
0
ELLIPSE
5
123
100
AcDbEntity
8
1
62
256
6
ByLayer
370
-1
48
1
60
0
100
AcDbEllipse
10
149.837276
20
21.278002
30
0
11
-1.71499099643757E-14
21
-16
31
0
210
0
220
0
230
1
40
0.996195
41
-0.401425727958692
42
-6.79213922487711E-06
0
ELLIPSE
5
124
100
AcDbEntity
8
1
62
256
6
ByLayer
370
-1
48
1
60
0
100
AcDbEllipse
10
145.109169
20
5.292869
30
0
11
-16.8112504386565
21
-0.528893692021104
31
0
210
0
220
0
230
-1
40
0.010627
41
-1.89654405715247
42
-1.88736807935062
0
ELLIPSE
5
125
100
AcDbEntity
8
1
62
256
6
ByLayer
370
-1
48
1
60
0
100
AcDbEllipse
10
157.370869
20
11.750243
30
0
11
-2.14373874554696E-15
21
-2
31
0
210
0
220
0
230
1
40
0.996195
41
1.57079654872776
42
-2.28776637790648
0
ELLIPSE
5
126
100
AcDbEntity
8
1
62
256
6
ByLayer
370
-1
48
1
60
0
100
AcDbEllipse
10
157.370869
20
11.750243
30
0
11
-2.14373874554696E-15
21
-2
31
0
210
0
220
0
230
1
40
0.996195
41
1.43845662458553
42
1.57079604872776
0
ELLIPSE
5
127
100
AcDbEntity
8
1
62
256
6
ByLayer
370
-1
48
1
60
0
100
AcDbEllipse
10
144.964813
20
11.350839
30
0
11
-1.18188032641002
21
-8.82117672955513
31
0
210
0
220
0
230
1
40
0.228351
41
0.127622111855354
42
0.915503422996026
0
ELLIPSE
5
128
100
AcDbEntity
8
1
62
256
6
ByLayer
370
-1
48
1
60
0
100
AcDbEllipse
10
157.98096
20
11.750243
30
0
11
2.05004334905348E-15
21
1.75
31
0
210
0
220
0
230
1
40
0.996195
41
0.117809954735436
42
1.57079669158491
0
ELLIPSE
5
129
100
AcDbEntity
8
1
62
256
6
ByLayer
370
-1
48
1
60
0
100
AcDbEllipse
10
157.98096
20
11.750243
30
0
11
2.05004334905348E-15
21
1.75
31
0
210
0
220
0
230
1
40
0.996195
41
1.57079612015634
42
2.93090943872902
0
ELLIPSE
5
12A
100
AcDbEntity
8
1
62
256
6
ByLayer
370
-1
48
1
60
0
100
AcDbEllipse
10
150.36573
20
6.087261
30
0
11
0.0280261150489094
21
-0.799508934831416
31
0
210
0
220
0
230
1
40
0.087103
41
0.0631426160417556
42
1.56774302595899
0
ELLIPSE
5
12B
100
AcDbEntity
8
1
62
256
6
ByLayer
370
-1
48
1
60
0
100
AcDbEllipse
10
157.098144
20
-3.427603
30
0
11
1.425
21
0
31
0
210
0
220
0
230
1
40
0.998135
41
0.0631266638635699
42
3.07856469988978
0
ELLIPSE
5
12C
100
AcDbEntity
8
1
62
256
6
ByLayer
370
-1
48
1
60
0
100
AcDbEllipse
10
157.098144
20
-3.427603
30
0
11
1.425
21
0
31
0
210
0
220
0
230
1
40
0.998135
41
-3.14159232533694
42
-3.12223848248956E-16
0
ELLIPSE
5
12D
100
AcDbEntity
8
1
62
256
6
ByLayer
370
-1
48
1
60
0
100
AcDbEllipse
10
26.347154
20
0
30
0
11
-14.7536831606552
21
-31.0932549155798
31
0
210
0
220
0
230
-1
40
0.341999
41
0.157806186645431
42
1.09123958575286
0
ELLIPSE
5
12E
100
AcDbEntity
8
1
62
256
6
ByLayer
370
-1
48
1
60
0
100
AcDbEllipse
10
152.381658
20
10.410828
30
0
11
2.46005201886418E-15
21
2.1
31
0
210
0
220
0
230
1
40
0.996195
41
0.93911116205501
42
1.60570291183478
0
ELLIPSE
5
12F
100
AcDbEntity
8
1
62
256
6
ByLayer
370
-1
48
1
60
0
100
AcDbEllipse
10
124.708759
20
14.056708
30
0
11
-21.4184069650442
21
11.6769496363884
31
0
210
0
220
0
230
-1
40
0.102832
41
-2.53383221650358
42
-1.53815754766534
0
ELLIPSE
5
130
100
AcDbEntity
8
1
62
256
6
ByLayer
370
-1
48
1
60
0
100
AcDbEllipse
10
161.884959
20
-10.325877
30
0
11
-0.147965714259784
21
2.5665377321257
31
0
210
0
220
0
230
-1
40
0.11555
41
-0.716304251864143
42
0.835523755726879
0
ELLIPSE
5
131
100
AcDbEntity
8
1
62
256
6
ByLayer
370
-1
48
1
60
0
100
AcDbEllipse
10
152.936968
20
7.062869
30
0
11
-1.83236116208151
21
-1.63166900511782
31
0
210
0
220
0
230
-1
40
0.721468
41
-1.30152588459557
42
-0.090620283245535
0
ELLIPSE
5
132
100
AcDbEntity
8
1
62
256
6
ByLayer
370
-1
48
1
60
0
100
AcDbEllipse
10
150.576985
20
0
30
0
11
-75.6409663321923
21
-8.57087555374504E-14
31
0
210
0
220
0
230
-1
40
0.236644
41
1.3297843100263
42
1.52513389193766
0
ELLIPSE
5
133
100
AcDbEntity
8
1
62
256
6
ByLayer
370
-1
48
1
60
0
100
AcDbEllipse
10
-2.347154
20
0
30
0
11
-14.7536831606564
21
-31.0932549155813
31
0
210
0
220
0
230
-1
40
0.341999
41
-2.98378646694437
42
-2.05035306783697
0
ELLIPSE
5
134
100
AcDbEntity
8
1
62
256
6
ByLayer
370
-1
48
1
60
0
100
AcDbEllipse
10
161.636338
20
-10.280826
30
0
11
-0.204652657717858
21
-2.50343662809253
31
0
210
0
220
0
230
-1
40
0.125492
41
-2.32165466125707
42
2.40970263833159
0
ELLIPSE
5
135
100
AcDbEntity
8
1
62
256
6
ByLayer
370
-1
48
1
60
0
100
AcDbEllipse
10
162.106722
20
1.307632
30
0
11
-0.0530648479320711
21
0.802277962975443
31
0
210
0
220
0
230
-1
40
0.118371
41
-1.49776459921363
42
0.0730317275775678
0
ELLIPSE
5
136
100
AcDbEntity
8
1
62
256
6
ByLayer
370
-1
48
1
60
0
100
AcDbEllipse
10
162.568415
20
0
30
0
11
-1.08614139424537
21
17.8995326300298
31
0
210
0
220
0
230
-1
40
0.119092
41
-2.04032488805878
42
-1.48325348740448
0
ELLIPSE
5
137
100
AcDbEntity
8
1
62
256
6
ByLayer
370
-1
48
1
60
0
100
AcDbEllipse
10
152.811887
20
7.062869
30
0
11
-2.25092568282431E-15
21
-2.1
31
0
210
0
220
0
230
1
40
0.996195
41
-1.53588974175501
42
-0.132996608383597
0
ELLIPSE
5
138
100
AcDbEntity
8
1
62
256
6
ByLayer
370
-1
48
1
60
0
100
AcDbEllipse
10
157.264805
20
12.028106
30
0
11
-2.85443725674398E-15
21
-2.66304582372577
31
0
210
0
220
0
230
1
40
0.996195
41
2.21550992406688
42
0
0
ELLIPSE
5
139
100
AcDbEntity
8
1
62
256
6
ByLayer
370
-1
48
1
60
0
100
AcDbEllipse
10
157.264805
20
12.028106
30
0
11
-2.85443725674398E-15
21
-2.66304582372577
31
0
210
0
220
0
230
1
40
0.996195
41
0
42
0.926082659473384
0
ELLIPSE
5
13A
100
AcDbEntity
8
1
62
256
6
ByLayer
370
-1
48
1
60
0
100
AcDbEllipse
10
157.223978
20
12.028106
30
0
11
-3.96591667926188E-15
21
-3.7
31
0
210
0
220
0
230
1
40
0.996195
41
0.295273262506626
42
1.34533623436805
0
ELLIPSE
5
13B
100
AcDbEntity
8
1
62
256
6
ByLayer
370
-1
48
1
60
0
100
AcDbEllipse
10
153.776824
20
9.000526
30
0
11
0.307524634367037
21
0.328524883772021
31
0
210
0
220
0
230
1
40
0.063742
41
-2.15470096795586
42
-1.5477987720853
0
ELLIPSE
5
13C
100
AcDbEntity
8
1
62
256
6
ByLayer
370
-1
48
1
60
0
100
AcDbEllipse
10
154.495504
20
8.020137
30
0
11
-0.297408541509673
21
0.337710170763466
31
0
210
0
220
0
230
1
40
0.065516
41
-2.27193125321725
42
-0.984929035630373
0
ELLIPSE
5
13D
100
AcDbEntity
8
1
62
256
6
ByLayer
370
-1
48
1
60
0
100
AcDbEllipse
10
160.988652
20
13.177561
30
0
11
-2.67967343193369E-16
21
-0.249999999999999
31
0
210
0
220
0
230
1
40
0.996195
41
-1.27552306428819
42
1.60570291183485
0
ELLIPSE
5
13E
100
AcDbEntity
8
1
62
256
6
ByLayer
370
-1
48
1
60
0
100
AcDbEllipse
10
154.215842
20
9.439338
30
0
11
3.16292402425394E-16
21
0.27
31
0
210
0
220
0
230
1
40
0.996195
41
-0.106990469564315
42
0.820304748434502
0
ELLIPSE
5
13F
100
AcDbEntity
8
1
62
256
6
ByLayer
370
-1
48
1
60
0
100
AcDbEllipse
10
153.776824
20
9.000526
30
0
11
-0.634800953606713
21
-0.0221675770556451
31
0
210
0
220
0
230
-1
40
0.002159
41
-2.27604469513892
42
-1.63254358690589
0
ELLIPSE
5
140
100
AcDbEntity
8
1
62
256
6
ByLayer
370
-1
48
1
60
0
100
AcDbEllipse
10
154.034147
20
8.583923
30
0
11
5.62297604311812E-16
21
0.48
31
0
210
0
220
0
230
1
40
0.996195
41
1.74759996643897
42
-2.42145532631406
0
ELLIPSE
5
141
100
AcDbEntity
8
1
62
256
6
ByLayer
370
-1
48
1
60
0
100
AcDbEllipse
10
160.865182
20
16.225703
30
0
11
-0.00700652876222954
21
0.199877233707854
31
0
210
0
220
0
230
1
40
0.087103
41
-1.5738496276308
42
-0.889768395836311
0
ELLIPSE
5
142
100
AcDbEntity
8
1
62
256
6
ByLayer
370
-1
48
1
60
0
100
AcDbEllipse
10
158.360319
20
7.999203
30
0
11
-0.00700652876222954
21
0.199877233707854
31
0
210
0
220
0
230
1
40
0.087103
41
-2.25793085942546
42
-1.5738496276308
0
ELLIPSE
5
143
100
AcDbEntity
8
1
62
256
6
ByLayer
370
-1
48
1
60
0
100
AcDbEllipse
10
161.156705
20
8.34677
30
0
11
2.9286333557907E-16
21
0.250000000000001
31
0
210
0
220
0
230
1
40
0.996195
41
-3.10668606854979
42
-1.53588974175495
0
ELLIPSE
5
144
100
AcDbEntity
8
1
62
256
6
ByLayer
370
-1
48
1
60
0
100
AcDbEllipse
10
160.891305
20
15.975855
30
0
11
-2.67967343193372E-16
21
-0.250000000000001
31
0
210
0
220
0
230
1
40
0.996195
41
1.60570291183485
42
-3.10668606854989
0
ELLIPSE
5
145
100
AcDbEntity
8
1
62
256
6
ByLayer
370
-1
48
1
60
0
100
AcDbEllipse
10
153.611085
20
16.094857
30
0
11
-0.844368656309532
21
1.40519245739335
31
0
210
0
220
0
230
-1
40
0.020508
41
1.58311883837701
42
2.22661994677787
0
ELLIPSE
5
146
100
AcDbEntity
8
1
62
256
6
ByLayer
370
-1
48
1
60
0
100
AcDbEllipse
10
154.813226
20
14.96956
30
0
11
0.307524634367037
21
0.328524883772021
31
0
210
0
220
0
230
1
40
0.063742
41
-2.15470096795618
42
-0.867698750368753
0
ELLIPSE
5
147
100
AcDbEntity
8
1
62
256
6
ByLayer
370
-1
48
1
60
0
100
AcDbEllipse
10
154.120235
20
14.223579
30
0
11
0.307524634367037
21
0.328524883772021
31
0
210
0
220
0
230
1
40
0.063742
41
-2.15470096795586
42
-0.867698750369331
0
ELLIPSE
5
148
100
AcDbEntity
8
1
62
256
6
ByLayer
370
-1
48
1
60
0
100
AcDbEllipse
10
153.89447
20
15.16162
30
0
11
-2.8940473064884E-16
21
-0.27
31
0
210
0
220
0
230
1
40
0.996195
41
-0.194895099806079
42
1.8355045966806
0
ELLIPSE
5
149
100
AcDbEntity
8
1
62
256
6
ByLayer
370
-1
48
1
60
0
100
AcDbEllipse
10
158.365137
20
8.249051
30
0
11
-4.03443321277421E-16
21
-0.376392246597646
31
0
210
0
220
0
230
1
40
0.996195
41
-2.84631939108323
42
0.0349065850398532
0
ELLIPSE
5
14A
100
AcDbEntity
8
1
62
256
6
ByLayer
370
-1
48
1
60
0
100
AcDbEllipse
10
161.147965
20
8.096922
30
0
11
0.00700652876222734
21
-0.199877233707854
31
0
210
0
220
0
230
1
40
0.087103
41
0.883661794164364
42
1.56774302595899
0
ELLIPSE
5
14B
100
AcDbEntity
8
1
62
256
6
ByLayer
370
-1
48
1
60
0
100
AcDbEllipse
10
157.223978
20
12.028106
30
0
11
4.33437736657022E-15
21
3.7
31
0
210
0
220
0
230
1
40
0.996195
41
-1.27552306428828
42
-0.225460092426851
0
ELLIPSE
5
14C
100
AcDbEntity
8
1
62
256
6
ByLayer
370
-1
48
1
60
0
100
AcDbEllipse
10
153.776819
20
9.000527
30
0
11
-0.0222111125290524
21
0.636045053793435
31
0
210
0
220
0
230
-1
40
0.061595
41
1.57294930614549
42
1.60954602729261
0
ELLIPSE
5
14D
100
AcDbEntity
8
1
62
256
6
ByLayer
370
-1
48
1
60
0
100
AcDbEllipse
10
154.136057
20
8.693626
30
0
11
-2.8940473064884E-16
21
-0.27
31
0
210
0
220
0
230
1
40
0.996195
41
-0.750491578357491
42
2.39110107523227
0
ELLIPSE
5
14E
100
AcDbEntity
8
1
62
256
6
ByLayer
370
-1
48
1
60
0
100
AcDbEllipse
10
160.98473
20
13.177561
30
0
11
-4.03443321277419E-16
21
-0.376392246597645
31
0
210
0
220
0
230
1
40
0.996195
41
-1.27552306428833
42
1.60570291183476
0
ELLIPSE
5
14F
100
AcDbEntity
8
1
62
256
6
ByLayer
370
-1
48
1
60
0
100
AcDbEllipse
10
152.918093
20
15.348877
30
0
11
-1.45591769511321
21
0.746910916154676
31
0
210
0
220
0
230
-1
40
0.010943
41
1.59212368534718
42
2.23562479422694
0
ELLIPSE
5
150
100
AcDbEntity
8
1
62
256
6
ByLayer
370
-1
48
1
60
0
100
AcDbEllipse
10
153.8082
20
9.000526
30
0
11
3.16292402425394E-16
21
0.27
31
0
210
0
220
0
230
1
40
0.996195
41
0.881327184779059
42
2.39110107523229
0
ELLIPSE
5
151
100
AcDbEntity
8
1
62
256
6
ByLayer
370
-1
48
1
60
0
100
AcDbEllipse
10
154.136057
20
8.693626
30
0
11
-5.14497298931271E-16
21
-0.48
31
0
210
0
220
0
230
1
40
0.996195
41
0.920472169598848
42
2.7754978497279
0
ELLIPSE
5
152
100
AcDbEntity
8
1
62
256
6
ByLayer
370
-1
48
1
60
0
100
AcDbEllipse
10
154.104681
20
8.693626
30
0
11
-0.307524634367036
21
-0.328524883772022
31
0
210
0
220
0
230
1
40
0.063742
41
0.986891685633931
42
2.27389390322069
0
ELLIPSE
5
153
100
AcDbEntity
8
1
62
256
6
ByLayer
370
-1
48
1
60
0
100
AcDbEllipse
10
152.918093
20
15.348877
30
0
11
0.0874689691203329
21
0.441417239628253
31
0
210
0
220
0
230
1
40
0.085506
41
-1.55385457642579
42
-0.91035346763266
0
ELLIPSE
5
154
100
AcDbEntity
8
1
62
256
6
ByLayer
370
-1
48
1
60
0
100
AcDbEllipse
10
153.642461
20
16.094857
30
0
11
3.16292402425394E-16
21
0.27
31
0
210
0
220
0
230
1
40
0.996195
41
-0.750491578357525
42
1.83550459668061
0
ELLIPSE
5
155
100
AcDbEntity
8
1
62
256
6
ByLayer
370
-1
48
1
60
0
100
AcDbEllipse
10
154.184466
20
9.439338
30
0
11
0.329692102348112
21
-0.306272946322855
31
0
210
0
220
0
230
1
40
0.05944
41
1.50689827555581
42
2.15039938434817
0
ELLIPSE
5
156
100
AcDbEntity
8
1
62
256
6
ByLayer
370
-1
48
1
60
0
100
AcDbEllipse
10
153.863094
20
15.16162
30
0
11
-0.62255584550013
21
0.58152514139724
31
0
210
0
220
0
230
-1
40
0.031444
41
0.960945087818012
42
1.60444619665252
0
ELLIPSE
5
157
100
AcDbEntity
8
1
62
256
6
ByLayer
370
-1
48
1
60
0
100
AcDbEllipse
10
154.151611
20
14.223579
30
0
11
-2.8940473064884E-16
21
-0.27
31
0
210
0
220
0
230
1
40
0.996195
41
-0.750491578357645
42
2.39110107523227
0
ELLIPSE
5
158
100
AcDbEntity
8
1
62
256
6
ByLayer
370
-1
48
1
60
0
100
AcDbEllipse
10
158.279154
20
8.488232
30
0
11
0.0584036501431938
21
-0.191282549256202
31
0
210
0
220
0
230
1
40
0.083384
41
1.54534251077282
42
2.22942374256886
0
ELLIPSE
5
159
100
AcDbEntity
8
1
62
256
6
ByLayer
370
-1
48
1
60
0
100
AcDbEllipse
10
157.220056
20
12.028106
30
0
11
3.16169255543626E-15
21
2.69894876836046
31
0
210
0
220
0
230
1
40
0.996195
41
0
42
6.28318530717959
0
ELLIPSE
5
15A
100
AcDbEntity
8
1
62
256
6
ByLayer
370
-1
48
1
60
0
100
AcDbEllipse
10
158.369059
20
8.249051
30
0
11
2.9286333557907E-16
21
0.250000000000001
31
0
210
0
220
0
230
1
40
0.996195
41
0.295273262506751
42
-3.10668606855002
0
ELLIPSE
5
15B
100
AcDbEntity
8
1
62
256
6
ByLayer
370
-1
48
1
60
0
100
AcDbEllipse
10
152.949469
20
15.348877
30
0
11
3.16292402425394E-16
21
0.27
31
0
210
0
220
0
230
1
40
0.996195
41
-0.194895099806092
42
2.39110107523228
0
ELLIPSE
5
15C
100
AcDbEntity
8
1
62
256
6
ByLayer
370
-1
48
1
60
0
100
AcDbEllipse
10
153.765637
20
8.988483
30
0
11
-0.329471318935308
21
0.306067845909912
31
0
210
0
220
0
230
1
40
0.05944
41
-1.63469437803413
42
-0.992087287820316
0
ELLIPSE
5
15D
100
AcDbEntity
8
1
62
256
6
ByLayer
370
-1
48
1
60
0
100
AcDbEllipse
10
161.055436
20
11.145064
30
0
11
-4.03443321277419E-16
21
-0.376392246597645
31
0
210
0
220
0
230
1
40
0.996195
41
1.60570291183476
42
-1.79625641922177
0
ELLIPSE
5
15E
100
AcDbEntity
8
1
62
256
6
ByLayer
370
-1
48
1
60
0
100
AcDbEllipse
10
153.541413
20
9.14771
30
0
11
1.44088761104902E-15
21
1.23
31
0
210
0
220
0
230
1
40
0.996195
41
-2.42145532631402
42
-2.2211204839909
0
ELLIPSE
5
15F
100
AcDbEntity
8
1
62
256
6
ByLayer
370
-1
48
1
60
0
100
AcDbEllipse
10
161.290824
20
11.153789
30
0
11
0.199879090035388
21
0.00695337088219774
31
0
210
0
220
0
230
1
40
0.003042
41
-1.48358275532896
42
-0.799501523532896
0
ELLIPSE
5
160
100
AcDbEntity
8
1
62
256
6
ByLayer
370
-1
48
1
60
0
100
AcDbEllipse
10
154.699325
20
8.239543
30
0
11
-0.358649081170716
21
0.271791899392534
31
0
210
0
220
0
230
1
40
0.052768
41
-2.28381636720067
42
-0.996814149613743
0
ELLIPSE
5
161
100
AcDbEntity
8
1
62
256
6
ByLayer
370
-1
48
1
60
0
100
AcDbEllipse
10
158.099737
20
15.878136
30
0
11
-4.03443321277421E-16
21
-0.376392246597646
31
0
210
0
220
0
230
1
40
0.996195
41
-3.10668606854994
42
-0.225460092426888
0
ELLIPSE
5
162
100
AcDbEntity
8
1
62
256
6
ByLayer
370
-1
48
1
60
0
100
AcDbEllipse
10
152.918093
20
15.348877
30
0
11
0.307524634367037
21
0.328524883772021
31
0
210
0
220
0
230
1
40
0.063742
41
-2.15470096795586
42
-1.51119985916239
0
ELLIPSE
5
163
100
AcDbEntity
8
1
62
256
6
ByLayer
370
-1
48
1
60
0
100
AcDbEllipse
10
154.136057
20
8.693626
30
0
11
-1.09330676022895E-15
21
-1.02
31
0
210
0
220
0
230
1
40
0.996195
41
0.920472169598896
42
3.03460218402553
0
ELLIPSE
5
164
100
AcDbEntity
8
1
62
256
6
ByLayer
370
-1
48
1
60
0
100
AcDbEllipse
10
154.184466
20
9.439338
30
0
11
-0.048235363267179
21
-0.447407364412437
31
0
210
0
220
0
230
1
40
0.086657
41
1.58013866027564
42
2.22363976906888
0
ELLIPSE
5
165
100
AcDbEntity
8
1
62
256
6
ByLayer
370
-1
48
1
60
0
100
AcDbEllipse
10
161.122771
20
15.98458
30
0
11
0.199879090035388
21
0.00695337088219774
31
0
210
0
220
0
230
1
40
0.003042
41
-1.48358275532896
42
-0.799501523536969
0
ELLIPSE
5
166
100
AcDbEntity
8
1
62
256
6
ByLayer
370
-1
48
1
60
0
100
AcDbEllipse
10
157.291347
20
12.028106
30
0
11
-2.71334196247261E-15
21
-2.53141103887668
31
0
210
0
220
0
230
1
40
0.996195
41
0
42
6.28318530717959
0
ELLIPSE
5
167
100
AcDbEntity
8
1
62
256
6
ByLayer
370
-1
48
1
60
0
100
AcDbEllipse
10
157.220056
20
12.028106
30
0
11
4.18631474685054E-15
21
3.57360775340235
31
0
210
0
220
0
230
1
40
0.996195
41
-2.84631939108317
42
-1.79625641922175
0
ELLIPSE
5
168
100
AcDbEntity
8
1
62
256
6
ByLayer
370
-1
48
1
60
0
100
AcDbEllipse
10
153.863094
20
15.16162
30
0
11
0.434438947393044
21
0.11731496489376
31
0
210
0
220
0
230
1
40
0.022802
41
-1.48655483674057
42
-0.843053727946858
0
ELLIPSE
5
169
100
AcDbEntity
8
1
62
256
6
ByLayer
370
-1
48
1
60
0
100
AcDbEllipse
10
153.611085
20
16.094857
30
0
11
0.434438947393044
21
0.11731496489376
31
0
210
0
220
0
230
1
40
0.022802
41
-2.13005594553443
42
-1.48655483674057
0
ELLIPSE
5
16A
100
AcDbEntity
8
1
62
256
6
ByLayer
370
-1
48
1
60
0
100
AcDbEllipse
10
161.059358
20
11.145064
30
0
11
2.92863335579068E-16
21
0.249999999999999
31
0
210
0
220
0
230
1
40
0.996195
41
-1.53588974175495
42
1.34533623436813
0
ELLIPSE
5
16B
100
AcDbEntity
8
1
62
256
6
ByLayer
370
-1
48
1
60
0
100
AcDbEllipse
10
154.844602
20
14.96956
30
0
11
-2.8940473064884E-16
21
-0.27
31
0
210
0
220
0
230
1
40
0.996195
41
-0.750491578357525
42
2.39110107523215
0
ELLIPSE
5
16C
100
AcDbEntity
8
1
62
256
6
ByLayer
370
-1
48
1
60
0
100
AcDbEllipse
10
157.220056
20
12.028106
30
0
11
4.18631474685054E-15
21
3.57360775340235
31
0
210
0
220
0
230
1
40
0.996195
41
-1.27552306428827
42
-0.225460092426859
0
ELLIPSE
5
16D
100
AcDbEntity
8
1
62
256
6
ByLayer
370
-1
48
1
60
0
100
AcDbEllipse
10
153.267272
20
8.45201
30
0
11
0.443036966151022
21
0.0788558597930302
31
0
210
0
220
0
230
1
40
0.015329
41
-2.12838464107897
42
-0.841382423491662
0
ELLIPSE
5
16E
100
AcDbEntity
8
1
62
256
6
ByLayer
370
-1
48
1
60
0
100
AcDbEllipse
10
160.799181
20
11.200953
30
0
11
0.19497528358439
21
-0.0445492849682989
31
0
210
0
220
0
230
1
40
0.019484
41
1.48572768328052
42
2.16980891507682
0
ELLIPSE
5
16F
100
AcDbEntity
8
1
62
256
6
ByLayer
370
-1
48
1
60
0
100
AcDbEllipse
10
153.765637
20
8.988483
30
0
11
0.329692102348112
21
-0.306272946322855
31
0
210
0
220
0
230
1
40
0.05944
41
1.47029936263283
42
2.15039938434846
0
ELLIPSE
5
170
100
AcDbEntity
8
1
62
256
6
ByLayer
370
-1
48
1
60
0
100
AcDbEllipse
10
154.034147
20
8.583923
30
0
11
1.1948824091626E-15
21
1.02
31
0
210
0
220
0
230
1
40
0.996195
41
1.74759996643893
42
-2.42145532631397
0
ELLIPSE
5
171
100
AcDbEntity
8
1
62
256
6
ByLayer
370
-1
48
1
60
0
100
AcDbEllipse
10
153.298648
20
8.45201
30
0
11
3.16292402425394E-16
21
0.27
31
0
210
0
220
0
230
1
40
0.996195
41
-1.39399268715084
42
1.74759996643895
0
ELLIPSE
5
172
100
AcDbEntity
8
1
62
256
6
ByLayer
370
-1
48
1
60
0
100
AcDbEllipse
10
157.409675
20
12.028106
30
0
11
-2.14373874554696E-15
21
-2
31
0
210
0
220
0
230
1
40
0.996195
41
-3.14159250506939
42
0
0
ELLIPSE
5
173
100
AcDbEntity
8
1
62
256
6
ByLayer
370
-1
48
1
60
0
100
AcDbEllipse
10
157.409675
20
12.028106
30
0
11
-2.14373874554696E-15
21
-2
31
0
210
0
220
0
230
1
40
0.996195
41
0
42
0.373555078115227
0
ELLIPSE
5
174
100
AcDbEntity
8
1
62
256
6
ByLayer
370
-1
48
1
60
0
100
AcDbEllipse
10
161.220118
20
13.186286
30
0
11
0.199879090035388
21
0.00695337088219774
31
0
210
0
220
0
230
1
40
0.003042
41
-1.48358275532896
42
-0.799501523532896
0
ELLIPSE
5
175
100
AcDbEntity
8
1
62
256
6
ByLayer
370
-1
48
1
60
0
100
AcDbEllipse
10
161.152783
20
8.34677
30
0
11
-4.03443321277421E-16
21
-0.376392246597646
31
0
210
0
220
0
230
1
40
0.996195
41
0.0349065850399337
42
1.60570291183476
0
ELLIPSE
5
176
100
AcDbEntity
8
1
62
256
6
ByLayer
370
-1
48
1
60
0
100
AcDbEllipse
10
161.388171
20
8.355495
30
0
11
0.199879090035388
21
0.00695337088219774
31
0
210
0
220
0
230
1
40
0.003042
41
-1.48358275532896
42
-0.799501523536969
0
ELLIPSE
5
177
100
AcDbEntity
8
1
62
256
6
ByLayer
370
-1
48
1
60
0
100
AcDbEllipse
10
160.887383
20
15.975855
30
0
11
-4.03443321277421E-16
21
-0.376392246597646
31
0
210
0
220
0
230
1
40
0.996195
41
1.60570291183476
42
-3.10668606854986
0
ELLIPSE
5
178
100
AcDbEntity
8
1
62
256
6
ByLayer
370
-1
48
1
60
0
100
AcDbEllipse
10
153.611085
20
16.094857
30
0
11
0.307524634367037
21
0.328524883772021
31
0
210
0
220
0
230
1
40
0.063742
41
-1.51119985916239
42
-0.867698750369066
0
ELLIPSE
5
179
100
AcDbEntity
8
1
62
256
6
ByLayer
370
-1
48
1
60
0
100
AcDbEllipse
10
153.863094
20
15.16162
30
0
11
0.0874689691203329
21
0.441417239628253
31
0
210
0
220
0
230
1
40
0.085506
41
-2.19735568521935
42
-1.55385457642579
0
ELLIPSE
5
17A
100
AcDbEntity
8
1
62
256
6
ByLayer
370
-1
48
1
60
0
100
AcDbEllipse
10
157.573036
20
12.028106
30
0
11
2.34290668463255E-15
21
2
31
0
210
0
220
0
230
1
40
0.996195
41
0.0349502378747942
42
1.57079654872776
0
ELLIPSE
5
17B
100
AcDbEntity
8
1
62
256
6
ByLayer
370
-1
48
1
60
0
100
AcDbEllipse
10
157.573036
20
12.028106
30
0
11
2.34290668463255E-15
21
2
31
0
210
0
220
0
230
1
40
0.996195
41
1.57079654872776
42
3.10055573146276
0
ELLIPSE
5
17C
100
AcDbEntity
8
1
62
256
6
ByLayer
370
-1
48
1
60
0
100
AcDbEllipse
10
160.73295
20
13.10481
30
0
11
0.191406102844321
21
0.0579974464433487
31
0
210
0
220
0
230
1
40
0.025362
41
-2.17136982970193
42
-1.48728859790635
0
ELLIPSE
5
17D
100
AcDbEntity
8
1
62
256
6
ByLayer
370
-1
48
1
60
0
100
AcDbEllipse
10
158.077536
20
16.127984
30
0
11
0.00700652876222734
21
-0.199877233707854
31
0
210
0
220
0
230
1
40
0.087103
41
1.56774302595899
42
2.25182425775453
0
ELLIPSE
5
17E
100
AcDbEntity
8
1
62
256
6
ByLayer
370
-1
48
1
60
0
100
AcDbEllipse
10
158.030552
20
15.634464
30
0
11
0.0448731734378583
21
0.194900996163734
31
0
210
0
220
0
230
1
40
0.08495
41
-2.23532153831611
42
-1.55124030652268
0
ELLIPSE
5
17F
100
AcDbEntity
8
1
62
256
6
ByLayer
370
-1
48
1
60
0
100
AcDbEllipse
10
158.103659
20
15.878136
30
0
11
-2.67967343193372E-16
21
-0.250000000000001
31
0
210
0
220
0
230
1
40
0.996195
41
-3.10668606855002
42
-0.225460092426749
0
ELLIPSE
5
180
100
AcDbEntity
8
1
62
256
6
ByLayer
370
-1
48
1
60
0
100
AcDbEllipse
10
153.541413
20
9.14771
30
0
11
2.07347241589981E-15
21
1.77
31
0
210
0
220
0
230
1
40
0.996195
41
-2.42145532631402
42
-2.22112048399091
0
ELLIPSE
5
181
100
AcDbEntity
8
1
62
256
6
ByLayer
370
-1
48
1
60
0
100
AcDbEllipse
10
162.352811
20
-5.955367
30
0
11
-0.268490851014242
21
-0.133838196796161
31
0
210
0
220
0
230
1
40
0.057547
41
-2.71898279512327
42
-2.41933940965484
0
ELLIPSE
5
182
100
AcDbEntity
8
1
62
256
6
ByLayer
370
-1
48
1
60
0
100
AcDbEllipse
10
162.393602
20
-6.144888
30
0
11
-0.299809708323348
21
0.0106835759495212
31
0
210
0
220
0
230
1
40
0.062343
41
-2.69024113425455
42
-2.3918373121997
0
ELLIPSE
5
183
100
AcDbEntity
8
1
62
256
6
ByLayer
370
-1
48
1
60
0
100
AcDbEllipse
10
163.023964
20
-6.147816
30
0
11
-0.399755420109682
21
0.0139858533143919
31
0
210
0
220
0
230
1
40
0.061011
41
0.451313181498448
42
1.57293086821336
0
ELLIPSE
5
184
100
AcDbEntity
8
1
62
256
6
ByLayer
370
-1
48
1
60
0
100
AcDbEllipse
10
162.555563
20
-4.287616
30
0
11
-0.399449767440437
21
-0.0209733948558727
31
0
210
0
220
0
230
1
40
0.060965
41
0.898706284206861
42
1.56759533351589
0
ELLIPSE
5
185
100
AcDbEntity
8
1
62
256
6
ByLayer
370
-1
48
1
60
0
100
AcDbEllipse
10
162.798138
20
-0.326159
30
0
11
0.232371016348789
21
0.0922155668042582
31
0
210
0
220
0
230
1
40
0.214605
41
-0.321965429427543
42
-0.103509950205467
0
ELLIPSE
5
186
100
AcDbEntity
8
1
62
256
6
ByLayer
370
-1
48
1
60
0
100
AcDbEllipse
10
162.916802
20
-5.655766
30
0
11
-0.357751978744743
21
-0.178923228520561
31
0
210
0
220
0
230
1
40
0.054621
41
0.422535841559431
42
1.54348542731364
0
ELLIPSE
5
187
100
AcDbEntity
8
1
62
256
6
ByLayer
370
-1
48
1
60
0
100
AcDbEllipse
10
162.811622
20
-0.601795
30
0
11
0.249656104650273
21
0.0131083717849196
31
0
210
0
220
0
230
1
40
0.060965
41
0.118972054360612
42
0.328858474263908
0
ELLIPSE
5
188
100
AcDbEntity
8
1
62
256
6
ByLayer
370
-1
48
1
60
0
100
AcDbEllipse
10
166.027064
20
-4.130442
30
0
11
3.27626526203155
21
0
31
0
210
0
220
0
230
1
40
0.998135
41
-3.08923277602995
42
-2.67858589191473
0
ELLIPSE
5
189
100
AcDbEntity
8
1
62
256
6
ByLayer
370
-1
48
1
60
0
100
AcDbEllipse
10
162.574515
20
-8.395209
30
0
11
-0.183581930353552
21
0.355383841568048
31
0
210
0
220
0
230
1
40
0.02806
41
1.30836341609492
42
1.62506211756226
0
ELLIPSE
5
18A
100
AcDbEntity
8
1
62
256
6
ByLayer
370
-1
48
1
60
0
100
AcDbEllipse
10
162.240293
20
-7.775043
30
0
11
-0.927151437670361
21
9.37015452885428E-16
31
0
210
0
220
0
230
1
40
0.998135
41
2.04837645952057
42
3.10668606854992
0
ELLIPSE
5
18B
100
AcDbEntity
8
1
62
256
6
ByLayer
370
-1
48
1
60
0
100
AcDbEllipse
10
166.027064
20
-4.356321
30
0
11
2.50000000000001
21
0
31
0
210
0
220
0
230
1
40
0.998135
41
-3.08923277602995
42
-2.67858589191473
0
ELLIPSE
5
18C
100
AcDbEntity
8
1
62
256
6
ByLayer
370
-1
48
1
60
0
100
AcDbEllipse
10
161.631018
20
-0.571577
30
0
11
-0.72715143767036
21
7.34887641868954E-16
31
0
210
0
220
0
230
1
40
0.998135
41
-3.08923277602994
42
-2.66401252086407
0
ELLIPSE
5
18D
100
AcDbEntity
8
1
62
256
6
ByLayer
370
-1
48
1
60
0
100
AcDbEllipse
10
162.357173
20
-0.509172
30
0
11
-0.399449767440437
21
-0.0209733948558727
31
0
210
0
220
0
230
1
40
0.060965
41
0.898699902098533
42
1.56759533351582
0
ELLIPSE
5
18E
100
AcDbEntity
8
1
62
256
6
ByLayer
370
-1
48
1
60
0
100
AcDbEllipse
10
162.000853
20
-6.22669
30
0
11
1.72694386744699
21
0
31
0
210
0
220
0
230
1
40
0.998135
41
-0.0349065850398769
42
0.463006761675082
0
ELLIPSE
5
18F
100
AcDbEntity
8
1
62
256
6
ByLayer
370
-1
48
1
60
0
100
AcDbEllipse
10
163.309261
20
-9.004791
30
0
11
0.600000000000001
21
0
31
0
210
0
220
0
230
1
40
0.998135
41
-1.22173047639601
42
-0.0349065850399319
0
ELLIPSE
5
190
100
AcDbEntity
8
1
62
256
6
ByLayer
370
-1
48
1
60
0
100
AcDbEllipse
10
162.810707
20
-0.398304
30
0
11
0.249757674640379
21
-0.0110047243595889
31
0
210
0
220
0
230
1
40
0.655613
41
0.157545782693573
42
0.42664478463475
0
ELLIPSE
5
191
100
AcDbEntity
8
1
62
256
6
ByLayer
370
-1
48
1
60
0
100
AcDbEllipse
10
166.027064
20
-4.130442
30
0
11
3.47626526203155
21
0
31
0
210
0
220
0
230
1
40
0.998135
41
-3.08923277602994
42
-2.67858589191472
0
ELLIPSE
5
192
100
AcDbEntity
8
1
62
256
6
ByLayer
370
-1
48
1
60
0
100
AcDbEllipse
10
162.276808
20
-0.213559
30
0
11
-0.35510361624701
21
-0.184123387238818
31
0
210
0
220
0
230
1
40
0.054218
41
1.01590071817226
42
1.54269146730244
0
ELLIPSE
5
193
100
AcDbEntity
8
1
62
256
6
ByLayer
370
-1
48
1
60
0
100
AcDbEllipse
10
157.34196
20
-4.273057
30
0
11
2
21
0
31
0
210
0
220
0
230
1
40
0.998135
41
1.17328675057741
42
2.52898218377694
0
ELLIPSE
5
194
100
AcDbEntity
8
1
62
256
6
ByLayer
370
-1
48
1
60
0
100
AcDbEllipse
10
162.312176
20
1.271049
30
0
11
0.239623662653232
21
0.071277628304048
31
0
210
0
220
0
230
1
40
0.547256
41
0.120870017596779
42
0.365129886985566
0
ELLIPSE
5
195
100
AcDbEntity
8
1
62
256
6
ByLayer
370
-1
48
1
60
0
100
AcDbEllipse
10
162.225844
20
1.637036
30
0
11
0.2460274908636
21
0.0443900184654274
31
0
210
0
220
0
230
1
40
0.866485
41
0.20356097385645
42
0.614143464931453
0
ELLIPSE
5
196
100
AcDbEntity
8
1
62
256
6
ByLayer
370
-1
48
1
60
0
100
AcDbEllipse
10
162.000853
20
-6.362454
30
0
11
1.99999999999999
21
0
31
0
210
0
220
0
230
1
40
0.998135
41
-0.0349065850398732
42
0.463006761675076
0
ELLIPSE
5
197
100
AcDbEntity
8
1
62
256
6
ByLayer
370
-1
48
1
60
0
100
AcDbEllipse
10
163.538273
20
-8.867489
30
0
11
-0.24448045969943
21
-0.0522427490198906
31
0
210
0
220
0
230
1
40
0.883838
41
2.2668632702966
42
2.87385129071564
0
ELLIPSE
5
198
100
AcDbEntity
8
1
62
256
6
ByLayer
370
-1
48
1
60
0
100
AcDbEllipse
10
163.323962
20
-5.569287
30
0
11
-0.223594986715464
21
-0.111827017825351
31
0
210
0
220
0
230
1
40
0.054621
41
-3.04673050543175
42
-2.83684408552913
0
ELLIPSE
5
199
100
AcDbEntity
8
1
62
256
6
ByLayer
370
-1
48
1
60
0
100
AcDbEllipse
10
163.010012
20
-4.38024
30
0
11
0.249656104650273
21
0.0131083717849196
31
0
210
0
220
0
230
1
40
0.060965
41
0.118972054360764
42
0.328858474263791
0
ELLIPSE
5
19A
100
AcDbEntity
8
1
62
256
6
ByLayer
370
-1
48
1
60
0
100
AcDbEllipse
10
162.967002
20
-7.775953
30
0
11
-0.399755420109682
21
0.0139858533143919
31
0
210
0
220
0
230
1
40
0.061011
41
0.446624481370571
42
1.57293086821329
0
ELLIPSE
5
19B
100
AcDbEntity
8
1
62
256
6
ByLayer
370
-1
48
1
60
0
100
AcDbEllipse
10
162.000853
20
-6.223575
30
0
11
-1.71515057494323
21
1.7333981563846E-15
31
0
210
0
220
0
230
1
40
0.998135
41
3.10668606854993
42
-2.67858589191471
0
ELLIPSE
5
19C
100
AcDbEntity
8
1
62
256
6
ByLayer
370
-1
48
1
60
0
100
AcDbEllipse
10
163.333867
20
-9.21847
30
0
11
-0.0172185406249146
21
0.249406338850375
31
0
210
0
220
0
230
1
40
0.838732
41
-2.80746410668765
42
-2.39688161561281
0
ELLIPSE
5
19D
100
AcDbEntity
8
1
62
256
6
ByLayer
370
-1
48
1
60
0
100
AcDbEllipse
10
162.000853
20
-6.136574
30
0
11
-1.02373473796844
21
1.03462630823541E-15
31
0
210
0
220
0
230
1
40
0.998135
41
3.10668606854992
42
-2.67858589191472
0
ELLIPSE
5
19E
100
AcDbEntity
8
1
62
256
6
ByLayer
370
-1
48
1
60
0
100
AcDbEllipse
10
157.34196
20
-4.155578
30
0
11
2
21
0
31
0
210
0
220
0
230
1
40
0.998135
41
1.30621520995155
42
2.48067996662589
0
ELLIPSE
5
19F
100
AcDbEntity
8
1
62
256
6
ByLayer
370
-1
48
1
60
0
100
AcDbEllipse
10
162.81981
20
-0.487459
30
0
11
0.500000000000012
21
0
31
0
210
0
220
0
230
1
40
0.998135
41
0.0523598775598304
42
0.349065850398892
0
ELLIPSE
5
1A0
100
AcDbEntity
8
1
62
256
6
ByLayer
370
-1
48
1
60
0
100
AcDbEllipse
10
163.421797
20
-7.908201
30
0
11
-0.249847137568551
21
0.00874115832149493
31
0
210
0
220
0
230
1
40
0.061011
41
-3.01728506453176
42
-2.80739864462845
0
ELLIPSE
5
1A1
100
AcDbEntity
8
1
62
256
6
ByLayer
370
-1
48
1
60
0
100
AcDbEllipse
10
161.631018
20
-0.571577
30
0
11
-0.92715143767036
21
9.37015452885427E-16
31
0
210
0
220
0
230
1
40
0.998135
41
-3.08923277602995
42
-2.6640125208641
0
ELLIPSE
5
1A2
100
AcDbEntity
8
1
62
256
6
ByLayer
370
-1
48
1
60
0
100
AcDbEllipse
10
162.335095
20
-7.77314
30
0
11
-0.299805156867399
21
0.0108105465039684
31
0
210
0
220
0
230
1
40
0.063239
41
-2.69490446457383
42
-2.40517635394129
0
ELLIPSE
5
1A3
100
AcDbEntity
8
1
62
256
6
ByLayer
370
-1
48
1
60
0
100
AcDbEllipse
10
166.027064
20
-4.217442
30
0
11
2.78484942505676
21
0
31
0
210
0
220
0
230
1
40
0.998135
41
-3.08923277602994
42
-2.67858589191473
0
ELLIPSE
5
1A4
100
AcDbEntity
8
1
62
256
6
ByLayer
370
-1
48
1
60
0
100
AcDbEllipse
10
162.000853
20
-6.136574
30
0
11
-1.22373473796845
21
1.2367541192519E-15
31
0
210
0
220
0
230
1
40
0.998135
41
3.10668606854992
42
-2.67858589191473
0
ELLIPSE
5
1A5
100
AcDbEntity
8
1
62
256
6
ByLayer
370
-1
48
1
60
0
100
AcDbEllipse
10
162.940607
20
-9.278102
30
0
11
-0.0604397018633534
21
0.242584093540094
31
0
210
0
220
0
230
1
40
0.510901
41
-2.93232891759482
42
-2.68806904820594
0
ELLIPSE
5
1A6
100
AcDbEntity
8
1
62
256
6
ByLayer
370
-1
48
1
60
0
100
AcDbEllipse
10
163.478759
20
-6.280063
30
0
11
-0.249847137568551
21
0.00874115832149493
31
0
210
0
220
0
230
1
40
0.061011
41
-3.01728506453176
42
-2.80739864462859
0
ELLIPSE
5
1A7
100
AcDbEntity
8
1
62
256
6
ByLayer
370
-1
48
1
60
0
100
AcDbEllipse
10
162.240293
20
-7.775043
30
0
11
-0.72715143767036
21
7.34887641868954E-16
31
0
210
0
220
0
230
1
40
0.998135
41
2.04837645952059
42
3.10668606854993
0
ELLIPSE
5
1A8
100
AcDbEntity
8
1
62
256
6
ByLayer
370
-1
48
1
60
0
100
AcDbEllipse
10
161.964759
20
1.565557
30
0
11
0.600000000000001
21
0
31
0
210
0
220
0
230
1
40
0.998135
41
0.349065850398942
42
1.24044494092859
0
ELLIPSE
5
1A9
100
AcDbEntity
8
1
62
256
6
ByLayer
370
-1
48
1
60
0
100
AcDbEllipse
10
162.722394
20
-0.108036
30
0
11
0.239623662653232
21
0.071277628304048
31
0
210
0
220
0
230
1
40
0.547256
41
0.120870017596945
42
0.365129886985716
0
ELLIPSE
5
1AA
100
AcDbEntity
8
1
62
256
6
ByLayer
370
-1
48
1
60
0
100
AcDbEllipse
10
166.027064
20
-4.220558
30
0
11
-2.773056132553
21
2.80255882949372E-15
31
0
210
0
220
0
230
1
40
0.998135
41
0.0523598775598451
42
0.46300676167507
0
POINT
5
41
100
AcDbEntity
8
81
62
256
6
ByLayer
370
-1
48
1
60
0
100
AcDbPoint
10
164
20
0
30
0
39
0
210
0
220
0
230
1
50
360
0
POINT
5
43
100
AcDbEntity
8
80
62
256
6
ByLayer
370
-1
48
1
60
0
100
AcDbPoint
10
0
20
0
30
0
39
0
210
0
220
0
230
1
50
360
0
SPLINE
5
1AB
100
AcDbEntity
8
1
62
256
6
ByLayer
370
-1
48
1
60
0
100
AcDbSpline
70
4
71
3
72
21
73
17
40
0
40
0
40
0
40
0
40
0.0358131454747573
40
0.110580332528464
40
0.185323684373501
40
0.25996502552943
40
0.334453740995453
40
0.408768254454334
40
0.482917891103192
40
0.55693906243746
40
0.630887842333979
40
0.704825165528379
40
0.778802272338511
40
0.852881566471575
40
0.92711021374505
40
1
40
1
40
1
40
1
41
1
10
157.30451928824
20
14.0142854540462
30
0
41
1
10
157.371106239668
20
14.0226905061459
30
0
41
1
10
157.575665936984
20
14.0355960634899
30
0
41
1
10
157.919163362381
20
13.9743424224152
30
0
41
1
10
158.311165562658
20
13.8270201159902
30
0
41
1
10
158.66387077106
20
13.5970848511749
30
0
41
1
10
158.961146282204
20
13.299030838133
30
0
41
1
10
159.19002593405
20
12.9450218982001
30
0
41
1
10
159.340526299866
20
12.5510964880549
30
0
41
1
10
159.40624866805
20
12.1345673437919
30
0
41
1
10
159.384521605332
20
11.7137127111064
30
0
41
1
10
159.276515308422
20
11.306911447936
30
0
41
1
10
159.086976805917
20
10.9317233222707
30
0
41
1
10
158.824583400466
20
10.6047066481588
30
0
41
1
10
158.501436791698
20
10.3405246836858
30
0
41
1
10
158.25853199638
20
10.2157133101757
30
0
41
1
10
158.130250588862
20
10.1655050353918
30
0
0
SPLINE
5
1AC
100
AcDbEntity
8
1
62
256
6
ByLayer
370
-1
48
1
60
0
100
AcDbSpline
70
4
71
3
72
16
73
12
40
0
40
0
40
0
40
0
40
0.13914118349126
40
0.277942737065576
40
0.417276517554629
40
0.557432614064016
40
0.645891854086689
40
0.734478771801884
40
0.822806713199304
40
0.911652716581067
40
1
40
1
40
1
40
1
41
1
10
28.5
20
-23.25
30
0
41
1
10
29.4955647465445
20
-23.2453184461926
30
0
41
1
10
31.4703229313791
20
-23.1296246934859
30
0
41
1
10
34.4054698767873
20
-22.6144142526159
30
0
41
1
10
37.2812219996899
20
-21.8234467395205
30
0
41
1
10
39.7440465070056
20
-20.921073308243
30
0
41
1
10
41.8254608396582
20
-20.0394837070936
30
0
41
1
10
43.5224245420502
20
-19.2086591206094
30
0
41
1
10
45.2554866835232
20
-18.436057886051
30
0
41
1
10
47.1104194851627
20
-18.0019413689155
30
0
41
1
10
48.364921698233
20
-17.9006141725748
30
0
41
1
10
49
20
-17.9000000000001
30
0
0
SPLINE
5
1AD
100
AcDbEntity
8
1
62
256
6
ByLayer
370
-1
48
1
60
0
100
AcDbSpline
70
4
71
3
72
18
73
14
40
0
40
0
40
0
40
0
40
0.0802803566873493
40
0.161055982690166
40
0.241496576221907
40
0.321914747389392
40
0.402385577330494
40
0.48268766717831
40
0.562746736803
40
0.672373050358996
40
0.781561651509606
40
0.890596914963913
40
1
40
1
40
1
40
1
41
1
10
49
20
17.8999999999999
30
0
41
1
10
48.4237363180763
20
17.9004191225723
30
0
41
1
10
47.2814365748622
20
17.9827803871267
30
0
41
1
10
45.5913978828414
20
18.3483898915127
30
0
41
1
10
43.9792036215383
20
18.9660389248739
30
0
41
1
10
42.4504057288352
20
19.7543654387823
30
0
41
1
10
40.8762328063149
20
20.4445528783478
30
0
41
1
10
39.2863468059031
20
21.0898330433639
30
0
41
1
10
37.4744485745221
20
21.7366419922835
30
0
41
1
10
35.4326592031827
20
22.3458691262561
30
0
41
1
10
33.1508724147718
20
22.8524234756117
30
0
41
1
10
30.8352310316383
20
23.1753832165668
30
0
41
1
10
29.2816747026604
20
23.2478341709929
30
0
41
1
10
28.5
20
23.25
30
0
0
SPLINE
5
1AE
100
AcDbEntity
8
SK1
62
256
6
ByLayer
370
-1
48
1
60
0
100
AcDbSpline
70
4
71
2
72
6
73
3
40
0
40
0
40
0
40
1
40
1
40
1
41
1
10
-2.194957664024
20
22.0202259035338
30
0
41
1
10
-2.59747883201197
20
22.0101131705342
30
0
41
1
10
-2.99999999999997
20
22.0000004375346
30
0
0
SPLINE
5
1AF
100
AcDbEntity
8
SK1
62
256
6
ByLayer
370
-1
48
1
60
0
100
AcDbSpline
70
4
71
2
72
6
73
3
40
0
40
0
40
0
40
1
40
1
40
1
41
1
10
-3.00000000000003
20
-22.0000004290441
30
0
41
1
10
-2.59747883201203
20
-22.0101131620398
30
0
41
1
10
-2.19495766402406
20
-22.0202258950355
30
0
0
SPLINE
5
1B0
100
AcDbEntity
8
SK1
62
256
6
ByLayer
370
-1
48
1
60
0
100
AcDbSpline
70
4
71
2
72
6
73
3
40
0
40
0
40
0
40
1
40
1
40
1
41
1
10
-2.99999999999997
20
22.0000004375346
30
0
41
1
10
-19.7502365839533
20
21.5791761834949
30
0
41
1
10
-36.5004731679066
20
21.1583519294553
30
0
0
SPLINE
5
1B1
100
AcDbEntity
8
SK1
62
256
6
ByLayer
370
-1
48
1
60
0
100
AcDbSpline
70
4
71
2
72
6
73
3
40
0
40
0
40
0
40
1
40
1
40
1
41
1
10
-36.5004731679067
20
-21.1583519212895
30
0
41
1
10
-19.7502365839533
20
-21.5791761751668
30
0
41
1
10
-3.00000000000003
20
-22.0000004290441
30
0
0
SPLINE
5
1B2
100
AcDbEntity
8
SK1
62
256
6
ByLayer
370
-1
48
1
60
0
100
AcDbSpline
70
4
71
3
72
11
73
7
40
0
40
0
40
0
40
0
40
0.249492416334384
40
0.502620150888757
40
0.754490317554652
40
1
40
1
40
1
40
1
41
1
10
-1.99999999999997
20
21.8251283290969
30
0
41
1
10
-2.02566317500015
20
21.8248652661896
30
0
41
1
10
-2.07419248796035
20
21.8338651331165
30
0
41
1
10
-2.1456847237913
20
21.8776777449266
30
0
41
1
10
-2.19087628909409
20
21.9471174735301
30
0
41
1
10
-2.20015150570092
20
21.9940928028999
30
0
41
1
10
-2.19999999999999
20
22.0188171515827
30
0
0
SPLINE
5
1B3
100
AcDbEntity
8
SK1
62
256
6
ByLayer
370
-1
48
1
60
0
100
AcDbSpline
70
4
71
3
72
11
73
7
40
0
40
0
40
0
40
0
40
0.245509649063842
40
0.497380451392467
40
0.750508528879147
40
1
40
1
40
1
40
1
41
1
10
-2.20000000000005
20
-22.018818627264
30
0
41
1
10
-2.2001514801947
20
-21.9940939827203
30
0
41
1
10
-2.1908762502039
20
-21.9471180993486
30
0
41
1
10
-2.1456847418911
20
-21.8776780717056
30
0
41
1
10
-2.0741926967537
20
-21.8338652086853
30
0
41
1
10
-2.02566322896234
20
-21.8248652923094
30
0
41
1
10
-2.00000000000003
20
-21.8251283225343
30
0
0
SPLINE
5
1B4
100
AcDbEntity
8
SK1
62
256
6
ByLayer
370
-1
48
1
60
0
100
AcDbSpline
70
4
71
2
72
6
73
3
40
0
40
0
40
0
40
1
40
1
40
1
41
1
10
-36.5004321682704
20
21.1581061531923
30
0
41
1
10
-37.250216097561
20
20.6997323883078
30
0
41
1
10
-38
20
20.2413583528791
30
0
0
SPLINE
5
1B5
100
AcDbEntity
8
SK1
62
256
6
ByLayer
370
-1
48
1
60
0
100
AcDbSpline
70
4
71
2
72
6
73
3
40
0
40
0
40
0
40
1
40
1
40
1
41
1
10
-38
20
-20.2397162883158
30
0
41
1
10
-37.2502068935607
20
-20.6982812567357
30
0
41
1
10
-36.5004138730271
20
-21.1568446673337
30
0
0
SPLINE
5
1B6
100
AcDbEntity
8
SK1
62
256
6
ByLayer
370
-1
48
1
60
0
100
AcDbSpline
70
4
71
2
72
6
73
3
40
0
40
0
40
0
40
1
40
1
40
1
41
1
10
-2.00000000000003
20
-21.7816074020814
30
0
41
1
10
-1.38101983309073
20
-21.7816074020814
30
0
41
1
10
-0.762039666181437
20
-21.7816074020814
30
0
0
SPLINE
5
1B7
100
AcDbEntity
8
SK1
62
256
6
ByLayer
370
-1
48
1
60
0
100
AcDbSpline
70
4
71
2
72
6
73
3
40
0
40
0
40
0
40
1
40
1
40
1
41
1
10
-0.750660372213275
20
21.7816065919818
30
0
41
1
10
-1.37533018610662
20
21.7816065919818
30
0
41
1
10
-1.99999999999997
20
21.7816065919818
30
0
0
SPLINE
5
1B8
100
AcDbEntity
8
1
62
256
6
ByLayer
370
-1
48
1
60
0
100
AcDbSpline
70
4
71
3
72
40
73
36
40
0
40
0
40
0
40
0
40
0.0018892821982697
40
0.0018892821982697
40
0.073182904898394
40
0.073182904898394
40
0.108829716248456
40
0.108829716248456
40
0.144476527598518
40
0.144476527598518
40
0.215770150298642
40
0.215770150298642
40
0.287063772998766
40
0.287063772998766
40
0.35835739569889
40
0.35835739569889
40
0.429651018399013
40
0.429651018399013
40
0.500944641099137
40
0.500944641099137
40
0.536591452449199
40
0.536591452449199
40
0.572238263799261
40
0.572238263799261
40
0.714825509199507
40
0.714825509199507
40
0.78611913189963
40
0.78611913189963
40
0.857412754599754
40
0.857412754599754
40
0.928706377299877
40
0.928706377299877
40
0.964353188649939
40
0.964353188649939
40
1
40
1
40
1
40
1
41
1
10
115.975366098213
20
-14.0054553087603
30
0
41
1
10
115.932078038559
20
-14.0151133200934
30
0
41
1
10
115.888789582494
20
-14.0247520193522
30
0
41
1
10
114.211959242986
20
-14.3973655813865
30
0
41
1
10
112.577902288573
20
-14.7326593000197
30
0
41
1
10
110.124192898441
20
-15.1903033986706
30
0
41
1
10
109.305927932303
20
-15.335309731007
30
0
41
1
10
107.670917501548
20
-15.6095009091565
30
0
41
1
10
106.853818838081
20
-15.7387594714044
30
0
41
1
10
104.403244063373
20
-16.1025495110857
30
0
41
1
10
102.770427871897
20
-16.3132639623289
30
0
41
1
10
99.5048190462316
20
-16.6683079596429
30
0
41
1
10
97.8721375814635
20
-16.8121164120441
30
0
41
1
10
94.6037930393998
20
-17.0327852218489
30
0
41
1
10
92.9669939349621
20
-17.1097583622777
30
0
41
1
10
89.6987021554058
20
-17.1938092679247
30
0
41
1
10
88.0665958864289
20
-17.199611715245
30
0
41
1
10
84.8027186425234
20
-17.1408264631322
30
0
41
1
10
83.170899491488
20
-17.0762285739383
30
0
41
1
10
80.7215076709826
20
-16.9275493788563
30
0
41
1
10
79.904772012366
20
-16.8693822783815
30
0
41
1
10
78.2704478007269
20
-16.7361888361992
30
0
41
1
10
77.4525516511686
20
-16.6611273045564
30
0
41
1
10
73.3641991126829
20
-16.2442687318063
30
0
41
1
10
70.101003487415
20
-15.7781874088206
30
0
41
1
10
65.2034061277926
20
-14.888229544148
30
0
41
1
10
63.5698504928743
20
-14.5593208621935
30
0
41
1
10
60.3012073516243
20
-13.8427493078708
30
0
41
1
10
58.6687220051512
20
-13.4566046262343
30
0
41
1
10
55.4058271497182
20
-12.6288159873467
30
0
41
1
10
53.7750639609481
20
-12.1886991657999
30
0
41
1
10
51.3283924218163
20
-11.4898502862937
30
0
41
1
10
50.5126457010919
20
-11.2509313290362
30
0
41
1
10
48.88035154402
20
-10.7621761647332
30
0
41
1
10
48.0638203348884
20
-10.512282003153
30
0
41
1
10
47.2468670058833
20
-10.2563147421658
30
0
0
SPLINE
5
1B9
100
AcDbEntity
8
1
62
256
6
ByLayer
370
-1
48
1
60
0
100
AcDbSpline
70
4
71
3
72
10
73
6
40
0
40
0
40
0
40
0
40
0.5
40
0.5
40
1
40
1
40
1
40
1
41
1
10
47.0599770175348
20
-10.188930311522
30
0
41
1
10
46.264614951035
20
-9.73923652819119
30
0
41
1
10
45.4715700365966
20
-9.2822978747644
30
0
41
1
10
43.8952252001343
20
-8.34390837601333
30
0
41
1
10
43.1118467267928
20
-7.86261026660347
30
0
41
1
10
42.3368638379268
20
-7.36197520440817
30
0
0
SPLINE
5
1BA
100
AcDbEntity
8
1
62
256
6
ByLayer
370
-1
48
1
60
0
100
AcDbSpline
70
4
71
3
72
16
73
12
40
0
40
0
40
0
40
0
40
0.250000000000002
40
0.250000000000002
40
0.374999999999997
40
0.374999999999997
40
0.499999999999992
40
0.499999999999992
40
0.749999999999996
40
0.749999999999996
40
1
40
1
40
1
40
1
41
1
10
126.618618140433
20
11.5523263381487
30
0
41
1
10
126.568544459267
20
11.6405584431224
30
0
41
1
10
126.538781501229
20
11.7371322912657
30
0
41
1
10
126.520734777976
20
11.8910490375189
30
0
41
1
10
126.519379638879
20
11.942513401669
30
0
41
1
10
126.524899383143
20
12.0457426913142
30
0
41
1
10
126.531848837
20
12.0977968163852
30
0
41
1
10
126.564134278254
20
12.2524172117364
30
0
41
1
10
126.600240011307
20
12.3519155850309
30
0
41
1
10
126.696840342117
20
12.5420766066073
30
0
41
1
10
126.755989483209
20
12.6302389931882
30
0
41
1
10
126.825205994832
20
12.7119855276507
30
0
0
SPLINE
5
1BB
100
AcDbEntity
8
1
62
256
6
ByLayer
370
-1
48
1
60
0
100
AcDbSpline
70
4
71
3
72
93
73
89
40
-0.0312500000000114
40
-0.0312500000000114
40
0
40
0
40
0.0312499999999955
40
0.0312499999999955
40
0.0468749999999932
40
0.0468749999999932
40
0.062499999999991
40
0.062499999999991
40
0.0937499999999842
40
0.0937499999999842
40
0.124999999999977
40
0.124999999999977
40
0.15624999999997
40
0.15624999999997
40
0.171874999999964
40
0.171874999999964
40
0.187499999999958
40
0.187499999999958
40
0.218749999999946
40
0.218749999999946
40
0.249999999999933
40
0.249999999999933
40
0.265624999999927
40
0.265624999999927
40
0.281249999999921
40
0.281249999999921
40
0.312499999999909
40
0.312499999999909
40
0.328124999999906
40
0.328124999999906
40
0.343749999999903
40
0.343749999999903
40
0.374999999999903
40
0.374999999999903
40
0.406249999999903
40
0.406249999999903
40
0.421874999999904
40
0.421874999999904
40
0.437499999999904
40
0.437499999999904
40
0.468749999999905
40
0.468749999999905
40
0.484374999999905
40
0.484374999999905
40
0.499999999999905
40
0.499999999999905
40
0.531249999999906
40
0.531249999999906
40
0.562499999999906
40
0.562499999999906
40
0.578124999999907
40
0.578124999999907
40
0.593749999999907
40
0.593749999999907
40
0.624999999999904
40
0.624999999999904
40
0.640624999999905
40
0.640624999999905
40
0.656249999999906
40
0.656249999999906
40
0.687499999999908
40
0.687499999999908
40
0.71874999999991
40
0.71874999999991
40
0.749999999999912
40
0.749999999999912
40
0.765624999999917
40
0.765624999999917
40
0.781249999999921
40
0.796874999999926
40
0.796874999999926
40
0.81249999999993
40
0.81249999999993
40
0.843749999999939
40
0.843749999999939
40
0.859374999999944
40
0.859374999999944
40
0.874999999999949
40
0.874999999999949
40
0.906249999999963
40
0.906249999999963
40
0.937499999999977
40
0.937499999999977
40
0.953124999999983
40
0.953124999999983
40
0.968749999999989
40
0.968749999999989
40
1
40
1
40
1.03125
40
1.03125
41
1
10
155.256983882577
20
-3.29464523099432
30
0
41
1
10
155.244374952207
20
-3.05091813407151
30
0
41
1
10
155.249795735692
20
-2.9301827873077
30
0
41
1
10
155.275069511073
20
-2.75074121908671
30
0
41
1
10
155.286371223537
20
-2.69120653255169
30
0
41
1
10
155.314899008424
20
-2.57271816313795
30
0
41
1
10
155.332234307127
20
-2.51352301115753
30
0
41
1
10
155.392237417834
20
-2.34050576716899
30
0
41
1
10
155.442971969814
20
-2.23019586746042
30
0
41
1
10
155.565907927683
20
-2.01972057049323
30
0
41
1
10
155.639004296251
20
-1.91883166860191
30
0
41
1
10
155.801325700027
20
-1.73614033512922
30
0
41
1
10
155.8909201941
20
-1.6532994829563
30
0
41
1
10
156.038254450738
20
-1.54214572933586
30
0
41
1
10
156.089734462872
20
-1.50721292149979
30
0
41
1
10
156.194815520723
20
-1.44335692707725
30
0
41
1
10
156.248657669294
20
-1.41422550872656
30
0
41
1
10
156.414019589399
20
-1.33508115276578
30
0
41
1
10
156.529943516888
20
-1.29308546924227
30
0
41
1
10
156.769889084695
20
-1.23279205071057
30
0
41
1
10
156.891046245877
20
-1.2150818853826
30
0
41
1
10
157.074504364293
20
-1.20661366485021
30
0
41
1
10
157.135946298795
20
-1.20682968000858
30
0
41
1
10
157.259426171729
20
-1.21352352525417
30
0
41
1
10
157.321113375394
20
-1.22001624161698
30
0
41
1
10
157.503055943272
20
-1.24841521130375
30
0
41
1
10
157.621405263912
20
-1.27920513648476
30
0
41
1
10
157.794480845013
20
-1.34327596821285
30
0
41
1
10
157.851702763797
20
-1.36779420672951
30
0
41
1
10
157.96233408321
20
-1.42193825004799
30
0
41
1
10
158.015942930833
20
-1.45160347410646
30
0
41
1
10
158.171767780291
20
-1.54818815120561
30
0
41
1
10
158.269275347029
20
-1.62285322902983
30
0
41
1
10
158.449487241228
20
-1.79209485869691
30
0
41
1
10
158.529693693503
20
-1.88423391635664
30
0
41
1
10
158.635800249392
20
-2.03316898875687
30
0
41
1
10
158.668784442295
20
-2.08461508710718
30
0
41
1
10
158.72988522383
20
-2.19117408490862
30
0
41
1
10
158.75791065404
20
-2.24620932915886
30
0
41
1
10
158.832915615001
20
-2.41319219709001
30
0
41
1
10
158.871595533136
20
-2.52814255767655
30
0
41
1
10
158.912887278188
20
-2.70587950672558
30
0
41
1
10
158.923877523185
20
-2.76634375263706
30
0
41
1
10
158.939834473805
20
-2.88720395620939
30
0
41
1
10
158.944838962317
20
-2.94756937318613
30
0
41
1
10
158.951219362564
20
-3.12847281728492
30
0
41
1
10
158.944041896462
20
-3.24881833738309
30
0
41
1
10
158.906391133392
20
-3.48899500486905
30
0
41
1
10
158.876255629046
20
-3.6060814467377
30
0
41
1
10
158.815294375073
20
-3.77529453900272
30
0
41
1
10
158.792309390899
20
-3.83074413505466
30
0
41
1
10
158.740919078186
20
-3.9397139914773
30
0
41
1
10
158.712342130973
20
-3.99350782887515
30
0
41
1
10
158.619534962528
20
-4.14955521056567
30
0
41
1
10
158.548563191408
20
-4.24638100506144
30
0
41
1
10
158.428557276822
20
-4.38101671166243
30
0
41
1
10
158.3862810886
20
-4.42411550917419
30
0
41
1
10
158.296989731079
20
-4.50662752929301
30
0
41
1
10
158.249973219876
20
-4.54598154382478
30
0
41
1
10
158.10489513948
20
-4.65577473896721
30
0
41
1
10
158.001851182805
20
-4.71899751085928
30
0
41
1
10
157.782757265713
20
-4.82512223260198
30
0
41
1
10
157.665784071317
20
-4.86798404410999
30
0
41
1
10
157.429189930567
20
-4.92838565553296
30
0
41
1
10
157.308386931605
20
-4.94668434235811
30
0
41
1
10
157.123260356234
20
-4.95555484711579
30
0
41
1
10
157.061081960171
20
-4.95533802651346
30
0
41
1
10
156.938418927306
20
-4.94867531035649
30
0
41
1
10
156.816713084667
20
-4.9358330648142
30
0
41
1
10
156.696889024139
20
-4.91083063655174
30
0
41
1
10
156.578016663907
20
-4.87966687454644
30
0
41
1
10
156.518829966107
20
-4.86088929760109
30
0
41
1
10
156.346553793472
20
-4.79651245875834
30
0
41
1
10
156.23754669898
20
-4.74274830096576
30
0
41
1
10
156.082479604702
20
-4.64630630715729
30
0
41
1
10
156.0319540668
20
-4.61129921772206
30
0
41
1
10
155.93528742107
20
-4.5369985068551
30
0
41
1
10
155.889152046686
20
-4.4977622035336
30
0
41
1
10
155.757083701691
20
-4.37400385901111
30
0
41
1
10
155.677427622379
20
-4.28349074412409
30
0
41
1
10
155.535075112933
20
-4.08609167748989
30
0
41
1
10
155.474504524035
20
-3.98213815678969
30
0
41
1
10
155.39887941483
20
-3.81884573628125
30
0
41
1
10
155.376220561921
20
-3.7631667125211
30
0
41
1
10
155.336091588031
20
-3.64925487374643
30
0
41
1
10
155.318585639994
20
-3.59080539869902
30
0
41
1
10
155.274846825399
20
-3.41438139436372
30
0
41
1
10
155.256983882577
20
-3.29464523099432
30
0
41
1
10
155.244374952207
20
-3.05091813407151
30
0
0
SPLINE
5
1BC
100
AcDbEntity
8
1
62
256
6
ByLayer
370
-1
48
1
60
0
100
AcDbSpline
70
4
71
3
72
20
73
16
40
0
40
0
40
0
40
0
40
0.250000000000001
40
0.250000000000001
40
0.375000000000001
40
0.375000000000001
40
0.5
40
0.5
40
0.625
40
0.625
40
0.75
40
0.75
40
0.875
40
0.875
40
1
40
1
40
1
40
1
41
1
10
28.0157853790287
20
7.32637858076097
30
0
41
1
10
27.9134907689032
20
7.71012167884211
30
0
41
1
10
27.8366294916494
20
8.10050016556823
30
0
41
1
10
27.7571602194095
20
8.6854624956697
30
0
41
1
10
27.7367169253791
20
8.88097521946165
30
0
41
1
10
27.7087532517155
20
9.26671837518671
30
0
41
1
10
27.7011670697125
20
9.45719844360281
30
0
41
1
10
27.6990815645932
20
9.83274176484525
30
0
41
1
10
27.7045878869122
20
10.0177994268466
30
0
41
1
10
27.7291871137344
20
10.3828685375901
30
0
41
1
10
27.7482856148276
20
10.5628833285767
30
0
41
1
10
27.8005896374992
20
10.9193016186846
30
0
41
1
10
27.8338915809212
20
11.0960779503663
30
0
41
1
10
27.914511605999
20
11.4464173165181
30
0
41
1
10
27.9617518042626
20
11.6198091191537
30
0
41
1
10
28.0157853790298
20
11.7933134155712
30
0
0
SPLINE
5
1BD
100
AcDbEntity
8
1
62
256
6
ByLayer
370
-1
48
1
60
0
100
AcDbSpline
70
4
71
3
72
16
73
12
40
0
40
0
40
0
40
0
40
0.249999999999999
40
0.249999999999999
40
0.499999999999998
40
0.499999999999998
40
0.749999999999997
40
0.749999999999997
40
0.874999999999998
40
0.874999999999998
40
1
40
1
40
1
40
1
41
1
10
10.1056624327026
20
9.86941261896612
30
0
41
1
10
10.1212498345488
20
9.81243201498799
30
0
41
1
10
10.1399018475136
20
9.75655023082962
30
0
41
1
10
10.1854864096889
20
9.64780841973385
30
0
41
1
10
10.2124982207834
20
9.59456078532602
30
0
41
1
10
10.279179996877
20
9.4946569987062
30
0
41
1
10
10.3189381439131
20
9.44778039735201
30
0
41
1
10
10.3915918423741
20
9.39323398486448
30
0
41
1
10
10.4185844965197
20
9.37745951316336
30
0
41
1
10
10.4761894743047
20
9.35548920253842
30
0
41
1
10
10.5072412025891
20
9.34922131452495
30
0
41
1
10
10.5386751345948
20
9.34922131452495
30
0
0
SPLINE
5
1BE
100
AcDbEntity
8
1
62
256
6
ByLayer
370
-1
48
1
60
0
100
AcDbSpline
70
4
71
3
72
10
73
6
40
0
40
0
40
0
40
0
40
0.5
40
0.5
40
1
40
1
40
1
40
1
41
1
10
148.54770276677
20
3.23178535143521
30
0
41
1
10
148.048160645478
20
3.07845570002192
30
0
41
1
10
147.538877854349
20
2.94636039660764
30
0
41
1
10
146.507668702201
20
2.7278464636625
30
0
41
1
10
145.985740098369
20
2.64145109817957
30
0
41
1
10
145.461664805473
20
2.57851980978643
30
0
0
SPLINE
5
1BF
100
AcDbEntity
8
1
62
256
6
ByLayer
370
-1
48
1
60
0
100
AcDbSpline
70
4
71
3
72
8
73
4
40
0
40
0
40
0
40
0
40
1
40
1
40
1
40
1
41
1
10
49
20
10.6510181370712
30
0
41
1
10
49.8684126824552
20
10.2710310498865
30
0
41
1
10
50.7189072679676
20
9.85595214280775
30
0
41
1
10
51.5554942921273
20
9.40760643877954
30
0
0
SPLINE
5
1C0
100
AcDbEntity
8
1
62
256
6
ByLayer
370
-1
48
1
60
0
100
AcDbSpline
70
4
71
3
72
90
73
86
40
0
40
0
40
0
40
0
40
0.0245257396729884
40
0.0429200444277298
40
0.049051479345977
40
0.0613143491824711
40
0.0735772190189654
40
0.0919715237737068
40
0.0981029586919538
40
0.110365828528448
40
0.122628698364943
40
0.141023003119684
40
0.147154438037931
40
0.159417307874425
40
0.171680177710919
40
0.190074482465661
40
0.196205917383908
40
0.208468787220402
40
0.220731657056896
40
0.239125961811638
40
0.245257396729885
40
0.257520266566379
40
0.269783136402873
40
0.288177441157615
40
0.294308876075862
40
0.306571745912356
40
0.31883461574885
40
0.337228920503592
40
0.343360355421839
40
0.355623225258333
40
0.367886095094827
40
0.386280399849568
40
0.392411834767815
40
0.404674704604309
40
0.416937574440804
40
0.435331879195546
40
0.441463314113793
40
0.453726183950287
40
0.465989053786781
40
0.487449076000646
40
0.490514793459769
40
0.496646228378017
40
0.502777663296264
40
0.511974815673634
40
0.515040533132758
40
0.521171968051005
40
0.527303402969252
40
0.533434837887499
40
0.539566272805746
40
0.551829142642241
40
0.564092012478735
40
0.582486317233476
40
0.588617752151723
40
0.600880621988218
40
0.613143491824712
40
0.631537796579453
40
0.6376692314977
40
0.649932101334195
40
0.662194971170689
40
0.686720710843677
40
0.698983580680172
40
0.711246450516666
40
0.735772190189654
40
0.748035060026148
40
0.760297929862643
40
0.772560799699137
40
0.784823669535631
40
0.790955104453878
40
0.797086539372126
40
0.80934940920862
40
0.815480844126867
40
0.821612279045114
40
0.833875148881608
40
0.846138018718103
40
0.858400888554597
40
0.882926628227585
40
0.895189498064079
40
0.907452367900574
40
0.931978107573562
40
0.944240977410056
40
0.956503847246551
40
0.970299575812606
40
0.981029586919539
40
0.991759598026472
40
1
40
1
40
1
40
1
41
1
10
38.8554942921271
20
14.6986028209782
30
0
41
1
10
38.7906797209081
20
14.6313320027035
30
0
41
1
10
38.6751535083735
20
14.5085650969422
30
0
41
1
10
38.5392067896085
20
14.3582856443936
30
0
41
1
10
38.4356596376413
20
14.2413371536539
30
0
41
1
10
38.3483974611132
20
14.1412382332453
30
0
41
1
10
38.2245053686866
20
13.9962355449752
30
0
41
1
10
38.1165613874358
20
13.8668079309749
30
0
41
1
10
38.0073338032124
20
13.7333550970487
30
0
41
1
10
37.9155329404108
20
13.6196466514191
30
0
41
1
10
37.7856679262766
20
13.4558996400567
30
0
41
1
10
37.6730312241756
20
13.3107794442401
30
0
41
1
10
37.5594746072329
20
13.1619846887444
30
0
41
1
10
37.4642981362198
20
13.0357211952068
30
0
41
1
10
37.3301530896248
20
12.8548635746596
30
0
41
1
10
37.2143392766675
20
12.6956169215461
30
0
41
1
10
37.0980153297573
20
12.5331755354799
30
0
41
1
10
37.0007923197792
20
12.3958497422143
30
0
41
1
10
36.8642740341793
20
12.2001152113161
30
0
41
1
10
36.7469609824195
20
12.0288049415054
30
0
41
1
10
36.6295752659797
20
11.8548912968902
30
0
41
1
10
36.5317428447778
20
11.7083834164995
30
0
41
1
10
36.3948864791637
20
11.5005233023997
30
0
41
1
10
36.2778366275983
20
11.3196262876949
30
0
41
1
10
36.1611578115803
20
11.1368014011765
30
0
41
1
10
36.0641920604092
20
10.9832959696698
30
0
41
1
10
35.9290617210527
20
10.7664525676862
30
0
41
1
10
35.8140347654758
20
10.5787413750716
30
0
41
1
10
35.6998065647063
20
10.3898282264665
30
0
41
1
10
35.6051488514737
20
10.2317065425511
30
0
41
1
10
35.4737346407036
20
10.009256549983
30
0
41
1
10
35.3624002399404
20
9.81765974418062
30
0
41
1
10
35.2522557861425
20
9.62560027342991
30
0
41
1
10
35.1612426385612
20
9.4653193909476
30
0
41
1
10
35.0353662214446
20
9.24070422499179
30
0
41
1
10
34.929228618338
20
9.04816402161802
30
0
41
1
10
34.824621394722
20
8.85588332089606
30
0
41
1
10
34.7384312798328
20
8.69586780888235
30
0
41
1
10
34.6111860547754
20
8.45647066725454
30
0
41
1
10
34.5117161015308
20
8.26584994045609
30
0
41
1
10
34.4303215800069
20
8.10776383150557
30
0
41
1
10
34.3899073642899
20
8.0288700362857
30
0
41
1
10
34.3338736680736
20
7.91874019078452
30
0
41
1
10
34.2864491364854
20
7.82473352142989
30
0
41
1
10
34.2395310420792
20
7.73109421847366
30
0
41
1
10
34.200753935912
20
7.65330254782967
30
0
41
1
10
34.1545881527975
20
7.56004357032467
30
0
41
1
10
34.1086417689152
20
7.466580916444
30
0
41
1
10
34.0476813448539
20
7.34170053183678
30
0
41
1
10
33.9720626458795
20
7.18512106914332
30
0
41
1
10
33.867397450414
20
6.96520526364355
30
0
41
1
10
33.7790942987369
20
6.77615419909341
30
0
41
1
10
33.6920667719478
20
6.58690538909408
30
0
41
1
10
33.6203718748623
20
6.42912522666919
30
0
41
1
10
33.5216576274347
20
6.20830376165361
30
0
41
1
10
33.4389434925978
20
6.01932549539902
30
0
41
1
10
33.3578930156156
20
5.83085079931723
30
0
41
1
10
33.2914209868022
20
5.6741586485285
30
0
41
1
10
33.1874679644385
20
5.42448517536064
30
0
41
1
10
33.0872975002054
20
5.17672929944749
30
0
41
1
10
32.9912680391505
20
4.93162431101609
30
0
41
1
10
32.8981025452717
20
4.68852754961267
30
0
41
1
10
32.8093879497428
20
4.44880458181126
30
0
41
1
10
32.725434147735
20
4.2131783137321
30
0
41
1
10
32.6649101525593
20
4.03867579617577
30
0
41
1
10
32.6068884732832
20
3.86655929576432
30
0
41
1
10
32.5606731367771
20
3.72525792107712
30
0
41
1
10
32.5250129850916
20
3.61357866354166
30
0
41
1
10
32.4902344298423
20
3.50283200587049
30
0
41
1
10
32.4567885463826
20
3.39352130557782
30
0
41
1
10
32.4246958889831
20
3.28572067782778
30
0
41
1
10
32.3935122337138
20
3.17895147016088
30
0
41
1
10
32.3562498900403
20
3.04747019521079
30
0
41
1
10
32.3143237468341
20
2.89300927101257
30
0
41
1
10
32.2621664760463
20
2.69164428298785
30
0
41
1
10
32.2156646273157
20
2.49739481619787
30
0
41
1
10
32.1748962842957
20
2.31074318039356
30
0
41
1
10
32.1379472293974
20
2.12927402113303
30
0
41
1
10
32.1067225331539
20
1.95575446051828
30
0
41
1
10
32.0812130485096
20
1.79053626620936
30
0
41
1
10
32.0642368568136
20
1.66583860398293
30
0
41
1
10
32.0509278167155
20
1.55065201363351
30
0
41
1
10
32.0408440677104
20
1.44440194597541
30
0
41
1
10
32.0343039187017
20
1.35797636733878
30
0
41
1
10
32.0312161827053
20
1.3045210354077
30
0
41
1
10
32.0300784900397
20
1.28163156119442
30
0
0
SPLINE
5
1C1
100
AcDbEntity
8
1
62
256
6
ByLayer
370
-1
48
1
60
0
100
AcDbSpline
70
4
71
3
72
12
73
8
40
0
40
0
40
0
40
0
40
0.0582732028543681
40
0.142924824422384
40
0.396879689126432
40
0.735486175398491
40
1
40
1
40
1
40
1
41
1
10
126.661251208991
20
11.4833815993052
30
0
41
1
10
126.623155036702
20
11.478904347808
30
0
41
1
10
126.529740229899
20
11.4678931618488
30
0
41
1
10
126.270471030708
20
11.437111259641
30
0
41
1
10
125.827747703665
20
11.3836994141568
30
0
41
1
10
125.266748602686
20
11.314034433944
30
0
41
1
10
124.871927001811
20
11.2635247413348
30
0
41
1
10
124.698788215548
20
11.2410825330193
30
0
0
SPLINE
5
1C2
100
AcDbEntity
8
1
62
256
6
ByLayer
370
-1
48
1
60
0
100
AcDbSpline
70
4
71
4
72
19
73
14
40
0
40
0
40
0
40
0
40
0
40
0.434483198722354
40
0.434483198722354
40
0.434483198722354
40
0.651724798083531
40
0.651724798083531
40
0.651724798083531
40
0.868966397444708
40
0.868966397444708
40
0.868966397444708
40
1
40
1
40
1
40
1
40
1
41
1
10
51.5554942921302
20
5.92321775741576
30
0
41
1
10
51.5554942921302
20
5.02406172806596
30
0
41
0.988033871712585
10
51.3736943260697
20
3.34625995425179
30
0
41
1
10
50.9444253497402
20
0.987243247067539
30
0
41
1
10
50.2444080442297
20
-2.2884482031098
30
0
41
0.997008467928146
10
49.9766964636806
20
-3.45440848901921
30
0
41
0.995512701892219
10
49.6887814774355
20
-4.61027150175672
30
0
41
0.995512701892219
10
49.1112185225701
20
-6.75654504594992
30
0
41
0.997008467928146
10
48.823303536325
20
-7.74051566606184
30
0
41
1
10
48.555591955776
20
-8.56423383153631
30
0
41
1
10
48.1815097217738
20
-9.59398056157593
30
0
41
0.99891163881934
10
48.0448422807852
20
-9.93867692072422
30
0
41
0.997719616580851
10
47.9171121675676
20
-10.2233220731524
30
0
41
0.996814691892889
10
47.8016578933793
20
-10.439446502167
30
0
0
SPLINE
5
1C3
100
AcDbEntity
8
1
62
256
6
ByLayer
370
-1
48
1
60
0
100
AcDbSpline
70
4
71
3
72
22
73
18
40
0
40
0
40
0
40
0
40
0.337097612768382
40
0.337097612768382
40
0.421372015960472
40
0.421372015960472
40
0.505646419152561
40
0.505646419152561
40
0.674195225536743
40
0.674195225536743
40
0.758469628728823
40
0.758469628728823
40
0.842744031920903
40
0.842744031920903
40
0.927018435112983
40
0.927018435112983
40
1
40
1
40
1
40
1
41
1
10
156.344756557897
20
11.6856791478414
30
0
41
1
10
156.368662705174
20
11.4692430463626
30
0
41
1
10
156.42858526071
20
11.254983016931
30
0
41
1
10
156.555441639076
20
10.9921783625539
30
0
41
1
10
156.583558134533
20
10.9397999888654
30
0
41
1
10
156.644500322048
20
10.8374401847684
30
0
41
1
10
156.6774167916
20
10.7872451075795
30
0
41
1
10
156.783793540916
20
10.6398442742158
30
0
41
1
10
156.864787295213
20
10.5457749388845
30
0
41
1
10
157.003905203009
20
10.4125646675781
30
0
41
1
10
157.052976137745
20
10.3697835085649
30
0
41
1
10
157.155343257251
20
10.2889091422698
30
0
41
1
10
157.208829072519
20
10.2506280649529
30
0
41
1
10
157.320656802588
20
10.1787042406766
30
0
41
1
10
157.378996540502
20
10.1450592494206
30
0
41
1
10
157.492795848616
20
10.0870771636862
30
0
41
1
10
157.547513161138
20
10.0621917757373
30
0
41
1
10
157.603115625212
20
10.0398907405805
30
0
0
SPLINE
5
1C4
100
AcDbEntity
8
1
62
256
6
ByLayer
370
-1
48
1
60
0
100
AcDbSpline
70
4
71
3
72
12
73
8
40
0
40
0
40
0
40
0
40
0.319843319116435
40
0.319843319116435
40
0.659921659558216
40
0.659921659558216
40
1
40
1
40
1
40
1
41
1
10
156.475816742428
20
12.5968388221261
30
0
41
1
10
156.436519584009
20
12.5054683133154
30
0
41
1
10
156.405842741796
20
12.4122053210289
30
0
41
1
10
156.358710599184
20
12.215938518658
30
0
41
1
10
156.343298119264
20
12.112690284018
30
0
41
1
10
156.330289557576
20
11.9018411407162
30
0
41
1
10
156.332803484259
20
11.7938971985809
30
0
41
1
10
156.344756557897
20
11.6856791478414
30
0
0
SPLINE
5
1C5
100
AcDbEntity
8
1
62
256
6
ByLayer
370
-1
48
1
60
0
100
AcDbSpline
70
4
71
3
72
8
73
4
40
0
40
0
40
0
40
0
40
1
40
1
40
1
40
1
41
1
10
33.4919450104726
20
0.384598683419114
30
0
41
1
10
33.677845809334
20
0.286337716647466
30
0
41
1
10
33.8631217625429
20
0.188303993330464
30
0
41
1
10
34.0477153945948
20
0.0903499111169879
30
0
0
SPLINE
5
1C6
100
AcDbEntity
8
1
62
256
6
ByLayer
370
-1
48
1
60
0
100
AcDbSpline
70
4
71
3
72
8
73
4
40
0
40
0
40
0
40
0
40
1
40
1
40
1
40
1
41
1
10
28.0157853790299
20
7.32637858076129
30
0
41
1
10
28.1424739521111
20
6.85112513909877
30
0
41
1
10
28.304387276925
20
6.3823069086601
30
0
41
1
10
28.5
20
5.92005533670275
30
0
0
SPLINE
5
1C7
100
AcDbEntity
8
1
62
256
6
ByLayer
370
-1
48
1
60
0
100
AcDbSpline
70
4
71
3
72
24
73
20
40
0
40
0
40
0
40
0
40
0.250000000000011
40
0.250000000000011
40
0.312500000000015
40
0.312500000000015
40
0.375000000000019
40
0.375000000000019
40
0.500000000000016
40
0.500000000000016
40
0.625000000000012
40
0.625000000000012
40
0.750000000000009
40
0.750000000000009
40
0.812500000000007
40
0.812500000000007
40
0.875000000000004
40
0.875000000000004
40
1
40
1
40
1
40
1
41
1
10
148.300385129906
20
11.4499999999999
30
0
41
1
10
148.300385129906
20
11.1838368861714
30
0
41
1
10
148.261976849556
20
10.9242350855603
30
0
41
1
10
148.166416117955
20
10.6078558994472
30
0
41
1
10
148.144768757605
20
10.5447486666458
30
0
41
1
10
148.097166246132
20
10.4212189769414
30
0
41
1
10
148.071194769148
20
10.3606687603252
30
0
41
1
10
147.986896744412
20
10.1825908767409
30
0
41
1
10
147.922220480648
20
10.068617015344
30
0
41
1
10
147.775753288971
20
9.85024801838327
30
0
41
1
10
147.693162373342
20
9.74510379236676
30
0
41
1
10
147.515241037749
20
9.55083438752925
30
0
41
1
10
147.419748203622
20
9.46116299468895
30
0
41
1
10
147.266834003372
20
9.33770999320492
30
0
41
1
10
147.214243479333
20
9.29840891855599
30
0
41
1
10
147.105763089514
20
9.22357642354652
30
0
41
1
10
147.049621069942
20
9.1879055092725
30
0
41
1
10
146.878282500215
20
9.08799929878961
30
0
41
1
10
146.760306524669
20
9.03076663312501
30
0
41
1
10
146.638697060205
20
8.98261363861747
30
0
0
SPLINE
5
1C8
100
AcDbEntity
8
1
62
256
6
ByLayer
370
-1
48
1
60
0
100
AcDbSpline
70
4
71
3
72
16
73
12
40
0
40
0
40
0
40
0
40
0.249999999999999
40
0.249999999999999
40
0.499999999999998
40
0.499999999999998
40
0.749999999999997
40
0.749999999999997
40
0.874999999999998
40
0.874999999999998
40
1
40
1
40
1
40
1
41
1
10
10.1056624327026
20
-29.9139548464691
30
0
41
1
10
10.1212498345487
20
-29.9327542695085
30
0
41
1
10
10.1399018475135
20
-29.9510098933136
30
0
41
1
10
10.1854864096889
20
-29.9862144781928
30
0
41
1
10
10.2124982207834
20
-30.0032856662985
30
0
41
1
10
10.279179996877
20
-30.0350501233767
30
0
41
1
10
10.318938143913
20
-30.0498069467438
30
0
41
1
10
10.3915918423741
20
-30.0668840803113
30
0
41
1
10
10.4185844965196
20
-30.0718038277879
30
0
41
1
10
10.4761894743047
20
-30.0786461490401
30
0
41
1
10
10.5072412025891
20
-30.080592760317
30
0
41
1
10
10.5386751345948
20
-30.080592760317
30
0
0
SPLINE
5
1C9
100
AcDbEntity
8
1
62
256
6
ByLayer
370
-1
48
1
60
0
100
AcDbSpline
70
4
71
3
72
8
73
4
40
0
40
0
40
0
40
0
40
1
40
1
40
1
40
1
41
1
10
34.0477153945948
20
0.0903499111170163
30
0
41
1
10
34.2712554253558
20
-0.128492025584819
30
0
41
1
10
34.4946435702439
20
-0.346563829330478
30
0
41
1
10
34.7178657885977
20
-0.563810259371849
30
0
0
SPLINE
5
1CA
100
AcDbEntity
8
1
62
256
6
ByLayer
370
-1
48
1
60
0
100
AcDbSpline
70
4
71
3
72
8
73
4
40
0
40
0
40
0
40
0
40
1
40
1
40
1
40
1
41
1
10
122.7504428912
20
12.2667391566519
30
0
41
1
10
122.770187905031
20
12.2566376577812
30
0
41
1
10
122.789936847867
20
12.2465379660056
30
0
41
1
10
122.809689734146
20
12.2364400879652
30
0
0
SPLINE
5
1CB
100
AcDbEntity
8
1
62
256
6
ByLayer
370
-1
48
1
60
0
100
AcDbSpline
70
4
71
3
72
8
73
4
40
0
40
0
40
0
40
0
40
1
40
1
40
1
40
1
41
1
10
122.750442891203
20
12.2667391566479
30
0
41
1
10
122.251266427052
20
12.4284960253217
30
0
41
1
10
121.745448391014
20
12.5993665166371
30
0
41
1
10
121.233918221082
20
12.7780752477053
30
0
0
SPLINE
5
1CC
100
AcDbEntity
8
1
62
256
6
ByLayer
370
-1
48
1
60
0
100
AcDbSpline
70
4
71
3
72
32
73
28
40
0
40
0
40
0
40
0
40
0.124999999999994
40
0.124999999999994
40
0.249999999999988
40
0.249999999999988
40
0.312499999999984
40
0.312499999999984
40
0.343749999999983
40
0.343749999999983
40
0.374999999999981
40
0.374999999999981
40
0.499999999999985
40
0.499999999999985
40
0.562499999999987
40
0.562499999999987
40
0.624999999999989
40
0.624999999999989
40
0.687499999999991
40
0.687499999999991
40
0.749999999999992
40
0.749999999999992
40
0.812499999999994
40
0.812499999999994
40
0.874999999999996
40
0.874999999999996
40
1
40
1
40
1
40
1
41
1
10
145.84168395056
20
5.76130636525167
30
0
41
1
10
146.197253065178
20
5.62782940685136
30
0
41
1
10
146.544582723432
20
5.50280413856234
30
0
41
1
10
147.217581635176
20
5.2641202607241
30
0
41
1
10
147.534681876736
20
5.1534698050541
30
0
41
1
10
147.97534344556
20
4.99455391026234
30
0
41
1
10
148.116430307021
20
4.9427304248689
30
0
41
1
10
148.318323227606
20
4.86581477939194
30
0
41
1
10
148.383994158998
20
4.84031177500663
30
0
41
1
10
148.511853973012
20
4.78940962743314
30
0
41
1
10
148.574087586228
20
4.76398676919317
30
0
41
1
10
148.872606451342
20
4.63809842192293
30
0
41
1
10
149.074228480375
20
4.54020974493884
30
0
41
1
10
149.310745030346
20
4.38933052278907
30
0
41
1
10
149.37881032579
20
4.33797260586235
30
0
41
1
10
149.487032380262
20
4.23535763055418
30
0
41
1
10
149.527661903878
20
4.18392412375854
30
0
41
1
10
149.581323036817
20
4.07996250234697
30
0
41
1
10
149.59436025249
20
4.02743401881065
30
0
41
1
10
149.591316035705
20
3.92077205076288
30
0
41
1
10
149.574827688047
20
3.86628458994775
30
0
41
1
10
149.513095423003
20
3.75930449698043
30
0
41
1
10
149.468024237196
20
3.70642967059041
30
0
41
1
10
149.35063142372
20
3.60231236934604
30
0
41
1
10
149.278177957613
20
3.55099601221107
30
0
41
1
10
149.021166971989
20
3.40121961095599
30
0
41
1
10
148.803765528705
20
3.31038135436216
30
0
41
1
10
148.54770276677
20
3.23178535143484
30
0
0
SPLINE
5
1CD
100
AcDbEntity
8
1
62
256
6
ByLayer
370
-1
48
1
60
0
100
AcDbSpline
70
4
71
3
72
8
73
4
40
0
40
0
40
0
40
0
40
1
40
1
40
1
40
1
41
1
10
38.8554942921271
20
14.6986028209782
30
0
41
1
10
43.1584512642021
20
11.7592898576372
30
0
41
1
10
47.3720670498575
20
8.81525639380905
30
0
41
1
10
51.5554942921273
20
5.92321775741644
30
0
0
SPLINE
5
1CE
100
AcDbEntity
8
1
62
256
6
ByLayer
370
-1
48
1
60
0
100
AcDbSpline
70
4
71
3
72
18
73
14
40
0
40
0
40
0
40
0
40
0.139539455181064
40
0.139539455181064
40
0.426359636787375
40
0.426359636787375
40
0.713179818393685
40
0.713179818393685
40
0.784884863795264
40
0.784884863795264
40
0.856589909196843
40
0.856589909196843
40
1
40
1
40
1
40
1
41
1
10
115.04928083206
20
14.4066614282955
30
0
41
1
10
115.861653264732
20
14.6011446166697
30
0
41
1
10
116.673676402155
20
14.788339791921
30
0
41
1
10
119.154085299458
20
15.3375325916661
30
0
41
1
10
120.821320566838
20
15.6759453413574
30
0
41
1
10
124.157582051786
20
16.284435336258
30
0
41
1
10
125.827368664498
20
16.5537850882651
30
0
41
1
10
127.917326035499
20
16.8463314841912
30
0
41
1
10
128.335564483459
20
16.9025353295698
30
0
41
1
10
129.172144192657
20
17.0106594456917
30
0
41
1
10
129.590403303129
20
17.0626386361819
30
0
41
1
10
130.845804503359
20
17.2116890597013
30
0
41
1
10
131.684105728454
20
17.3015421233258
30
0
41
1
10
132.522582262109
20
17.3826348400063
30
0
0
SPLINE
5
1CF
100
AcDbEntity
8
1
62
256
6
ByLayer
370
-1
48
1
60
0
100
AcDbSpline
70
4
71
3
72
16
73
12
40
0
40
0
40
0
40
0
40
0.15312566506714
40
0.15312566506714
40
0.435417110044777
40
0.435417110044777
40
0.717708555022413
40
0.717708555022413
40
0.858854277511206
40
0.858854277511206
40
1
40
1
40
1
40
1
41
1
10
154.041468793674
20
5.57913261530945
30
0
41
1
10
154.020337092804
20
5.55964934828103
30
0
41
1
10
153.999387136593
20
5.54120281871317
30
0
41
1
10
153.940646559344
20
5.49159163635883
30
0
41
1
10
153.903507855654
20
5.46280073835834
30
0
41
1
10
153.833976714564
20
5.41277674274164
30
0
41
1
10
153.802130311439
20
5.39197359602485
30
0
41
1
10
153.764963049316
20
5.36997155221121
30
0
41
1
10
153.754368539441
20
5.36419087518888
30
0
41
1
10
153.738327957026
20
5.3564675728654
30
0
41
1
10
153.73275714553
20
5.35444665590364
30
0
41
1
10
153.729960881739
20
5.35444665590364
30
0
0
SPLINE
5
1D0
100
AcDbEntity
8
1
62
256
6
ByLayer
370
-1
48
1
60
0
100
AcDbSpline
70
4
71
3
72
16
73
12
40
0
40
0
40
0
40
0
40
0.249999999999992
40
0.249999999999992
40
0.499999999999983
40
0.499999999999983
40
0.624999999999984
40
0.624999999999984
40
0.749999999999985
40
0.749999999999985
40
1
40
1
40
1
40
1
41
1
10
132.522582262108
20
17.3826348400184
30
0
41
1
10
132.274453827067
20
16.9902103198108
30
0
41
1
10
132.002248481933
20
16.6205915638096
30
0
41
1
10
131.404588115666
20
15.9317923991754
30
0
41
1
10
131.078073925288
20
15.6136152407095
30
0
41
1
10
130.553807708602
20
15.1690232664776
30
0
41
1
10
130.372682815975
20
15.0259748902042
30
0
41
1
10
130.004463039395
20
14.754392146994
30
0
41
1
10
129.816861399361
20
14.62539845575
30
0
41
1
10
129.244254595296
20
14.2574995158501
30
0
41
1
10
128.849027832517
20
14.0384934943321
30
0
41
1
10
128.44379826451
20
13.8389607566032
30
0
0
SPLINE
5
1D1
100
AcDbEntity
8
1
62
256
6
ByLayer
370
-1
48
1
60
0
100
AcDbSpline
70
4
71
3
72
16
73
12
40
0
40
0
40
0
40
0
40
0.124999999999997
40
0.124999999999997
40
0.249999999999995
40
0.249999999999995
40
0.499999999999997
40
0.499999999999997
40
0.749999999999998
40
0.749999999999998
40
1
40
1
40
1
40
1
41
1
10
13.4613248654052
20
9.34922131452498
30
0
41
1
10
13.4928040273173
20
9.34922131452498
30
0
41
1
10
13.5234304266402
20
9.35536120669443
30
0
41
1
10
13.5815263070002
20
9.37748487924952
30
0
41
1
10
13.6079581046676
20
9.39290424748296
30
0
41
1
10
13.6817632688741
20
9.44829073160835
30
0
41
1
10
13.7208296342407
20
9.49467220053398
30
0
41
1
10
13.7874862877332
20
9.59453680346888
30
0
41
1
10
13.8142652669256
20
9.6472847925792
30
0
41
1
10
13.8599440812239
20
9.75611455014862
30
0
41
1
10
13.8787443055274
20
9.81241059371416
30
0
41
1
10
13.8943375672974
20
9.86941261896607
30
0
0
SPLINE
5
1D2
100
AcDbEntity
8
1
62
256
6
ByLayer
370
-1
48
1
60
0
100
AcDbSpline
70
4
71
3
72
8
73
4
40
0
40
0
40
0
40
0
40
1
40
1
40
1
40
1
41
1
10
126.661251208991
20
11.4833815993052
30
0
41
1
10
126.646222087626
20
11.505823513671
30
0
41
1
10
126.631979280646
20
11.5287834010508
30
0
41
1
10
126.618618140432
20
11.5523263381481
30
0
0
SPLINE
5
1D3
100
AcDbEntity
8
1
62
256
6
ByLayer
370
-1
48
1
60
0
100
AcDbSpline
70
4
71
3
72
30
73
26
40
0
40
0
40
0
40
0
40
0.0852568444202142
40
0.0852568444202142
40
0.170513688840428
40
0.170513688840428
40
0.255770533260643
40
0.255770533260643
40
0.341027377680857
40
0.341027377680857
40
0.426284222101071
40
0.426284222101071
40
0.511541066521285
40
0.511541066521285
40
0.596797910941499
40
0.596797910941499
40
0.682054755361714
40
0.682054755361714
40
0.767311599781928
40
0.767311599781928
40
0.852568444202142
40
0.852568444202142
40
0.937825288622356
40
0.937825288622356
40
1
40
1
40
1
40
1
41
1
10
51.5554942921288
20
5.92321775741499
30
0
41
1
10
51.287890837782
20
5.77951608321283
30
0
41
1
10
51.0067957756282
20
5.58565857883698
30
0
41
1
10
50.428092293163
20
5.10485245791131
30
0
41
1
10
50.130497380244
20
4.81791506375288
30
0
41
1
10
49.5299056331289
20
4.16165907296369
30
0
41
1
10
49.2269228172144
20
3.7923557938617
30
0
41
1
10
48.626868404259
20
2.98515398881173
30
0
41
1
10
48.3298108129579
20
2.54727430358602
30
0
41
1
10
47.7526992693588
20
1.61926693166527
30
0
41
1
10
47.4726587872963
20
1.12916090538903
30
0
41
1
10
46.9400389804953
20
0.114998993880192
30
0
41
1
10
46.6874720875203
20
-0.409033220019182
30
0
41
1
10
46.2192316003269
20
-1.4714817046235
30
0
41
1
10
46.003568935208
20
-2.00987317694882
30
0
41
1
10
45.6171914799152
20
-3.08093728747687
30
0
41
1
10
45.4464857080936
20
-3.61358492620448
30
0
41
1
10
45.1563982991302
20
-4.65327201514245
30
0
41
1
10
45.0370234328558
20
-5.16028719824192
30
0
41
1
10
44.8540576940069
20
-6.12977621009569
30
0
41
1
10
44.7904710919961
20
-6.59222741021722
30
0
41
1
10
44.7214588125346
20
-7.45531842759769
30
0
41
1
10
44.7160347458846
20
-7.85593809963638
30
0
41
1
10
44.7571203549593
20
-8.48233436274705
30
0
41
1
10
44.7899666595989
20
-8.72607364606952
30
0
41
1
10
44.8379502933449
20
-8.94704992453205
30
0
0
SPLINE
5
1D4
100
AcDbEntity
8
1
62
256
6
ByLayer
370
-1
48
1
60
0
100
AcDbSpline
70
4
71
3
72
18
73
14
40
0
40
0
40
0
40
0
40
0.215096350650139
40
0.215096350650139
40
0.476730900433426
40
0.476730900433426
40
0.738365450216712
40
0.738365450216712
40
0.803774087662534
40
0.803774087662534
40
0.869182725108356
40
0.869182725108356
40
1
40
1
40
1
40
1
41
1
10
86.7014753979327
20
17.8999735531968
30
0
41
1
10
89.1808700971714
20
17.8998955040531
30
0
41
1
10
91.6519218673741
20
17.81570639096
30
0
41
1
10
97.1222589290067
20
17.4476028398482
30
0
41
1
10
100.120278868129
20
17.1246944610631
30
0
41
1
10
106.124885024754
20
16.2512170234314
30
0
41
1
10
109.130965514444
20
15.7001137991609
30
0
41
1
10
112.904237306858
20
14.8798282429267
30
0
41
1
10
113.659682641164
20
14.7092263412048
30
0
41
1
10
115.17243468737
20
14.3552992102475
30
0
41
1
10
115.930083557704
20
14.1718881471469
30
0
41
1
10
118.203779690937
20
13.6037562676765
30
0
41
1
10
119.718744451355
20
13.201633557211
30
0
41
1
10
121.233918221078
20
12.7780752477084
30
0
0
SPLINE
5
1D5
100
AcDbEntity
8
1
62
256
6
ByLayer
370
-1
48
1
60
0
100
AcDbSpline
70
4
71
3
72
16
73
12
40
0
40
0
40
0
40
0
40
0.250000000000001
40
0.250000000000001
40
0.500000000000002
40
0.500000000000002
40
0.750000000000003
40
0.750000000000003
40
0.875000000000002
40
0.875000000000002
40
1
40
1
40
1
40
1
41
1
10
13.8943375672974
20
-9.86941261896612
30
0
41
1
10
13.8787501654512
20
-9.81243201498799
30
0
41
1
10
13.8600981524864
20
-9.75655023082965
30
0
41
1
10
13.8145135903111
20
-9.64780841973388
30
0
41
1
10
13.7875017792165
20
-9.59456078532602
30
0
41
1
10
13.720820003123
20
-9.49465699870623
30
0
41
1
10
13.6810618560869
20
-9.44778039735203
30
0
41
1
10
13.6084081576259
20
-9.39323398486451
30
0
41
1
10
13.5814155034803
20
-9.37745951316336
30
0
41
1
10
13.5238105256953
20
-9.35548920253845
30
0
41
1
10
13.4927587974109
20
-9.34922131452498
30
0
41
1
10
13.4613248654052
20
-9.34922131452498
30
0
0
SPLINE
5
1D6
100
AcDbEntity
8
1
62
256
6
ByLayer
370
-1
48
1
60
0
100
AcDbSpline
70
4
71
3
72
18
73
14
40
0
40
0
40
0
40
0
40
0.125
40
0.125
40
0.25
40
0.25
40
0.374999999999999
40
0.374999999999999
40
0.499999999999999
40
0.499999999999999
40
0.749999999999999
40
0.749999999999999
40
1
40
1
40
1
40
1
41
1
10
151.263944704525
20
5.31825952379074
30
0
41
1
10
151.269248745494
20
5.31825952379074
30
0
41
1
10
151.264501421446
20
5.3248223071862
30
0
41
1
10
151.239274910961
20
5.34925122889416
30
0
41
1
10
151.219600687657
20
5.36648740329227
30
0
41
1
10
151.171748473012
20
5.40925436474677
30
0
41
1
10
151.143836490413
20
5.43456317127851
30
0
41
1
10
151.084763173714
20
5.49102529261532
30
0
41
1
10
151.053339658414
20
5.52238426843621
30
0
41
1
10
150.955692567825
20
5.62636311128057
30
0
41
1
10
150.888969622901
20
5.70580662907099
30
0
41
1
10
150.75822472975
20
5.88846499660087
30
0
41
1
10
150.69743118222
20
5.98707426162684
30
0
41
1
10
150.641819067358
20
6.09449492972226
30
0
0
SPLINE
5
1D7
100
AcDbEntity
8
1
62
256
6
ByLayer
370
-1
48
1
60
0
100
AcDbSpline
70
4
71
3
72
8
73
4
40
0
40
0
40
0
40
0
40
1
40
1
40
1
40
1
41
1
10
47.2468670058856
20
-10.2563147421663
30
0
41
1
10
47.1843961722573
20
-10.2345332325217
30
0
41
1
10
47.1220922487962
20
-10.2120687096378
30
0
41
1
10
47.0599765191945
20
-10.1889320434922
30
0
0
SPLINE
5
1D8
100
AcDbEntity
8
1
62
256
6
ByLayer
370
-1
48
1
60
0
100
AcDbSpline
70
4
71
3
72
24
73
20
40
0
40
0
40
0
40
0
40
0.25
40
0.25
40
0.375000000000001
40
0.375000000000001
40
0.437500000000002
40
0.437500000000002
40
0.500000000000002
40
0.500000000000002
40
0.625000000000002
40
0.625000000000002
40
0.750000000000002
40
0.750000000000002
40
0.812500000000002
40
0.812500000000002
40
0.875000000000002
40
0.875000000000002
40
1
40
1
40
1
40
1
41
1
10
34.7178657885977
20
-0.563810259371849
30
0
41
1
10
35.0166890196202
20
-1.12253339929563
30
0
41
1
10
35.4172607048751
20
-1.64004082118211
30
0
41
1
10
36.1596945430606
20
-2.42466371303712
30
0
41
1
10
36.4308650445027
20
-2.68747231690765
30
0
41
1
10
36.8727029397433
20
-3.09111160015607
30
0
41
1
10
37.0263475570632
20
-3.22765914829952
30
0
41
1
10
37.3426047455446
20
-3.50260288334098
30
0
41
1
10
37.5049800231123
20
-3.64082153041591
30
0
41
1
10
38.0040507103463
20
-4.05878122975454
30
0
41
1
10
38.352637151667
20
-4.34193399432797
30
0
41
1
10
39.0785878869334
20
-4.92024977996698
30
0
41
1
10
39.4559511735594
20
-5.21539538601405
30
0
41
1
10
40.0426527446693
20
-5.66691069837333
30
0
41
1
10
40.2416763120394
20
-5.8188584344619
30
0
41
1
10
40.6466465380172
20
-6.12535252462123
30
0
41
1
10
40.852800344962
20
-6.28004646245233
30
0
41
1
10
41.4769552695874
20
-6.74378585628696
30
0
41
1
10
41.9020797656605
20
-7.05365541924883
30
0
41
1
10
42.336863838188
20
-7.36197520459328
30
0
0
SPLINE
5
1D9
100
AcDbEntity
8
1
62
256
6
ByLayer
370
-1
48
1
60
0
100
AcDbSpline
70
4
71
1
72
4
73
2
40
0
40
0
40
1
40
1
41
1
10
51.5554942921273
20
5.92321775741644
30
0
41
1
10
51.5554942921273
20
9.40760643877965
30
0
0
SPLINE
5
1DA
100
AcDbEntity
8
1
62
256
6
ByLayer
370
-1
48
1
60
0
100
AcDbSpline
70
4
71
3
72
8
73
4
40
0
40
0
40
0
40
0
40
1
40
1
40
1
40
1
41
1
10
145.758491845946
20
5.79286213601682
30
0
41
1
10
145.786166424195
20
5.78225624373553
30
0
41
1
10
145.813896762629
20
5.7717373874498
30
0
41
1
10
145.84168395056
20
5.76130636525167
30
0
0
SPLINE
5
1DB
100
AcDbEntity
8
1
62
256
6
ByLayer
370
-1
48
1
60
0
100
AcDbSpline
70
4
71
3
72
36
73
32
40
0
40
0
40
0
40
0
40
0.125000000000001
40
0.125000000000001
40
0.250000000000001
40
0.250000000000001
40
0.281250000000001
40
0.281250000000001
40
0.312500000000002
40
0.312500000000002
40
0.375000000000002
40
0.375000000000002
40
0.500000000000003
40
0.500000000000003
40
0.531250000000003
40
0.531250000000003
40
0.562500000000003
40
0.562500000000003
40
0.625000000000003
40
0.625000000000003
40
0.750000000000002
40
0.750000000000002
40
0.781250000000002
40
0.781250000000002
40
0.812500000000002
40
0.812500000000002
40
0.875000000000002
40
0.875000000000002
40
0.937500000000001
40
0.937500000000001
40
1
40
1
40
1
40
1
41
1
10
34.7178657885977
20
-1.80692367639082
30
0
41
1
10
34.805549459755
20
-2.43190489536937
30
0
41
1
10
34.90965960416
20
-3.04579067666106
30
0
41
1
10
35.1617904681442
20
-4.24874521779623
30
0
41
1
10
35.3097253008547
20
-4.83784211313943
30
0
41
1
10
35.5316731027296
20
-5.55603689298459
30
0
41
1
10
35.577929123936
20
-5.69876152541676
30
0
41
1
10
35.6744860233382
20
-5.98228934640287
30
0
41
1
10
35.7248842876969
20
-6.12334862915429
30
0
41
1
10
35.8819496981903
20
-6.54158687597896
30
0
41
1
10
35.9940679897616
20
-6.81284140366887
30
0
41
1
10
36.3551074121224
20
-7.6028919292271
30
0
41
1
10
36.6284891550274
20
-8.09814590280342
30
0
41
1
10
37.0218433425479
20
-8.67250147630028
30
0
41
1
10
37.1031131068194
20
-8.78512355557683
30
0
41
1
10
37.2712022524662
20
-9.00567281286692
30
0
41
1
10
37.3577925164598
20
-9.11326262977857
30
0
41
1
10
37.6231642240712
20
-9.4251560509006
30
0
41
1
10
37.8083825062026
20
-9.61971680230204
30
0
41
1
10
38.3901532026508
20
-10.1633281097989
30
0
41
1
10
38.812682866084
20
-10.472526186645
30
0
41
1
10
39.3898774846404
20
-10.7896118619224
30
0
41
1
10
39.5081768201077
20
-10.8497183840046
30
0
41
1
10
39.7476119567037
20
-10.961778409184
30
0
41
1
10
39.8686764031343
20
-11.0137387466094
30
0
41
1
10
40.2358807517668
20
-11.1578126739913
30
0
41
1
10
40.4860281737888
20
-11.238137656964
30
0
41
1
10
40.9969399043448
20
-11.3689899742147
30
0
41
1
10
41.2577042530706
20
-11.4195141471982
30
0
41
1
10
41.7898892077556
20
-11.4918527793485
30
0
41
1
10
42.062049852545
20
-11.5136431005746
30
0
41
1
10
42.336863838188
20
-11.5213903779681
30
0
0
SPLINE
5
1DC
100
AcDbEntity
8
1
62
256
6
ByLayer
370
-1
48
1
60
0
100
AcDbSpline
70
4
71
3
72
12
73
8
40
0
40
0
40
0
40
0
40
0.25
40
0.25
40
0.499999999999999
40
0.499999999999999
40
1
40
1
40
1
40
1
41
1
10
126.825205994832
20
12.7119855276502
30
0
41
1
10
126.935653655459
20
12.8424271417102
30
0
41
1
10
127.057482074595
20
12.9561342216574
30
0
41
1
10
127.312530943683
20
13.1666634462356
30
0
41
1
10
127.446074124656
20
13.2630175257166
30
0
41
1
10
127.858207357129
20
13.5349425183398
30
0
41
1
10
128.148953804305
20
13.6937810190078
30
0
41
1
10
128.44379826451
20
13.8389607566032
30
0
0
SPLINE
5
1DD
100
AcDbEntity
8
1
62
256
6
ByLayer
370
-1
48
1
60
0
100
AcDbSpline
70
4
71
3
72
14
73
10
40
0
40
0
40
0
40
0
40
0.25
40
0.25
40
0.5
40
0.5
40
0.75
40
0.75
40
1
40
1
40
1
40
1
41
1
10
33.49194434244
20
0.384597460689804
30
0
41
1
10
33.1314851717055
20
0.56741729060343
30
0
41
1
10
32.7849719362185
20
0.771550412239208
30
0
41
1
10
32.1182921038484
20
1.22032473190777
30
0
41
1
10
31.7981304503201
20
1.46497248698626
30
0
41
1
10
31.1841871059411
20
1.99502874804705
30
0
41
1
10
30.8892923263559
20
2.28198964547553
30
0
41
1
10
30.3400514489583
20
2.88419053030069
30
0
41
1
10
30.0840617731926
20
3.20056754713164
30
0
41
1
10
29.8468823089777
20
3.53234980831221
30
0
0
SPLINE
5
1DE
100
AcDbEntity
8
1
62
256
6
ByLayer
370
-1
48
1
60
0
100
AcDbSpline
70
4
71
3
72
8
73
4
40
0
40
0
40
0
40
0
40
1
40
1
40
1
40
1
41
1
10
143.600249456004
20
6.54992391871704
30
0
41
1
10
144.291673395767
20
6.24594105550236
30
0
41
1
10
145.008719167586
20
5.99291180648549
30
0
41
1
10
145.758491845946
20
5.79286213601674
30
0
0
SPLINE
5
1DF
100
AcDbEntity
8
1
62
256
6
ByLayer
370
-1
48
1
60
0
100
AcDbSpline
70
4
71
3
72
8
73
4
40
0
40
0
40
0
40
0
40
1
40
1
40
1
40
1
41
1
10
148.887500546408
20
-17.8705960242483
30
0
41
1
10
149.182725443547
20
-17.874768564733
30
0
41
1
10
149.473511240422
20
-17.8793600523214
30
0
41
1
10
149.759856173895
20
-17.8837224260827
30
0
0
SPLINE
5
1E0
100
AcDbEntity
8
1
62
256
6
ByLayer
370
-1
48
1
60
0
100
AcDbSpline
70
4
71
3
72
8
73
4
40
0
40
0
40
0
40
0
40
1
40
1
40
1
40
1
41
1
10
38.8554942921274
20
14.6986028209792
30
0
41
1
10
38.8554942921274
20
14.9632888074622
30
0
41
1
10
38.8554942921274
20
15.2279747939453
30
0
41
1
10
38.8554942921274
20
15.4926607804284
30
0
0
SPLINE
5
1E1
100
AcDbEntity
8
1
62
256
6
ByLayer
370
-1
48
1
60
0
100
AcDbSpline
70
4
71
3
72
12
73
8
40
0
40
0
40
0
40
0
40
0.250000000000015
40
0.250000000000015
40
0.50000000000003
40
0.50000000000003
40
1
40
1
40
1
40
1
41
1
10
150.509535966383
20
17.8947367317712
30
0
41
1
10
150.51483417143
20
17.8932808121023
30
0
41
1
10
150.526739065152
20
17.8915654801315
30
0
41
1
10
150.563243153449
20
17.8877117639912
30
0
41
1
10
150.588259455296
20
17.8855479030832
30
0
41
1
10
150.679416843176
20
17.8789250564653
30
0
41
1
10
150.763438041583
20
17.8741905050995
30
0
41
1
10
150.863753964679
20
17.8703446473243
30
0
0
SPLINE
5
1E2
100
AcDbEntity
8
1
62
256
6
ByLayer
370
-1
48
1
60
0
100
AcDbSpline
70
4
71
2
72
6
73
3
40
0
40
0
40
0
40
1
40
1
40
1
41
1
10
42.3368638379268
20
-7.36197520453763
30
0
41
1
10
42.3368638379268
20
-9.44168279122505
30
0
41
1
10
42.3368638379267
20
-11.5213903779124
30
0
0
SPLINE
5
1E3
100
AcDbEntity
8
1
62
256
6
ByLayer
370
-1
48
1
60
0
100
AcDbSpline
70
4
71
3
72
8
73
4
40
0
40
0
40
0
40
0
40
1
40
1
40
1
40
1
41
1
10
34.7178657885977
20
-0.56381025937182
30
0
41
1
10
34.7178657885977
20
-0.978181398378098
30
0
41
1
10
34.7178657885977
20
-1.39255253738438
30
0
41
1
10
34.7178657885977
20
-1.80692367639065
30
0
0
SPLINE
5
1E4
100
AcDbEntity
8
1
62
256
6
ByLayer
370
-1
48
1
60
0
100
AcDbSpline
70
4
71
3
72
40
73
36
40
0
40
0
40
0
40
0
40
0.0624999999999998
40
0.0624999999999998
40
0.125
40
0.125
40
0.187499999999999
40
0.187499999999999
40
0.218749999999999
40
0.218749999999999
40
0.249999999999998
40
0.249999999999998
40
0.374999999999997
40
0.374999999999997
40
0.437499999999996
40
0.437499999999996
40
0.499999999999996
40
0.499999999999996
40
0.562499999999995
40
0.562499999999995
40
0.593749999999995
40
0.593749999999995
40
0.624999999999995
40
0.624999999999995
40
0.687499999999996
40
0.687499999999996
40
0.749999999999996
40
0.749999999999996
40
0.812499999999997
40
0.812499999999997
40
0.843749999999997
40
0.843749999999997
40
0.874999999999997
40
0.874999999999997
40
1
40
1
40
1
40
1
41
1
10
51.5554942921275
20
9.40760643877934
30
0
41
1
10
53.2742139507159
20
8.81603042721173
30
0
41
1
10
54.9908768761208
20
8.20529005324414
30
0
41
1
10
58.4223825849366
20
6.95093340301401
30
0
41
1
10
60.1367860449179
20
6.3062963279765
30
0
41
1
10
63.5667226182723
20
4.99085380406552
30
0
41
1
10
65.2820856794951
20
4.31963802389643
30
0
41
1
10
67.8589480905393
20
3.30028067754577
30
0
41
1
10
68.7187505240984
20
2.9581265230226
30
0
41
1
10
70.436450401214
20
2.27138827362344
30
0
41
1
10
71.2947083152303
20
1.92665036036203
30
0
41
1
10
75.5841590124534
20
0.198909878511728
30
0
41
1
10
79.010254017563
20
-1.1951987057414
30
0
41
1
10
84.1609462428648
20
-3.25510329034191
30
0
41
1
10
85.880967985732
20
-3.9367682182793
30
0
41
1
10
89.31459513249
20
-5.27679060899916
30
0
41
1
10
91.0297247614681
20
-5.93557670424431
30
0
41
1
10
94.4599846827389
20
-7.22287895849868
30
0
41
1
10
96.1745842727675
20
-7.8526085946404
30
0
41
1
10
98.7488696228747
20
-8.76900338199928
30
0
41
1
10
99.6073368809546
20
-9.06983131327121
30
0
41
1
10
101.325355504811
20
-9.66144299248168
30
0
41
1
10
102.18506997377
20
-9.95229207828649
30
0
41
1
10
104.761103471053
20
-10.806807024026
30
0
41
1
10
106.47604727886
20
-11.3529117102247
30
0
41
1
10
109.905534037868
20
-12.3897141417822
30
0
41
1
10
111.619928459852
20
-12.8807482773456
30
0
41
1
10
115.050669779698
20
-13.8035311485387
30
0
41
1
10
116.767067280944
20
-14.2351963144175
30
0
41
1
10
119.345190711341
20
-14.8346428215209
30
0
41
1
10
120.204565769166
20
-15.0262684696778
30
0
41
1
10
121.921509159402
20
-15.3921159807366
30
0
41
1
10
122.779439411838
20
-15.566375013009
30
0
41
1
10
127.067648713766
20
-16.3929116969104
30
0
41
1
10
130.492047175551
20
-16.912205777748
30
0
41
1
10
133.925015328744
20
-17.2754763403132
30
0
0
SPLINE
5
1E5
100
AcDbEntity
8
1
62
256
6
ByLayer
370
-1
48
1
60
0
100
AcDbSpline
70
4
71
3
72
16
73
12
40
0
40
0
40
0
40
0
40
0.124999999999999
40
0.124999999999999
40
0.249999999999998
40
0.249999999999998
40
0.499999999999999
40
0.499999999999999
40
0.749999999999999
40
0.749999999999999
40
1
40
1
40
1
40
1
41
1
10
10.5386751345948
20
-9.34922131452504
30
0
41
1
10
10.5071959726827
20
-9.34922131452504
30
0
41
1
10
10.4765695733598
20
-9.35536120669445
30
0
41
1
10
10.4184736929998
20
-9.37748487924955
30
0
41
1
10
10.3920418953324
20
-9.39290424748299
30
0
41
1
10
10.3182367311259
20
-9.44829073160841
30
0
41
1
10
10.2791703657593
20
-9.49467220053401
30
0
41
1
10
10.2125137122668
20
-9.59453680346891
30
0
41
1
10
10.1857347330744
20
-9.64728479257926
30
0
41
1
10
10.1400559187761
20
-9.75611455014868
30
0
41
1
10
10.1212556944726
20
-9.81241059371419
30
0
41
1
10
10.1056624327025
20
-9.86941261896609
30
0
0
SPLINE
5
1E6
100
AcDbEntity
8
1
62
256
6
ByLayer
370
-1
48
1
60
0
100
AcDbSpline
70
4
71
3
72
10
73
6
40
0
40
0
40
0
40
0
40
0.269673657853013
40
0.269673657853013
40
1
40
1
40
1
40
1
41
1
10
127.850489477127
20
9.53821850758305
30
0
41
1
10
127.751493108933
20
9.70809131170611
30
0
41
1
10
127.651385014097
20
9.87996406540776
30
0
41
1
10
127.27300014348
20
10.5228605401522
30
0
41
1
10
126.982553461835
20
11.0036038751719
30
0
41
1
10
126.661251208991
20
11.4833815993052
30
0
0
SPLINE
5
1E7
100
AcDbEntity
8
1
62
256
6
ByLayer
370
-1
48
1
60
0
100
AcDbSpline
70
4
71
3
72
24
73
20
40
0
40
0
40
0
40
0
40
0.249999999999995
40
0.249999999999995
40
0.374999999999994
40
0.374999999999994
40
0.437499999999993
40
0.437499999999993
40
0.499999999999992
40
0.499999999999992
40
0.531249999999992
40
0.531249999999992
40
0.562499999999993
40
0.562499999999993
40
0.624999999999994
40
0.624999999999994
40
0.749999999999996
40
0.749999999999996
40
1
40
1
40
1
40
1
41
1
10
49
20
10.6510181370712
30
0
41
1
10
48.1669481239605
20
11.0155325692592
30
0
41
1
10
47.3241731642144
20
11.3839064954025
30
0
41
1
10
46.0547259780745
20
11.9676885801249
30
0
41
1
10
45.6307419549773
20
12.1675927547635
30
0
41
1
10
44.9951490835555
20
12.4796924407757
30
0
41
1
10
44.7829866196407
20
12.585963234848
30
0
41
1
10
44.3608351793048
20
12.8025450314627
30
0
41
1
10
44.1514158656401
20
12.9125566959191
30
0
41
1
10
43.8400151773228
20
13.0806651851273
30
0
41
1
10
43.7368202974183
20
13.1374199342714
30
0
41
1
10
43.5306579753023
20
13.2510698327001
30
0
41
1
10
43.4274447754752
20
13.307632110748
30
0
41
1
10
43.1171719658198
20
13.4762004120224
30
0
41
1
10
42.9095711000591
20
13.5872119571835
30
0
41
1
10
42.2843972027545
20
13.915900094122
30
0
41
1
10
41.8644553088324
20
14.12923523322
30
0
41
1
10
40.5941564915167
20
14.7497462519877
30
0
41
1
10
39.7333806682599
20
15.1375392829519
30
0
41
1
10
38.8554942921268
20
15.4926607804269
30
0
0
SPLINE
5
1E8
100
AcDbEntity
8
1
62
256
6
ByLayer
370
-1
48
1
60
0
100
AcDbSpline
70
4
71
3
72
26
73
22
40
0
40
0
40
0
40
0
40
0.140852278472717
40
0.140852278472717
40
0.281704556945434
40
0.281704556945434
40
0.422556835418151
40
0.422556835418151
40
0.49298297465451
40
0.49298297465451
40
0.528196044272689
40
0.528196044272689
40
0.563409113890868
40
0.563409113890868
40
0.704261392363585
40
0.704261392363585
40
0.845113670836303
40
0.845113670836303
40
0.98596594930902
40
0.98596594930902
40
1
40
1
40
1
40
1
41
1
10
49
20
-11.6221480961718
30
0
41
1
10
52.1843994423262
20
-12.6104285917441
30
0
41
1
10
55.3506893416549
20
-13.5007631989083
30
0
41
1
10
61.6701345438245
20
-15.0521150755651
30
0
41
1
10
64.8231047280646
20
-15.7136872217473
30
0
41
1
10
71.1350488307592
20
-16.7868279713038
30
0
41
1
10
74.2942543602181
20
-17.1981093761169
30
0
41
1
10
79.052722200219
20
-17.6142162943109
30
0
41
1
10
80.6421356223881
20
-17.7195114205983
30
0
41
1
10
83.0327649518159
20
-17.8260565729437
30
0
41
1
10
83.8297688489197
20
-17.8529505789899
30
0
41
1
10
85.4206787784301
20
-17.8893942845558
30
0
41
1
10
86.2151268544702
20
-17.8989665058147
30
0
41
1
10
90.1832143277269
20
-17.9037376384811
30
0
41
1
10
93.3444558409421
20
-17.769254982883
30
0
41
1
10
99.662766985809
20
-17.2347716862369
30
0
41
1
10
102.819960856352
20
-16.8351704187575
30
0
41
1
10
109.148702385804
20
-15.7870737031404
30
0
41
1
10
112.320095904805
20
-15.1381520692285
30
0
41
1
10
115.826788860583
20
-14.3004926438652
30
0
41
1
10
116.144691786049
20
-14.2234766627043
30
0
41
1
10
116.462653714162
20
-14.145389635075
30
0
0
SPLINE
5
1E9
100
AcDbEntity
8
1
62
256
6
ByLayer
370
-1
48
1
60
0
100
AcDbSpline
70
4
71
3
72
26
73
22
40
0
40
0
40
0
40
0
40
0.0509772234567796
40
0.123978975498566
40
0.196980727540352
40
0.269982479582138
40
0.342984231623923
40
0.41598598366571
40
0.452486859686603
40
0.488987735707497
40
0.561989487749283
40
0.598490363770176
40
0.634991239791069
40
0.671492115811962
40
0.707992991832855
40
0.780994743874641
40
0.853996495916428
40
0.890497371937321
40
0.926998247958214
40
0.963499123979107
40
1
40
1
40
1
40
1
41
1
10
69.770348927367
20
2.53783534207977
30
0
41
1
10
69.4609177353104
20
2.60073546993439
30
0
41
1
10
68.7083420456573
20
2.75322979165841
30
0
41
1
10
67.5125617559694
20
2.99353734676899
30
0
41
1
10
66.1829628857412
20
3.25800281055257
30
0
41
1
10
64.853182274895
20
3.51974902924863
30
0
41
1
10
63.523358846485
20
3.77865805760513
30
0
41
1
10
62.4153324372646
20
3.99157949637185
30
0
41
1
10
61.5289353547324
20
4.15988052327486
30
0
41
1
10
60.6422710554494
20
4.32676044694583
30
0
41
1
10
59.7554816409727
20
4.49185612793752
30
0
41
1
10
58.8689109539354
20
4.6549710347999
30
0
41
1
10
58.2041651372398
20
4.7760888232433
30
0
41
1
10
57.5395523477839
20
4.8959919787489
30
0
41
1
10
56.6534441926797
20
5.05414351516396
30
0
41
1
10
55.5451235816689
20
5.24889793701283
30
0
41
1
10
54.4358508082935
20
5.44048213760402
30
0
41
1
10
53.5486364148425
20
5.59156609334508
30
0
41
1
10
52.8833533669926
20
5.70364796695128
30
0
41
1
10
52.2187368313678
20
5.8143967726316
30
0
41
1
10
51.7764444314178
20
5.88715755216586
30
0
41
1
10
51.5554942921302
20
5.92321775741576
30
0
0
SPLINE
5
1EA
100
AcDbEntity
8
1
62
256
6
ByLayer
370
-1
48
1
60
0
100
AcDbSpline
70
4
71
3
72
8
73
4
40
0
40
0
40
0
40
0
40
1
40
1
40
1
40
1
41
1
10
34.0477153945948
20
0.0903499111169879
30
0
41
1
10
34.2577127804065
20
-0.550333075578976
30
0
41
1
10
34.4812627722312
20
-1.18268207986125
30
0
41
1
10
34.7178657885977
20
-1.80692367639065
30
0
0
SPLINE
5
1EB
100
AcDbEntity
8
1
62
256
6
ByLayer
370
-1
48
1
60
0
100
AcDbSpline
70
4
71
3
72
14
73
10
40
0
40
0
40
0
40
0
40
0.125000000000009
40
0.125000000000009
40
0.250000000000018
40
0.250000000000018
40
0.500000000000018
40
0.500000000000018
40
1
40
1
40
1
40
1
41
1
10
145.758491845946
20
5.79286213601679
30
0
41
1
10
145.947205229557
20
5.74394561759951
30
0
41
1
10
146.13696300793
20
5.69841815533803
30
0
41
1
10
146.516350179572
20
5.61460797884675
30
0
41
1
10
146.706304033911
20
5.57623953173905
30
0
41
1
10
147.276938605826
20
5.47161486590667
30
0
41
1
10
147.658391358777
20
5.41582580507014
30
0
41
1
10
148.805812454841
20
5.28981322943619
30
0
41
1
10
149.574827555134
20
5.26072824186213
30
0
41
1
10
150.348029392851
20
5.28774834165057
30
0
0
SPLINE
5
1EC
100
AcDbEntity
8
1
62
256
6
ByLayer
370
-1
48
1
60
0
100
AcDbSpline
70
4
71
3
72
12
73
8
40
0
40
0
40
0
40
0
40
0.104898575173219
40
0.104898575173219
40
0.403265716782146
40
0.403265716782146
40
1
40
1
40
1
40
1
41
1
10
162.118134573653
20
5.86199402067345
30
0
41
1
10
162.117189034091
20
5.84778203287686
30
0
41
1
10
162.116162525224
20
5.83418097854823
30
0
41
1
10
162.111969370027
20
5.78421247843036
30
0
41
1
10
162.10827783625
20
5.75195303076887
30
0
41
1
10
162.096484127083
20
5.67470202145742
30
0
41
1
10
162.0874188984
20
5.6471784192008
30
0
41
1
10
162.078510038949
20
5.64709577022663
30
0
0
SPLINE
5
1ED
100
AcDbEntity
8
1
62
256
6
ByLayer
370
-1
48
1
60
0
100
AcDbSpline
70
4
71
3
72
8
73
4
40
0
40
0
40
0
40
0
40
1
40
1
40
1
40
1
41
1
10
141.606077424044
20
3.21307090834389
30
0
41
1
10
141.861287890546
20
3.11922679435691
30
0
41
1
10
142.111954392557
20
3.03373887962795
30
0
41
1
10
142.35812693373
20
2.95651520910619
30
0
0
SPLINE
5
1EE
100
AcDbEntity
8
1
62
256
6
ByLayer
370
-1
48
1
60
0
100
AcDbSpline
70
4
71
3
72
12
73
8
40
0
40
0
40
0
40
0
40
0.250000000000014
40
0.250000000000014
40
0.500000000000027
40
0.500000000000027
40
1
40
1
40
1
40
1
41
1
10
150.708632428613
20
11.6508896046344
30
0
41
1
10
150.712827327029
20
11.6508896046344
30
0
41
1
10
150.720998162061
20
11.6565662848321
30
0
41
1
10
150.744383675153
20
11.6773646209114
30
0
41
1
10
150.759816543561
20
11.6927061225575
30
0
41
1
10
150.813598400103
20
11.747398831469
30
0
41
1
10
150.860068001527
20
11.7957547539079
30
0
41
1
10
150.914006987746
20
11.8474859621574
30
0
0
SPLINE
5
1EF
100
AcDbEntity
8
1
62
256
6
ByLayer
370
-1
48
1
60
0
100
AcDbSpline
70
4
71
3
72
21
73
17
40
0
40
0
40
0
40
0
40
0.500000000000005
40
0.500000000000005
40
0.562500000000007
40
0.562500000000007
40
0.625000000000009
40
0.625000000000009
40
0.750000000000013
40
0.750000000000013
40
0.781250000000012
40
0.781250000000012
40
0.812500000000011
40
0.812500000000011
40
0.875000000000006
40
1
40
1
40
1
40
1
41
1
10
49
20
-11.6221480961719
30
0
41
1
10
47.8807588074961
20
-11.2747908439094
30
0
41
1
10
46.7522775867099
20
-11.0989883211487
30
0
41
1
10
45.4871210321928
20
-11.1032282306728
30
0
41
1
10
45.3466110546299
20
-11.1065245887795
30
0
41
1
10
45.0657723074021
20
-11.1188435492114
30
0
41
1
10
44.9251912438079
20
-11.1278894929928
30
0
41
1
10
44.5057531048817
20
-11.163579955475
30
0
41
1
10
44.2298645006092
20
-11.1986602329625
30
0
41
1
10
43.8898803314844
20
-11.256231728967
30
0
41
1
10
43.8221274449688
20
-11.2684329129225
30
0
41
1
10
43.6871152332861
20
-11.2942028074204
30
0
41
1
10
43.6198546158505
20
-11.3077644543789
30
0
41
1
10
43.4178052568423
20
-11.3468448083064
30
0
41
1
10
43.0133691720279
20
-11.4212555536688
30
0
41
1
10
42.6078198264156
20
-11.4843769316569
30
0
41
1
10
42.3368638379267
20
-11.5213903779611
30
0
0
SPLINE
5
1F0
100
AcDbEntity
8
1
62
256
6
ByLayer
370
-1
48
1
60
0
100
AcDbSpline
70
4
71
3
72
16
73
12
40
0
40
0
40
0
40
0
40
0.124999999999999
40
0.124999999999999
40
0.249999999999998
40
0.249999999999998
40
0.499999999999999
40
0.499999999999999
40
0.749999999999999
40
0.749999999999999
40
1
40
1
40
1
40
1
41
1
10
10.5386751345948
20
30.0805927603169
30
0
41
1
10
10.5071959726827
20
30.0805927603169
30
0
41
1
10
10.4765695733598
20
30.078685990659
30
0
41
1
10
10.4184736929998
20
30.0717959485602
30
0
41
1
10
10.3920418953325
20
30.0669872793662
30
0
41
1
10
10.3182367311259
20
30.049647240705
30
0
41
1
10
10.2791703657593
20
30.0350452819075
30
0
41
1
10
10.2125137122669
20
30.0032932993815
30
0
41
1
10
10.1857347330744
20
29.9863830332716
30
0
41
1
10
10.1400559187761
20
29.9511519005795
30
0
41
1
10
10.1212556944726
20
29.9327613369588
30
0
41
1
10
10.1056624327026
20
29.9139548464691
30
0
0
SPLINE
5
1F1
100
AcDbEntity
8
1
62
256
6
ByLayer
370
-1
48
1
60
0
100
AcDbSpline
70
4
71
3
72
16
73
12
40
0
40
0
40
0
40
0
40
0.249999999999991
40
0.249999999999991
40
0.499999999999982
40
0.499999999999982
40
0.624999999999986
40
0.624999999999986
40
0.749999999999991
40
0.749999999999991
40
1
40
1
40
1
40
1
41
1
10
145.461664805473
20
2.57851980978631
30
0
41
1
10
145.252835496912
20
2.55344345602549
30
0
41
1
10
145.026124034471
20
2.5421828023706
30
0
41
1
10
144.54541590106
20
2.54720199062354
30
0
41
1
10
144.291333174037
20
2.56351162232235
30
0
41
1
10
143.893068166777
20
2.61013212903151
30
0
41
1
10
143.757028700237
20
2.62946140784243
30
0
41
1
10
143.483051519797
20
2.67527951315438
30
0
41
1
10
143.344815604956
20
2.70178324684744
30
0
41
1
10
142.926925679502
20
2.7921394169251
30
0
41
1
10
142.644119165211
20
2.8668002077886
30
0
41
1
10
142.35812693373
20
2.95651520910619
30
0
0
SPLINE
5
1F2
100
AcDbEntity
8
1
62
256
6
ByLayer
370
-1
48
1
60
0
100
AcDbSpline
70
4
71
3
72
8
73
4
40
0
40
0
40
0
40
0
40
1
40
1
40
1
40
1
41
1
10
28.5
20
12.9438278488668
30
0
41
1
10
28.3020350652028
20
12.5781976710611
30
0
41
1
10
28.1408866852142
20
12.1950194697039
30
0
41
1
10
28.0157853790299
20
11.7933134155712
30
0
0
SPLINE
5
1F3
100
AcDbEntity
8
1
62
256
6
ByLayer
370
-1
48
1
60
0
100
AcDbSpline
70
4
71
3
72
16
73
12
40
0
40
0
40
0
40
0
40
0.250000000000003
40
0.250000000000003
40
0.500000000000005
40
0.500000000000005
40
0.625000000000007
40
0.625000000000007
40
0.750000000000008
40
0.750000000000008
40
1
40
1
40
1
40
1
41
1
10
149.181366256227
20
0.775812429844791
30
0
41
1
10
148.572435256168
20
0.73998943161007
30
0
41
1
10
147.967383522855
20
0.740513895869867
30
0
41
1
10
146.76481142407
20
0.812128930470124
30
0
41
1
10
146.167291250538
20
0.883221434316823
30
0
41
1
10
145.276779880833
20
1.04380054282169
30
0
41
1
10
144.980907215634
20
1.1063436952544
30
0
41
1
10
144.391149234568
20
1.24997681197226
30
0
41
1
10
144.096602231848
20
1.33130050462384
30
0
41
1
10
143.224012240201
20
1.60161394376644
30
0
41
1
10
142.65529458822
20
1.81707307859395
30
0
41
1
10
142.100045936634
20
2.06866272273837
30
0
0
SPLINE
5
1F4
100
AcDbEntity
8
1
62
256
6
ByLayer
370
-1
48
1
60
0
100
AcDbSpline
70
4
71
3
72
32
73
28
40
0
40
0
40
0
40
0
40
0.125000000000001
40
0.125000000000001
40
0.250000000000001
40
0.250000000000001
40
0.312500000000002
40
0.312500000000002
40
0.375000000000003
40
0.375000000000003
40
0.500000000000003
40
0.500000000000003
40
0.531250000000003
40
0.531250000000003
40
0.562500000000003
40
0.562500000000003
40
0.625000000000002
40
0.625000000000002
40
0.75
40
0.75
40
0.78125
40
0.78125
40
0.8125
40
0.8125
40
0.874999999999999
40
0.874999999999999
40
1
40
1
40
1
40
1
41
1
10
38.8554942921274
20
15.4926607804284
30
0
41
1
10
38.3608142039395
20
15.6945494889108
30
0
41
1
10
37.8616972593856
20
15.8604007941259
30
0
41
1
10
36.8545066227769
20
16.1213267291811
30
0
41
1
10
36.3464338533156
20
16.2164222417309
30
0
41
1
10
35.5767026138025
20
16.3016293699153
30
0
41
1
10
35.3213628730006
20
16.3200705055722
30
0
41
1
10
34.8166080330176
20
16.3368473587439
30
0
41
1
10
34.5666185966825
20
16.3352482442246
30
0
41
1
10
33.8237269318665
20
16.3001427688274
30
0
41
1
10
33.3378387916128
20
16.2365969540858
30
0
41
1
10
32.7427776353166
20
16.102178057839
30
0
41
1
10
32.6243092050192
20
16.0724829866563
30
0
41
1
10
32.391227510804
20
16.0081271952326
30
0
41
1
10
32.2762861548376
20
15.9733992958589
30
0
41
1
10
31.9362078294634
20
15.8616132628881
30
0
41
1
10
31.7158074011839
20
15.7769667243565
30
0
41
1
10
31.073480234754
20
15.4925325747752
30
0
41
1
10
30.6702630346309
20
15.2625132635068
30
0
41
1
10
30.1995344342885
20
14.9204811580662
30
0
41
1
10
30.1074397696956
20
14.8495792802852
30
0
41
1
10
29.9286667777061
20
14.7038956880668
30
0
41
1
10
29.8417738601238
20
14.6289598862943
30
0
41
1
10
29.5884535101928
20
14.3979579047638
30
0
41
1
10
29.4293703224961
20
14.2357090220869
30
0
41
1
10
28.9810701135145
20
13.724475076547
30
0
41
1
10
28.7205693656412
20
13.3512071479356
30
0
41
1
10
28.5
20
12.9438278488668
30
0
0
SPLINE
5
1F5
100
AcDbEntity
8
1
62
256
6
ByLayer
370
-1
48
1
60
0
100
AcDbSpline
70
4
71
3
72
30
73
26
40
0
40
0
40
0
40
0
40
0.0624999999999938
40
0.0624999999999938
40
0.124999999999988
40
0.124999999999988
40
0.156249999999985
40
0.156249999999985
40
0.187499999999981
40
0.187499999999981
40
0.218749999999978
40
0.218749999999978
40
0.249999999999975
40
0.249999999999975
40
0.312499999999969
40
0.312499999999969
40
0.374999999999963
40
0.374999999999963
40
0.49999999999997
40
0.49999999999997
40
0.624999999999978
40
0.624999999999978
40
0.749999999999985
40
0.749999999999985
40
1
40
1
40
1
40
1
41
1
10
142.471277718992
20
7.93365759936032
30
0
41
1
10
142.422324774224
20
7.92559115001717
30
0
41
1
10
142.373858022672
20
7.91515703742877
30
0
41
1
10
142.278611760971
20
7.88604656633254
30
0
41
1
10
142.232530397111
20
7.8677573182172
30
0
41
1
10
142.169400227016
20
7.82929026068754
30
0
41
1
10
142.149352752886
20
7.81444327402554
30
0
41
1
10
142.114630283102
20
7.78083927278942
30
0
41
1
10
142.099693190675
20
7.76166418398228
30
0
41
1
10
142.078070938416
20
7.7210189798304
30
0
41
1
10
142.071091908761
20
7.69894089587035
30
0
41
1
10
142.065123719471
20
7.65516512290495
30
0
41
1
10
142.065936642516
20
7.6329930431973
30
0
41
1
10
142.076339394176
20
7.56933099997295
30
0
41
1
10
142.093563017782
20
7.52913615158829
30
0
41
1
10
142.136141793194
20
7.45487496446594
30
0
41
1
10
142.161853542895
20
7.420223516509
30
0
41
1
10
142.246629587008
20
7.32075173110056
30
0
41
1
10
142.311170695137
20
7.26242885892623
30
0
41
1
10
142.447462512315
20
7.1529838257471
30
0
41
1
10
142.519528196193
20
7.10217210150213
30
0
41
1
10
142.668696044487
20
7.00555042162037
30
0
41
1
10
142.745889666678
20
6.95978650052444
30
0
41
1
10
142.981462987044
20
6.82911223823393
30
0
41
1
10
143.14442001354
20
6.75026600899938
30
0
41
1
10
143.311399787473
20
6.67688705453804
30
0
0
SPLINE
5
1F6
100
AcDbEntity
8
1
62
256
6
ByLayer
370
-1
48
1
60
0
100
AcDbSpline
70
4
71
3
72
8
73
4
40
0
40
0
40
0
40
0
40
1
40
1
40
1
40
1
41
1
10
147.124234713519
20
17.8813419735431
30
0
41
1
10
147.526987514525
20
17.8856970480334
30
0
41
1
10
147.918915690493
20
17.8905735913236
30
0
41
1
10
148.300385129906
20
17.8943136578614
30
0
0
SPLINE
5
1F7
100
AcDbEntity
8
1
62
256
6
ByLayer
370
-1
48
1
60
0
100
AcDbSpline
70
4
71
3
72
16
73
12
40
0
40
0
40
0
40
0
40
0.249999999999999
40
0.249999999999999
40
0.499999999999998
40
0.499999999999998
40
0.749999999999997
40
0.749999999999997
40
0.874999999999998
40
0.874999999999998
40
1
40
1
40
1
40
1
41
1
10
13.8943375672974
20
29.9139548464691
30
0
41
1
10
13.8787501654513
20
29.9327542695084
30
0
41
1
10
13.8600981524864
20
29.9510098933135
30
0
41
1
10
13.8145135903111
20
29.9862144781928
30
0
41
1
10
13.7875017792166
20
30.0032856662985
30
0
41
1
10
13.720820003123
20
30.0350501233766
30
0
41
1
10
13.6810618560869
20
30.0498069467437
30
0
41
1
10
13.6084081576259
20
30.0668840803113
30
0
41
1
10
13.5814155034803
20
30.0718038277879
30
0
41
1
10
13.5238105256953
20
30.0786461490401
30
0
41
1
10
13.4927587974109
20
30.0805927603169
30
0
41
1
10
13.4613248654052
20
30.0805927603169
30
0
0
SPLINE
5
1F8
100
AcDbEntity
8
1
62
256
6
ByLayer
370
-1
48
1
60
0
100
AcDbSpline
70
4
71
3
72
10
73
6
40
0
40
0
40
0
40
0
40
0.5
40
0.5
40
1
40
1
40
1
40
1
41
1
10
28.5
20
5.92005533670275
30
0
41
1
10
28.6769996168241
20
5.50178831487199
30
0
41
1
10
28.8788343510976
20
5.09421582888197
30
0
41
1
10
29.328522276666
20
4.29868309547936
30
0
41
1
10
29.5763918166751
20
3.91072973028821
30
0
41
1
10
29.8468823089778
20
3.53234980831201
30
0
0
SPLINE
5
1F9
100
AcDbEntity
8
1
62
256
6
ByLayer
370
-1
48
1
60
0
100
AcDbSpline
70
4
71
3
72
16
73
12
40
0
40
0
40
0
40
0
40
0.124999999999995
40
0.124999999999995
40
0.249999999999991
40
0.249999999999991
40
0.499999999999994
40
0.499999999999994
40
0.749999999999997
40
0.749999999999997
40
1
40
1
40
1
40
1
41
1
10
13.4613248654051
20
-30.080592760317
30
0
41
1
10
13.4928040273172
20
-30.080592760317
30
0
41
1
10
13.5234304266402
20
-30.0786859906591
30
0
41
1
10
13.5815263070002
20
-30.0717959485602
30
0
41
1
10
13.6079581046675
20
-30.0669872793662
30
0
41
1
10
13.681763268874
20
-30.049647240705
30
0
41
1
10
13.7208296342407
20
-30.0350452819075
30
0
41
1
10
13.7874862877331
20
-30.0032932993815
30
0
41
1
10
13.8142652669256
20
-29.9863830332716
30
0
41
1
10
13.8599440812239
20
-29.9511519005796
30
0
41
1
10
13.8787443055274
20
-29.9327613369588
30
0
41
1
10
13.8943375672974
20
-29.9139548464691
30
0
0
SPLINE
5
1FA
100
AcDbEntity
8
1
62
256
6
ByLayer
370
-1
48
1
60
0
100
AcDbSpline
70
4
71
3
72
8
73
4
40
0
40
0
40
0
40
0
40
1
40
1
40
1
40
1
41
1
10
151.138395216448
20
6.25312368133689
30
0
41
1
10
151.139117861276
20
6.23680648858928
30
0
41
1
10
151.139921851334
20
6.22049269802392
30
0
41
1
10
151.140807090557
20
6.20418352383706
30
0
0
SPLINE
5
1FB
100
AcDbEntity
8
1
62
256
6
ByLayer
370
-1
48
1
60
0
100
AcDbSpline
70
4
71
3
72
10
73
6
40
0
40
0
40
0
40
0
40
0.048549441032877
40
0.365699627355251
40
1
40
1
40
1
40
1
41
1
10
151.255875390704
20
6.94028031737884
30
0
41
1
10
151.254857129689
20
6.94024529429532
30
0
41
1
10
151.247187601106
20
6.93998151401053
30
0
41
1
10
151.226223594824
20
6.93926068003324
30
0
41
1
10
151.206274306065
20
6.93857466630999
30
0
41
1
10
151.192975404997
20
6.93811735970206
30
0
0
SPLINE
5
1FC
100
AcDbEntity
8
1
62
256
6
ByLayer
370
-1
48
1
60
0
100
AcDbSpline
70
4
71
3
72
10
73
6
40
0
40
0
40
0
40
0
40
0.0485494410334924
40
0.365699627355662
40
1
40
1
40
1
40
1
41
1
10
152.173969066932
20
18.0375315760969
30
0
41
1
10
152.173915029546
20
18.0385345059874
30
0
41
1
10
152.173507659459
20
18.046088185034
30
0
41
1
10
152.172388997556
20
18.0667301693813
30
0
41
1
10
152.171326413663
20
18.0863750321154
30
0
41
1
10
152.170617661516
20
18.0994705799683
30
0
0
SPLINE
5
1FD
100
AcDbEntity
8
1
62
256
6
ByLayer
370
-1
48
1
60
0
100
AcDbSpline
70
4
71
3
72
8
73
4
40
0
40
0
40
0
40
0
40
1
40
1
40
1
40
1
41
1
10
163.237396201635
20
7.36021557824236
30
0
41
1
10
163.349320457721
20
7.36410916841092
30
0
41
1
10
163.461227639886
20
7.36805461903671
30
0
41
1
10
163.567969918929
20
7.37187043590686
30
0
0
SPLINE
5
1FE
100
AcDbEntity
8
1
62
256
6
ByLayer
370
-1
48
1
60
0
100
AcDbSpline
70
4
71
3
72
23
73
19
40
0
40
0
40
0
40
0
40
0.0074200078967267
40
0.0149215578681388
40
0.0299246578109629
40
0.0599308576966113
40
0.119943257467908
40
0.239968057010501
40
0.480017656095688
40
0.600042455638281
40
0.630048655523929
40
0.660054855409578
40
0.690061055295226
40
0.720067255180874
40
0.840092054723468
40
0.960116854266061
40
0.990123054151709
40
1
40
1
40
1
40
1
41
1
10
163.066541959381
20
18.2988830675227
30
0
41
1
10
163.065383506169
20
18.2999668250108
30
0
41
1
10
163.063047118072
20
18.302136117878
30
0
41
1
10
163.058324669815
20
18.3064482271994
30
0
41
1
10
163.049946037179
20
18.3139117731345
30
0
41
1
10
163.032827515376
20
18.3284234588407
30
0
41
1
10
162.99721347153
20
18.3557518463223
30
0
41
1
10
162.920960463371
20
18.4033592951097
30
0
41
1
10
162.824315057952
20
18.4398655169384
30
0
41
1
10
162.742106031805
20
18.4537781740743
30
0
41
1
10
162.703838825521
20
18.4569935422555
30
0
41
1
10
162.684667896491
20
18.4580393202766
30
0
41
1
10
162.665492755629
20
18.4589905629607
30
0
41
1
10
162.627130248233
20
18.4606116503733
30
0
41
1
10
162.569542022316
20
18.4618877509408
30
0
41
1
10
162.511942274221
20
18.4613887816764
30
0
41
1
10
162.477851378115
20
18.4604388996122
30
0
41
1
10
162.469350010323
20
18.4601585247473
30
0
41
1
10
162.467244690069
20
18.4600874079385
30
0
0
SPLINE
5
1FF
100
AcDbEntity
8
1
62
256
6
ByLayer
370
-1
48
1
60
0
100
AcDbSpline
70
4
71
3
72
15
73
11
40
0
40
0
40
0
40
0
40
0.0144496252551577
40
0.0300932819971394
40
0.0613805954811026
40
0.123955222449029
40
0.249104476384882
40
0.499402984256588
40
0.749701492128294
40
1
40
1
40
1
40
1
41
1
10
163.728994738953
20
6.78553713883565
30
0
41
1
10
163.72816677285
20
6.78550811517846
30
0
41
1
10
163.727793460169
20
6.78549502901555
30
0
41
1
10
163.726052329849
20
6.78543399515272
30
0
41
1
10
163.723212802699
20
6.78533445791041
30
0
41
1
10
163.717362359796
20
6.78512937554203
30
0
41
1
10
163.70577573306
20
6.78472321606114
30
0
41
1
10
163.689167367797
20
6.78414102374865
30
0
41
1
10
163.669259419569
20
6.78344316732313
30
0
41
1
10
163.655984914993
20
6.78297784070043
30
0
41
1
10
163.649347662705
20
6.78274517738907
30
0
0
SPLINE
5
200
100
AcDbEntity
8
1
62
256
6
ByLayer
370
-1
48
1
60
0
100
AcDbSpline
70
4
71
3
72
8
73
4
40
0
40
0
40
0
40
0
40
1
40
1
40
1
40
1
41
1
10
150.751729387205
20
17.3616343429851
30
0
41
1
10
150.752579773723
20
17.3313101379185
30
0
41
1
10
150.75356861327
20
17.3009894517432
30
0
41
1
10
150.754694621894
20
17.2706741114297
30
0
0
SPLINE
5
201
100
AcDbEntity
8
1
62
256
6
ByLayer
370
-1
48
1
60
0
100
AcDbSpline
70
4
71
3
72
10
73
6
40
0
40
0
40
0
40
0
40
0.5
40
0.5
40
1
40
1
40
1
40
1
41
1
10
151.170275774793
20
18.1216817744279
30
0
41
1
10
151.120065436375
20
18.1062508231692
30
0
41
1
10
151.072925348289
20
18.0846568601957
30
0
41
1
10
150.984603098628
20
18.0295111679859
30
0
41
1
10
150.943619295676
20
17.9958587603807
30
0
41
1
10
150.907667657963
20
17.9573839272883
30
0
0
SPLINE
5
202
100
AcDbEntity
8
1
62
256
6
ByLayer
370
-1
48
1
60
0
100
AcDbSpline
70
4
71
3
72
8
73
4
40
0
40
0
40
0
40
0
40
1
40
1
40
1
40
1
41
1
10
151.150867214971
20
6.04444185337445
30
0
41
1
10
151.153608745622
20
6.00658293267492
30
0
41
1
10
151.160516505909
20
5.96950555179316
30
0
41
1
10
151.171590493564
20
5.93320973333891
30
0
0
SPLINE
5
203
100
AcDbEntity
8
1
62
256
6
ByLayer
370
-1
48
1
60
0
100
AcDbSpline
70
4
71
3
72
12
73
8
40
0
40
0
40
0
40
0
40
0.659147749652376
40
0.82393468706547
40
0.906328155772017
40
0.988721624478564
40
1
40
1
40
1
40
1
41
1
10
162.248249091184
20
7.17630176493151
30
0
41
1
10
162.248482404199
20
7.16959503586062
30
0
41
1
10
162.248923207807
20
7.16121548096899
30
0
41
1
10
162.249564643143
20
7.15291410736029
30
0
41
1
10
162.24981287974
20
7.15001687359873
30
0
41
1
10
162.249950903607
20
7.14852058289787
30
0
41
1
10
162.250025147452
20
7.14773336624566
30
0
41
1
10
162.250034096777
20
7.1476386936688
30
0
0
SPLINE
5
204
100
AcDbEntity
8
1
62
256
6
ByLayer
370
-1
48
1
60
0
100
AcDbSpline
70
4
71
3
72
8
73
4
40
0
40
0
40
0
40
0
40
1
40
1
40
1
40
1
41
1
10
152.594214838682
20
6.01215908360959
30
0
41
1
10
152.598944317325
20
5.90066124936286
30
0
41
1
10
152.602228947184
20
5.78767832592717
30
0
41
1
10
152.603917632384
20
5.67840762755253
30
0
0
SPLINE
5
205
100
AcDbEntity
8
1
62
256
6
ByLayer
370
-1
48
1
60
0
100
AcDbSpline
70
4
71
3
72
10
73
6
40
0
40
0
40
0
40
0
40
0.5
40
0.5
40
1
40
1
40
1
40
1
41
1
10
163.312366999968
20
18.1230015152188
30
0
41
1
10
163.297002904557
20
18.1734118164727
30
0
41
1
10
163.275483556807
20
18.2207243868473
30
0
41
1
10
163.220503062346
20
18.3093391943463
30
0
41
1
10
163.186940648331
20
18.3504413393879
30
0
41
1
10
163.148560265006
20
18.3864781494546
30
0
0
SPLINE
5
206
100
AcDbEntity
8
1
62
256
6
ByLayer
370
-1
48
1
60
0
100
AcDbSpline
70
4
71
3
72
8
73
4
40
0
40
0
40
0
40
0
40
1
40
1
40
1
40
1
41
1
10
163.332975599141
20
18.0117693951811
30
0
41
1
10
163.330298676152
20
18.0496283158806
30
0
41
1
10
163.323429271056
20
18.0867056967624
30
0
41
1
10
163.312366999976
20
18.1230015152166
30
0
0
SPLINE
5
207
100
AcDbEntity
8
1
62
256
6
ByLayer
370
-1
48
1
60
0
100
AcDbSpline
70
4
71
3
72
15
73
11
40
0
40
0
40
0
40
0
40
0.0229190021790647
40
0.110481321488012
40
0.285605960105907
40
0.635855237341697
40
0.810979875959592
40
0.898542195268539
40
0.986104514577487
40
1
40
1
40
1
40
1
41
1
10
162.668637700234
20
17.0962825305795
30
0
41
1
10
162.670393185391
20
17.0963435863668
30
0
41
1
10
162.67885559073
20
17.0966379388568
30
0
41
1
10
162.700731221167
20
17.0973989823114
30
0
41
1
10
162.747678819415
20
17.0990321551008
30
0
41
1
10
162.801333007429
20
17.1008986749159
30
0
41
1
10
162.848280488519
20
17.102531869163
30
0
41
1
10
162.875107575146
20
17.1034650911689
30
0
41
1
10
162.889585473304
20
17.1039687577643
30
0
41
1
10
162.897356610301
20
17.1042391275302
30
0
41
1
10
162.898420929097
20
17.1042761584295
30
0
0
SPLINE
5
208
100
AcDbEntity
8
1
62
256
6
ByLayer
370
-1
48
1
60
0
100
AcDbSpline
70
4
71
3
72
9
73
5
40
0
40
0
40
0
40
0
40
0.593749999997775
40
1
40
1
40
1
40
1
41
1
10
151.213544730297
20
6.34683983932513
30
0
41
1
10
151.197961512847
20
6.34628936667676
30
0
41
1
10
151.171716093983
20
6.34536225484791
30
0
41
1
10
151.14547067512
20
6.34443514301907
30
0
41
1
10
151.134808473706
20
6.34405850383862
30
0
0
SPLINE
5
209
100
AcDbEntity
8
1
62
256
6
ByLayer
370
-1
48
1
60
0
100
AcDbSpline
70
4
71
3
72
15
73
11
40
0
40
0
40
0
40
0
40
0.0218721291689165
40
0.0870806538909887
40
0.217497703335133
40
0.478331802223422
40
0.543540326945494
40
0.608748851667567
40
0.739165901111711
40
1
40
1
40
1
40
1
41
1
10
152.01644439694
20
5.59612384061705
30
0
41
1
10
152.020743517934
20
5.59626877695004
30
0
41
1
10
152.037858478156
20
5.5968736467247
30
0
41
1
10
152.080594299553
20
5.59833179431769
30
0
41
1
10
152.170224101441
20
5.60142439945525
30
0
41
1
10
152.259719329638
20
5.60448271293936
30
0
41
1
10
152.336315228833
20
5.6070954367909
30
0
41
1
10
152.387410763768
20
5.60885005804741
30
0
41
1
10
152.476879421913
20
5.6119465673878
30
0
41
1
10
152.553655910769
20
5.6146505416354
30
0
41
1
10
152.604874815801
20
5.61647062441313
30
0
0
SPLINE
5
20A
100
AcDbEntity
8
1
62
256
6
ByLayer
370
-1
48
1
60
0
100
AcDbSpline
70
4
71
3
72
8
73
4
40
0
40
0
40
0
40
0
40
1
40
1
40
1
40
1
41
1
10
161.902019029265
20
17.3776324189178
30
0
41
1
10
161.905398012003
20
17.5062261375753
30
0
41
1
10
161.904933331456
20
17.6587577875416
30
0
41
1
10
161.900686169571
20
17.8151443602513
30
0
0
SPLINE
5
20B
100
AcDbEntity
8
1
62
256
6
ByLayer
370
-1
48
1
60
0
100
AcDbSpline
70
4
71
3
72
8
73
4
40
0
40
0
40
0
40
0
40
1
40
1
40
1
40
1
41
1
10
151.579427050951
20
18.1584696926947
30
0
41
1
10
151.549223679012
20
18.1574149492193
30
0
41
1
10
151.519027793653
20
18.1562158509427
30
0
41
1
10
151.488841530786
20
18.1548725295457
30
0
0
SPLINE
5
20C
100
AcDbEntity
8
1
62
256
6
ByLayer
370
-1
48
1
60
0
100
AcDbSpline
70
4
71
3
72
15
73
11
40
0
40
0
40
0
40
0
40
0.250148781622265
40
0.500297563244531
40
0.750446344866796
40
0.875520735677928
40
0.938057931083495
40
0.969326528786278
40
0.98496082763767
40
1
40
1
40
1
40
1
41
1
10
163.488114213992
20
6.18051096672315
30
0
41
1
10
163.495439833995
20
6.17370399627467
30
0
41
1
10
163.510091074001
20
6.16009005537774
30
0
41
1
10
163.532063586221
20
6.13967318400145
30
0
41
1
10
163.550395027389
20
6.12263959800387
30
0
41
1
10
163.563182253969
20
6.11075769948729
30
0
41
1
10
163.56964108411
20
6.10475615069254
30
0
41
1
10
163.572772673904
20
6.10184627559988
30
0
41
1
10
163.574717457948
20
6.10003918111357
30
0
41
1
10
163.575275692728
20
6.09952046902532
30
0
41
1
10
163.576021655571
20
6.09882731990967
30
0
0
SPLINE
5
20D
100
AcDbEntity
8
1
62
256
6
ByLayer
370
-1
48
1
60
0
100
AcDbSpline
70
4
71
3
72
8
73
4
40
0
40
0
40
0
40
0
40
1
40
1
40
1
40
1
41
1
10
162.557878610483
20
7.33694368790657
30
0
41
1
10
162.693835477505
20
7.34143427951389
30
0
41
1
10
162.850628271508
20
7.34676080210255
30
0
41
1
10
163.007612942382
20
7.35222194155975
30
0
0
SPLINE
5
20E
100
AcDbEntity
8
1
62
256
6
ByLayer
370
-1
48
1
60
0
100
AcDbSpline
70
4
71
3
72
8
73
4
40
0
40
0
40
0
40
0
40
1
40
1
40
1
40
1
41
1
10
162.603779066781
20
18.5440482568608
30
0
41
1
10
162.587521460383
20
18.5437609203856
30
0
41
1
10
162.571265189016
20
18.5433933031132
30
0
41
1
10
162.55501138366
20
18.5429455217335
30
0
0
SPLINE
5
20F
100
AcDbEntity
8
1
62
256
6
ByLayer
370
-1
48
1
60
0
100
AcDbSpline
70
4
71
2
72
9
73
6
40
0
40
0
40
0
40
0.25
40
0.5
40
0.75
40
1
40
1
40
1
41
1
10
162.248249091184
20
7.17630176493151
30
0
41
1
10
162.277925869641
20
7.17746425204982
30
0
41
1
10
162.331540457302
20
7.20172541341003
30
0
41
1
10
162.372260370469
20
7.24520056699518
30
0
41
1
10
162.393306754409
20
7.30100873406661
30
0
41
1
10
162.392372263626
20
7.33144531348972
30
0
0
SPLINE
5
210
100
AcDbEntity
8
1
62
256
6
ByLayer
370
-1
48
1
60
0
100
AcDbSpline
70
4
71
3
72
17
73
13
40
0
40
0
40
0
40
0
40
0.0285647612451844
40
0.114009773641732
40
0.284899798434826
40
0.455789823227921
40
0.626679848021016
40
0.79756987281411
40
0.883014885210657
40
0.925737391408931
40
0.968459897607205
40
1
40
1
40
1
40
1
41
1
10
152.195036620815
20
17.0373681877005
30
0
41
1
10
152.195132271911
20
17.0410469257889
30
0
41
1
10
152.195509191285
20
17.055759773951
30
0
41
1
10
152.196315246536
20
17.0933602985423
30
0
41
1
10
152.19711498042
20
17.1520547726002
30
0
41
1
10
152.197396677178
20
17.2257201293061
30
0
41
1
10
152.197003560076
20
17.3019978374139
30
0
41
1
10
152.196113662476
20
17.3672412468077
30
0
41
1
10
152.19520042944
20
17.4135160608995
30
0
41
1
10
152.194597134911
20
17.4400912259523
30
0
41
1
10
152.194146100478
20
17.4583359652915
30
0
41
1
10
152.193836792704
20
17.4699435917478
30
0
41
1
10
152.193703963356
20
17.474875000006
30
0
0
SPLINE
5
211
100
AcDbEntity
8
1
62
256
6
ByLayer
370
-1
48
1
60
0
100
AcDbSpline
70
4
71
3
72
8
73
4
40
0
40
0
40
0
40
0
40
1
40
1
40
1
40
1
41
1
10
151.928545320267
20
5.5132657268253
30
0
41
1
10
151.958776055236
20
5.51409735528406
30
0
41
1
10
151.989003590458
20
5.51506765871608
30
0
41
1
10
152.019225724752
20
5.51617573088623
30
0
0
SPLINE
5
212
100
AcDbEntity
8
1
62
256
6
ByLayer
370
-1
48
1
60
0
100
AcDbSpline
70
4
71
3
72
12
73
8
40
0
40
0
40
0
40
0
40
0.52173413229974
40
0.78260119844961
40
0.913034731524546
40
0.978251498062013
40
1
40
1
40
1
40
1
41
1
10
163.289498563075
20
17.1180938888535
30
0
41
1
10
163.285921328525
20
17.2209237735276
30
0
41
1
10
163.280556704421
20
17.3751686401165
30
0
41
1
10
163.274292528445
20
17.5551207965594
30
0
41
1
10
163.271170003995
20
17.6450972287877
30
0
41
1
10
163.269666811781
20
17.6879444157619
30
0
41
1
10
163.269085161309
20
17.7050851886396
30
0
41
1
10
163.268933293086
20
17.7093715624775
30
0
0
SPLINE
5
213
100
AcDbEntity
8
1
62
256
6
ByLayer
370
-1
48
1
60
0
100
AcDbSpline
70
4
71
3
72
8
73
4
40
0
40
0
40
0
40
0
40
1
40
1
40
1
40
1
41
1
10
163.202815530794
20
5.91378459471127
30
0
41
1
10
163.240562690701
20
5.91650417033742
30
0
41
1
10
163.27751815855
20
5.92341906629579
30
0
41
1
10
163.313681718744
20
5.93452947411942
30
0
0
SPLINE
5
214
100
AcDbEntity
8
1
62
256
6
ByLayer
370
-1
48
1
60
0
100
AcDbSpline
70
4
71
3
72
15
73
11
40
0
40
0
40
0
40
0
40
0.022919002179145
40
0.110481321488093
40
0.285605960105988
40
0.635855237341778
40
0.810979875959674
40
0.898542195268621
40
0.986104514577569
40
1
40
1
40
1
40
1
41
1
10
151.816552152576
20
6.95992871797597
30
0
41
1
10
151.814824126207
20
6.95986766218877
30
0
41
1
10
151.806492377566
20
6.9595733096987
30
0
41
1
10
151.784947002939
20
6.95881226624408
30
0
41
1
10
151.738714634223
20
6.9571790934547
30
0
41
1
10
151.685875341668
20
6.95531257363959
30
0
41
1
10
151.639641631531
20
6.95367937939247
30
0
41
1
10
151.613224140342
20
6.95274615738666
30
0
41
1
10
151.598965558792
20
6.95224249079126
30
0
41
1
10
151.591310865759
20
6.95197212102534
30
0
41
1
10
151.590262402618
20
6.95193509012609
30
0
0
SPLINE
5
215
100
AcDbEntity
8
1
62
256
6
ByLayer
370
-1
48
1
60
0
100
AcDbSpline
70
4
71
3
72
12
73
8
40
0
40
0
40
0
40
0
40
0.341077853836625
40
0.341077853836625
40
0.670538966398327
40
0.670538966398327
40
1
40
1
40
1
40
1
41
1
10
152.019225724751
20
5.51617573090266
30
0
41
1
10
152.086238163782
20
5.51863269227889
30
0
41
1
10
152.153268314535
20
5.52113465423651
30
0
41
1
10
152.2849535618
20
5.52581778810304
30
0
41
1
10
152.349599649328
20
5.52798388819471
30
0
41
1
10
152.478904664973
20
5.53235432814174
30
0
41
1
10
152.543565268175
20
5.5345560137599
30
0
41
1
10
152.608253257346
20
5.53682359695731
30
0
0
SPLINE
5
216
100
AcDbEntity
8
1
62
256
6
ByLayer
370
-1
48
1
60
0
100
AcDbSpline
70
4
71
3
72
10
73
6
40
0
40
0
40
0
40
0
40
0.634300400239036
40
0.951450600358554
40
1
40
1
40
1
40
1
41
1
10
163.628473759121
20
7.3740333237165
30
0
41
1
10
163.615681230201
20
7.37357601712625
30
0
41
1
10
163.596490303002
20
7.37289000340121
30
0
41
1
10
163.576327442122
20
7.37216916954043
30
0
41
1
10
163.568947101874
20
7.3719053892946
30
0
41
1
10
163.567967136933
20
7.37187036624357
30
0
0
SPLINE
5
217
100
AcDbEntity
8
1
62
256
6
ByLayer
370
-1
48
1
60
0
100
AcDbSpline
70
4
71
3
72
12
73
8
40
0
40
0
40
0
40
0
40
0.52173413229974
40
0.782601198449609
40
0.913034731524544
40
0.978251498062012
40
1
40
1
40
1
40
1
41
1
10
151.192975404997
20
6.93811735970206
30
0
41
1
10
151.196552639559
20
6.83528747502797
30
0
41
1
10
151.201916456148
20
6.68104260843904
30
0
41
1
10
151.208182139813
20
6.50109045199613
30
0
41
1
10
151.211303229339
20
6.41111401976787
30
0
41
1
10
151.212807491721
20
6.36826683279367
30
0
41
1
10
151.213388558705
20
6.35112605991594
30
0
41
1
10
151.213540181041
20
6.34683968607797
30
0
0
SPLINE
5
218
100
AcDbEntity
8
1
62
256
6
ByLayer
370
-1
48
1
60
0
100
AcDbSpline
70
4
71
3
72
15
73
11
40
0
40
0
40
0
40
0
40
0.0218721291688664
40
0.087080653890942
40
0.217497703335093
40
0.478331802223396
40
0.543540326945471
40
0.608748851667547
40
0.739165901111698
40
1
40
1
40
1
40
1
41
1
10
150.834338392399
20
17.2734659505011
30
0
41
1
10
150.834487012271
20
17.2691546588064
30
0
41
1
10
150.835105920376
20
17.2519907246744
30
0
41
1
10
150.836584433002
20
17.2091176720943
30
0
41
1
10
150.83965840497
20
17.1191386078282
30
0
41
1
10
150.842571605332
20
17.0291675372283
30
0
41
1
10
150.84497291682
20
16.9520768143988
30
0
41
1
10
150.846610944956
20
16.9006757667019
30
0
41
1
10
150.849545012115
20
16.8107141182957
30
0
41
1
10
150.852186540117
20
16.7335919996868
30
0
41
1
10
150.854000173192
20
16.682177924839
30
0
0
SPLINE
5
219
100
AcDbEntity
8
1
62
256
6
ByLayer
370
-1
48
1
60
0
100
AcDbSpline
70
4
71
3
72
12
73
8
40
0
40
0
40
0
40
0
40
0.0112779549364345
40
0.0936714586917317
40
0.176064962447029
40
0.340851969957623
40
1
40
1
40
1
40
1
41
1
10
162.421714594883
20
7.33244626830054
30
0
41
1
10
162.421614464056
20
7.33244295569992
30
0
41
1
10
162.420781978213
20
7.33241540894986
30
0
41
1
10
162.419202776313
20
7.33236305147088
30
0
41
1
10
162.416174934255
20
7.33226211149369
30
0
41
1
10
162.407547664551
20
7.33197202687086
30
0
41
1
10
162.399053471316
20
7.33167951762081
30
0
41
1
10
162.392372263626
20
7.33144531348972
30
0
0
SPLINE
5
21A
100
AcDbEntity
8
1
62
256
6
ByLayer
370
-1
48
1
60
0
100
AcDbSpline
70
4
71
3
72
8
73
4
40
0
40
0
40
0
40
0
40
1
40
1
40
1
40
1
41
1
10
151.440095530124
20
18.1524593975029
30
0
41
1
10
151.387034427713
20
18.1495670591443
30
0
41
1
10
151.333992453589
20
18.1462491864892
30
0
41
1
10
151.281027283319
20
18.1424266538443
30
0
0
SPLINE
5
21B
100
AcDbEntity
8
1
62
256
6
ByLayer
370
-1
48
1
60
0
100
AcDbSpline
70
4
71
3
72
10
73
6
40
0
40
0
40
0
40
0
40
0.5
40
0.5
40
1
40
1
40
1
40
1
41
1
10
163.148560264931
20
18.3864781493748
30
0
41
1
10
163.110132495444
20
18.4224526696158
30
0
41
1
10
163.067909910846
20
18.452656549748
30
0
41
1
10
162.976098572108
20
18.5018464286643
30
0
41
1
10
162.926532722271
20
18.5206011923377
30
0
41
1
10
162.875322350548
20
18.5325184490616
30
0
0
SPLINE
5
21C
100
AcDbEntity
8
1
62
256
6
ByLayer
370
-1
48
1
60
0
100
AcDbSpline
70
4
71
3
72
8
73
4
40
0
40
0
40
0
40
0
40
1
40
1
40
1
40
1
41
1
10
163.345300631391
20
17.8030875672186
30
0
41
1
10
163.34458223044
20
17.8194047599662
30
0
41
1
10
163.343783531109
20
17.8357185505316
30
0
41
1
10
163.342904606807
20
17.8520277247185
30
0
0
SPLINE
5
21D
100
AcDbEntity
8
1
62
256
6
ByLayer
370
-1
48
1
60
0
100
AcDbSpline
70
4
71
3
72
10
73
6
40
0
40
0
40
0
40
0
40
0.5
40
0.5
40
1
40
1
40
1
40
1
41
1
10
154.307229687393
20
9.14181785604998
30
0
41
1
10
154.299262611445
20
9.1874523214166
30
0
41
1
10
154.28819027161
20
9.23540472394086
30
0
41
1
10
154.259939154093
20
9.33578730281113
30
0
41
1
10
154.242555607958
20
9.38836523713221
30
0
41
1
10
154.223686193918
20
9.43933778130955
30
0
0
SPLINE
5
21E
100
AcDbEntity
8
1
62
256
6
ByLayer
370
-1
48
1
60
0
100
AcDbSpline
70
4
71
3
72
17
73
13
40
0
40
0
40
0
40
0
40
0.0285647612451784
40
0.114009773641727
40
0.284899798434823
40
0.455789823227919
40
0.626679848021015
40
0.797569872814111
40
0.883014885210659
40
0.925737391408933
40
0.968459897607207
40
1
40
1
40
1
40
1
41
1
10
162.262378673197
20
7.01884306085503
30
0
41
1
10
162.262730275332
20
7.01516432276665
30
0
41
1
10
162.264130852457
20
7.00045147460457
30
0
41
1
10
162.267552993191
20
6.96285095001326
30
0
41
1
10
162.272436440352
20
6.90415647595529
30
0
41
1
10
162.277843461087
20
6.83049111924944
30
0
41
1
10
162.282757424325
20
6.75421341114162
30
0
41
1
10
162.286406887226
20
6.68897000174786
30
0
41
1
10
162.288713260051
20
6.64269518765602
30
0
41
1
10
162.289958953116
20
6.61612002260321
30
0
41
1
10
162.290777310487
20
6.59787528326405
30
0
41
1
10
162.291275612271
20
6.58626765680776
30
0
41
1
10
162.291485889454
20
6.58133624854952
30
0
0
SPLINE
5
21F
100
AcDbEntity
8
1
62
256
6
ByLayer
370
-1
48
1
60
0
100
AcDbSpline
70
4
71
3
72
12
73
8
40
0
40
0
40
0
40
0
40
0.521734132299758
40
0.782601198449637
40
0.913034731524577
40
0.978251498062047
40
1
40
1
40
1
40
1
41
1
10
162.311856306555
20
5.95674066858717
30
0
41
1
10
162.414294892479
20
5.96033156759805
30
0
41
1
10
162.567952407025
20
5.96571627839469
30
0
41
1
10
162.747220545029
20
5.97200513922942
30
0
41
1
10
162.836853872306
20
5.97513887101309
30
0
41
1
10
162.879538547882
20
5.97664834230528
30
0
41
1
10
162.896613803199
20
5.97723192172913
30
0
41
1
10
162.900883743147
20
5.97738424665022
30
0
0
SPLINE
5
220
100
AcDbEntity
8
1
62
256
6
ByLayer
370
-1
48
1
60
0
100
AcDbSpline
70
4
71
3
72
15
73
11
40
0
40
0
40
0
40
0
40
0.0204519912454045
40
0.0504132324411684
40
0.110335714832696
40
0.230180679615752
40
0.469870609181863
40
0.709560538747974
40
0.949250468314085
40
1
40
1
40
1
40
1
41
1
10
151.590262402618
20
6.95193509012609
30
0
41
1
10
151.588007423616
20
6.95185544602887
30
0
41
1
10
151.582447980556
20
6.95165910956024
30
0
41
1
10
151.570266306326
20
6.9512291651331
30
0
41
1
10
151.547053603957
20
6.95041099512881
30
0
41
1
10
151.500451537814
20
6.94877231333655
30
0
41
1
10
151.433493573843
20
6.94642924406753
30
0
41
1
10
151.352959499365
20
6.94362900194585
30
0
41
1
10
151.293762351267
20
6.94158374435142
30
0
41
1
10
151.261508939962
20
6.94047408328296
30
0
41
1
10
151.255875390704
20
6.94028031737884
30
0
0
SPLINE
5
221
100
AcDbEntity
8
1
62
256
6
ByLayer
370
-1
48
1
60
0
100
AcDbSpline
70
4
71
3
72
14
73
10
40
0
40
0
40
0
40
0
40
0.0138067085559602
40
0.0298030682371225
40
0.0617957875994469
40
0.317737542498042
40
0.829621052295234
40
0.957591929744532
40
1
40
1
40
1
40
1
41
1
10
162.082738878788
20
17.0765068134305
30
0
41
1
10
162.083369221942
20
17.0765276594546
30
0
41
1
10
162.084721612148
20
17.0765723257538
30
0
41
1
10
162.087525914346
20
17.0766649468727
30
0
41
1
10
162.101305246818
20
17.0771199608494
30
0
41
1
10
162.137629303317
20
17.0783198790693
30
0
41
1
10
162.178277504935
20
17.0796623932957
30
0
41
1
10
162.209244885351
20
17.0806852357355
30
0
41
1
10
162.216981237017
20
17.0809407843775
30
0
41
1
10
162.218908454037
20
17.0810044560356
30
0
0
SPLINE
5
222
100
AcDbEntity
8
1
62
256
6
ByLayer
370
-1
48
1
60
0
100
AcDbSpline
70
4
71
3
72
9
73
5
40
0
40
0
40
0
40
0
40
0.593749999999861
40
1
40
1
40
1
40
1
41
1
10
163.268929202015
20
17.7093714092304
30
0
41
1
10
163.284752963376
20
17.7099218818788
30
0
41
1
10
163.311403508826
20
17.7108489937076
30
0
41
1
10
163.338054054276
20
17.7117761055364
30
0
41
1
10
163.348880838365
20
17.7121527447169
30
0
0
SPLINE
5
223
100
AcDbEntity
8
1
62
256
6
ByLayer
370
-1
48
1
60
0
100
AcDbSpline
70
4
71
3
72
15
73
11
40
0
40
0
40
0
40
0
40
0.0138956313306394
40
0.101457951273506
40
0.189020271216372
40
0.364144911102104
40
0.714394190873569
40
0.889518830759302
40
0.977081150702168
40
1
40
1
40
1
40
1
41
1
10
163.237396185419
20
7.36021559976581
30
0
41
1
10
163.236331853566
20
7.36017856700744
30
0
41
1
10
163.228560691311
20
7.35990818589499
30
0
41
1
10
163.214082792741
20
7.3594045265707
30
0
41
1
10
163.187255707865
20
7.35847130469225
30
0
41
1
10
163.140308229038
20
7.35683811027118
30
0
41
1
10
163.086654042818
20
7.35497159163191
30
0
41
1
10
163.039706449652
20
7.35333841655694
30
0
41
1
10
163.017830827516
20
7.35257737696253
30
0
41
1
10
163.009368436049
20
7.35228302390843
30
0
41
1
10
163.007612963133
20
7.35222196827891
30
0
0
SPLINE
5
224
100
AcDbEntity
8
1
62
256
6
ByLayer
370
-1
48
1
60
0
100
AcDbSpline
70
4
71
3
72
14
73
10
40
0
40
0
40
0
40
0
40
0.0138067085560154
40
0.0298030682371751
40
0.0617957875994946
40
0.31773754249805
40
0.829621052295161
40
0.957591929744439
40
1
40
1
40
1
40
1
41
1
10
152.191653099829
20
16.9085725548867
30
0
41
1
10
152.191667995841
20
16.9091695069135
30
0
41
1
10
152.191701681525
20
16.9104485823725
30
0
41
1
10
152.191771486123
20
16.9131009041903
30
0
41
1
10
152.192117223286
20
16.9261307996747
30
0
41
1
10
152.193015520148
20
16.9604919617377
30
0
41
1
10
152.194028032012
20
16.9989365391618
30
0
41
1
10
152.19479754576
20
17.028226914335
30
0
41
1
10
152.194989212618
20
17.0355448699714
30
0
41
1
10
152.195036620815
20
17.0373681877005
30
0
0
SPLINE
5
225
100
AcDbEntity
8
1
62
256
6
ByLayer
370
-1
48
1
60
0
100
AcDbSpline
70
4
71
3
72
10
73
6
40
0
40
0
40
0
40
0
40
0.634300400238776
40
0.951450600358164
40
1
40
1
40
1
40
1
41
1
10
150.854000173192
20
16.682177924839
30
0
41
1
10
150.867299073941
20
16.6826352314293
30
0
41
1
10
150.887248363047
20
16.6833212451543
30
0
41
1
10
150.908212366251
20
16.6840420790151
30
0
41
1
10
150.915881893815
20
16.6843058592609
30
0
41
1
10
150.9169001539
20
16.684340882312
30
0
0
SPLINE
5
226
100
AcDbEntity
8
1
62
256
6
ByLayer
370
-1
48
1
60
0
100
AcDbSpline
70
4
71
3
72
9
73
5
40
0
40
0
40
0
40
0
40
0.593750000000044
40
1
40
1
40
1
40
1
41
1
10
162.900883819576
20
5.97738858331664
30
0
41
1
10
162.901552469465
20
5.96162510913265
30
0
41
1
10
162.902678616647
20
5.93507609998073
30
0
41
1
10
162.903804763828
20
5.90852709082878
30
0
41
1
10
162.904262261121
20
5.89774155586082
30
0
0
SPLINE
5
227
100
AcDbEntity
8
1
62
256
6
ByLayer
370
-1
48
1
60
0
100
AcDbSpline
70
4
71
3
72
10
73
6
40
0
40
0
40
0
40
0
40
0.5
40
0.5
40
1
40
1
40
1
40
1
41
1
10
163.313681718746
20
5.93452947412766
30
0
41
1
10
163.363908330005
20
5.94996042538634
30
0
41
1
10
163.41103330544
20
5.97155438835986
30
0
41
1
10
163.499266258584
20
6.02670008056964
30
0
41
1
10
163.540173933573
20
6.06035248817486
30
0
41
1
10
163.57602165411
20
6.09882732126721
30
0
0
SPLINE
5
228
100
AcDbEntity
8
1
62
256
6
ByLayer
370
-1
48
1
60
0
100
AcDbSpline
70
4
71
3
72
15
73
11
40
0
40
0
40
0
40
0
40
0.250148781622272
40
0.500297563244544
40
0.750446344866817
40
0.875520735677953
40
0.938057931083521
40
0.969326528786305
40
0.984960827637697
40
1
40
1
40
1
40
1
41
1
10
150.99428353813
20
17.8757002818324
30
0
41
1
10
150.987065548122
20
17.8825072522808
30
0
41
1
10
150.972629568108
20
17.8961211931778
30
0
41
1
10
150.950979881997
20
17.9165380645541
30
0
41
1
10
150.932917771334
20
17.9335716505516
30
0
41
1
10
150.920318418155
20
17.9454535490682
30
0
41
1
10
150.913954482898
20
17.951455097863
30
0
41
1
10
150.91086890327
20
17.9543649729557
30
0
41
1
10
150.908952692521
20
17.956172067442
30
0
41
1
10
150.908402659478
20
17.9566907795302
30
0
41
1
10
150.907667656523
20
17.9573839286458
30
0
0
SPLINE
5
229
100
AcDbEntity
8
1
62
256
6
ByLayer
370
-1
48
1
60
0
100
AcDbSpline
70
4
71
3
72
8
73
4
40
0
40
0
40
0
40
0
40
1
40
1
40
1
40
1
41
1
10
152.55539773146
20
6.67857882963773
30
0
41
1
10
152.567723721298
20
6.54998511098023
30
0
41
1
10
152.577871547875
20
6.3974534610139
30
0
41
1
10
152.584505102336
20
6.24106688830418
30
0
0
SPLINE
5
22A
100
AcDbEntity
8
1
62
256
6
ByLayer
370
-1
48
1
60
0
100
AcDbSpline
70
4
71
3
72
10
73
6
40
0
40
0
40
0
40
0
40
0.0485494410334816
40
0.365699627355654
40
1
40
1
40
1
40
1
41
1
10
163.228991934259
20
17.1159309311767
30
0
41
1
10
163.229971900123
20
17.1159659542602
30
0
41
1
10
163.237352241574
20
17.116229734545
30
0
41
1
10
163.257515106022
20
17.1169505685223
30
0
41
1
10
163.276706033464
20
17.1176365822455
30
0
41
1
10
163.289498563075
20
17.1180938888535
30
0
0
SPLINE
5
22B
100
AcDbEntity
8
1
62
256
6
ByLayer
370
-1
48
1
60
0
100
AcDbSpline
70
4
71
3
72
12
73
8
40
0
40
0
40
0
40
0
40
0.341077853836654
40
0.341077853836654
40
0.670538966398332
40
0.670538966398332
40
1
40
1
40
1
40
1
41
1
10
163.728994690161
20
6.78553713712529
30
0
41
1
10
163.726596198747
20
6.85275624467221
30
0
41
1
10
163.724173082095
20
6.91997285031692
30
0
41
1
10
163.719538279268
20
7.0521304869886
30
0
41
1
10
163.7173348898
20
7.1170692180346
30
0
41
1
10
163.712907220556
20
7.24694230010718
30
0
41
1
10
163.710684349829
20
7.31187957242227
30
0
41
1
10
163.708425395471
20
7.37681465920298
30
0
0
SPLINE
5
22C
100
AcDbEntity
8
1
62
256
6
ByLayer
370
-1
48
1
60
0
100
AcDbSpline
70
4
71
3
72
8
73
4
40
0
40
0
40
0
40
0
40
1
40
1
40
1
40
1
41
1
10
150.750595694493
20
17.410623598836
30
0
41
1
10
150.750893555707
20
17.3942922285026
30
0
41
1
10
150.751271505747
20
17.3779620843448
30
0
41
1
10
150.751729387202
20
17.3616343429851
30
0
0
SPLINE
5
22D
100
AcDbEntity
8
1
62
256
6
ByLayer
370
-1
48
1
60
0
100
AcDbSpline
70
4
71
3
72
14
73
10
40
0
40
0
40
0
40
0
40
0.0138067085559961
40
0.0298030682371576
40
0.0617957875994808
40
0.317737542498066
40
0.829621052295237
40
0.957591929744529
40
1
40
1
40
1
40
1
41
1
10
152.358948317819
20
6.97970443512509
30
0
41
1
10
152.358389300085
20
6.97968358910097
30
0
41
1
10
152.357193273909
20
6.97963892280168
30
0
41
1
10
152.354713118242
20
6.97954630168289
30
0
41
1
10
152.342531825118
20
6.97909128770615
30
0
41
1
10
152.310395066681
20
6.97789136948626
30
0
41
1
10
152.274446699899
20
6.97654885525978
30
0
41
1
10
152.24705624741
20
6.97552601282001
30
0
41
1
10
152.240212381864
20
6.97527046417807
30
0
41
1
10
152.238506839975
20
6.97520679251994
30
0
0
SPLINE
5
22E
100
AcDbEntity
8
1
62
256
6
ByLayer
370
-1
48
1
60
0
100
AcDbSpline
70
4
71
3
72
15
73
11
40
0
40
0
40
0
40
0
40
0.0204519912453775
40
0.0504132324411461
40
0.110335714832683
40
0.230180679615758
40
0.469870609181906
40
0.709560538748055
40
0.949250468314204
40
1
40
1
40
1
40
1
41
1
10
162.301195838589
20
6.3524286967957
30
0
41
1
10
162.30129223037
20
6.35014798825577
30
0
41
1
10
162.301529322799
20
6.3445256474111
30
0
41
1
10
162.302041103574
20
6.33221364989811
30
0
41
1
10
162.302983625645
20
6.3087843264278
30
0
41
1
10
162.304761145987
20
6.26185861957543
30
0
41
1
10
162.306978736949
20
6.19476189452951
30
0
41
1
10
162.30911755024
20
6.11457345188137
30
0
41
1
10
162.310303520535
20
6.05600493737987
30
0
41
1
10
162.310811163806
20
6.0242284019665
30
0
41
1
10
162.310898258031
20
6.0186796724586
30
0
0
SPLINE
5
22F
100
AcDbEntity
8
1
62
256
6
ByLayer
370
-1
48
1
60
0
100
AcDbSpline
70
4
71
3
72
17
73
13
40
0
40
0
40
0
40
0
40
0.0285647612451508
40
0.114009773641701
40
0.284899798434801
40
0.455789823227902
40
0.626679848021002
40
0.797569872814102
40
0.883014885210652
40
0.925737391408927
40
0.968459897607203
40
1
40
1
40
1
40
1
41
1
10
152.238506839975
20
6.97520679251994
30
0
41
1
10
152.235065727211
20
6.97507832815512
30
0
41
1
10
152.221297614128
20
6.97456454417588
30
0
41
1
10
152.185954268877
20
6.97325150492381
30
0
41
1
10
152.130324735536
20
6.97120184872475
30
0
41
1
10
152.059784056498
20
6.96862939778364
30
0
41
1
10
151.986057031167
20
6.96596572152137
30
0
41
1
10
151.922441675294
20
6.96368737146105
30
0
41
1
10
151.877039520735
20
6.96207141934482
30
0
41
1
10
151.850886681477
20
6.9611433941318
30
0
41
1
10
151.832895030348
20
6.96050627379486
30
0
41
1
10
151.821426071419
20
6.96010092654703
30
0
41
1
10
151.816552152576
20
6.95992871797597
30
0
0
SPLINE
5
230
100
AcDbEntity
8
1
62
256
6
ByLayer
370
-1
48
1
60
0
100
AcDbSpline
70
4
71
3
72
12
73
8
40
0
40
0
40
0
40
0
40
0.011277954937288
40
0.093671458692514
40
0.17606496244774
40
0.340851969958192
40
1
40
1
40
1
40
1
41
1
10
152.543052575283
20
6.80736807659491
30
0
41
1
10
152.543043643959
20
6.80746293706525
30
0
41
1
10
152.542969550144
20
6.80825177277757
30
0
41
1
10
152.542831806657
20
6.80975109480659
30
0
41
1
10
152.542582952094
20
6.81264163755972
30
0
41
1
10
152.541942027957
20
6.8209485742924
30
0
41
1
10
152.541500932918
20
6.82932494326477
30
0
41
1
10
152.541267620004
20
6.83603167208213
30
0
0
SPLINE
5
231
100
AcDbEntity
8
1
62
256
6
ByLayer
370
-1
48
1
60
0
100
AcDbSpline
70
4
71
3
72
15
73
11
40
0
40
0
40
0
40
0
40
0.0144496252550459
40
0.0300932819970293
40
0.0613805954809961
40
0.12395522244893
40
0.249104476384797
40
0.499402984256531
40
0.749701492128266
40
1
40
1
40
1
40
1
41
1
10
152.019225726455
20
5.51617568192432
30
0
41
1
10
152.019196813242
20
5.51700681072313
30
0
41
1
10
152.019183776876
20
5.51738154939855
30
0
41
1
10
152.019122975265
20
5.51912933055334
30
0
41
1
10
152.019023816792
20
5.52197970423541
30
0
41
1
10
152.018819514824
20
5.52785249487974
30
0
41
1
10
152.018414900903
20
5.53948338064828
30
0
41
1
10
152.017834924008
20
5.55615518716795
30
0
41
1
10
152.017139723137
20
5.57613918052431
30
0
41
1
10
152.016676167222
20
5.58946439155125
30
0
41
1
10
152.016444389265
20
5.59612699706469
30
0
0
SPLINE
5
232
100
AcDbEntity
8
1
62
256
6
ByLayer
370
-1
48
1
60
0
100
AcDbSpline
70
4
71
3
72
23
73
19
40
0
40
0
40
0
40
0
40
0.0074200078966873
40
0.0149215578680997
40
0.0299246578109244
40
0.0599308576965738
40
0.119943257467873
40
0.239968057010471
40
0.480017656095667
40
0.600042455638265
40
0.630048655523914
40
0.660054855409564
40
0.690061055295213
40
0.720067255180863
40
0.840092054723461
40
0.960116854266059
40
0.990123054151708
40
1
40
1
40
1
40
1
41
1
10
163.488114465992
20
6.18051102613097
30
0
41
1
10
163.489194871389
20
6.18167467932867
30
0
41
1
10
163.491359904508
20
6.18402400237474
30
0
41
1
10
163.495661824206
20
6.18877073262843
30
0
41
1
10
163.503108649469
20
6.19719309527105
30
0
41
1
10
163.517587862608
20
6.21439984272013
30
0
41
1
10
163.544857799381
20
6.25019564244857
30
0
41
1
10
163.592374087288
20
6.32683026833124
30
0
41
1
10
163.628843340971
20
6.42394718197636
30
0
41
1
10
163.642787621036
20
6.50655512106178
30
0
41
1
10
163.646030015625
20
6.54500791368488
30
0
41
1
10
163.647091349298
20
6.56427168232423
30
0
41
1
10
163.648058331039
20
6.58353950187893
30
0
41
1
10
163.649711902988
20
6.62208734873394
30
0
41
1
10
163.6510412153
20
6.6799538418185
30
0
41
1
10
163.650602200237
20
6.73783188883002
30
0
41
1
10
163.649690252266
20
6.77208745722089
30
0
41
1
10
163.649419462752
20
6.78062984983532
30
0
41
1
10
163.64935069461
20
6.78274529805441
30
0
0
SPLINE
5
233
100
AcDbEntity
8
1
62
256
6
ByLayer
370
-1
48
1
60
0
100
AcDbSpline
70
4
71
3
72
12
73
8
40
0
40
0
40
0
40
0
40
0.0112779549367629
40
0.0936714586920326
40
0.176064962447302
40
0.340851969957842
40
1
40
1
40
1
40
1
41
1
10
152.019972464622
20
16.723764980255
30
0
41
1
10
152.020061332791
20
16.7237682928556
30
0
41
1
10
152.020800514856
20
16.7237958396057
30
0
41
1
10
152.022208546269
20
16.7238481970846
30
0
41
1
10
152.02493979094
20
16.7239491370618
30
0
41
1
10
152.032863173898
20
16.7242392216847
30
0
41
1
10
152.041057969382
20
16.7245317309347
30
0
41
1
10
152.047739177071
20
16.7247659350658
30
0
0
SPLINE
5
234
100
AcDbEntity
8
1
62
256
6
ByLayer
370
-1
48
1
60
0
100
AcDbSpline
70
4
71
3
72
25
73
21
40
0
40
0
40
0
40
0
40
0.0099904601134661
40
0.0399882789191469
40
0.15997955414187
40
0.279970829364593
40
0.309968648170274
40
0.339966466975955
40
0.369964285781635
40
0.399962104587316
40
0.51995337981004
40
0.639944655032763
40
0.759935930255486
40
0.879927205478209
40
0.939922843089571
40
0.969920661895251
40
0.984919571298092
40
0.992419025999512
40
0.999918480700932
40
1
40
1
40
1
40
1
41
1
10
151.213540181041
20
6.34683968607797
30
0
41
1
10
151.213615892029
20
6.34469933124564
30
0
41
1
10
151.213925231427
20
6.33613248277891
30
0
41
1
10
151.215324254044
20
6.30186544986174
30
0
41
1
10
151.218797481616
20
6.24408668671774
30
0
41
1
10
151.224037916357
20
6.18644220695359
30
0
41
1
10
151.228289195414
20
6.14809464513942
30
0
41
1
10
151.230557859231
20
6.12893710537941
30
0
41
1
10
151.232937136706
20
6.10979224466729
30
0
41
1
10
151.238828575759
20
6.0716584727127
30
0
41
1
10
151.25244979415
20
6.01529131682142
30
0
41
1
10
151.280074986805
20
5.94310906566821
30
0
41
1
10
151.316691260799
20
5.87507240563542
30
0
41
1
10
151.354350299461
20
5.82288266681695
30
0
41
1
10
151.384034033364
20
5.78911225648019
30
0
41
1
10
151.39966901265
20
5.77297627475264
30
0
41
1
10
151.407679424123
20
5.76510323018758
30
0
41
1
10
151.412312265585
20
5.76066155731027
30
0
41
1
10
151.414658313445
20
5.75844772492062
30
0
41
1
10
151.415843741082
20
5.75734009097081
30
0
41
1
10
151.415856488854
20
5.75732818103279
30
0
0
SPLINE
5
235
100
AcDbEntity
8
1
62
256
6
ByLayer
370
-1
48
1
60
0
100
AcDbSpline
70
4
71
3
72
25
73
21
40
0
40
0
40
0
40
0
40
0.0099904601134675
40
0.0399882789191492
40
0.159979554141876
40
0.279970829364602
40
0.309968648170284
40
0.339966466975966
40
0.369964285781648
40
0.399962104587329
40
0.519953379810056
40
0.639944655032783
40
0.759935930255509
40
0.879927205478236
40
0.939922843089599
40
0.969920661895281
40
0.984919571298122
40
0.992419025999542
40
0.999918480700963
40
1
40
1
40
1
40
1
41
1
10
163.268933293086
20
17.7093715624775
30
0
41
1
10
163.268857459318
20
17.7115119173099
30
0
41
1
10
163.268547528703
20
17.7200787657766
30
0
41
1
10
163.267144250343
20
17.7543457986938
30
0
41
1
10
163.263664306048
20
17.8121245618378
30
0
41
1
10
163.258417041967
20
17.869769041602
30
0
41
1
10
163.254161226811
20
17.9081166034161
30
0
41
1
10
163.251890289641
20
17.9272741431761
30
0
41
1
10
163.249508711229
20
17.9464190038882
30
0
41
1
10
163.243612674819
20
17.9845527758428
30
0
41
1
10
163.229984558574
20
18.0409199317341
30
0
41
1
10
163.202350298624
20
18.1131021828873
30
0
41
1
10
163.165724900601
20
18.1811388429201
30
0
41
1
10
163.12805839252
20
18.2333285817386
30
0
41
1
10
163.098368900906
20
18.2670989920754
30
0
41
1
10
163.082731750074
20
18.2832349738029
30
0
41
1
10
163.074719323415
20
18.2911080183679
30
0
41
1
10
163.07008664375
20
18.2955496912453
30
0
41
1
10
163.067738567308
20
18.2977635236349
30
0
41
1
10
163.066554690187
20
18.2988711575847
30
0
41
1
10
163.066541959381
20
18.2988830675227
30
0
0
SPLINE
5
236
100
AcDbEntity
8
1
62
256
6
ByLayer
370
-1
48
1
60
0
100
AcDbSpline
70
4
71
3
72
15
73
11
40
0
40
0
40
0
40
0
40
0.250148781622255
40
0.500297563244511
40
0.750446344866766
40
0.875520735677894
40
0.938057931083458
40
0.969326528786239
40
0.98496082763763
40
1
40
1
40
1
40
1
41
1
10
163.066541670506
20
18.2988831639468
30
0
41
1
10
163.073376553375
20
18.3061827460658
30
0
41
1
10
163.087046319113
20
18.3207819103039
30
0
41
1
10
163.107546911184
20
18.3426763243244
30
0
41
1
10
163.124650344496
20
18.3609426089677
30
0
41
1
10
163.136580965502
20
18.3736843851526
30
0
41
1
10
163.142607124034
20
18.3801202582918
30
0
41
1
10
163.145528931257
20
18.3832407172912
30
0
41
1
10
163.14734343585
20
18.3851785888744
30
0
41
1
10
163.147864274951
20
18.3857348394873
30
0
41
1
10
163.148560266369
20
18.3864781509103
30
0
0
SPLINE
5
237
100
AcDbEntity
8
1
62
256
6
ByLayer
370
-1
48
1
60
0
100
AcDbSpline
70
4
71
3
72
23
73
19
40
0
40
0
40
0
40
0
40
0.0074200078966963
40
0.0149215578681089
40
0.0299246578109341
40
0.0599308576965845
40
0.119943257467885
40
0.239968057010487
40
0.48001765609569
40
0.600042455638292
40
0.630048655523943
40
0.660054855409593
40
0.690061055295243
40
0.720067255180894
40
0.840092054723495
40
0.960116854266097
40
0.990123054151748
40
1
40
1
40
1
40
1
41
1
10
151.415856488854
20
5.75732818103279
30
0
41
1
10
151.417016485933
20
5.7562444235447
30
0
41
1
10
151.419360864162
20
5.75407513067756
30
0
41
1
10
151.424095750929
20
5.74976302135607
30
0
41
1
10
151.432497744313
20
5.74229947542102
30
0
41
1
10
151.44966176367
20
5.72778778971477
30
0
41
1
10
151.48536689163
20
5.70045940223324
30
0
41
1
10
151.56179989946
20
5.6528519534458
30
0
41
1
10
151.658649202978
20
5.61634573161709
30
0
41
1
10
151.741027358706
20
5.60243307448124
30
0
41
1
10
151.779373088698
20
5.59921770630007
30
0
41
1
10
151.798583088035
20
5.5981719282789
30
0
41
1
10
151.817796946542
20
5.59722068559483
30
0
41
1
10
151.856236760465
20
5.59559959818219
30
0
41
1
10
151.913941121765
20
5.59432349761477
30
0
41
1
10
151.971656980806
20
5.59482246687912
30
0
41
1
10
152.005816515923
20
5.59577234894337
30
0
41
1
10
152.014334920594
20
5.59605272380819
30
0
41
1
10
152.01644439694
20
5.59612384061705
30
0
0
SPLINE
5
238
100
AcDbEntity
8
1
62
256
6
ByLayer
370
-1
48
1
60
0
100
AcDbSpline
70
4
71
3
72
8
73
4
40
0
40
0
40
0
40
0
40
1
40
1
40
1
40
1
41
1
10
162.55501138366
20
18.5429455217303
30
0
41
1
10
162.524824494006
20
18.5421138932715
30
0
41
1
10
162.494641415608
20
18.5411435898394
30
0
41
1
10
162.464463587319
20
18.5400355176693
30
0
0
SPLINE
5
239
100
AcDbEntity
8
1
62
256
6
ByLayer
370
-1
48
1
60
0
100
AcDbSpline
70
4
71
3
72
8
73
4
40
0
40
0
40
0
40
0
40
1
40
1
40
1
40
1
41
1
10
163.734233368123
20
6.48553123194461
30
0
41
1
10
163.734257555649
20
6.53888532475943
30
0
41
1
10
163.733787732869
20
6.59224308772468
30
0
41
1
10
163.732890701792
20
6.64558764971957
30
0
0
SPLINE
5
23A
100
AcDbEntity
8
1
62
256
6
ByLayer
370
-1
48
1
60
0
100
AcDbSpline
70
4
71
3
72
8
73
4
40
0
40
0
40
0
40
0
40
1
40
1
40
1
40
1
41
1
10
163.348880838365
20
17.7121527447169
30
0
41
1
10
163.347828339225
20
17.7424697125895
30
0
41
1
10
163.34663490002
20
17.7727820416527
30
0
41
1
10
163.345300631391
20
17.8030875672187
30
0
0
SPLINE
5
23B
100
AcDbEntity
8
1
62
256
6
ByLayer
370
-1
48
1
60
0
100
AcDbSpline
70
4
71
3
72
8
73
4
40
0
40
0
40
0
40
0
40
1
40
1
40
1
40
1
41
1
10
150.762077024615
20
17.6832087546961
30
0
41
1
10
150.753506636056
20
17.6461905184413
30
0
41
1
10
150.749189459919
20
17.6086815426971
30
0
41
1
10
150.749144031432
20
17.5706800166109
30
0
0
SPLINE
5
23C
100
AcDbEntity
8
1
62
256
6
ByLayer
370
-1
48
1
60
0
100
AcDbSpline
70
4
71
3
72
8
73
4
40
0
40
0
40
0
40
0
40
1
40
1
40
1
40
1
41
1
10
151.251288106
20
16.6959956703132
30
0
41
1
10
151.141065259436
20
16.6921020801446
30
0
41
1
10
151.027866462998
20
16.6881566295188
30
0
41
1
10
150.916898961286
20
16.6843408126487
30
0
0
SPLINE
5
23D
100
AcDbEntity
8
1
62
256
6
ByLayer
370
-1
48
1
60
0
100
AcDbSpline
70
4
71
3
72
12
73
8
40
0
40
0
40
0
40
0
40
0.341077853836657
40
0.341077853836657
40
0.670538966398354
40
0.670538966398354
40
1
40
1
40
1
40
1
41
1
10
162.46446358732
20
18.5400355176529
30
0
41
1
10
162.397549389253
20
18.5375785562767
30
0
41
1
10
162.330657887672
20
18.535076594319
30
0
41
1
10
162.199033661008
20
18.5303934604525
30
0
41
1
10
162.134296509398
20
18.5282273603608
30
0
41
1
10
162.004843773472
20
18.5238569204138
30
0
41
1
10
161.940124043896
20
18.5216552347956
30
0
41
1
10
161.875436054725
20
18.5193876515982
30
0
0
SPLINE
5
23E
100
AcDbEntity
8
1
62
256
6
ByLayer
370
-1
48
1
60
0
100
AcDbSpline
70
4
71
3
72
12
73
8
40
0
40
0
40
0
40
0
40
0.341077853836659
40
0.341077853836659
40
0.670538966398335
40
0.670538966398335
40
1
40
1
40
1
40
1
41
1
10
150.75469462191
20
17.2706741114303
30
0
41
1
10
150.757191354289
20
17.2034550038833
30
0
41
1
10
150.759753120111
20
17.1362383982386
30
0
41
1
10
150.76444894354
20
17.0040807615669
30
0
41
1
10
150.766561268926
20
16.9391420305209
30
0
41
1
10
150.77084121789
20
16.8092689484484
30
0
41
1
10
150.773004962242
20
16.7443316761332
30
0
41
1
10
150.775263916601
20
16.6793965893525
30
0
0
SPLINE
5
23F
100
AcDbEntity
8
1
62
256
6
ByLayer
370
-1
48
1
60
0
100
AcDbSpline
70
4
71
3
72
9
73
5
40
0
40
0
40
0
40
0
40
0.406249999999776
40
1
40
1
40
1
40
1
41
1
10
161.875436054725
20
18.5193876515982
30
0
41
1
10
161.875728969342
20
18.5086021166302
30
0
41
1
10
161.876449989937
20
18.4820531074783
30
0
41
1
10
161.877171010532
20
18.4555040983264
30
0
41
1
10
161.877599116511
20
18.4397406241424
30
0
0
SPLINE
5
240
100
AcDbEntity
8
1
62
256
6
ByLayer
370
-1
48
1
60
0
100
AcDbSpline
70
4
71
3
72
9
73
5
40
0
40
0
40
0
40
0
40
0.59374999999947
40
1
40
1
40
1
40
1
41
1
10
151.581590112736
20
18.0788226652389
30
0
41
1
10
151.581162006758
20
18.0945861394229
30
0
41
1
10
151.580440986163
20
18.1211351485748
30
0
41
1
10
151.579719965567
20
18.1476841577268
30
0
41
1
10
151.579427050951
20
18.1584696926948
30
0
0
SPLINE
5
241
100
AcDbEntity
8
1
62
256
6
ByLayer
370
-1
48
1
60
0
100
AcDbSpline
70
4
71
3
72
15
73
11
40
0
40
0
40
0
40
0
40
0.0229190021791539
40
0.110481321488105
40
0.285605960106006
40
0.635855237341809
40
0.81097987595971
40
0.898542195268661
40
0.986104514577611
40
1
40
1
40
1
40
1
41
1
10
162.291485889454
20
6.58133624854952
30
0
41
1
10
162.291560442299
20
6.57958783956258
30
0
41
1
10
162.291919003038
20
6.57115868710275
30
0
41
1
10
162.292842278398
20
6.54936525397775
30
0
41
1
10
162.294826851238
20
6.50259730432731
30
0
41
1
10
162.297093716111
20
6.44914717014544
30
0
41
1
10
162.299077581037
20
6.40237860602574
30
0
41
1
10
162.300212049571
20
6.37565462429882
30
0
41
1
10
162.300823457867
20
6.36123150010286
30
0
41
1
10
162.301151020776
20
6.353489123006
30
0
41
1
10
162.301195838589
20
6.35242869679567
30
0
0
SPLINE
5
242
100
AcDbEntity
8
1
62
256
6
ByLayer
370
-1
48
1
60
0
100
AcDbSpline
70
4
71
3
72
14
73
10
40
0
40
0
40
0
40
0
40
0.0424082128911102
40
0.17037906024215
40
0.682262449646308
40
0.938204144348388
40
0.970196856186148
40
0.986193212105028
40
1
40
1
40
1
40
1
41
1
10
162.557883735668
20
7.33694389336929
30
0
41
1
10
162.555956516861
20
7.33688022168727
30
0
41
1
10
162.548220189874
20
7.33662467407905
30
0
41
1
10
162.517253192718
20
7.33560184703873
30
0
41
1
10
162.476599390736
20
7.33425910783237
30
0
41
1
10
162.44028632254
20
7.33305963096623
30
0
41
1
10
162.426498994055
20
7.33260429578553
30
0
41
1
10
162.423700358947
20
7.33251190233767
30
0
41
1
10
162.422345991153
20
7.33246715660985
30
0
41
1
10
162.421714594883
20
7.33244626830054
30
0
0
SPLINE
5
243
100
AcDbEntity
8
1
62
256
6
ByLayer
370
-1
48
1
60
0
100
AcDbSpline
70
4
71
3
72
12
73
8
40
0
40
0
40
0
40
0
40
0.521734132299767
40
0.78260119844965
40
0.913034731524592
40
0.978251498062063
40
1
40
1
40
1
40
1
41
1
10
152.170617661516
20
18.0994705799683
30
0
41
1
10
152.068179075604
20
18.0958796809575
30
0
41
1
10
151.914520753543
20
18.0904949701609
30
0
41
1
10
151.735254123229
20
18.0842061093261
30
0
41
1
10
151.645619361029
20
18.0810723775425
30
0
41
1
10
151.602935755621
20
18.0795629062503
30
0
41
1
10
151.585859916814
20
18.0789793268264
30
0
41
1
10
151.58158973098
20
18.0788270019053
30
0
0
SPLINE
5
244
100
AcDbEntity
8
1
62
256
6
ByLayer
370
-1
48
1
60
0
100
AcDbSpline
70
4
71
3
72
8
73
4
40
0
40
0
40
0
40
0
40
1
40
1
40
1
40
1
41
1
10
151.488841530786
20
18.1548725295455
30
0
41
1
10
151.472588551822
20
18.1541492543755
30
0
41
1
10
151.456339485518
20
18.1533448486741
30
0
41
1
10
151.440095530124
20
18.1524593975028
30
0
0
SPLINE
5
245
100
AcDbEntity
8
1
62
256
6
ByLayer
370
-1
48
1
60
0
100
AcDbSpline
70
4
71
3
72
14
73
10
40
0
40
0
40
0
40
0
40
0.0424082128911086
40
0.170379060242171
40
0.68226244964642
40
0.938204144348544
40
0.97019685618631
40
0.986193212105193
40
1
40
1
40
1
40
1
41
1
10
152.555397200032
20
6.67857294595439
30
0
41
1
10
152.55522293197
20
6.6803962643686
30
0
41
1
10
152.554522108928
20
6.68771419040331
30
0
41
1
10
152.551714654045
20
6.71700412459415
30
0
41
1
10
152.548027924651
20
6.75545514460018
30
0
41
1
10
152.544737760805
20
6.78980366794639
30
0
41
1
10
152.543486305703
20
6.80284276150911
30
0
41
1
10
152.543231362831
20
6.80548856368421
30
0
41
1
10
152.543108893651
20
6.80676991367909
30
0
41
1
10
152.543052575283
20
6.80736807659491
30
0
0
SPLINE
5
246
100
AcDbEntity
8
1
62
256
6
ByLayer
370
-1
48
1
60
0
100
AcDbSpline
70
4
71
3
72
15
73
11
40
0
40
0
40
0
40
0
40
0.0138956313305434
40
0.101457951273432
40
0.18902027121632
40
0.364144911102096
40
0.714394190873649
40
0.889518830759426
40
0.977081150702314
40
1
40
1
40
1
40
1
41
1
10
151.251286861774
20
16.6959956487897
30
0
41
1
10
151.252335417929
20
16.6960326815481
30
0
41
1
10
151.259990733074
20
16.6963030626606
30
0
41
1
10
151.274248899363
20
16.6968067219848
30
0
41
1
10
151.300666385039
20
16.6977399438633
30
0
41
1
10
151.346900107364
20
16.6993731382844
30
0
41
1
10
151.399739334628
20
16.7012396569236
30
0
41
1
10
151.445971838832
20
16.7028728319986
30
0
41
1
10
151.46751700152
20
16.703633871593
30
0
41
1
10
151.475848796213
20
16.7039282246471
30
0
41
1
10
151.477576825826
20
16.7039892802766
30
0
0
SPLINE
5
247
100
AcDbEntity
8
1
62
256
6
ByLayer
370
-1
48
1
60
0
100
AcDbSpline
70
4
71
3
72
8
73
4
40
0
40
0
40
0
40
0
40
1
40
1
40
1
40
1
41
1
10
162.763171923199
20
18.5454507584989
30
0
41
1
10
162.71000106181
20
18.5454949110442
30
0
41
1
10
162.656882687277
20
18.5449868087462
30
0
41
1
10
162.603779066781
20
18.5440482568609
30
0
0
SPLINE
5
248
100
AcDbEntity
8
1
62
256
6
ByLayer
370
-1
48
1
60
0
100
AcDbSpline
70
4
71
3
72
8
73
4
40
0
40
0
40
0
40
0
40
1
40
1
40
1
40
1
41
1
10
151.899538150242
20
16.719267560649
30
0
41
1
10
151.779286255796
20
16.7147769690417
30
0
41
1
10
151.632176607823
20
16.709450446453
30
0
41
1
10
151.477578329525
20
16.7039893069958
30
0
0
SPLINE
5
249
100
AcDbEntity
8
1
62
256
6
ByLayer
370
-1
48
1
60
0
100
AcDbSpline
70
4
71
3
72
8
73
4
40
0
40
0
40
0
40
0
40
1
40
1
40
1
40
1
41
1
10
151.608154839179
20
5.52369279949411
30
0
41
1
10
151.645014962028
20
5.51510698716763
30
0
41
1
10
151.682362657994
20
5.51079193776778
30
0
41
1
10
151.720205476356
20
5.51076049005664
30
0
0
SPLINE
5
24A
100
AcDbEntity
8
1
62
256
6
ByLayer
370
-1
48
1
60
0
100
AcDbSpline
70
4
71
3
72
15
73
11
40
0
40
0
40
0
40
0
40
0.0138956313306243
40
0.101457951273497
40
0.18902027121637
40
0.364144911102115
40
0.714394190873606
40
0.889518830759351
40
0.977081150702224
40
1
40
1
40
1
40
1
41
1
10
161.894468817291
20
18.0440527812967
30
0
41
1
10
161.894497821279
20
18.0429923018486
30
0
41
1
10
161.894709249955
20
18.0352495998295
30
0
41
1
10
161.895101126563
20
18.0208266838507
30
0
41
1
10
161.89582599765
20
17.99410270577
30
0
41
1
10
161.897096099023
20
17.9473341366681
30
0
41
1
10
161.898548035517
20
17.8938840361566
30
0
41
1
10
161.899817451386
20
17.8471160210549
30
0
41
1
10
161.900410365272
20
17.8253226984708
30
0
41
1
10
161.900638299836
20
17.8168935298594
30
0
41
1
10
161.90068540148
20
17.815145125388
30
0
0
SPLINE
5
24B
100
AcDbEntity
8
1
62
256
6
ByLayer
370
-1
48
1
60
0
100
AcDbSpline
70
4
71
2
72
9
73
6
40
0
40
0
40
0
40
0.25
40
0.5
40
0.75
40
1
40
1
40
1
41
1
10
162.053397001211
20
17.0755058769259
30
0
41
1
10
162.052238937707
20
17.1052960158552
30
0
41
1
10
162.02807009739
20
17.1591154025315
30
0
41
1
10
161.98476037989
20
17.1999908591515
30
0
41
1
10
161.929164579743
20
17.221117636859
30
0
41
1
10
161.898843820694
20
17.2201795764734
30
0
0
SPLINE
5
24C
100
AcDbEntity
8
1
62
256
6
ByLayer
370
-1
48
1
60
0
100
AcDbSpline
70
4
71
3
72
10
73
6
40
0
40
0
40
0
40
0
40
0.634300400238621
40
0.951450600357932
40
1
40
1
40
1
40
1
41
1
10
152.604874815801
20
5.61647062441313
30
0
41
1
10
152.604672435316
20
5.629566171759
30
0
41
1
10
152.604368213034
20
5.6492110345452
30
0
41
1
10
152.604050693325
20
5.66985301555735
30
0
41
1
10
152.603932510501
20
5.67740669348845
30
0
41
1
10
152.603916768295
20
5.67840962244853
30
0
0
SPLINE
5
24D
100
AcDbEntity
8
1
62
256
6
ByLayer
370
-1
48
1
60
0
100
AcDbSpline
70
4
71
3
72
15
73
11
40
0
40
0
40
0
40
0
40
0.0204519912453236
40
0.0504132324410936
40
0.110335714832634
40
0.230180679615714
40
0.469870609181874
40
0.709560538748034
40
0.949250468314195
40
1
40
1
40
1
40
1
41
1
10
162.898420929097
20
17.1042761584295
30
0
41
1
10
162.900710009605
20
17.1043558025266
30
0
41
1
10
162.906352458826
20
17.1045521389953
30
0
41
1
10
162.918701077887
20
17.1049820834224
30
0
41
1
10
162.94216871116
20
17.1058002534267
30
0
41
1
10
162.989060925758
20
17.107438935219
30
0
41
1
10
163.055785765287
20
17.109782004488
30
0
41
1
10
163.135018293638
20
17.1125822466097
30
0
41
1
10
163.192512432783
20
17.1146275042041
30
0
41
1
10
163.223570253683
20
17.1157371652725
30
0
41
1
10
163.228991934259
20
17.1159309311767
30
0
0
SPLINE
5
24E
100
AcDbEntity
8
1
62
256
6
ByLayer
370
-1
48
1
60
0
100
AcDbSpline
70
4
71
3
72
8
73
4
40
0
40
0
40
0
40
0
40
1
40
1
40
1
40
1
41
1
10
161.894469468953
20
18.0440521649459
30
0
41
1
10
161.891441399832
20
18.1555499991927
30
0
41
1
10
161.8868651557
20
18.2685329226284
30
0
41
1
10
161.88095124783
20
18.377803621003
30
0
0
SPLINE
5
24F
100
AcDbEntity
8
1
62
256
6
ByLayer
370
-1
48
1
60
0
100
AcDbSpline
70
4
71
3
72
12
73
8
40
0
40
0
40
0
40
0
40
0.659147749652274
40
0.823934687065342
40
0.906328155771876
40
0.988721624478411
40
1
40
1
40
1
40
1
41
1
10
162.053397001211
20
17.0755058769259
30
0
41
1
10
162.060078209246
20
17.0757400810658
30
0
41
1
10
162.068575174013
20
17.0760327015707
30
0
41
1
10
162.077197606492
20
17.0763225919249
30
0
41
1
10
162.080231263364
20
17.0764237655573
30
0
41
1
10
162.081807831305
20
17.0764760171799
30
0
41
1
10
162.082638910603
20
17.0765035073912
30
0
41
1
10
162.082738878788
20
17.0765068134305
30
0
0
SPLINE
5
250
100
AcDbEntity
8
1
62
256
6
ByLayer
370
-1
48
1
60
0
100
AcDbSpline
70
4
71
3
72
12
73
8
40
0
40
0
40
0
40
0
40
0.659147749652397
40
0.823934687065497
40
0.906328155772047
40
0.988721624478596
40
1
40
1
40
1
40
1
41
1
10
152.386714439487
20
6.9807053716296
30
0
41
1
10
152.380033231638
20
6.98047116748967
30
0
41
1
10
152.371834860095
20
6.98017854698486
30
0
41
1
10
152.363917723821
20
6.97988865663058
30
0
41
1
10
152.36117896287
20
6.97978748299823
30
0
41
1
10
152.359774337084
20
6.97973523137557
30
0
41
1
10
152.359036974272
20
6.97970774116433
30
0
41
1
10
152.358948317819
20
6.97970443512509
30
0
0
SPLINE
5
251
100
AcDbEntity
8
1
62
256
6
ByLayer
370
-1
48
1
60
0
100
AcDbSpline
70
4
71
3
72
12
73
8
40
0
40
0
40
0
40
0
40
0.659147749652469
40
0.823934687065586
40
0.906328155772144
40
0.988721624478703
40
1
40
1
40
1
40
1
41
1
10
152.191862349514
20
16.879909483624
30
0
41
1
10
152.191629036684
20
16.8866162126949
30
0
41
1
10
152.191486826301
20
16.8949957675866
30
0
41
1
10
152.19155068717
20
16.9032971411953
30
0
41
1
10
152.191597346494
20
16.9061943749568
30
0
41
1
10
152.191631264782
20
16.9076906656577
30
0
41
1
10
152.191650737422
20
16.9084778823099
30
0
41
1
10
152.191653099829
20
16.9085725548867
30
0
0
SPLINE
5
252
100
AcDbEntity
8
1
62
256
6
ByLayer
370
-1
48
1
60
0
100
AcDbSpline
70
4
71
2
72
9
73
6
40
0
40
0
40
0
40
0.25
40
0.5
40
0.75
40
1
40
1
40
1
41
1
10
152.386714439487
20
6.9807053716296
30
0
41
1
10
152.387872502991
20
6.95091523270037
30
0
41
1
10
152.412041343307
20
6.897095846024
30
0
41
1
10
152.455351060808
20
6.85622038940409
30
0
41
1
10
152.510946860954
20
6.83509361169655
30
0
41
1
10
152.541267620004
20
6.83603167208213
30
0
0
SPLINE
5
253
100
AcDbEntity
8
1
62
256
6
ByLayer
370
-1
48
1
60
0
100
AcDbSpline
70
4
71
3
72
25
73
21
40
0
40
0
40
0
40
0
40
0.0099904601134983
40
0.0399882789191779
40
0.159979554141896
40
0.279970829364614
40
0.309968648170294
40
0.339966466975973
40
0.369964285781653
40
0.399962104587332
40
0.51995337981005
40
0.639944655032769
40
0.759935930255487
40
0.879927205478205
40
0.939922843089564
40
0.969920661895244
40
0.984919571298083
40
0.992419025999503
40
0.999918480700923
40
1
40
1
40
1
40
1
41
1
10
162.900883743147
20
5.97738424665022
30
0
41
1
10
162.903015891893
20
5.97746030846685
30
0
41
1
10
162.911549845307
20
5.97777112622845
30
0
41
1
10
162.945684353946
20
5.97917762888477
30
0
41
1
10
163.003239893091
20
5.98266749481149
30
0
41
1
10
163.060661603537
20
5.98793137487482
30
0
41
1
10
163.098860973252
20
5.99220116984071
30
0
41
1
10
163.117944476113
20
5.99447964060326
30
0
41
1
10
163.137015334381
20
5.99686916139501
30
0
41
1
10
163.175001697142
20
6.00278541224711
30
0
41
1
10
163.23115091006
20
6.01646212358102
30
0
41
1
10
163.303053952308
20
6.04419739094931
30
0
41
1
10
163.370827150294
20
6.08095811260185
30
0
41
1
10
163.42281455669
20
6.11876475164885
30
0
41
1
10
163.456453581565
20
6.14856476244569
30
0
41
1
10
163.472527075237
20
6.164260554733
30
0
41
1
10
163.480369152898
20
6.17230257611834
30
0
41
1
10
163.484794004767
20
6.17695303307465
30
0
41
1
10
163.486998398565
20
6.17930906062153
30
0
41
1
10
163.488102592891
20
6.18049823818018
30
0
41
1
10
163.488114465992
20
6.18051102613097
30
0
0
SPLINE
5
254
100
AcDbEntity
8
1
62
256
6
ByLayer
370
-1
48
1
60
0
100
AcDbSpline
70
4
71
3
72
14
73
10
40
0
40
0
40
0
40
0
40
0.0424082128911205
40
0.170379060242183
40
0.682262449646433
40
0.938204144348558
40
0.970196856186324
40
0.986193212105207
40
1
40
1
40
1
40
1
41
1
10
161.902018088476
20
17.3776383026011
30
0
41
1
10
161.901970679198
20
17.3758149841869
30
0
41
1
10
161.9017790065
20
17.3684970581522
30
0
41
1
10
161.901009421367
20
17.3392071239614
30
0
41
1
10
161.899997951329
20
17.3007561039553
30
0
41
1
10
161.899097612473
20
17.2664075806092
30
0
41
1
10
161.898753362356
20
17.2533684870464
30
0
41
1
10
161.89868250321
20
17.2507226848713
30
0
41
1
10
161.898649184944
20
17.2494413348765
30
0
41
1
10
161.898634484222
20
17.2488431719606
30
0
0
SPLINE
5
255
100
AcDbEntity
8
1
62
256
6
ByLayer
370
-1
48
1
60
0
100
AcDbSpline
70
4
71
3
72
25
73
21
40
0
40
0
40
0
40
0
40
0.0099904601135136
40
0.0399882789191929
40
0.15997955414191
40
0.279970829364627
40
0.309968648170306
40
0.339966466975985
40
0.369964285781665
40
0.399962104587344
40
0.519953379810061
40
0.639944655032778
40
0.759935930255495
40
0.879927205478212
40
0.939922843089571
40
0.96992066189525
40
0.98491957129809
40
0.99241902599951
40
0.999918480700929
40
1
40
1
40
1
40
1
41
1
10
151.58158973098
20
18.0788270019053
30
0
41
1
10
151.579457459453
20
18.0787509400887
30
0
41
1
10
151.570922914823
20
18.0784401223271
30
0
41
1
10
151.53678415044
20
18.0770336196708
30
0
41
1
10
151.479221894572
20
18.0735437537441
30
0
41
1
10
151.421793354787
20
18.0682798736807
30
0
41
1
10
151.383589448974
20
18.0640100787148
30
0
41
1
10
151.36450367276
20
18.0617316079523
30
0
41
1
10
151.345430513554
20
18.0593420871605
30
0
41
1
10
151.307439553436
20
18.0534258363084
30
0
41
1
10
151.251283442664
20
18.0397491249745
30
0
41
1
10
151.179371333121
20
18.0120138576062
30
0
41
1
10
151.111589011106
20
17.9752531359537
30
0
41
1
10
151.059594135291
20
17.9374464969067
30
0
41
1
10
151.025949352706
20
17.9076464861099
30
0
41
1
10
151.009873687487
20
17.8919506938225
30
0
41
1
10
151.002029594641
20
17.8839086724372
30
0
41
1
10
150.997604904568
20
17.8792582154809
30
0
41
1
10
150.995398482188
20
17.876902187934
30
0
41
1
10
150.994295838378
20
17.8757130103754
30
0
41
1
10
150.994283982244
20
17.8757002224245
30
0
0
SPLINE
5
256
100
AcDbEntity
8
1
62
256
6
ByLayer
370
-1
48
1
60
0
100
AcDbSpline
70
4
71
3
72
10
73
6
40
0
40
0
40
0
40
0
40
0.5
40
0.5
40
1
40
1
40
1
40
1
41
1
10
150.907667658042
20
17.957383927214
30
0
41
1
10
150.871828534806
20
17.9188108725131
30
0
41
1
10
150.841725765039
20
17.8764408818272
30
0
41
1
10
150.792682726118
20
17.7843193351363
30
0
41
1
10
150.773972872881
20
17.734590709968
30
0
41
1
10
150.762077024615
20
17.6832087546953
30
0
0
SPLINE
5
257
100
AcDbEntity
8
1
62
256
6
ByLayer
370
-1
48
1
60
0
100
AcDbSpline
70
4
71
3
72
10
73
6
40
0
40
0
40
0
40
0
40
0.5
40
0.5
40
1
40
1
40
1
40
1
41
1
10
163.57602165403
20
6.09882732134153
30
0
41
1
10
163.611857783455
20
6.13740037604242
30
0
41
1
10
163.641932904186
20
6.17977036672835
30
0
41
1
10
163.690895258418
20
6.27189191341918
30
0
41
1
10
163.709552197452
20
6.32162053858752
30
0
41
1
10
163.721400165114
20
6.37300249386024
30
0
0
SPLINE
5
258
100
AcDbEntity
8
1
62
256
6
ByLayer
370
-1
48
1
60
0
100
AcDbSpline
70
4
71
3
72
8
73
4
40
0
40
0
40
0
40
0
40
1
40
1
40
1
40
1
41
1
10
163.721400165114
20
6.37300249385947
30
0
41
1
10
163.729936057991
20
6.41002073011421
30
0
41
1
10
163.734216140523
20
6.44752970585844
30
0
41
1
10
163.734233368123
20
6.48553123194461
30
0
0
SPLINE
5
259
100
AcDbEntity
8
1
62
256
6
ByLayer
370
-1
48
1
60
0
100
AcDbSpline
70
4
71
3
72
14
73
10
40
0
40
0
40
0
40
0
40
0.0424082128912405
40
0.170379060242271
40
0.682262449646395
40
0.938204144348456
40
0.970196856186214
40
0.986193212105093
40
1
40
1
40
1
40
1
41
1
10
151.89953155284
20
16.7192673551862
30
0
41
1
10
151.901237094307
20
16.7193310268683
30
0
41
1
10
151.908080925554
20
16.7195865744765
30
0
41
1
10
151.935470882694
20
16.7206094015168
30
0
41
1
10
151.971426485244
20
16.7219521407232
30
0
41
1
10
152.003549050738
20
16.7231516175893
30
0
41
1
10
152.015740674004
20
16.72360695277
30
0
41
1
10
152.018213507093
20
16.7236993462179
30
0
41
1
10
152.019412087442
20
16.7237440919457
30
0
41
1
10
152.019972464622
20
16.723764980255
30
0
0
SPLINE
5
25A
100
AcDbEntity
8
1
62
256
6
ByLayer
370
-1
48
1
60
0
100
AcDbSpline
70
4
71
3
72
8
73
4
40
0
40
0
40
0
40
0
40
1
40
1
40
1
40
1
41
1
10
163.731827316722
20
6.69457690557041
30
0
41
1
10
163.731020775518
20
6.72490111063698
30
0
41
1
10
163.730076392796
20
6.75522179681238
30
0
41
1
10
163.728994690178
20
6.78553713712586
30
0
0
SPLINE
5
25B
100
AcDbEntity
8
1
62
256
6
ByLayer
370
-1
48
1
60
0
100
AcDbSpline
70
4
71
3
72
12
73
8
40
0
40
0
40
0
40
0
40
0.0112779549373581
40
0.0936714586925782
40
0.176064962447798
40
0.340851969958239
40
1
40
1
40
1
40
1
41
1
10
161.898634484222
20
17.2488431719606
30
0
41
1
10
161.898632152888
20
17.2487483114903
30
0
41
1
10
161.898612942926
20
17.247959475778
30
0
41
1
10
161.898579515925
20
17.2464601537489
30
0
41
1
10
161.898531773101
20
17.2435696109958
30
0
41
1
10
161.898468810492
20
17.2352626742631
30
0
41
1
10
161.89861050778
20
17.2268863052908
30
0
41
1
10
161.898843820694
20
17.2201795764734
30
0
0
SPLINE
5
25C
100
AcDbEntity
8
1
62
256
6
ByLayer
370
-1
48
1
60
0
100
AcDbSpline
70
4
71
3
72
15
73
11
40
0
40
0
40
0
40
0
40
0.0218721291688744
40
0.0870806538909495
40
0.217497703335099
40
0.4783318022234
40
0.543540326945475
40
0.60874885166755
40
0.7391659011117
40
1
40
1
40
1
40
1
41
1
10
163.64935069461
20
6.78274529805441
30
0
41
1
10
163.649210544869
20
6.78705658974911
30
0
41
1
10
163.648624316848
20
6.8042205238811
30
0
41
1
10
163.647197631672
20
6.84709357646122
30
0
41
1
10
163.644109929958
20
6.93707264072731
30
0
41
1
10
163.640929778964
20
7.02704371132722
30
0
41
1
10
163.638125527155
20
7.10413443415669
30
0
41
1
10
163.636267666505
20
7.15553548185358
30
0
41
1
10
163.633032281289
20
7.24549713025979
30
0
41
1
10
163.630286439673
20
7.32261924886873
30
0
41
1
10
163.628473759121
20
7.3740333237165
30
0
0
SPLINE
5
25D
100
AcDbEntity
8
1
62
256
6
ByLayer
370
-1
48
1
60
0
100
AcDbSpline
70
4
71
2
72
9
73
6
40
0
40
0
40
0
40
0.25
40
0.5
40
0.75
40
1
40
1
40
1
41
1
10
152.191862349514
20
16.879909483624
30
0
41
1
10
152.162185571057
20
16.8787469965057
30
0
41
1
10
152.108570983396
20
16.8544858351455
30
0
41
1
10
152.067851070229
20
16.8110106815603
30
0
41
1
10
152.046804686289
20
16.7552025144889
30
0
41
1
10
152.047739177071
20
16.7247659350658
30
0
0
SPLINE
5
25E
100
AcDbEntity
8
1
62
256
6
ByLayer
370
-1
48
1
60
0
100
AcDbSpline
70
4
71
3
72
23
73
19
40
0
40
0
40
0
40
0
40
0.0074200078966936
40
0.0149215578681059
40
0.0299246578109304
40
0.0599308576965795
40
0.119943257467878
40
0.239968057010474
40
0.480017656095667
40
0.600042455638263
40
0.630048655523912
40
0.660054855409561
40
0.69006105529521
40
0.720067255180859
40
0.840092054723456
40
0.960116854266052
40
0.990123054151701
40
1
40
1
40
1
40
1
41
1
10
150.994283982244
20
17.8757002224245
30
0
41
1
10
150.993205120713
20
17.8745365692269
30
0
41
1
10
150.991048077727
20
17.8721872461808
30
0
41
1
10
150.986758596538
20
17.8674405159271
30
0
41
1
10
150.979335132022
20
17.8590181532845
30
0
41
1
10
150.964901416439
20
17.8418114058354
30
0
41
1
10
150.937722563779
20
17.806015606107
30
0
41
1
10
150.890386275543
20
17.7293809802243
30
0
41
1
10
150.854120919959
20
17.6322640665792
30
0
41
1
10
150.840345769475
20
17.5496561274938
30
0
41
1
10
150.837181898594
20
17.5112033348707
30
0
41
1
10
150.836159635227
20
17.4919395662313
30
0
41
1
10
150.835231371131
20
17.4726717466766
30
0
41
1
10
150.833655105709
20
17.4341238998216
30
0
41
1
10
150.832441928781
20
17.376257406737
30
0
41
1
10
150.83299705479
20
17.3183793597255
30
0
41
1
10
150.833977641772
20
17.2841237913346
30
0
41
1
10
150.834265468165
20
17.2755813987202
30
0
41
1
10
150.834338392399
20
17.2734659505011
30
0
0
SPLINE
5
25F
100
AcDbEntity
8
1
62
256
6
ByLayer
370
-1
48
1
60
0
100
AcDbSpline
70
4
71
3
72
9
73
5
40
0
40
0
40
0
40
0
40
0.406250000002087
40
1
40
1
40
1
40
1
41
1
10
163.708425395471
20
7.37681465920301
30
0
41
1
10
163.697598611382
20
7.37643802002253
30
0
41
1
10
163.670948065932
20
7.37551090819369
30
0
41
1
10
163.644297520482
20
7.37458379636487
30
0
41
1
10
163.628473759121
20
7.3740333237165
30
0
0
SPLINE
5
260
100
AcDbEntity
8
1
62
256
6
ByLayer
370
-1
48
1
60
0
100
AcDbSpline
70
4
71
3
72
10
73
6
40
0
40
0
40
0
40
0
40
0.0485494410335138
40
0.365699627355676
40
1
40
1
40
1
40
1
41
1
10
162.310898258031
20
6.0186796724586
30
0
41
1
10
162.310914000266
20
6.01767674256811
30
0
41
1
10
162.311032183221
20
6.01012306352149
30
0
41
1
10
162.31134970329
20
5.98948107917423
30
0
41
1
10
162.311653925866
20
5.96983621644009
30
0
41
1
10
162.311856306555
20
5.95674066858717
30
0
0
SPLINE
5
261
100
AcDbEntity
8
1
62
256
6
ByLayer
370
-1
48
1
60
0
100
AcDbSpline
70
4
71
3
72
8
73
4
40
0
40
0
40
0
40
0
40
1
40
1
40
1
40
1
41
1
10
163.732890701791
20
6.64558764971957
30
0
41
1
10
163.732616076859
20
6.66191902005292
30
0
41
1
10
163.732261590144
20
6.67824916421071
30
0
41
1
10
163.731827316726
20
6.69457690557044
30
0
0
SPLINE
5
262
100
AcDbEntity
8
1
62
256
6
ByLayer
370
-1
48
1
60
0
100
AcDbSpline
70
4
71
3
72
8
73
4
40
0
40
0
40
0
40
0
40
1
40
1
40
1
40
1
41
1
10
163.342904606807
20
17.8520277247185
30
0
41
1
10
163.340033588558
20
17.9053018652063
30
0
41
1
10
163.336738180852
20
17.9585563280814
30
0
41
1
10
163.332975599141
20
18.011769395181
30
0
0
SPLINE
5
263
100
AcDbEntity
8
1
62
256
6
ByLayer
370
-1
48
1
60
0
100
AcDbSpline
70
4
71
3
72
15
73
11
40
0
40
0
40
0
40
0
40
0.0144496252550474
40
0.0300932819970308
40
0.0613805954809976
40
0.123955222448931
40
0.249104476384798
40
0.499402984256532
40
0.749701492128266
40
1
40
1
40
1
40
1
41
1
10
162.464463585616
20
18.5400355666312
30
0
41
1
10
162.464492498829
20
18.5392044378324
30
0
41
1
10
162.464505535196
20
18.538829699157
30
0
41
1
10
162.464566336806
20
18.5370819180022
30
0
41
1
10
162.464665495279
20
18.5342315443201
30
0
41
1
10
162.464869797247
20
18.5283587536758
30
0
41
1
10
162.465274411169
20
18.5167278679073
30
0
41
1
10
162.465854388063
20
18.5000560613876
30
0
41
1
10
162.466549588935
20
18.4800720680312
30
0
41
1
10
162.467013144849
20
18.4667468570043
30
0
41
1
10
162.467244922806
20
18.4600842514909
30
0
0
SPLINE
5
264
100
AcDbEntity
8
1
62
256
6
ByLayer
370
-1
48
1
60
0
100
AcDbSpline
70
4
71
3
72
8
73
4
40
0
40
0
40
0
40
0
40
1
40
1
40
1
40
1
41
1
10
151.140807090557
20
6.20418352383706
30
0
41
1
10
151.143698736584
20
6.15090938334927
30
0
41
1
10
151.147013823174
20
6.09765492047416
30
0
41
1
10
151.150867214971
20
6.04444185337456
30
0
0
SPLINE
5
265
100
AcDbEntity
8
1
62
256
6
ByLayer
370
-1
48
1
60
0
100
AcDbSpline
70
4
71
3
72
15
73
11
40
0
40
0
40
0
40
0
40
0.0138956313306303
40
0.101457951273502
40
0.189020271216373
40
0.364144911102116
40
0.714394190873601
40
0.889518830759344
40
0.977081150702215
40
1
40
1
40
1
40
1
41
1
10
152.594214229902
20
6.01215846725881
30
0
41
1
10
152.594169450216
20
6.0132189467069
30
0
41
1
10
152.593842174431
20
6.02096164872597
30
0
41
1
10
152.593230565541
20
6.03538456470488
30
0
41
1
10
152.592096095254
20
6.06210854278552
30
0
41
1
10
152.590112237379
20
6.10887711188738
30
0
41
1
10
152.587845341929
20
6.16232721239888
30
0
41
1
10
152.585860837097
20
6.20909522750063
30
0
41
1
10
152.584937463764
20
6.2308885500847
30
0
41
1
10
152.584578932426
20
6.2393177186961
30
0
41
1
10
152.58450438748
20
6.24106612316749
30
0
0
SPLINE
5
266
100
AcDbEntity
8
1
62
256
6
ByLayer
370
-1
48
1
60
0
100
AcDbSpline
70
4
71
3
72
8
73
4
40
0
40
0
40
0
40
0
40
1
40
1
40
1
40
1
41
1
10
151.134808473706
20
6.34405850383862
30
0
41
1
10
151.135857434283
20
6.31374153596599
30
0
41
1
10
151.137053065769
20
6.28342920690284
30
0
41
1
10
151.138395216447
20
6.25312368133689
30
0
0
SPLINE
5
267
100
AcDbEntity
8
1
62
256
6
ByLayer
370
-1
48
1
60
0
100
AcDbSpline
70
4
71
3
72
15
73
11
40
0
40
0
40
0
40
0
40
0.014449625254852
40
0.0300932819968385
40
0.0613805954808114
40
0.123955222448757
40
0.249104476384649
40
0.499402984256433
40
0.749701492128216
40
1
40
1
40
1
40
1
41
1
10
150.754694573118
20
17.2706741097199
30
0
41
1
10
150.755522539221
20
17.2707031333771
30
0
41
1
10
150.755895851903
20
17.27071621954
30
0
41
1
10
150.757636982223
20
17.2707772534028
30
0
41
1
10
150.760476509372
20
17.2708767906451
30
0
41
1
10
150.766326952275
20
17.2710818730135
30
0
41
1
10
150.777913579012
20
17.2714880324944
30
0
41
1
10
150.794521944274
20
17.2720702248069
30
0
41
1
10
150.814429892503
20
17.2727680812324
30
0
41
1
10
150.827704397078
20
17.2732334078551
30
0
41
1
10
150.834341649367
20
17.2734660711665
30
0
0
SPLINE
5
268
100
AcDbEntity
8
1
62
256
6
ByLayer
370
-1
48
1
60
0
100
AcDbSpline
70
4
71
3
72
15
73
11
40
0
40
0
40
0
40
0
40
0.0204519912453895
40
0.0504132324411576
40
0.110335714832694
40
0.230180679615766
40
0.469870609181911
40
0.709560538748055
40
0.9492504683142
40
1
40
1
40
1
40
1
41
1
10
152.187487493126
20
17.7037825517598
30
0
41
1
10
152.187425202852
20
17.7060632602997
30
0
41
1
10
152.187271116583
20
17.7116856011444
30
0
41
1
10
152.18692628064
20
17.7239975986574
30
0
41
1
10
152.186238689471
20
17.7474269221277
30
0
41
1
10
152.184751317586
20
17.7943526289801
30
0
41
1
10
152.182300602182
20
17.861449354026
30
0
41
1
10
152.178860242763
20
17.9416377966741
30
0
41
1
10
152.175971263514
20
18.0002063111757
30
0
41
1
10
152.174268029839
20
18.031982846589
30
0
41
1
10
152.173969066932
20
18.0375315760969
30
0
0
SPLINE
5
269
100
AcDbEntity
8
1
62
256
6
ByLayer
370
-1
48
1
60
0
100
AcDbSpline
70
4
71
3
72
8
73
4
40
0
40
0
40
0
40
0
40
1
40
1
40
1
40
1
41
1
10
151.879707329504
20
5.51216299169471
30
0
41
1
10
151.895988172184
20
5.51245032816993
30
0
41
1
10
151.912267906875
20
5.51281794544238
30
0
41
1
10
151.928545320267
20
5.51326572682206
30
0
0
SPLINE
5
26A
100
AcDbEntity
8
1
62
256
6
ByLayer
370
-1
48
1
60
0
100
AcDbSpline
70
4
71
3
72
10
73
6
40
0
40
0
40
0
40
0
40
0.5
40
0.5
40
1
40
1
40
1
40
1
41
1
10
151.33512904714
20
5.66973309918069
30
0
41
1
10
151.373553822817
20
5.63375857893979
30
0
41
1
10
151.415748758379
20
5.6035546988075
30
0
41
1
10
151.507479412428
20
5.55436481989122
30
0
41
1
10
151.556992348063
20
5.53561005621785
30
0
41
1
10
151.60815483918
20
5.52369279949394
30
0
0
SPLINE
5
26B
100
AcDbEntity
8
1
62
256
6
ByLayer
370
-1
48
1
60
0
100
AcDbSpline
70
4
71
3
72
8
73
4
40
0
40
0
40
0
40
0
40
1
40
1
40
1
40
1
41
1
10
163.04361616724
20
5.90375185105268
30
0
41
1
10
163.096697897429
20
5.90664418941122
30
0
41
1
10
163.149759550437
20
5.90996206206628
30
0
41
1
10
163.202815530793
20
5.91378459471125
30
0
0
SPLINE
5
26C
100
AcDbEntity
8
1
62
256
6
ByLayer
370
-1
48
1
60
0
100
AcDbSpline
70
4
71
3
72
8
73
4
40
0
40
0
40
0
40
0
40
1
40
1
40
1
40
1
41
1
10
150.749144031432
20
17.5706800166109
30
0
41
1
10
150.749080249896
20
17.5173259237961
30
0
41
1
10
150.749622764746
20
17.4639681608309
30
0
41
1
10
150.750595694493
20
17.410623598836
30
0
0
SPLINE
5
26D
100
AcDbEntity
8
1
62
256
6
ByLayer
370
-1
48
1
60
0
100
AcDbSpline
70
4
71
3
72
8
73
4
40
0
40
0
40
0
40
0
40
1
40
1
40
1
40
1
41
1
10
162.875322350549
20
18.5325184490614
30
0
41
1
10
162.838427732018
20
18.5411042613879
30
0
41
1
10
162.801042942449
20
18.5454193107877
30
0
41
1
10
162.763171923199
20
18.5454507584989
30
0
0
SPLINE
5
26E
100
AcDbEntity
8
1
62
256
6
ByLayer
370
-1
48
1
60
0
100
AcDbSpline
70
4
71
3
72
8
73
4
40
0
40
0
40
0
40
0
40
1
40
1
40
1
40
1
41
1
10
162.904262261121
20
5.89774155586082
30
0
41
1
10
162.934462094496
20
5.89879629933623
30
0
41
1
10
162.964660172136
20
5.89999539761286
30
0
41
1
10
162.994854317053
20
5.90133871900989
30
0
0
SPLINE
5
26F
100
AcDbEntity
8
1
62
256
6
ByLayer
370
-1
48
1
60
0
100
AcDbSpline
70
4
71
3
72
9
73
5
40
0
40
0
40
0
40
0
40
0.40625000000011
40
1
40
1
40
1
40
1
41
1
10
152.608253257346
20
5.53682359695728
30
0
41
1
10
152.607795760054
20
5.54760913192527
30
0
41
1
10
152.606669612872
20
5.57415814107722
30
0
41
1
10
152.60554346569
20
5.60070715022917
30
0
41
1
10
152.604874815801
20
5.61647062441313
30
0
0
SPLINE
5
270
100
AcDbEntity
8
1
62
256
6
ByLayer
370
-1
48
1
60
0
100
AcDbSpline
70
4
71
3
72
10
73
6
40
0
40
0
40
0
40
0
40
0.5
40
0.5
40
1
40
1
40
1
40
1
41
1
10
151.171590493572
20
5.93320973333675
30
0
41
1
10
151.186970861822
20
5.88279943208281
30
0
41
1
10
151.208475096922
20
5.8354868617082
30
0
41
1
10
151.263366294865
20
5.74687205420918
30
0
41
1
10
151.296852580919
20
5.70576990916766
30
0
41
1
10
151.335129047067
20
5.66973309910099
30
0
0
SPLINE
5
271
100
AcDbEntity
8
1
62
256
6
ByLayer
370
-1
48
1
60
0
100
AcDbSpline
70
4
71
3
72
9
73
5
40
0
40
0
40
0
40
0
40
0.406250000003752
40
1
40
1
40
1
40
1
41
1
10
150.7752639166
20
16.6793965893525
30
0
41
1
10
150.785926118014
20
16.679773228533
30
0
41
1
10
150.812171536878
20
16.6807003403618
30
0
41
1
10
150.838416955741
20
16.6816274521907
30
0
41
1
10
150.854000173192
20
16.682177924839
30
0
0
SPLINE
5
272
100
AcDbEntity
8
1
62
256
6
ByLayer
370
-1
48
1
60
0
100
AcDbSpline
70
4
71
3
72
15
73
11
40
0
40
0
40
0
40
0
40
0.250148781622261
40
0.500297563244521
40
0.750446344866782
40
0.875520735677912
40
0.938057931083477
40
0.96932652878626
40
0.984960827637651
40
1
40
1
40
1
40
1
41
1
10
151.415856081615
20
5.75732808460867
30
0
41
1
10
151.409128828742
20
5.7500285024897
30
0
41
1
10
151.395674322997
20
5.73542933825169
30
0
41
1
10
151.375496557034
20
5.71353492423114
30
0
41
1
10
151.358662454226
20
5.69526863958785
30
0
41
1
10
151.346919706621
20
5.68252686340298
30
0
41
1
10
151.340988442974
20
5.67609099026379
30
0
41
1
10
151.338112645918
20
5.67297053126433
30
0
41
1
10
151.336326714619
20
5.67103265968117
30
0
41
1
10
151.335814077255
20
5.67047640906821
30
0
41
1
10
151.335129045725
20
5.66973309764521
30
0
0
SPLINE
5
273
100
AcDbEntity
8
1
62
256
6
ByLayer
370
-1
48
1
60
0
100
AcDbSpline
70
4
71
3
72
15
73
11
40
0
40
0
40
0
40
0
40
0.021872129168875
40
0.08708065389095
40
0.2174977033351
40
0.4783318022234
40
0.543540326945475
40
0.60874885166755
40
0.7391659011117
40
1
40
1
40
1
40
1
41
1
10
162.467244690069
20
18.4600874079385
30
0
41
1
10
162.462954039206
20
18.4599424716055
30
0
41
1
10
162.445871759068
20
18.4593376018308
30
0
41
1
10
162.403187765121
20
18.4578794542379
30
0
41
1
10
162.313544233488
20
18.4547868491003
30
0
41
1
10
162.223782054657
20
18.4517285356162
30
0
41
1
10
162.146783215143
20
18.4491158117646
30
0
41
1
10
162.095467847694
20
18.4473611905081
30
0
41
1
10
162.005697871491
20
18.4442646811677
30
0
41
1
10
161.92881706902
20
18.4415607069201
30
0
41
1
10
161.877599116511
20
18.4397406241424
30
0
0
SPLINE
5
274
100
AcDbEntity
8
1
62
256
6
ByLayer
370
-1
48
1
60
0
100
AcDbSpline
70
4
71
3
72
8
73
4
40
0
40
0
40
0
40
0
40
1
40
1
40
1
40
1
41
1
10
151.281027283319
20
18.1424266538443
30
0
41
1
10
151.243344731073
20
18.1397070782181
30
0
41
1
10
151.206427618415
20
18.1327921822597
30
0
41
1
10
151.170275774795
20
18.1216817744361
30
0
0
SPLINE
5
275
100
AcDbEntity
8
1
62
256
6
ByLayer
370
-1
48
1
60
0
100
AcDbSpline
70
4
71
3
72
10
73
6
40
0
40
0
40
0
40
0
40
0.63430040023861
40
0.951450600357915
40
1
40
1
40
1
40
1
41
1
10
161.877599116511
20
18.4397406241424
30
0
41
1
10
161.878307868827
20
18.4266450767965
30
0
41
1
10
161.879370453016
20
18.4070002140103
30
0
41
1
10
161.880489115048
20
18.3863582329982
30
0
41
1
10
161.880896485188
20
18.3788045550671
30
0
41
1
10
161.880950522538
20
18.377801626107
30
0
0
SPLINE
5
276
100
AcDbEntity
8
1
62
256
6
ByLayer
370
-1
48
1
60
0
100
AcDbSpline
70
4
71
3
72
17
73
13
40
0
40
0
40
0
40
0
40
0.0285647612451975
40
0.11400977364174
40
0.284899798434825
40
0.455789823227911
40
0.626679848020996
40
0.797569872814081
40
0.883014885210623
40
0.925737391408895
40
0.968459897607166
40
1
40
1
40
1
40
1
41
1
10
162.218908454037
20
17.0810044560356
30
0
41
1
10
162.222796820032
20
17.0811329204004
30
0
41
1
10
162.238342429615
20
17.0816467043797
30
0
41
1
10
162.27791397085
20
17.0829597436317
30
0
41
1
10
162.339226685237
20
17.0850093998308
30
0
41
1
10
162.415456081766
20
17.0875818507719
30
0
41
1
10
162.493703953234
20
17.0902455270341
30
0
41
1
10
162.560078874408
20
17.0925238770945
30
0
41
1
10
162.606874168756
20
17.0941398292107
30
0
41
1
10
162.633669406551
20
17.0950678544238
30
0
41
1
10
162.652028380617
20
17.0957049747607
30
0
41
1
10
162.663686333555
20
17.0961103220085
30
0
41
1
10
162.668637700234
20
17.0962825305795
30
0
0
SPLINE
5
277
100
AcDbEntity
8
1
62
256
6
ByLayer
370
-1
48
1
60
0
100
AcDbSpline
70
4
71
3
72
8
73
4
40
0
40
0
40
0
40
0
40
1
40
1
40
1
40
1
41
1
10
151.720205476356
20
5.51076049005661
30
0
41
1
10
151.773336743735
20
5.51071633751138
30
0
41
1
10
151.826527810337
20
5.51122443980927
30
0
41
1
10
151.879707329504
20
5.51216299169462
30
0
0
SPLINE
5
278
100
AcDbEntity
8
1
62
256
6
ByLayer
370
-1
48
1
60
0
100
AcDbSpline
70
4
71
3
72
15
73
11
40
0
40
0
40
0
40
0
40
0.0229190021791488
40
0.110481321488101
40
0.285605960106006
40
0.635855237341816
40
0.810979875959721
40
0.898542195268673
40
0.986104514577626
40
1
40
1
40
1
40
1
41
1
10
152.193703963356
20
17.474875000006
30
0
41
1
10
152.193656869298
20
17.476623408993
30
0
41
1
10
152.193428965257
20
17.4850525614528
30
0
41
1
10
152.192835945708
20
17.5068459945778
30
0
41
1
10
152.1915666024
20
17.5536139442282
30
0
41
1
10
152.190114632986
20
17.6070640784101
30
0
41
1
10
152.188844539013
20
17.6538326425298
30
0
41
1
10
152.188119665917
20
17.6805566242567
30
0
41
1
10
152.187727574229
20
17.6949797484527
30
0
41
1
10
152.187516455284
20
17.7027221255495
30
0
41
1
10
152.187487493126
20
17.7037825517598
30
0
0
SPLINE
5
279
100
AcDbEntity
8
1
62
256
6
ByLayer
370
-1
48
1
60
0
100
AcDbSpline
70
4
71
3
72
14
73
10
40
0
40
0
40
0
40
0
40
0.0138067085559884
40
0.0298030682371485
40
0.0617957875994686
40
0.31773754249803
40
0.829621052295152
40
0.957591929744432
40
1
40
1
40
1
40
1
41
1
10
162.250034096777
20
7.1476386936688
30
0
41
1
10
162.250090526187
20
7.14704174164206
30
0
41
1
10
162.250213204531
20
7.145762666183
30
0
41
1
10
162.250467546465
20
7.14311034436528
30
0
41
1
10
162.25171984865
20
7.13008044888085
30
0
41
1
10
162.25500884985
20
7.09571928681783
30
0
41
1
10
162.258696172822
20
7.05727470939379
30
0
41
1
10
162.261503587001
20
7.02798433422055
30
0
41
1
10
162.262204406264
20
7.02066637858408
30
0
41
1
10
162.262378673197
20
7.01884306085503
30
0
0
SPLINE
5
27A
100
AcDbEntity
8
1
62
256
6
ByLayer
370
-1
48
1
60
0
100
AcDbSpline
70
4
71
3
72
8
73
4
40
0
40
0
40
0
40
0
40
1
40
1
40
1
40
1
41
1
10
162.994854317052
20
5.90133871901006
30
0
41
1
10
163.011111539894
20
5.90206199418009
30
0
41
1
10
163.027365896925
20
5.90286639988142
30
0
41
1
10
163.04361616724
20
5.90375185105276
30
0
0
SPLINE
5
27B
100
AcDbEntity
8
1
62
256
6
ByLayer
370
-1
48
1
60
0
100
AcDbSpline
70
4
71
3
72
22
73
18
40
0
40
0
40
0
40
0
40
0.125000000000098
40
0.125000000000098
40
0.250000000000196
40
0.250000000000196
40
0.312500000000206
40
0.312500000000206
40
0.375000000000216
40
0.375000000000216
40
0.500000000000173
40
0.500000000000173
40
0.625000000000129
40
0.625000000000129
40
0.750000000000086
40
0.750000000000086
40
1
40
1
40
1
40
1
41
1
10
163.488304580322
20
-9.39206680270968
30
0
41
1
10
163.506372127211
20
-9.38960916067032
30
0
41
1
10
163.525301018501
20
-9.38571096096479
30
0
41
1
10
163.565958052465
20
-9.37240779979763
30
0
41
1
10
163.587635680281
20
-9.36317430933431
30
0
41
1
10
163.622427629851
20
-9.34046483801194
30
0
41
1
10
163.634415960558
20
-9.3312566062371
30
0
41
1
10
163.656951421151
20
-9.31018833480459
30
0
41
1
10
163.667707217791
20
-9.29806132453433
30
0
41
1
10
163.694988481157
20
-9.26116589428824
30
0
41
1
10
163.706856766951
20
-9.23629151792221
30
0
41
1
10
163.723163319623
20
-9.1916783757743
30
0
41
1
10
163.728028373452
20
-9.17094379692853
30
0
41
1
10
163.734481863292
20
-9.13206025085867
30
0
41
1
10
163.736018996346
20
-9.11391792017349
30
0
41
1
10
163.73773683209
20
-9.0617625929417
30
0
41
1
10
163.735054647112
20
-9.02999810858751
30
0
41
1
10
163.730467494851
20
-8.99980464815764
30
0
0
SPLINE
5
27C
100
AcDbEntity
8
1
62
256
6
ByLayer
370
-1
48
1
60
0
100
AcDbSpline
70
4
71
3
72
20
73
16
40
0
40
0
40
0
40
0
40
0.249999999999995
40
0.249999999999995
40
0.374999999999996
40
0.374999999999996
40
0.499999999999997
40
0.499999999999997
40
0.624999999999997
40
0.624999999999997
40
0.749999999999998
40
0.749999999999998
40
0.874999999999999
40
0.874999999999999
40
1
40
1
40
1
40
1
41
1
10
163.786258268824
20
-8.87427254182938
30
0
41
1
10
163.792422344605
20
-8.92255176957931
30
0
41
1
10
163.794692036495
20
-8.97327087825343
30
0
41
1
10
163.786849200546
20
-9.05607060108335
30
0
41
1
10
163.782230679919
20
-9.08513134490281
30
0
41
1
10
163.767198203817
20
-9.14471138256459
30
0
41
1
10
163.756911948573
20
-9.17527879176211
30
0
41
1
10
163.726543574424
20
-9.23908205492771
30
0
41
1
10
163.706206780556
20
-9.27192405455179
30
0
41
1
10
163.656216002739
20
-9.33128707250501
30
0
41
1
10
163.626637756076
20
-9.35755740450855
30
0
41
1
10
163.566028174045
20
-9.39875299970916
30
0
41
1
10
163.535256191824
20
-9.41395590064434
30
0
41
1
10
163.475794207278
20
-9.43661272891589
30
0
41
1
10
163.446736404475
20
-9.44423219853959
30
0
41
1
10
163.41873464982
20
-9.44934756438605
30
0
0
SPLINE
5
27D
100
AcDbEntity
8
1
62
256
6
ByLayer
370
-1
48
1
60
0
100
AcDbSpline
70
4
71
3
72
10
73
6
40
0
40
0
40
0
40
0
40
0.5
40
0.5
40
1
40
1
40
1
40
1
41
1
10
162.955565624421
20
-0.0214663853817569
30
0
41
1
10
162.965278565448
20
-0.0541196955350642
30
0
41
1
10
162.976541787672
20
-0.0895256425653201
30
0
41
1
10
163.002295896587
20
-0.164048796613684
30
0
41
1
10
163.016595346456
20
-0.2025110096003
30
0
41
1
10
163.031309810538
20
-0.23958951046717
30
0
0
SPLINE
5
27E
100
AcDbEntity
8
1
62
256
6
ByLayer
370
-1
48
1
60
0
100
AcDbSpline
70
4
71
3
72
8
73
4
40
0
40
0
40
0
40
0
40
1
40
1
40
1
40
1
41
1
10
163.031309810538
20
-0.23958951046717
30
0
41
1
10
163.049334543321
20
-0.28703245507927
30
0
41
1
10
163.058240182972
20
-0.337169616694496
30
0
41
1
10
163.058503442254
20
-0.383481862175728
30
0
0
SPLINE
5
27F
100
AcDbEntity
8
1
62
256
6
ByLayer
370
-1
48
1
60
0
100
AcDbSpline
70
4
71
3
72
10
73
6
40
0
40
0
40
0
40
0
40
0.5
40
0.5
40
1
40
1
40
1
40
1
41
1
10
163.058503442254
20
-0.383481862175671
30
0
41
1
10
163.057230173274
20
-0.412379332871353
30
0
41
1
10
163.05643706638
20
-0.443311286465217
30
0
41
1
10
163.056510108348
20
-0.512205585172183
30
0
41
1
10
163.057400072523
20
-0.548533158447839
30
0
41
1
10
163.05941837879
20
-0.586972904339547
30
0
0
SPLINE
5
280
100
AcDbEntity
8
1
62
256
6
ByLayer
370
-1
48
1
60
0
100
AcDbSpline
70
4
71
3
72
20
73
16
40
0
40
0
40
0
40
0
40
0.186356174923437
40
0.186356174923437
40
0.372712349846874
40
0.372712349846874
40
0.465890437308592
40
0.465890437308592
40
0.559068524770311
40
0.559068524770311
40
0.745424699693623
40
0.745424699693623
40
0.931780874616936
40
0.931780874616936
40
1
40
1
40
1
40
1
41
1
10
162.404749489933
20
1.79616085560514
30
0
41
1
10
162.40073251659
20
1.81264286403828
30
0
41
1
10
162.395324700562
20
1.83003691947451
30
0
41
1
10
162.379237900681
20
1.8678644862845
30
0
41
1
10
162.368719305245
20
1.88823619528395
30
0
41
1
10
162.344680545132
20
1.92167879919762
30
0
41
1
10
162.335142843044
20
1.93333308867469
30
0
41
1
10
162.313805643195
20
1.95559738585257
30
0
41
1
10
162.301743443094
20
1.96642042936779
30
0
41
1
10
162.265587282802
20
1.99445751615994
30
0
41
1
10
162.241862134019
20
2.00749714497775
30
0
41
1
10
162.199816476141
20
2.02641919053892
30
0
41
1
10
162.180550540037
20
2.032779747658
30
0
41
1
10
162.156062113825
20
2.0392955238888
30
0
41
1
10
162.149680896026
20
2.04082210619171
30
0
41
1
10
162.143453031363
20
2.04216372843897
30
0
0
SPLINE
5
281
100
AcDbEntity
8
1
62
256
6
ByLayer
370
-1
48
1
60
0
100
AcDbSpline
70
4
71
3
72
10
73
6
40
0
40
0
40
0
40
0
40
0.5
40
0.5
40
1
40
1
40
1
40
1
41
1
10
162.594521475858
20
-5.82696682180392
30
0
41
1
10
162.619288720445
20
-5.87654361992094
30
0
41
1
10
162.63737257308
20
-5.92807255380336
30
0
41
1
10
162.660702326767
20
-6.03488019846952
30
0
41
1
10
162.665811008596
20
-6.09050209935546
30
0
41
1
10
162.663861822064
20
-6.14586786334786
30
0
0
SPLINE
5
282
100
AcDbEntity
8
1
62
256
6
ByLayer
370
-1
48
1
60
0
100
AcDbSpline
70
4
71
3
72
16
73
12
40
0
40
0
40
0
40
0
40
0.142035035632408
40
0.142035035632408
40
0.356526276724306
40
0.356526276724306
40
0.571017517816204
40
0.571017517816204
40
0.785508758908102
40
0.785508758908102
40
1
40
1
40
1
40
1
41
1
10
162.150801155279
20
2.06659878918131
30
0
41
1
10
162.170023448928
20
2.05930317561874
30
0
41
1
10
162.189751637758
20
2.05056213407815
30
0
41
1
10
162.241029278521
20
2.02352539352509
30
0
41
1
10
162.273125944575
20
2.00242133155442
30
0
41
1
10
162.33207816946
20
1.95200304576491
30
0
41
1
10
162.358693640059
20
1.92277546387081
30
0
41
1
10
162.401428154224
20
1.86373814141041
30
0
41
1
10
162.417788326864
20
1.83415031182378
30
0
41
1
10
162.443121794573
20
1.77742862327855
30
0
41
1
10
162.452275682107
20
1.74994236320063
30
0
41
1
10
162.459016142433
20
1.72360535962406
30
0
0
SPLINE
5
283
100
AcDbEntity
8
1
62
256
6
ByLayer
370
-1
48
1
60
0
100
AcDbSpline
70
4
71
3
72
10
73
6
40
0
40
0
40
0
40
0
40
0.5
40
0.5
40
1
40
1
40
1
40
1
41
1
10
162.613658255308
20
-6.13948874625123
30
0
41
1
10
162.615417094601
20
-6.08834488359105
30
0
41
1
10
162.610805699768
20
-6.03806058439073
30
0
41
1
10
162.589259850189
20
-5.93915479018295
30
0
41
1
10
162.572131357664
20
-5.89048823120791
30
0
41
1
10
162.54917285978
20
-5.8447317991986
30
0
0
SPLINE
5
284
100
AcDbEntity
8
1
62
256
6
ByLayer
370
-1
48
1
60
0
100
AcDbSpline
70
4
71
3
72
18
73
14
40
0
40
0
40
0
40
0
40
0.249999999999999
40
0.249999999999999
40
0.499999999999998
40
0.499999999999998
40
0.624999999999998
40
0.624999999999998
40
0.749999999999999
40
0.749999999999999
40
0.874999999999999
40
0.874999999999999
40
1
40
1
40
1
40
1
41
1
10
163.730467494851
20
-8.99980464815764
30
0
41
1
10
163.720418519043
20
-8.93366048372124
30
0
41
1
10
163.710800177646
20
-8.86531064371377
30
0
41
1
10
163.692795829087
20
-8.72093840147849
30
0
41
1
10
163.684402349697
20
-8.64512278564575
30
0
41
1
10
163.67334846332
20
-8.52063371962885
30
0
41
1
10
163.669918908668
20
-8.47722148125698
30
0
41
1
10
163.663844707381
20
-8.38549494511474
30
0
41
1
10
163.661184209129
20
-8.3371721584038
30
0
41
1
10
163.657033466408
20
-8.23168668637848
30
0
41
1
10
163.655538984171
20
-8.17425530558043
30
0
41
1
10
163.654777910801
20
-8.04889773381137
30
0
41
1
10
163.655580958407
20
-7.98050252335366
30
0
41
1
10
163.657996534899
20
-7.91145848482881
30
0
0
SPLINE
5
285
100
AcDbEntity
8
1
62
256
6
ByLayer
370
-1
48
1
60
0
100
AcDbSpline
70
4
71
3
72
10
73
6
40
0
40
0
40
0
40
0
40
0.811452654947763
40
0.811452654947763
40
1
40
1
40
1
40
1
41
1
10
162.54917285978
20
-5.8447317991986
30
0
41
1
10
162.48935516513
20
-5.72551475407479
30
0
41
1
10
162.435928680204
20
-5.60370037807735
30
0
41
1
10
162.377904679855
20
-5.450404908693
30
0
41
1
10
162.367303655007
20
-5.4213427138055
30
0
41
1
10
162.357049396339
20
-5.39214725878006
30
0
0
SPLINE
5
286
100
AcDbEntity
8
1
62
256
6
ByLayer
370
-1
48
1
60
0
100
AcDbSpline
70
4
71
3
72
12
73
8
40
0
40
0
40
0
40
0
40
0.500000000000045
40
0.500000000000045
40
0.750000000000023
40
0.750000000000023
40
1
40
1
40
1
40
1
41
1
10
163.41873464982
20
-9.44934756438605
30
0
41
1
10
163.364565440702
20
-9.45308730384943
30
0
41
1
10
163.307359382847
20
-9.45843245930502
30
0
41
1
10
163.211721106627
20
-9.47164634787285
30
0
41
1
10
163.178016814983
20
-9.47696130307364
30
0
41
1
10
163.10565949581
20
-9.49045450281193
30
0
41
1
10
163.067413647596
20
-9.49852985185345
30
0
41
1
10
163.02547504363
20
-9.50897883341395
30
0
0
SPLINE
5
287
100
AcDbEntity
8
1
62
256
6
ByLayer
370
-1
48
1
60
0
100
AcDbSpline
70
4
71
3
72
10
73
6
40
0
40
0
40
0
40
0
40
0.857750003386307
40
0.857750003386307
40
1
40
1
40
1
40
1
41
1
10
162.663861822064
20
-6.14586786334786
30
0
41
1
10
162.647403897942
20
-6.61135192914563
30
0
41
1
10
162.630887592837
20
-7.07682637492732
30
0
41
1
10
162.611584773144
20
-7.61948735763684
30
0
41
1
10
162.608837827332
20
-7.69668069069064
30
0
41
1
10
162.606089838717
20
-7.77387384364462
30
0
0
SPLINE
5
288
100
AcDbEntity
8
1
62
256
6
ByLayer
370
-1
48
1
60
0
100
AcDbSpline
70
4
71
3
72
10
73
6
40
0
40
0
40
0
40
0
40
0.440069925402055
40
0.440069925402055
40
1
40
1
40
1
40
1
41
1
10
162.339503118151
20
-5.17137436862177
30
0
41
1
10
162.367728250839
20
-5.26991073093248
30
0
41
1
10
162.399975447755
20
-5.36754347535575
30
0
41
1
10
162.482587335422
20
-5.58730391349121
30
0
41
1
10
162.535523041195
20
-5.70876270436332
30
0
41
1
10
162.594521475858
20
-5.82696682180392
30
0
0
SPLINE
5
289
100
AcDbEntity
8
1
62
256
6
ByLayer
370
-1
48
1
60
0
100
AcDbSpline
70
4
71
3
72
10
73
6
40
0
40
0
40
0
40
0
40
0.5
40
0.5
40
1
40
1
40
1
40
1
41
1
10
163.047641248584
20
-0.584473638930433
30
0
41
1
10
163.04529889102
20
-0.539862158978849
30
0
41
1
10
163.043640985644
20
-0.496867963406316
30
0
41
1
10
163.041513220955
20
-0.414436899299119
30
0
41
1
10
163.041069594684
20
-0.37642919076356
30
0
41
1
10
163.041061831135
20
-0.34056183244499
30
0
0
SPLINE
5
28A
100
AcDbEntity
8
1
62
256
6
ByLayer
370
-1
48
1
60
0
100
AcDbSpline
70
4
71
3
72
12
73
8
40
0
40
0
40
0
40
0
40
0.360346101020721
40
0.360346101020721
40
0.720692202041443
40
0.720692202041443
40
1
40
1
40
1
40
1
41
1
10
162.606089838717
20
-7.77387384364462
30
0
41
1
10
162.60494630564
20
-7.80641108462814
30
0
41
1
10
162.599549543495
20
-7.83802747801985
30
0
41
1
10
162.580559398277
20
-7.89948564931782
30
0
41
1
10
162.566780554279
20
-7.92932377175092
30
0
41
1
10
162.536262090025
20
-7.97746731348229
30
0
41
1
10
162.520569460329
20
-7.99734819027518
30
0
41
1
10
162.503131587428
20
-8.01533552077362
30
0
0
SPLINE
5
28B
100
AcDbEntity
8
1
62
256
6
ByLayer
370
-1
48
1
60
0
100
AcDbSpline
70
4
71
3
72
12
73
8
40
0
40
0
40
0
40
0
40
0.25
40
0.25
40
0.5
40
0.5
40
1
40
1
40
1
40
1
41
1
10
162.522074435553
20
1.38445267930331
30
0
41
1
10
162.507735856566
20
1.42849271608284
30
0
41
1
10
162.495164234754
20
1.46877796502358
30
0
41
1
10
162.472255967167
20
1.54468893799384
30
0
41
1
10
162.461901255355
20
1.58041077845695
30
0
41
1
10
162.433640169436
20
1.68120373348154
30
0
41
1
10
162.418290195833
20
1.74060210283713
30
0
41
1
10
162.404749489933
20
1.79616085560514
30
0
0
SPLINE
5
28C
100
AcDbEntity
8
1
62
256
6
ByLayer
370
-1
48
1
60
0
100
AcDbSpline
70
4
71
3
72
22
73
18
40
0
40
0
40
0
40
0
40
0.0624999999999994
40
0.0624999999999994
40
0.124999999999999
40
0.124999999999999
40
0.187499999999998
40
0.187499999999998
40
0.249999999999998
40
0.249999999999998
40
0.374999999999999
40
0.374999999999999
40
0.5
40
0.5
40
0.75
40
0.75
40
1
40
1
40
1
40
1
41
1
10
163.669782643247
20
-7.91498462454445
30
0
41
1
10
163.668630016446
20
-7.9479299730119
30
0
41
1
10
163.668280292339
20
-7.98015027031042
30
0
41
1
10
163.66887499206
20
-8.04336108720261
30
0
41
1
10
163.669789972541
20
-8.07275402104335
30
0
41
1
10
163.672383479222
20
-8.1288047174825
30
0
41
1
10
163.674072092976
20
-8.15539325670551
30
0
41
1
10
163.677840172458
20
-8.20523936936897
30
0
41
1
10
163.679935739713
20
-8.22876839160614
30
0
41
1
10
163.686641734051
20
-8.29659218592218
30
0
41
1
10
163.691674878619
20
-8.33827818639375
30
0
41
1
10
163.702266578163
20
-8.41739126262959
30
0
41
1
10
163.707804939074
20
-8.45456177962723
30
0
41
1
10
163.724851350206
20
-8.56182957226892
30
0
41
1
10
163.73678114561
20
-8.62777737700711
30
0
41
1
10
163.761163404173
20
-8.75453055752408
30
0
41
1
10
163.773631437383
20
-8.81518274251954
30
0
41
1
10
163.786258268824
20
-8.87427254183271
30
0
0
SPLINE
5
28D
100
AcDbEntity
8
1
62
256
6
ByLayer
370
-1
48
1
60
0
100
AcDbSpline
70
4
71
3
72
12
73
8
40
0
40
0
40
0
40
0
40
0.25
40
0.25
40
0.499999999999999
40
0.499999999999999
40
1
40
1
40
1
40
1
41
1
10
163.049238129828
20
-9.4826335868996
30
0
41
1
10
163.094817670046
20
-9.46977624066119
30
0
41
1
10
163.136959997516
20
-9.45900654205047
30
0
41
1
10
163.216980162452
20
-9.44010094122888
30
0
41
1
10
163.254968226526
20
-9.43196091125532
30
0
41
1
10
163.362860704711
20
-9.41065081989845
30
0
41
1
10
163.427401179212
20
-9.40035120124099
30
0
41
1
10
163.488304580322
20
-9.39206680270968
30
0
0
SPLINE
5
28E
100
AcDbEntity
8
1
62
256
6
ByLayer
370
-1
48
1
60
0
100
AcDbSpline
70
4
71
3
72
12
73
8
40
0
40
0
40
0
40
0
40
0.5
40
0.5
40
0.75
40
0.75
40
1
40
1
40
1
40
1
41
1
10
162.459016142433
20
1.72360535962406
30
0
41
1
10
162.467854542287
20
1.67461936199376
30
0
41
1
10
162.478140950707
20
1.62244207170801
30
0
41
1
10
162.498257247377
20
1.53384706730563
30
0
41
1
10
162.505795687785
20
1.50241506545549
30
0
41
1
10
162.523400861221
20
1.43427184376918
30
0
41
1
10
162.533350122425
20
1.39795268655635
30
0
41
1
10
162.545347764094
20
1.35761858862938
30
0
0
SPLINE
5
28F
100
AcDbEntity
8
1
62
256
6
ByLayer
370
-1
48
1
60
0
100
AcDbSpline
70
4
71
3
72
10
73
6
40
0
40
0
40
0
40
0
40
0.5
40
0.5
40
1
40
1
40
1
40
1
41
1
10
163.024830588728
20
-0.2544615698489
30
0
41
1
10
163.007998841118
20
-0.210191129186597
30
0
41
1
10
162.991416138054
20
-0.165147164078945
30
0
41
1
10
162.959935537709
20
-0.0766359672087447
30
0
41
1
10
162.945483116524
20
-0.0344483593573841
30
0
41
1
10
162.93229229588
20
0.0053677052921728
30
0
0
SPLINE
5
290
100
AcDbEntity
8
1
62
256
6
ByLayer
370
-1
48
1
60
0
100
AcDbSpline
70
4
71
3
72
10
73
6
40
0
40
0
40
0
40
0
40
0.5
40
0.5
40
1
40
1
40
1
40
1
41
1
10
163.041061831135
20
-0.340561832445019
30
0
41
1
10
163.041059087841
20
-0.327887901804019
30
0
41
1
10
163.03997891765
20
-0.31391565566247
30
0
41
1
10
163.034674494499
20
-0.284493554115158
30
0
41
1
10
163.030368410577
20
-0.2690270100681
30
0
41
1
10
163.024830588728
20
-0.2544615698489
30
0
0
SPLINE
5
291
100
AcDbEntity
8
1
62
256
6
ByLayer
370
-1
48
1
60
0
100
AcDbSpline
70
4
71
3
72
12
73
8
40
0
40
0
40
0
40
0
40
0.0754125606985115
40
0.0754125606985115
40
0.537706280349256
40
0.537706280349256
40
1
40
1
40
1
40
1
41
1
10
162.50133686454
20
-7.9378275542405
30
0
41
1
10
162.503947203505
20
-7.93408233374609
30
0
41
1
10
162.506472764091
20
-7.93028580077294
30
0
41
1
10
162.523847488143
20
-7.90288624914731
30
0
41
1
10
162.535828198725
20
-7.87693504451795
30
0
41
1
10
162.552302180931
20
-7.823604450076
30
0
41
1
10
162.557025806875
20
-7.79584603652472
30
0
41
1
10
162.557987381143
20
-7.76758991342589
30
0
0
SPLINE
5
292
100
AcDbEntity
8
1
62
256
6
ByLayer
370
-1
48
1
60
0
100
AcDbSpline
70
4
71
3
72
10
73
6
40
0
40
0
40
0
40
0
40
0.367626034333035
40
0.367626034333035
40
1
40
1
40
1
40
1
41
1
10
162.557987381143
20
-7.76758991342589
30
0
41
1
10
162.564776900937
20
-7.56807801562445
30
0
41
1
10
162.571575975201
20
-7.36856644139209
30
0
41
1
10
162.590103591664
20
-6.82586505163854
30
0
41
1
10
162.60185603164
20
-6.4826760452047
30
0
41
1
10
162.613658255308
20
-6.13948874625115
30
0
0
SPLINE
5
293
100
AcDbEntity
8
SK1
62
256
6
ByLayer
370
-1
48
1
60
0
100
AcDbSpline
70
4
71
3
72
10
73
6
40
0
40
0
40
0
40
0
40
0.5
40
0.5
40
1
40
1
40
1
40
1
41
1
10
-2.00000000000008
20
3.53189014643519
30
0
41
1
10
-1.90393337443695
20
4.17254949139414
30
0
41
1
10
-1.79296688652977
20
4.79344204858279
30
0
41
1
10
-1.55766021047049
20
6.00594034292695
30
0
41
1
10
-1.43293995753825
20
6.59828030673893
30
0
41
1
10
-1.30710678118655
20
7.17535191129488
30
0
0
SPLINE
5
294
100
AcDbEntity
8
SK1
62
256
6
ByLayer
370
-1
48
1
60
0
100
AcDbSpline
70
4
71
3
72
87
73
83
40
0
40
0
40
0
40
0
40
0.006430454345251
40
0.0205324392124987
40
0.0346344240797464
40
0.0416854165133703
40
0.0487364089469941
40
0.052261905163806
40
0.055787401380618
40
0.0628383938142418
40
0.0698893862478657
40
0.0769403786814895
40
0.0910423635487373
40
0.105144348415985
40
0.119246333283233
40
0.13334831815048
40
0.147450303017728
40
0.161552287884976
40
0.175654272752224
40
0.189756257619471
40
0.203858242486719
40
0.217960227353967
40
0.232062212221214
40
0.246164197088462
40
0.26026618195571
40
0.274368166822958
40
0.288470151690205
40
0.302572136557453
40
0.316674121424701
40
0.330776106291948
40
0.344878091159196
40
0.358980076026444
40
0.373082060893692
40
0.387184045760939
40
0.401286030628187
40
0.415388015495435
40
0.429490000362682
40
0.44359198522993
40
0.457693970097178
40
0.471795954964426
40
0.485897939831673
40
0.499999924698921
40
0.514101909566169
40
0.528203894433416
40
0.542305879300664
40
0.556407864167912
40
0.57050984903516
40
0.584611833902407
40
0.598713818769655
40
0.612815803636903
40
0.62691778850415
40
0.641019773371398
40
0.655121758238646
40
0.669223743105894
40
0.683325727973141
40
0.697427712840389
40
0.711529697707637
40
0.725631682574884
40
0.739733667442132
40
0.75383565230938
40
0.767937637176627
40
0.782039622043875
40
0.796141606911123
40
0.810243591778371
40
0.824345576645618
40
0.838447561512866
40
0.852549546380114
40
0.866651531247362
40
0.880753516114609
40
0.894855500981857
40
0.908957485849105
40
0.923059470716352
40
0.930110463149976
40
0.9371614555836
40
0.944212448017224
40
0.947737944234036
40
0.951263440450848
40
0.958314432884472
40
0.965365425318096
40
0.979467410185343
40
0.993569395052591
40
1
40
1
40
1
40
1
41
1
10
-3
20
-21.737311735223
30
0
41
1
10
-3
20
-21.7581505779506
30
0
41
1
10
-3
20
-21.8216572702293
30
0
41
1
10
-3.00000000000003
20
-21.9107797633372
30
0
41
1
10
-3.00000000000003
20
-21.9704004421262
30
0
41
1
10
-3.00000000000003
20
-21.9955838514163
30
0
41
1
10
-3.00000000000003
20
-22.0011048464384
30
0
41
1
10
-3.00000000000003
20
-21.9988957932114
30
0
41
1
10
-3.00000000000003
20
-21.9921074341117
30
0
41
1
10
-3.00000000000003
20
-21.9747088550401
30
0
41
1
10
-3.00000000000003
20
-21.9386456245555
30
0
41
1
10
-3.00000000000003
20
-21.868993702256
30
0
41
1
10
-3.00000000000003
20
-21.7393283758615
30
0
41
1
10
-3.00000000000003
20
-21.5090390087807
30
0
41
1
10
-3.00000000000003
20
-21.1987879004756
30
0
41
1
10
-3.00000000000003
20
-20.8048153118584
30
0
41
1
10
-3.00000000000003
20
-20.3250833271079
30
0
41
1
10
-3.00000000000003
20
-19.7594566764181
30
0
41
1
10
-3.00000000000003
20
-19.1097943347758
30
0
41
1
10
-3.00000000000003
20
-18.3799726709714
30
0
41
1
10
-3.00000000000003
20
-17.5758204617336
30
0
41
1
10
-3.00000000000003
20
-16.7049885958267
30
0
41
1
10
-3.00000000000003
20
-15.7767347946731
30
0
41
1
10
-3.00000000000003
20
-14.8016577436089
30
0
41
1
10
-3.00000000000003
20
-13.7913621958654
30
0
41
1
10
-3.00000000000003
20
-12.7580964435599
30
0
41
1
10
-3
20
-11.7143471465197
30
0
41
1
10
-3.00000000000003
20
-10.6724342215934
30
0
41
1
10
-3.00000000000003
20
-9.64409593406697
30
0
41
1
10
-3.00000000000003
20
-8.64010224817511
30
0
41
1
10
-3.00000000000003
20
-7.66989272366362
30
0
41
1
10
-3.00000000000003
20
-6.74126705030582
30
0
41
1
10
-3.00000000000003
20
-5.86013077636733
30
0
41
1
10
-3.00000000000003
20
-5.03031048105601
30
0
41
1
10
-3.00000000000003
20
-4.25344644766659
30
0
41
1
10
-3.00000000000003
20
-3.5289614043765
30
0
41
1
10
-3.00000000000003
20
-2.85411734459242
30
0
41
1
10
-3.00000000000003
20
-2.22414379058173
30
0
41
1
10
-3.00000000000003
20
-1.63245137350921
30
0
41
1
10
-3.00000000000003
20
-1.07090162750731
30
0
41
1
10
-3.00000000000003
20
-0.530146398226009
30
0
41
1
10
-3.00000000000003
20
1.1052839E-07
30
0
41
1
10
-3.00000000000003
20
0.530145956112307
30
0
41
1
10
-3.00000000000003
20
1.07090183098106
30
0
41
1
10
-3.00000000000003
20
1.63245100172756
30
0
41
1
10
-3.00000000000003
20
2.22414394390051
30
0
41
1
10
-3.00000000000003
20
2.85411710309862
30
0
41
1
10
-3.00000000000003
20
3.52896148234822
30
0
41
1
10
-3.00000000000003
20
4.25344637727321
30
0
41
1
10
-3.00000000000003
20
5.03031046956039
30
0
41
1
10
-3.00000000000003
20
5.86013089274292
30
0
41
1
10
-3.00000000000003
20
6.7412669483133
30
0
41
1
10
-3.00000000000003
20
7.66989301525788
30
0
41
1
10
-3.00000000000003
20
8.64010206779591
30
0
41
1
10
-3.00000000000003
20
9.64409636398926
30
0
41
1
10
-3.00000000000003
20
10.6724339861579
30
0
41
1
10
-3.00000000000003
20
11.7143476583394
30
0
41
1
10
-2.99999999999997
20
12.7580961840504
30
0
41
1
10
-2.99999999999997
20
13.7913627220832
30
0
41
1
10
-2.99999999999997
20
14.8016574939434
30
0
41
1
10
-2.99999999999997
20
15.7767352671169
30
0
41
1
10
-2.99999999999997
20
16.7049883877483
30
0
41
1
10
-2.99999999999997
20
17.5758208216031
30
0
41
1
10
-2.99999999999997
20
18.3799725293323
30
0
41
1
10
-2.99999999999997
20
19.1097945414623
30
0
41
1
10
-2.99999999999997
20
19.759456615498
30
0
41
1
10
-2.99999999999997
20
20.3250833641014
30
0
41
1
10
-2.99999999999997
20
20.804815632754
30
0
41
1
10
-2.99999999999997
20
21.1987865798995
30
0
41
1
10
-2.99999999999997
20
21.5090429333437
30
0
41
1
10
-2.99999999999997
20
21.7393270779667
30
0
41
1
10
-2.99999999999997
20
21.868994103416
30
0
41
1
10
-2.99999999999997
20
21.9386456157424
30
0
41
1
10
-2.99999999999997
20
21.9747080149673
30
0
41
1
10
-2.99999999999997
20
21.9921069826245
30
0
41
1
10
-2.99999999999997
20
21.9988955684255
30
0
41
1
10
-2.99999999999997
20
22.0011049359544
30
0
41
1
10
-2.99999999999997
20
21.9955842966017
30
0
41
1
10
-2.99999999999997
20
21.9704009616837
30
0
41
1
10
-2.99999999999997
20
21.9107795104958
30
0
41
1
10
-3
20
21.82165670158
30
0
41
1
10
-2.99999999999994
20
21.7581493918383
30
0
41
1
10
-2.99999999999997
20
21.7373099973394
30
0
0
SPLINE
5
295
100
AcDbEntity
8
SK1
62
256
6
ByLayer
370
-1
48
1
60
0
100
AcDbSpline
70
4
71
3
72
28
73
24
40
0
40
0
40
0
40
0
40
0.24999999999997
40
0.24999999999997
40
0.374999999999954
40
0.374999999999954
40
0.437499999999947
40
0.437499999999947
40
0.468749999999943
40
0.468749999999943
40
0.499999999999939
40
0.499999999999939
40
0.51562499999994
40
0.51562499999994
40
0.53124999999994
40
0.53124999999994
40
0.562499999999944
40
0.562499999999944
40
0.624999999999952
40
0.624999999999952
40
0.749999999999968
40
0.749999999999968
40
1
40
1
40
1
40
1
41
1
10
-2.00000000000003
20
-3.5318808720528
30
0
41
1
10
-2.01495367663023
20
-3.43215611727859
30
0
41
1
10
-2.03093074136544
20
-3.33270202367439
30
0
41
1
10
-2.05913381766928
20
-3.18523173447792
30
0
41
1
10
-2.06919540801943
20
-3.13627601240742
30
0
41
1
10
-2.08711697283871
20
-3.06447112741
30
0
41
1
10
-2.09354615320441
20
-3.0407352426725
30
0
41
1
10
-2.10500754339574
20
-3.00649558647135
30
0
41
1
10
-2.10913389451733
20
-2.99526415536084
30
0
41
1
10
-2.11879461576237
20
-2.97412719489222
30
0
41
1
10
-2.12410430532523
20
-2.9634541147345
30
0
41
1
10
-2.135994733063
20
-2.95444828312577
30
0
41
1
10
-2.14100969668752
20
-2.95345522109784
30
0
41
1
10
-2.14977436658612
20
-2.95915337420564
30
0
41
1
10
-2.15315484292654
20
-2.96467370301431
30
0
41
1
10
-2.16124639126005
20
-2.98162665342264
30
0
41
1
10
-2.16462863808897
20
-2.99443080041198
30
0
41
1
10
-2.17336674456095
20
-3.03234894515953
30
0
41
1
10
-2.177024266888
20
-3.05841003977531
30
0
41
1
10
-2.18628317238893
20
-3.13606460897245
30
0
41
1
10
-2.18979354091806
20
-3.18786417566517
30
0
41
1
10
-2.19793222121803
20
-3.34326676178742
30
0
41
1
10
-2.19967024790282
20
-3.44676918631768
30
0
41
1
10
-2.19996216443241
20
-3.54983930763262
30
0
0
SPLINE
5
296
100
AcDbEntity
8
SK1
62
256
6
ByLayer
370
-1
48
1
60
0
100
AcDbSpline
70
4
71
3
72
24
73
20
40
0
40
0
40
0
40
0
40
0.0625000000000011
40
0.0625000000000011
40
0.125000000000002
40
0.125000000000002
40
0.187500000000003
40
0.187500000000003
40
0.250000000000005
40
0.250000000000005
40
0.312500000000006
40
0.312500000000006
40
0.375000000000007
40
0.375000000000007
40
0.500000000000006
40
0.500000000000006
40
0.750000000000003
40
0.750000000000003
40
1
40
1
40
1
40
1
41
1
10
-0.399999999999977
20
8.40050075607752
30
0
41
1
10
-0.428752141853693
20
8.4264728951228
30
0
41
1
10
-0.461100695513494
20
8.45005334645103
30
0
41
1
10
-0.534714999603835
20
8.48345078550298
30
0
41
1
10
-0.577303612973111
20
8.49266393908405
30
0
41
1
10
-0.661924516165101
20
8.48532782602041
30
0
41
1
10
-0.701224861450555
20
8.46977406317484
30
0
41
1
10
-0.769375077269331
20
8.42862323436506
30
0
41
1
10
-0.799016959709348
20
8.40305846370296
30
0
41
1
10
-0.851948152018309
20
8.34882363821527
30
0
41
1
10
-0.875723809894026
20
8.31951815528515
30
0
41
1
10
-0.919221854902332
20
8.25942406973266
30
0
41
1
10
-0.93895574265008
20
8.22860704152689
30
0
41
1
10
-0.994258386462406
20
8.13460352040161
30
0
41
1
10
-1.02600083824524
20
8.06989026225818
30
0
41
1
10
-1.11280547606256
20
7.87204951340277
30
0
41
1
10
-1.15949220142304
20
7.73510332995977
30
0
41
1
10
-1.24121226330027
20
7.45819827113272
30
0
41
1
10
-1.27607959970027
20
7.31764272778901
30
0
41
1
10
-1.30710678118655
20
7.17535191129485
30
0
0
SPLINE
5
297
100
AcDbEntity
8
SK1
62
256
6
ByLayer
370
-1
48
1
60
0
100
AcDbSpline
70
4
71
3
72
37
73
33
40
0
40
0
40
0
40
0
40
0.0358137777772005
40
0.074712980108858
40
0.113612182440516
40
0.152511384772173
40
0.19141058710383
40
0.230309789435488
40
0.269208991767146
40
0.308108194098803
40
0.347007396430461
40
0.385906598762118
40
0.424805801093776
40
0.463705003425433
40
0.502604205757091
40
0.541503408088748
40
0.580402610420406
40
0.619301812752063
40
0.658201015083721
40
0.697100217415378
40
0.735999419747036
40
0.774898622078693
40
0.813797824410351
40
0.852697026742008
40
0.891596229073666
40
0.930495431405323
40
0.949945032571152
40
0.969394633736981
40
0.979119434319895
40
0.98884423490281
40
0.998569035485724
40
1
40
1
40
1
40
1
41
1
10
-2.00000000000003
20
-3.5318808720528
30
0
41
1
10
-2.00000000000003
20
-3.74495302120394
30
0
41
1
10
-2.00000000000003
20
-4.2042470499967
30
0
41
1
10
-2.00000000000003
20
-4.95199329354998
30
0
41
1
10
-2.00000000000003
20
-5.77341227102076
30
0
41
1
10
-2.00000000000003
20
-6.64657476441815
30
0
41
1
10
-2.00000000000003
20
-7.56767138772486
30
0
41
1
10
-2.00000000000003
20
-8.53080293175961
30
0
41
1
10
-2.00000000000003
20
-9.52816888083231
30
0
41
1
10
-2.00000000000003
20
-10.5503221797328
30
0
41
1
10
-2.00000000000003
20
-11.5864797887658
30
0
41
1
10
-2.00000000000006
20
-12.6248859949608
30
0
41
1
10
-2.00000000000006
20
-13.6532003777634
30
0
41
1
10
-2.00000000000006
20
-14.6589141102144
30
0
41
1
10
-2.00000000000006
20
-15.6297564245795
30
0
41
1
10
-2.00000000000006
20
-16.5541011472568
30
0
41
1
10
-2.00000000000006
20
-17.4213304234775
30
0
41
1
10
-2.00000000000006
20
-18.2221707430851
30
0
41
1
10
-2.00000000000006
20
-18.9489596670075
30
0
41
1
10
-2.00000000000006
20
-19.5958618349948
30
0
41
1
10
-2.00000000000003
20
-20.1589996510313
30
0
41
1
10
-2.00000000000003
20
-20.6365184914532
30
0
41
1
10
-2.00000000000003
20
-21.0285634421464
30
0
41
1
10
-2.00000000000003
20
-21.337187169909
30
0
41
1
10
-2.00000000000003
20
-21.5661689793568
30
0
41
1
10
-2.00000000000003
20
-21.6949775814281
30
0
41
1
10
-2.00000000000003
20
-21.7642160759136
30
0
41
1
10
-2.00000000000003
20
-21.7940468728384
30
0
41
1
10
-2.00000000000003
20
-21.810382005051
30
0
41
1
10
-2.00000000000003
20
-21.8189797158788
30
0
41
1
10
-2.00000000000003
20
-21.8225936455423
30
0
41
1
10
-2.00000000000003
20
-21.8237781506273
30
0
41
1
10
-2.00000000000003
20
-21.8239178720216
30
0
0
SPLINE
5
298
100
AcDbEntity
8
SK1
62
256
6
ByLayer
370
-1
48
1
60
0
100
AcDbSpline
70
4
71
3
72
10
73
6
40
0
40
0
40
0
40
0
40
0.5
40
0.5
40
1
40
1
40
1
40
1
41
1
10
-0.200000000000046
20
21.9526914779181
30
0
41
1
10
-0.156990599090051
20
21.9632656982428
30
0
41
1
10
-0.12058972435392
20
21.9734662787161
30
0
41
1
10
-0.0552557087441414
20
21.9925985400874
30
0
41
1
10
-0.0264007673349909
20
22.0015582822598
30
0
41
1
10
2.84E-14
20
22.0098648664662
30
0
0
SPLINE
5
299
100
AcDbEntity
8
SK1
62
256
6
ByLayer
370
-1
48
1
60
0
100
AcDbSpline
70
4
71
3
72
22
73
18
40
0
40
0
40
0
40
0
40
0.0131641135823275
40
0.0131641135823275
40
0.177636761318606
40
0.177636761318606
40
0.342109409054885
40
0.342109409054885
40
0.506582056791164
40
0.506582056791164
40
0.671054704527443
40
0.671054704527443
40
0.753291028395582
40
0.753291028395582
40
0.835527352263722
40
0.835527352263722
40
1
40
1
40
1
40
1
41
1
10
-2.19993720649833
20
22.0201003465563
30
0
41
1
10
-2.19993814031614
20
22.0200629241359
30
0
41
1
10
-2.19993905754603
20
22.0197960601318
30
0
41
1
10
-2.19995121410292
20
22.0131437163278
30
0
41
1
10
-2.1999599730359
20
21.9715850022846
30
0
41
1
10
-2.19997398518322
20
21.826510152625
30
0
41
1
10
-2.19997935061687
20
21.72295622244
30
0
41
1
10
-2.19998770707491
20
21.4599995385209
30
0
41
1
10
-2.19999070960964
20
21.3005486624664
30
0
41
1
10
-2.19999518626713
20
20.9304827925966
30
0
41
1
10
-2.19999666325779
20
20.7198119052019
30
0
41
1
10
-2.19999819294227
20
20.3679602304212
30
0
41
1
10
-2.19999858811516
20
20.2447397512041
30
0
41
1
10
-2.19999920479347
20
19.9866598067965
30
0
41
1
10
-2.19999942770272
20
19.851793617257
30
0
41
1
10
-2.19999991431348
20
19.4311388245235
30
0
41
1
10
-2.19999999999999
20
19.1290219240742
30
0
41
1
10
-2.19999999999999
20
18.8057993597053
30
0
0
SPLINE
5
29A
100
AcDbEntity
8
SK1
62
256
6
ByLayer
370
-1
48
1
60
0
100
AcDbSpline
70
4
71
3
72
28
73
24
40
0
40
0
40
0
40
0
40
0.0149514183161537
40
0.0413756856699937
40
0.0942242203776738
40
0.147072755085354
40
0.199921289793034
40
0.252769824500714
40
0.305618359208394
40
0.358466893916074
40
0.411315428623754
40
0.464163963331434
40
0.517012498039114
40
0.569861032746794
40
0.622709567454474
40
0.675558102162154
40
0.728406636869834
40
0.781255171577515
40
0.834103706285195
40
0.886952240992875
40
0.939800775700555
40
0.992649310408235
40
1
40
1
40
1
40
1
41
1
10
-0.400000000000006
20
21.7837956106233
30
0
41
1
10
-0.400000000000006
20
21.7772120307969
30
0
41
1
10
-0.400000000000006
20
21.7567006300735
30
0
41
1
10
-0.400000000000006
20
21.6949779936854
30
0
41
1
10
-0.400000000000006
20
21.5661676526815
30
0
41
1
10
-0.400000000000006
20
21.3371910810194
30
0
41
1
10
-0.400000000000006
20
21.0285622078674
30
0
41
1
10
-0.400000000000006
20
20.6365187777369
30
0
41
1
10
-0.400000000000006
20
20.1589996983693
30
0
41
1
10
-0.400000000000006
20
19.5958617698656
30
0
41
1
10
-0.400000000000006
20
18.9489598758679
30
0
41
1
10
-0.400000000000006
20
18.2221705966385
30
0
41
1
10
-0.400000000000006
20
17.4213307857328
30
0
41
1
10
-0.400000000000006
20
16.5541009338831
30
0
41
1
10
-0.400000000000006
20
15.6297568996197
30
0
41
1
10
-0.400000000000006
20
14.6589138549468
30
0
41
1
10
-0.400000000000006
20
13.6532009067709
30
0
41
1
10
-0.400000000000006
20
12.6248857298215
30
0
41
1
10
-0.400000000000034
20
11.5864803035381
30
0
41
1
10
-0.400000000000034
20
10.5503219390466
30
0
41
1
10
-0.400000000000034
20
9.5281693138144
30
0
41
1
10
-0.400000000000034
20
8.81701711318559
30
0
41
1
10
-0.400000000000034
20
8.44572400735871
30
0
41
1
10
-0.400000000000034
20
8.4005007560547
30
0
0
SPLINE
5
29B
100
AcDbEntity
8
SK1
62
256
6
ByLayer
370
-1
48
1
60
0
100
AcDbSpline
70
4
71
3
72
77
73
73
40
0
40
0
40
0
40
0
40
0.0022824634140578
40
0.0177381240900119
40
0.033193784765966
40
0.0486494454419201
40
0.0563772757798972
40
0.0641051061178743
40
0.0679690212868628
40
0.0718329364558513
40
0.0795607667938284
40
0.0872885971318054
40
0.0950164274697825
40
0.110472088145737
40
0.125927748821691
40
0.141383409497645
40
0.156839070173599
40
0.172294730849553
40
0.187750391525507
40
0.203206052201461
40
0.218661712877416
40
0.23411737355337
40
0.249573034229324
40
0.265028694905278
40
0.280484355581232
40
0.295940016257186
40
0.31139567693314
40
0.326851337609094
40
0.342306998285049
40
0.357762658961003
40
0.373218319636957
40
0.388673980312911
40
0.404129640988865
40
0.419585301664819
40
0.435040962340773
40
0.450496623016727
40
0.465952283692681
40
0.481407944368635
40
0.49686360504459
40
0.512319265720544
40
0.527774926396498
40
0.543230587072452
40
0.558686247748406
40
0.57414190842436
40
0.589597569100314
40
0.605053229776269
40
0.620508890452223
40
0.635964551128177
40
0.651420211804131
40
0.666875872480085
40
0.682331533156039
40
0.697787193831993
40
0.713242854507947
40
0.728698515183902
40
0.744154175859856
40
0.75960983653581
40
0.775065497211764
40
0.790521157887718
40
0.805976818563672
40
0.821432479239626
40
0.83688813991558
40
0.852343800591534
40
0.867799461267489
40
0.883255121943443
40
0.898710782619397
40
0.914166443295351
40
0.929622103971305
40
0.945077764647259
40
0.960533425323213
40
0.975989085999167
40
0.991444746675122
40
1
40
1
40
1
40
1
41
1
10
-36.5004731679066
20
20.8085343313413
30
0
41
1
10
-36.5004731679066
20
20.8158530874989
30
0
41
1
10
-36.5004731679066
20
20.8720970104448
30
0
41
1
10
-36.5004731679066
20
20.9678459995099
30
0
41
1
10
-36.5004731679066
20
21.0725443050818
30
0
41
1
10
-36.5004731679066
20
21.1298848333405
30
0
41
1
10
-36.5004731679066
20
21.1541047357203
30
0
41
1
10
-36.5004731679066
20
21.1594141733556
30
0
41
1
10
-36.5004731679066
20
21.1572893290471
30
0
41
1
10
-36.5004731679066
20
21.1507604524732
30
0
41
1
10
-36.5004731679066
20
21.1340271127651
30
0
41
1
10
-36.5004731679066
20
21.0993443437175
30
0
41
1
10
-36.5004731679066
20
21.0323574718579
30
0
41
1
10
-36.5004731679066
20
20.9076510853334
30
0
41
1
10
-36.5004731679066
20
20.6861768635696
30
0
41
1
10
-36.5004731679066
20
20.3877899097529
30
0
41
1
10
-36.5004731679066
20
20.0088910104846
30
0
41
1
10
-36.5004731679066
20
19.5475117391119
30
0
41
1
10
-36.5004731679066
20
19.0035240314005
30
0
41
1
10
-36.5004731679066
20
18.3787159166599
30
0
41
1
10
-36.5004731679066
20
17.6768145225053
30
0
41
1
10
-36.5004731679066
20
16.9034270453042
30
0
41
1
10
-36.5004731679066
20
16.0659098298205
30
0
41
1
10
-36.5004731679066
20
15.1731686563964
30
0
41
1
10
-36.5004731679066
20
14.235394189438
30
0
41
1
10
-36.5004731679067
20
13.2637500116936
30
0
41
1
10
-36.5004731679066
20
12.2700128928829
30
0
41
1
10
-36.5004731679066
20
11.266194793172
30
0
41
1
10
-36.5004731679066
20
10.2641413514587
30
0
41
1
10
-36.5004731679066
20
9.2751445842122
30
0
41
1
10
-36.5004731679066
20
8.30955984641457
30
0
41
1
10
-36.5004731679066
20
7.37646783866535
30
0
41
1
10
-36.5004731679066
20
6.48336798664187
30
0
41
1
10
-36.5004731679067
20
5.6359413325186
30
0
41
1
10
-36.5004731679067
20
4.83786714148405
30
0
41
1
10
-36.5004731679067
20
4.09072334425366
30
0
41
1
10
-36.5004731679067
20
3.39395488654748
30
0
41
1
10
-36.5004731679067
20
2.74492785973811
30
0
41
1
10
-36.5004731679067
20
2.13905542595018
30
0
41
1
10
-36.5004731679067
20
1.56999873250982
30
0
41
1
10
-36.5004731679067
20
1.02993260778024
30
0
41
1
10
-36.5004731679067
20
0.509864295014552
30
0
41
1
10
-36.5004731679067
20
1.062999786E-07
30
0
41
1
10
-36.5004731679067
20
-0.509864720214296
30
0
41
1
10
-36.5004731679067
20
-1.02993241209063
30
0
41
1
10
-36.5004731679067
20
-1.56999909006819
30
0
41
1
10
-36.5004731679067
20
-2.13905527849678
30
0
41
1
10
-36.5004731679067
20
-2.74492809199302
30
0
41
1
10
-36.5004731679067
20
-3.39395481155859
30
0
41
1
10
-36.5004731679067
20
-4.09072341195395
30
0
41
1
10
-36.5004731679067
20
-4.83786715253976
30
0
41
1
10
-36.5004731679067
20
-5.63594122059504
30
0
41
1
10
-36.5004731679067
20
-6.48336808473238
30
0
41
1
10
-36.5004731679067
20
-7.37646755822644
30
0
41
1
10
-36.5004731679067
20
-8.30956001989293
30
0
41
1
10
-36.5004731679067
20
-9.27514417073726
30
0
41
1
10
-36.5004731679067
20
-10.2641415778871
30
0
41
1
10
-36.5004731679067
20
-11.2661943009328
30
0
41
1
10
-36.5004731679067
20
-12.2700131424643
30
0
41
1
10
-36.5004731679067
20
-13.2637495056069
30
0
41
1
10
-36.5004731679067
20
-14.235394429552
30
0
41
1
10
-36.5004731679067
20
-15.1731682020267
30
0
41
1
10
-36.5004731679067
20
-16.0659100299384
30
0
41
1
10
-36.5004731679067
20
-16.903426699202
30
0
41
1
10
-36.5004731679067
20
-17.6768146587256
30
0
41
1
10
-36.5004731679067
20
-18.3787157178805
30
0
41
1
10
-36.5004731679067
20
-19.0035240899898
30
0
41
1
10
-36.5004731679067
20
-19.5475117035335
30
0
41
1
10
-36.5004731679067
20
-20.0088907018653
30
0
41
1
10
-36.5004731679067
20
-20.3877911798079
30
0
41
1
10
-36.5004731679067
20
-20.6417674230768
30
0
41
1
10
-36.5004731679066
20
-20.76534929388
30
0
41
1
10
-36.5004731679067
20
-20.8055984731352
30
0
0
SPLINE
5
29C
100
AcDbEntity
8
SK1
62
256
6
ByLayer
370
-1
48
1
60
0
100
AcDbSpline
70
4
71
3
72
16
73
12
40
0
40
0
40
0
40
0
40
0.25
40
0.25
40
0.375
40
0.375
40
0.499999999999999
40
0.499999999999999
40
0.75
40
0.75
40
1
40
1
40
1
40
1
41
1
10
-2.19999999999999
20
13.0172213664454
30
0
41
1
10
-2.19999999999999
20
12.3545615205847
30
0
41
1
10
-2.19999985626441
20
11.6614371833871
30
0
41
1
10
-2.1999988488023
20
10.5717452872467
30
0
41
1
10
-2.19999837677909
20
10.199816975702
30
0
41
1
10
-2.19999702437667
20
9.4406799864114
30
0
41
1
10
-2.19999614446726
20
9.05321708532739
30
0
41
1
10
-2.19999264094986
20
7.86759925883197
30
0
41
1
10
-2.19998915267331
20
7.04598606643995
30
0
41
1
10
-2.19997845071697
20
5.34200368623473
30
0
41
1
10
-2.19997100300878
20
4.45970904065132
30
0
41
1
10
-2.19996216441135
20
3.54984866401668
30
0
0
SPLINE
5
29D
100
AcDbEntity
8
SK1
62
256
6
ByLayer
370
-1
48
1
60
0
100
AcDbSpline
70
4
71
3
72
10
73
6
40
0
40
0
40
0
40
0
40
0.5
40
0.5
40
1
40
1
40
1
40
1
41
1
10
-5.68E-14
20
-22.0098649166586
30
0
41
1
10
-0.0264049461954983
20
-22.0015569577978
30
0
41
1
10
-0.0552499383168481
20
-21.9926008160643
30
0
41
1
10
-0.120480824629141
20
-21.9734974515105
30
0
41
1
10
-0.156674570226045
20
-21.9633433125619
30
0
41
1
10
-0.200000000000074
20
-21.9526914083351
30
0
0
SPLINE
5
29E
100
AcDbEntity
8
SK1
62
256
6
ByLayer
370
-1
48
1
60
0
100
AcDbSpline
70
4
71
3
72
26
73
22
40
0
40
0
40
0
40
0
40
0.0312499999999978
40
0.0312499999999978
40
0.0624999999999956
40
0.0624999999999956
40
0.0937499999999933
40
0.0937499999999933
40
0.124999999999991
40
0.124999999999991
40
0.187499999999991
40
0.187499999999991
40
0.249999999999991
40
0.249999999999991
40
0.374999999999995
40
0.374999999999995
40
0.499999999999998
40
0.499999999999998
40
0.749999999999999
40
0.749999999999999
40
1
40
1
40
1
40
1
41
1
10
-0.400000000000034
20
-8.400500696617
30
0
41
1
10
-0.393725252963606
20
-8.39483264189755
30
0
41
1
10
-0.386915609950421
20
-8.38978004226053
30
0
41
1
10
-0.371510025045893
20
-8.38222431343414
30
0
41
1
10
-0.362908121619057
20
-8.37986418265822
30
0
41
1
10
-0.34514854491303
20
-8.38044759995859
30
0
41
1
10
-0.336106054502068
20
-8.38358465090113
30
0
41
1
10
-0.320552744636416
20
-8.39338118777326
30
0
41
1
10
-0.313813651744311
20
-8.39987112448961
30
0
41
1
10
-0.296222214851497
20
-8.42075886664318
30
0
41
1
10
-0.287467109392111
20
-8.43681840329882
30
0
41
1
10
-0.272674392185678
20
-8.46902466173057
30
0
41
1
10
-0.266640241246108
20
-8.4854902667683
30
0
41
1
10
-0.250660660648407
20
-8.53542885034435
30
0
41
1
10
-0.242864654673013
20
-8.56941536674492
30
0
41
1
10
-0.230033101466262
20
-8.63671856739603
30
0
41
1
10
-0.225036302071828
20
-8.67029480205636
30
0
41
1
10
-0.212586509005007
20
-8.77081535448841
30
0
41
1
10
-0.207640079074849
20
-8.83755219371164
30
0
41
1
10
-0.201301686428508
20
-8.97054022400033
30
0
41
1
10
-0.200000000000074
20
-9.03683050663381
30
0
41
1
10
-0.200000000000074
20
-9.10270278820403
30
0
0
SPLINE
5
29F
100
AcDbEntity
8
SK1
62
256
6
ByLayer
370
-1
48
1
60
0
100
AcDbSpline
70
4
71
3
72
10
73
6
40
0
40
0
40
0
40
0
40
0.5
40
0.5
40
1
40
1
40
1
40
1
41
1
10
-0.19999999999834
20
-9.32791902475083
30
0
41
1
10
-0.156870639912086
20
-9.24925077485605
30
0
41
1
10
-0.12049485787071
20
-9.16753401773914
30
0
41
1
10
-0.0552466729708385
20
-9.00203871577421
30
0
41
1
10
-0.0264020688159405
20
-8.91789614017677
30
0
41
1
10
-2.84E-14
20
-8.83269944547368
30
0
0
SPLINE
5
2A0
100
AcDbEntity
8
SK1
62
256
6
ByLayer
370
-1
48
1
60
0
100
AcDbSpline
70
4
71
3
72
24
73
20
40
0
40
0
40
0
40
0
40
0.249999999999999
40
0.249999999999999
40
0.499999999999999
40
0.499999999999999
40
0.624999999999998
40
0.624999999999998
40
0.749999999999998
40
0.749999999999998
40
0.812499999999998
40
0.812499999999998
40
0.874999999999998
40
0.874999999999998
40
0.906249999999998
40
0.906249999999998
40
0.937499999999998
40
0.937499999999998
40
1
40
1
40
1
40
1
41
1
10
-0.19999999999925
20
-21.9302322813768
30
0
41
1
10
-0.199999999999449
20
-21.9232339651778
30
0
41
1
10
-0.201301358458665
20
-21.9153179215731
30
0
41
1
10
-0.20766498991199
20
-21.8972173346817
30
0
41
1
10
-0.212644598959741
20
-21.887040521758
30
0
41
1
10
-0.225227696864891
20
-21.86939991232
30
0
41
1
10
-0.230277419646995
20
-21.8631298937616
30
0
41
1
10
-0.243223761357484
20
-21.8495186811202
30
0
41
1
10
-0.251024371908301
20
-21.8421906584754
30
0
41
1
10
-0.26710524107159
20
-21.8299687499399
30
0
41
1
10
-0.273224961098066
20
-21.825673656047
30
0
41
1
10
-0.288072610556952
20
-21.8165474607427
30
0
41
1
10
-0.296850963424589
20
-21.8116226471017
30
0
41
1
10
-0.314371903809615
20
-21.8037318707459
30
0
41
1
10
-0.321082879564642
20
-21.8009678791633
30
0
41
1
10
-0.336612671282808
20
-21.7955111151383
30
0
41
1
10
-0.345443540956325
20
-21.792857348096
30
0
41
1
10
-0.372191316488198
20
-21.7864063266207
30
0
41
1
10
-0.387529346728002
20
-21.7846001195612
30
0
41
1
10
-0.400000000000148
20
-21.7837959067602
30
0
0
SPLINE
5
2A1
100
AcDbEntity
8
SK1
62
256
6
ByLayer
370
-1
48
1
60
0
100
AcDbSpline
70
4
71
3
72
30
73
26
40
0
40
0
40
0
40
0
40
0.250000000000023
40
0.250000000000023
40
0.375000000000035
40
0.375000000000035
40
0.437500000000041
40
0.437500000000041
40
0.468750000000045
40
0.468750000000045
40
0.484375000000045
40
0.484375000000045
40
0.500000000000045
40
0.500000000000045
40
0.515625000000045
40
0.515625000000045
40
0.531250000000046
40
0.531250000000046
40
0.562500000000042
40
0.562500000000042
40
0.625000000000036
40
0.625000000000036
40
0.750000000000023
40
0.750000000000023
40
1
40
1
40
1
40
1
41
1
10
-2.19996216441137
20
3.54984866401682
30
0
41
1
10
-2.19967154607937
20
3.44723681521549
30
0
41
1
10
-2.1979517919398
20
3.34441231087811
30
0
41
1
10
-2.18990134272281
20
3.18955543261532
30
0
41
1
10
-2.18639724056257
20
3.13771585983838
30
0
41
1
10
-2.17733543673811
20
3.0607007286294
30
0
41
1
10
-2.17379732403157
20
3.03511088069038
30
0
41
1
10
-2.16535653562107
20
2.99721939402676
30
0
41
1
10
-2.16207662613317
20
2.98431022920485
30
0
41
1
10
-2.15427700223896
20
2.96668457309295
30
0
41
1
10
-2.15108129190185
20
2.96089180614197
30
0
41
1
10
-2.14260059754056
20
2.95386542132181
30
0
41
1
10
-2.13736392673485
20
2.95393198208558
30
0
41
1
10
-2.12904051266403
20
2.95932950428878
30
0
41
1
10
-2.12565158991075
20
2.96372984352658
30
0
41
1
10
-2.11964083848361
20
2.97306578643287
30
0
41
1
10
-2.11700376214691
20
2.97815840455317
30
0
41
1
10
-2.10961390483706
20
2.99403462877069
30
0
41
1
10
-2.10542925070641
20
3.00533063146418
30
0
41
1
10
-2.09386940597537
20
3.03960648373706
30
0
41
1
10
-2.08743121666586
20
3.06329695250975
30
0
41
1
10
-2.06942678678826
20
3.13520105220164
30
0
41
1
10
-2.05931825894646
20
3.18432265089729
30
0
41
1
10
-2.03101594001578
20
3.33216899238906
30
0
41
1
10
-2.01499457923356
20
3.43189269931764
30
0
41
1
10
-2.00000000000003
20
3.53189014643689
30
0
0
SPLINE
5
2A2
100
AcDbEntity
8
SK1
62
256
6
ByLayer
370
-1
48
1
60
0
100
AcDbSpline
70
4
71
3
72
12
73
8
40
0
40
0
40
0
40
0
40
0.5
40
0.5
40
0.75
40
0.75
40
1
40
1
40
1
40
1
41
1
10
-1.30710678118655
20
-7.17535139798747
30
0
41
1
10
-1.43288857909613
20
-6.59851617694682
30
0
41
1
10
-1.55712887502457
20
-6.00852912527773
30
0
41
1
10
-1.73364643499025
20
-5.09918734693227
30
0
41
1
10
-1.7908223366141
20
-4.79199066182511
30
0
41
1
10
-1.90003742445902
20
-4.16818032247807
30
0
41
1
10
-1.9520007528466
20
-3.85198363140074
30
0
41
1
10
-2.00000000000003
20
-3.53188087205282
30
0
0
SPLINE
5
2A3
100
AcDbEntity
8
SK1
62
256
6
ByLayer
370
-1
48
1
60
0
100
AcDbSpline
70
4
71
3
72
25
73
21
40
0
40
0
40
0
40
0
40
0.0199490383850683
40
0.0776226674639146
40
0.135296296542761
40
0.192969925621607
40
0.250643554700454
40
0.3083171837793
40
0.365990812858147
40
0.423664441936993
40
0.481338071015839
40
0.539011700094686
40
0.596685329173532
40
0.654358958252379
40
0.712032587331225
40
0.769706216410071
40
0.827379845488918
40
0.885053474567764
40
0.94272710364661
40
1
40
1
40
1
40
1
41
1
10
-0.200000000000046
20
-9.32791902475176
30
0
41
1
10
-0.200000000000046
20
-9.44441669601704
30
0
41
1
10
-0.200000000000046
20
-9.89986381734749
30
0
41
1
10
-0.200000000000046
20
-10.7065596919009
30
0
41
1
10
-0.200000000000046
20
-11.7518041687341
30
0
41
1
10
-0.200000000000074
20
-12.7988908895433
30
0
41
1
10
-0.200000000000074
20
-13.835460544128
30
0
41
1
10
-0.200000000000074
20
-14.8489865461428
30
0
41
1
10
-0.200000000000074
20
-15.827181439141
30
0
41
1
10
-0.200000000000074
20
-16.7584033632994
30
0
41
1
10
-0.200000000000074
20
-17.6320197436259
30
0
41
1
10
-0.200000000000074
20
-18.4387432568202
30
0
41
1
10
-0.200000000000074
20
-19.1708985501415
30
0
41
1
10
-0.200000000000074
20
-19.8226382091502
30
0
41
1
10
-0.200000000000074
20
-20.390073470235
30
0
41
1
10
-0.200000000000074
20
-20.8713394142736
30
0
41
1
10
-0.200000000000074
20
-21.2665717436018
30
0
41
1
10
-0.200000000000074
20
-21.5778148903459
30
0
41
1
10
-0.200000000000074
20
-21.8083055380751
30
0
41
1
10
-0.200000000000074
20
-21.9121808952895
30
0
41
1
10
-0.200000000000074
20
-21.9526914083348
30
0
0
SPLINE
5
2A4
100
AcDbEntity
8
SK1
62
256
6
ByLayer
370
-1
48
1
60
0
100
AcDbSpline
70
4
71
3
72
37
73
33
40
0
40
0
40
0
40
0
40
0.001432611264503
40
0.0111574008614149
40
0.0208821904583268
40
0.0306069800552387
40
0.0500565592490625
40
0.0695061384428862
40
0.108405296830534
40
0.147304455218181
40
0.186203613605829
40
0.225102771993477
40
0.264001930381124
40
0.302901088768772
40
0.341800247156419
40
0.380699405544067
40
0.419598563931714
40
0.458497722319362
40
0.497396880707009
40
0.536296039094657
40
0.575195197482305
40
0.614094355869952
40
0.6529935142576
40
0.691892672645247
40
0.730791831032895
40
0.769690989420542
40
0.80859014780819
40
0.847489306195838
40
0.886388464583485
40
0.925287622971133
40
0.96418678135878
40
1
40
1
40
1
40
1
41
1
10
-1.99999999999997
20
21.8239181463886
30
0
41
1
10
-1.99999999999997
20
21.8237782817656
30
0
41
1
10
-1.99999999999997
20
21.8225936344142
30
0
41
1
10
-1.99999999999997
20
21.8189793414588
30
0
41
1
10
-1.99999999999997
20
21.8103813172626
30
0
41
1
10
-1.99999999999997
20
21.7940462079955
30
0
41
1
10
-1.99999999999997
20
21.7642160490035
30
0
41
1
10
-1.99999999999997
20
21.6949779936854
30
0
41
1
10
-1.99999999999997
20
21.5661676526815
30
0
41
1
10
-1.99999999999997
20
21.3371910810194
30
0
41
1
10
-1.99999999999997
20
21.0285622078674
30
0
41
1
10
-1.99999999999997
20
20.6365187777369
30
0
41
1
10
-1.99999999999997
20
20.1589996983693
30
0
41
1
10
-2
20
19.5958617698656
30
0
41
1
10
-2
20
18.9489598758679
30
0
41
1
10
-2
20
18.2221705966385
30
0
41
1
10
-2
20
17.4213307857328
30
0
41
1
10
-2
20
16.5541009338831
30
0
41
1
10
-2
20
15.6297568996197
30
0
41
1
10
-2
20
14.6589138549468
30
0
41
1
10
-2
20
13.6532009067709
30
0
41
1
10
-2
20
12.6248857298215
30
0
41
1
10
-2.00000000000003
20
11.5864803035381
30
0
41
1
10
-2.00000000000003
20
10.5503219390466
30
0
41
1
10
-2.00000000000003
20
9.5281693138144
30
0
41
1
10
-2.00000000000003
20
8.53080274713156
30
0
41
1
10
-2.00000000000003
20
7.56767168233321
30
0
41
1
10
-2.00000000000003
20
6.64657466016962
30
0
41
1
10
-2.00000000000003
20
5.77341249237057
30
0
41
1
10
-2.00000000000003
20
4.95199325849538
30
0
41
1
10
-2.00000000000003
20
4.20424996648165
30
0
41
1
10
-2.00000000000003
20
3.74495934699039
30
0
41
1
10
-2.00000000000003
20
3.53189014643684
30
0
0
SPLINE
5
2A5
100
AcDbEntity
8
SK1
62
256
6
ByLayer
370
-1
48
1
60
0
100
AcDbSpline
70
4
71
3
72
10
73
6
40
0
40
0
40
0
40
0
40
0.5
40
0.5
40
1
40
1
40
1
40
1
41
1
10
-5.68E-14
20
8.83269948433986
30
0
41
1
10
-0.0264146390710209
20
8.91793678956236
30
0
41
1
10
-0.0552675237190954
20
9.00209516788257
30
0
41
1
10
-0.120503516958223
20
9.16755294245164
30
0
41
1
10
-0.156682849766639
20
9.24890870610611
30
0
41
1
10
-0.200000000000074
20
9.32791957530281
30
0
0
SPLINE
5
2A6
100
AcDbEntity
8
SK1
62
256
6
ByLayer
370
-1
48
1
60
0
100
AcDbSpline
70
4
71
3
72
16
73
12
40
0
40
0
40
0
40
0
40
0.0717136989375758
40
0.0717136989375758
40
0.381142465958384
40
0.381142465958384
40
0.535856849468788
40
0.535856849468788
40
0.690571232979192
40
0.690571232979192
40
1
40
1
40
1
40
1
41
1
10
-0.762360221245075
20
21.7815726221582
30
0
41
1
10
-0.755005485737769
20
21.7811816232068
30
0
41
1
10
-0.747424649041221
20
21.7808034679821
30
0
41
1
10
-0.705775931727089
20
21.7788753546854
30
0
41
1
10
-0.665635308853837
20
21.7775938733912
30
0
41
1
10
-0.601951172882934
20
21.7770921105883
30
0
41
1
10
-0.580481865274237
20
21.7771577844509
30
0
41
1
10
-0.538387501119587
20
21.7777373965673
30
0
41
1
10
-0.518327184416393
20
21.7782386936449
30
0
41
1
10
-0.461476248786823
20
21.7801594251183
30
0
41
1
10
-0.429177408156988
20
21.7819140301106
30
0
41
1
10
-0.399999999999977
20
21.7837956106232
30
0
0
SPLINE
5
2A7
100
AcDbEntity
8
SK1
62
256
6
ByLayer
370
-1
48
1
60
0
100
AcDbSpline
70
4
71
3
72
25
73
21
40
0
40
0
40
0
40
0
40
0.0572728619902162
40
0.114946494509567
40
0.172620127028917
40
0.230293759548268
40
0.287967392067619
40
0.345641024586969
40
0.40331465710632
40
0.460988289625671
40
0.518661922145021
40
0.576335554664372
40
0.634009187183723
40
0.691682819703073
40
0.749356452222424
40
0.807030084741775
40
0.864703717261125
40
0.922377349780476
40
0.980050982299827
40
1
40
1
40
1
40
1
41
1
10
-0.200000000000017
20
21.9526914779179
30
0
41
1
10
-0.200000000000017
20
21.9121808791359
30
0
41
1
10
-0.200000000000017
20
21.8083041977204
30
0
41
1
10
-0.200000000000017
20
21.5778188274578
30
0
41
1
10
-0.200000000000017
20
21.2665704188032
30
0
41
1
10
-0.200000000000017
20
20.8713397361953
30
0
41
1
10
-0.200000000000017
20
20.3900735073468
30
0
41
1
10
-0.200000000000017
20
19.8226381480353
30
0
41
1
10
-0.200000000000017
20
19.1708987574889
30
0
41
1
10
-0.200000000000017
20
18.4387431147282
30
0
41
1
10
-0.200000000000017
20
17.6320201046461
30
0
41
1
10
-0.200000000000017
20
16.7584031545556
30
0
41
1
10
-0.200000000000017
20
15.8271819130955
30
0
41
1
10
-0.200000000000017
20
14.848986295679
30
0
41
1
10
-0.200000000000017
20
13.8354610720286
30
0
41
1
10
-0.200000000000017
20
12.798890629204
30
0
41
1
10
-0.200000000000046
20
11.7518046821903
30
0
41
1
10
-0.200000000000046
20
10.7065594557125
30
0
41
1
10
-0.200000000000046
20
9.8998642335373
30
0
41
1
10
-0.200000000000046
20
9.44441715157413
30
0
41
1
10
-0.200000000000046
20
9.32791957530432
30
0
0
SPLINE
5
2A8
100
AcDbEntity
8
SK1
62
256
6
ByLayer
370
-1
48
1
60
0
100
AcDbSpline
70
4
71
3
72
18
73
14
40
0
40
0
40
0
40
0
40
0.164461910292069
40
0.164461910292069
40
0.328923820584138
40
0.328923820584138
40
0.657847641168277
40
0.657847641168277
40
0.822309551460346
40
0.822309551460346
40
0.986771461752416
40
0.986771461752416
40
1
40
1
40
1
40
1
41
1
10
-2.20000000000005
20
-18.80579949842
30
0
41
1
10
-2.20000000000005
20
-19.129695530799
30
0
41
1
10
-2.19999991383656
20
-19.432115266424
30
0
41
1
10
-2.19999926362902
20
-19.9930629332167
30
0
41
1
10
-2.19999870008468
20
-20.2515480764309
30
0
41
1
10
-2.19999564044508
20
-20.9545919350817
30
0
41
1
10
-2.19999187964982
20
-21.3288356060147
30
0
41
1
10
-2.19997934279718
20
-21.7231461874623
30
0
41
1
10
-2.19997397516337
20
-21.8266671330472
30
0
41
1
10
-2.19995995834907
20
-21.9716817908412
30
0
41
1
10
-2.19995119755549
20
-22.0131826869451
30
0
41
1
10
-2.19993903881345
20
-22.019803502827
30
0
41
1
10
-2.19993811703813
20
-22.0200679082981
30
0
41
1
10
-2.19993717843946
20
-22.0201004848571
30
0
0
SPLINE
5
2A9
100
AcDbEntity
8
SK1
62
256
6
ByLayer
370
-1
48
1
60
0
100
AcDbSpline
70
4
71
3
72
26
73
22
40
0
40
0
40
0
40
0
40
0.0312500000000002
40
0.0312500000000002
40
0.0625000000000004
40
0.0625000000000004
40
0.0937500000000007
40
0.0937500000000007
40
0.125000000000001
40
0.125000000000001
40
0.187500000000001
40
0.187500000000001
40
0.250000000000002
40
0.250000000000002
40
0.375000000000002
40
0.375000000000002
40
0.500000000000001
40
0.500000000000001
40
0.750000000000001
40
0.750000000000001
40
1
40
1
40
1
40
1
41
1
10
-0.400000000000006
20
21.7837956106232
30
0
41
1
10
-0.393726825128965
20
21.7842001525046
30
0
41
1
10
-0.386919878064418
20
21.7848461279868
30
0
41
1
10
-0.371522667408129
20
21.7870460733648
30
0
41
1
10
-0.362927849773087
20
21.7886293082576
30
0
41
1
10
-0.345183809992505
20
21.7929309114553
30
0
41
1
10
-0.336147993566016
20
21.7956576127002
30
0
41
1
10
-0.320595693525831
20
21.8011562525066
30
0
41
1
10
-0.313856465635723
20
21.8039479004068
30
0
41
1
10
-0.296259184571198
20
21.8119227552706
30
0
41
1
10
-0.287500521712985
20
21.8168723194731
30
0
41
1
10
-0.272700764442817
20
21.8260241370079
30
0
41
1
10
-0.266664393161733
20
21.8302849791049
30
0
41
1
10
-0.250679249280296
20
21.8424921500485
30
0
41
1
10
-0.242879422992303
20
21.8498514535514
30
0
41
1
10
-0.230042561972169
20
21.8634070974587
30
0
41
1
10
-0.225044043144663
20
21.8696386364566
30
0
41
1
10
-0.212590110184209
20
21.8871551189044
30
0
41
1
10
-0.207642307811398
20
21.8972719196379
30
0
41
1
10
-0.2013021178727
20
21.915325775428
30
0
41
1
10
-0.200000000000017
20
21.9232437308696
30
0
41
1
10
-0.200000000000017
20
21.9302323563458
30
0
0
SPLINE
5
2AA
100
AcDbEntity
8
SK1
62
256
6
ByLayer
370
-1
48
1
60
0
100
AcDbSpline
70
4
71
3
72
14
73
10
40
0
40
0
40
0
40
0
40
0.088874344109091
40
0.247144108645392
40
0.405413873181692
40
0.563683637717993
40
0.721953402254293
40
0.880223166790594
40
1
40
1
40
1
40
1
41
1
10
-2.19999999999999
20
18.805799359705
30
0
41
1
10
-2.19999999999999
20
18.6699623491753
30
0
41
1
10
-2.19999999999999
20
18.2808589940163
30
0
41
1
10
-2.19999999999999
20
17.5929252949648
30
0
41
1
10
-2.19999999999999
20
16.7204318129083
30
0
41
1
10
-2.19999999999999
20
15.7904219641236
30
0
41
1
10
-2.19999999999999
20
14.8135246379527
30
0
41
1
10
-2.19999999999999
20
13.8834381562974
30
0
41
1
10
-2.19999999999999
20
13.2789215159481
30
0
41
1
10
-2.19999999999999
20
13.0172213664454
30
0
0
SPLINE
5
2AB
100
AcDbEntity
8
SK1
62
256
6
ByLayer
370
-1
48
1
60
0
100
AcDbSpline
70
4
71
3
72
28
73
24
40
0
40
0
40
0
40
0
40
0.0073506936623785
40
0.0601992338133586
40
0.113047773964339
40
0.165896314115319
40
0.218744854266299
40
0.271593394417279
40
0.324441934568259
40
0.377290474719239
40
0.430139014870219
40
0.482987555021199
40
0.535836095172179
40
0.58868463532316
40
0.64153317547414
40
0.69438171562512
40
0.7472302557761
40
0.80007879592708
40
0.85292733607806
40
0.90577587622904
40
0.95862441638002
40
0.98504868645551
40
1
40
1
40
1
40
1
41
1
10
-0.400000000000034
20
-8.40050069661757
30
0
41
1
10
-0.400000000000034
20
-8.44572397118418
30
0
41
1
10
-0.400000000000034
20
-8.81701709973368
30
0
41
1
10
-0.400000000000034
20
-9.52816888083231
30
0
41
1
10
-0.400000000000034
20
-10.5503221797328
30
0
41
1
10
-0.400000000000034
20
-11.5864797887658
30
0
41
1
10
-0.400000000000063
20
-12.6248859949608
30
0
41
1
10
-0.400000000000063
20
-13.6532003777634
30
0
41
1
10
-0.400000000000063
20
-14.6589141102144
30
0
41
1
10
-0.400000000000063
20
-15.6297564245795
30
0
41
1
10
-0.400000000000063
20
-16.5541011472568
30
0
41
1
10
-0.400000000000063
20
-17.4213304234775
30
0
41
1
10
-0.400000000000063
20
-18.2221707430851
30
0
41
1
10
-0.400000000000063
20
-18.9489596670075
30
0
41
1
10
-0.400000000000063
20
-19.5958618349948
30
0
41
1
10
-0.400000000000063
20
-20.1589996510313
30
0
41
1
10
-0.400000000000063
20
-20.6365184914532
30
0
41
1
10
-0.400000000000063
20
-21.0285634421464
30
0
41
1
10
-0.400000000000063
20
-21.337187169909
30
0
41
1
10
-0.400000000000063
20
-21.5661689793568
30
0
41
1
10
-0.400000000000063
20
-21.694977581428
30
0
41
1
10
-0.400000000000063
20
-21.7567005396733
30
0
41
1
10
-0.400000000000063
20
-21.7772122547681
30
0
41
1
10
-0.400000000000063
20
-21.7837959067598
30
0
0
SPLINE
5
2AC
100
AcDbEntity
8
SK1
62
256
6
ByLayer
370
-1
48
1
60
0
100
AcDbSpline
70
4
71
3
72
59
73
55
40
0
40
0
40
0
40
0
40
0.0032825075471214
40
0.0090187600396981
40
0.0148173277904557
40
0.0206803761742916
40
0.0266099999255779
40
0.0326082240295924
40
0.0386770048018465
40
0.0448182311297818
40
0.0510337258526267
40
0.0728344691306801
40
0.0948683806273045
40
0.117209434435443
40
0.139928604660756
40
0.163093390160453
40
0.200662621212889
40
0.237908379524739
40
0.275111863047725
40
0.304434864688519
40
0.332798703649669
40
0.360361851846633
40
0.387296917448324
40
0.403635522141651
40
0.419213332987823
40
0.434082452484764
40
0.448302775086252
40
0.461942744719189
40
0.475079879289002
40
0.487800892387188
40
0.500201230294035
40
0.525185308624606
40
0.55181856275881
40
0.58071111276243
40
0.612342613356486
40
0.627621007438531
40
0.643077984020672
40
0.65874648499365
40
0.674658138545821
40
0.690843147447061
40
0.707330212250926
40
0.724146487013942
40
0.752011402636775
40
0.779849716176881
40
0.807779722946161
40
0.835918561848858
40
0.864709024159811
40
0.892851200229899
40
0.920478909009638
40
0.947733548531256
40
0.965515247145829
40
0.982622323499393
40
0.999102444721855
40
1
40
1
40
1
40
1
41
1
10
-38
20
-20.2401497219253
30
0
41
1
10
-38
20
-20.2399763432627
30
0
41
1
10
-38
20
-20.2382552566058
30
0
41
1
10
-38
20
-20.2299101333514
30
0
41
1
10
-38
20
-20.2120908676544
30
0
41
1
10
-38
20
-20.1861457443342
30
0
41
1
10
-38
20
-20.1520753502644
30
0
41
1
10
-38
20
-20.1098786348532
30
0
41
1
10
-38
20
-20.0595607012881
30
0
41
1
10
-38
20
-20.0011032096712
30
0
41
1
10
-38
20
-19.8792486892016
30
0
41
1
10
-38
20
-19.6560149747605
30
0
41
1
10
-38
20
-19.2711243760813
30
0
41
1
10
-38
20
-18.7936710623444
30
0
41
1
10
-38
20
-18.223548856156
30
0
41
1
10
-38
20
-17.4288759196868
30
0
41
1
10
-38
20
-16.3544924132952
30
0
41
1
10
-38
20
-14.9276445318439
30
0
41
1
10
-38
20
-13.4296501474763
30
0
41
1
10
-38
20
-11.9288756258108
30
0
41
1
10
-38
20
-10.4759268368282
30
0
41
1
10
-38
20
-8.96323644819535
30
0
41
1
10
-38
20
-7.58726637310823
30
0
41
1
10
-38
20
-6.39449029412319
30
0
41
1
10
-38
20
-5.41659594783596
30
0
41
1
10
-38
20
-4.4547870297263
30
0
41
1
10
-38
20
-3.5090765736185
30
0
41
1
10
-38
20
-2.57939132255686
30
0
41
1
10
-38
20
-1.66572746441938
30
0
41
1
10
-38
20
-0.768056548049486
30
0
41
1
10
-38
20
0.415831457948514
30
0
41
1
10
-38
20
1.9272295144481
30
0
41
1
10
-38
20
3.76642172397726
30
0
41
1
10
-38
20
5.65944965610282
30
0
41
1
10
-38
20
7.21053645631747
30
0
41
1
10
-38
20
8.4294251924504
30
0
41
1
10
-38
20
9.30633459126378
30
0
41
1
10
-38
20
10.1639471319464
30
0
41
1
10
-38
20
11.0021898492274
30
0
41
1
10
-38
20
11.8210991219975
30
0
41
1
10
-38
20
12.6206224179574
30
0
41
1
10
-38
20
13.5663001829272
30
0
41
1
10
-38
20
14.6201752586453
30
0
41
1
10
-38
20
15.7307919285947
30
0
41
1
10
-38
20
16.7360193481202
30
0
41
1
10
-38
20
17.6388814361707
30
0
41
1
10
-38
20
18.4289537488606
30
0
41
1
10
-38
20
19.0886370818297
30
0
41
1
10
-38
20
19.6045510408328
30
0
41
1
10
-38
20
19.9336739677254
30
0
41
1
10
-38
20
20.1275636137557
30
0
41
1
10
-38
20
20.2271964574402
30
0
41
1
10
-38
20
20.2494474607826
30
0
41
1
10
-38
20
20.2476818784056
30
0
41
1
10
-38
20
20.2475558577599
30
0
0
SPLINE
5
2AD
100
AcDbEntity
8
SK1
62
256
6
ByLayer
370
-1
48
1
60
0
100
AcDbSpline
70
4
71
3
72
20
73
16
40
0
40
0
40
0
40
0
40
0.0625
40
0.0625
40
0.125
40
0.125
40
0.25
40
0.25
40
0.5
40
0.5
40
0.625
40
0.625
40
0.75
40
0.75
40
1
40
1
40
1
40
1
41
1
10
-2.19996216443258
20
-3.54983930763265
30
0
41
1
10
-2.22044840143087
20
-3.40695670462844
30
0
41
1
10
-2.24021230184059
20
-3.26305777471006
30
0
41
1
10
-2.27803379469174
20
-2.97304584798116
30
0
41
1
10
-2.2961290249122
20
-2.82664512825193
30
0
41
1
10
-2.34720400178199
20
-2.38608927555839
30
0
41
1
10
-2.37689006379998
20
-2.09134140232243
30
0
41
1
10
-2.45003363011682
20
-1.20362048849591
30
0
41
1
10
-2.4771922892763
20
-0.607128851196308
30
0
41
1
10
-2.47741959906745
20
0.295725665164952
30
0
41
1
10
-2.47084183993451
20
0.598295142845728
30
0
41
1
10
-2.44464665854522
20
1.20498874144644
30
0
41
1
10
-2.42528670432401
20
1.50489082545869
30
0
41
1
10
-2.35167309829586
20
2.39552637501163
30
0
41
1
10
-2.28205772926171
20
2.97726686878858
30
0
41
1
10
-2.19996216441007
20
3.54984866401654
30
0
0
SPLINE
5
2AE
100
AcDbEntity
8
SK1
62
256
6
ByLayer
370
-1
48
1
60
0
100
AcDbSpline
70
4
71
3
72
14
73
10
40
0
40
0
40
0
40
0
40
0.119777021792309
40
0.278046745112675
40
0.436316468433041
40
0.594586191753408
40
0.752855915073774
40
0.91112563839414
40
1
40
1
40
1
40
1
41
1
10
-2.20000000000005
20
-13.0172198859358
30
0
41
1
10
-2.20000000000005
20
-13.2789204459097
30
0
41
1
10
-2.20000000000005
20
-13.8834372227989
30
0
41
1
10
-2.20000000000005
20
-14.8135248894266
30
0
41
1
10
-2.20000000000005
20
-15.7904214898648
30
0
41
1
10
-2.20000000000005
20
-16.7204320226197
30
0
41
1
10
-2.20000000000005
20
-17.5929249336309
30
0
41
1
10
-2.20000000000005
20
-18.2808591322615
30
0
41
1
10
-2.20000000000005
20
-18.6699624614618
30
0
41
1
10
-2.20000000000005
20
-18.8057994984197
30
0
0
SPLINE
5
2AF
100
AcDbEntity
8
SK1
62
256
6
ByLayer
370
-1
48
1
60
0
100
AcDbSpline
70
4
71
3
72
16
73
12
40
0
40
0
40
0
40
0
40
0.125
40
0.125
40
0.25
40
0.25
40
0.5
40
0.5
40
0.75
40
0.75
40
1
40
1
40
1
40
1
41
1
10
-2.19996216443241
20
-3.54983930763259
30
0
41
1
10
-2.19996657738898
20
-4.0041634529737
30
0
41
1
10
-2.19997072345427
20
-4.45236980864419
30
0
41
1
10
-2.19997797636591
20
-5.33337228979659
30
0
41
1
10
-2.199981116614
20
-5.76662570138805
30
0
41
1
10
-2.19998914270215
20
-7.04409517492738
30
0
41
1
10
-2.19999263070733
20
-7.86507069861446
30
0
41
1
10
-2.19999730472935
20
-9.44492451930088
30
0
41
1
10
-2.19999850693478
20
-10.2038896103293
30
0
41
1
10
-2.1999998554673
20
-11.6586646600846
30
0
41
1
10
-2.20000000000005
20
-12.3549228627444
30
0
41
1
10
-2.20000000000005
20
-13.0172198859358
30
0
0
SPLINE
5
2B0
100
AcDbEntity
8
SK1
62
256
6
ByLayer
370
-1
48
1
60
0
100
AcDbSpline
70
4
71
3
72
14
73
10
40
0
40
0
40
0
40
0
40
0.302630832382698
40
0.302630832382698
40
0.605261664765396
40
0.605261664765396
40
0.907892497148094
40
0.907892497148094
40
1
40
1
40
1
40
1
41
1
10
-0.400000000000063
20
-21.7837959067596
30
0
41
1
10
-0.428739004362569
20
-21.7819425736026
30
0
41
1
10
-0.461067567971895
20
-21.7801923235313
30
0
41
1
10
-0.534613989228689
20
-21.7776705856303
30
0
41
1
10
-0.577128553951525
20
-21.7769532337827
30
0
41
1
10
-0.661696672730614
20
-21.7775113857289
30
0
41
1
10
-0.700981824132185
20
-21.7787056154951
30
0
41
1
10
-0.745420734306691
20
-21.7806993640143
30
0
41
1
10
-0.755381314432157
20
-21.7811950966483
30
0
41
1
10
-0.764967752398206
20
-21.7817130498752
30
0
0
SPLINE
5
2B1
100
AcDbEntity
8
SK1
62
256
6
ByLayer
370
-1
48
1
60
0
100
AcDbSpline
70
4
71
3
72
24
73
20
40
0
40
0
40
0
40
0
40
0.249999999999997
40
0.249999999999997
40
0.499999999999993
40
0.499999999999993
40
0.624999999999994
40
0.624999999999994
40
0.749999999999995
40
0.749999999999995
40
0.812499999999997
40
0.812499999999997
40
0.874999999999998
40
0.874999999999998
40
0.906249999999999
40
0.906249999999999
40
0.9375
40
0.9375
40
1
40
1
40
1
40
1
41
1
10
-1.30710678118655
20
-7.17535139798747
30
0
41
1
10
-1.27617588994406
20
-7.31720043960848
30
0
41
1
10
-1.24142312050833
20
-7.45734864385662
30
0
41
1
10
-1.15999449780492
20
-7.73353361022413
30
0
41
1
10
-1.11351355932425
20
-7.86997262917799
30
0
41
1
10
-1.02750161115861
20
-8.06669315250051
30
0
41
1
10
-0.996080267656083
20
-8.13102746432639
30
0
41
1
10
-0.92332189711766
20
-8.25563070225374
30
0
41
1
10
-0.882760849905537
20
-8.31620179404553
30
0
41
1
10
-0.802761448590132
20
-8.39969060652675
30
0
41
1
10
-0.773706094075806
20
-8.42525023682245
30
0
41
1
10
-0.706107002205954
20
-8.46748720011121
30
0
41
1
10
-0.665982045795289
20
-8.48422176743338
30
0
41
1
10
-0.602185853475106
20
-8.4908350935851
30
0
41
1
10
-0.580712722065158
20
-8.49000840689459
30
0
41
1
10
-0.538535331278723
20
-8.48247637358227
30
0
41
1
10
-0.51845902181384
20
-8.47593635992655
30
0
41
1
10
-0.461513810263256
20
-8.45050288359352
30
0
41
1
10
-0.429198533608172
20
-8.42687608438288
30
0
41
1
10
-0.400000000000034
20
-8.40050069661706
30
0
0
SPLINE
5
2B2
100
AcDbEntity
8
SK1
62
256
6
ByLayer
370
-1
48
1
60
0
100
AcDbSpline
70
4
71
3
72
24
73
20
40
0
40
0
40
0
40
0
40
0.250000000000002
40
0.250000000000002
40
0.500000000000004
40
0.500000000000004
40
0.625000000000006
40
0.625000000000006
40
0.750000000000008
40
0.750000000000008
40
0.812500000000006
40
0.812500000000006
40
0.875000000000004
40
0.875000000000004
40
0.906250000000003
40
0.906250000000003
40
0.937500000000002
40
0.937500000000002
40
1
40
1
40
1
40
1
41
1
10
-0.200000000000046
20
9.10270310524561
30
0
41
1
10
-0.200000000000046
20
9.03673878662997
30
0
41
1
10
-0.201300944691838
20
8.97046489993156
30
0
41
1
10
-0.207662526785072
20
8.83717267131385
30
0
41
1
10
-0.212640606030789
20
8.77006095372838
30
0
41
1
10
-0.225219355684857
20
8.66897966689072
30
0
41
1
10
-0.230267342932166
20
8.63526504879584
30
0
41
1
10
-0.243209081854843
20
8.56784399996246
30
0
41
1
10
-0.251006862876324
20
8.53408819622629
30
0
41
1
10
-0.267081479681565
20
8.48424829339399
30
0
41
1
10
-0.273198880997029
20
8.46771587246204
30
0
41
1
10
-0.288041640105178
20
8.43574737526453
30
0
41
1
10
-0.296816000011461
20
8.41986795455844
30
0
41
1
10
-0.314334579263687
20
8.399352283062
30
0
41
1
10
-0.321047059761554
20
8.39297862418414
30
0
41
1
10
-0.33657848916846
20
8.38338430370857
30
0
41
1
10
-0.345411194560001
20
8.38038004294393
30
0
41
1
10
-0.37219327614207
20
8.37968037405625
30
0
41
1
10
-0.387527453193997
20
8.38923416170081
30
0
41
1
10
-0.399999999985937
20
8.40050075606717
30
0
0
LINE
5
45
100
AcDbEntity
8
80
62
256
6
ByLayer
370
-1
48
1
60
0
100
AcDbLine
10
0
20
0
30
0
11
-7
21
0
31
0
39
0
210
0
220
0
230
1
0
LINE
5
46
100
AcDbEntity
8
81
62
256
6
ByLayer
370
-1
48
1
60
0
100
AcDbLine
10
164
20
0
30
0
11
171
21
0
31
0
39
0
210
0
220
0
230
1
0
LINE
5
47
100
AcDbEntity
8
1
62
256
6
ByLayer
370
-1
48
1
60
0
100
AcDbLine
10
21.4
20
-31.5
30
0
11
21.7
21
-31.2
31
0
39
0
210
0
220
0
230
1
0
LINE
5
49
100
AcDbEntity
8
1
62
256
6
ByLayer
370
-1
48
1
60
0
100
AcDbLine
10
21.7
20
31.2
30
0
11
21.4
21
31.5
31
0
39
0
210
0
220
0
230
1
0
LINE
5
4A
100
AcDbEntity
8
1
62
256
6
ByLayer
370
-1
48
1
60
0
100
AcDbLine
10
21.4
20
31.5
30
0
11
0.3
21
31.5
31
0
39
0
210
0
220
0
230
1
0
LINE
5
4B
100
AcDbEntity
8
1
62
256
6
ByLayer
370
-1
48
1
60
0
100
AcDbLine
10
0.3
20
-31.5
30
0
11
21.4
21
-31.5
31
0
39
0
210
0
220
0
230
1
0
LINE
5
4C
100
AcDbEntity
8
1
62
256
6
ByLayer
370
-1
48
1
60
0
100
AcDbLine
10
0.3
20
31.5
30
0
11
0
21
31.2
31
0
39
0
210
0
220
0
230
1
0
LINE
5
4D
100
AcDbEntity
8
1
62
256
6
ByLayer
370
-1
48
1
60
0
100
AcDbLine
10
0
20
-31.2
30
0
11
0.3
21
-31.5
31
0
39
0
210
0
220
0
230
1
0
LINE
5
4E
100
AcDbEntity
8
1
62
256
6
ByLayer
370
-1
48
1
60
0
100
AcDbLine
10
22.1
20
24.75
30
0
11
22
21
24.65
31
0
39
0
210
0
220
0
230
1
0
LINE
5
4F
100
AcDbEntity
8
1
62
256
6
ByLayer
370
-1
48
1
60
0
100
AcDbLine
10
22
20
-24.65
30
0
11
22.1
21
-24.75
31
0
39
0
210
0
220
0
230
1
0
LINE
5
50
100
AcDbEntity
8
1
62
256
6
ByLayer
370
-1
48
1
60
0
100
AcDbLine
10
26.9
20
24.75
30
0
11
22.1
21
24.75
31
0
39
0
210
0
220
0
230
1
0
LINE
5
51
100
AcDbEntity
8
1
62
256
6
ByLayer
370
-1
48
1
60
0
100
AcDbLine
10
22.1
20
-24.75
30
0
11
26.9
21
-24.75
31
0
39
0
210
0
220
0
230
1
0
LINE
5
52
100
AcDbEntity
8
1
62
256
6
ByLayer
370
-1
48
1
60
0
100
AcDbLine
10
26.9
20
-24.75
30
0
11
27.025882
21
-24.653407
31
0
39
0
210
0
220
0
230
1
0
LINE
5
53
100
AcDbEntity
8
1
62
256
6
ByLayer
370
-1
48
1
60
0
100
AcDbLine
10
27.025882
20
24.653407
30
0
11
26.9
21
24.75
31
0
39
0
210
0
220
0
230
1
0
LINE
5
54
100
AcDbEntity
8
1
62
256
6
ByLayer
370
-1
48
1
60
0
100
AcDbLine
10
22
20
24.75
30
0
11
21.7
21
24.75
31
0
39
0
210
0
220
0
230
1
0
LINE
5
55
100
AcDbEntity
8
1
62
256
6
ByLayer
370
-1
48
1
60
0
100
AcDbLine
10
21.7
20
-24.75
30
0
11
22
21
-24.75
31
0
39
0
210
0
220
0
230
1
0
LINE
5
56
100
AcDbEntity
8
1
62
256
6
ByLayer
370
-1
48
1
60
0
100
AcDbLine
10
27.025882
20
-24.653407
30
0
11
27.243045
21
-23.842945
31
0
39
0
210
0
220
0
230
1
0
LINE
5
57
100
AcDbEntity
8
1
62
256
6
ByLayer
370
-1
48
1
60
0
100
AcDbLine
10
27.243045
20
23.842945
30
0
11
27.025882
21
24.653407
31
0
39
0
210
0
220
0
230
1
0
LINE
5
58
100
AcDbEntity
8
1
62
256
6
ByLayer
370
-1
48
1
60
0
100
AcDbLine
10
28.015785
20
-23.25
30
0
11
28.5
21
-23.25
31
0
39
0
210
0
220
0
230
1
0
LINE
5
59
100
AcDbEntity
8
1
62
256
6
ByLayer
370
-1
48
1
60
0
100
AcDbLine
10
28.5
20
23.25
30
0
11
28.015785
21
23.25
31
0
39
0
210
0
220
0
230
1
0
LINE
5
5A
100
AcDbEntity
8
1
62
256
6
ByLayer
370
-1
48
1
60
0
100
AcDbLine
10
86.700837
20
17.9
30
0
11
49
21
17.9
31
0
39
0
210
0
220
0
230
1
0
LINE
5
5B
100
AcDbEntity
8
1
62
256
6
ByLayer
370
-1
48
1
60
0
100
AcDbLine
10
49
20
-17.9
30
0
11
87.140868
21
-17.9
31
0
39
0
210
0
220
0
230
1
0
LINE
5
5C
100
AcDbEntity
8
SK4
62
256
6
ByLayer
370
-1
48
0.05
60
0
100
AcDbLine
10
164
20
0
30
0
11
-38
21
0
31
0
39
0
210
0
220
0
230
1
0
LINE
5
5E
100
AcDbEntity
8
4
62
256
6
ByLayer
370
-1
48
0.05
60
0
100
AcDbLine
10
164
20
0
30
0
11
0
21
0
31
0
39
0
210
0
220
0
230
1
0
LINE
5
60
100
AcDbEntity
8
1
62
256
6
ByLayer
370
-1
48
1
60
0
100
AcDbLine
10
150.693337
20
11.65089
30
0
11
150.494132
21
17.898123
31
0
39
0
210
0
220
0
230
1
0
LINE
5
61
100
AcDbEntity
8
1
62
256
6
ByLayer
370
-1
48
1
60
0
100
AcDbLine
10
49
20
17.9
30
0
11
49
21
10.651018
31
0
39
0
210
0
220
0
230
1
0
LINE
5
62
100
AcDbEntity
8
1
62
256
6
ByLayer
370
-1
48
1
60
0
100
AcDbLine
10
10.105662
20
-29.913955
30
0
11
10.105662
21
-9.869413
31
0
39
0
210
0
220
0
230
1
0
LINE
5
63
100
AcDbEntity
8
1
62
256
6
ByLayer
370
-1
48
1
60
0
100
AcDbLine
10
151.218657
20
5.31826
30
0
11
150.494385
21
5.292871
31
0
39
0
210
0
220
0
230
1
0
LINE
5
64
100
AcDbEntity
8
1
62
256
6
ByLayer
370
-1
48
1
60
0
100
AcDbLine
10
162.060728
20
2.10823
30
0
11
162.154547
21
2.058482
31
0
39
0
210
0
220
0
230
1
0
LINE
5
65
100
AcDbEntity
8
1
62
256
6
ByLayer
370
-1
48
1
60
0
100
AcDbLine
10
10.538675
20
9.349221
30
0
11
10.538675
21
30.080593
31
0
39
0
210
0
220
0
230
1
0
LINE
5
66
100
AcDbEntity
8
1
62
256
6
ByLayer
370
-1
48
1
60
0
100
AcDbLine
10
150.604684
20
10.337539
30
0
11
150.721153
21
6.98958
31
0
39
0
210
0
220
0
230
1
0
LINE
5
67
100
AcDbEntity
8
1
62
256
6
ByLayer
370
-1
48
1
60
0
100
AcDbLine
10
27.025882
20
24.653407
30
0
11
27.025882
21
-24.653407
31
0
39
0
210
0
220
0
230
1
0
LINE
5
68
100
AcDbEntity
8
1
62
256
6
ByLayer
370
-1
48
1
60
0
100
AcDbLine
10
150.290923
20
10.337539
30
0
11
150.604684
21
10.337539
31
0
39
0
210
0
220
0
230
1
0
LINE
5
69
100
AcDbEntity
8
1
62
256
6
ByLayer
370
-1
48
1
60
0
100
AcDbLine
10
21.4
20
31.5
30
0
11
21.4
21
-31.5
31
0
39
0
210
0
220
0
230
1
0
LINE
5
6A
100
AcDbEntity
8
1
62
256
6
ByLayer
370
-1
48
1
60
0
100
AcDbLine
10
28.5
20
5.920055
30
0
11
28.5
21
-23.25
31
0
39
0
210
0
220
0
230
1
0
LINE
5
6B
100
AcDbEntity
8
1
62
256
6
ByLayer
370
-1
48
1
60
0
100
AcDbLine
10
162.149263
20
2.044096
30
0
11
162.154547
21
2.058482
31
0
39
0
210
0
220
0
230
1
0
LINE
5
6C
100
AcDbEntity
8
1
62
256
6
ByLayer
370
-1
48
1
60
0
100
AcDbLine
10
13.461325
20
-30.080593
30
0
11
13.461325
21
-9.349221
31
0
39
0
210
0
220
0
230
1
0
LINE
5
6D
100
AcDbEntity
8
1
62
256
6
ByLayer
370
-1
48
1
60
0
100
AcDbLine
10
162.544762
20
-8.831804
30
0
11
162.00565
21
-8.591591
31
0
39
0
210
0
220
0
230
1
0
LINE
5
6E
100
AcDbEntity
8
1
62
256
6
ByLayer
370
-1
48
1
60
0
100
AcDbLine
10
160.349923
20
1.43612
30
0
11
160.469812
21
1.749335
31
0
39
0
210
0
220
0
230
1
0
LINE
5
6F
100
AcDbEntity
8
1
62
256
6
ByLayer
370
-1
48
1
60
0
100
AcDbLine
10
13.461325
20
9.349221
30
0
11
10.538675
21
9.349221
31
0
39
0
210
0
220
0
230
1
0
LINE
5
70
100
AcDbEntity
8
1
62
256
6
ByLayer
370
-1
48
1
60
0
100
AcDbLine
10
10.105662
20
9.869413
30
0
11
10.105662
21
29.913955
31
0
39
0
210
0
220
0
230
1
0
LINE
5
71
100
AcDbEntity
8
1
62
256
6
ByLayer
370
-1
48
1
60
0
100
AcDbLine
10
162.544762
20
-8.831804
30
0
11
162.517579
21
-9.13828
31
0
39
0
210
0
220
0
230
1
0
LINE
5
72
100
AcDbEntity
8
1
62
256
6
ByLayer
370
-1
48
1
60
0
100
AcDbLine
10
21.7
20
31.2
30
0
11
21.7
21
-31.2
31
0
39
0
210
0
220
0
230
1
0
LINE
5
73
100
AcDbEntity
8
1
62
256
6
ByLayer
370
-1
48
1
60
0
100
AcDbLine
10
160.469812
20
1.749335
30
0
11
161.939114
21
5.646751
31
0
39
0
210
0
220
0
230
1
0
LINE
5
74
100
AcDbEntity
8
1
62
256
6
ByLayer
370
-1
48
1
60
0
100
AcDbLine
10
0.3
20
-31.5
30
0
11
0.3
21
31.5
31
0
39
0
210
0
220
0
230
1
0
LINE
5
75
100
AcDbEntity
8
1
62
256
6
ByLayer
370
-1
48
1
60
0
100
AcDbLine
10
13.461325
20
9.349221
30
0
11
13.461325
21
30.080593
31
0
39
0
210
0
220
0
230
1
0
LINE
5
76
100
AcDbEntity
8
1
62
256
6
ByLayer
370
-1
48
1
60
0
100
AcDbLine
10
162.021763
20
2.04854
30
0
11
162.149263
21
2.044096
31
0
39
0
210
0
220
0
230
1
0
LINE
5
77
100
AcDbEntity
8
1
62
256
6
ByLayer
370
-1
48
1
60
0
100
AcDbLine
10
161.578635
20
-8.401324
30
0
11
161.158853
21
-8.214281
31
0
39
0
210
0
220
0
230
1
0
LINE
5
78
100
AcDbEntity
8
1
62
256
6
ByLayer
370
-1
48
1
60
0
100
AcDbLine
10
143.990488
20
7.286328
30
0
11
142.471278
21
7.933658
31
0
39
0
210
0
220
0
230
1
0
LINE
5
79
100
AcDbEntity
8
1
62
256
6
ByLayer
370
-1
48
1
60
0
100
AcDbLine
10
150.641819
20
6.094495
30
0
11
150.435455
21
6.087261
31
0
39
0
210
0
220
0
230
1
0
LINE
5
7A
100
AcDbEntity
8
1
62
256
6
ByLayer
370
-1
48
1
60
0
100
AcDbLine
10
10.538675
20
-9.349221
30
0
11
13.461325
21
-9.349221
31
0
39
0
210
0
220
0
230
1
0
LINE
5
7B
100
AcDbEntity
8
1
62
256
6
ByLayer
370
-1
48
1
60
0
100
AcDbLine
10
147.124235
20
11.45
30
0
11
148.300385
21
11.45
31
0
39
0
210
0
220
0
230
1
0
LINE
5
7C
100
AcDbEntity
8
1
62
256
6
ByLayer
370
-1
48
1
60
0
100
AcDbLine
10
147.014341
20
11.350839
30
0
11
128.443798
21
13.838961
31
0
39
0
210
0
220
0
230
1
0
LINE
5
7D
100
AcDbEntity
8
1
62
256
6
ByLayer
370
-1
48
1
60
0
100
AcDbLine
10
150.407392
20
6.98958
30
0
11
150.721153
21
6.98958
31
0
39
0
210
0
220
0
230
1
0
LINE
5
7E
100
AcDbEntity
8
1
62
256
6
ByLayer
370
-1
48
1
60
0
100
AcDbLine
10
149.759856
20
-17.883722
30
0
11
162.302718
21
-17.883722
31
0
39
0
210
0
220
0
230
1
0
LINE
5
7F
100
AcDbEntity
8
1
62
256
6
ByLayer
370
-1
48
1
60
0
100
AcDbLine
10
22
20
24.75
30
0
11
22
21
-24.75
31
0
39
0
210
0
220
0
230
1
0
LINE
5
80
100
AcDbEntity
8
1
62
256
6
ByLayer
370
-1
48
1
60
0
100
AcDbLine
10
162.154547
20
2.058482
30
0
11
162.405635
21
5.880217
31
0
39
0
210
0
220
0
230
1
0
LINE
5
81
100
AcDbEntity
8
1
62
256
6
ByLayer
370
-1
48
1
60
0
100
AcDbLine
10
28.015785
20
7.326379
30
0
11
28.015785
21
-23.25
31
0
39
0
210
0
220
0
230
1
0
LINE
5
82
100
AcDbEntity
8
1
62
256
6
ByLayer
370
-1
48
1
60
0
100
AcDbLine
10
162.049032
20
2.108638
30
0
11
162.060728
21
2.10823
31
0
39
0
210
0
220
0
230
1
0
LINE
5
83
100
AcDbEntity
8
1
62
256
6
ByLayer
370
-1
48
1
60
0
100
AcDbLine
10
150.693337
20
11.65089
30
0
11
150.708632
21
11.65089
31
0
39
0
210
0
220
0
230
1
0
LINE
5
84
100
AcDbEntity
8
1
62
256
6
ByLayer
370
-1
48
1
60
0
100
AcDbLine
10
150.914007
20
11.847486
30
0
11
150.943358
21
11.847486
31
0
39
0
210
0
220
0
230
1
0
LINE
5
85
100
AcDbEntity
8
1
62
256
6
ByLayer
370
-1
48
1
60
0
100
AcDbLine
10
10.538675
20
30.080593
30
0
11
13.461325
21
30.080593
31
0
39
0
210
0
220
0
230
1
0
LINE
5
86
100
AcDbEntity
8
1
62
256
6
ByLayer
370
-1
48
1
60
0
100
AcDbLine
10
149.181366
20
0.775812
30
0
11
150.494385
21
5.292871
31
0
39
0
210
0
220
0
230
1
0
LINE
5
87
100
AcDbEntity
8
1
62
256
6
ByLayer
370
-1
48
1
60
0
100
AcDbLine
10
49
20
-17.9
30
0
11
49
21
-11.622148
31
0
39
0
210
0
220
0
230
1
0
LINE
5
88
100
AcDbEntity
8
1
62
256
6
ByLayer
370
-1
48
1
60
0
100
AcDbLine
10
162.540587
20
-10.028515
30
0
11
162.994587
21
-10.083355
31
0
39
0
210
0
220
0
230
1
0
LINE
5
89
100
AcDbEntity
8
1
62
256
6
ByLayer
370
-1
48
1
60
0
100
AcDbLine
10
150.290923
20
10.337539
30
0
11
150.407392
21
6.98958
31
0
39
0
210
0
220
0
230
1
0
LINE
5
8A
100
AcDbEntity
8
1
62
256
6
ByLayer
370
-1
48
1
60
0
100
AcDbLine
10
143.3114
20
6.676887
30
0
11
143.609368
21
6.549924
31
0
39
0
210
0
220
0
230
1
0
LINE
5
8B
100
AcDbEntity
8
1
62
256
6
ByLayer
370
-1
48
1
60
0
100
AcDbLine
10
13.894338
20
9.869413
30
0
11
13.894338
21
29.913955
31
0
39
0
210
0
220
0
230
1
0
LINE
5
8C
100
AcDbEntity
8
1
62
256
6
ByLayer
370
-1
48
1
60
0
100
AcDbLine
10
22.1
20
24.75
30
0
11
22.1
21
-24.75
31
0
39
0
210
0
220
0
230
1
0
LINE
5
8D
100
AcDbEntity
8
1
62
256
6
ByLayer
370
-1
48
1
60
0
100
AcDbLine
10
28.015785
20
23.25
30
0
11
28.015785
21
11.793313
31
0
39
0
210
0
220
0
230
1
0
LINE
5
8E
100
AcDbEntity
8
1
62
256
6
ByLayer
370
-1
48
1
60
0
100
AcDbLine
10
147.124235
20
17.881342
30
0
11
147.124235
21
11.45
31
0
39
0
210
0
220
0
230
1
0
LINE
5
8F
100
AcDbEntity
8
1
62
256
6
ByLayer
370
-1
48
1
60
0
100
AcDbLine
10
162.025589
20
1.056123
30
0
11
160.469812
21
1.749335
31
0
39
0
210
0
220
0
230
1
0
LINE
5
90
100
AcDbEntity
8
1
62
256
6
ByLayer
370
-1
48
1
60
0
100
AcDbLine
10
143.609368
20
6.549924
30
0
11
143.600249
21
6.549924
31
0
39
0
210
0
220
0
230
1
0
LINE
5
91
100
AcDbEntity
8
1
62
256
6
ByLayer
370
-1
48
1
60
0
100
AcDbLine
10
26.9
20
24.75
30
0
11
26.9
21
-24.75
31
0
39
0
210
0
220
0
230
1
0
LINE
5
92
100
AcDbEntity
8
1
62
256
6
ByLayer
370
-1
48
1
60
0
100
AcDbLine
10
161.93276
20
5.647095
30
0
11
162.078436
21
5.647095
31
0
39
0
210
0
220
0
230
1
0
LINE
5
93
100
AcDbEntity
8
1
62
256
6
ByLayer
370
-1
48
1
60
0
100
AcDbLine
10
161.939114
20
5.646751
30
0
11
161.93276
21
5.647095
31
0
39
0
210
0
220
0
230
1
0
LINE
5
94
100
AcDbEntity
8
1
62
256
6
ByLayer
370
-1
48
1
60
0
100
AcDbLine
10
162.07851
20
5.647096
30
0
11
162.137676
21
5.643983
31
0
39
0
210
0
220
0
230
1
0
LINE
5
95
100
AcDbEntity
8
1
62
256
6
ByLayer
370
-1
48
1
60
0
100
AcDbLine
10
162.008137
20
1.359908
30
0
11
162.025589
21
1.056123
31
0
39
0
210
0
220
0
230
1
0
LINE
5
96
100
AcDbEntity
8
1
62
256
6
ByLayer
370
-1
48
1
60
0
100
AcDbLine
10
13.894338
20
-29.913955
30
0
11
13.894338
21
-9.869413
31
0
39
0
210
0
220
0
230
1
0
LINE
5
97
100
AcDbEntity
8
1
62
256
6
ByLayer
370
-1
48
1
60
0
100
AcDbLine
10
148.300385
20
17.894314
30
0
11
148.300385
21
11.45
31
0
39
0
210
0
220
0
230
1
0
LINE
5
98
100
AcDbEntity
8
1
62
256
6
ByLayer
370
-1
48
1
60
0
100
AcDbLine
10
150.509536
20
17.894737
30
0
11
150.708632
21
11.65089
31
0
39
0
210
0
220
0
230
1
0
LINE
5
99
100
AcDbEntity
8
1
62
256
6
ByLayer
370
-1
48
1
60
0
100
AcDbLine
10
162.025589
20
1.056123
30
0
11
162.544762
21
-8.831804
31
0
39
0
210
0
220
0
230
1
0
LINE
5
9A
100
AcDbEntity
8
1
62
256
6
ByLayer
370
-1
48
1
60
0
100
AcDbLine
10
162.302718
20
-17.883722
30
0
11
162.994587
21
-10.083355
31
0
39
0
210
0
220
0
230
1
0
LINE
5
9B
100
AcDbEntity
8
1
62
256
6
ByLayer
370
-1
48
1
60
0
100
AcDbLine
10
153.584285
20
5.354447
30
0
11
161.93276
21
5.647095
31
0
39
0
210
0
220
0
230
1
0
LINE
5
9C
100
AcDbEntity
8
1
62
256
6
ByLayer
370
-1
48
1
60
0
100
AcDbLine
10
28.5
20
23.25
30
0
11
28.5
21
12.943828
31
0
39
0
210
0
220
0
230
1
0
LINE
5
9D
100
AcDbEntity
8
1
62
256
6
ByLayer
370
-1
48
1
60
0
100
AcDbLine
10
10.538675
20
-30.080593
30
0
11
10.538675
21
-9.349221
31
0
39
0
210
0
220
0
230
1
0
LINE
5
9E
100
AcDbEntity
8
1
62
256
6
ByLayer
370
-1
48
1
60
0
100
AcDbLine
10
162.137676
20
5.643983
30
0
11
161.939114
21
5.646751
31
0
39
0
210
0
220
0
230
1
0
LINE
5
9F
100
AcDbEntity
8
1
62
256
6
ByLayer
370
-1
48
1
60
0
100
AcDbLine
10
151.218657
20
5.31826
30
0
11
151.263945
21
5.31826
31
0
39
0
210
0
220
0
230
1
0
LINE
5
A0
100
AcDbEntity
8
1
62
256
6
ByLayer
370
-1
48
1
60
0
100
AcDbLine
10
27.243045
20
-23.842945
30
0
11
27.243045
21
23.842945
31
0
39
0
210
0
220
0
230
1
0
LINE
5
A1
100
AcDbEntity
8
1
62
256
6
ByLayer
370
-1
48
1
60
0
100
AcDbLine
10
13.461325
20
-30.080593
30
0
11
10.538675
21
-30.080593
31
0
39
0
210
0
220
0
230
1
0
LINE
5
A2
100
AcDbEntity
8
1
62
256
6
ByLayer
370
-1
48
1
60
0
100
AcDbLine
10
0
20
-31.2
30
0
11
0
21
31.2
31
0
39
0
210
0
220
0
230
1
0
LINE
5
A3
100
AcDbEntity
8
1
62
256
6
ByLayer
370
-1
48
1
60
0
100
AcDbLine
10
142.358127
20
2.956515
30
0
11
142.100046
21
2.068663
31
0
39
0
210
0
220
0
230
1
0
LINE
5
A4
100
AcDbEntity
8
1
62
256
6
ByLayer
370
-1
48
1
60
0
100
AcDbLine
10
162.421713
20
7.332446
30
0
11
162.082737
21
17.076507
31
0
39
0
210
0
220
0
230
1
0
LINE
5
A5
100
AcDbEntity
8
1
62
256
6
ByLayer
370
-1
48
1
60
0
100
AcDbLine
10
163.007613
20
7.352222
30
0
11
162.668638
21
17.096283
31
0
39
0
210
0
220
0
230
1
0
LINE
5
A6
100
AcDbEntity
8
1
62
256
6
ByLayer
370
-1
48
1
60
0
100
AcDbLine
10
153.822717
20
14.900628
30
0
11
154.33505
21
14.421045
31
0
39
0
210
0
220
0
230
1
0
LINE
5
A7
100
AcDbEntity
8
1
62
256
6
ByLayer
370
-1
48
1
60
0
100
AcDbLine
10
163.237396
20
7.360216
30
0
11
162.898421
21
17.104276
31
0
39
0
210
0
220
0
230
1
0
LINE
5
A8
100
AcDbEntity
8
1
62
256
6
ByLayer
370
-1
48
1
60
0
100
AcDbLine
10
153.600299
20
9.172623
30
0
11
154.019128
21
9.623477
31
0
39
0
210
0
220
0
230
1
0
LINE
5
A9
100
AcDbEntity
8
1
62
256
6
ByLayer
370
-1
48
1
60
0
100
AcDbLine
10
163.628474
20
7.374033
30
0
11
163.289498
21
17.118094
31
0
39
0
210
0
220
0
230
1
0
LINE
5
AA
100
AcDbEntity
8
1
62
256
6
ByLayer
370
-1
48
1
60
0
100
AcDbLine
10
152.555398
20
6.678579
30
0
11
162.262379
21
7.018849
31
0
39
0
210
0
220
0
230
1
0
LINE
5
AB
100
AcDbEntity
8
1
62
256
6
ByLayer
370
-1
48
1
60
0
100
AcDbLine
10
154.188353
20
9.013852
30
0
11
154.319496
21
8.891092
31
0
39
0
210
0
220
0
230
1
0
LINE
5
AC
100
AcDbEntity
8
1
62
256
6
ByLayer
370
-1
48
1
60
0
100
AcDbLine
10
153.00156
20
15.613765
30
0
11
153.521517
21
15.510733
31
0
39
0
210
0
220
0
230
1
0
LINE
5
AD
100
AcDbEntity
8
1
62
256
6
ByLayer
370
-1
48
1
60
0
100
AcDbLine
10
151.899538
20
16.719268
30
0
11
152.238513
21
6.975207
31
0
39
0
210
0
220
0
230
1
0
LINE
5
AE
100
AcDbEntity
8
1
62
256
6
ByLayer
370
-1
48
1
60
0
100
AcDbLine
10
161.359461
20
13.190697
30
0
11
161.262115
21
15.988991
31
0
39
0
210
0
220
0
230
1
0
LINE
5
AF
100
AcDbEntity
8
1
62
256
6
ByLayer
370
-1
48
1
60
0
100
AcDbLine
10
152.191862
20
16.879909
30
0
11
161.898844
21
17.22018
31
0
39
0
210
0
220
0
230
1
0
LINE
5
B0
100
AcDbEntity
8
1
62
256
6
ByLayer
370
-1
48
1
60
0
100
AcDbLine
10
151.251288
20
16.695996
30
0
11
151.590263
21
6.951935
31
0
39
0
210
0
220
0
230
1
0
LINE
5
B1
100
AcDbEntity
8
1
62
256
6
ByLayer
370
-1
48
1
60
0
100
AcDbLine
10
150.775264
20
16.679397
30
0
11
151.134808
21
6.344059
31
0
39
0
210
0
220
0
230
1
0
LINE
5
B2
100
AcDbEntity
8
1
62
256
6
ByLayer
370
-1
48
1
60
0
100
AcDbLine
10
151.477578
20
16.703989
30
0
11
151.816554
21
6.959929
31
0
39
0
210
0
220
0
230
1
0
LINE
5
B3
100
AcDbEntity
8
1
62
256
6
ByLayer
370
-1
48
1
60
0
100
AcDbLine
10
161.165396
20
8.096922
30
0
11
158.377751
21
7.999203
31
0
39
0
210
0
220
0
230
1
0
LINE
5
B4
100
AcDbEntity
8
1
62
256
6
ByLayer
370
-1
48
1
60
0
100
AcDbLine
10
162.053397
20
17.075506
30
0
11
162.392372
21
7.331445
31
0
39
0
210
0
220
0
230
1
0
LINE
5
B5
100
AcDbEntity
8
1
62
256
6
ByLayer
370
-1
48
1
60
0
100
AcDbLine
10
150.916899
20
16.684341
30
0
11
151.255874
21
6.94028
31
0
39
0
210
0
220
0
230
1
0
LINE
5
B6
100
AcDbEntity
8
1
62
256
6
ByLayer
370
-1
48
1
60
0
100
AcDbLine
10
152.17397
20
18.037534
30
0
11
161.880951
21
18.377804
31
0
39
0
210
0
220
0
230
1
0
LINE
5
B7
100
AcDbEntity
8
1
62
256
6
ByLayer
370
-1
48
1
60
0
100
AcDbLine
10
160.874297
20
16.352018
30
0
11
158.086651
21
16.254299
31
0
39
0
210
0
220
0
230
1
0
LINE
5
B8
100
AcDbEntity
8
1
62
256
6
ByLayer
370
-1
48
1
60
0
100
AcDbLine
10
162.248249
20
7.176302
30
0
11
152.541268
21
6.836032
31
0
39
0
210
0
220
0
230
1
0
LINE
5
B9
100
AcDbEntity
8
1
62
256
6
ByLayer
370
-1
48
1
60
0
100
AcDbLine
10
163.56797
20
7.37187
30
0
11
163.228995
21
17.115931
31
0
39
0
210
0
220
0
230
1
0
LINE
5
BA
100
AcDbEntity
8
1
62
256
6
ByLayer
370
-1
48
1
60
0
100
AcDbLine
10
153.624761
20
8.80306
30
0
11
153.952618
21
8.496161
31
0
39
0
210
0
220
0
230
1
0
LINE
5
BB
100
AcDbEntity
8
1
62
256
6
ByLayer
370
-1
48
1
60
0
100
AcDbLine
10
152.019975
20
16.723765
30
0
11
152.35895
21
6.979704
31
0
39
0
210
0
220
0
230
1
0
LINE
5
BC
100
AcDbEntity
8
1
62
256
6
ByLayer
370
-1
48
1
60
0
100
AcDbLine
10
161.875436
20
18.519388
30
0
11
151.579427
21
18.15847
31
0
39
0
210
0
220
0
230
1
0
LINE
5
BD
100
AcDbEntity
8
1
62
256
6
ByLayer
370
-1
48
1
60
0
100
AcDbLine
10
152.191653
20
16.908571
30
0
11
161.898635
21
17.248841
31
0
39
0
210
0
220
0
230
1
0
LINE
5
BE
100
AcDbEntity
8
1
62
256
6
ByLayer
370
-1
48
1
60
0
100
AcDbLine
10
152.187488
20
17.703782
30
0
11
161.894469
21
18.044052
31
0
39
0
210
0
220
0
230
1
0
LINE
5
BF
100
AcDbEntity
8
1
62
256
6
ByLayer
370
-1
48
1
60
0
100
AcDbLine
10
152.193705
20
17.474874
30
0
11
161.900686
21
17.815144
31
0
39
0
210
0
220
0
230
1
0
LINE
5
C0
100
AcDbEntity
8
1
62
256
6
ByLayer
370
-1
48
1
60
0
100
AcDbLine
10
158.378223
20
7.872888
30
0
11
161.165869
21
7.970607
31
0
39
0
210
0
220
0
230
1
0
LINE
5
C1
100
AcDbEntity
8
1
62
256
6
ByLayer
370
-1
48
1
60
0
100
AcDbLine
10
152.543053
20
6.80737
30
0
11
162.250034
21
7.14764
31
0
39
0
210
0
220
0
230
1
0
LINE
5
C2
100
AcDbEntity
8
1
62
256
6
ByLayer
370
-1
48
1
60
0
100
AcDbLine
10
153.816828
20
8.977254
30
0
11
153.804831
21
8.988483
31
0
39
0
210
0
220
0
230
1
0
LINE
5
C3
100
AcDbEntity
8
1
62
256
6
ByLayer
370
-1
48
1
60
0
100
AcDbLine
10
161.527514
20
8.359906
30
0
11
161.430168
21
11.1582
31
0
39
0
210
0
220
0
230
1
0
LINE
5
C4
100
AcDbEntity
8
1
62
256
6
ByLayer
370
-1
48
1
60
0
100
AcDbLine
10
152.584505
20
6.241067
30
0
11
162.291487
21
6.581337
31
0
39
0
210
0
220
0
230
1
0
LINE
5
C5
100
AcDbEntity
8
1
62
256
6
ByLayer
370
-1
48
1
60
0
100
AcDbLine
10
152.170618
20
18.099471
30
0
11
161.877599
21
18.439741
31
0
39
0
210
0
220
0
230
1
0
LINE
5
C6
100
AcDbEntity
8
1
62
256
6
ByLayer
370
-1
48
1
60
0
100
AcDbLine
10
163.708425
20
7.376815
30
0
11
163.348881
21
17.712153
31
0
39
0
210
0
220
0
230
1
0
LINE
5
C7
100
AcDbEntity
8
1
62
256
6
ByLayer
370
-1
48
1
60
0
100
AcDbLine
10
152.608253
20
5.536824
30
0
11
162.904262
21
5.897742
31
0
39
0
210
0
220
0
230
1
0
LINE
5
C8
100
AcDbEntity
8
1
62
256
6
ByLayer
370
-1
48
1
60
0
100
AcDbLine
10
154.14883
20
15.251678
30
0
11
154.154074
21
15.23226
31
0
39
0
210
0
220
0
230
1
0
LINE
5
C9
100
AcDbEntity
8
1
62
256
6
ByLayer
370
-1
48
1
60
0
100
AcDbLine
10
152.603918
20
5.678408
30
0
11
162.310899
21
6.018678
31
0
39
0
210
0
220
0
230
1
0
LINE
5
CA
100
AcDbEntity
8
1
62
256
6
ByLayer
370
-1
48
1
60
0
100
AcDbLine
10
152.594215
20
6.012159
30
0
11
162.301196
21
6.352429
31
0
39
0
210
0
220
0
230
1
0
LINE
5
CB
100
AcDbEntity
8
1
62
256
6
ByLayer
370
-1
48
1
60
0
100
AcDbLine
10
160.882613
20
16.225703
30
0
11
158.094967
21
16.127984
31
0
39
0
210
0
220
0
230
1
0
LINE
5
CC
100
AcDbEntity
8
1
62
256
6
ByLayer
370
-1
48
1
60
0
100
AcDbLine
10
153.382857
20
16.024218
30
0
11
153.521517
21
15.510733
31
0
39
0
210
0
220
0
230
1
0
LINE
5
CD
100
AcDbEntity
8
1
62
256
6
ByLayer
370
-1
48
1
60
0
100
AcDbLine
10
153.822717
20
14.900628
30
0
11
153.84238
21
14.896732
31
0
39
0
210
0
220
0
230
1
0
LINE
5
CE
100
AcDbEntity
8
1
62
256
6
ByLayer
370
-1
48
1
60
0
100
AcDbLine
10
161.237549
20
13.186286
30
0
11
161.140202
21
15.98458
31
0
39
0
210
0
220
0
230
1
0
LINE
5
CF
100
AcDbEntity
8
1
62
256
6
ByLayer
370
-1
48
1
60
0
100
AcDbLine
10
154.14883
20
15.251678
30
0
11
154.661163
21
14.772095
31
0
39
0
210
0
220
0
230
1
0
LINE
5
D0
100
AcDbEntity
8
1
62
256
6
ByLayer
370
-1
48
1
60
0
100
AcDbLine
10
152.766031
20
15.151411
30
0
11
153.968172
21
14.026114
31
0
39
0
210
0
220
0
230
1
0
LINE
5
D1
100
AcDbEntity
8
1
62
256
6
ByLayer
370
-1
48
1
60
0
100
AcDbLine
10
154.188353
20
9.013852
30
0
11
154.30723
21
9.141818
31
0
39
0
210
0
220
0
230
1
0
LINE
5
D2
100
AcDbEntity
8
1
62
256
6
ByLayer
370
-1
48
1
60
0
100
AcDbLine
10
153.8259
20
16.292323
30
0
11
155.028041
21
15.167026
31
0
39
0
210
0
220
0
230
1
0
LINE
5
D3
100
AcDbEntity
8
1
62
256
6
ByLayer
370
-1
48
1
60
0
100
AcDbLine
10
152.604875
20
5.616471
30
0
11
162.311856
21
5.956741
31
0
39
0
210
0
220
0
230
1
0
LINE
5
D4
100
AcDbEntity
8
1
62
256
6
ByLayer
370
-1
48
1
60
0
100
AcDbLine
10
153.600299
20
9.172623
30
0
11
153.600665
21
9.17228
31
0
39
0
210
0
220
0
230
1
0
LINE
5
D5
100
AcDbEntity
8
1
62
256
6
ByLayer
370
-1
48
1
60
0
100
AcDbLine
10
152.195038
20
17.037362
30
0
11
161.902019
21
17.377632
31
0
39
0
210
0
220
0
230
1
0
LINE
5
D6
100
AcDbEntity
8
1
62
256
6
ByLayer
370
-1
48
1
60
0
100
AcDbLine
10
152.386714
20
6.980705
30
0
11
152.047739
21
16.724766
31
0
39
0
210
0
220
0
230
1
0
LINE
5
D7
100
AcDbEntity
8
1
62
256
6
ByLayer
370
-1
48
1
60
0
100
AcDbLine
10
150.854
20
16.682178
30
0
11
151.192975
21
6.938117
31
0
39
0
210
0
220
0
230
1
0
LINE
5
D8
100
AcDbEntity
8
1
62
256
6
ByLayer
370
-1
48
1
60
0
100
AcDbLine
10
162.557879
20
7.336944
30
0
11
162.218903
21
17.081004
31
0
39
0
210
0
220
0
230
1
0
LINE
5
D9
100
AcDbEntity
8
1
62
256
6
ByLayer
370
-1
48
1
60
0
100
AcDbLine
10
161.308255
20
11.153789
30
0
11
161.405602
21
8.355495
31
0
39
0
210
0
220
0
230
1
0
LINE
5
DA
100
AcDbEntity
8
1
62
256
6
ByLayer
370
-1
48
1
60
0
100
AcDbLine
10
162.504265
20
-9.934555
30
0
11
163.514473
21
-9.567555
31
0
39
0
210
0
220
0
230
1
0
LINE
5
DB
100
AcDbEntity
8
1
62
256
6
ByLayer
370
-1
48
1
60
0
100
AcDbLine
10
162.276808
20
-0.237978
30
0
11
162.072887
21
0.155309
31
0
39
0
210
0
220
0
230
1
0
LINE
5
DC
100
AcDbEntity
8
1
62
256
6
ByLayer
370
-1
48
1
60
0
100
AcDbLine
10
163.999634
20
-6.432123
30
0
11
163.726745
21
-6.286847
31
0
39
0
210
0
220
0
230
1
0
LINE
5
DD
100
AcDbEntity
8
1
62
256
6
ByLayer
370
-1
48
1
60
0
100
AcDbLine
10
163.53049
20
-4.486917
30
0
11
163.319124
21
-0.46134
31
0
39
0
210
0
220
0
230
1
0
LINE
5
DE
100
AcDbEntity
8
1
62
256
6
ByLayer
370
-1
48
1
60
0
100
AcDbLine
10
162.524463
20
-8.445484
30
0
11
162.574515
21
-8.419629
31
0
39
0
210
0
220
0
230
1
0
LINE
5
DF
100
AcDbEntity
8
1
62
256
6
ByLayer
370
-1
48
1
60
0
100
AcDbLine
10
163.908896
20
-9.025692
30
0
11
163.999634
21
-6.432123
31
0
39
0
210
0
220
0
230
1
0
LINE
5
E0
100
AcDbEntity
8
1
62
256
6
ByLayer
370
-1
48
1
60
0
100
AcDbLine
10
163.657997
20
-7.911458
30
0
11
163.714959
21
-6.283321
31
0
39
0
210
0
220
0
230
1
0
LINE
5
E1
100
AcDbEntity
8
1
62
256
6
ByLayer
370
-1
48
1
60
0
100
AcDbLine
10
163.79028
20
-5.470839
30
0
11
163.545973
21
-5.456806
31
0
39
0
210
0
220
0
230
1
0
LINE
5
E2
100
AcDbEntity
8
1
62
256
6
ByLayer
370
-1
48
1
60
0
100
AcDbLine
10
162.555563
20
-4.312036
30
0
11
162.357173
21
-0.533591
31
0
39
0
210
0
220
0
230
1
0
LINE
5
E3
100
AcDbEntity
8
1
62
256
6
ByLayer
370
-1
48
1
60
0
100
AcDbLine
10
162.45443
20
-0.146224
30
0
11
162.047521
21
0.638548
31
0
39
0
210
0
220
0
230
1
0
LINE
5
E4
100
AcDbEntity
8
1
62
256
6
ByLayer
370
-1
48
1
60
0
100
AcDbLine
10
162.522074
20
1.384453
30
0
11
162.015959
21
1.223899
31
0
39
0
210
0
220
0
230
1
0
LINE
5
E5
100
AcDbEntity
8
1
62
256
6
ByLayer
370
-1
48
1
60
0
100
AcDbLine
10
163.514473
20
-9.567555
30
0
11
163.418735
21
-9.449348
31
0
39
0
210
0
220
0
230
1
0
LINE
5
E6
100
AcDbEntity
8
1
62
256
6
ByLayer
370
-1
48
1
60
0
100
AcDbLine
10
163.289656
20
-0.316768
30
0
11
162.528574
21
1.770386
31
0
39
0
210
0
220
0
230
1
0
LINE
5
E7
100
AcDbEntity
8
1
62
256
6
ByLayer
370
-1
48
1
60
0
100
AcDbLine
10
163.319124
20
-0.46134
30
0
11
163.058503
21
-0.383482
31
0
39
0
210
0
220
0
230
1
0
LINE
5
E8
100
AcDbEntity
8
1
62
256
6
ByLayer
370
-1
48
1
60
0
100
AcDbLine
10
163.246031
20
-4.362918
30
0
11
162.755289
21
-4.301588
31
0
39
0
210
0
220
0
230
1
0
LINE
5
E9
100
AcDbEntity
8
1
62
256
6
ByLayer
370
-1
48
1
60
0
100
AcDbLine
10
163.025475
20
-9.508979
30
0
11
162.491151
21
-9.642105
31
0
39
0
210
0
220
0
230
1
0
LINE
5
EA
100
AcDbEntity
8
1
62
256
6
ByLayer
370
-1
48
1
60
0
100
AcDbLine
10
163.726745
20
-6.286847
30
0
11
163.669783
21
-7.914985
31
0
39
0
210
0
220
0
230
1
0
LINE
5
EB
100
AcDbEntity
8
1
62
256
6
ByLayer
370
-1
48
1
60
0
100
AcDbLine
10
163.059418
20
-0.586973
30
0
11
163.257808
21
-4.365417
31
0
39
0
210
0
220
0
230
1
0
LINE
5
EC
100
AcDbEntity
8
1
62
256
6
ByLayer
370
-1
48
1
60
0
100
AcDbLine
10
162.932292
20
0.005368
30
0
11
162.45443
21
-0.146224
31
0
39
0
210
0
220
0
230
1
0
LINE
5
ED
100
AcDbEntity
8
1
62
256
6
ByLayer
370
-1
48
1
60
0
100
AcDbLine
10
163.535421
20
-5.458948
30
0
11
163.095745
21
-5.591024
31
0
39
0
210
0
220
0
230
1
0
LINE
5
EE
100
AcDbEntity
8
1
62
256
6
ByLayer
370
-1
48
1
60
0
100
AcDbLine
10
163.246031
20
-4.362918
30
0
11
163.047641
21
-0.584474
31
0
39
0
210
0
220
0
230
1
0
LINE
5
EF
100
AcDbEntity
8
1
62
256
6
ByLayer
370
-1
48
1
60
0
100
AcDbLine
10
162.932292
20
0.005368
30
0
11
162.522074
21
1.384453
31
0
39
0
210
0
220
0
230
1
0
LINE
5
F0
100
AcDbEntity
8
1
62
256
6
ByLayer
370
-1
48
1
60
0
100
AcDbLine
10
163.53049
20
-4.486917
30
0
11
163.257808
21
-4.365417
31
0
39
0
210
0
220
0
230
1
0
LINE
5
F1
100
AcDbEntity
8
1
62
256
6
ByLayer
370
-1
48
1
60
0
100
AcDbLine
10
162.755289
20
-4.301588
30
0
11
162.556899
21
-0.523144
31
0
39
0
210
0
220
0
230
1
0
LINE
5
F2
100
AcDbEntity
8
1
62
256
6
ByLayer
370
-1
48
1
60
0
100
AcDbLine
10
163.714959
20
-6.283321
30
0
11
163.223842
21
-6.179202
31
0
39
0
210
0
220
0
230
1
0
LINE
5
F3
100
AcDbEntity
8
1
62
256
6
ByLayer
370
-1
48
1
60
0
100
AcDbLine
10
162.491389
20
-9.621622
30
0
11
163.049238
21
-9.482634
31
0
39
0
210
0
220
0
230
1
0
LINE
5
F4
100
AcDbEntity
8
1
62
256
6
ByLayer
370
-1
48
1
60
0
100
AcDbLine
10
162.535966
20
-8.664319
30
0
11
162.666441
21
-8.596919
31
0
39
0
210
0
220
0
230
1
0
LINE
5
F5
100
AcDbEntity
8
1
62
256
6
ByLayer
370
-1
48
1
60
0
100
AcDbLine
10
163.049238
20
-9.482634
30
0
11
162.666441
21
-8.596919
31
0
39
0
210
0
220
0
230
1
0
LINE
5
F6
100
AcDbEntity
8
1
62
256
6
ByLayer
370
-1
48
1
60
0
100
AcDbLine
10
163.908896
20
-9.025692
30
0
11
163.786258
21
-8.874273
31
0
39
0
210
0
220
0
230
1
0
LINE
5
F7
100
AcDbEntity
8
1
62
256
6
ByLayer
370
-1
48
1
60
0
100
AcDbLine
10
163.16688
20
-7.80734
30
0
11
163.223842
21
-6.179202
31
0
39
0
210
0
220
0
230
1
0
LINE
5
F8
100
AcDbEntity
8
1
62
256
6
ByLayer
370
-1
48
1
60
0
100
AcDbLine
10
163.657997
20
-7.911458
30
0
11
163.16688
21
-7.80734
31
0
39
0
210
0
220
0
230
1
0
LINE
5
F9
100
AcDbEntity
8
1
62
256
6
ByLayer
370
-1
48
1
60
0
100
AcDbLine
10
163.289656
20
-0.316768
30
0
11
163.03131
21
-0.23959
31
0
39
0
210
0
220
0
230
1
0
LINE
5
FA
100
AcDbEntity
8
1
62
256
6
ByLayer
370
-1
48
1
60
0
100
AcDbLine
10
163.047641
20
-0.584474
30
0
11
162.556899
21
-0.523144
31
0
39
0
210
0
220
0
230
1
0
LINE
5
FB
100
AcDbEntity
8
1
62
256
6
ByLayer
370
-1
48
1
60
0
100
AcDbLine
10
162.967002
20
-7.800373
30
0
11
163.023964
21
-6.172235
31
0
39
0
210
0
220
0
230
1
0
LINE
5
FC
100
AcDbEntity
8
1
62
256
6
ByLayer
370
-1
48
1
60
0
100
AcDbLine
10
162.545348
20
1.357619
30
0
11
162.955566
21
-0.021466
31
0
39
0
210
0
220
0
230
1
0
LINE
5
FD
100
AcDbEntity
8
1
62
256
6
ByLayer
370
-1
48
1
60
0
100
AcDbLine
10
162.528574
20
1.770386
30
0
11
162.459016
21
1.723605
31
0
39
0
210
0
220
0
230
1
0
LINE
5
FE
100
AcDbEntity
8
SK1
62
256
6
ByLayer
370
-1
48
1
60
0
100
AcDbLine
10
-1.307107
20
7.175352
30
0
11
-1.307107
21
-7.175351
31
0
39
0
210
0
220
0
230
1
0
LINE
5
100
100
AcDbEntity
8
SK1
62
256
6
ByLayer
370
-1
48
1
60
0
100
AcDbLine
10
-0.2
20
-9.327919
30
0
11
-0.2
21
-9.102703
31
0
39
0
210
0
220
0
230
1
0
LINE
5
101
100
AcDbEntity
8
SK1
62
256
6
ByLayer
370
-1
48
1
60
0
100
AcDbLine
10
-0.2
20
9.102703
30
0
11
-0.2
21
9.32792
31
0
39
0
210
0
220
0
230
1
0
MTEXT
5
2B3
100
AcDbEntity
8
SK6
62
256
6
ByLayer
370
-1
48
1
60
0
100
AcDbMText
10
0.79375
20
-80.79375
30
0
210
0
220
0
230
1
1
\W00.727;\fsimplex.shx,bigfont.shx;880-D3700C6-03 
40
3.175
41
0
44
1.084337
50
0
71
7
72
5
7
DEFAULT
0
DIMENSION
5
2E3
100
AcDbEntity
8
SK2
62
256
6
ByLayer
370
-3
48
1
60
0
100
AcDbDimension
2
DimnDraft3D1
10
164
20
-70.31875
30
0
11
63
21
-70.31875
31
0
70
32
71
5
72
1
41
1
210
0
220
0
230
1
3
Standard
100
AcDbAlignedDimension
13
-38
23
-4.5875
33
0
14
164
24
-20.0875
34
0
50
0
100
AcDbRotatedDimension
1001
ACAD
1000
DSTYLE
1002
{
1070
   279
1070
     0
1070
   172
1070
     1
1070
   173
1070
     1
1070
   340
1005
2B4
1070
   271
1070
     1
1070
   272
1070
     2
1070
    77
1070
     1
1070
    73
1070
     0
1070
   171
1070
     3
1070
   274
1070
     4
1070
   177
1070
   150
1070
   176
1070
     9
1070
   178
1070
    43
1070
    78
1070
     8
1070
    48
1040
-0.005
1070
    41
1041
4.175
1070
   147
1041
2.25
1070
    42
1041
1.5875
1070
    44
1041
3.175
1070
   140
1041
4.5
1070
   343
1005
0
1070
   344
1005
0
1002
}
0
DIMENSION
5
2ED
100
AcDbEntity
8
SK2
62
256
6
ByLayer
370
-3
48
1
60
0
100
AcDbDimension
2
DimnDraft3D2
10
0
20
-58.35
30
0
11
-19
21
-58.35
31
0
70
32
71
5
72
1
41
1
210
0
220
0
230
1
3
Standard
100
AcDbAlignedDimension
13
-38
23
-4.5875
33
0
14
0
24
-33.0875
34
0
50
0
100
AcDbRotatedDimension
1001
ACAD
1000
DSTYLE
1002
{
1070
   279
1070
     0
1070
   172
1070
     1
1070
   173
1070
     1
1070
   340
1005
2B4
1070
   271
1070
     1
1070
   272
1070
     2
1070
    77
1070
     1
1070
    73
1070
     0
1070
   171
1070
     3
1070
   274
1070
     4
1070
   177
1070
   150
1070
   176
1070
     9
1070
   178
1070
    43
1070
    78
1070
     8
1070
    48
1040
-0.005
1070
    41
1041
4.175
1070
   147
1041
2.25
1070
    42
1041
1.5875
1070
    44
1041
3.175
1070
   140
1041
4.5
1070
   343
1005
0
1070
   344
1005
0
1002
}
0
DIMENSION
5
2F8
100
AcDbEntity
8
2
62
256
6
ByLayer
370
-3
48
1
60
0
100
AcDbDimension
2
DimnDraft3D3
10
164
20
-58.35
30
0
11
82
21
-58.35
31
0
70
32
71
5
72
1
41
1
210
0
220
0
230
1
3
Standard
100
AcDbAlignedDimension
13
0
23
-33.0875
33
0
14
164
24
-20.0875
34
0
50
0
100
AcDbRotatedDimension
1001
ACAD
1000
DSTYLE
1002
{
1070
   279
1070
     0
1070
   172
1070
     1
1070
   173
1070
     1
1070
   340
1005
2B4
1070
   271
1070
     1
1070
   272
1070
     2
1070
    77
1070
     1
1070
    73
1070
     0
1070
   171
1070
     3
1070
   274
1070
     4
1070
   177
1070
   150
1070
   176
1070
     9
1070
   178
1070
    43
1070
    78
1070
     8
1070
    48
1040
-0.005
1070
    41
1041
4.175
1070
   147
1041
2.25
1070
    42
1041
1.5875
1070
    44
1041
3.175
1070
   140
1041
4.5
1070
   343
1005
0
1070
   344
1005
0
1002
}
0
DIMENSION
5
302
100
AcDbEntity
8
SK2
62
256
6
ByLayer
370
-3
48
1
60
0
100
AcDbDimension
2
DimnDraft3D4
10
164
20
-48.35
30
0
11
106.5
21
-48.35
31
0
70
32
71
5
72
1
41
1
210
0
220
0
230
1
3
Standard
100
AcDbAlignedDimension
13
49
23
-11.5875
33
0
14
164
24
-20.0875
34
0
50
0
100
AcDbRotatedDimension
1001
ACAD
1000
DSTYLE
1002
{
1070
   279
1070
     0
1070
   172
1070
     1
1070
   173
1070
     1
1070
   340
1005
2B4
1070
   271
1070
     1
1070
   272
1070
     2
1070
    77
1070
     1
1070
    73
1070
     0
1070
   171
1070
     3
1070
   274
1070
     4
1070
   177
1070
   150
1070
   176
1070
     9
1070
   178
1070
    43
1070
    78
1070
     8
1070
    48
1040
-0.005
1070
    41
1041
4.175
1070
   147
1041
2.25
1070
    42
1041
1.5875
1070
    44
1041
3.175
1070
   140
1041
4.5
1070
   343
1005
0
1070
   344
1005
0
1002
}
0
DIMENSION
5
30D
100
AcDbEntity
8
SK2
62
256
6
ByLayer
370
-3
48
1
60
0
100
AcDbDimension
2
DimnDraft3D5
10
-60.089798
20
31.5
30
0
11
-60.289798
21
4.121053
31
0
70
33
71
5
72
1
41
1
210
0
220
0
230
1
3
Standard
100
AcDbAlignedDimension
13
-1.5875
23
-31.5
33
0
14
-1.5875
24
31.5
34
0
1001
ACAD
1000
DSTYLE
1002
{
1070
   279
1070
     0
1070
    74
1070
     0
1070
   173
1070
     1
1070
   340
1005
2B4
1070
   271
1070
     1
1070
   272
1070
     2
1070
    77
1070
     1
1070
    73
1070
     0
1070
   171
1070
     3
1070
   274
1070
     4
1070
   177
1070
   150
1070
   176
1070
     9
1070
   178
1070
    43
1070
    78
1070
     8
1070
    48
1040
-0.005
1070
    41
1041
4.175
1070
   147
1041
2.25
1070
    42
1041
1.5875
1070
    44
1041
3.175
1070
   140
1041
4.5
1070
   343
1005
0
1070
   344
1005
0
1002
}
0
DIMENSION
5
318
100
AcDbEntity
8
2
62
256
6
ByLayer
370
-3
48
1
60
0
100
AcDbDimension
2
DimnDraft3D6
10
194.15
20
-18.5
30
0
11
187.6
21
4.121053
31
0
70
33
71
5
72
1
41
1
210
0
220
0
230
1
3
Standard
100
AcDbAlignedDimension
13
165.5875
23
18.5
33
0
14
165.5875
24
-18.5
34
0
1001
ACAD
1000
DSTYLE
1002
{
1070
   279
1070
     0
1070
    74
1070
     0
1070
   173
1070
     1
1070
   340
1005
2B4
1070
   271
1070
     2
1070
   272
1070
     2
1070
    77
1070
     1
1070
    73
1070
     0
1070
   171
1070
     3
1070
   274
1070
     4
1070
   177
1070
   150
1070
   176
1070
     9
1070
   178
1070
    43
1070
    78
1070
     8
1070
    48
1040
-0.005
1070
    41
1041
4.175
1070
   147
1041
2.25
1070
    42
1041
1.5875
1070
    44
1041
3.175
1070
   140
1041
4.5
1070
   343
1005
0
1070
   344
1005
0
1002
}
0
ENDSEC
0
SECTION
2
OBJECTS
0
DICTIONARY
5
349
330
0
100
AcDbDictionary
280
0
281
1
3
ACAD_GROUP
350
34a
3
ACAD_MLINESTYLE
350
34b
0
DICTIONARY
5
34a
330
0
100
AcDbDictionary
280
0
281
1
0
DICTIONARY
5
34b
330
0
100
AcDbDictionary
280
0
281
1
3
Standard
350
18
0
MLINESTYLE
5
18
330
34b
100
AcDbMlineStyle
2
Standard
70
0
3

62
256
51
90
52
90
71
2
49
-0.5
62
256
6
ByLayer
49
0.5
62
256
6
ByLayer
0
RASTERVARIABLES
5
337
330

100
AcDbRasterVariables
90
0
70
1
71
1
72
1
0
ENDSEC
0
EOF
