0
SECTION
2
HEADER
9
$ACADVER
1
AC1015
9
$DWGCODEPAGE
3
ANSI_1252
9
$HANDSEED
5
338
9
$ANGBASE
50
0
9
$ANGDIR
70
0
9
$ATTMODE
70
1
9
$AUNITS
70
0
9
$AUPREC
70
0
9
$CECOLOR
62
256
9
$CELTSCALE
40
1
9
$CELTYPE
6
ByLayer
9
$CELWEIGHT
370
-1
9
$CLAYER
8
0
9
$CMLJUST
70
0
9
$CMLSCALE
40
1
9
$CMLSTYLE
2
Standard
9
$DIMSTYLE
2
Standard
9
$TEXTSIZE
40
0.2
9
$TEXTSTYLE
7
Standard
9
$LUNITS
70
2
9
$LUPREC
70
4
9
$EXTNAMES
290
1
9
$INSUNITS
70
4
9
$LTSCALE
40
1
9
$LWDISPLAY
290
0
9
$PDMODE
70
0
9
$PDSIZE
40
0
9
$PLINEGEN
70
0
0
ENDSEC
0
SECTION
2
CLASSES
0
CLASS
1
RASTERVARIABLES
2
AcDbRasterVariables
3
ISM
90
0
280
0
281
0
0
ENDSEC
0
SECTION
2
TABLES
0
TABLE
2
VPORT
5
32e
100
AcDbSymbolTable
0
VPORT
5
1
100
AcDbSymbolTableRecord
100
AcDbViewportTableRecord
2
*Active
70
0
10
0
20
0
11
1
21
1
12
-1
22
1
13
0
23
0
14
0.5
24
0.5
15
10
25
10
16
0
26
0
36
1
17
0
27
0
37
0
0
ENDTAB
0
TABLE
2
LTYPE
5
32f
100
AcDbSymbolTable
0
LTYPE
5
14
100
AcDbSymbolTableRecord
100
AcDbLinetypeTableRecord
70
0
2
ByBlock
3

72
65
73
0
40
0
0
LTYPE
5
15
100
AcDbSymbolTableRecord
100
AcDbLinetypeTableRecord
70
0
2
ByLayer
3

72
65
73
0
40
0
0
LTYPE
5
16
100
AcDbSymbolTableRecord
100
AcDbLinetypeTableRecord
70
0
2
CONTINUOUS
3
Solid line
72
65
73
0
40
0
0
LTYPE
5
3B
100
AcDbSymbolTableRecord
100
AcDbLinetypeTableRecord
70
0
2
DASHED
3
__ __ __ __ __ __ __ __ __
72
65
73
2
40
25.72
49
12.86
74
0
49
-12.86
74
0
0
LTYPE
5
3C
100
AcDbSymbolTableRecord
100
AcDbLinetypeTableRecord
70
0
2
HIDDEN
3
_ _ _ _ _ _ _ _ _ _ _ _ _ _ _
72
65
73
2
40
0.5
49
0.25
74
0
49
-0.25
74
0
0
LTYPE
5
3D
100
AcDbSymbolTableRecord
100
AcDbLinetypeTableRecord
70
0
2
PHANTOM
3
____ _ _ ____ _ _ _____ _ _ ____
72
65
73
6
40
50.5
49
18
74
0
49
-6.5
74
0
49
6.5
74
0
49
-6.5
74
0
49
6.5
74
0
49
-6.5
74
0
0
LTYPE
5
3E
100
AcDbSymbolTableRecord
100
AcDbLinetypeTableRecord
70
0
2
CENTER
3
____ _ ____ _ ____ _ ____
72
65
73
4
40
47.5
49
22
74
0
49
-8.5
74
0
49
8.5
74
0
49
-8.5
74
0
0
LTYPE
5
3F
100
AcDbSymbolTableRecord
100
AcDbLinetypeTableRecord
70
0
2
DOT
3
.........................
72
65
73
2
40
10
49
0
74
0
49
-10
74
0
0
LTYPE
5
40
100
AcDbSymbolTableRecord
100
AcDbLinetypeTableRecord
70
0
2
DASHDOT
3
_._._._._._._._._._._._._._._._.
72
65
73
4
40
70
49
31
74
0
49
-13
74
0
49
13
74
0
49
-13
74
0
0
ENDTAB
0
TABLE
2
LAYER
5
330
100
AcDbSymbolTable
0
LAYER
5
10
100
AcDbSymbolTableRecord
100
AcDbLayerTableRecord
2
0
70
0
62
7
6
CONTINUOUS
290
1
370
-3
390
0
0
LAYER
5
42
100
AcDbSymbolTableRecord
100
AcDbLayerTableRecord
2
81
70
0
62
-3
6
CONTINUOUS
290
1
370
-3
390
0
0
LAYER
5
44
100
AcDbSymbolTableRecord
100
AcDbLayerTableRecord
2
80
70
0
62
-6
6
CONTINUOUS
290
1
370
-3
390
0
0
LAYER
5
48
100
AcDbSymbolTableRecord
100
AcDbLayerTableRecord
2
1
70
0
62
4
6
CONTINUOUS
290
1
370
-3
390
0
0
LAYER
5
62
100
AcDbSymbolTableRecord
100
AcDbLayerTableRecord
2
4
70
0
62
-2
6
CENTER
290
1
370
-3
390
0
0
LAYER
5
2C7
100
AcDbSymbolTableRecord
100
AcDbLayerTableRecord
2
2
70
0
62
7
6
CONTINUOUS
290
1
370
-3
390
0
0
LAYER
5
31a
100
AcDbSymbolTableRecord
100
AcDbLayerTableRecord
2
SK1
70
0
62
4
6
CONTINUOUS
290
1
370
-3
390
0
0
LAYER
5
31b
100
AcDbSymbolTableRecord
100
AcDbLayerTableRecord
2
SK4
70
0
62
2
6
CENTER
290
1
370
-3
390
0
0
LAYER
5
31c
100
AcDbSymbolTableRecord
100
AcDbLayerTableRecord
2
SK6
70
0
62
5
6
CONTINUOUS
290
1
370
-3
390
0
0
LAYER
5
31d
100
AcDbSymbolTableRecord
100
AcDbLayerTableRecord
2
SK2
70
0
62
7
6
CONTINUOUS
290
1
370
-3
390
0
0
ENDTAB
0
TABLE
2
STYLE
5
331
100
AcDbSymbolTable
0
STYLE
5
11
100
AcDbSymbolTableRecord
100
AcDbTextStyleTableRecord
2
Standard
3
txt
70
0
71
0
40
0
41
1
42
0
50
0
0
STYLE
5
28B
100
AcDbSymbolTableRecord
100
AcDbTextStyleTableRecord
2
DEFAULT
3
simplex.shx
70
0
71
0
40
0
41
1
42
0
50
0
0
STYLE
5
2AE
100
AcDbSymbolTableRecord
100
AcDbTextStyleTableRecord
2
DWGDirectTextStyle
3
SIMPLEX
70
0
71
0
40
0
41
1
42
0
50
0
0
ENDTAB
0
TABLE
2
DIMSTYLE
5
332
100
AcDbSymbolTable
100
AcDbDimStyleTable
0
DIMSTYLE
105
27
100
AcDbSymbolTableRecord
100
AcDbDimStyleTableRecord
2
Standard
70
0
3
<>
41
0.18
42
0.0625
44
0.18
140
0.18
147
0.09
73
0
74
0
77
1
271
2
275
0
278
52
280
0
340
11
0
ENDTAB
0
TABLE
2
VIEW
5
333
100
AcDbSymbolTable
0
ENDTAB
0
TABLE
2
UCS
5
334
100
AcDbSymbolTable
0
ENDTAB
0
TABLE
2
APPID
5
335
100
AcDbSymbolTable
0
APPID
5
12
100
AcDbSymbolTableRecord
100
AcDbRegAppTableRecord
2
ACAD
70
0
0
ENDTAB
0
TABLE
2
BLOCK_RECORD
5
336
100
AcDbSymbolTable
0
BLOCK_RECORD
5
1F
100
AcDbSymbolTableRecord
100
AcDbBlockTableRecord
2
*Model_Space
340
0
70
0
0
BLOCK_RECORD
5
1B
100
AcDbSymbolTableRecord
100
AcDbBlockTableRecord
2
*Paper_Space
340
0
70
0
0
BLOCK_RECORD
5
23
100
AcDbSymbolTableRecord
100
AcDbBlockTableRecord
2
*Paper_Space0
340
0
70
0
0
BLOCK_RECORD
5
2B0
100
AcDbSymbolTableRecord
100
AcDbBlockTableRecord
2
DimnDraft3D1
340
0
70
0
0
BLOCK_RECORD
5
2BB
100
AcDbSymbolTableRecord
100
AcDbBlockTableRecord
2
DimnDraft3D2
340
0
70
0
0
BLOCK_RECORD
5
2C5
100
AcDbSymbolTableRecord
100
AcDbBlockTableRecord
2
DimnDraft3D3
340
0
70
0
0
BLOCK_RECORD
5
2D0
100
AcDbSymbolTableRecord
100
AcDbBlockTableRecord
2
DimnDraft3D4
340
0
70
0
0
BLOCK_RECORD
5
2DA
100
AcDbSymbolTableRecord
100
AcDbBlockTableRecord
2
DimnDraft3D5
340
0
70
0
0
BLOCK_RECORD
5
2E5
100
AcDbSymbolTableRecord
100
AcDbBlockTableRecord
2
DimnDraft3D6
340
0
70
0
0
BLOCK_RECORD
5
2F0
100
AcDbSymbolTableRecord
100
AcDbBlockTableRecord
2
DimnDraft3D7
340
0
70
0
0
ENDTAB
0
ENDSEC
0
SECTION
2
BLOCKS
0
BLOCK
5
20
100
AcDbEntity
8
0
100
AcDbBlockBegin
2
*Model_Space
70
0
10
0
20
0
30
0
3
*Model_Space
0
ENDBLK
5
21
100
AcDbEntity
8
0
100
AcDbBlockEnd
0
BLOCK
5
1C
100
AcDbEntity
8
0
100
AcDbBlockBegin
2
*Paper_Space
70
0
10
0
20
0
30
0
3
*Paper_Space
0
ENDBLK
5
1D
100
AcDbEntity
8
0
100
AcDbBlockEnd
0
BLOCK
5
24
100
AcDbEntity
8
0
100
AcDbBlockBegin
2
*Paper_Space0
70
0
10
0
20
0
30
0
3
*Paper_Space0
0
ENDBLK
5
25
100
AcDbEntity
8
0
100
AcDbBlockEnd
0
BLOCK
5
2B8
100
AcDbEntity
8
0
100
AcDbBlockBegin
2
DimnDraft3D1
70
0
10
0
20
0
30
0
3
DimnDraft3D1
0
MTEXT
5
2B1
100
AcDbEntity
8
SK2
62
256
6
ByLayer
370
-1
48
1
60
0
100
AcDbMText
10
57.344079
20
-60.5258
30
0
210
0
220
0
230
1
1
\W01.000;\fsimplex.shx,bigfont.shx;(270) 
40
4.5
41
0
44
1.084337
50
0
71
7
72
5
7
DEFAULT
0
LINE
5
2B3
100
AcDbEntity
8
SK2
62
256
6
ByLayer
370
-1
48
1
60
0
100
AcDbLine
10
-70
20
-21.5875
30
0
11
-70
21
-66.79455
31
0
39
0
210
0
220
0
230
1
0
LINE
5
2B4
100
AcDbEntity
8
SK2
62
256
6
ByLayer
370
-1
48
1
60
0
100
AcDbLine
10
200
20
-18.5875
30
0
11
200
21
-66.79455
31
0
39
0
210
0
220
0
230
1
0
LINE
5
2B5
100
AcDbEntity
8
SK2
62
256
6
ByLayer
370
-1
48
1
60
0
100
AcDbLine
10
-70
20
-63.61955
30
0
11
200
21
-63.61955
31
0
39
0
210
0
220
0
230
1
0
SOLID
5
2B6
100
AcDbEntity
8
SK2
62
256
6
ByLayer
370
-1
48
1
60
0
100
AcDbTrace
10
-70
20
-63.61955
30
0
11
-65.825003
21
-62.693975
31
0
12
-65.824997
22
-64.545125
32
0
13
-70
23
-63.61955
33
0
39
0
210
0
220
0
230
1
0
SOLID
5
2B7
100
AcDbEntity
8
SK2
62
256
6
ByLayer
370
-1
48
1
60
0
100
AcDbTrace
10
200
20
-63.61955
30
0
11
195.825003
21
-64.545125
31
0
12
195.824997
22
-62.693975
32
0
13
200
23
-63.61955
33
0
39
0
210
0
220
0
230
1
0
ENDBLK
5
2B9
100
AcDbEntity
8
0
100
AcDbBlockEnd
0
BLOCK
5
2C2
100
AcDbEntity
8
0
100
AcDbBlockBegin
2
DimnDraft3D2
70
0
10
0
20
0
30
0
3
DimnDraft3D2
0
MTEXT
5
2BC
100
AcDbEntity
8
SK2
62
256
6
ByLayer
370
-1
48
1
60
0
100
AcDbMText
10
-36.503947
20
-50.5258
30
0
210
0
220
0
230
1
1
\W01.000;\fsimplex.shx,bigfont.shx;70 
40
4.5
41
0
44
1.084337
50
0
71
7
72
5
7
DEFAULT
0
LINE
5
2BD
100
AcDbEntity
8
SK2
62
256
6
ByLayer
370
-1
48
1
60
0
100
AcDbLine
10
-70
20
-21.5875
30
0
11
-70
21
-54.8258
31
0
39
0
210
0
220
0
230
1
0
LINE
5
2BE
100
AcDbEntity
8
SK2
62
256
6
ByLayer
370
-1
48
1
60
0
100
AcDbLine
10
0
20
-26.3375
30
0
11
0
21
-54.8258
31
0
39
0
210
0
220
0
230
1
0
LINE
5
2BF
100
AcDbEntity
8
SK2
62
256
6
ByLayer
370
-1
48
1
60
0
100
AcDbLine
10
-70
20
-51.6508
30
0
11
0
21
-51.6508
31
0
39
0
210
0
220
0
230
1
0
SOLID
5
2C0
100
AcDbEntity
8
SK2
62
256
6
ByLayer
370
-1
48
1
60
0
100
AcDbTrace
10
-70
20
-51.6508
30
0
11
-65.825003
21
-50.725225
31
0
12
-65.824997
22
-52.576375
32
0
13
-70
23
-51.6508
33
0
39
0
210
0
220
0
230
1
0
SOLID
5
2C1
100
AcDbEntity
8
SK2
62
256
6
ByLayer
370
-1
48
1
60
0
100
AcDbTrace
10
0
20
-51.6508
30
0
11
-4.174997
21
-52.576375
31
0
12
-4.175003
22
-50.725225
32
0
13
0
23
-51.6508
33
0
39
0
210
0
220
0
230
1
0
ENDBLK
5
2C3
100
AcDbEntity
8
0
100
AcDbBlockEnd
0
BLOCK
5
2CD
100
AcDbEntity
8
0
100
AcDbBlockBegin
2
DimnDraft3D3
70
0
10
0
20
0
30
0
3
DimnDraft3D3
0
MTEXT
5
2C6
100
AcDbEntity
8
2
62
256
6
ByLayer
370
-1
48
1
60
0
100
AcDbMText
10
96.844079
20
-50.5258
30
0
210
0
220
0
230
1
1
\W01.000;\fsimplex.shx,bigfont.shx;200 
40
4.5
41
0
44
1.084337
50
0
71
7
72
5
7
DEFAULT
0
LINE
5
2C8
100
AcDbEntity
8
2
62
256
6
ByLayer
370
-1
48
1
60
0
100
AcDbLine
10
0
20
-26.3375
30
0
11
0
21
-54.8258
31
0
39
0
210
0
220
0
230
1
0
LINE
5
2C9
100
AcDbEntity
8
2
62
256
6
ByLayer
370
-1
48
1
60
0
100
AcDbLine
10
200
20
-18.5875
30
0
11
200
21
-54.8258
31
0
39
0
210
0
220
0
230
1
0
LINE
5
2CA
100
AcDbEntity
8
2
62
256
6
ByLayer
370
-1
48
1
60
0
100
AcDbLine
10
0
20
-51.6508
30
0
11
200
21
-51.6508
31
0
39
0
210
0
220
0
230
1
0
SOLID
5
2CB
100
AcDbEntity
8
2
62
256
6
ByLayer
370
-1
48
1
60
0
100
AcDbTrace
10
0
20
-51.6508
30
0
11
4.174997
21
-50.725225
31
0
12
4.175003
22
-52.576375
32
0
13
0
23
-51.6508
33
0
39
0
210
0
220
0
230
1
0
SOLID
5
2CC
100
AcDbEntity
8
2
62
256
6
ByLayer
370
-1
48
1
60
0
100
AcDbTrace
10
200
20
-51.6508
30
0
11
195.825003
21
-52.576375
31
0
12
195.824997
22
-50.725225
32
0
13
200
23
-51.6508
33
0
39
0
210
0
220
0
230
1
0
ENDBLK
5
2CE
100
AcDbEntity
8
0
100
AcDbBlockEnd
0
BLOCK
5
2D7
100
AcDbEntity
8
0
100
AcDbBlockBegin
2
DimnDraft3D4
70
0
10
0
20
0
30
0
3
DimnDraft3D4
0
MTEXT
5
2D1
100
AcDbEntity
8
SK2
62
256
6
ByLayer
370
-1
48
1
60
0
100
AcDbMText
10
109.906579
20
-40.5258
30
0
210
0
220
0
230
1
1
\W01.000;\fsimplex.shx,bigfont.shx;175 
40
4.5
41
0
44
1.084337
50
0
71
7
72
5
7
DEFAULT
0
LINE
5
2D2
100
AcDbEntity
8
SK2
62
256
6
ByLayer
370
-1
48
1
60
0
100
AcDbLine
10
25
20
-11.5875
30
0
11
25
21
-44.8258
31
0
39
0
210
0
220
0
230
1
0
LINE
5
2D3
100
AcDbEntity
8
SK2
62
256
6
ByLayer
370
-1
48
1
60
0
100
AcDbLine
10
200
20
-18.5875
30
0
11
200
21
-44.8258
31
0
39
0
210
0
220
0
230
1
0
LINE
5
2D4
100
AcDbEntity
8
SK2
62
256
6
ByLayer
370
-1
48
1
60
0
100
AcDbLine
10
25
20
-41.6508
30
0
11
200
21
-41.6508
31
0
39
0
210
0
220
0
230
1
0
SOLID
5
2D5
100
AcDbEntity
8
SK2
62
256
6
ByLayer
370
-1
48
1
60
0
100
AcDbTrace
10
25
20
-41.6508
30
0
11
29.174997
21
-40.725225
31
0
12
29.175003
22
-42.576375
32
0
13
25
23
-41.6508
33
0
39
0
210
0
220
0
230
1
0
SOLID
5
2D6
100
AcDbEntity
8
SK2
62
256
6
ByLayer
370
-1
48
1
60
0
100
AcDbTrace
10
200
20
-41.6508
30
0
11
195.825003
21
-42.576375
31
0
12
195.824997
22
-40.725225
32
0
13
200
23
-41.6508
33
0
39
0
210
0
220
0
230
1
0
ENDBLK
5
2D8
100
AcDbEntity
8
0
100
AcDbBlockEnd
0
BLOCK
5
2E2
100
AcDbEntity
8
0
100
AcDbBlockBegin
2
DimnDraft3D5
70
0
10
0
20
0
30
0
3
DimnDraft3D5
0
MTEXT
5
2DB
100
AcDbEntity
8
SK2
62
256
6
ByLayer
370
-1
48
1
60
0
100
AcDbMText
10
-80.975
20
5.009211
30
0
210
0
220
0
230
1
1
\W01.000;\fsimplex.shx,bigfont.shx;40 
40
4.5
41
0
44
1.084337
50
90
71
7
72
5
7
DEFAULT
0
MTEXT
5
2DC
100
AcDbEntity
8
SK2
62
256
6
ByLayer
370
-1
48
1
60
0
100
AcDbMText
10
-80.975
20
-8.490789
30
0
210
0
220
0
230
1
1
\W01.000;\fsimplex.shx,bigfont.shx;%%c 
40
4.5
41
0
44
1.084337
50
90
71
7
72
5
7
DEFAULT
0
LINE
5
2DD
100
AcDbEntity
8
SK2
62
256
6
ByLayer
370
-1
48
1
60
0
100
AcDbLine
10
-71.5875
20
20
30
0
11
-81.9
21
20
31
0
39
0
210
0
220
0
230
1
0
LINE
5
2DE
100
AcDbEntity
8
SK2
62
256
6
ByLayer
370
-1
48
1
60
0
100
AcDbLine
10
-71.5875
20
-20
30
0
11
-81.9
21
-20
31
0
39
0
210
0
220
0
230
1
0
LINE
5
2DF
100
AcDbEntity
8
SK2
62
256
6
ByLayer
370
-1
48
1
60
0
100
AcDbLine
10
-78.725
20
20
30
0
11
-78.725
21
-20
31
0
39
0
210
0
220
0
230
1
0
SOLID
5
2E0
100
AcDbEntity
8
SK2
62
256
6
ByLayer
370
-1
48
1
60
0
100
AcDbTrace
10
-78.725
20
20
30
0
11
-77.799425
21
15.825003
31
0
12
-79.650575
22
15.824997
32
0
13
-78.725
23
20
33
0
39
0
210
0
220
0
230
1
0
SOLID
5
2E1
100
AcDbEntity
8
SK2
62
256
6
ByLayer
370
-1
48
1
60
0
100
AcDbTrace
10
-78.725
20
-20
30
0
11
-79.650575
21
-15.825003
31
0
12
-77.799425
22
-15.824997
32
0
13
-78.725
23
-20
33
0
39
0
210
0
220
0
230
1
0
ENDBLK
5
2E3
100
AcDbEntity
8
0
100
AcDbBlockEnd
0
BLOCK
5
2ED
100
AcDbEntity
8
0
100
AcDbBlockBegin
2
DimnDraft3D6
70
0
10
0
20
0
30
0
3
DimnDraft3D6
0
MTEXT
5
2E6
100
AcDbEntity
8
SK2
62
256
6
ByLayer
370
-1
48
1
60
0
100
AcDbMText
10
-90.975
20
2.475
30
0
210
0
220
0
230
1
1
\W01.000;\fsimplex.shx,bigfont.shx;49.5 
40
4.5
41
0
44
1.084337
50
90
71
7
72
5
7
DEFAULT
0
MTEXT
5
2E7
100
AcDbEntity
8
SK2
62
256
6
ByLayer
370
-1
48
1
60
0
100
AcDbMText
10
-90.975
20
-11.025
30
0
210
0
220
0
230
1
1
\W01.000;\fsimplex.shx,bigfont.shx;%%c 
40
4.5
41
0
44
1.084337
50
90
71
7
72
5
7
DEFAULT
0
LINE
5
2E8
100
AcDbEntity
8
SK2
62
256
6
ByLayer
370
-1
48
1
60
0
100
AcDbLine
10
-1.5875
20
-24.75
30
0
11
-91.9
21
-24.75
31
0
39
0
210
0
220
0
230
1
0
LINE
5
2E9
100
AcDbEntity
8
SK2
62
256
6
ByLayer
370
-1
48
1
60
0
100
AcDbLine
10
-1.5875
20
24.75
30
0
11
-91.9
21
24.75
31
0
39
0
210
0
220
0
230
1
0
LINE
5
2EA
100
AcDbEntity
8
SK2
62
256
6
ByLayer
370
-1
48
1
60
0
100
AcDbLine
10
-88.725
20
-24.75
30
0
11
-88.725
21
24.75
31
0
39
0
210
0
220
0
230
1
0
SOLID
5
2EB
100
AcDbEntity
8
SK2
62
256
6
ByLayer
370
-1
48
1
60
0
100
AcDbTrace
10
-88.725
20
-24.75
30
0
11
-89.650575
21
-20.575003
31
0
12
-87.799425
22
-20.574997
32
0
13
-88.725
23
-24.75
33
0
39
0
210
0
220
0
230
1
0
SOLID
5
2EC
100
AcDbEntity
8
SK2
62
256
6
ByLayer
370
-1
48
1
60
0
100
AcDbTrace
10
-88.725
20
24.75
30
0
11
-87.799425
21
20.575003
31
0
12
-89.650575
22
20.574997
32
0
13
-88.725
23
24.75
33
0
39
0
210
0
220
0
230
1
0
ENDBLK
5
2EE
100
AcDbEntity
8
0
100
AcDbBlockEnd
0
BLOCK
5
2F8
100
AcDbEntity
8
0
100
AcDbBlockBegin
2
DimnDraft3D7
70
0
10
0
20
0
30
0
3
DimnDraft3D7
0
MTEXT
5
2F1
100
AcDbEntity
8
2
62
256
6
ByLayer
370
-1
48
1
60
0
100
AcDbMText
10
224.725
20
5.009211
30
0
210
0
220
0
230
1
1
\W01.000;\fsimplex.shx,bigfont.shx;34 
40
4.5
41
0
44
1.084337
50
90
71
7
72
5
7
DEFAULT
0
MTEXT
5
2F2
100
AcDbEntity
8
2
62
256
6
ByLayer
370
-1
48
1
60
0
100
AcDbMText
10
224.725
20
-8.490789
30
0
210
0
220
0
230
1
1
\W01.000;\fsimplex.shx,bigfont.shx;%%c 
40
4.5
41
0
44
1.084337
50
90
71
7
72
5
7
DEFAULT
0
LINE
5
2F3
100
AcDbEntity
8
2
62
256
6
ByLayer
370
-1
48
1
60
0
100
AcDbLine
10
201.5875
20
17
30
0
11
230.15
21
17
31
0
39
0
210
0
220
0
230
1
0
LINE
5
2F4
100
AcDbEntity
8
2
62
256
6
ByLayer
370
-1
48
1
60
0
100
AcDbLine
10
201.5875
20
-17
30
0
11
230.15
21
-17
31
0
39
0
210
0
220
0
230
1
0
LINE
5
2F5
100
AcDbEntity
8
2
62
256
6
ByLayer
370
-1
48
1
60
0
100
AcDbLine
10
226.975
20
17
30
0
11
226.975
21
-17
31
0
39
0
210
0
220
0
230
1
0
SOLID
5
2F6
100
AcDbEntity
8
2
62
256
6
ByLayer
370
-1
48
1
60
0
100
AcDbTrace
10
226.975
20
17
30
0
11
227.900575
21
12.825003
31
0
12
226.049425
22
12.824997
32
0
13
226.975
23
17
33
0
39
0
210
0
220
0
230
1
0
SOLID
5
2F7
100
AcDbEntity
8
2
62
256
6
ByLayer
370
-1
48
1
60
0
100
AcDbTrace
10
226.975
20
-17
30
0
11
226.049425
21
-12.825003
31
0
12
227.900575
22
-12.824997
32
0
13
226.975
23
-17
33
0
39
0
210
0
220
0
230
1
0
ENDBLK
5
2F9
100
AcDbEntity
8
0
100
AcDbBlockEnd
0
ENDSEC
0
SECTION
2
ENTITIES
0
ARC
5
105
100
AcDbEntity
8
SK1
62
256
6
ByLayer
370
-1
48
1
60
0
100
AcDbCircle
39
0
10
1.383773
20
20.15
30
0
40
0.4
210
0
220
0
230
-1
100
AcDbArc
50
270
51
295
0
ARC
5
106
100
AcDbEntity
8
SK1
62
256
6
ByLayer
370
-1
48
1
60
0
100
AcDbCircle
39
0
10
1.383773
20
-20.15
30
0
40
0.4
210
0
220
0
230
-1
100
AcDbArc
50
65
51
90
0
ARC
5
107
100
AcDbEntity
8
SK1
62
256
6
ByLayer
370
-1
48
1
60
0
100
AcDbCircle
39
0
10
0.15
20
20.15
30
0
40
0.4
210
0
220
0
230
-1
100
AcDbArc
50
247.975687
51
270
0
ARC
5
108
100
AcDbEntity
8
SK1
62
256
6
ByLayer
370
-1
48
1
60
0
100
AcDbCircle
39
0
10
0.15
20
-20.15
30
0
40
0.4
210
0
220
0
230
-1
100
AcDbArc
50
90
51
112.024313
0
ARC
5
109
100
AcDbEntity
8
SK1
62
256
6
ByLayer
370
-1
48
1
60
0
100
AcDbCircle
39
0
10
67.894506
20
20.396
30
0
40
0.8
210
0
220
0
230
-1
100
AcDbArc
50
250.982048
51
321
0
ARC
5
10A
100
AcDbEntity
8
SK1
62
256
6
ByLayer
370
-1
48
1
60
0
100
AcDbCircle
39
0
10
67.894506
20
-20.396
30
0
40
0.8
210
0
220
0
230
-1
100
AcDbArc
50
39
51
109.017952
0
ELLIPSE
5
10B
100
AcDbEntity
8
1
62
256
6
ByLayer
370
-1
48
1
60
0
100
AcDbEllipse
10
13.5
20
1.776189
30
0
11
-8
21
8.0851124406589E-15
31
0
210
0
220
0
230
1
40
0.925492
41
-1.68744320608101
42
-0.112088430791094
0
ELLIPSE
5
10C
100
AcDbEntity
8
1
62
256
6
ByLayer
370
-1
48
1
60
0
100
AcDbEllipse
10
198.61852
20
0
30
0
11
-0.713563141896877
21
16.3997779333063
31
0
210
0
220
0
230
-1
40
0.119612
41
-1.5064380014698
42
-1.4160767560228
0
ELLIPSE
5
10D
100
AcDbEntity
8
1
62
256
6
ByLayer
370
-1
48
1
60
0
100
AcDbEllipse
10
162.042871
20
15.863756
30
0
11
-35.1004674959813
21
15.1076107335022
31
0
210
0
220
0
230
-1
40
0.007168
41
2.1654255580274
42
2.22074914760325
0
ELLIPSE
5
10E
100
AcDbEntity
8
1
62
256
6
ByLayer
370
-1
48
1
60
0
100
AcDbEllipse
10
188.693155
20
6.735149
30
0
11
0.0280261150489101
21
-0.799508934831416
31
0
210
0
220
0
230
1
40
0.087103
41
0.0631133954163187
42
1.33958737577324
0
ELLIPSE
5
10F
100
AcDbEntity
8
1
62
256
6
ByLayer
370
-1
48
1
60
0
100
AcDbEllipse
10
197.809242
20
-9.777954
30
0
11
-0.194859322383938
21
-2.51096068889261
31
0
210
0
220
0
230
-1
40
0.126542
41
-2.48131539015283
42
2.60460825111202
0
ELLIPSE
5
110
100
AcDbEntity
8
1
62
256
6
ByLayer
370
-1
48
1
60
0
100
AcDbEllipse
10
178.547625
20
11.83
30
0
11
4.82744282578427E-15
21
4.12090063803918
31
0
210
0
220
0
230
1
40
0.996195
41
-2.41869996983421
42
-2.16570476489149
0
ELLIPSE
5
111
100
AcDbEntity
8
1
62
256
6
ByLayer
370
-1
48
1
60
0
100
AcDbEllipse
10
194.42148
20
11.304261
30
0
11
-2.14373874554696E-15
21
-2
31
0
210
0
220
0
230
1
40
0.996195
41
1.57079654872776
42
-2.28776637790648
0
ELLIPSE
5
112
100
AcDbEntity
8
1
62
256
6
ByLayer
370
-1
48
1
60
0
100
AcDbEllipse
10
194.42148
20
11.304261
30
0
11
-2.14373874554696E-15
21
-2
31
0
210
0
220
0
230
1
40
0.996195
41
1.33988912650863
42
1.57079604872776
0
ELLIPSE
5
113
100
AcDbEntity
8
1
62
256
6
ByLayer
370
-1
48
1
60
0
100
AcDbEllipse
10
198.278111
20
0.078629
30
0
11
-0.0352633964104881
21
0.801676776070632
31
0
210
0
220
0
230
-1
40
0.119316
41
-1.48288793456279
42
0.0879083922445209
0
ELLIPSE
5
114
100
AcDbEntity
8
1
62
256
6
ByLayer
370
-1
48
1
60
0
100
AcDbEllipse
10
194.258024
20
-3.779849
30
0
11
-1.75
21
1.76861834639414E-15
31
0
210
0
220
0
230
1
40
0.996917
41
-2.16229934241826
42
-0.979391409299722
0
ELLIPSE
5
115
100
AcDbEntity
8
1
62
256
6
ByLayer
370
-1
48
1
60
0
100
AcDbEllipse
10
194.258024
20
-3.779849
30
0
11
-1.75
21
1.76861834639414E-15
31
0
210
0
220
0
230
1
40
0.996917
41
0
42
3.14159237122107
0
ELLIPSE
5
116
100
AcDbEntity
8
1
62
256
6
ByLayer
370
-1
48
1
60
0
100
AcDbEllipse
10
194.621938
20
11.304261
30
0
11
2.34290668463255E-15
21
2
31
0
210
0
220
0
230
1
40
0.996195
41
0.0503637830432939
42
1.49510350031179
0
ELLIPSE
5
117
100
AcDbEntity
8
1
62
256
6
ByLayer
370
-1
48
1
60
0
100
AcDbEllipse
10
191.432607
20
11.100002
30
0
11
-9.24157569188429
21
-6.6409720890684
31
0
210
0
220
0
230
-1
40
0.482673
41
-1.09053444741778
42
-1.05075619738005
0
ELLIPSE
5
118
100
AcDbEntity
8
1
62
256
6
ByLayer
370
-1
48
1
60
0
100
AcDbEllipse
10
176.945995
20
9.455678
30
0
11
6.97481756359421
21
-2.94936829565724
31
0
210
0
220
0
230
1
40
0.034054
41
0.816392382491959
42
0.846662891226281
0
ELLIPSE
5
119
100
AcDbEntity
8
1
62
256
6
ByLayer
370
-1
48
1
60
0
100
AcDbEllipse
10
161.297905
20
16.005014
30
0
11
-27.6262792991388
21
13.3450998320582
31
0
210
0
220
0
230
-1
40
0.069503
41
-2.47799484256206
42
-2.23482419583196
0
ELLIPSE
5
11A
100
AcDbEntity
8
1
62
256
6
ByLayer
370
-1
48
1
60
0
100
AcDbEllipse
10
194.621938
20
11.304261
30
0
11
2.05004334905348E-15
21
1.75
31
0
210
0
220
0
230
1
40
0.996195
41
-2.292184809512
42
0
0
ELLIPSE
5
11B
100
AcDbEntity
8
1
62
256
6
ByLayer
370
-1
48
1
60
0
100
AcDbEllipse
10
194.621938
20
11.304261
30
0
11
2.05004334905348E-15
21
1.75
31
0
210
0
220
0
230
1
40
0.996195
41
0
42
1.57079639567442
0
ELLIPSE
5
11C
100
AcDbEntity
8
1
62
256
6
ByLayer
370
-1
48
1
60
0
100
AcDbEllipse
10
194.621938
20
11.304261
30
0
11
2.05004334905348E-15
21
1.75
31
0
210
0
220
0
230
1
40
0.996195
41
1.57079612015634
42
2.65012947763562
0
ELLIPSE
5
11D
100
AcDbEntity
8
1
62
256
6
ByLayer
370
-1
48
1
60
0
100
AcDbEllipse
10
199.792914
20
0
30
0
11
-1.31189801320658
21
-16.3991427925511
31
0
210
0
220
0
230
-1
40
0.127813
41
0.0506315653744245
42
1.09770055551471
0
ELLIPSE
5
11E
100
AcDbEntity
8
1
62
256
6
ByLayer
370
-1
48
1
60
0
100
AcDbEllipse
10
198.102834
20
-9.837392
30
0
11
-0.164294136096356
21
2.58278543482338
31
0
210
0
220
0
230
-1
40
0.113601
41
-0.521927622313915
42
0.675334043605539
0
ELLIPSE
5
11F
100
AcDbEntity
8
1
62
256
6
ByLayer
370
-1
48
1
60
0
100
AcDbEllipse
10
184.579429
20
5.939639
30
0
11
-13.1393869100544
21
-0.413341864803442
31
0
210
0
220
0
230
-1
40
0.01063
41
-1.89665820493813
42
-1.8874857817824
0
ELLIPSE
5
120
100
AcDbEntity
8
1
62
256
6
ByLayer
370
-1
48
1
60
0
100
AcDbEllipse
10
184.16042
20
0
30
0
11
-102.623427996094
21
1.32023000770795
31
0
210
0
220
0
230
-1
40
0.159289
41
-1.59052939248284
42
-1.51142132269502
0
ELLIPSE
5
121
100
AcDbEntity
8
1
62
256
6
ByLayer
370
-1
48
1
60
0
100
AcDbEllipse
10
80.931824
20
0
30
0
11
-291.668021721046
21
-15.8597932704644
31
0
210
0
220
0
230
-1
40
0.014313
41
-1.97768994019039
42
-1.94448265666507
0
ELLIPSE
5
122
100
AcDbEntity
8
1
62
256
6
ByLayer
370
-1
48
1
60
0
100
AcDbEllipse
10
189.520617
20
-9E-06
30
0
11
-187.452911139893
21
-2.12402835589301E-13
31
0
210
0
220
0
230
-1
40
0.087489
41
1.55101160439402
42
1.566250092776
0
ELLIPSE
5
123
100
AcDbEntity
8
1
62
256
6
ByLayer
370
-1
48
1
60
0
100
AcDbEllipse
10
194.258024
20
-3.324786
30
0
11
1.85
21
0
31
0
210
0
220
0
230
1
40
0.996917
41
0.0650897944148204
42
2.99305418223544
0
ELLIPSE
5
124
100
AcDbEntity
8
1
62
256
6
ByLayer
370
-1
48
1
60
0
100
AcDbEllipse
10
188.356109
20
18.428022
30
0
11
1.37060041051004E-14
21
11.7
31
0
210
0
220
0
230
1
40
0.996195
41
2.7401669256311
42
-3.11448573132148
0
ELLIPSE
5
125
100
AcDbEntity
8
1
62
256
6
ByLayer
370
-1
48
1
60
0
100
AcDbEllipse
10
187.411225
20
0
30
0
11
-80.8286987267458
21
-9.15869735079321E-14
31
0
210
0
220
0
230
-1
40
0.202898
41
1.50143664828315
42
1.55101159881607
0
ELLIPSE
5
126
100
AcDbEntity
8
1
62
256
6
ByLayer
370
-1
48
1
60
0
100
AcDbEllipse
10
189.188833
20
1E-06
30
0
11
-0.53100476942666
21
16.3999331657431
31
0
210
0
220
0
230
-1
40
0.087398
41
0.00737603323901439
42
0.0206825834053161
0
ELLIPSE
5
127
100
AcDbEntity
8
1
62
256
6
ByLayer
370
-1
48
1
60
0
100
AcDbEllipse
10
190.457527
20
10.399502
30
0
11
2.46005201886418E-15
21
2.1
31
0
210
0
220
0
230
1
40
0.996195
41
0.900501422405726
42
1.60570291183478
0
ELLIPSE
5
128
100
AcDbEntity
8
1
62
256
6
ByLayer
370
-1
48
1
60
0
100
AcDbEllipse
10
189.529054
20
7.605808
30
0
11
-0.799516360141551
21
-0.0278134835287917
31
0
210
0
220
0
230
1
40
0.003042
41
0.087213571465873
42
1.10059836684024
0
ELLIPSE
5
129
100
AcDbEntity
8
1
62
256
6
ByLayer
370
-1
48
1
60
0
100
AcDbEllipse
10
199.972393
20
0
30
0
11
-39.1617348312539
21
15.8833347480765
31
0
210
0
220
0
230
-1
40
0.104287
41
-1.13932231297831
42
-0.64879966210269
0
ELLIPSE
5
12A
100
AcDbEntity
8
1
62
256
6
ByLayer
370
-1
48
1
60
0
100
AcDbEllipse
10
190.553135
20
7.651177
30
0
11
2.46005201886418E-15
21
2.1
31
0
210
0
220
0
230
1
40
0.996195
41
1.60570291183478
42
2.02366955143476
0
ELLIPSE
5
12B
100
AcDbEntity
8
1
62
256
6
ByLayer
370
-1
48
1
60
0
100
AcDbEllipse
10
115.965499
20
25.124101
30
0
11
-69.8296403708148
21
13.8960242779778
31
0
210
0
220
0
230
-1
40
0.110941
41
3.11951914295763
42
-2.82945814843553
0
ELLIPSE
5
12C
100
AcDbEntity
8
1
62
256
6
ByLayer
370
-1
48
1
60
0
100
AcDbEllipse
10
190.823318
20
7.651177
30
0
11
-2.25092568282431E-15
21
-2.1
31
0
210
0
220
0
230
1
40
0.996195
41
-1.53588974175501
42
-0.126517127577411
0
ELLIPSE
5
12D
100
AcDbEntity
8
1
62
256
6
ByLayer
370
-1
48
1
60
0
100
AcDbEllipse
10
198.6913
20
-8.322501
30
0
11
-0.0758749591958924
21
-0.877321869249783
31
0
210
0
220
0
230
-1
40
0.116725
41
0.0197262659361627
42
1.59052259273498
0
ELLIPSE
5
12E
100
AcDbEntity
8
1
62
256
6
ByLayer
370
-1
48
1
60
0
100
AcDbEllipse
10
189.433446
20
10.354133
30
0
11
-0.799516360141551
21
-0.0278134835287917
31
0
210
0
220
0
230
1
40
0.003042
41
0.0872135714666033
42
1.10059836684057
0
ELLIPSE
5
12F
100
AcDbEntity
8
1
62
256
6
ByLayer
370
-1
48
1
60
0
100
AcDbEllipse
10
183.732226
20
7.658115
30
0
11
-0.313595748497236
21
-0.735973984950867
31
0
210
0
220
0
230
1
40
0.080227
41
0.0341712377320433
42
1.60496756452648
0
ELLIPSE
5
130
100
AcDbEntity
8
1
62
256
6
ByLayer
370
-1
48
1
60
0
100
AcDbEllipse
10
190.975714
20
7.651177
30
0
11
-1.83236116208154
21
-1.63166900511734
31
0
210
0
220
0
230
-1
40
0.721468
41
-1.34329611406181
42
-0.0510154422237265
0
ELLIPSE
5
131
100
AcDbEntity
8
1
62
256
6
ByLayer
370
-1
48
1
60
0
100
AcDbEllipse
10
194.258024
20
-3.324786
30
0
11
-1.425
21
1.44016065349237E-15
31
0
210
0
220
0
230
1
40
0.996917
41
0
42
6.28318530717959
0
ELLIPSE
5
132
100
AcDbEntity
8
1
62
256
6
ByLayer
370
-1
48
1
60
0
100
AcDbEllipse
10
194.900836
20
11.304261
30
0
11
2.05004334905348E-15
21
1.75
31
0
210
0
220
0
230
1
40
0.996195
41
0.080110774766543
42
1.57079669158491
0
ELLIPSE
5
133
100
AcDbEntity
8
1
62
256
6
ByLayer
370
-1
48
1
60
0
100
AcDbEllipse
10
194.900836
20
11.304261
30
0
11
2.05004334905348E-15
21
1.75
31
0
210
0
220
0
230
1
40
0.996195
41
1.57079612015634
42
2.96193274908737
0
ELLIPSE
5
134
100
AcDbEntity
8
1
62
256
6
ByLayer
370
-1
48
1
60
0
100
AcDbEllipse
10
198.61447
20
0
30
0
11
-1.02940758147612
21
16.3995501181361
31
0
210
0
220
0
230
-1
40
0.118004
41
-2.02626068111361
42
-1.5042353208074
0
ELLIPSE
5
135
100
AcDbEntity
8
1
62
256
6
ByLayer
370
-1
48
1
60
0
100
AcDbEllipse
10
190.599957
20
6.612478
30
0
11
-7.54473736663943
21
0.396885895946708
31
0
210
0
220
0
230
-1
40
0.000441
41
-3.13445622932709
42
-3.13321562174687
0
ELLIPSE
5
136
100
AcDbEntity
8
1
62
256
6
ByLayer
370
-1
48
1
60
0
100
AcDbEllipse
10
198.25275
20
7.010981
30
0
11
-0.0347229931298695
21
0.802881157853095
31
0
210
0
220
0
230
-1
40
0.118398
41
2.45188038426729
42
-3.13479692329981
0
ELLIPSE
5
137
100
AcDbEntity
8
1
62
256
6
ByLayer
370
-1
48
1
60
0
100
AcDbEllipse
10
189.607965
20
12.539487
30
0
11
-0.773306888287343
21
-0.824449240677101
31
0
210
0
220
0
230
-1
40
0.04503
41
-0.656797883442716
42
-0.592589705565577
0
ELLIPSE
5
138
100
AcDbEntity
8
1
62
256
6
ByLayer
370
-1
48
1
60
0
100
AcDbEllipse
10
190.72771
20
10.399502
30
0
11
-2.25092568282431E-15
21
-2.1
31
0
210
0
220
0
230
1
40
0.996195
41
-2.19211858706794
42
-1.53588974175501
0
ELLIPSE
5
139
100
AcDbEntity
8
1
62
256
6
ByLayer
370
-1
48
1
60
0
100
AcDbEllipse
10
186.23439
20
11.001885
30
0
11
-1.55656998686137
21
-7.7451333026619
31
0
210
0
220
0
230
1
40
0.195098
41
0.309511464282943
42
0.88804831989175
0
ELLIPSE
5
13A
100
AcDbEntity
8
1
62
256
6
ByLayer
370
-1
48
1
60
0
100
AcDbEllipse
10
188.286384
20
18.428022
30
0
11
-1.33983671596685E-14
21
-12.5
31
0
210
0
220
0
230
1
40
0.996195
41
-0.401425727958693
42
-6.8322920193673E-06
0
ELLIPSE
5
13B
100
AcDbEntity
8
1
62
256
6
ByLayer
370
-1
48
1
60
0
100
AcDbEllipse
10
194.258024
20
-3.366925
30
0
11
1.425
21
0
31
0
210
0
220
0
230
1
40
0.996917
41
0
42
3.14159265279081
0
ELLIPSE
5
13C
100
AcDbEntity
8
1
62
256
6
ByLayer
370
-1
48
1
60
0
100
AcDbEllipse
10
176.593607
20
8.727212
30
0
11
-6.58511540814924
21
2.87870177990439
31
0
210
0
220
0
230
1
40
0.267282
41
1.75475156130208
42
1.83848488913768
0
ELLIPSE
5
13D
100
AcDbEntity
8
1
62
256
6
ByLayer
370
-1
48
1
60
0
100
AcDbEllipse
10
197.743319
20
8.375916
30
0
11
3.51436002694883E-16
21
0.3
31
0
210
0
220
0
230
1
40
0.996195
41
-3.10668606854998
42
-1.53588974175502
0
ELLIPSE
5
13E
100
AcDbEntity
8
1
62
256
6
ByLayer
370
-1
48
1
60
0
100
AcDbEllipse
10
195.158267
20
8.185239
30
0
11
2.34290668463255E-16
21
0.2
31
0
210
0
220
0
230
1
40
0.996195
41
0.243340200047637
42
-3.10668606854993
0
ELLIPSE
5
13F
100
AcDbEntity
8
1
62
256
6
ByLayer
370
-1
48
1
60
0
100
AcDbEllipse
10
197.736317
20
8.076099
30
0
11
0.00700652876222752
21
-0.199877233707854
31
0
210
0
220
0
230
1
40
0.087103
41
0.883661794164364
42
1.56774302595899
0
ELLIPSE
5
140
100
AcDbEntity
8
1
62
256
6
ByLayer
370
-1
48
1
60
0
100
AcDbEllipse
10
191.630601
20
8.693277
30
0
11
-7.28871173485968E-16
21
-0.68
31
0
210
0
220
0
230
1
40
0.996195
41
0.920472169598946
42
3.03460218402552
0
ELLIPSE
5
141
100
AcDbEntity
8
1
62
256
6
ByLayer
370
-1
48
1
60
0
100
AcDbEllipse
10
195.09283
20
8.379346
30
0
11
0.0483624820755146
21
-0.194064603489394
31
0
210
0
220
0
230
1
40
0.084588
41
1.54971942607868
42
2.23380065787253
0
ELLIPSE
5
142
100
AcDbEntity
8
1
62
256
6
ByLayer
370
-1
48
1
60
0
100
AcDbEllipse
10
197.702125
20
12.425434
30
0
11
-2.14373874554696E-16
21
-0.2
31
0
210
0
220
0
230
1
40
0.996195
41
-1.32745612674723
42
1.60570291183482
0
ELLIPSE
5
143
100
AcDbEntity
8
1
62
256
6
ByLayer
370
-1
48
1
60
0
100
AcDbEllipse
10
191.234172
20
8.995999
30
0
11
1.3823149439332E-15
21
1.18
31
0
210
0
220
0
230
1
40
0.996195
41
-2.42145532631401
42
-2.22112048399089
0
ELLIPSE
5
144
100
AcDbEntity
8
1
62
256
6
ByLayer
370
-1
48
1
60
0
100
AcDbEllipse
10
197.883811
20
12.432414
30
0
11
0.199879090035388
21
0.00695337088219773
31
0
210
0
220
0
230
1
40
0.003042
41
-1.48358275532868
42
-0.799501523536256
0
ELLIPSE
5
145
100
AcDbEntity
8
1
62
256
6
ByLayer
370
-1
48
1
60
0
100
AcDbEllipse
10
191.223898
20
14.920237
30
0
11
-0.562912437629188
21
0.936794971740456
31
0
210
0
220
0
230
-1
40
0.020508
41
1.58311883846633
42
2.22661994677305
0
ELLIPSE
5
146
100
AcDbEntity
8
1
62
256
6
ByLayer
370
-1
48
1
60
0
100
AcDbEllipse
10
194.314244
20
11.582124
30
0
11
3.16169255543626E-15
21
2.69894876836046
31
0
210
0
220
0
230
1
40
0.996195
41
0
42
6.28318530717959
0
ELLIPSE
5
147
100
AcDbEntity
8
1
62
256
6
ByLayer
370
-1
48
1
60
0
100
AcDbEllipse
10
194.868336
20
14.832564
30
0
11
0.0346594459730841
21
0.19697391402122
31
0
210
0
220
0
230
1
40
0.085847
41
-2.23977313548017
42
-1.55569190368673
0
ELLIPSE
5
148
100
AcDbEntity
8
1
62
256
6
ByLayer
370
-1
48
1
60
0
100
AcDbEllipse
10
197.50825
20
15.02036
30
0
11
-4.57036789916095E-16
21
-0.426392246597646
31
0
210
0
220
0
230
1
40
0.996195
41
1.60570291183478
42
-3.10668606854992
0
ELLIPSE
5
149
100
AcDbEntity
8
1
62
256
6
ByLayer
370
-1
48
1
60
0
100
AcDbEllipse
10
190.761904
20
14.422916
30
0
11
0.205016422911347
21
0.219016589181358
31
0
210
0
220
0
230
1
40
0.063742
41
-2.15470096795563
42
-1.51119985916236
0
ELLIPSE
5
14A
100
AcDbEntity
8
1
62
256
6
ByLayer
370
-1
48
1
60
0
100
AcDbEllipse
10
197.752484
20
10.977823
30
0
11
2.34290668463255E-16
21
0.2
31
0
210
0
220
0
230
1
40
0.996195
41
-1.53588974175497
42
1.39726929682705
0
ELLIPSE
5
14B
100
AcDbEntity
8
1
62
256
6
ByLayer
370
-1
48
1
60
0
100
AcDbEllipse
10
197.93417
20
10.984802
30
0
11
0.199879090035388
21
0.00695337088219773
31
0
210
0
220
0
230
1
40
0.003042
41
-1.48358275532868
42
-0.799501523532591
0
ELLIPSE
5
14C
100
AcDbEntity
8
1
62
256
6
ByLayer
370
-1
48
1
60
0
100
AcDbEllipse
10
194.385535
20
11.582124
30
0
11
-2.71334196247261E-15
21
-2.53141103887668
31
0
210
0
220
0
230
1
40
0.996195
41
0
42
6.28318530717959
0
ELLIPSE
5
14D
100
AcDbEntity
8
1
62
256
6
ByLayer
370
-1
48
1
60
0
100
AcDbEllipse
10
190.761904
20
14.422916
30
0
11
0.0583126460802219
21
0.294278159752168
31
0
210
0
220
0
230
1
40
0.085506
41
-1.55385457642582
42
-0.910353467631967
0
ELLIPSE
5
14E
100
AcDbEntity
8
1
62
256
6
ByLayer
370
-1
48
1
60
0
100
AcDbEllipse
10
194.916245
20
15.029561
30
0
11
-3.49849852638746E-16
21
-0.326392246597646
31
0
210
0
220
0
230
1
40
0.996195
41
-3.10668606854987
42
-0.173527029967902
0
ELLIPSE
5
14F
100
AcDbEntity
8
1
62
256
6
ByLayer
370
-1
48
1
60
0
100
AcDbEllipse
10
191.630601
20
8.693277
30
0
11
-1.92936487099227E-16
21
-0.18
31
0
210
0
220
0
230
1
40
0.996195
41
-0.750491578357453
42
2.39110107523234
0
ELLIPSE
5
150
100
AcDbEntity
8
1
62
256
6
ByLayer
370
-1
48
1
60
0
100
AcDbEllipse
10
190.761904
20
14.422916
30
0
11
-0.970611798550709
21
0.497940611683095
31
0
210
0
220
0
230
-1
40
0.010943
41
1.59212368642749
42
2.23562479419411
0
ELLIPSE
5
151
100
AcDbEntity
8
1
62
256
6
ByLayer
370
-1
48
1
60
0
100
AcDbEllipse
10
194.314244
20
11.582124
30
0
11
3.71773340992403E-15
21
3.17360775340235
31
0
210
0
220
0
230
1
40
0.996195
41
-1.32745612674727
42
-0.173527029967835
0
ELLIPSE
5
152
100
AcDbEntity
8
1
62
256
6
ByLayer
370
-1
48
1
60
0
100
AcDbEllipse
10
191.391904
20
14.298078
30
0
11
0.289625964928695
21
0.0782099765958458
31
0
210
0
220
0
230
1
40
0.022802
41
-1.4865548367407
42
-0.843053727947779
0
ELLIPSE
5
153
100
AcDbEntity
8
1
62
256
6
ByLayer
370
-1
48
1
60
0
100
AcDbEllipse
10
194.895783
20
15.229439
30
0
11
0.00700652876222752
21
-0.199877233707854
31
0
210
0
220
0
230
1
40
0.087103
41
1.56774302595899
42
2.25182425775342
0
ELLIPSE
5
154
100
AcDbEntity
8
1
62
256
6
ByLayer
370
-1
48
1
60
0
100
AcDbEllipse
10
191.234172
20
8.995999
30
0
11
9.60591740699346E-16
21
0.82
31
0
210
0
220
0
230
1
40
0.996195
41
-2.42145532631408
42
-2.22112048399092
0
ELLIPSE
5
155
100
AcDbEntity
8
1
62
256
6
ByLayer
370
-1
48
1
60
0
100
AcDbEllipse
10
191.562661
20
8.620141
30
0
11
3.74865069541208E-16
21
0.32
31
0
210
0
220
0
230
1
40
0.996195
41
1.74759996643894
42
-2.4214553263141
0
ELLIPSE
5
156
100
AcDbEntity
8
1
62
256
6
ByLayer
370
-1
48
1
60
0
100
AcDbEllipse
10
192.046243
20
14.170038
30
0
11
-1.92936487099227E-16
21
-0.18
31
0
210
0
220
0
230
1
40
0.996195
41
-0.750491578357453
42
2.39110107523234
0
ELLIPSE
5
157
100
AcDbEntity
8
1
62
256
6
ByLayer
370
-1
48
1
60
0
100
AcDbEllipse
10
191.391904
20
14.298078
30
0
11
0.0583126460802219
21
0.294278159752168
31
0
210
0
220
0
230
1
40
0.085506
41
-2.19735568521961
42
-1.55385457642582
0
ELLIPSE
5
158
100
AcDbEntity
8
1
62
256
6
ByLayer
370
-1
48
1
60
0
100
AcDbEllipse
10
191.051411
20
8.532199
30
0
11
0.295357977434014
21
0.0525705731953551
31
0
210
0
220
0
230
1
40
0.015329
41
-2.12838464107792
42
-0.841382423492382
0
ELLIPSE
5
159
100
AcDbEntity
8
1
62
256
6
ByLayer
370
-1
48
1
60
0
100
AcDbEllipse
10
191.383655
20
8.889848
30
0
11
-0.219647545956867
21
0.204045230606613
31
0
210
0
220
0
230
1
40
0.05944
41
-1.63469437803403
42
-0.992087287820902
0
ELLIPSE
5
15A
100
AcDbEntity
8
1
62
256
6
ByLayer
370
-1
48
1
60
0
100
AcDbEllipse
10
192.025326
20
14.170038
30
0
11
0.205016422911347
21
0.219016589181358
31
0
210
0
220
0
230
1
40
0.063742
41
-2.15470096795639
42
-0.867698750368352
0
ELLIPSE
5
15B
100
AcDbEntity
8
1
62
256
6
ByLayer
370
-1
48
1
60
0
100
AcDbEllipse
10
191.244816
20
14.920237
30
0
11
2.1086160161693E-16
21
0.18
31
0
210
0
220
0
230
1
40
0.996195
41
-0.75049157835764
42
1.83550459668071
0
ELLIPSE
5
15C
100
AcDbEntity
8
1
62
256
6
ByLayer
370
-1
48
1
60
0
100
AcDbEllipse
10
191.391113
20
8.897876
30
0
11
-0.423200635975986
21
-0.0147783847117928
31
0
210
0
220
0
230
-1
40
0.002159
41
-2.27604469508573
42
-1.63254358719603
0
ELLIPSE
5
15D
100
AcDbEntity
8
1
62
256
6
ByLayer
370
-1
48
1
60
0
100
AcDbEllipse
10
194.920167
20
15.029561
30
0
11
-2.14373874554696E-16
21
-0.2
31
0
210
0
220
0
230
1
40
0.996195
41
-3.10668606854993
42
-0.173527029967643
0
ELLIPSE
5
15E
100
AcDbEntity
8
1
62
256
6
ByLayer
370
-1
48
1
60
0
100
AcDbEllipse
10
191.391113
20
8.897876
30
0
11
0.205016422911347
21
0.219016589181358
31
0
210
0
220
0
230
1
40
0.063742
41
-2.15470096795571
42
-1.5477987720853
0
ELLIPSE
5
15F
100
AcDbEntity
8
1
62
256
6
ByLayer
370
-1
48
1
60
0
100
AcDbEllipse
10
194.503863
20
11.582124
30
0
11
-2.14373874554696E-15
21
-2
31
0
210
0
220
0
230
1
40
0.996195
41
3.09653044246734
42
0
0
ELLIPSE
5
160
100
AcDbEntity
8
1
62
256
6
ByLayer
370
-1
48
1
60
0
100
AcDbEllipse
10
194.503863
20
11.582124
30
0
11
-2.14373874554696E-15
21
-2
31
0
210
0
220
0
230
1
40
0.996195
41
0
42
0.0531124184876182
0
ELLIPSE
5
161
100
AcDbEntity
8
1
62
256
6
ByLayer
370
-1
48
1
60
0
100
AcDbEllipse
10
191.662874
20
9.190418
30
0
11
0.219794734898745
21
-0.204181964215232
31
0
210
0
220
0
230
1
40
0.05944
41
1.50689827555568
42
2.15039938434904
0
ELLIPSE
5
162
100
AcDbEntity
8
1
62
256
6
ByLayer
370
-1
48
1
60
0
100
AcDbEllipse
10
197.739397
20
8.375916
30
0
11
-4.57036789916095E-16
21
-0.426392246597646
31
0
210
0
220
0
230
1
40
0.996195
41
0.0349065850398732
42
1.60570291183478
0
ELLIPSE
5
163
100
AcDbEntity
8
1
62
256
6
ByLayer
370
-1
48
1
60
0
100
AcDbEllipse
10
191.662874
20
9.190418
30
0
11
-0.0321569088447677
21
-0.29827157627496
31
0
210
0
220
0
230
1
40
0.086657
41
1.58013866027564
42
2.22363976906915
0
ELLIPSE
5
164
100
AcDbEntity
8
1
62
256
6
ByLayer
370
-1
48
1
60
0
100
AcDbEllipse
10
197.512172
20
15.02036
30
0
11
-3.21560811832045E-16
21
-0.3
31
0
210
0
220
0
230
1
40
0.996195
41
1.60570291183477
42
-3.10668606854988
0
ELLIPSE
5
165
100
AcDbEntity
8
1
62
256
6
ByLayer
370
-1
48
1
60
0
100
AcDbEllipse
10
197.748562
20
10.977823
30
0
11
-3.49849852638745E-16
21
-0.326392246597645
31
0
210
0
220
0
230
1
40
0.996195
41
1.60570291183482
42
-1.74432335676268
0
ELLIPSE
5
166
100
AcDbEntity
8
1
62
256
6
ByLayer
370
-1
48
1
60
0
100
AcDbEllipse
10
191.870233
20
8.244284
30
0
11
-0.198272361006454
21
0.225140113842306
31
0
210
0
220
0
230
1
40
0.065516
41
-2.2719312532157
42
-0.984929035631427
0
ELLIPSE
5
167
100
AcDbEntity
8
1
62
256
6
ByLayer
370
-1
48
1
60
0
100
AcDbEllipse
10
191.391904
20
14.298078
30
0
11
-0.415037230799056
21
0.387683428048265
31
0
210
0
220
0
230
-1
40
0.031444
41
0.960945087848227
42
1.60444619598542
0
ELLIPSE
5
168
100
AcDbEntity
8
1
62
256
6
ByLayer
370
-1
48
1
60
0
100
AcDbEllipse
10
191.412822
20
14.298078
30
0
11
-1.92936487099227E-16
21
-0.18
31
0
210
0
220
0
230
1
40
0.996195
41
-0.194895099806009
42
1.83550459668071
0
ELLIPSE
5
169
100
AcDbEntity
8
1
62
256
6
ByLayer
370
-1
48
1
60
0
100
AcDbEllipse
10
197.484311
20
15.320177
30
0
11
-0.00700652876222976
21
0.199877233707854
31
0
210
0
220
0
230
1
40
0.087103
41
-1.5738496276308
42
-0.889768395835263
0
ELLIPSE
5
16A
100
AcDbEntity
8
1
62
256
6
ByLayer
370
-1
48
1
60
0
100
AcDbEllipse
10
191.391114
20
8.897876
30
0
11
-0.0148060525871943
21
0.423993614864448
31
0
210
0
220
0
230
-1
40
0.06159
41
1.57294628118162
42
1.60954614550703
0
ELLIPSE
5
16B
100
AcDbEntity
8
1
62
256
6
ByLayer
370
-1
48
1
60
0
100
AcDbEllipse
10
197.793418
20
15.03083
30
0
11
0.199879090035388
21
0.00695337088219773
31
0
210
0
220
0
230
1
40
0.003042
41
-1.48358275532868
42
-0.799501523532692
0
ELLIPSE
5
16C
100
AcDbEntity
8
1
62
256
6
ByLayer
370
-1
48
1
60
0
100
AcDbEllipse
10
191.223898
20
14.920237
30
0
11
0.289625964928695
21
0.0782099765958458
31
0
210
0
220
0
230
1
40
0.022802
41
-2.13005594553328
42
-1.4865548367406
0
ELLIPSE
5
16D
100
AcDbEntity
8
1
62
256
6
ByLayer
370
-1
48
1
60
0
100
AcDbEllipse
10
194.314244
20
11.582124
30
0
11
3.71773340992403E-15
21
3.17360775340235
31
0
210
0
220
0
230
1
40
0.996195
41
-2.89825245354217
42
-1.74432335676275
0
ELLIPSE
5
16E
100
AcDbEntity
8
1
62
256
6
ByLayer
370
-1
48
1
60
0
100
AcDbEllipse
10
197.538806
20
11.012354
30
0
11
0.197018693541058
21
-0.0344039880736919
31
0
210
0
220
0
230
1
40
0.015048
41
1.4848339427607
42
2.16891517455459
0
ELLIPSE
5
16F
100
AcDbEntity
8
1
62
256
6
ByLayer
370
-1
48
1
60
0
100
AcDbEllipse
10
191.562661
20
8.620141
30
0
11
7.96588272775067E-16
21
0.68
31
0
210
0
220
0
230
1
40
0.996195
41
1.74759996643897
42
-2.42145532631398
0
ELLIPSE
5
170
100
AcDbEntity
8
1
62
256
6
ByLayer
370
-1
48
1
60
0
100
AcDbEllipse
10
191.41203
20
8.897876
30
0
11
2.1086160161693E-16
21
0.18
31
0
210
0
220
0
230
1
40
0.996195
41
0.88132718477912
42
2.39110107523214
0
ELLIPSE
5
171
100
AcDbEntity
8
1
62
256
6
ByLayer
370
-1
48
1
60
0
100
AcDbEllipse
10
198.024564
20
8.386386
30
0
11
0.199879090035388
21
0.00695337088219773
31
0
210
0
220
0
230
1
40
0.003042
41
-1.48358275532854
42
-0.799501523532489
0
ELLIPSE
5
172
100
AcDbEntity
8
1
62
256
6
ByLayer
370
-1
48
1
60
0
100
AcDbEllipse
10
192.006113
20
8.390554
30
0
11
-0.239099387447144
21
0.181194599595022
31
0
210
0
220
0
230
1
40
0.052768
41
-2.28381636720096
42
-0.996814149614476
0
ELLIPSE
5
173
100
AcDbEntity
8
1
62
256
6
ByLayer
370
-1
48
1
60
0
100
AcDbEllipse
10
191.563332
20
13.672718
30
0
11
0.205016422911347
21
0.219016589181358
31
0
210
0
220
0
230
1
40
0.063742
41
-2.15470096795639
42
-0.867698750367426
0
ELLIPSE
5
174
100
AcDbEntity
8
1
62
256
6
ByLayer
370
-1
48
1
60
0
100
AcDbEllipse
10
195.154345
20
8.185239
30
0
11
-3.49849852638746E-16
21
-0.326392246597646
31
0
210
0
220
0
230
1
40
0.996195
41
-2.89825245354211
42
0.0349065850398326
0
ELLIPSE
5
175
100
AcDbEntity
8
1
62
256
6
ByLayer
370
-1
48
1
60
0
100
AcDbEllipse
10
194.318166
20
11.582124
30
0
11
3.86579602964371E-15
21
3.3
31
0
210
0
220
0
230
1
40
0.996195
41
-1.32745612674727
42
-0.173527029967853
0
ELLIPSE
5
176
100
AcDbEntity
8
1
62
256
6
ByLayer
370
-1
48
1
60
0
100
AcDbEllipse
10
191.584249
20
13.672718
30
0
11
-1.92936487099227E-16
21
-0.18
31
0
210
0
220
0
230
1
40
0.996195
41
-0.750491578357633
42
2.39110107523234
0
ELLIPSE
5
177
100
AcDbEntity
8
1
62
256
6
ByLayer
370
-1
48
1
60
0
100
AcDbEllipse
10
194.358993
20
11.582124
30
0
11
-2.85443725674398E-15
21
-2.66304582372577
31
0
210
0
220
0
230
1
40
0.996195
41
2.21550992406688
42
0
0
ELLIPSE
5
178
100
AcDbEntity
8
1
62
256
6
ByLayer
370
-1
48
1
60
0
100
AcDbEllipse
10
194.358993
20
11.582124
30
0
11
-2.85443725674398E-15
21
-2.66304582372577
31
0
210
0
220
0
230
1
40
0.996195
41
0
42
0.926082659473383
0
ELLIPSE
5
179
100
AcDbEntity
8
1
62
256
6
ByLayer
370
-1
48
1
60
0
100
AcDbEllipse
10
194.623647
20
11.582124
30
0
11
2.34290668463255E-15
21
2
31
0
210
0
220
0
230
1
40
0.996195
41
0.0301394508327532
42
1.57079604872776
0
ELLIPSE
5
17A
100
AcDbEntity
8
1
62
256
6
ByLayer
370
-1
48
1
60
0
100
AcDbEllipse
10
194.623647
20
11.582124
30
0
11
2.34290668463255E-15
21
2
31
0
210
0
220
0
230
1
40
0.996195
41
1.57079654872776
42
3.11145314640854
0
ELLIPSE
5
17B
100
AcDbEntity
8
1
62
256
6
ByLayer
370
-1
48
1
60
0
100
AcDbEllipse
10
191.683791
20
9.190418
30
0
11
2.1086160161693E-16
21
0.18
31
0
210
0
220
0
230
1
40
0.996195
41
-0.10699046956433
42
0.82030474843457
0
ELLIPSE
5
17C
100
AcDbEntity
8
1
62
256
6
ByLayer
370
-1
48
1
60
0
100
AcDbEllipse
10
194.318166
20
11.582124
30
0
11
-3.53716893015249E-15
21
-3.3
31
0
210
0
220
0
230
1
40
0.996195
41
0.243340200047641
42
1.39726929682705
0
ELLIPSE
5
17D
100
AcDbEntity
8
1
62
256
6
ByLayer
370
-1
48
1
60
0
100
AcDbEllipse
10
191.072328
20
8.532199
30
0
11
2.1086160161693E-16
21
0.18
31
0
210
0
220
0
230
1
40
0.996195
41
-1.39399268715079
42
1.74759996643885
0
ELLIPSE
5
17E
100
AcDbEntity
8
1
62
256
6
ByLayer
370
-1
48
1
60
0
100
AcDbEllipse
10
191.223898
20
14.920237
30
0
11
0.205016422911347
21
0.219016589181358
31
0
210
0
220
0
230
1
40
0.063742
41
-1.51119985916236
42
-0.867698750369351
0
ELLIPSE
5
17F
100
AcDbEntity
8
1
62
256
6
ByLayer
370
-1
48
1
60
0
100
AcDbEllipse
10
195.147789
20
7.985361
30
0
11
-0.00700652876222976
21
0.199877233707854
31
0
210
0
220
0
230
1
40
0.087103
41
-2.25793085942654
42
-1.5738496276308
0
ELLIPSE
5
180
100
AcDbEntity
8
1
62
256
6
ByLayer
370
-1
48
1
60
0
100
AcDbEllipse
10
197.491324
20
12.377245
30
0
11
0.194150530809913
21
0.0480163658165525
31
0
210
0
220
0
230
1
40
0.021
41
-2.1701696236394
42
-1.48608839184227
0
ELLIPSE
5
181
100
AcDbEntity
8
1
62
256
6
ByLayer
370
-1
48
1
60
0
100
AcDbEllipse
10
191.630601
20
8.693277
30
0
11
-3.42998199287514E-16
21
-0.32
31
0
210
0
220
0
230
1
40
0.996195
41
0.920472169598925
42
2.77549784972782
0
ELLIPSE
5
182
100
AcDbEntity
8
1
62
256
6
ByLayer
370
-1
48
1
60
0
100
AcDbEllipse
10
190.782821
20
14.422916
30
0
11
2.1086160161693E-16
21
0.18
31
0
210
0
220
0
230
1
40
0.996195
41
-0.194895099806009
42
2.39110107523214
0
ELLIPSE
5
183
100
AcDbEntity
8
1
62
256
6
ByLayer
370
-1
48
1
60
0
100
AcDbEllipse
10
197.698203
20
12.425434
30
0
11
-3.49849852638745E-16
21
-0.326392246597645
31
0
210
0
220
0
230
1
40
0.996195
41
-1.32745612674725
42
1.60570291183482
0
ELLIPSE
5
184
100
AcDbEntity
8
1
62
256
6
ByLayer
370
-1
48
1
60
0
100
AcDbEllipse
10
191.609684
20
8.693277
30
0
11
-0.205016422911347
21
-0.219016589181358
31
0
210
0
220
0
230
1
40
0.063742
41
0.986891685633278
42
2.27389390322044
0
ELLIPSE
5
185
100
AcDbEntity
8
1
62
256
6
ByLayer
370
-1
48
1
60
0
100
AcDbEllipse
10
191.383655
20
8.889848
30
0
11
0.219794734898745
21
-0.204181964215232
31
0
210
0
220
0
230
1
40
0.05944
41
1.47029936263312
42
2.15039938434925
0
ELLIPSE
5
186
100
AcDbEntity
8
1
62
256
6
ByLayer
370
-1
48
1
60
0
100
AcDbEllipse
10
194.501839
20
-4.22495
30
0
11
1.85
21
0
31
0
210
0
220
0
230
1
40
0.996917
41
1.00000812310147
42
2.69116671023331
0
ELLIPSE
5
187
100
AcDbEntity
8
1
62
256
6
ByLayer
370
-1
48
1
60
0
100
AcDbEllipse
10
194.501839
20
-4.22495
30
0
11
1.85
21
0
31
0
210
0
220
0
230
1
40
0.996917
41
3.14159250218891
42
-9.63162315581237E-16
0
ELLIPSE
5
188
100
AcDbEntity
8
1
62
256
6
ByLayer
370
-1
48
1
60
0
100
AcDbEllipse
10
202.094049
20
-4.145114
30
0
11
2.49999999999999
21
0
31
0
210
0
220
0
230
1
40
0.996917
41
-3.08923277602998
42
-2.7131143222252
0
ELLIPSE
5
189
100
AcDbEntity
8
1
62
256
6
ByLayer
370
-1
48
1
60
0
100
AcDbEllipse
10
199.323221
20
-8.249633
30
0
11
0.600000000000008
21
0
31
0
210
0
220
0
230
1
40
0.996917
41
-1.22173047639606
42
-0.0349065850399275
0
ELLIPSE
5
18A
100
AcDbEntity
8
1
62
256
6
ByLayer
370
-1
48
1
60
0
100
AcDbEllipse
10
198.935823
20
-1.213622
30
0
11
0.500000000000016
21
0
31
0
210
0
220
0
230
1
40
0.996917
41
0.0523598775598126
42
0.349065850398896
0
ELLIPSE
5
18B
100
AcDbEntity
8
1
62
256
6
ByLayer
370
-1
48
1
60
0
100
AcDbEllipse
10
199.054641
20
-5.763275
30
0
11
-0.399754822918103
21
0.0140029123298233
31
0
210
0
220
0
230
1
40
0.078411
41
0.404138957588344
42
1.57354296984573
0
ELLIPSE
5
18C
100
AcDbEntity
8
1
62
256
6
ByLayer
370
-1
48
1
60
0
100
AcDbEllipse
10
198.506389
20
-1.24972
30
0
11
-0.399448425479732
21
-0.0209989376341773
31
0
210
0
220
0
230
1
40
0.078352
41
0.880076073024461
42
1.56667742100343
0
ELLIPSE
5
18D
100
AcDbEntity
8
1
62
256
6
ByLayer
370
-1
48
1
60
0
100
AcDbEllipse
10
198.568945
20
0.333344
30
0
11
-0.241585343748204
21
-0.064315796551563
31
0
210
0
220
0
230
1
40
0.712515
41
-3.00598446452723
42
-2.63290418961798
0
ELLIPSE
5
18E
100
AcDbEntity
8
1
62
256
6
ByLayer
370
-1
48
1
60
0
100
AcDbEllipse
10
198.549743
20
0.407773
30
0
11
-0.242540291082331
21
-0.0606152390220314
31
0
210
0
220
0
230
1
40
0.761547
41
-2.99470228882069
42
-2.59094140311054
0
ELLIPSE
5
18F
100
AcDbEntity
8
1
62
256
6
ByLayer
370
-1
48
1
60
0
100
AcDbEllipse
10
198.000853
20
-5.757973
30
0
11
-1.05443087819422
21
1.06564902638787E-15
31
0
210
0
220
0
230
1
40
0.996917
41
3.10668606854989
42
-2.71311432222522
0
ELLIPSE
5
190
100
AcDbEntity
8
1
62
256
6
ByLayer
370
-1
48
1
60
0
100
AcDbEllipse
10
199.01442
20
-6.911501
30
0
11
-0.399754822918103
21
0.0140029123298233
31
0
210
0
220
0
230
1
40
0.078411
41
0.399510550725928
42
1.57354296984573
0
ELLIPSE
5
191
100
AcDbEntity
8
1
62
256
6
ByLayer
370
-1
48
1
60
0
100
AcDbEllipse
10
199.290795
20
-8.495418
30
0
11
0.0432004336906811
21
-0.246239157180447
31
0
210
0
220
0
230
1
40
0.669257
41
0.26509038060939
42
0.638170655518771
0
ELLIPSE
5
192
100
AcDbEntity
8
1
62
256
6
ByLayer
370
-1
48
1
60
0
100
AcDbEllipse
10
198.959962
20
-5.289838
30
0
11
-0.363645250704355
21
-0.166619721642329
31
0
210
0
220
0
230
1
40
0.071366
41
0.369700957193364
42
1.53810842421461
0
ELLIPSE
5
193
100
AcDbEntity
8
1
62
256
6
ByLayer
370
-1
48
1
60
0
100
AcDbEllipse
10
197.810888
20
-1.317441
30
0
11
-0.896455297444665
21
9.05992734733055E-16
31
0
210
0
220
0
230
1
40
0.996917
41
-3.08923277602998
42
-2.52803529712437
0
ELLIPSE
5
194
100
AcDbEntity
8
1
62
256
6
ByLayer
370
-1
48
1
60
0
100
AcDbEllipse
10
199.510406
20
-5.909737
30
0
11
0.249846764323814
21
-0.00875182020613914
31
0
210
0
220
0
230
1
40
0.078411
41
0.124919690690692
42
0.397537762750909
0
ELLIPSE
5
195
100
AcDbEntity
8
1
62
256
6
ByLayer
370
-1
48
1
60
0
100
AcDbEllipse
10
198.318389
20
-6.918654
30
0
11
-0.896455297444665
21
9.05992734733055E-16
31
0
210
0
220
0
230
1
40
0.996917
41
2.18435368326036
42
3.10668606854987
0
ELLIPSE
5
196
100
AcDbEntity
8
1
62
256
6
ByLayer
370
-1
48
1
60
0
100
AcDbEllipse
10
199.470185
20
-7.057963
30
0
11
0.249846764323814
21
-0.00875182020613914
31
0
210
0
220
0
230
1
40
0.078411
41
0.124919690690377
42
0.397537762750531
0
ELLIPSE
5
197
100
AcDbEntity
8
1
62
256
6
ByLayer
370
-1
48
1
60
0
100
AcDbEllipse
10
199.108619
20
-4.149234
30
0
11
-0.249655265924832
21
-0.0131243360213609
31
0
210
0
220
0
230
1
40
0.078352
41
-3.02353851174146
42
-2.75092043968116
0
ELLIPSE
5
198
100
AcDbEntity
8
1
62
256
6
ByLayer
370
-1
48
1
60
0
100
AcDbEllipse
10
198.948616
20
-1.031157
30
0
11
-0.234454021446281
21
-0.0867831310086623
31
0
210
0
220
0
230
1
40
0.027193
41
-3.0465554714215
42
-2.77361989222603
0
ELLIPSE
5
199
100
AcDbEntity
8
1
62
256
6
ByLayer
370
-1
48
1
60
0
100
AcDbEllipse
10
198.456447
20
-5.763409
30
0
11
-0.249839920458225
21
0.00894506262849887
31
0
210
0
220
0
230
1
40
0.080208
41
-2.73739278382478
42
-2.47534597799438
0
ELLIPSE
5
19A
100
AcDbEntity
8
1
62
256
6
ByLayer
370
-1
48
1
60
0
100
AcDbEllipse
10
194.501839
20
-4.308562
30
0
11
1.84999999999999
21
0
31
0
210
0
220
0
230
1
40
0.996917
41
0.959265903791257
42
2.68311695347683
0
ELLIPSE
5
19B
100
AcDbEntity
8
1
62
256
6
ByLayer
370
-1
48
1
60
0
100
AcDbEllipse
10
194.501839
20
-4.308562
30
0
11
1.84999999999999
21
0
31
0
210
0
220
0
230
1
40
0.996917
41
3.14159250218891
42
-9.63162315581237E-16
0
ELLIPSE
5
19C
100
AcDbEntity
8
1
62
256
6
ByLayer
370
-1
48
1
60
0
100
AcDbEllipse
10
198.415946
20
-5.55754
30
0
11
-0.227432215822095
21
-0.103800709083571
31
0
210
0
220
0
230
1
40
0.075166
41
-2.77178321992542
42
-2.50771186388074
0
ELLIPSE
5
19D
100
AcDbEntity
8
1
62
256
6
ByLayer
370
-1
48
1
60
0
100
AcDbEllipse
10
198.000853
20
-5.849641
30
0
11
-1.74124245780115
21
1.75976763222145E-15
31
0
210
0
220
0
230
1
40
0.996917
41
3.10668606854989
42
-2.71311432222523
0
ELLIPSE
5
19E
100
AcDbEntity
8
1
62
256
6
ByLayer
370
-1
48
1
60
0
100
AcDbEllipse
10
198.846942
20
-0.71088
30
0
11
-0.241585343748204
21
-0.064315796551563
31
0
210
0
220
0
230
1
40
0.712515
41
-3.00598446452723
42
-2.63290418961786
0
ELLIPSE
5
19F
100
AcDbEntity
8
1
62
256
6
ByLayer
370
-1
48
1
60
0
100
AcDbEllipse
10
198.380313
20
-0.886289
30
0
11
-0.326706713457046
21
-0.230787182014289
31
0
210
0
220
0
230
1
40
0.064149
41
1.07802227692935
42
1.52551246764148
0
ELLIPSE
5
1A0
100
AcDbEntity
8
1
62
256
6
ByLayer
370
-1
48
1
60
0
100
AcDbEllipse
10
197.810888
20
-1.317441
30
0
11
-0.696455297444664
21
7.03864923716581E-16
31
0
210
0
220
0
230
1
40
0.996917
41
-3.08923277602998
42
-2.52803529712435
0
ELLIPSE
5
1A1
100
AcDbEntity
8
1
62
256
6
ByLayer
370
-1
48
1
60
0
100
AcDbEllipse
10
198.961806
20
-1.356522
30
0
11
-0.249655265924832
21
-0.0131243360213609
31
0
210
0
220
0
230
1
40
0.078352
41
-3.02353851174169
42
-2.75092043968153
0
ELLIPSE
5
1A2
100
AcDbEntity
8
1
62
256
6
ByLayer
370
-1
48
1
60
0
100
AcDbEllipse
10
198.719394
20
-7.45494
30
0
11
-0.229836513457029
21
0.327376201153837
31
0
210
0
220
0
230
1
40
0.045175
41
0.913887430507244
42
1.63505464126209
0
ELLIPSE
5
1A3
100
AcDbEntity
8
1
62
256
6
ByLayer
370
-1
48
1
60
0
100
AcDbEllipse
10
194.501839
20
-4.217104
30
0
11
2.12320508075689
21
0
31
0
210
0
220
0
230
1
40
0.996917
41
1.428933618715
42
2.37170580569294
0
ELLIPSE
5
1A4
100
AcDbEntity
8
1
62
256
6
ByLayer
370
-1
48
1
60
0
100
AcDbEllipse
10
194.501839
20
-4.217104
30
0
11
2.12320508075689
21
0
31
0
210
0
220
0
230
1
40
0.996917
41
-3.14159247351699
42
-4.19613324208437E-16
0
ELLIPSE
5
1A5
100
AcDbEntity
8
1
62
256
6
ByLayer
370
-1
48
1
60
0
100
AcDbEllipse
10
198.000853
20
-5.757973
30
0
11
-1.25443087819422
21
1.26777683740435E-15
31
0
210
0
220
0
230
1
40
0.996917
41
3.1066860685499
42
-2.71311432222523
0
ELLIPSE
5
1A6
100
AcDbEntity
8
1
62
256
6
ByLayer
370
-1
48
1
60
0
100
AcDbEllipse
10
199.371604
20
-8.482405
30
0
11
0.0363711465671893
21
-0.247340129573403
31
0
210
0
220
0
230
1
40
0.720007
41
0.284335973024407
42
0.688096858734588
0
ELLIPSE
5
1A7
100
AcDbEntity
8
1
62
256
6
ByLayer
370
-1
48
1
60
0
100
AcDbEllipse
10
202.094049
20
-3.990866
30
0
11
-2.74139023505778
21
2.77055603677081E-15
31
0
210
0
220
0
230
1
40
0.996917
41
0.0523598775598124
42
0.428478331364588
0
ELLIPSE
5
1A8
100
AcDbEntity
8
1
62
256
6
ByLayer
370
-1
48
1
60
0
100
AcDbEllipse
10
198.41528
20
-6.910351
30
0
11
-0.249835675824239
21
0.00906284091473327
31
0
210
0
220
0
230
1
40
0.081341
41
-2.7419826672546
42
-2.48931484787455
0
ELLIPSE
5
1A9
100
AcDbEntity
8
1
62
256
6
ByLayer
370
-1
48
1
60
0
100
AcDbEllipse
10
198.653201
20
-4.042432
30
0
11
-0.399448425479732
21
-0.0209989376341773
31
0
210
0
220
0
230
1
40
0.078352
41
0.880079309676624
42
1.56667742100336
0
ELLIPSE
5
1AA
100
AcDbEntity
8
1
62
256
6
ByLayer
370
-1
48
1
60
0
100
AcDbEllipse
10
199.573215
20
-8.124071
30
0
11
0.246409232850244
21
0.0422195448359407
31
0
210
0
220
0
230
1
40
0.839785
41
-0.911561679338899
42
-0.230828556933861
0
ELLIPSE
5
1AB
100
AcDbEntity
8
1
62
256
6
ByLayer
370
-1
48
1
60
0
100
AcDbEllipse
10
198.271382
20
0.314809
30
0
11
0.600000000000008
21
0
31
0
210
0
220
0
230
1
40
0.996917
41
0.349065850398889
42
1.53588974175507
0
ELLIPSE
5
1AC
100
AcDbEntity
8
1
62
256
6
ByLayer
370
-1
48
1
60
0
100
AcDbEllipse
10
202.094049
20
-3.985712
30
0
11
2.75875754219888
21
0
31
0
210
0
220
0
230
1
40
0.996917
41
-3.08923277602996
42
-2.71311432222518
0
ELLIPSE
5
1AD
100
AcDbEntity
8
1
62
256
6
ByLayer
370
-1
48
1
60
0
100
AcDbEllipse
10
202.094049
20
-3.894045
30
0
11
3.2455691218058
21
0
31
0
210
0
220
0
230
1
40
0.996917
41
-3.08923277602997
42
-2.71311432222519
0
ELLIPSE
5
1AE
100
AcDbEntity
8
1
62
256
6
ByLayer
370
-1
48
1
60
0
100
AcDbEllipse
10
198.000853
20
-6.009043
30
0
11
2.00000000000001
21
0
31
0
210
0
220
0
230
1
40
0.996917
41
-0.0349065850399038
42
0.428478331364595
0
ELLIPSE
5
1AF
100
AcDbEntity
8
1
62
256
6
ByLayer
370
-1
48
1
60
0
100
AcDbEllipse
10
194.501839
20
-4.22495
30
0
11
1.95
21
0
31
0
210
0
220
0
230
1
40
0.996917
41
1.1050552288244
42
2.58867226185453
0
ELLIPSE
5
1B0
100
AcDbEntity
8
1
62
256
6
ByLayer
370
-1
48
1
60
0
100
AcDbEllipse
10
194.501839
20
-4.22495
30
0
11
1.95
21
0
31
0
210
0
220
0
230
1
40
0.996917
41
3.14159262731475
42
-9.13769376320664E-16
0
ELLIPSE
5
1B1
100
AcDbEntity
8
1
62
256
6
ByLayer
370
-1
48
1
60
0
100
AcDbEllipse
10
198.000853
20
-5.854795
30
0
11
1.75860976494223
21
0
31
0
210
0
220
0
230
1
40
0.996917
41
-0.0349065850399062
42
0.428478331364584
0
ELLIPSE
5
1B2
100
AcDbEntity
8
1
62
256
6
ByLayer
370
-1
48
1
60
0
100
AcDbEllipse
10
198.209805
20
0.628206
30
0
11
0.0119760211135177
21
-0.24971298508145
31
0
210
0
220
0
230
1
40
0.883664
41
2.36744260648608
42
2.74193021083903
0
ELLIPSE
5
1B3
100
AcDbEntity
8
1
62
256
6
ByLayer
370
-1
48
1
60
0
100
AcDbEllipse
10
199.374778
20
-5.231537
30
0
11
0.22727828169021
21
0.104137326026482
31
0
210
0
220
0
230
1
40
0.071366
41
0.0894851450605039
42
0.362103217120803
0
ELLIPSE
5
1B4
100
AcDbEntity
8
1
62
256
6
ByLayer
370
-1
48
1
60
0
100
AcDbEllipse
10
202.094049
20
-3.894045
30
0
11
3.4455691218058
21
0
31
0
210
0
220
0
230
1
40
0.996917
41
-3.08923277602997
42
-2.7131143222252
0
ELLIPSE
5
1B5
100
AcDbEntity
8
1
62
256
6
ByLayer
370
-1
48
1
60
0
100
AcDbEllipse
10
198.318389
20
-6.918654
30
0
11
-0.696455297444665
21
7.03864923716582E-16
31
0
210
0
220
0
230
1
40
0.996917
41
2.18435368326032
42
3.10668606854991
0
ELLIPSE
5
1B6
100
AcDbEntity
8
1
62
256
6
ByLayer
370
-1
48
1
60
0
100
AcDbEllipse
10
198.960252
20
-1.102475
30
0
11
-0.249792330731525
21
0.0101878117234406
31
0
210
0
220
0
230
1
40
0.654659
41
-2.98563065367406
42
-2.63943789973045
0
POINT
5
41
100
AcDbEntity
8
81
62
256
6
ByLayer
370
-1
48
1
60
0
100
AcDbPoint
10
200
20
0
30
0
39
0
210
0
220
0
230
1
50
360
0
POINT
5
43
100
AcDbEntity
8
80
62
256
6
ByLayer
370
-1
48
1
60
0
100
AcDbPoint
10
0
20
0
30
0
39
0
210
0
220
0
230
1
50
360
0
SPLINE
5
1B7
100
AcDbEntity
8
1
62
256
6
ByLayer
370
-1
48
1
60
0
100
AcDbSpline
70
4
71
3
72
13
73
9
40
0
40
0
40
0
40
0
40
0.0623142054535258
40
0.270988402640367
40
0.478837529350007
40
0.685831122768672
40
0.892097189968854
40
1
40
1
40
1
40
1
41
1
10
192.849871065503
20
-3.48344515959022
30
0
41
1
10
192.867776090752
20
-3.44785426922769
30
0
41
1
10
192.950635435071
20
-3.29556640345106
30
0
41
1
10
193.137298650085
20
-3.04802765622418
30
0
41
1
10
193.44489448267
20
-2.78470678105794
30
0
41
1
10
193.802246542438
20
-2.59399238575406
30
0
41
1
10
194.131416384922
20
-2.50181822264787
30
0
41
1
10
194.334023167739
20
-2.47978104657849
30
0
41
1
10
194.404535002809
20
-2.47605348784319
30
0
0
SPLINE
5
1B8
100
AcDbEntity
8
1
62
256
6
ByLayer
370
-1
48
1
60
0
100
AcDbSpline
70
4
71
3
72
11
73
7
40
0
40
0
40
0
40
0
40
0.107379331564783
40
0.434344451176635
40
0.762037063563271
40
1
40
1
40
1
40
1
41
1
10
194.404535002809
20
-2.47605348784319
30
0
41
1
10
194.44844747354
20
-2.47376776017938
30
0
41
1
10
194.625469232643
20
-2.47073889017557
30
0
41
1
10
194.937042253515
20
-2.51009851934751
30
0
41
1
10
195.282102337013
20
-2.632793102151
30
0
41
1
10
195.48160445975
20
-2.74903973710798
30
0
41
1
10
195.561067571586
20
-2.80407594162389
30
0
0
SPLINE
5
1B9
100
AcDbEntity
8
1
62
256
6
ByLayer
370
-1
48
1
60
0
100
AcDbSpline
70
4
71
3
72
22
73
18
40
0
40
0
40
0
40
0
40
0.0685258051363303
40
0.137844346448237
40
0.207070023626662
40
0.276154960780625
40
0.34507847705991
40
0.413848577453287
40
0.482498515129197
40
0.551079961994379
40
0.619649795037274
40
0.688255079381961
40
0.756953914136126
40
0.825790465221921
40
0.89478712609834
40
0.963939122780613
40
1
40
1
40
1
40
1
41
1
10
194.592990076905
20
13.5796573845357
30
0
41
1
10
194.732217543388
20
13.5732821067603
30
0
41
1
10
195.004310276108
20
13.5326491521486
30
0
41
1
10
195.396918910158
20
13.3848203269
30
0
41
1
10
195.750350186954
20
13.1574336921316
30
0
41
1
10
196.049174376693
20
12.8606283953815
30
0
41
1
10
196.279743858188
20
12.5078020039573
30
0
41
1
10
196.432161358772
20
12.1145983493479
30
0
41
1
10
196.499897032735
20
11.6983928635807
30
0
41
1
10
196.480210200421
20
11.2774285386882
30
0
41
1
10
196.37415231205
20
10.8700930593806
30
0
41
1
10
196.186489773745
20
10.4939889639526
30
0
41
1
10
195.925441689434
20
10.1656435891695
30
0
41
1
10
195.602266169146
20
9.89824071176974
30
0
41
1
10
195.230910301567
20
9.70722190962877
30
0
41
1
10
194.891859982612
20
9.60618957930316
30
0
41
1
10
194.681911590089
20
9.59497660167662
30
0
41
1
10
194.609018388948
20
9.59594392843962
30
0
0
SPLINE
5
1BA
100
AcDbEntity
8
1
62
256
6
ByLayer
370
-1
48
1
60
0
100
AcDbSpline
70
4
71
3
72
18
73
14
40
0
40
0
40
0
40
0
40
0.0795085498554718
40
0.160424477704686
40
0.241874927022751
40
0.322952024065627
40
0.40277242488679
40
0.482742143434661
40
0.562333436105175
40
0.671203773293258
40
0.780107199192463
40
0.889567569143933
40
1
40
1
40
1
40
1
41
1
10
25
20
16.73
30
0
41
1
10
24.4102299867115
20
16.7304617544123
30
0
41
1
10
23.2349121642356
20
16.8164781394553
30
0
41
1
10
21.4891010530307
20
17.2078980703367
30
0
41
1
10
19.8144953342912
20
17.8596835668668
30
0
41
1
10
18.2576133541567
20
18.7454681719864
30
0
41
1
10
16.8736268121979
20
19.8609872109843
30
0
41
1
10
15.6157429295765
20
21.0976394481916
30
0
41
1
10
14.0014422883936
20
22.2474440787834
30
0
41
1
10
12.0764069571753
20
23.302003358467
30
0
41
1
10
9.80766873250926
20
24.1333720376719
30
0
41
1
10
7.43035989747946
20
24.6379274665358
30
0
41
1
10
5.81862462146879
20
24.7502028692068
30
0
41
1
10
5.00000000000003
20
24.75
30
0
0
SPLINE
5
1BB
100
AcDbEntity
8
1
62
256
6
ByLayer
370
-1
48
1
60
0
100
AcDbSpline
70
4
71
3
72
19
73
15
40
0
40
0
40
0
40
0
40
0.0937797121799694
40
0.186817542891252
40
0.279357584509221
40
0.371687237561089
40
0.464173445341494
40
0.557296388524285
40
0.630279416264471
40
0.703976423377569
40
0.778488270351402
40
0.853123239703175
40
0.927182773892119
40
1
40
1
40
1
40
1
41
1
10
4.99999999999997
20
-24.75
30
0
41
1
10
5.69384178057962
20
-24.7501608894394
30
0
41
1
10
7.06483034599728
20
-24.6691129719572
30
0
41
1
10
9.09521564504908
20
-24.3055306220616
30
0
41
1
10
11.0549700412221
20
-23.7043105189576
30
0
41
1
10
12.9231430507123
20
-22.868998595115
30
0
41
1
10
14.6775047598235
20
-21.8057276754095
30
0
41
1
10
16.1633206588753
20
-20.6087491939384
30
0
41
1
10
17.4204106448925
20
-19.3656768321543
30
0
41
1
10
18.7661035522774
20
-18.4360376055897
30
0
41
1
10
20.225461477896
20
-17.6788074395093
30
0
41
1
10
21.7796992491114
20
-17.1313232881916
30
0
41
1
10
23.3834103646863
20
-16.8024306256771
30
0
41
1
10
24.460476674654
20
-16.7303249447178
30
0
41
1
10
25
20
-16.73
30
0
0
SPLINE
5
1BC
100
AcDbEntity
8
1
62
256
6
ByLayer
370
-1
48
1
60
0
100
AcDbSpline
70
4
71
3
72
8
73
4
40
0
40
0
40
0
40
0
40
1
40
1
40
1
40
1
41
1
10
25
20
-13.0055906335419
30
0
41
1
10
24.4271216391471
20
-12.9348460321963
30
0
41
1
10
23.8537814695204
20
-12.907681434551
30
0
41
1
10
23.2804463812088
20
-12.9247353937714
30
0
0
SPLINE
5
1BD
100
AcDbEntity
8
1
62
256
6
ByLayer
370
-1
48
1
60
0
100
AcDbSpline
70
4
71
3
72
10
73
6
40
0
40
0
40
0
40
0
40
0.0616386658333014
40
0.0616386658333014
40
1
40
1
40
1
40
1
41
1
10
90.5164092224396
20
16.4879296695883
30
0
41
1
10
90.967833362752
20
16.4861206763423
30
0
41
1
10
91.4192642114246
20
16.4836421619606
30
0
41
1
10
98.7432272581075
20
16.4325695969796
30
0
41
1
10
105.617249821487
20
16.2289477397733
30
0
41
1
10
112.5
20
15.8757779861288
30
0
0
SPLINE
5
1BE
100
AcDbEntity
8
1
62
256
6
ByLayer
370
-1
48
1
60
0
100
AcDbSpline
70
4
71
3
72
34
73
30
40
0
40
0
40
0
40
0
40
0.0714426043422271
40
0.0714426043422271
40
0.142885208684454
40
0.142885208684454
40
0.214327813026681
40
0.214327813026681
40
0.285770417368909
40
0.285770417368909
40
0.357213021711136
40
0.357213021711136
40
0.428655626053363
40
0.428655626053363
40
0.50009823039559
40
0.50009823039559
40
0.571540834737817
40
0.571540834737817
40
0.642983439080044
40
0.642983439080044
40
0.714426043422271
40
0.714426043422271
40
0.785868647764498
40
0.785868647764498
40
0.857311252106725
40
0.857311252106725
40
0.928753856448952
40
0.928753856448952
40
1
40
1
40
1
40
1
41
1
10
26.3310602667123
20
3.85726205750976
30
0
41
1
10
26.0439187258514
20
3.78832676176634
30
0
41
1
10
25.7512385236667
20
3.67353400785964
30
0
41
1
10
25.1651724825283
20
3.35630148573614
30
0
41
1
10
24.8717990201267
20
3.15386841684082
30
0
41
1
10
24.2947674645467
20
2.66854226852055
30
0
41
1
10
24.01112155713
20
2.3856594382209
30
0
41
1
10
23.4636210213115
20
1.74947876250513
30
0
41
1
10
23.1997779550347
20
1.39619435196266
30
0
41
1
10
22.7012560122519
20
0.631756698070831
30
0
41
1
10
22.4665876635402
20
0.220619598128053
30
0
41
1
10
22.0347521357533
20
-0.644921713871526
30
0
41
1
10
21.8375940761875
20
-1.09930764741307
30
0
41
1
10
21.4877840407492
20
-2.03520803010059
30
0
41
1
10
21.3351394521703
20
-2.51670271488734
30
0
41
1
10
21.0797803878733
20
-3.48971838112888
30
0
41
1
10
20.9770713048319
20
-3.98121881442327
30
0
41
1
10
20.8252337308634
20
-4.95678761819897
30
0
41
1
10
20.7761084464444
20
-5.44083538660266
30
0
41
1
10
20.7331857316748
20
-6.38430449279551
30
0
41
1
10
20.7393892077667
20
-6.843705906389
30
0
41
1
10
20.8069059947983
20
-7.72156268190912
30
0
41
1
10
20.8682178799175
20
-8.13999950524234
30
0
41
1
10
21.0437759287927
20
-8.92106190943753
30
0
41
1
10
21.158018385111
20
-9.28367099581115
30
0
41
1
10
21.4353817603468
20
-9.94019518672596
30
0
41
1
10
21.5984968219001
20
-10.2340964267788
30
0
41
1
10
21.9673056031273
20
-10.7420628475574
30
0
41
1
10
22.1728732454128
20
-10.9563346648284
30
0
41
1
10
22.3962346579217
20
-11.1274709827345
30
0
0
SPLINE
5
1BF
100
AcDbEntity
8
1
62
256
6
ByLayer
370
-1
48
1
60
0
100
AcDbSpline
70
4
71
3
72
20
73
16
40
0
40
0
40
0
40
0
40
0.105058763085299
40
0.105058763085299
40
0.216926417699636
40
0.216926417699636
40
0.328794072313973
40
0.328794072313973
40
0.552529381542648
40
0.552529381542648
40
0.776264690771322
40
0.776264690771322
40
0.888132345385661
40
0.888132345385661
40
1
40
1
40
1
40
1
41
1
10
181.011240273773
20
4.86067541940028
30
0
41
1
10
181.04619827091
20
4.92273615671169
30
0
41
1
10
181.080651172802
20
4.98889779642741
30
0
41
1
10
181.150739834903
20
5.13396363903502
30
0
41
1
10
181.186389886967
20
5.21372061776461
30
0
41
1
10
181.255973975094
20
5.38177788542083
30
0
41
1
10
181.289772309712
20
5.46971110079414
30
0
41
1
10
181.388185107918
20
5.74493270059071
30
0
41
1
10
181.449834542003
20
5.94360199000192
30
0
41
1
10
181.564800373222
20
6.37082296913775
30
0
41
1
10
181.618121278544
20
6.59937382931895
30
0
41
1
10
181.691091820766
20
6.96524360534031
30
0
41
1
10
181.714168337818
20
7.09075812167072
30
0
41
1
10
181.757249792275
20
7.34606290754888
30
0
41
1
10
181.777332630214
20
7.47623332976235
30
0
41
1
10
181.795918090379
20
7.60886861898933
30
0
0
SPLINE
5
1C0
100
AcDbEntity
8
1
62
256
6
ByLayer
370
-1
48
1
60
0
100
AcDbSpline
70
4
71
3
72
14
73
10
40
0
40
0
40
0
40
0
40
0.5
40
0.5
40
0.750000000000002
40
0.750000000000002
40
0.875000000000001
40
0.875000000000001
40
1
40
1
40
1
40
1
41
1
10
10.9537176685327
20
-5.79182315467932
30
0
41
1
10
10.628804767041
20
-5.65728777504415
30
0
41
1
10
10.3108397779416
20
-5.47287908704644
30
0
41
1
10
9.84273353338349
20
-5.12407075983475
30
0
41
1
10
9.68818703322259
20
-4.99566790819432
30
0
41
1
10
9.45853230613091
20
-4.78425722968018
30
0
41
1
10
9.38232196350754
20
-4.71060823653076
30
0
41
1
10
9.23178125219675
20
-4.55807899309255
30
0
41
1
10
9.15730373569016
20
-4.47906849349496
30
0
41
1
10
9.08361218705053
20
-4.39730252546096
30
0
0
SPLINE
5
1C1
100
AcDbEntity
8
1
62
256
6
ByLayer
370
-1
48
1
60
0
100
AcDbSpline
70
4
71
3
72
8
73
4
40
0
40
0
40
0
40
0
40
1
40
1
40
1
40
1
41
1
10
24.9999999999999
20
-13.0055906335419
30
0
41
1
10
26.66671969853
20
-13.211413420166
30
0
41
1
10
28.3333467957311
20
-13.4098904714271
30
0
41
1
10
30
20
-13.6006318213185
30
0
0
SPLINE
5
1C2
100
AcDbEntity
8
1
62
256
6
ByLayer
370
-1
48
1
60
0
100
AcDbSpline
70
4
71
4
72
10
73
5
40
0
40
0
40
0
40
0
40
0
40
1
40
1
40
1
40
1
40
1
41
0.998449619374278
10
178.744218052602
20
5.74473134990559
30
0
41
0.995668951993756
10
178.943621035632
20
6.85744937508118
30
0
41
0.991934033694189
10
179.104185947545
20
8.39784382202776
30
0
41
1
10
179.173469789368
20
10.1879689311885
30
0
41
1
10
179.173469789368
20
11.8299999999998
30
0
0
SPLINE
5
1C3
100
AcDbEntity
8
1
62
256
6
ByLayer
370
-1
48
1
60
0
100
AcDbSpline
70
4
71
3
72
24
73
20
40
0
40
0
40
0
40
0
40
0.125
40
0.125
40
0.1875
40
0.1875
40
0.21875
40
0.21875
40
0.25
40
0.25
40
0.499999999999999
40
0.499999999999999
40
0.562499999999999
40
0.562499999999999
40
0.624999999999999
40
0.624999999999999
40
0.749999999999999
40
0.749999999999999
40
1
40
1
40
1
40
1
41
1
10
15.4952316819243
20
-13.1005074350591
30
0
41
1
10
15.7162768319029
20
-13.2342569411539
30
0
41
1
10
15.9523327995392
20
-13.3177427555887
30
0
41
1
10
16.327426867057
20
-13.3665977645498
30
0
41
1
10
16.4559420802835
20
-13.3695870500726
30
0
41
1
10
16.6538882972447
20
-13.3555576387415
30
0
41
1
10
16.720833197483
20
-13.3486320065224
30
0
41
1
10
16.8563258981476
20
-13.3354756794899
30
0
41
1
10
16.9248735159797
20
-13.3286831604552
30
0
41
1
10
17.5489991425924
20
-13.265980488451
30
0
41
1
10
18.1544177862779
20
-13.1996829389922
30
0
41
1
10
18.9780298001357
20
-13.1223410187036
30
0
41
1
10
19.1461271538888
20
-13.1071233789194
30
0
41
1
10
19.4893028874757
20
-13.0775950894762
30
0
41
1
10
19.6648300327241
20
-13.0632504420482
30
0
41
1
10
20.1989544811496
20
-13.0224475131011
30
0
41
1
10
20.5635126184526
20
-12.9983267518152
30
0
41
1
10
21.6827905641574
20
-12.9392711851361
30
0
41
1
10
22.4628089425143
20
-12.9174637646595
30
0
41
1
10
23.280446381323
20
-12.924735393772
30
0
0
SPLINE
5
1C4
100
AcDbEntity
8
1
62
256
6
ByLayer
370
-1
48
1
60
0
100
AcDbSpline
70
4
71
3
72
8
73
4
40
0
40
0
40
0
40
0
40
1
40
1
40
1
40
1
41
1
10
181.83399876437
20
11.8299999999998
30
0
41
1
10
181.818047344723
20
11.9549668463904
30
0
41
1
10
181.80946602611
20
12.0805628027394
30
0
41
1
10
181.80946602611
20
12.2068868803473
30
0
0
SPLINE
5
1C5
100
AcDbEntity
8
1
62
256
6
ByLayer
370
-1
48
1
60
0
100
AcDbSpline
70
4
71
3
72
12
73
8
40
0
40
0
40
0
40
0
40
0.5
40
0.5
40
0.75
40
0.75
40
1
40
1
40
1
40
1
41
1
10
174.931060266659
20
-16.0813279821349
30
0
41
1
10
175.448238251998
20
-16.0933012347856
30
0
41
1
10
175.950891794241
20
-16.1148119130684
30
0
41
1
10
176.684121907081
20
-16.1564529707616
30
0
41
1
10
176.925049066153
20
-16.1718769640065
30
0
41
1
10
177.399819749959
20
-16.2047120729176
30
0
41
1
10
177.634516640055
20
-16.2221967802596
30
0
41
1
10
177.860805639399
20
-16.239624627452
30
0
0
SPLINE
5
1C6
100
AcDbEntity
8
1
62
256
6
ByLayer
370
-1
48
1
60
0
100
AcDbSpline
70
4
71
3
72
8
73
4
40
0
40
0
40
0
40
0
40
1
40
1
40
1
40
1
41
1
10
15.4952316819243
20
-7.94798342039132
30
0
41
1
10
15.4952316819243
20
-9.66549142528058
30
0
41
1
10
15.4952316819243
20
-11.3829994301698
30
0
41
1
10
15.4952316819242
20
-13.1005074350591
30
0
0
SPLINE
5
1C7
100
AcDbEntity
8
1
62
256
6
ByLayer
370
-1
48
1
60
0
100
AcDbSpline
70
4
71
3
72
8
73
4
40
0
40
0
40
0
40
0
40
1
40
1
40
1
40
1
41
1
10
26.3310602667101
20
5.98083770705387
30
0
41
1
10
27.5540364555438
20
5.75688291994359
30
0
41
1
10
28.7769784549731
20
5.53102354694687
30
0
41
1
10
30
20
5.3038108362708
30
0
0
SPLINE
5
1C8
100
AcDbEntity
8
1
62
256
6
ByLayer
370
-1
48
1
60
0
100
AcDbSpline
70
4
71
4
72
10
73
5
40
0
40
0
40
0
40
0
40
0
40
1
40
1
40
1
40
1
40
1
41
1
10
179.173469789368
20
11.8299999999998
30
0
41
1
10
179.173469789378
20
12.9408128213212
30
0
41
1
10
179.173469789386
20
14.0516256426427
30
0
41
1
10
179.173469789392
20
15.1624384639642
30
0
41
1
10
179.173469789397
20
16.2732512852856
30
0
0
SPLINE
5
1C9
100
AcDbEntity
8
1
62
256
6
ByLayer
370
-1
48
1
60
0
100
AcDbSpline
70
4
71
3
72
14
73
10
40
0
40
0
40
0
40
0
40
0.25
40
0.25
40
0.5
40
0.5
40
0.75
40
0.75
40
1
40
1
40
1
40
1
41
1
10
188.68758472414
20
16.397386549569
30
0
41
1
10
188.692380896797
20
16.3964141233633
30
0
41
1
10
188.702629216774
20
16.3951963042341
30
0
41
1
10
188.733576209363
20
16.3923487602835
30
0
41
1
10
188.75461556026
20
16.3906967445033
30
0
41
1
10
188.806028172338
20
16.3871957097948
30
0
41
1
10
188.836264845019
20
16.3853504090094
30
0
41
1
10
188.905799184331
20
16.3816198090475
30
0
41
1
10
188.945169371109
20
16.3797359634429
30
0
41
1
10
188.988012806883
20
16.377975769138
30
0
0
SPLINE
5
1CA
100
AcDbEntity
8
1
62
256
6
ByLayer
370
-1
48
1
60
0
100
AcDbSpline
70
4
71
3
72
54
73
50
40
0
40
0
40
0
40
0
40
0.0624999999999997
40
0.0624999999999997
40
0.124999999999999
40
0.124999999999999
40
0.156249999999999
40
0.156249999999999
40
0.187499999999999
40
0.187499999999999
40
0.249999999999999
40
0.249999999999999
40
0.281249999999998
40
0.281249999999998
40
0.312499999999998
40
0.312499999999998
40
0.374999999999998
40
0.374999999999998
40
0.406249999999998
40
0.406249999999998
40
0.437499999999998
40
0.437499999999998
40
0.499999999999998
40
0.499999999999998
40
0.531249999999998
40
0.531249999999998
40
0.562499999999998
40
0.562499999999998
40
0.624999999999997
40
0.624999999999997
40
0.656249999999997
40
0.656249999999997
40
0.671874999999997
40
0.671874999999997
40
0.687499999999997
40
0.687499999999997
40
0.749999999999998
40
0.749999999999998
40
0.781249999999998
40
0.781249999999998
40
0.812499999999998
40
0.812499999999998
40
0.874999999999999
40
0.874999999999999
40
0.906249999999999
40
0.906249999999999
40
0.937499999999999
40
0.937499999999999
40
1
40
1
40
1
40
1
41
1
10
14.4310602667099
20
10.0703565998239
30
0
41
1
10
14.0797867982563
20
10.1971810369111
30
0
41
1
10
13.7218311787275
20
10.2977093810754
30
0
41
1
10
12.9936635241089
20
10.4428418169434
30
0
41
1
10
12.623452852045
20
10.4874898903717
30
0
41
1
10
12.0594294240075
20
10.5079715389847
30
0
41
1
10
11.8690861358906
20
10.5069565004167
30
0
41
1
10
11.4908184608079
20
10.4885617127756
30
0
41
1
10
11.3028951611134
20
10.4712788603119
30
0
41
1
10
10.7430985993674
20
10.3950816502135
30
0
41
1
10
10.3751750363298
20
10.3119515778336
30
0
41
1
10
9.83288312250139
20
10.136240979235
30
0
41
1
10
9.6537230605071
20
10.0691374553886
30
0
41
1
10
9.29897890558738
20
9.91699091024813
30
0
41
1
10
9.12323687474284
20
9.83172795345416
30
0
41
1
10
8.61318881020085
20
9.55400475186528
30
0
41
1
10
8.29206184549972
20
9.3382430054765
30
0
41
1
10
7.83959597667462
20
8.96896570625304
30
0
41
1
10
7.693663843145
20
8.83823368173751
30
0
41
1
10
7.41198263349187
20
8.5611016993731
30
0
41
1
10
7.27570523953753
20
8.41397819006571
30
0
41
1
10
6.89032687676649
20
7.95722047014499
30
0
41
1
10
6.66235404841004
20
7.63061531607687
30
0
41
1
10
6.36289710704028
20
7.10880845911385
30
0
41
1
10
6.27019530661704
20
6.9295284085841
30
0
41
1
10
6.09927790812554
20
6.56015642207416
30
0
41
1
10
6.0210638981269
20
6.36978430280163
30
0
41
1
10
5.81246344434308
20
5.79332257716959
30
0
41
1
10
5.70620663951453
20
5.39848043433989
30
0
41
1
10
5.59405008211232
20
4.79111984387984
30
0
41
1
10
5.56457461028671
20
4.58613624877157
30
0
41
1
10
5.53231035815827
20
4.27483453376075
30
0
41
1
10
5.52354897418735
20
4.17029684112677
30
0
41
1
10
5.51013681158054
20
3.96170482286007
30
0
41
1
10
5.50545989846023
20
3.85745049673378
30
0
41
1
10
5.4919798340747
20
3.33637918833645
30
0
41
1
10
5.51271678194991
20
2.92016262093804
30
0
41
1
10
5.58871730492211
20
2.2966534127639
30
0
41
1
10
5.62156760169259
20
2.08895306992159
30
0
41
1
10
5.70228447624942
20
1.67380028321631
30
0
41
1
10
5.75012032551692
20
1.46684039830157
30
0
41
1
10
5.91334823377156
20
0.855764605686318
30
0
41
1
10
6.04892617552844
20
0.458301785064009
30
0
41
1
10
6.28982910018613
20
-0.12396584771659
30
0
41
1
10
6.37641191792289
20
-0.315724362425811
30
0
41
1
10
6.56198457778189
20
-0.69463613121556
30
0
41
1
10
6.66133526895905
20
-0.882367571942098
30
0
41
1
10
6.97385082993733
20
-1.4316705267465
30
0
41
1
10
7.20200995526284
20
-1.78103122867628
30
0
41
1
10
7.44818846019334
20
-2.11479026273074
30
0
0
SPLINE
5
1CB
100
AcDbEntity
8
1
62
256
6
ByLayer
370
-1
48
1
60
0
100
AcDbSpline
70
4
71
3
72
8
73
4
40
0
40
0
40
0
40
0
40
1
40
1
40
1
40
1
41
1
10
184.131970806102
20
3.77707616712885
30
0
41
1
10
183.57153559947
20
3.93155803875589
30
0
41
1
10
183.024426780482
20
4.10732835522612
30
0
41
1
10
182.490053698701
20
4.30928805119774
30
0
0
SPLINE
5
1CC
100
AcDbEntity
8
1
62
256
6
ByLayer
370
-1
48
1
60
0
100
AcDbSpline
70
4
71
3
72
20
73
16
40
0
40
0
40
0
40
0
40
0.125000000000004
40
0.125000000000004
40
0.250000000000009
40
0.250000000000009
40
0.375000000000013
40
0.375000000000013
40
0.500000000000017
40
0.500000000000017
40
0.750000000000027
40
0.750000000000027
40
0.875000000000013
40
0.875000000000013
40
1
40
1
40
1
40
1
41
1
10
189.251052928117
20
5.95421824906751
30
0
41
1
10
189.255520950403
20
5.95421824906751
30
0
41
1
10
189.253433338612
20
5.95886598572059
30
0
41
1
10
189.238468645267
20
5.97635810084529
30
0
41
1
10
189.225424847923
20
5.98937054661801
30
0
41
1
10
189.192662741858
20
6.02146122434928
30
0
41
1
10
189.172669816188
20
6.04084091425852
30
0
41
1
10
189.128921027632
20
6.08457599343834
30
0
41
1
10
189.105280913162
20
6.10880605795018
30
0
41
1
10
189.031151533455
20
6.18833973449736
30
0
41
1
10
188.977003974456
20
6.25119568238688
30
0
41
1
10
188.897349574913
20
6.35598155421141
30
0
41
1
10
188.870880884998
20
6.3928077856034
30
0
41
1
10
188.818411327365
20
6.47070957159775
30
0
41
1
10
188.792451552505
20
6.51175703665953
30
0
41
1
10
188.767363273224
20
6.55431437319353
30
0
0
SPLINE
5
1CD
100
AcDbEntity
8
1
62
256
6
ByLayer
370
-1
48
1
60
0
100
AcDbSpline
70
4
71
3
72
8
73
4
40
0
40
0
40
0
40
0
40
1
40
1
40
1
40
1
41
1
10
24.4746512632073
20
-11.7146454399592
30
0
41
1
10
24.2896191172246
20
-11.689463789909
30
0
41
1
10
24.1054741665954
20
-11.6578681706146
30
0
41
1
10
23.9221983392544
20
-11.6198735842563
30
0
0
SPLINE
5
1CE
100
AcDbEntity
8
1
62
256
6
ByLayer
370
-1
48
1
60
0
100
AcDbSpline
70
4
71
3
72
26
73
22
40
0
40
0
40
0
40
0
40
0.0625000000000012
40
0.0625000000000012
40
0.125000000000002
40
0.125000000000002
40
0.187500000000003
40
0.187500000000003
40
0.250000000000005
40
0.250000000000005
40
0.312500000000006
40
0.312500000000006
40
0.375000000000007
40
0.375000000000007
40
0.500000000000012
40
0.500000000000012
40
0.625000000000017
40
0.625000000000017
40
0.750000000000021
40
0.750000000000021
40
1
40
1
40
1
40
1
41
1
10
181.263460362504
20
8.73975641220719
30
0
41
1
10
181.237754856132
20
8.71699242129583
30
0
41
1
10
181.213869242234
20
8.69257546397705
30
0
41
1
10
181.170591790896
20
8.63965775271203
30
0
41
1
10
181.151252469943
20
8.6110106350346
30
0
41
1
10
181.119942238109
20
8.55223914262956
30
0
41
1
10
181.107558941556
20
8.52143821726693
30
0
41
1
10
181.090210122009
20
8.45908098936795
30
0
41
1
10
181.085318188258
20
8.42814908140403
30
0
41
1
10
181.081898983473
20
8.36673068164481
30
0
41
1
10
181.083434305078
20
8.33664981395987
30
0
41
1
10
181.09139160044
20
8.27896700606806
30
0
41
1
10
181.097809210685
20
8.25109777957385
30
0
41
1
10
181.122872907373
20
8.16989234397971
30
0
41
1
10
181.146742318816
20
8.12040839885069
30
0
41
1
10
181.202658024319
20
8.02898568572888
30
0
41
1
10
181.235156871641
20
7.98657301751754
30
0
41
1
10
181.305434752936
20
7.90868382375103
30
0
41
1
10
181.343079584874
20
7.87329262442952
30
0
41
1
10
181.461843618888
20
7.77588854416973
30
0
41
1
10
181.549078730548
20
7.72229714661151
30
0
41
1
10
181.641954514527
20
7.67968378735046
30
0
0
SPLINE
5
1CF
100
AcDbEntity
8
1
62
256
6
ByLayer
370
-1
48
1
60
0
100
AcDbSpline
70
4
71
3
72
8
73
4
40
0
40
0
40
0
40
0
40
1
40
1
40
1
40
1
41
1
10
10.9537176914913
20
-5.79182315913195
30
0
41
1
10
12.4682237639737
20
-6.52553427764678
30
0
41
1
10
13.9828407345955
20
-7.24561587631655
30
0
41
1
10
15.4952316819243
20
-7.94798342039135
30
0
0
SPLINE
5
1D0
100
AcDbEntity
8
1
62
256
6
ByLayer
370
-1
48
1
60
0
100
AcDbSpline
70
4
71
3
72
26
73
22
40
0
40
0
40
0
40
0
40
0.125
40
0.125
40
0.25
40
0.25
40
0.375
40
0.375
40
0.4375
40
0.4375
40
0.5
40
0.5
40
0.625
40
0.625
40
0.75
40
0.75
40
0.8125
40
0.8125
40
0.875
40
0.875
40
1
40
1
40
1
40
1
41
1
10
8.09523168192413
20
-4.49568182560105
30
0
41
1
10
8.3327854223518
20
-5.01762768774066
30
0
41
1
10
8.57999788905673
20
-5.52356775813763
30
0
41
1
10
9.09369651266178
20
-6.50369863105246
30
0
41
1
10
9.36018018356003
20
-6.97789265657937
30
0
41
1
10
9.9132525132504
20
-7.89361896191542
30
0
41
1
10
10.1998318741578
20
-8.33516345117417
30
0
41
1
10
10.6461814222126
20
-8.97125884325334
30
0
41
1
10
10.7977759813395
20
-9.17898167972152
30
0
41
1
10
11.1066165500576
20
-9.5849018233429
30
0
41
1
10
11.2625162802457
20
-9.78133286803396
30
0
41
1
10
11.734822279774
20
-10.3509208801906
30
0
41
1
10
12.0558076097565
20
-10.7044593500619
30
0
41
1
10
12.7114986003638
20
-11.3566275487091
30
0
41
1
10
13.0461887593064
20
-11.6552988594993
30
0
41
1
10
13.5604181384417
20
-12.0578209385616
30
0
41
1
10
13.7343922310787
20
-12.1847031432353
30
0
41
1
10
14.0829497462861
20
-12.4195441693859
30
0
41
1
10
14.2577867962043
20
-12.5277604761662
30
0
41
1
10
14.7842841972208
20
-12.8238757533775
30
0
41
1
10
15.1379029960341
20
-12.9834717847767
30
0
41
1
10
15.4952316819242
20
-13.1005074350591
30
0
0
SPLINE
5
1D1
100
AcDbEntity
8
1
62
256
6
ByLayer
370
-1
48
1
60
0
100
AcDbSpline
70
4
71
3
72
12
73
8
40
0
40
0
40
0
40
0
40
0.500000000000009
40
0.500000000000009
40
0.750000000000004
40
0.750000000000004
40
1
40
1
40
1
40
1
41
1
10
184.198325450307
20
6.59678749488055
30
0
41
1
10
184.914735391051
20
6.35356514578748
30
0
41
1
10
185.649115649947
20
6.1753061113366
30
0
41
1
10
186.778339424444
20
6.00784065829285
30
0
41
1
10
187.160798742199
20
5.96883979893369
30
0
41
1
10
187.920014852946
20
5.92632953070884
30
0
41
1
10
188.298369397503
20
5.92245734390278
30
0
41
1
10
188.675503499874
20
5.93563656901918
30
0
0
SPLINE
5
1D2
100
AcDbEntity
8
1
62
256
6
ByLayer
370
-1
48
1
60
0
100
AcDbSpline
70
4
71
3
72
27
73
23
40
0
40
0
40
0
40
0
40
0.25
40
0.25
40
0.312500000000001
40
0.312500000000001
40
0.375000000000002
40
0.375000000000002
40
0.500000000000002
40
0.500000000000002
40
0.625000000000002
40
0.625000000000002
40
0.687500000000001
40
0.687500000000001
40
0.750000000000001
40
0.750000000000001
40
0.781250000000001
40
0.781250000000001
40
0.812500000000001
40
0.875000000000001
40
0.875000000000001
40
1
40
1
40
1
40
1
41
1
10
25
20
6.36609644895222
30
0
41
1
10
24.0171084452441
20
6.63617078097874
30
0
41
1
10
23.040569360845
20
6.90406470623353
30
0
41
1
10
21.833422874409
20
7.25462283364786
30
0
41
1
10
21.5926814254431
20
7.32554569417766
30
0
41
1
10
21.1127662138454
20
7.46959887307193
30
0
41
1
10
20.8734365046064
20
7.54279259193126
30
0
41
1
10
20.168657031719
20
7.76328343088269
30
0
41
1
10
19.7127943735523
20
7.91255194290744
30
0
41
1
10
18.8295088621158
20
8.2197389024256
30
0
41
1
10
18.4020784526993
20
8.37764721280496
30
0
41
1
10
17.7833828632224
20
8.6241553572365
30
0
41
1
10
17.5805002257432
20
8.7081102867721
30
0
41
1
10
17.1846422027672
20
8.87889293846376
30
0
41
1
10
16.9918852972981
20
8.96561034615294
30
0
41
1
10
16.7105809787602
20
9.09800399382814
30
0
41
1
10
16.6186669501846
20
9.14268883326497
30
0
41
1
10
16.4330821028746
20
9.23155208771365
30
0
41
1
10
16.1517005405719
20
9.363959233712
30
0
41
1
10
15.861354265339
20
9.49355297852478
30
0
41
1
10
15.2687718688613
20
9.74853992233309
30
0
41
1
10
14.8578875999625
20
9.91295064263656
30
0
41
1
10
14.4310602667096
20
10.070356599821
30
0
0
SPLINE
5
1D3
100
AcDbEntity
8
1
62
256
6
ByLayer
370
-1
48
1
60
0
100
AcDbSpline
70
4
71
3
72
8
73
4
40
0
40
0
40
0
40
0
40
1
40
1
40
1
40
1
41
1
10
8.09523168192416
20
-3.19147147085221
30
0
41
1
10
8.41462347933191
20
-3.62098064810681
30
0
41
1
10
8.74466310555513
20
-4.02121462563662
30
0
41
1
10
9.0836121870561
20
-4.39730252546713
30
0
0
SPLINE
5
1D4
100
AcDbEntity
8
1
62
256
6
ByLayer
370
-1
48
1
60
0
100
AcDbSpline
70
4
71
3
72
8
73
4
40
0
40
0
40
0
40
0
40
1
40
1
40
1
40
1
41
1
10
183.370093338454
20
6.92171123860237
30
0
41
1
10
183.640500208491
20
6.80357482688268
30
0
41
1
10
183.916414825001
20
6.69521149275542
30
0
41
1
10
184.198325450307
20
6.59678749488055
30
0
0
SPLINE
5
1D5
100
AcDbEntity
8
1
62
256
6
ByLayer
370
-1
48
1
60
0
100
AcDbSpline
70
4
71
3
72
14
73
10
40
0
40
0
40
0
40
0
40
0.0649585527683055
40
0.0649585527683055
40
0.37663903517887
40
0.37663903517887
40
0.688319517589435
40
0.688319517589435
40
1
40
1
40
1
40
1
41
1
10
198.180323386071
20
6.37970357526751
30
0
41
1
10
198.179715348161
20
6.37290306997431
30
0
41
1
10
198.179089317483
20
6.36629082851471
30
0
41
1
10
198.17536614685
20
6.32903451649159
30
0
41
1
10
198.171859482447
20
6.30228438706865
30
0
41
1
10
198.164485464227
20
6.25949123649502
30
0
41
1
10
198.160622474572
20
6.24329235176205
30
0
41
1
10
198.152657808209
20
6.22129742714247
30
0
41
1
10
198.148553147193
20
6.21561524198128
30
0
41
1
10
198.144500864193
20
6.21557830295421
30
0
0
SPLINE
5
1D6
100
AcDbEntity
8
1
62
256
6
ByLayer
370
-1
48
1
60
0
100
AcDbSpline
70
4
71
3
72
12
73
8
40
0
40
0
40
0
40
0
40
0.25
40
0.25
40
0.5
40
0.5
40
1
40
1
40
1
40
1
41
1
10
188.096085221816
20
3.55296423064402
30
0
41
1
10
188.243148499667
20
3.57690288286673
30
0
41
1
10
188.386253330609
20
3.60286334777518
30
0
41
1
10
188.664423761698
20
3.65889038768734
30
0
41
1
10
188.800253615474
20
3.68916500952145
30
0
41
1
10
189.186436883178
20
3.78430780920465
30
0
41
1
10
189.4176404881
20
3.85365062364357
30
0
41
1
10
189.621991245892
20
3.92904310498116
30
0
0
SPLINE
5
1D7
100
AcDbEntity
8
1
62
256
6
ByLayer
370
-1
48
1
60
0
100
AcDbSpline
70
4
71
3
72
20
73
16
40
0
40
0
40
0
40
0
40
0.250000000000001
40
0.250000000000001
40
0.375000000000001
40
0.375000000000001
40
0.500000000000001
40
0.500000000000001
40
0.625
40
0.625
40
0.6875
40
0.6875
40
0.75
40
0.75
40
1
40
1
40
1
40
1
41
1
10
112.5
20
-9.81801463906569
30
0
41
1
10
117.704542114046
20
-10.6195553188882
30
0
41
1
10
122.905728787716
20
-11.3663087375562
30
0
41
1
10
130.707688292108
20
-12.3841435143148
30
0
41
1
10
133.308385567419
20
-12.70637380509
30
0
41
1
10
138.510676554932
20
-13.314163881742
30
0
41
1
10
141.112230400503
20
-13.5998790143968
30
0
41
1
10
146.316496304803
20
-14.1337535249224
30
0
41
1
10
148.918466444102
20
-14.381574246491
30
0
41
1
10
152.820510817152
20
-14.7221732386522
30
0
41
1
10
154.121129110021
20
-14.8305239024268
30
0
41
1
10
156.722175650652
20
-15.0370085268281
30
0
41
1
10
158.022572673433
20
-15.1351934827451
30
0
41
1
10
164.524884455417
20
-15.5988679500435
30
0
41
1
10
169.726378263854
20
-15.8851669225515
30
0
41
1
10
174.931060266701
20
-16.0813279821358
30
0
0
SPLINE
5
1D8
100
AcDbEntity
8
1
62
256
6
ByLayer
370
-1
48
1
60
0
100
AcDbSpline
70
4
71
3
72
14
73
10
40
0
40
0
40
0
40
0
40
0.500000000000014
40
0.500000000000014
40
0.75000000000002
40
0.75000000000002
40
0.87500000000001
40
0.87500000000001
40
1
40
1
40
1
40
1
41
1
10
179.173469789368
20
16.2732512852851
30
0
41
1
10
179.638951472196
20
16.2822594977191
30
0
41
1
10
180.091039743709
20
16.2958733883639
30
0
41
1
10
180.750058127139
20
16.3192993845242
30
0
41
1
10
180.966526392767
20
16.3275929299887
30
0
41
1
10
181.286379130002
20
16.3401054650932
30
0
41
1
10
181.392187306314
20
16.3442870548347
30
0
41
1
10
181.602163557525
20
16.3525450372423
30
0
41
1
10
181.70658471973
20
16.3566310663052
30
0
41
1
10
181.80946602611
20
16.3605675389133
30
0
0
SPLINE
5
1D9
100
AcDbEntity
8
1
62
256
6
ByLayer
370
-1
48
1
60
0
100
AcDbSpline
70
4
71
3
72
10
73
6
40
0
40
0
40
0
40
0
40
0.5
40
0.5
40
1
40
1
40
1
40
1
41
1
10
181.947567132167
20
9.52051160056746
30
0
41
1
10
181.955822165208
20
9.89525459811136
30
0
41
1
10
181.952017749719
20
10.2753991928766
30
0
41
1
10
181.916225769763
20
11.0455109414667
30
0
41
1
10
181.884355391056
20
11.4354953742621
30
0
41
1
10
181.83399876432
20
11.8300000000026
30
0
0
SPLINE
5
1DA
100
AcDbEntity
8
1
62
256
6
ByLayer
370
-1
48
1
60
0
100
AcDbSpline
70
4
71
3
72
16
73
12
40
0
40
0
40
0
40
0
40
0.24999999999999
40
0.24999999999999
40
0.49999999999998
40
0.49999999999998
40
0.624999999999985
40
0.624999999999985
40
0.74999999999999
40
0.74999999999999
40
1
40
1
40
1
40
1
41
1
10
188.096085221816
20
3.55296423064402
30
0
41
1
10
187.780483849699
20
3.50159130057912
30
0
41
1
10
187.459070071051
20
3.46703270867312
30
0
41
1
10
186.80693093368
20
3.43222173862514
30
0
41
1
10
186.476181735665
20
3.43196850185569
30
0
41
1
10
185.973765211132
20
3.45885177677869
30
0
41
1
10
185.804776862689
20
3.47242040850856
30
0
41
1
10
185.466947983148
20
3.50881526954422
30
0
41
1
10
185.298628926121
20
3.53155715088189
30
0
41
1
10
184.795485592796
20
3.61336774954509
30
0
41
1
10
184.462472849548
20
3.68597451319295
30
0
41
1
10
184.131970806107
20
3.77707616712712
30
0
0
SPLINE
5
1DB
100
AcDbEntity
8
1
62
256
6
ByLayer
370
-1
48
1
60
0
100
AcDbSpline
70
4
71
3
72
30
73
26
40
0
40
0
40
0
40
0
40
0.0533291658807693
40
0.0533291658807693
40
0.132218402057372
40
0.132218402057372
40
0.211107638233974
40
0.211107638233974
40
0.368886110587179
40
0.368886110587179
40
0.447775346763782
40
0.447775346763782
40
0.526664582940384
40
0.526664582940384
40
0.68444305529359
40
0.68444305529359
40
0.763332291470192
40
0.763332291470192
40
0.842221527646795
40
0.842221527646795
40
0.921110763823398
40
0.921110763823398
40
0.960555381911699
40
0.960555381911699
40
1
40
1
40
1
40
1
41
1
10
135.929741933411
20
-13.0205341815962
30
0
41
1
10
133.948710544942
20
-13.2193583367769
30
0
41
1
10
131.967551893505
20
-13.4075189210229
30
0
41
1
10
127.054928573004
20
-13.8473367774495
30
0
41
1
10
124.122564113281
20
-14.086342217194
30
0
41
1
10
118.259251917589
20
-14.5151429432216
30
0
41
1
10
115.328310358927
20
-14.7046604450732
30
0
41
1
10
106.536206499675
20
-15.1951564930099
30
0
41
1
10
100.675783355566
20
-15.4177976797047
30
0
41
1
10
91.8802272543707
20
-15.5827903831224
30
0
41
1
10
88.9480820788403
20
-15.6099387957163
30
0
41
1
10
83.0860206025962
20
-15.6094115123945
30
0
41
1
10
80.1555612133265
20
-15.5817229926129
30
0
41
1
10
71.3644972112539
20
-15.4172512652774
30
0
41
1
10
65.5042205911577
20
-15.199164718189
30
0
41
1
10
56.7089651615138
20
-14.7096747824805
30
0
41
1
10
53.7776389670428
20
-14.5197517361265
30
0
41
1
10
47.9168901097715
20
-14.0883612345674
30
0
41
1
10
44.9871270061571
20
-13.8469621932657
30
0
41
1
10
39.1276663230477
20
-13.3158076502492
30
0
41
1
10
36.1979219585799
20
-13.026603177156
30
0
41
1
10
31.8024805164267
20
-12.5595613459279
30
0
41
1
10
30.3372231433911
20
-12.397935345836
30
0
41
1
10
27.4062956993966
20
-12.0639285700143
30
0
41
1
10
25.9406028583438
20
-11.8919630027936
30
0
41
1
10
24.4746512632056
20
-11.7146454399591
30
0
0
SPLINE
5
1DC
100
AcDbEntity
8
1
62
256
6
ByLayer
370
-1
48
1
60
0
100
AcDbSpline
70
4
71
3
72
18
73
14
40
0
40
0
40
0
40
0
40
0.25
40
0.25
40
0.374999999999999
40
0.374999999999999
40
0.437499999999999
40
0.437499999999999
40
0.499999999999999
40
0.499999999999999
40
0.75
40
0.75
40
1
40
1
40
1
40
1
41
1
10
30
20
-13.6006318213185
30
0
41
1
10
36.8771455106903
20
-14.3574011789208
30
0
41
1
10
43.7488328447142
20
-14.9796382542482
30
0
41
1
10
54.0602241648072
20
-15.6846724527572
30
0
41
1
10
57.4979942151192
20
-15.8818373265065
30
0
41
1
10
62.6569181621007
20
-16.1192652023977
30
0
41
1
10
64.3769640130211
20
-16.1886959540173
30
0
41
1
10
67.8157094250755
20
-16.3079098580287
30
0
41
1
10
69.5346966336647
20
-16.3577072731081
30
0
41
1
10
78.1282298955105
20
-16.5575109217177
30
0
41
1
10
84.9986379325279
20
-16.5595092666321
30
0
41
1
10
98.7433424616486
20
-16.2524783401283
30
0
41
1
10
105.617275297279
20
-15.9428581727391
30
0
41
1
10
112.5
20
-15.4862735323436
30
0
0
SPLINE
5
1DD
100
AcDbEntity
8
1
62
256
6
ByLayer
370
-1
48
1
60
0
100
AcDbSpline
70
4
71
3
72
15
73
11
40
0
40
0
40
0
40
0
40
0.126255992455025
40
0.235473993398147
40
0.344691994341269
40
0.563127996227513
40
0.672345997170634
40
0.781563998113756
40
0.890781999056878
40
1
40
1
40
1
40
1
41
1
10
47.5909907561918
20
1.94621688193371
30
0
41
1
10
46.6962486590724
20
2.02990686392198
30
0
41
1
10
45.0275037088903
20
2.1853923836747
30
0
41
1
10
42.5847561050387
20
2.41117064558171
30
0
41
1
10
39.4887035601722
20
2.69509120506251
30
0
41
1
10
36.3925881233888
20
2.97594879768218
30
0
41
1
10
33.2967998848322
20
3.25223621504466
30
0
41
1
10
30.974993787618
20
3.45635240972342
30
0
41
1
10
28.6527060204578
20
3.65816517060031
30
0
41
1
10
27.104777480278
20
3.79131235268036
30
0
41
1
10
26.3310602667123
20
3.85726205750981
30
0
0
SPLINE
5
1DE
100
AcDbEntity
8
1
62
256
6
ByLayer
370
-1
48
1
60
0
100
AcDbSpline
70
4
71
3
72
8
73
4
40
0
40
0
40
0
40
0
40
1
40
1
40
1
40
1
41
1
10
14.4310602667099
20
9.12981158171991
30
0
41
1
10
14.4310602667099
20
9.44332658775457
30
0
41
1
10
14.4310602667099
20
9.75684159378923
30
0
41
1
10
14.4310602667099
20
10.0703565998239
30
0
0
SPLINE
5
1DF
100
AcDbEntity
8
1
62
256
6
ByLayer
370
-1
48
1
60
0
100
AcDbSpline
70
4
71
3
72
10
73
6
40
0
40
0
40
0
40
0
40
0.5
40
0.5
40
1
40
1
40
1
40
1
41
1
10
188.837240078335
20
11.7040577837717
30
0
41
1
10
188.844050982644
20
11.7040577837717
30
0
41
1
10
188.861429353214
20
11.7180352984808
30
0
41
1
10
188.913696254649
20
11.7661722623454
30
0
41
1
10
188.947391980112
20
11.7989882406825
30
0
41
1
10
188.987243677354
20
11.8361599235973
30
0
0
SPLINE
5
1E0
100
AcDbEntity
8
1
62
256
6
ByLayer
370
-1
48
1
60
0
100
AcDbSpline
70
4
71
3
72
12
73
8
40
0
40
0
40
0
40
0
40
0.250000000000008
40
0.250000000000008
40
0.500000000000016
40
0.500000000000016
40
1
40
1
40
1
40
1
41
1
10
186.424652499501
20
5.87965722643236
30
0
41
1
10
186.61879571064
20
5.8430785850621
30
0
41
1
10
186.812555150451
20
5.80945817367964
30
0
41
1
10
187.199139134395
20
5.7478196417477
30
0
41
1
10
187.392271729871
20
5.7197829946808
30
0
41
1
10
187.96100027469
20
5.64451076767148
30
0
41
1
10
188.328940717999
20
5.60569485022936
30
0
41
1
10
188.683692672045
20
5.57445648138446
30
0
0
SPLINE
5
1E1
100
AcDbEntity
8
1
62
256
6
ByLayer
370
-1
48
1
60
0
100
AcDbSpline
70
4
71
3
72
14
73
10
40
0
40
0
40
0
40
0
40
0.133401395627666
40
0.133401395627666
40
0.422267597085111
40
0.422267597085111
40
0.711133798542555
40
0.711133798542555
40
1
40
1
40
1
40
1
41
1
10
192.097279588877
20
6.16939226791357
30
0
41
1
10
192.082459835081
20
6.15592833901428
30
0
41
1
10
192.067836381385
20
6.14308065285809
30
0
41
1
10
192.022367453952
20
6.1043529642927
30
0
41
1
10
191.992236193012
20
6.08056212053069
30
0
41
1
10
191.937728558612
20
6.04033203713996
30
0
41
1
10
191.91373378809
20
6.02413701905195
30
0
41
1
10
191.87624179832
20
6.00132814020068
30
0
41
1
10
191.863634824936
20
5.99523965656329
30
0
41
1
10
191.858773683504
20
5.99523965656329
30
0
0
SPLINE
5
1E2
100
AcDbEntity
8
1
62
256
6
ByLayer
370
-1
48
1
60
0
100
AcDbSpline
70
4
71
1
72
4
73
2
40
0
40
0
40
1
40
1
41
1
10
26.3310602667094
20
3.85726205751015
30
0
41
1
10
26.3310602667096
20
5.98083770705398
30
0
0
SPLINE
5
1E3
100
AcDbEntity
8
1
62
256
6
ByLayer
370
-1
48
1
60
0
100
AcDbSpline
70
4
71
3
72
8
73
4
40
0
40
0
40
0
40
0
40
1
40
1
40
1
40
1
41
1
10
188.767363273224
20
6.55431437319362
30
0
41
1
10
188.733471400801
20
6.61180527579214
30
0
41
1
10
188.70168313894
20
6.67111626377866
30
0
41
1
10
188.672014439151
20
6.73232013718243
30
0
0
SPLINE
5
1E4
100
AcDbEntity
8
1
62
256
6
ByLayer
370
-1
48
1
60
0
100
AcDbSpline
70
4
71
3
72
93
73
89
40
-0.0312499999999826
40
-0.0312499999999826
40
0
40
0
40
0.0312500000000076
40
0.0312500000000076
40
0.0468750000000109
40
0.0468750000000109
40
0.0625000000000143
40
0.0625000000000143
40
0.093750000000021
40
0.093750000000021
40
0.125000000000028
40
0.125000000000028
40
0.156250000000035
40
0.156250000000035
40
0.171875000000035
40
0.171875000000035
40
0.187500000000036
40
0.187500000000036
40
0.218750000000037
40
0.218750000000037
40
0.250000000000038
40
0.250000000000038
40
0.265625000000039
40
0.265625000000039
40
0.281250000000039
40
0.281250000000039
40
0.312500000000047
40
0.312500000000047
40
0.328125000000051
40
0.328125000000051
40
0.343750000000055
40
0.343750000000055
40
0.375000000000058
40
0.375000000000058
40
0.40625000000006
40
0.40625000000006
40
0.421875000000061
40
0.421875000000061
40
0.437500000000062
40
0.437500000000062
40
0.468750000000064
40
0.468750000000064
40
0.484375000000065
40
0.484375000000065
40
0.500000000000067
40
0.500000000000067
40
0.531250000000071
40
0.531250000000071
40
0.562500000000074
40
0.562500000000074
40
0.578125000000076
40
0.578125000000076
40
0.593750000000077
40
0.593750000000077
40
0.625000000000081
40
0.625000000000081
40
0.64062500000008
40
0.64062500000008
40
0.65625000000008
40
0.65625000000008
40
0.687500000000078
40
0.687500000000078
40
0.718750000000077
40
0.718750000000077
40
0.750000000000076
40
0.750000000000076
40
0.765625000000076
40
0.765625000000076
40
0.781250000000075
40
0.796875000000074
40
0.796875000000074
40
0.812500000000074
40
0.812500000000074
40
0.843750000000066
40
0.843750000000066
40
0.859375000000062
40
0.859375000000062
40
0.875000000000059
40
0.875000000000059
40
0.906250000000046
40
0.906250000000046
40
0.937500000000033
40
0.937500000000033
40
0.953125000000025
40
0.953125000000025
40
0.968750000000017
40
0.968750000000017
40
1
40
1
40
1.03125000000001
40
1.03125000000001
41
1
10
192.416839824515
20
-3.2215640067507
30
0
41
1
10
192.404278304768
20
-2.97743694585134
30
0
41
1
10
192.409631731238
20
-2.85645090892342
30
0
41
1
10
192.434736492863
20
-2.67656835042831
30
0
41
1
10
192.445970171341
20
-2.61687578768993
30
0
41
1
10
192.474346835519
20
-2.49805129242807
30
0
41
1
10
192.491602842284
20
-2.43865874351283
30
0
41
1
10
192.551396197651
20
-2.26496953744092
30
0
41
1
10
192.601999161277
20
-2.15418841403812
30
0
41
1
10
192.724734591249
20
-1.94275804281523
30
0
41
1
10
192.797808867319
20
-1.84130466737116
30
0
41
1
10
192.960307500925
20
-1.65749498481642
30
0
41
1
10
193.050039079487
20
-1.57416022565604
30
0
41
1
10
193.197648202431
20
-1.46236901941575
30
0
41
1
10
193.249278578328
20
-1.42720666257676
30
0
41
1
10
193.354734089016
20
-1.36292396136273
30
0
41
1
10
193.40876930604
20
-1.33361200232824
30
0
41
1
10
193.574724269531
20
-1.25401668680851
30
0
41
1
10
193.690968818528
20
-1.21186144585386
30
0
41
1
10
193.932009203272
20
-1.15137965566618
30
0
41
1
10
194.053684723266
20
-1.13372408845862
30
0
41
1
10
194.237875585878
20
-1.12552773500727
30
0
41
1
10
194.299554275007
20
-1.12586656056416
30
0
41
1
10
194.423492071266
20
-1.13287074410752
30
0
41
1
10
194.485428282244
20
-1.13955371451692
30
0
41
1
10
194.668025432822
20
-1.16860786827056
30
0
41
1
10
194.786737741142
20
-1.19994897611582
30
0
41
1
10
194.960248067201
20
-1.26501197171879
30
0
41
1
10
195.017590119648
20
-1.28988908233811
30
0
41
1
10
195.128380147618
20
-1.3447695754551
30
0
41
1
10
195.182043741008
20
-1.37482030115979
30
0
41
1
10
195.337961111314
20
-1.47260994684925
30
0
41
1
10
195.435520509851
20
-1.54822809954686
30
0
41
1
10
195.615265954904
20
-1.71912989940032
30
0
41
1
10
195.695158651466
20
-1.81210617594789
30
0
41
1
10
195.800683923279
20
-1.96229408270807
30
0
41
1
10
195.833455832735
20
-2.01415727000844
30
0
41
1
10
195.894096144944
20
-2.12154644114418
30
0
41
1
10
195.921815344924
20
-2.17688010301188
30
0
41
1
10
195.995945143744
20
-2.34478531283034
30
0
41
1
10
196.034033985862
20
-2.46031190029098
30
0
41
1
10
196.074445540545
20
-2.63884245250588
30
0
41
1
10
196.085137099737
20
-2.69955111288053
30
0
41
1
10
196.100503838811
20
-2.82066975559491
30
0
41
1
10
196.105233525729
20
-2.88115903719393
30
0
41
1
10
196.110848297214
20
-3.06241760441466
30
0
41
1
10
196.10323777249
20
-3.18297781466489
30
0
41
1
10
196.064892683724
20
-3.42354002767183
30
0
41
1
10
196.034583701503
20
-3.54050771524311
30
0
41
1
10
195.973470162115
20
-3.7098519015689
30
0
41
1
10
195.950458354892
20
-3.76535617795909
30
0
41
1
10
195.899057509699
20
-3.87445787131728
30
0
41
1
10
195.870497145318
20
-3.92832753367361
30
0
41
1
10
195.777840357864
20
-4.08457013018065
30
0
41
1
10
195.707027177775
20
-4.18161298449027
30
0
41
1
10
195.587277403394
20
-4.31667264570831
30
0
41
1
10
195.545089672896
20
-4.35992931276081
30
0
41
1
10
195.455967985405
20
-4.44278535667578
30
0
41
1
10
195.408984336211
20
-4.48236705626024
30
0
41
1
10
195.263977923577
20
-4.59282391376982
30
0
41
1
10
195.160945399415
20
-4.65648266773908
30
0
41
1
10
194.9417237078
20
-4.76338586345875
30
0
41
1
10
194.824410749793
20
-4.80666708875321
30
0
41
1
10
194.58699228882
20
-4.86754128071442
30
0
41
1
10
194.465776838838
20
-4.88589865943277
30
0
41
1
10
194.2800275287
20
-4.89457277268622
30
0
41
1
10
194.21751980936
20
-4.89424158825233
30
0
41
1
10
194.09432289084
20
-4.88723857932888
30
0
41
1
10
193.972150349335
20
-4.87395353833679
30
0
41
1
10
193.851986613066
20
-4.84833491271158
30
0
41
1
10
193.73283620541
20
-4.81648059532344
30
0
41
1
10
193.673550245043
20
-4.79732065100123
30
0
41
1
10
193.501122385663
20
-4.73175640530195
30
0
41
1
10
193.39216064285
20
-4.67712805267709
30
0
41
1
10
193.237318651007
20
-4.5793576208832
30
0
41
1
10
193.186904707126
20
-4.54390149195868
30
0
41
1
10
193.090668067281
20
-4.46886504738924
30
0
41
1
10
193.044751004009
20
-4.42926877424085
30
0
41
1
10
192.913337925249
20
-4.3044551909241
30
0
41
1
10
192.833965679942
20
-4.21305480944741
30
0
41
1
10
192.69277519274
20
-4.01484105064552
30
0
41
1
10
192.632722441728
20
-3.91059722184616
30
0
41
1
10
192.5576697906
20
-3.74679148208023
30
0
41
1
10
192.535176117453
20
-3.69094047209521
30
0
41
1
10
192.495332158445
20
-3.57667730886413
30
0
41
1
10
192.477969047101
20
-3.51811579800142
30
0
41
1
10
192.43459260987
20
-3.3414849027337
30
0
41
1
10
192.416839824515
20
-3.2215640067507
30
0
41
1
10
192.404278304768
20
-2.97743694585134
30
0
0
SPLINE
5
1E5
100
AcDbEntity
8
1
62
256
6
ByLayer
370
-1
48
1
60
0
100
AcDbSpline
70
4
71
3
72
8
73
4
40
0
40
0
40
0
40
0
40
1
40
1
40
1
40
1
41
1
10
168.449409645332
20
10.0663558078791
30
0
41
1
10
168.224292626534
20
10.105070232405
30
0
41
1
10
167.996842339222
20
10.1457140681772
30
0
41
1
10
167.767077866012
20
10.1882715355217
30
0
0
SPLINE
5
1E6
100
AcDbEntity
8
1
62
256
6
ByLayer
370
-1
48
1
60
0
100
AcDbSpline
70
4
71
3
72
31
73
27
40
0
40
0
40
0
40
0
40
0.0625000000000016
40
0.0625000000000016
40
0.125000000000003
40
0.187500000000005
40
0.187500000000005
40
0.250000000000006
40
0.250000000000006
40
0.375000000000007
40
0.375000000000007
40
0.437500000000007
40
0.437500000000007
40
0.500000000000008
40
0.500000000000008
40
0.562500000000008
40
0.562500000000008
40
0.625000000000008
40
0.625000000000008
40
0.750000000000008
40
0.750000000000008
40
0.812500000000008
40
0.812500000000008
40
0.875000000000009
40
0.875000000000009
40
1
40
1
40
1
40
1
41
1
10
190.005697255691
20
4.07575047508254
30
0
41
1
10
190.094921847397
20
4.11105311924709
30
0
41
1
10
190.178401684314
20
4.14752549963794
30
0
41
1
10
190.329818264345
20
4.22097519290841
30
0
41
1
10
190.466839935798
20
4.29535300979884
30
0
41
1
10
190.575473919098
20
4.37156114632956
30
0
41
1
10
190.669629036199
20
4.44870281971708
30
0
41
1
10
190.70956693198
20
4.48793951677683
30
0
41
1
10
190.804665508587
20
4.60446744202201
30
0
41
1
10
190.836468878749
20
4.68122156369421
30
0
41
1
10
190.837096243513
20
4.79496531137266
30
0
41
1
10
190.829267590886
20
4.83287290700557
30
0
41
1
10
190.797689705098
20
4.90687960828436
30
0
41
1
10
190.774076141787
20
4.94296667379439
30
0
41
1
10
190.711611241149
20
5.0133564184809
30
0
41
1
10
190.672759029866
20
5.04765899531469
30
0
41
1
10
190.579703812637
20
5.11446652761225
30
0
41
1
10
190.52521107909
20
5.14711477254662
30
0
41
1
10
190.339770930373
20
5.24124626616015
30
0
41
1
10
190.189259004377
20
5.29806400260202
30
0
41
1
10
189.924440994847
20
5.37466783335125
30
0
41
1
10
189.829554527818
20
5.39876453672434
30
0
41
1
10
189.626401017519
20
5.44391234296933
30
0
41
1
10
189.519870730425
20
5.46458062967449
30
0
41
1
10
189.18599020162
20
5.52108827581537
30
0
41
1
10
188.944505445853
20
5.55149010858582
30
0
41
1
10
188.683692672045
20
5.57445648138449
30
0
0
SPLINE
5
1E7
100
AcDbEntity
8
1
62
256
6
ByLayer
370
-1
48
1
60
0
100
AcDbSpline
70
4
71
3
72
10
73
6
40
0
40
0
40
0
40
0
40
0.557044819066314
40
0.557044819066314
40
1
40
1
40
1
40
1
41
1
10
112.5
20
-15.4862735323435
30
0
41
1
10
117.20685110719
20
-15.1886690533882
30
0
41
1
10
121.911203673062
20
-14.8206371346641
30
0
41
1
10
130.355974940127
20
-14.0427771580123
30
0
41
1
10
134.096437262724
20
-13.6568724653051
30
0
41
1
10
137.837738778155
20
-13.2324673460324
30
0
0
SPLINE
5
1E8
100
AcDbEntity
8
1
62
256
6
ByLayer
370
-1
48
1
60
0
100
AcDbSpline
70
4
71
3
72
20
73
16
40
0
40
0
40
0
40
0
40
0.141448843647437
40
0.141448843647437
40
0.356086632735579
40
0.356086632735579
40
0.463405527279649
40
0.463405527279649
40
0.57072442182372
40
0.57072442182372
40
0.67804331636779
40
0.67804331636779
40
0.78536221091186
40
0.78536221091186
40
1
40
1
40
1
40
1
41
1
10
140.343965607987
20
13.723422937988
30
0
41
1
10
142.17516184864
20
13.915942153704
30
0
41
1
10
144.006611947594
20
14.0990674486105
30
0
41
1
10
148.617158543079
20
14.5354412860384
30
0
41
1
10
151.395089845765
20
14.7762734933599
30
0
41
1
10
155.561663555589
20
15.1008648413359
30
0
41
1
10
156.950489791462
20
15.2029326772787
30
0
41
1
10
159.728080903372
20
15.3948811213529
30
0
41
1
10
161.116703457947
20
15.4850083374588
30
0
41
1
10
163.894153946122
20
15.6525753187463
30
0
41
1
10
165.283028948406
20
15.7299817939461
30
0
41
1
10
168.060533643817
20
15.8728362026161
30
0
41
1
10
169.449202940064
20
15.9381849154048
30
0
41
1
10
173.615761593737
20
16.114862197473
30
0
41
1
10
176.394121392944
20
16.2069909807314
30
0
41
1
10
179.173469789397
20
16.2732512852856
30
0
0
SPLINE
5
1E9
100
AcDbEntity
8
1
62
256
6
ByLayer
370
-1
48
1
60
0
100
AcDbSpline
70
4
71
3
72
10
73
6
40
0
40
0
40
0
40
0
40
0.5
40
0.5
40
1
40
1
40
1
40
1
41
1
10
184.198325450307
20
6.59678749488055
30
0
41
1
10
184.546038337638
20
6.43646294777497
30
0
41
1
10
184.90379164275
20
6.29488110115651
30
0
41
1
10
185.644246991374
20
6.05393213993014
30
0
41
1
10
186.026992113261
20
5.954580663467
30
0
41
1
10
186.424652499505
20
5.8796572264317
30
0
0
SPLINE
5
1EA
100
AcDbEntity
8
1
62
256
6
ByLayer
370
-1
48
1
60
0
100
AcDbSpline
70
4
71
3
72
8
73
4
40
0
40
0
40
0
40
0
40
1
40
1
40
1
40
1
41
1
10
8.09523168192416
20
-3.19147147085223
30
0
41
1
10
7.8561347517653
20
-2.83823494368116
30
0
41
1
10
7.64127582369812
20
-2.47806049238983
30
0
41
1
10
7.44818846019334
20
-2.11479026273074
30
0
0
SPLINE
5
1EB
100
AcDbEntity
8
1
62
256
6
ByLayer
370
-1
48
1
60
0
100
AcDbSpline
70
4
71
3
72
20
73
16
40
0
40
0
40
0
40
0
40
0.334840080801135
40
0.334840080801135
40
0.418550101001413
40
0.418550101001413
40
0.502260121201691
40
0.502260121201691
40
0.669680161602248
40
0.669680161602248
40
0.837100202002805
40
0.837100202002805
40
0.920810222203072
40
0.920810222203072
40
1
40
1
40
1
40
1
41
1
10
193.305402461699
20
11.2396972817717
30
0
41
1
10
193.330512848739
20
11.0257961858877
30
0
41
1
10
193.390782728114
20
10.8125150816836
30
0
41
1
10
193.518705055392
20
10.5493211140728
30
0
41
1
10
193.546977381888
20
10.4969523304817
30
0
41
1
10
193.60834405192
20
10.3943732935048
30
0
41
1
10
193.641530957016
20
10.3439606128528
30
0
41
1
10
193.748986784932
20
10.1956287271841
30
0
41
1
10
193.831044566897
20
10.1005644692682
30
0
41
1
10
194.020028093702
20
9.92049038419373
30
0
41
1
10
194.124229460066
20
9.83814610938941
30
0
41
1
10
194.296073983646
20
9.72868561986078
30
0
41
1
10
194.355993883234
20
9.6945279478831
30
0
41
1
10
194.47828463942
20
9.63318892115169
30
0
41
1
10
194.539609772827
20
9.60612952537244
30
0
41
1
10
194.60232518659
20
9.58219253056708
30
0
0
SPLINE
5
1EC
100
AcDbEntity
8
1
62
256
6
ByLayer
370
-1
48
1
60
0
100
AcDbSpline
70
4
71
3
72
16
73
12
40
0
40
0
40
0
40
0
40
0.0403073348479636
40
0.0403073348479636
40
0.280230501135973
40
0.280230501135973
40
0.520153667423982
40
0.520153667423982
40
0.760076833711991
40
0.760076833711991
40
1
40
1
40
1
40
1
41
1
10
193.606164131369
20
12.4696695887701
30
0
41
1
10
193.595812849516
20
12.45513226297
30
0
41
1
10
193.585751369667
20
12.4404940894269
30
0
41
1
10
193.517826252994
20
12.3381359737038
30
0
41
1
10
193.469590546344
20
12.2472722913708
30
0
41
1
10
193.390280704014
20
12.0593176904962
30
0
41
1
10
193.359239994953
20
11.9622219896386
30
0
41
1
10
193.31395408385
20
11.7615754903912
30
0
41
1
10
193.300028306646
20
11.6592149177285
30
0
41
1
10
193.289506107579
20
11.4518176366932
30
0
41
1
10
193.292847268178
20
11.3466478297136
30
0
41
1
10
193.305402461699
20
11.2396972817717
30
0
0
SPLINE
5
1ED
100
AcDbEntity
8
1
62
256
6
ByLayer
370
-1
48
1
60
0
100
AcDbSpline
70
4
71
3
72
10
73
6
40
0
40
0
40
0
40
0
40
0.5
40
0.5
40
1
40
1
40
1
40
1
41
1
10
8.09523168192416
20
-4.49568182560122
30
0
41
1
10
7.95949217549233
20
-4.10670665937567
30
0
41
1
10
7.84020910549472
20
-3.71324509145265
30
0
41
1
10
7.62668143730528
20
-2.91913339880517
30
0
41
1
10
7.53248645866276
20
-2.51847131400487
30
0
41
1
10
7.44818846019334
20
-2.11479026273074
30
0
0
SPLINE
5
1EE
100
AcDbEntity
8
1
62
256
6
ByLayer
370
-1
48
1
60
0
100
AcDbSpline
70
4
71
3
72
16
73
12
40
0
40
0
40
0
40
0
40
0.25
40
0.25
40
0.5
40
0.5
40
0.625
40
0.625
40
0.75
40
0.75
40
1
40
1
40
1
40
1
41
1
10
187.616517984944
20
1.903152859686
30
0
41
1
10
187.140629176525
20
1.87459636727607
30
0
41
1
10
186.667805842248
20
1.87500653114927
30
0
41
1
10
185.728120490206
20
1.93215669211463
30
0
41
1
10
185.261258573843
20
1.98889792002387
30
0
41
1
10
184.565543811635
20
2.11709555329321
30
0
41
1
10
184.334404314034
20
2.16702997254586
30
0
41
1
10
183.873705125377
20
2.28171182175888
30
0
41
1
10
183.643895743891
20
2.34658157945719
30
0
41
1
10
182.964177815255
20
2.56177594275221
30
0
41
1
10
182.521599567741
20
2.73311037940997
30
0
41
1
10
182.089936260421
20
2.93280056698563
30
0
0
SPLINE
5
1EF
100
AcDbEntity
8
1
62
256
6
ByLayer
370
-1
48
1
60
0
100
AcDbSpline
70
4
71
3
72
14
73
10
40
0
40
0
40
0
40
0
40
0.500000000000008
40
0.500000000000008
40
0.625000000000006
40
0.625000000000006
40
0.750000000000004
40
0.750000000000004
40
1
40
1
40
1
40
1
41
1
10
168.449409645332
20
10.0663558078791
30
0
41
1
10
169.862978934223
20
9.43692259262514
30
0
41
1
10
171.286240766727
20
8.8213326512811
30
0
41
1
10
173.078201522726
20
8.0702458990948
30
0
41
1
10
173.437245552639
20
7.92095958760177
30
0
41
1
10
174.156691253738
20
7.62432600154821
30
0
41
1
10
174.517335801528
20
7.47688058195956
30
0
41
1
10
175.599323343687
20
7.0384512679959
30
0
41
1
10
176.320563699784
20
6.75140548658732
30
0
41
1
10
177.041708852555
20
6.47025192600623
30
0
0
SPLINE
5
1F0
100
AcDbEntity
8
1
62
256
6
ByLayer
370
-1
48
1
60
0
100
AcDbSpline
70
4
71
2
72
6
73
3
40
0
40
0
40
0
40
1
40
1
40
1
41
1
10
23.2804463812088
20
-11.4166670088283
30
0
41
1
10
23.2804463812088
20
-12.1707012012971
30
0
41
1
10
23.2804463812088
20
-12.9247353937658
30
0
0
SPLINE
5
1F1
100
AcDbEntity
8
1
62
256
6
ByLayer
370
-1
48
1
60
0
100
AcDbSpline
70
4
71
3
72
76
73
72
40
0
40
0
40
0
40
0
40
0.0200351801582423
40
0.0400703603164847
40
0.050087950395606
40
0.0601055404747273
40
0.0801407206329697
40
0.0901583107120909
40
0.100175900791212
40
0.120211080949454
40
0.130228671028576
40
0.140246261107697
40
0.160281441265939
40
0.170299031345061
40
0.180316621424182
40
0.200351801582424
40
0.210369391661546
40
0.220386981740667
40
0.235413366859349
40
0.240422161898909
40
0.25043975197803
40
0.260457342057152
40
0.275483727175834
40
0.280492522215394
40
0.290510112294515
40
0.300527702373636
40
0.315554087492318
40
0.320562882531879
40
0.330580472611
40
0.340598062690121
40
0.360633242848364
40
0.370650832927485
40
0.380668423006606
40
0.400703603164848
40
0.41072119324397
40
0.420738783323091
40
0.440773963481333
40
0.450791553560455
40
0.460809143639576
40
0.480844323797818
40
0.490861913876939
40
0.500879503956061
40
0.520914684114303
40
0.540949864272546
40
0.560985044430788
40
0.58102022458903
40
0.601055404747273
40
0.611072994826394
40
0.621090584905515
40
0.631108174984636
40
0.641125765063758
40
0.646134560103318
40
0.651143355142879
40
0.661160945222
40
0.671178535301121
40
0.681196125380243
40
0.721266485696727
40
0.761336846013212
40
0.801407206329697
40
0.841477566646182
40
0.861512746804425
40
0.881547926962667
40
0.891565517041788
40
0.901583107120909
40
0.921618287279152
40
0.931635877358273
40
0.941653467437394
40
0.961688647595637
40
0.971706237674758
40
0.981723827753879
40
1
40
1
40
1
40
1
41
1
10
14.4310602667099
20
9.12981158171917
30
0
41
1
10
14.3638283110218
20
9.10056266176554
30
0
41
1
10
14.227520003983
20
9.03673380414349
30
0
41
1
10
14.0529043037902
20
8.94320100543422
30
0
41
1
10
13.9109019574572
20
8.85987522102093
30
0
41
1
10
13.7674583115773
20
8.77083005079368
30
0
41
1
10
13.6220005532347
20
8.67312626857023
30
0
41
1
10
13.4748243561457
20
8.5666048078003
30
0
41
1
10
13.3266223182748
20
8.4541909514173
30
0
41
1
10
13.1770611968049
20
8.3329175867415
30
0
41
1
10
13.0265003468832
20
8.20274288402661
30
0
41
1
10
12.8754107082769
20
8.06666540657233
30
0
41
1
10
12.7237344320682
20
7.9217809429388
30
0
41
1
10
12.5718846091064
20
7.76818384498591
30
0
41
1
10
12.4200695726223
20
7.60885911285464
30
0
41
1
10
12.2685324423241
20
7.44106411250763
30
0
41
1
10
12.1177246711506
20
7.26504121004848
30
0
41
1
10
11.9863300972755
20
7.10633556601422
30
0
41
1
10
11.8744550971473
20
6.96540401484242
30
0
41
1
10
11.763355075818
20
6.82070052816334
30
0
41
1
10
11.67129272032
20
6.69778736667462
30
0
41
1
10
11.5435127750577
20
6.52151959100632
30
0
41
1
10
11.4353180145451
20
6.36610959364668
30
0
41
1
10
11.3283613288982
20
6.20743923789283
30
0
41
1
10
11.2400406687712
20
6.07321753151965
30
0
41
1
10
11.1180291128338
20
5.88176816377265
30
0
41
1
10
11.0153366029117
20
5.71407799947454
30
0
41
1
10
10.9143165527287
20
5.54375653834941
30
0
41
1
10
10.8312120900692
20
5.40022769109416
30
0
41
1
10
10.700671606428
20
5.16742215408607
30
0
41
1
10
10.5739585726516
20
4.93024022109546
30
0
41
1
10
10.451447918627
20
4.68940724435618
30
0
41
1
10
10.3318390483069
20
4.44639614617782
30
0
41
1
10
10.2167331493483
20
4.20050172743089
30
0
41
1
10
10.1064308133605
20
3.95249171129546
30
0
41
1
10
9.99940195097611
20
3.70332749671238
30
0
41
1
10
9.89738994643099
20
3.45281628417479
30
0
41
1
10
9.80060809459349
20
3.2017266731167
30
0
41
1
10
9.70735335540527
20
2.95049500453055
30
0
41
1
10
9.61944980145728
20
2.69941556188067
30
0
41
1
10
9.5370184652821
20
2.44921896962387
30
0
41
1
10
9.45824545471663
20
2.19983082458233
30
0
41
1
10
9.36665764033023
20
1.89002375734643
30
0
41
1
10
9.2678188637463
20
1.52265954088833
30
0
41
1
10
9.179943831874
20
1.16082994797901
30
0
41
1
10
9.10292968874515
20
0.805665337942173
30
0
41
1
10
9.04760068098508
20
0.516009512748298
30
0
41
1
10
9.00852636422209
20
0.288529980961073
30
0
41
1
10
8.98178728390931
20
0.120253406403719
30
0
41
1
10
8.957587073393
20
-0.0454795837714244
30
0
41
1
10
8.93940760083544
20
-0.18212620475046
30
0
41
1
10
8.92597943133845
20
-0.290958248724479
30
0
41
1
10
8.91328840120735
20
-0.399589525804942
30
0
41
1
10
8.89879462547938
20
-0.53523231231631
30
0
41
1
10
8.88355531570261
20
-0.698505970262801
30
0
41
1
10
8.85755802011357
20
-1.02553663521078
30
0
41
1
10
8.83602284823832
20
-1.51594039454864
30
0
41
1
10
8.84867325897159
20
-2.15957692187854
30
0
41
1
10
8.90602978845047
20
-2.78212346372442
30
0
41
1
10
8.99298429730857
20
-3.27389162016144
30
0
41
1
10
9.0865275770407
20
-3.64545891155063
30
0
41
1
10
9.15493001038121
20
-3.86748244903944
30
0
41
1
10
9.21558249910174
20
-4.03831586391527
30
0
41
1
10
9.28014538345406
20
-4.20443218830917
30
0
41
1
10
9.35050891265371
20
-4.36318265637249
30
0
41
1
10
9.42654318949994
20
-4.51398682688983
30
0
41
1
10
9.50628321240754
20
-4.65933857271574
30
0
41
1
10
9.59146972585256
20
-4.79627934201324
30
0
41
1
10
9.68187847272594
20
-4.9243444558
30
0
41
1
10
9.77154890487455
20
-5.04102777013745
30
0
41
1
10
9.84103920143909
20
-5.12108651619266
30
0
41
1
10
9.88721106202354
20
-5.17016726023522
30
0
0
SPLINE
5
1F2
100
AcDbEntity
8
1
62
256
6
ByLayer
370
-1
48
1
60
0
100
AcDbSpline
70
4
71
2
72
6
73
3
40
0
40
0
40
0
40
1
40
1
40
1
41
1
10
8.09523168192408
20
-3.19147147085212
30
0
41
1
10
8.0952316819241
20
-3.84357664822653
30
0
41
1
10
8.0952316819241
20
-4.49568182560094
30
0
0
SPLINE
5
1F3
100
AcDbEntity
8
1
62
256
6
ByLayer
370
-1
48
1
60
0
100
AcDbSpline
70
4
71
3
72
24
73
20
40
0
40
0
40
0
40
0
40
0.125000000000001
40
0.125000000000001
40
0.250000000000002
40
0.250000000000002
40
0.375000000000002
40
0.375000000000002
40
0.437500000000003
40
0.437500000000003
40
0.500000000000003
40
0.500000000000003
40
0.750000000000001
40
0.750000000000001
40
0.812500000000001
40
0.812500000000001
40
0.875000000000001
40
0.875000000000001
40
1
40
1
40
1
40
1
41
1
10
15.4952316819243
20
-7.94798342039135
30
0
41
1
10
15.7195441414964
20
-8.05166285295687
30
0
41
1
10
15.9596725200249
20
-8.16068757312493
30
0
41
1
10
16.469630789959
20
-8.39360113690969
30
0
41
1
10
16.7394615656123
20
-8.51749069034238
30
0
41
1
10
17.3079579953909
20
-8.7819501286717
30
0
41
1
10
17.6066205831842
20
-8.92251735353966
30
0
41
1
10
18.0764065261414
20
-9.14548413476032
30
0
41
1
10
18.2363859467092
20
-9.22168620015668
30
0
41
1
10
18.5597994249482
20
-9.37592206513054
30
0
41
1
10
18.7236795988965
20
-9.45416656126503
30
0
41
1
10
19.5538812233813
20
-9.84979417023035
30
0
41
1
10
20.251947481799
20
-10.1809851314719
30
0
41
1
10
21.1726131255856
20
-10.5872128667657
30
0
41
1
10
21.3588819406882
20
-10.667891891163
30
0
41
1
10
21.7340133206606
20
-10.8265343537907
30
0
41
1
10
21.9231500660299
20
-10.9046179991033
30
0
41
1
10
22.4956377171514
20
-11.1339598140245
30
0
41
1
10
22.8840299484783
20
-11.2803749183638
30
0
41
1
10
23.280446381323
20
-11.4166670088345
30
0
0
SPLINE
5
1F4
100
AcDbEntity
8
1
62
256
6
ByLayer
370
-1
48
1
60
0
100
AcDbSpline
70
4
71
3
72
8
73
4
40
0
40
0
40
0
40
0
40
1
40
1
40
1
40
1
41
1
10
14.4310602667099
20
9.12981158171917
30
0
41
1
10
18.4106387106217
20
7.36535539663083
30
0
41
1
10
22.3779766114876
20
5.60578389169882
30
0
41
1
10
26.3310602667094
20
3.85726205751015
30
0
0
SPLINE
5
1F5
100
AcDbEntity
8
1
62
256
6
ByLayer
370
-1
48
1
60
0
100
AcDbSpline
70
4
71
3
72
8
73
4
40
0
40
0
40
0
40
0
40
1
40
1
40
1
40
1
41
1
10
25
20
6.36609644895222
30
0
41
1
10
25.445497075658
20
6.24368485171556
30
0
41
1
10
25.8891587797301
20
6.11524329474014
30
0
41
1
10
26.3310602667096
20
5.98083770705404
30
0
0
SPLINE
5
1F6
100
AcDbEntity
8
1
62
256
6
ByLayer
370
-1
48
1
60
0
100
AcDbSpline
70
4
71
4
72
13
73
8
40
0
40
0
40
0
40
0
40
0
40
0.52195066226545
40
0.52195066226545
40
0.52195066226545
40
1
40
1
40
1
40
1
40
1
41
1
10
26.3310602667123
20
3.85726205750981
30
0
41
1
10
26.3310602667123
20
3.16018168452413
30
0
41
0.942809041582063
10
26.1664705096414
20
0.872884092555886
30
0
41
1
10
25.7291795141444
20
-3.09237098529033
30
0
41
1
10
25.0985078090579
20
-8.308485130859
30
0
41
0.952025118527788
10
24.7099942234506
20
-11.2322312266426
30
0
41
0.987894483177577
10
24.5145920029896
20
-12.0762438197658
30
0
41
0.997963607440102
10
24.4758378136737
20
-11.7263371027855
30
0
0
SPLINE
5
1F7
100
AcDbEntity
8
1
62
256
6
ByLayer
370
-1
48
1
60
0
100
AcDbSpline
70
4
71
3
72
22
73
18
40
0
40
0
40
0
40
0
40
0.0625
40
0.0625
40
0.125
40
0.125
40
0.25
40
0.25
40
0.374999999999999
40
0.374999999999999
40
0.437499999999999
40
0.437499999999999
40
0.499999999999999
40
0.499999999999999
40
0.75
40
0.75
40
1
40
1
40
1
40
1
41
1
10
30
20
5.3038108362708
30
0
41
1
10
31.7195203647732
20
4.98294195810939
30
0
41
1
10
33.438756376432
20
4.65950245621741
30
0
41
1
10
36.876633085844
20
4.00735332047094
30
0
41
1
10
38.5953491791551
20
3.67902187257332
30
0
41
1
10
43.7513754992976
20
2.69003633321847
30
0
41
1
10
47.1884611990539
20
2.02487446876034
30
0
41
1
10
54.0634913095968
20
0.690047978805808
30
0
41
1
10
57.5014377780015
20
0.0203877158770069
30
0
41
1
10
62.6604448939713
20
-0.979988524180754
30
0
41
1
10
64.3804994027581
20
-1.31271077645948
30
0
41
1
10
67.8191478645631
20
-1.97518215258415
30
0
41
1
10
69.5380399820884
20
-2.30497526768735
30
0
41
1
10
78.130976714273
20
-3.94340198648712
30
0
41
1
10
85.0004346041173
20
-5.22029409976835
30
0
41
1
10
98.7436159269633
20
-7.63720567326271
30
0
41
1
10
105.617358456005
20
-8.77715454726987
30
0
41
1
10
112.5
20
-9.81801463906572
30
0
0
SPLINE
5
1F8
100
AcDbEntity
8
1
62
256
6
ByLayer
370
-1
48
1
60
0
100
AcDbSpline
70
4
71
3
72
16
73
12
40
0
40
0
40
0
40
0
40
0.265780734562094
40
0.531561469124187
40
0.664451836405234
40
0.730897020045757
40
0.797342203686281
40
0.863787387326804
40
0.930232570967327
40
0.996677754607851
40
1
40
1
40
1
40
1
41
1
10
179.173469789368
20
11.8299999999998
30
0
41
1
10
177.584496719023
20
11.7920933906762
30
0
41
1
10
174.406574449598
20
11.703372386518
30
0
41
1
10
170.433772765217
20
11.5618747267553
30
0
41
1
10
167.653039246328
20
11.4477619548367
30
0
41
1
10
166.064414305954
20
11.3782914667074
30
0
41
1
10
164.872813558084
20
11.3240567769021
30
0
41
1
10
163.680866512782
20
11.2676892705688
30
0
41
1
10
162.488202234269
20
11.2091586436739
30
0
41
1
10
161.673324005421
20
11.1676884364913
30
0
41
1
10
161.256148565601
20
11.1460549427453
30
0
41
1
10
161.236283583215
20
11.1450238892294
30
0
0
SPLINE
5
1F9
100
AcDbEntity
8
1
62
256
6
ByLayer
370
-1
48
1
60
0
100
AcDbSpline
70
4
71
3
72
8
73
4
40
0
40
0
40
0
40
0
40
1
40
1
40
1
40
1
41
1
10
23.9221986375663
20
-11.6198710319747
30
0
41
1
10
23.7074689057335
20
-11.555044758489
30
0
41
1
10
23.4935462295602
20
-11.4873348074853
30
0
41
1
10
23.2804463812088
20
-11.4166670087953
30
0
0
SPLINE
5
1FA
100
AcDbEntity
8
1
62
256
6
ByLayer
370
-1
48
1
60
0
100
AcDbSpline
70
4
71
3
72
16
73
12
40
0
40
0
40
0
40
0
40
0.249999999999999
40
0.249999999999999
40
0.499999999999999
40
0.499999999999999
40
0.624999999999999
40
0.624999999999999
40
0.749999999999999
40
0.749999999999999
40
1
40
1
40
1
40
1
41
1
10
112.5
20
15.8757779861288
30
0
41
1
10
117.107207322733
20
15.6538211036937
30
0
41
1
10
121.712060786798
20
15.3626917985983
30
0
41
1
10
130.921246937056
20
14.6500721676437
30
0
41
1
10
135.525494249753
20
14.2284490978604
30
0
41
1
10
142.434210456543
20
13.5047682276844
30
0
41
1
10
144.737902669589
20
13.2483559929844
30
0
41
1
10
149.344447472818
20
12.7072193099665
30
0
41
1
10
151.64730021354
20
12.422504106388
30
0
41
1
10
158.555473639956
20
11.5289190891332
30
0
41
1
10
163.160431046948
20
10.8806146266861
30
0
41
1
10
167.76707786601
20
10.1882715355226
30
0
0
SPLINE
5
1FB
100
AcDbEntity
8
1
62
256
6
ByLayer
370
-1
48
1
60
0
100
AcDbSpline
70
4
71
3
72
14
73
10
40
0
40
0
40
0
40
0
40
0.0881951882034084
40
0.185164860420284
40
0.379104204854034
40
0.766982893721536
40
0.960922238155286
40
0.985164656209505
40
1
40
1
40
1
40
1
41
1
10
198.108551490737
20
16.007868522738
30
0
41
1
10
198.108429025445
20
16.0031075216753
30
0
41
1
10
198.108165977681
20
15.9931489633074
30
0
41
1
10
198.10762753498
20
15.9727592383227
30
0
41
1
10
198.106668693088
20
15.936218413499
30
0
41
1
10
198.105573349184
20
15.8944552463352
30
0
41
1
10
198.104711939194
20
15.8618616251979
30
0
41
1
10
198.104385670715
20
15.8493005830123
30
0
41
1
10
198.104328326925
20
15.8472094037956
30
0
41
1
10
198.10430802694
20
15.846406747973
30
0
0
SPLINE
5
1FC
100
AcDbEntity
8
1
62
256
6
ByLayer
370
-1
48
1
60
0
100
AcDbSpline
70
4
71
3
72
10
73
6
40
0
40
0
40
0
40
0
40
0.62616954409431
40
0.939254316141465
40
1
40
1
40
1
40
1
41
1
10
198.389622005782
20
7.62222831007372
30
0
41
1
10
198.389843650261
20
7.61585699786548
30
0
41
1
10
198.390337528068
20
7.60630491191864
30
0
41
1
10
198.391063655325
20
7.59722746567832
30
0
41
1
10
198.391358669791
20
7.5940735686346
30
0
41
1
10
198.39140695399
20
7.59356460029935
30
0
0
SPLINE
5
1FD
100
AcDbEntity
8
1
62
256
6
ByLayer
370
-1
48
1
60
0
100
AcDbSpline
70
4
71
3
72
11
73
7
40
0
40
0
40
0
40
0
40
0.0814967294346611
40
0.520021388628437
40
0.958546047822212
40
1
40
1
40
1
40
1
41
1
10
198.105007540496
20
16.4836130556033
30
0
41
1
10
198.105071937318
20
16.4812536036314
30
0
41
1
10
198.105480737648
20
16.466200074052
30
0
41
1
10
198.106233403046
20
16.438453621569
30
0
41
1
10
198.106958704283
20
16.411862371831
30
0
41
1
10
198.107333070114
20
16.3979708332964
30
0
41
1
10
198.107365319876
20
16.3967711606128
30
0
0
SPLINE
5
1FE
100
AcDbEntity
8
1
62
256
6
ByLayer
370
-1
48
1
60
0
100
AcDbSpline
70
4
71
3
72
18
73
14
40
0
40
0
40
0
40
0
40
0.0041315572796286
40
0.0497906845581646
40
0.0954498118367005
40
0.186768066393772
40
0.369404575507916
40
0.55204108462206
40
0.734677593736204
40
0.825995848293276
40
0.917314102850348
40
0.962973230128883
40
1
40
1
40
1
40
1
41
1
10
190.24289945359
20
15.7321451270519
30
0
41
1
10
190.242911638568
20
15.7326187905826
30
0
41
1
10
190.243058152125
20
15.7383291304697
30
0
41
1
10
190.243330604813
20
15.7493286223675
30
0
41
1
10
190.243789265868
20
15.770753313382
30
0
41
1
10
190.244446594619
20
15.809082543821
30
0
41
1
10
190.244958335568
20
15.866093278732
30
0
41
1
10
190.244887853351
20
15.9374630709947
30
0
41
1
10
190.244256179817
20
15.9988714472915
30
0
41
1
10
190.243411522096
20
16.0488174607507
30
0
41
1
10
190.242744258482
20
16.0803031444876
30
0
41
1
10
190.242157186694
20
16.1044139828006
30
0
41
1
10
190.241851681519
20
16.1159015741846
30
0
41
1
10
190.241713352649
20
16.1210473289393
30
0
0
SPLINE
5
1FF
100
AcDbEntity
8
1
62
256
6
ByLayer
370
-1
48
1
60
0
100
AcDbSpline
70
4
71
3
72
11
73
7
40
0
40
0
40
0
40
0
40
0.0414539424600608
40
0.479978610899806
40
0.91850327933955
40
1
40
1
40
1
40
1
41
1
10
198.858886410073
20
15.6932894460631
30
0
41
1
10
198.860091001677
20
15.6933313395467
30
0
41
1
10
198.874038570203
20
15.6938164427643
30
0
41
1
10
198.900728384356
20
15.6947450296682
30
0
41
1
10
198.928581828429
20
15.6957139571469
30
0
41
1
10
198.943692955108
20
15.6962396379902
30
0
41
1
10
198.946061111934
20
15.6963220318602
30
0
0
SPLINE
5
200
100
AcDbEntity
8
1
62
256
6
ByLayer
370
-1
48
1
60
0
100
AcDbSpline
70
4
71
3
72
14
73
10
40
0
40
0
40
0
40
0
40
0.01483524065668
40
0.0390776615035539
40
0.233017028278545
40
0.620895761828528
40
0.81483512860352
40
0.911804811991016
40
1
40
1
40
1
40
1
41
1
10
190.341650020771
20
7.49017721914956
30
0
41
1
10
190.340898647981
20
7.49014919001411
30
0
41
1
10
190.338945521874
20
7.49007616458061
30
0
41
1
10
190.327195471847
20
7.48963752156521
30
0
41
1
10
190.296721223265
20
7.48849932988338
30
0
41
1
10
190.257665133533
20
7.48704092644667
30
0
41
1
10
190.223493383846
20
7.48576489296349
30
0
41
1
10
190.204429006624
20
7.48505286809925
30
0
41
1
10
190.195117269887
20
7.48470509018068
30
0
41
1
10
190.190662544959
20
7.48453883449989
30
0
0
SPLINE
5
201
100
AcDbEntity
8
1
62
256
6
ByLayer
370
-1
48
1
60
0
100
AcDbSpline
70
4
71
3
72
14
73
10
40
0
40
0
40
0
40
0
40
0.0881951882032247
40
0.185164860420125
40
0.379104204853927
40
0.766982893721529
40
0.96092223815533
40
0.985164656209556
40
1
40
1
40
1
40
1
41
1
10
198.733795353906
20
7.78401118682953
30
0
41
1
10
198.728764379439
20
7.7838449290096
30
0
41
1
10
198.718234231442
20
7.78349716848993
30
0
41
1
10
198.696674337402
20
7.78278514360693
30
0
41
1
10
198.658042541536
20
7.78150910989189
30
0
41
1
10
198.61389009966
20
7.78005070796462
30
0
41
1
10
198.579425233949
20
7.77891251363906
30
0
41
1
10
198.566148749748
20
7.77847387238228
30
0
41
1
10
198.563935436606
20
7.77840084679522
30
0
41
1
10
198.563087612448
20
7.77837281743638
30
0
0
SPLINE
5
202
100
AcDbEntity
8
1
62
256
6
ByLayer
370
-1
48
1
60
0
100
AcDbSpline
70
4
71
3
72
11
73
7
40
0
40
0
40
0
40
0
40
0.0414539424591866
40
0.479978610899111
40
0.918503279339036
40
1
40
1
40
1
40
1
41
1
10
189.81558321766
20
7.47095807035299
30
0
41
1
10
189.81439759468
20
7.47091617686937
30
0
41
1
10
189.800667808987
20
7.47043107365175
30
0
41
1
10
189.774377499056
20
7.46950248674784
30
0
41
1
10
189.746949205003
20
7.46853355926916
30
0
41
1
10
189.732067838586
20
7.46800787842591
30
0
41
1
10
189.729735048801
20
7.46792548455585
30
0
0
SPLINE
5
203
100
AcDbEntity
8
1
62
256
6
ByLayer
370
-1
48
1
60
0
100
AcDbSpline
70
4
71
1
72
4
73
2
40
0
40
0
40
1
40
1
41
1
10
199.482247676948
20
16.2318805549256
30
0
41
1
10
199.412289995142
20
16.2294468863749
30
0
0
SPLINE
5
204
100
AcDbEntity
8
1
62
256
6
ByLayer
370
-1
48
1
60
0
100
AcDbSpline
70
4
71
3
72
18
73
14
40
0
40
0
40
0
40
0
40
0.0041315572796202
40
0.0497906845581557
40
0.0954498118366912
40
0.186768066393762
40
0.369404575507904
40
0.552041084622046
40
0.734677593736188
40
0.825995848293259
40
0.91731410285033
40
0.962973230128865
40
1
40
1
40
1
40
1
41
1
10
198.406884205547
20
7.43210238936419
30
0
41
1
10
198.406929346031
20
7.43162872583349
30
0
41
1
10
198.407473160887
20
7.42591838594635
30
0
41
1
10
198.408510911703
20
7.41491889404861
30
0
41
1
10
198.41046021215
20
7.39349420303404
30
0
41
1
10
198.413784326655
20
7.35516497259508
30
0
41
1
10
198.418262633431
20
7.29815423768406
30
0
41
1
10
198.423157759526
20
7.22678444542134
30
0
41
1
10
198.426798621109
20
7.16537606912456
30
0
41
1
10
198.429428995774
20
7.11543005566543
30
0
41
1
10
198.430952372877
20
7.08394437192845
30
0
41
1
10
198.43204283125
20
7.05983353361543
30
0
41
1
10
198.432536584101
20
7.04834594223152
30
0
41
1
10
198.432756275084
20
7.04320018747683
30
0
0
SPLINE
5
205
100
AcDbEntity
8
1
62
256
6
ByLayer
370
-1
48
1
60
0
100
AcDbSpline
70
4
71
1
72
4
73
2
40
0
40
0
40
1
40
1
41
1
10
198.968095712542
20
6.41625102010767
30
0
41
1
10
198.96513957619
20
6.48594216913153
30
0
0
SPLINE
5
206
100
AcDbEntity
8
1
62
256
6
ByLayer
370
-1
48
1
60
0
100
AcDbSpline
70
4
71
3
72
12
73
8
40
0
40
0
40
0
40
0
40
0.0304623077133518
40
0.151654519249183
40
0.272846730785014
40
0.515231153856676
40
1
40
1
40
1
40
1
41
1
10
190.233296013816
20
16.3820944697485
30
0
41
1
10
190.233161068077
20
16.3852856308641
30
0
41
1
10
190.232485843705
20
16.401169364354
30
0
41
1
10
190.231272994286
20
16.4297479763192
30
0
41
1
10
190.229120474703
20
16.4805257976296
30
0
41
1
10
190.225351271929
20
16.5693850520721
30
0
41
1
10
190.222120526661
20
16.6455501280935
30
0
41
1
10
190.219966696406
20
16.696326847226
30
0
0
SPLINE
5
207
100
AcDbEntity
8
1
62
256
6
ByLayer
370
-1
48
1
60
0
100
AcDbSpline
70
4
71
3
72
12
73
8
40
0
40
0
40
0
40
0
40
0.484768844990493
40
0.727153267485739
40
0.848345478733362
40
0.969537689980985
40
1
40
1
40
1
40
1
41
1
10
199.704917537088
20
7.81768116952597
30
0
41
1
10
199.654721454269
20
7.81590800742811
30
0
41
1
10
199.579427332711
20
7.81324826437563
30
0
41
1
10
199.491584191737
20
7.81014523084423
30
0
41
1
10
199.441385661792
20
7.80837203025288
30
0
41
1
10
199.413134459746
20
7.80737404312629
30
0
41
1
10
199.397433832071
20
7.80681937095159
30
0
41
1
10
199.394278746143
20
7.80670793314545
30
0
0
SPLINE
5
208
100
AcDbEntity
8
1
62
256
6
ByLayer
370
-1
48
1
60
0
100
AcDbSpline
70
4
71
3
72
10
73
6
40
0
40
0
40
0
40
0
40
0.499225645850143
40
0.499225645850143
40
1
40
1
40
1
40
1
41
1
10
188.879237146885
20
15.8602009150437
30
0
41
1
10
188.878663594061
20
15.8753344407426
30
0
41
1
10
188.878128716186
20
15.8904696099107
30
0
41
1
10
188.87714260448
20
15.9207898322
30
0
41
1
10
188.876691867566
20
15.9359750417367
30
0
41
1
10
188.876283927074
20
15.9511613612592
30
0
0
SPLINE
5
209
100
AcDbEntity
8
1
62
256
6
ByLayer
370
-1
48
1
60
0
100
AcDbSpline
70
4
71
2
72
9
73
6
40
0
40
0
40
0
40
0.25
40
0.5
40
0.75
40
1
40
1
40
1
41
1
10
190.36941685812
20
7.49117817795135
30
0
41
1
10
190.370574921624
20
7.46138803902215
30
0
41
1
10
190.39474376194
20
7.40756865234582
30
0
41
1
10
190.438053479441
20
7.36669319572579
30
0
41
1
10
190.493649279587
20
7.34556641801834
30
0
41
1
10
190.523970038637
20
7.34650447840386
30
0
0
SPLINE
5
20A
100
AcDbEntity
8
1
62
256
6
ByLayer
370
-1
48
1
60
0
100
AcDbSpline
70
4
71
3
72
16
73
12
40
0
40
0
40
0
40
0
40
0.572471985996874
40
0.858707978995311
40
0.93026697724492
40
0.966046476369725
40
0.983936225932127
40
0.992881100713328
40
0.997353538103929
40
0.999589756799229
40
1
40
1
40
1
40
1
41
1
10
190.219966696406
20
16.696326847226
30
0
41
1
10
190.121863310116
20
16.6928879153063
30
0
41
1
10
189.974708165075
20
16.6877299541054
30
0
41
1
10
189.815290309729
20
16.682140707201
30
0
41
1
10
189.74784408618
20
16.6797773966717
30
0
41
1
10
189.726384125727
20
16.6790241069028
30
0
41
1
10
189.715653834935
20
16.6786495088423
30
0
41
1
10
189.710289175196
20
16.6784591686342
30
0
41
1
10
189.70760618915
20
16.6783688789051
30
0
41
1
10
189.706386077006
20
16.6783203208106
30
0
41
1
10
189.705933158189
20
16.6782952136386
30
0
41
1
10
189.705862964603
20
16.6782911516863
30
0
0
SPLINE
5
20B
100
AcDbEntity
8
1
62
256
6
ByLayer
370
-1
48
1
60
0
100
AcDbSpline
70
4
71
3
72
10
73
6
40
0
40
0
40
0
40
0
40
0.626169544094259
40
0.939254316141388
40
1
40
1
40
1
40
1
41
1
10
190.238865411315
20
15.5420192063424
30
0
41
1
10
190.238643766836
20
15.5483905185506
30
0
41
1
10
190.2384730509
20
15.5579426044974
30
0
41
1
10
190.238567607837
20
15.5670200507378
30
0
41
1
10
190.238643187485
20
15.5701739477815
30
0
41
1
10
190.23865605982
20
15.5706829161168
30
0
0
SPLINE
5
20C
100
AcDbEntity
8
1
62
256
6
ByLayer
370
-1
48
1
60
0
100
AcDbSpline
70
4
71
3
72
14
73
10
40
0
40
0
40
0
40
0
40
0.088195188203407
40
0.185164860420282
40
0.379104204854031
40
0.766982893721529
40
0.960922238155279
40
0.985164656209497
40
1
40
1
40
1
40
1
41
1
10
190.541232278011
20
7.15637899367806
30
0
41
1
10
190.540778562402
20
7.16113999474084
30
0
41
1
10
190.539822640266
20
7.17109855310866
30
0
41
1
10
190.537865566738
20
7.19148827809335
30
0
41
1
10
190.534364368803
20
7.22802910291705
30
0
41
1
10
190.530363320364
20
7.26979227008087
30
0
41
1
10
190.527234184069
20
7.30238589121817
30
0
41
1
10
190.526033971401
20
7.3149469334038
30
0
41
1
10
190.525831132205
20
7.31703811262045
30
0
41
1
10
190.525754986823
20
7.31784076844312
30
0
0
SPLINE
5
20D
100
AcDbEntity
8
1
62
256
6
ByLayer
370
-1
48
1
60
0
100
AcDbSpline
70
4
71
3
72
12
73
8
40
0
40
0
40
0
40
0
40
0.484768844990549
40
0.727153267485824
40
0.848345478733461
40
0.969537689981098
40
1
40
1
40
1
40
1
41
1
10
188.966084294095
20
15.3465663468901
30
0
41
1
10
189.017055208049
20
15.348339508988
30
0
41
1
10
189.093511576267
20
15.3509992520405
30
0
41
1
10
189.182710671665
20
15.3541022855719
30
0
41
1
10
189.23368133472
20
15.3558754861632
30
0
41
1
10
189.262369856649
20
15.3568734732898
30
0
41
1
10
189.27831581006
20
15.3574281454645
30
0
41
1
10
189.281518759975
20
15.3575395832706
30
0
0
SPLINE
5
20E
100
AcDbEntity
8
1
62
256
6
ByLayer
370
-1
48
1
60
0
100
AcDbSpline
70
4
71
3
72
16
73
12
40
0
40
0
40
0
40
0
40
0.572471985996886
40
0.858707978995328
40
0.930266977244939
40
0.966046476369744
40
0.983936225932147
40
0.992881100713348
40
0.997353538103949
40
0.999589756799249
40
1
40
1
40
1
40
1
41
1
10
199.430242917835
20
15.7133786495144
30
0
41
1
10
199.42681707209
20
15.8118567748031
30
0
41
1
10
199.421678741763
20
15.9595740318788
30
0
41
1
10
199.416110756263
20
16.1196008301381
30
0
41
1
10
199.413756446007
20
16.1873046944935
30
0
41
1
10
199.413006015058
20
16.208846620806
30
0
41
1
10
199.412632853968
20
16.2196179111214
30
0
41
1
10
199.412443221011
20
16.2250030458732
30
0
41
1
10
199.412353302929
20
16.2276963086645
30
0
41
1
10
199.412304886218
20
16.2289210378769
30
0
41
1
10
199.412279804074
20
16.2293756159888
30
0
41
1
10
199.412275745336
20
16.2294460654133
30
0
0
SPLINE
5
20F
100
AcDbEntity
8
1
62
256
6
ByLayer
370
-1
48
1
60
0
100
AcDbSpline
70
4
71
3
72
16
73
12
40
0
40
0
40
0
40
0
40
0.572471985996886
40
0.858707978995328
40
0.930266977244939
40
0.966046476369744
40
0.983936225932147
40
0.992881100713348
40
0.997353538103949
40
0.999589756799249
40
1
40
1
40
1
40
1
41
1
10
189.240758913347
20
7.45086886690163
30
0
41
1
10
189.244184759093
20
7.35239074161299
30
0
41
1
10
189.249323095968
20
7.20467348453732
30
0
41
1
10
189.254891066734
20
7.04464668627799
30
0
41
1
10
189.257245391316
20
6.97694282192259
30
0
41
1
10
189.257995806915
20
6.95540089561004
30
0
41
1
10
189.258368991028
20
6.94462960529472
30
0
41
1
10
189.258558589884
20
6.93924447054286
30
0
41
1
10
189.258648564101
20
6.93655120775156
30
0
41
1
10
189.258696894022
20
6.9353264785392
30
0
41
1
10
189.258721835141
20
6.93487190042725
30
0
41
1
10
189.258725869393
20
6.93480145100278
30
0
0
SPLINE
5
210
100
AcDbEntity
8
1
62
256
6
ByLayer
370
-1
48
1
60
0
100
AcDbSpline
70
4
71
3
72
44
73
40
40
0
40
0
40
0
40
0
40
0.000510080952465
40
0.0008224215521674
40
0.0055075305477027
40
0.0105049801429403
40
0.0204998793334157
40
0.0404896777143664
40
0.0804692744762678
40
0.120448871238169
40
0.14043866961912
40
0.160428468000071
40
0.180418266381021
40
0.200408064761972
40
0.220397863142923
40
0.240387661523873
40
0.260377459904824
40
0.280367258285775
40
0.300357056666726
40
0.320346855047676
40
0.340336653428627
40
0.350331552619102
40
0.360326451809578
40
0.380316250190528
40
0.400306048571479
40
0.44028564533338
40
0.480265242095282
40
0.520244838857183
40
0.560224435619085
40
0.580214234000035
40
0.600204032380986
40
0.640183629142887
40
0.680163225904789
40
0.70015302428574
40
0.72014282266669
40
0.760122419428592
40
0.840081612952394
40
0.920040806476197
40
1
40
1
40
1
40
1
41
1
10
199.412275745336
20
16.2294460654133
30
0
41
1
10
199.412257680061
20
16.2297596328837
30
0
41
1
10
199.412223103108
20
16.2302646552583
30
0
41
1
10
199.41193208855
20
16.233640515916
30
0
41
1
10
199.411442996124
20
16.2397788309059
30
0
41
1
10
199.410590197416
20
16.2518842995717
30
0
41
1
10
199.409306775144
20
16.2733943280348
30
0
41
1
10
199.407570564118
20
16.3164777920781
30
0
41
1
10
199.406429796816
20
16.3780521081607
30
0
41
1
10
199.404944919009
20
16.4396244996284
30
0
41
1
10
199.4021886378
20
16.48882079689
30
0
41
1
10
199.398893453428
20
16.5256303763809
30
0
41
1
10
199.393838282166
20
16.5622465806893
30
0
41
1
10
199.386281591805
20
16.5984426676589
30
0
41
1
10
199.375368302686
20
16.6337794485006
30
0
41
1
10
199.361108132328
20
16.6678942780524
30
0
41
1
10
199.343634775548
20
16.7004663052076
30
0
41
1
10
199.323277295531
20
16.7312980553378
30
0
41
1
10
199.300483759364
20
16.7603471634439
30
0
41
1
10
199.275763099988
20
16.7877455679064
30
0
41
1
10
199.253948589649
20
16.8093993265312
30
0
41
1
10
199.23602800955
20
16.8262168828887
30
0
41
1
10
199.217828602819
20
16.8427254291663
30
0
41
1
10
199.194567960762
20
16.8627853430744
30
0
41
1
10
199.156001395018
20
16.8932013484152
30
0
41
1
10
199.10487073864
20
16.9273121618396
30
0
41
1
10
199.038551405507
20
16.9596036590969
30
0
41
1
10
198.968217934116
20
16.9817700914294
30
0
41
1
10
198.907616764734
20
16.9917464362588
30
0
41
1
10
198.858698161158
20
16.9953145553711
30
0
41
1
10
198.809667499546
20
16.9967984636654
30
0
41
1
10
198.748336472299
20
16.9958713482325
30
0
41
1
10
198.687032592892
20
16.9933547038393
30
0
41
1
10
198.637971877308
20
16.9912938386989
30
0
41
1
10
198.58889405056
20
16.9893447345077
30
0
41
1
10
198.502976188978
20
16.9861229157732
30
0
41
1
10
198.380183829842
20
16.9819256300189
30
0
41
1
10
198.232840018582
20
16.9771077807577
30
0
41
1
10
198.134669293322
20
16.973795063065
30
0
41
1
10
198.085618663707
20
16.9720506789012
30
0
0
SPLINE
5
211
100
AcDbEntity
8
1
62
256
6
ByLayer
370
-1
48
1
60
0
100
AcDbSpline
70
4
71
3
72
10
73
6
40
0
40
0
40
0
40
0
40
0.5
40
0.5
40
1
40
1
40
1
40
1
41
1
10
191.74471632751
20
8.99207100863902
30
0
41
1
10
191.739404943545
20
9.02249398555009
30
0
41
1
10
191.732023383655
20
9.0544622538996
30
0
41
1
10
191.71318930531
20
9.12138397314644
30
0
41
1
10
191.701600274554
20
9.15643592936047
30
0
41
1
10
191.689020665193
20
9.19041762547872
30
0
0
SPLINE
5
212
100
AcDbEntity
8
1
62
256
6
ByLayer
370
-1
48
1
60
0
100
AcDbSpline
70
4
71
3
72
10
73
6
40
0
40
0
40
0
40
0
40
0.283853282483197
40
0.283853282483197
40
1
40
1
40
1
40
1
41
1
10
189.934744991351
20
6.10053740262367
30
0
41
1
10
189.919659147093
20
6.10029370888469
30
0
41
1
10
189.90457450625
20
6.10008861297757
30
0
41
1
10
189.851435899027
20
6.09949690085378
30
0
41
1
10
189.813385160011
20
6.09930813193253
30
0
41
1
10
189.775335954847
20
6.09933956944047
30
0
0
SPLINE
5
213
100
AcDbEntity
8
1
62
256
6
ByLayer
370
-1
48
1
60
0
100
AcDbSpline
70
4
71
3
72
8
73
4
40
0
40
0
40
0
40
0
40
1
40
1
40
1
40
1
41
1
10
190.570788971617
20
6.68063481927928
30
0
41
1
10
190.573245843639
20
6.62271386642385
30
0
41
1
10
190.5752761827
20
6.56435047248664
30
0
41
1
10
190.576849205621
20
6.50642951963118
30
0
0
SPLINE
5
214
100
AcDbEntity
8
1
62
256
6
ByLayer
370
-1
48
1
60
0
100
AcDbSpline
70
4
71
3
72
10
73
6
40
0
40
0
40
0
40
0
40
0.499245058431769
40
0.499245058431769
40
1
40
1
40
1
40
1
41
1
10
199.05867621918
20
6.41981966252982
30
0
41
1
10
199.043605869252
20
6.41915886005026
30
0
41
1
10
199.028533899359
20
6.41853221720504
30
0
41
1
10
198.998340665582
20
6.41734326510453
30
0
41
1
10
198.983219318266
20
6.41678116542002
30
0
41
1
10
198.968095712542
20
6.41625102010767
30
0
0
SPLINE
5
215
100
AcDbEntity
8
1
62
256
6
ByLayer
370
-1
48
1
60
0
100
AcDbSpline
70
4
71
3
72
8
73
4
40
0
40
0
40
0
40
0
40
1
40
1
40
1
40
1
41
1
10
199.476307170833
20
16.3717590514809
30
0
41
1
10
199.477178734683
20
16.3554489868383
30
0
41
1
10
199.477970487201
20
16.339134441736
30
0
41
1
10
199.478683081728
20
16.3228166333559
30
0
0
SPLINE
5
216
100
AcDbEntity
8
1
62
256
6
ByLayer
370
-1
48
1
60
0
100
AcDbSpline
70
4
71
1
72
4
73
2
40
0
40
0
40
1
40
1
41
1
10
189.70396957593
20
16.7479964963084
30
0
41
1
10
189.705862254992
20
16.6783053472845
30
0
0
SPLINE
5
217
100
AcDbEntity
8
1
62
256
6
ByLayer
370
-1
48
1
60
0
100
AcDbSpline
70
4
71
3
72
14
73
10
40
0
40
0
40
0
40
0
40
0.0881951882034241
40
0.185164860420303
40
0.37910420485406
40
0.766982893721576
40
0.960922238155333
40
0.985164656209553
40
1
40
1
40
1
40
1
41
1
10
189.915988414842
20
15.3802363295866
30
0
41
1
10
189.920443208408
20
15.3804025874065
30
0
41
1
10
189.929754386504
20
15.3807503479261
30
0
41
1
10
189.948818764315
20
15.3814623728091
30
0
41
1
10
189.982990520355
20
15.3827384065242
30
0
41
1
10
190.022046569888
20
15.3841968084515
30
0
41
1
10
190.052520889314
20
15.385335002777
30
0
41
1
10
190.064270892368
20
15.3857736440338
30
0
41
1
10
190.066224022523
20
15.3858466696209
30
0
41
1
10
190.066975401315
20
15.3858746989797
30
0
0
SPLINE
5
218
100
AcDbEntity
8
1
62
256
6
ByLayer
370
-1
48
1
60
0
100
AcDbSpline
70
4
71
3
72
10
73
6
40
0
40
0
40
0
40
0
40
0.626169544094389
40
0.939254316141584
40
1
40
1
40
1
40
1
41
1
10
190.36941685812
20
7.49117817795135
30
0
41
1
10
190.363069790678
20
7.49095568682637
30
0
41
1
10
190.353715634237
20
7.49062212063487
30
0
41
1
10
190.345083072517
20
7.49030512922712
30
0
41
1
10
190.342126474061
20
7.49019499271546
30
0
41
1
10
190.341650020771
20
7.49017721914956
30
0
0
SPLINE
5
219
100
AcDbEntity
8
1
62
256
6
ByLayer
370
-1
48
1
60
0
100
AcDbSpline
70
4
71
3
72
8
73
4
40
0
40
0
40
0
40
0
40
1
40
1
40
1
40
1
41
1
10
199.377468182737
20
6.4527529480294
30
0
41
1
10
199.341402029407
20
6.44169653280568
30
0
41
1
10
199.30421316228
20
6.43477798482547
30
0
41
1
10
199.266575767858
20
6.43210129402678
30
0
0
SPLINE
5
21A
100
AcDbEntity
8
1
62
256
6
ByLayer
370
-1
48
1
60
0
100
AcDbSpline
70
4
71
3
72
9
73
5
40
0
40
0
40
0
40
0
40
0.33928571428529
40
1
40
1
40
1
40
1
41
1
10
188.897190069572
20
15.3441326784953
30
0
41
1
10
188.904981678297
20
15.3444079148194
30
0
41
1
10
188.927946419803
20
15.3452191376697
30
0
41
1
10
188.950911161309
20
15.3460303605199
30
0
41
1
10
188.966084294089
20
15.3465663470459
30
0
0
SPLINE
5
21B
100
AcDbEntity
8
1
62
256
6
ByLayer
370
-1
48
1
60
0
100
AcDbSpline
70
4
71
3
72
12
73
8
40
0
40
0
40
0
40
0
40
0.0304623077133956
40
0.151654519249221
40
0.272846730785047
40
0.515231153856698
40
1
40
1
40
1
40
1
41
1
10
199.11960412689
20
15.7024054130937
30
0
41
1
10
199.122759212682
20
15.7025168508955
30
0
41
1
10
199.1384598409
20
15.7030715230913
30
0
41
1
10
199.166711042678
20
15.7040695102122
30
0
41
1
10
199.216909572495
20
15.7058427108054
30
0
41
1
10
199.304752713435
20
15.708945744347
30
0
41
1
10
199.380046835016
20
15.7116054874101
30
0
41
1
10
199.430242917835
20
15.7133786495144
30
0
0
SPLINE
5
21C
100
AcDbEntity
8
1
62
256
6
ByLayer
370
-1
48
1
60
0
100
AcDbSpline
70
4
71
3
72
16
73
12
40
0
40
0
40
0
40
0
40
0.0879840035943698
40
0.0879840035943698
40
0.263952205556009
40
0.263952205556009
40
0.439920047076063
40
0.439920047076063
40
0.615888399375273
40
0.615888399375273
40
1
40
1
40
1
40
1
41
1
10
190.588339303672
20
6.12250568848555
30
0
41
1
10
190.573261322218
20
6.12197714249373
30
0
41
1
10
190.558185127453
20
6.12145293472247
30
0
41
1
10
190.512960683302
20
6.11988991831944
30
0
41
1
10
190.482816546959
20
6.11886075488502
30
0
41
1
10
190.422531435755
20
6.11680921835762
30
0
41
1
10
190.39239039395
20
6.11578684093678
30
0
41
1
10
190.332102350513
20
6.11372865259935
30
0
41
1
10
190.30195518226
20
6.11269268765625
30
0
41
1
10
190.205980725808
20
6.10934244473466
30
0
41
1
10
190.140113922644
20
6.10693362202557
30
0
41
1
10
190.074234862572
20
6.1044841884837
30
0
0
SPLINE
5
21D
100
AcDbEntity
8
1
62
256
6
ByLayer
370
-1
48
1
60
0
100
AcDbSpline
70
4
71
3
72
16
73
12
40
0
40
0
40
0
40
0
40
0.0879840035943915
40
0.0879840035943915
40
0.263952205556019
40
0.263952205556019
40
0.439920047076074
40
0.439920047076074
40
0.615888399375295
40
0.615888399375295
40
1
40
1
40
1
40
1
41
1
10
188.897190069572
20
15.3441326784953
30
0
41
1
10
188.896663534858
20
15.3592682553889
30
0
41
1
10
188.89614326834
20
15.374403992689
30
0
41
1
10
188.89459634667
20
15.4198113726123
30
0
41
1
10
188.8935836254
20
15.450083228394
30
0
41
1
10
188.891567988251
20
15.5106268189001
30
0
41
1
10
188.890565067157
20
15.5408986199194
30
0
41
1
10
188.888539822032
20
15.6014421609926
30
0
41
1
10
188.887517277097
20
15.631714000584
30
0
41
1
10
188.884186184272
20
15.7280614897308
30
0
41
1
10
188.881741040059
20
15.7941342318257
30
0
41
1
10
188.879237146819
20
15.8602009150414
30
0
0
SPLINE
5
21E
100
AcDbEntity
8
1
62
256
6
ByLayer
370
-1
48
1
60
0
100
AcDbSpline
70
4
71
3
72
8
73
4
40
0
40
0
40
0
40
0
40
1
40
1
40
1
40
1
41
1
10
189.564605234216
20
16.7420514927278
30
0
41
1
10
189.580856124224
20
16.742923484686
30
0
41
1
10
189.597111645772
20
16.7437151916722
30
0
41
1
10
189.613370004173
20
16.7444278538863
30
0
0
SPLINE
5
21F
100
AcDbEntity
8
1
62
256
6
ByLayer
370
-1
48
1
60
0
100
AcDbSpline
70
4
71
3
72
13
73
9
40
0
40
0
40
0
40
0
40
0.0688517852168543
40
0.178433579648117
40
0.616760757373169
40
0.835924346235695
40
0.945506140666958
40
1
40
1
40
1
40
1
41
1
10
190.239355573257
20
16.2078892239305
30
0
41
1
10
190.239246714069
20
16.211877744116
30
0
41
1
10
190.238962151773
20
16.2222164016555
30
0
41
1
10
190.237920876048
20
16.2580022914301
30
0
41
1
10
190.236439160262
20
16.3026264755949
30
0
41
1
10
190.234734399474
20
16.3471985697381
30
0
41
1
10
190.233829415101
20
16.3694311470267
30
0
41
1
10
190.233429504283
20
16.3789377225472
30
0
41
1
10
190.233296013816
20
16.3820944697485
30
0
0
SPLINE
5
220
100
AcDbEntity
8
1
62
256
6
ByLayer
370
-1
48
1
60
0
100
AcDbSpline
70
4
71
3
72
14
73
10
40
0
40
0
40
0
40
0
40
0.25
40
0.25
40
0.5
40
0.5
40
0.75
40
0.75
40
1
40
1
40
1
40
1
41
1
10
189.663323046602
20
6.11223173893109
30
0
41
1
10
189.612091793718
20
6.12413245241919
30
0
41
1
10
189.562811603908
20
6.14273793816028
30
0
41
1
10
189.471001779263
20
6.19180252986382
30
0
41
1
10
189.427778179231
20
6.22278244905596
30
0
41
1
10
189.351761720257
20
6.29398996312057
30
0
41
1
10
189.318004936029
20
6.33512760981455
30
0
41
1
10
189.263044657334
20
6.42361830181923
30
0
41
1
10
189.241531828199
20
6.4709355602586
30
0
41
1
10
189.226180638528
20
6.52143075495849
30
0
0
SPLINE
5
221
100
AcDbEntity
8
1
62
256
6
ByLayer
370
-1
48
1
60
0
100
AcDbSpline
70
4
71
3
72
8
73
4
40
0
40
0
40
0
40
0
40
1
40
1
40
1
40
1
41
1
10
198.733797141797
20
7.78401125858056
30
0
41
1
10
198.854647690262
20
7.78800289556486
30
0
41
1
10
198.994019062708
20
7.79273758231034
30
0
41
1
10
199.133560992374
20
7.79759192849451
30
0
0
SPLINE
5
222
100
AcDbEntity
8
1
62
256
6
ByLayer
370
-1
48
1
60
0
100
AcDbSpline
70
4
71
3
72
14
73
10
40
0
40
0
40
0
40
0
40
0.0148352406566632
40
0.0390776615035418
40
0.23301702827857
40
0.620895761828628
40
0.814835128603657
40
0.911804811991171
40
1
40
1
40
1
40
1
41
1
10
198.39140695399
20
7.59356460029935
30
0
41
1
10
198.391483098774
20
7.59276195087756
30
0
41
1
10
198.391685937476
20
7.59067077606787
30
0
41
1
10
198.392886155034
20
7.57810968357836
30
0
41
1
10
198.396015283978
20
7.54551613829221
30
0
41
1
10
198.400016336596
20
7.50375292808977
30
0
41
1
10
198.403517533877
20
7.46721211006803
30
0
41
1
10
198.405474607349
20
7.44682238571136
30
0
41
1
10
198.406430484476
20
7.43686332914936
30
0
41
1
10
198.406884205547
20
7.43210238936419
30
0
0
SPLINE
5
223
100
AcDbEntity
8
1
62
256
6
ByLayer
370
-1
48
1
60
0
100
AcDbSpline
70
4
71
3
72
8
73
4
40
0
40
0
40
0
40
0
40
1
40
1
40
1
40
1
41
1
10
198.688382166218
20
17.0626650155331
30
0
41
1
10
198.704642083879
20
17.0630994527091
30
0
41
1
10
198.720907636433
20
17.0634472890098
30
0
41
1
10
198.737176532831
20
17.0637101137925
30
0
0
SPLINE
5
224
100
AcDbEntity
8
1
62
256
6
ByLayer
370
-1
48
1
60
0
100
AcDbSpline
70
4
71
3
72
16
73
12
40
0
40
0
40
0
40
0
40
0.0879840035943929
40
0.0879840035943929
40
0.263952205556021
40
0.263952205556021
40
0.439920047076071
40
0.439920047076071
40
0.615888399375296
40
0.615888399375296
40
1
40
1
40
1
40
1
41
1
10
199.774875218899
20
7.82011483792081
30
0
41
1
10
199.775401753614
20
7.80497926102717
30
0
41
1
10
199.775925913102
20
7.78984352372709
30
0
41
1
10
199.777493128739
20
7.74443614380382
30
0
41
1
10
199.778530901783
20
7.71416428802212
30
0
41
1
10
199.780602724256
20
7.653620697516
30
0
41
1
10
199.781636777095
20
7.62334889649665
30
0
41
1
10
199.783712244588
20
7.56280535542351
30
0
41
1
10
199.784753745221
20
7.53253351583206
30
0
41
1
10
199.788097640867
20
7.43618602668531
30
0
41
1
10
199.790451809478
20
7.37011328459039
30
0
41
1
10
199.792828141653
20
7.30404660137469
30
0
0
SPLINE
5
225
100
AcDbEntity
8
1
62
256
6
ByLayer
370
-1
48
1
60
0
100
AcDbSpline
70
4
71
3
72
11
73
7
40
0
40
0
40
0
40
0
40
0.0414539424598414
40
0.47997861089959
40
0.918503279339338
40
1
40
1
40
1
40
1
41
1
10
190.241713352649
20
16.1210473289393
30
0
41
1
10
190.241681102894
20
16.1222470013473
30
0
41
1
10
190.241306737058
20
16.1361385399552
30
0
41
1
10
190.240581435818
20
16.1627297897308
30
0
41
1
10
190.239828770411
20
16.1904762424229
30
0
41
1
10
190.239419970073
20
16.2055297721966
30
0
41
1
10
190.239355573257
20
16.2078892239282
30
0
0
SPLINE
5
226
100
AcDbEntity
8
1
62
256
6
ByLayer
370
-1
48
1
60
0
100
AcDbSpline
70
4
71
3
72
8
73
4
40
0
40
0
40
0
40
0
40
1
40
1
40
1
40
1
41
1
10
189.455061150406
20
15.3636229769063
30
0
41
1
10
189.397802528814
20
15.3616003326629
30
0
41
1
10
189.339661225211
20
15.3595622380364
30
0
41
1
10
189.281518754517
20
15.357539593793
30
0
0
SPLINE
5
227
100
AcDbEntity
8
1
62
256
6
ByLayer
370
-1
48
1
60
0
100
AcDbSpline
70
4
71
3
72
13
73
9
40
0
40
0
40
0
40
0
40
0.0688517852166836
40
0.178433579647953
40
0.616760757373028
40
0.835924346235566
40
0.945506140666835
40
1
40
1
40
1
40
1
41
1
10
189.729735048799
20
7.46792548455579
30
0
41
1
10
189.725791599132
20
7.46778620236176
30
0
41
1
10
189.715567381044
20
7.46742516848499
30
0
41
1
10
189.680121307092
20
7.46617549767711
30
0
41
1
10
189.63573759664
20
7.46461718682815
30
0
41
1
10
189.591180920888
20
7.46306069500281
30
0
41
1
10
189.568901385247
20
7.46228431629609
30
0
41
1
10
189.559361787957
20
7.46195233936371
30
0
41
1
10
189.556193379226
20
7.46184210332234
30
0
0
SPLINE
5
228
100
AcDbEntity
8
1
62
256
6
ByLayer
370
-1
48
1
60
0
100
AcDbSpline
70
4
71
3
72
8
73
4
40
0
40
0
40
0
40
0
40
1
40
1
40
1
40
1
41
1
10
188.876283927074
20
15.9511613612592
30
0
41
1
10
188.875845321797
20
15.9674892326672
30
0
41
1
10
188.875495949088
20
15.9838197879438
30
0
41
1
10
188.875233497526
20
16.0001514581855
30
0
0
SPLINE
5
229
100
AcDbEntity
8
1
62
256
6
ByLayer
370
-1
48
1
60
0
100
AcDbSpline
70
4
71
3
72
9
73
5
40
0
40
0
40
0
40
0
40
0.339285714285645
40
1
40
1
40
1
40
1
41
1
10
198.0837259848
20
17.0417418279305
30
0
41
1
10
198.083940037789
20
17.0338600908385
30
0
41
1
10
198.08457093081
20
17.0106297078306
30
0
41
1
10
198.085201823831
20
16.9873993248226
30
0
41
1
10
198.085618663862
20
16.9720506789067
30
0
0
SPLINE
5
22A
100
AcDbEntity
8
1
62
256
6
ByLayer
370
-1
48
1
60
0
100
AcDbSpline
70
4
71
3
72
8
73
4
40
0
40
0
40
0
40
0
40
1
40
1
40
1
40
1
41
1
10
199.107423804119
20
6.42219602368829
30
0
41
1
10
199.091178694282
20
6.42132403173011
30
0
41
1
10
199.074929289165
20
6.42053232474385
30
0
41
1
10
199.05867621918
20
6.41981966252979
30
0
0
SPLINE
5
22B
100
AcDbEntity
8
1
62
256
6
ByLayer
370
-1
48
1
60
0
100
AcDbSpline
70
4
71
3
72
10
73
6
40
0
40
0
40
0
40
0
40
0.0607450479744434
40
0.373830031982962
40
1
40
1
40
1
40
1
41
1
10
190.066975401315
20
15.3858746989797
30
0
41
1
10
190.067451849734
20
15.3858924723636
30
0
41
1
10
190.07040844792
20
15.3860026088632
30
0
41
1
10
190.079041053381
20
15.3863196018794
30
0
41
1
10
190.088395171431
20
15.38665316666
30
0
41
1
10
190.094742238873
20
15.3868756577842
30
0
0
SPLINE
5
22C
100
AcDbEntity
8
1
62
256
6
ByLayer
370
-1
48
1
60
0
100
AcDbSpline
70
4
71
3
72
13
73
9
40
0
40
0
40
0
40
0
40
0.0688517852168697
40
0.178433579648131
40
0.616760757373177
40
0.8359243462357
40
0.945506140666961
40
1
40
1
40
1
40
1
41
1
10
198.436440587478
20
6.95635829248559
30
0
41
1
10
198.436609232656
20
6.95236977230005
30
0
41
1
10
198.437043990428
20
6.9420311147606
30
0
41
1
10
198.43849254557
20
6.90624522498601
30
0
41
1
10
198.440115591795
20
6.86162104082115
30
0
41
1
10
198.441511968816
20
6.81704894667794
30
0
41
1
10
198.442153833145
20
6.79481636938942
30
0
41
1
10
198.442415349646
20
6.78530979386886
30
0
41
1
10
198.4425014923
20
6.78215304666762
30
0
0
SPLINE
5
22D
100
AcDbEntity
8
1
62
256
6
ByLayer
370
-1
48
1
60
0
100
AcDbSpline
70
4
71
3
72
10
73
6
40
0
40
0
40
0
40
0
40
0.499245058431811
40
0.499245058431811
40
1
40
1
40
1
40
1
41
1
10
189.193363141624
20
6.84143088306018
30
0
41
1
10
189.192707305489
20
6.85656126043395
30
0
41
1
10
189.192085404437
20
6.87169316903524
30
0
41
1
10
189.190904516066
20
6.90200528898771
30
0
41
1
10
189.190345739473
20
6.91718558604938
30
0
41
1
10
189.189817611523
20
6.93236696149052
30
0
0
SPLINE
5
22E
100
AcDbEntity
8
1
62
256
6
ByLayer
370
-1
48
1
60
0
100
AcDbSpline
70
4
71
3
72
10
73
6
40
0
40
0
40
0
40
0
40
0.499245058431833
40
0.499245058431833
40
1
40
1
40
1
40
1
41
1
10
199.478683081728
20
16.3228166333559
30
0
41
1
10
199.479343821446
20
16.3076862559821
30
0
41
1
10
199.479970436954
20
16.2925543473808
30
0
41
1
10
199.481158404141
20
16.2622422274284
30
0
41
1
10
199.481719548999
20
16.2470619303667
30
0
41
1
10
199.482247676948
20
16.2318805549256
30
0
0
SPLINE
5
22F
100
AcDbEntity
8
1
62
256
6
ByLayer
370
-1
48
1
60
0
100
AcDbSpline
70
4
71
3
72
16
73
12
40
0
40
0
40
0
40
0
40
0.0879840035943543
40
0.0879840035943543
40
0.26395220555598
40
0.26395220555598
40
0.439920047076045
40
0.439920047076045
40
0.61588839937526
40
0.61588839937526
40
1
40
1
40
1
40
1
41
1
10
198.0837259848
20
17.0417418279305
30
0
41
1
10
198.098803966254
20
17.0422703739223
30
0
41
1
10
198.113884053989
20
17.0427945816936
30
0
41
1
10
198.159128792106
20
17.0443575980966
30
0
41
1
10
198.189297980225
20
17.0453867615311
30
0
41
1
10
198.249639276752
20
17.0474382980585
30
0
41
1
10
198.279811450302
20
17.0484606754793
30
0
41
1
10
198.340149716106
20
17.0505188638167
30
0
41
1
10
198.370315840058
20
17.0515548287598
30
0
41
1
10
198.466303099331
20
17.0549050716814
30
0
41
1
10
198.532078926893
20
17.0573138943905
30
0
41
1
10
198.597830425901
20
17.0597633279324
30
0
0
SPLINE
5
230
100
AcDbEntity
8
1
62
256
6
ByLayer
370
-1
48
1
60
0
100
AcDbSpline
70
4
71
3
72
10
73
6
40
0
40
0
40
0
40
0
40
0.283853282483147
40
0.283853282483147
40
1
40
1
40
1
40
1
41
1
10
198.737176532831
20
17.0637101137924
30
0
41
1
10
198.752261214541
20
17.0639538075314
30
0
41
1
10
198.767348458612
20
17.0641589034385
30
0
41
1
10
198.820504864478
20
17.0647506155623
30
0
41
1
10
198.858582705569
20
17.0649393844835
30
0
41
1
10
198.89666010247
20
17.0649079469756
30
0
0
SPLINE
5
231
100
AcDbEntity
8
1
62
256
6
ByLayer
370
-1
48
1
60
0
100
AcDbSpline
70
4
71
3
72
14
73
10
40
0
40
0
40
0
40
0
40
0.25
40
0.25
40
0.5
40
0.5
40
0.75
40
0.75
40
1
40
1
40
1
40
1
41
1
10
188.886955215498
20
16.2726823473917
30
0
41
1
10
188.898821698548
20
16.3241203929389
30
0
41
1
10
188.917360578354
20
16.3735930346424
30
0
41
1
10
188.966237309044
20
16.4657523980597
30
0
41
1
10
188.997093935035
20
16.5091356793186
30
0
41
1
10
189.068012936789
20
16.5854248955715
30
0
41
1
10
189.108982791057
20
16.6192993309931
30
0
41
1
10
189.197138308811
20
16.6744711145287
30
0
41
1
10
189.244285636731
20
16.6960762837909
30
0
41
1
10
189.29459710573
20
16.711494568449
30
0
0
SPLINE
5
232
100
AcDbEntity
8
1
62
256
6
ByLayer
370
-1
48
1
60
0
100
AcDbSpline
70
4
71
3
72
11
73
7
40
0
40
0
40
0
40
0
40
0.081496729434371
40
0.520021388628346
40
0.958546047822321
40
1
40
1
40
1
40
1
41
1
10
189.455060429549
20
15.3636229644819
30
0
41
1
10
189.457393219571
20
15.3637053583601
30
0
41
1
10
189.472274585796
20
15.3642310391946
30
0
41
1
10
189.499702879642
20
15.3651999666624
30
0
41
1
10
189.525993189538
20
15.3661285535616
30
0
41
1
10
189.539722975156
20
15.3666136567749
30
0
41
1
10
189.540908598409
20
15.366655550268
30
0
0
SPLINE
5
233
100
AcDbEntity
8
1
62
256
6
ByLayer
370
-1
48
1
60
0
100
AcDbSpline
70
4
71
3
72
8
73
4
40
0
40
0
40
0
40
0
40
1
40
1
40
1
40
1
41
1
10
188.874077488996
20
16.1602068202293
30
0
41
1
10
188.874122492225
20
16.1980701279115
30
0
41
1
10
188.878445106945
20
16.2357932919322
30
0
41
1
10
188.886955215499
20
16.2726823473968
30
0
0
SPLINE
5
234
100
AcDbEntity
8
1
62
256
6
ByLayer
370
-1
48
1
60
0
100
AcDbSpline
70
4
71
3
72
10
73
6
40
0
40
0
40
0
40
0
40
0.060745047974151
40
0.373830031982767
40
1
40
1
40
1
40
1
41
1
10
198.10430802694
20
15.846406747973
30
0
41
1
10
198.104295154743
20
15.8458977848482
30
0
41
1
10
198.104219575142
20
15.8427438881354
30
0
41
1
10
198.104125017627
20
15.8336663957983
30
0
41
1
10
198.104295733983
20
15.8241143502205
30
0
41
1
10
198.104517378461
20
15.8177430380122
30
0
0
SPLINE
5
235
100
AcDbEntity
8
1
62
256
6
ByLayer
370
-1
48
1
60
0
100
AcDbSpline
70
4
71
3
72
44
73
40
40
0
40
0
40
0
40
0
40
0.000510080952465
40
0.0008224215521674
40
0.0055075305477027
40
0.0105049801429403
40
0.0204998793334157
40
0.0404896777143664
40
0.0804692744762678
40
0.120448871238169
40
0.14043866961912
40
0.160428468000071
40
0.180418266381021
40
0.200408064761972
40
0.220397863142923
40
0.240387661523873
40
0.260377459904824
40
0.280367258285775
40
0.300357056666726
40
0.320346855047676
40
0.340336653428627
40
0.350331552619102
40
0.360326451809578
40
0.380316250190528
40
0.400306048571479
40
0.44028564533338
40
0.480265242095282
40
0.520244838857183
40
0.560224435619085
40
0.580214234000035
40
0.600204032380986
40
0.640183629142887
40
0.680163225904789
40
0.70015302428574
40
0.72014282266669
40
0.760122419428592
40
0.840081612952394
40
0.920040806476197
40
1
40
1
40
1
40
1
41
1
10
189.258725869393
20
6.93480145100278
30
0
41
1
10
189.258743825685
20
6.93448788353243
30
0
41
1
10
189.258778143095
20
6.93398286115777
30
0
41
1
10
189.259066497948
20
6.93060700050006
30
0
41
1
10
189.25955120263
20
6.92446868551022
30
0
41
1
10
189.260396517822
20
6.91236321684437
30
0
41
1
10
189.261668952184
20
6.89085318838124
30
0
41
1
10
189.263392639388
20
6.84776972433798
30
0
41
1
10
189.264535744354
20
6.78619540825537
30
0
41
1
10
189.266038603436
20
6.72462301678766
30
0
41
1
10
189.268812799576
20
6.67542671952606
30
0
41
1
10
189.272121549488
20
6.63861714003514
30
0
41
1
10
189.277188534773
20
6.60200093572684
30
0
41
1
10
189.284752671307
20
6.56580484875721
30
0
41
1
10
189.295666240377
20
6.53046806791554
30
0
41
1
10
189.30992168594
20
6.49635323836372
30
0
41
1
10
189.327388003508
20
6.46378121120847
30
0
41
1
10
189.347739654961
20
6.43294946107832
30
0
41
1
10
189.370532537532
20
6.40390035297213
30
0
41
1
10
189.395261929477
20
6.37650194850966
30
0
41
1
10
189.41709488428
20
6.35484818988488
30
0
41
1
10
189.43503938422
20
6.33803063352735
30
0
41
1
10
189.453269131726
20
6.3215220872498
30
0
41
1
10
189.476579824758
20
6.30146217334166
30
0
41
1
10
189.515247531242
20
6.27104616800085
30
0
41
1
10
189.566535975149
20
6.23693535457645
30
0
41
1
10
189.633064530106
20
6.20464385731918
30
0
41
1
10
189.70359721074
20
6.18247742498667
30
0
41
1
10
189.764338206661
20
6.17250108015733
30
0
41
1
10
189.813347603077
20
6.16893296104502
30
0
41
1
10
189.862451719561
20
6.16744905275067
30
0
41
1
10
189.923837467335
20
6.16837616818361
30
0
41
1
10
189.985136847649
20
6.17089281257682
30
0
41
1
10
190.034152031526
20
6.17295367771715
30
0
41
1
10
190.083157231226
20
6.17490278190834
30
0
41
1
10
190.168892634552
20
6.17812460064286
30
0
41
1
10
190.291333727003
20
6.18232188639723
30
0
41
1
10
190.438289701424
20
6.18713973565838
30
0
41
1
10
190.536332157615
20
6.19045245335113
30
0
41
1
10
190.585383167475
20
6.19219683751484
30
0
0
SPLINE
5
236
100
AcDbEntity
8
1
62
256
6
ByLayer
370
-1
48
1
60
0
100
AcDbSpline
70
4
71
3
72
10
73
6
40
0
40
0
40
0
40
0
40
0.283853282483272
40
0.283853282483272
40
1
40
1
40
1
40
1
41
1
10
199.796688026657
20
7.16409605823063
30
0
41
1
10
199.796930211793
20
7.14895317199273
30
0
41
1
10
199.797135828862
20
7.1338096036865
30
0
41
1
10
199.797734188664
20
7.08045908230071
30
0
41
1
10
199.7979357903
20
7.04224939284342
30
0
41
1
10
199.79791856829
20
7.00404069618452
30
0
0
SPLINE
5
237
100
AcDbEntity
8
1
62
256
6
ByLayer
370
-1
48
1
60
0
100
AcDbSpline
70
4
71
1
72
4
73
2
40
0
40
0
40
1
40
1
41
1
10
189.189817611523
20
6.93236696149052
30
0
41
1
10
189.25871183604
20
6.9348006300412
30
0
0
SPLINE
5
238
100
AcDbEntity
8
1
62
256
6
ByLayer
370
-1
48
1
60
0
100
AcDbSpline
70
4
71
3
72
10
73
6
40
0
40
0
40
0
40
0
40
0.0607450479741024
40
0.373830031982735
40
1
40
1
40
1
40
1
41
1
10
190.525754986823
20
7.31784076844312
30
0
41
1
10
190.525706703125
20
7.31834973156788
30
0
41
1
10
190.52541168873
20
7.32150362828068
30
0
41
1
10
190.524685557691
20
7.33058112061781
30
0
41
1
10
190.524191683115
20
7.34013316619561
30
0
41
1
10
190.523970038637
20
7.34650447840386
30
0
0
SPLINE
5
239
100
AcDbEntity
8
1
62
256
6
ByLayer
370
-1
48
1
60
0
100
AcDbSpline
70
4
71
3
72
10
73
6
40
0
40
0
40
0
40
0
40
0.283856160922801
40
0.283856160922801
40
1
40
1
40
1
40
1
41
1
10
199.466447826626
20
16.5315106848279
30
0
41
1
10
199.467508058911
20
16.516403904667
30
0
41
1
10
199.468531370218
20
16.5012941505045
30
0
41
1
10
199.472008638351
20
16.4480558159465
30
0
41
1
10
199.474268334929
20
16.4099129346978
30
0
41
1
10
199.476307170832
20
16.3717590514807
30
0
0
SPLINE
5
23A
100
AcDbEntity
8
1
62
256
6
ByLayer
370
-1
48
1
60
0
100
AcDbSpline
70
4
71
3
72
10
73
6
40
0
40
0
40
0
40
0
40
0.06074504797448
40
0.373830031982987
40
1
40
1
40
1
40
1
41
1
10
198.563087612448
20
7.77837281743638
30
0
41
1
10
198.562550008134
20
7.77835504405249
30
0
41
1
10
198.559222815953
20
7.77824490755287
30
0
41
1
10
198.549769521937
20
7.77792791453669
30
0
41
1
10
198.540092245667
20
7.77759434975613
30
0
41
1
10
198.533745178225
20
7.77737185863194
30
0
0
SPLINE
5
23B
100
AcDbEntity
8
1
62
256
6
ByLayer
370
-1
48
1
60
0
100
AcDbSpline
70
4
71
3
72
14
73
10
40
0
40
0
40
0
40
0
40
0.25
40
0.25
40
0.5
40
0.5
40
0.75
40
0.75
40
1
40
1
40
1
40
1
41
1
10
199.008742241869
20
17.052015777485
30
0
41
1
10
199.059995605494
20
17.0401150639969
30
0
41
1
10
199.109284182415
20
17.0215095782558
30
0
41
1
10
199.201091696201
20
16.9724449865523
30
0
41
1
10
199.244304485721
20
16.9414650673601
30
0
41
1
10
199.320285852253
20
16.8702575532955
30
0
41
1
10
199.35402013396
20
16.8291199066015
30
0
41
1
10
199.408983531751
20
16.7406292145969
30
0
41
1
10
199.430516612756
20
16.6933119561575
30
0
41
1
10
199.445884649945
20
16.6428167614576
30
0
0
SPLINE
5
23C
100
AcDbEntity
8
1
62
256
6
ByLayer
370
-1
48
1
60
0
100
AcDbSpline
70
4
71
3
72
18
73
14
40
0
40
0
40
0
40
0
40
0.0041315572796573
40
0.049790684558194
40
0.0954498118367308
40
0.186768066393804
40
0.369404575507951
40
0.552041084622098
40
0.734677593736245
40
0.825995848293318
40
0.917314102850392
40
0.962973230128929
40
1
40
1
40
1
40
1
41
1
10
198.459121114178
20
15.6797086819162
30
0
41
1
10
198.459621638007
20
15.6797252226112
30
0
41
1
10
198.465655412534
20
15.6799246320741
30
0
41
1
10
198.477268149796
20
15.6803087427952
30
0
41
1
10
198.499815294144
20
15.6810569094915
30
0
41
1
10
198.539989391917
20
15.6823953957125
30
0
41
1
10
198.599278207632
20
15.6843862544449
30
0
41
1
10
198.672788738227
20
15.6868785425091
30
0
41
1
10
198.735468031137
20
15.6890229702626
30
0
41
1
10
198.786116843408
20
15.6907671234857
30
0
41
1
10
198.817910771356
20
15.6918666277897
30
0
41
1
10
198.842181553943
20
15.6927085968167
30
0
41
1
10
198.853719555411
20
15.6931097523474
30
0
41
1
10
198.858886410073
20
15.6932894460631
30
0
0
SPLINE
5
23D
100
AcDbEntity
8
1
62
256
6
ByLayer
370
-1
48
1
60
0
100
AcDbSpline
70
4
71
3
72
11
73
7
40
0
40
0
40
0
40
0
40
0.081496729434655
40
0.520021388628423
40
0.958546047822191
40
1
40
1
40
1
40
1
41
1
10
190.57078862024
20
6.68063446081274
30
0
41
1
10
190.570688856372
20
6.68299391278464
30
0
41
1
10
190.570050295782
20
6.69804744236404
30
0
41
1
10
190.568872480367
20
6.72579389484704
30
0
41
1
10
190.567747674913
20
6.75238514458508
30
0
41
1
10
190.567155526246
20
6.76627668311968
30
0
41
1
10
190.567104307856
20
6.76747635580332
30
0
0
SPLINE
5
23E
100
AcDbEntity
8
1
62
256
6
ByLayer
370
-1
48
1
60
0
100
AcDbSpline
70
4
71
3
72
10
73
6
40
0
40
0
40
0
40
0
40
0.283856160922843
40
0.283856160922843
40
1
40
1
40
1
40
1
41
1
10
189.405469737652
20
16.732146222389
30
0
41
1
10
189.420512608309
20
16.7332169527706
30
0
41
1
10
189.435560699532
20
16.734248354637
30
0
41
1
10
189.488587710797
20
16.7377476740941
30
0
41
1
10
189.526589777312
20
16.7400116553593
30
0
41
1
10
189.564605234216
20
16.7420514927277
30
0
0
SPLINE
5
23F
100
AcDbEntity
8
1
62
256
6
ByLayer
370
-1
48
1
60
0
100
AcDbSpline
70
4
71
3
72
14
73
10
40
0
40
0
40
0
40
0
40
0.25
40
0.25
40
0.5
40
0.5
40
0.75
40
0.75
40
1
40
1
40
1
40
1
41
1
10
199.785110072974
20
6.89156516902437
30
0
41
1
10
199.773265700664
20
6.84012712347715
30
0
41
1
10
199.754735207968
20
6.79065448177366
30
0
41
1
10
199.70585616642
20
6.69849511835639
30
0
41
1
10
199.674988729918
20
6.65511183709754
30
0
41
1
10
199.604034635721
20
6.57882262084459
30
0
41
1
10
199.563042278932
20
6.54494818542298
30
0
41
1
10
199.474889880274
20
6.48977640188738
30
0
41
1
10
199.427762804224
20
6.46817123262517
30
0
41
1
10
199.377468182744
20
6.45275294796713
30
0
0
SPLINE
5
240
100
AcDbEntity
8
1
62
256
6
ByLayer
370
-1
48
1
60
0
100
AcDbSpline
70
4
71
3
72
16
73
12
40
0
40
0
40
0
40
0
40
0.57247198599684
40
0.858707978995261
40
0.930266977244866
40
0.966046476369668
40
0.983936225932069
40
0.99288110071327
40
0.99735353810387
40
0.999589756799171
40
1
40
1
40
1
40
1
41
1
10
198.451035134776
20
6.46792066919014
30
0
41
1
10
198.549138521067
20
6.47135960110975
30
0
41
1
10
198.696293672657
20
6.4765175623107
30
0
41
1
10
198.855711513268
20
6.48210680921508
30
0
41
1
10
198.923157751142
20
6.4844701197444
30
0
41
1
10
198.944617696247
20
6.48522340951328
30
0
41
1
10
198.955348010062
20
6.48559800757377
30
0
41
1
10
198.9607126357
20
6.48578834778186
30
0
41
1
10
198.96339567788
20
6.48587863751101
30
0
41
1
10
198.964615703233
20
6.48592719560551
30
0
41
1
10
198.965068481026
20
6.48595230277749
30
0
41
1
10
198.965138650126
20
6.48595636472976
30
0
0
SPLINE
5
241
100
AcDbEntity
8
1
62
256
6
ByLayer
370
-1
48
1
60
0
100
AcDbSpline
70
4
71
3
72
8
73
4
40
0
40
0
40
0
40
0
40
1
40
1
40
1
40
1
41
1
10
189.195721867502
20
6.79248846493522
30
0
41
1
10
189.194856083822
20
6.80879852957781
30
0
41
1
10
189.194070447735
20
6.82511307468013
30
0
41
1
10
189.193363141624
20
6.84143088306018
30
0
0
SPLINE
5
242
100
AcDbEntity
8
1
62
256
6
ByLayer
370
-1
48
1
60
0
100
AcDbSpline
70
4
71
3
72
9
73
5
40
0
40
0
40
0
40
0
40
0.339285714288174
40
1
40
1
40
1
40
1
41
1
10
199.774875218899
20
7.82011483792084
30
0
41
1
10
199.766963338219
20
7.81983960159664
30
0
41
1
10
199.74364411095
20
7.81902837874642
30
0
41
1
10
199.720324883681
20
7.81821715589618
30
0
41
1
10
199.704917537093
20
7.81768116937016
30
0
0
SPLINE
5
243
100
AcDbEntity
8
1
62
256
6
ByLayer
370
-1
48
1
60
0
100
AcDbSpline
70
4
71
3
72
10
73
6
40
0
40
0
40
0
40
0
40
0.283856160922732
40
0.283856160922732
40
1
40
1
40
1
40
1
41
1
10
199.266575767859
20
6.43210129402709
30
0
41
1
10
199.251520049913
20
6.43103056364546
30
0
41
1
10
199.236463627163
20
6.42999916177905
30
0
41
1
10
199.183419145184
20
6.42649984232199
30
0
41
1
10
199.145425739559
20
6.42423586105679
30
0
41
1
10
199.107423804119
20
6.42219602368843
30
0
0
SPLINE
5
244
100
AcDbEntity
8
1
62
256
6
ByLayer
370
-1
48
1
60
0
100
AcDbSpline
70
4
71
3
72
11
73
7
40
0
40
0
40
0
40
0
40
0.0414539424597558
40
0.479978610899537
40
0.918503279339319
40
1
40
1
40
1
40
1
41
1
10
198.432756275084
20
7.04320018747683
30
0
41
1
10
198.432807493462
20
7.04200051506876
30
0
41
1
10
198.433399642133
20
7.02810897646089
30
0
41
1
10
198.434524447594
20
7.00151772668534
30
0
41
1
10
198.435702263021
20
6.97377127399321
30
0
41
1
10
198.436340823621
20
6.95871774421951
30
0
41
1
10
198.436440587478
20
6.95635829248786
30
0
0
SPLINE
5
245
100
AcDbEntity
8
1
62
256
6
ByLayer
370
-1
48
1
60
0
100
AcDbSpline
70
4
71
3
72
10
73
6
40
0
40
0
40
0
40
0
40
0.499245058431844
40
0.499245058431844
40
1
40
1
40
1
40
1
41
1
10
189.613370004173
20
16.7444278538863
30
0
41
1
10
189.628445257684
20
16.7450886563658
30
0
41
1
10
189.643521942033
20
16.745715299211
30
0
41
1
10
189.673722254625
20
16.7469042513115
30
0
41
1
10
189.688845970206
20
16.7474663509961
30
0
41
1
10
189.70396957593
20
16.7479964963084
30
0
0
SPLINE
5
246
100
AcDbEntity
8
1
62
256
6
ByLayer
370
-1
48
1
60
0
100
AcDbSpline
70
4
71
3
72
8
73
4
40
0
40
0
40
0
40
0
40
1
40
1
40
1
40
1
41
1
10
189.915986110666
20
15.3802362578355
30
0
41
1
10
189.809095537825
20
15.3762446208512
30
0
41
1
10
189.678331406293
20
15.3715099341058
30
0
41
1
10
189.540910714473
20
15.3666555879216
30
0
0
SPLINE
5
247
100
AcDbEntity
8
1
62
256
6
ByLayer
370
-1
48
1
60
0
100
AcDbSpline
70
4
71
2
72
9
73
6
40
0
40
0
40
0
40
0.25
40
0.5
40
0.75
40
1
40
1
40
1
41
1
10
190.238865411315
20
15.5420192063424
30
0
41
1
10
190.209188632859
20
15.540856719224
30
0
41
1
10
190.155574045197
20
15.5165955578639
30
0
41
1
10
190.11485413203
20
15.4731204042786
30
0
41
1
10
190.09380774809
20
15.4173122372072
30
0
41
1
10
190.094742238873
20
15.3868756577842
30
0
0
SPLINE
5
248
100
AcDbEntity
8
1
62
256
6
ByLayer
370
-1
48
1
60
0
100
AcDbSpline
70
4
71
3
72
8
73
4
40
0
40
0
40
0
40
0
40
1
40
1
40
1
40
1
41
1
10
198.105007916627
20
16.4836126971368
30
0
41
1
10
198.103434893707
20
16.5415336499922
30
0
41
1
10
198.101404554646
20
16.5998970439294
30
0
41
1
10
198.098947682624
20
16.6578179967849
30
0
0
SPLINE
5
249
100
AcDbEntity
8
1
62
256
6
ByLayer
370
-1
48
1
60
0
100
AcDbSpline
70
4
71
3
72
11
73
7
40
0
40
0
40
0
40
0
40
0.0814967294344525
40
0.520021388628238
40
0.958546047822023
40
1
40
1
40
1
40
1
41
1
10
199.220735731186
20
7.80062455193416
30
0
41
1
10
199.218367574119
20
7.80054215805603
30
0
41
1
10
199.203256447634
20
7.80001647722148
30
0
41
1
10
199.175403003771
20
7.79904754975365
30
0
41
1
10
199.148713189659
20
7.79811896285446
30
0
41
1
10
199.134765621203
20
7.79763385964119
30
0
41
1
10
199.133561029323
20
7.7975919661481
30
0
0
SPLINE
5
24A
100
AcDbEntity
8
1
62
256
6
ByLayer
370
-1
48
1
60
0
100
AcDbSpline
70
4
71
3
72
12
73
8
40
0
40
0
40
0
40
0
40
0.030462307713376
40
0.151654519249204
40
0.272846730785032
40
0.515231153856688
40
1
40
1
40
1
40
1
41
1
10
189.556193379226
20
7.46184210332234
30
0
41
1
10
189.55299042945
20
7.46173066552061
30
0
41
1
10
189.53704447549
20
7.46117599332473
30
0
41
1
10
189.508355953831
20
7.4601780062039
30
0
41
1
10
189.457385290908
20
7.45840480561066
30
0
41
1
10
189.368186195544
20
7.45530177206905
30
0
41
1
10
189.291729827301
20
7.452642029006
30
0
41
1
10
189.240758913347
20
7.45086886690163
30
0
0
SPLINE
5
24B
100
AcDbEntity
8
1
62
256
6
ByLayer
370
-1
48
1
60
0
100
AcDbSpline
70
4
71
3
72
8
73
4
40
0
40
0
40
0
40
0
40
1
40
1
40
1
40
1
41
1
10
199.797918568321
20
7.00404069618682
30
0
41
1
10
199.797901501989
20
6.96617738850463
30
0
41
1
10
199.793604324697
20
6.92845422448391
30
0
41
1
10
199.785110072972
20
6.89156516901929
30
0
0
SPLINE
5
24C
100
AcDbEntity
8
1
62
256
6
ByLayer
370
-1
48
1
60
0
100
AcDbSpline
70
4
71
3
72
8
73
4
40
0
40
0
40
0
40
0
40
1
40
1
40
1
40
1
41
1
10
189.983557974371
20
6.10158250088301
30
0
41
1
10
189.967286414177
20
6.10114806370694
30
0
41
1
10
189.951015141564
20
6.10080022740627
30
0
41
1
10
189.934744991351
20
6.10053740262353
30
0
0
SPLINE
5
24D
100
AcDbEntity
8
1
62
256
6
ByLayer
370
-1
48
1
60
0
100
AcDbSpline
70
4
71
3
72
10
73
6
40
0
40
0
40
0
40
0
40
0.283856160922817
40
0.283856160922817
40
1
40
1
40
1
40
1
41
1
10
189.205597678885
20
6.63273683158818
30
0
41
1
10
189.204524599311
20
6.64784361174912
30
0
41
1
10
189.203492956477
20
6.66295336591153
30
0
41
1
10
189.19999821763
20
6.71619170046964
30
0
41
1
10
189.197747181942
20
6.75433458171827
30
0
41
1
10
189.195721867502
20
6.79248846493536
30
0
0
SPLINE
5
24E
100
AcDbEntity
8
1
62
256
6
ByLayer
370
-1
48
1
60
0
100
AcDbSpline
70
4
71
3
72
14
73
10
40
0
40
0
40
0
40
0
40
0.0148352406566508
40
0.0390776615035299
40
0.233017028278563
40
0.620895761828628
40
0.814835128603661
40
0.911804811991177
40
1
40
1
40
1
40
1
41
1
10
190.23865605982
20
15.5706829161168
30
0
41
1
10
190.238676359652
20
15.5714855655385
30
0
41
1
10
190.238733703254
20
15.5735767403482
30
0
41
1
10
190.23905997312
20
15.5861378328377
30
0
41
1
10
190.239921381026
20
15.6187313781239
30
0
41
1
10
190.241016726102
20
15.6604945883263
30
0
41
1
10
190.241975567801
20
15.697035406348
30
0
41
1
10
190.242514010484
20
15.7174251307047
30
0
41
1
10
190.242776978574
20
15.7273841872667
30
0
41
1
10
190.24289945359
20
15.7321451270519
30
0
0
SPLINE
5
24F
100
AcDbEntity
8
1
62
256
6
ByLayer
370
-1
48
1
60
0
100
AcDbSpline
70
4
71
3
72
14
73
10
40
0
40
0
40
0
40
0
40
0.0148352406567412
40
0.0390776615036231
40
0.233017028278679
40
0.620895761828791
40
0.814835128603846
40
0.911804811991374
40
1
40
1
40
1
40
1
41
1
10
198.288412993039
20
15.6740702972665
30
0
41
1
10
198.289260810446
20
15.674098326402
30
0
41
1
10
198.291474118855
20
15.6741713518355
30
0
41
1
10
198.304750656308
20
15.6746099948509
30
0
41
1
10
198.339215441739
20
15.6757481865327
30
0
41
1
10
198.383367929165
20
15.6772065899694
30
0
41
1
10
198.421999717832
20
15.6784826234526
30
0
41
1
10
198.443559611209
20
15.6791946483168
30
0
41
1
10
198.454090193162
20
15.6795424262354
30
0
41
1
10
198.459121114178
20
15.6797086819162
30
0
0
SPLINE
5
250
100
AcDbEntity
8
1
62
256
6
ByLayer
370
-1
48
1
60
0
100
AcDbSpline
70
4
71
3
72
13
73
9
40
0
40
0
40
0
40
0
40
0.068851785217101
40
0.178433579648349
40
0.61676075737334
40
0.835924346235836
40
0.945506140667084
40
1
40
1
40
1
40
1
41
1
10
198.946061111936
20
15.6963220318603
30
0
41
1
10
198.950064347593
20
15.6964613140543
30
0
41
1
10
198.960438761157
20
15.6968223479311
30
0
41
1
10
198.996292114526
20
15.698072018739
30
0
41
1
10
199.040817155417
20
15.6996303295879
30
0
41
1
10
199.085065447402
20
15.7011868214133
30
0
41
1
10
199.107081863
20
15.70196320012
30
0
41
1
10
199.116483065972
20
15.7022951770524
30
0
41
1
10
199.11960412689
20
15.7024054130937
30
0
0
SPLINE
5
251
100
AcDbEntity
8
1
62
256
6
ByLayer
370
-1
48
1
60
0
100
AcDbSpline
70
4
71
3
72
44
73
40
40
0
40
0
40
0
40
0
40
0.000510080952443
40
0.0008224215521454
40
0.0055075305476808
40
0.0105049801429186
40
0.0204998793333941
40
0.0404896777143453
40
0.0804692744762476
40
0.12044887123815
40
0.140438669619101
40
0.160428468000052
40
0.180418266381003
40
0.200408064761954
40
0.220397863142905
40
0.240387661523857
40
0.260377459904808
40
0.280367258285759
40
0.30035705666671
40
0.320346855047661
40
0.340336653428612
40
0.350331552619088
40
0.360326451809564
40
0.380316250190515
40
0.400306048571466
40
0.440285645333368
40
0.48026524209527
40
0.520244838857173
40
0.560224435619075
40
0.580214234000026
40
0.600204032380977
40
0.64018362914288
40
0.680163225904782
40
0.700153024285733
40
0.720142822666684
40
0.760122419428586
40
0.840081612952391
40
0.920040806476195
40
1
40
1
40
1
40
1
41
1
10
198.965138650126
20
6.48595636472976
30
0
41
1
10
198.965450969886
20
6.48597444431104
30
0
41
1
10
198.965953940727
20
6.48600902307521
30
0
41
1
10
198.969315625362
20
6.4862998143293
30
0
41
1
10
198.975428388339
20
6.48678857275618
30
0
41
1
10
198.987484050283
20
6.48764087296647
30
0
41
1
10
199.008906732639
20
6.48892368276148
30
0
41
1
10
199.051819989184
20
6.49066024000115
30
0
41
1
10
199.113161165236
20
6.49180653814625
30
0
41
1
10
199.174508245802
20
6.49330611292558
30
0
41
1
10
199.223526293765
20
6.49608191436201
30
0
41
1
10
199.260202584463
20
6.49939649448254
30
0
41
1
10
199.296685360071
20
6.50447690525252
30
0
41
1
10
199.332747433088
20
6.51206619825149
30
0
41
1
10
199.367949886786
20
6.52302131487193
30
0
41
1
10
199.401932536714
20
6.53733358534237
30
0
41
1
10
199.434377097866
20
6.55487015445692
30
0
41
1
10
199.465088609597
20
6.57530247132564
30
0
41
1
10
199.494026850279
20
6.59818274705202
30
0
41
1
10
199.521325361825
20
6.62300221829341
30
0
41
1
10
199.542905943593
20
6.64490931397731
30
0
41
1
10
199.559671463991
20
6.66291035338625
30
0
41
1
10
199.576132360654
20
6.68119450723083
30
0
41
1
10
199.59614096602
20
6.70456912224202
30
0
41
1
10
199.626491799648
20
6.74333376954266
30
0
41
1
10
199.660551704894
20
6.79473893184712
30
0
41
1
10
199.692824934167
20
6.86141660456781
30
0
41
1
10
199.715006621153
20
6.93211872348803
30
0
41
1
10
199.725014916248
20
6.99302155981869
30
0
41
1
10
199.72861485401
20
7.04217259434054
30
0
41
1
10
199.730129843022
20
7.09142741284288
30
0
41
1
10
199.729233615806
20
7.15302017942622
30
0
41
1
10
199.726724298458
20
7.21455597155352
30
0
41
1
10
199.724648509679
20
7.26378123828565
30
0
41
1
10
199.722670508893
20
7.31301008212281
30
0
41
1
10
199.719369721024
20
7.39916455836948
30
0
41
1
10
199.715012773866
20
7.52224966013614
30
0
41
1
10
199.710019339557
20
7.66996164166153
30
0
41
1
10
199.706655093221
20
7.76844298362568
30
0
41
1
10
199.704917537088
20
7.81768116952597
30
0
0
SPLINE
5
252
100
AcDbEntity
8
1
62
256
6
ByLayer
370
-1
48
1
60
0
100
AcDbSpline
70
4
71
3
72
10
73
6
40
0
40
0
40
0
40
0
40
0.626169544094617
40
0.939254316141925
40
1
40
1
40
1
40
1
41
1
10
198.259070558978
20
15.6730693384647
30
0
41
1
10
198.26541762642
20
15.6732918295897
30
0
41
1
10
198.275094944731
20
15.6736253957812
30
0
41
1
10
198.284548190644
20
15.673942387189
30
0
41
1
10
198.287875383215
20
15.6740525237006
30
0
41
1
10
198.288412993039
20
15.6740702972665
30
0
0
SPLINE
5
253
100
AcDbEntity
8
1
62
256
6
ByLayer
370
-1
48
1
60
0
100
AcDbSpline
70
4
71
3
72
12
73
8
40
0
40
0
40
0
40
0
40
0.484768844990482
40
0.727153267485723
40
0.848345478733344
40
0.969537689980964
40
1
40
1
40
1
40
1
41
1
10
198.085618663707
20
16.9720506789012
30
0
41
1
10
198.087772493955
20
16.9212739597685
30
0
41
1
10
198.091003239213
20
16.8451088837715
30
0
41
1
10
198.094772441977
20
16.7562496292946
30
0
41
1
10
198.09692496156
20
16.7054718078538
30
0
41
1
10
198.098137810985
20
16.676893195619
30
0
41
1
10
198.098813035333
20
16.6610094626768
30
0
41
1
10
198.098947981078
20
16.6578183014229
30
0
0
SPLINE
5
254
100
AcDbEntity
8
1
62
256
6
ByLayer
370
-1
48
1
60
0
100
AcDbSpline
70
4
71
3
72
8
73
4
40
0
40
0
40
0
40
0
40
1
40
1
40
1
40
1
41
1
10
199.220735737838
20
7.80062453950978
30
0
41
1
10
199.278878208532
20
7.80264718375321
30
0
41
1
10
199.337019512135
20
7.80468527837962
30
0
41
1
10
199.394278133727
20
7.80670792262305
30
0
0
SPLINE
5
255
100
AcDbEntity
8
1
62
256
6
ByLayer
370
-1
48
1
60
0
100
AcDbSpline
70
4
71
3
72
8
73
4
40
0
40
0
40
0
40
0
40
1
40
1
40
1
40
1
41
1
10
198.108551161117
20
16.0078705765871
30
0
41
1
10
198.111554701328
20
16.1221761042826
30
0
41
1
10
198.111141651952
20
16.2577597931416
30
0
41
1
10
198.107366396944
20
16.3967700799947
30
0
0
SPLINE
5
256
100
AcDbEntity
8
1
62
256
6
ByLayer
370
-1
48
1
60
0
100
AcDbSpline
70
4
71
3
72
8
73
4
40
0
40
0
40
0
40
0
40
1
40
1
40
1
40
1
41
1
10
198.896660102467
20
17.0649079470067
30
0
41
1
10
198.934393297281
20
17.0648767936787
30
0
41
1
10
198.971985631988
20
17.0605504345699
30
0
41
1
10
199.008742241874
20
17.0520157774834
30
0
0
SPLINE
5
257
100
AcDbEntity
8
1
62
256
6
ByLayer
370
-1
48
1
60
0
100
AcDbSpline
70
4
71
3
72
8
73
4
40
0
40
0
40
0
40
0
40
1
40
1
40
1
40
1
41
1
10
190.541232091347
20
7.15637693982902
30
0
41
1
10
190.552188526759
20
7.04207141213348
30
0
41
1
10
190.561208817049
20
6.90648772327449
30
0
41
1
10
190.567105309904
20
6.76747743642142
30
0
0
SPLINE
5
258
100
AcDbEntity
8
1
62
256
6
ByLayer
370
-1
48
1
60
0
100
AcDbSpline
70
4
71
3
72
8
73
4
40
0
40
0
40
0
40
0
40
1
40
1
40
1
40
1
41
1
10
189.226180638589
20
6.52143075496448
30
0
41
1
10
189.215172337021
20
6.55764073887255
30
0
41
1
10
189.208280242367
20
6.5949717880751
30
0
41
1
10
189.205597678885
20
6.63273683158928
30
0
0
SPLINE
5
259
100
AcDbEntity
8
1
62
256
6
ByLayer
370
-1
48
1
60
0
100
AcDbSpline
70
4
71
3
72
8
73
4
40
0
40
0
40
0
40
0
40
1
40
1
40
1
40
1
41
1
10
199.795656213515
20
7.21308615515687
30
0
41
1
10
199.79608317626
20
7.19675828374886
30
0
41
1
10
199.796426828909
20
7.18042772847227
30
0
41
1
10
199.796688026657
20
7.16409605823063
30
0
0
SPLINE
5
25A
100
AcDbEntity
8
1
62
256
6
ByLayer
370
-1
48
1
60
0
100
AcDbSpline
70
4
71
3
72
12
73
8
40
0
40
0
40
0
40
0
40
0.0304623077133643
40
0.151654519249194
40
0.272846730785023
40
0.515231153856682
40
1
40
1
40
1
40
1
41
1
10
198.4425014923
20
6.78215304666762
30
0
41
1
10
198.442588574055
20
6.77896188555195
30
0
41
1
10
198.443018472685
20
6.76307815206215
30
0
41
1
10
198.443794002223
20
6.73449954009683
30
0
41
1
10
198.445174388699
20
6.68372171878653
30
0
41
1
10
198.447587637049
20
6.59486246434403
30
0
41
1
10
198.449656135656
20
6.51869738832258
30
0
41
1
10
198.451035134776
20
6.46792066919014
30
0
0
SPLINE
5
25B
100
AcDbEntity
8
1
62
256
6
ByLayer
370
-1
48
1
60
0
100
AcDbSpline
70
4
71
3
72
12
73
8
40
0
40
0
40
0
40
0
40
0.484768844990484
40
0.727153267485726
40
0.848345478733347
40
0.969537689980968
40
1
40
1
40
1
40
1
41
1
10
190.585383167475
20
6.19219683751484
30
0
41
1
10
190.584004168362
20
6.24297355664754
30
0
41
1
10
190.581935669765
20
6.31913863264455
30
0
41
1
10
190.579522421426
20
6.40799788712147
30
0
41
1
10
190.578142034953
20
6.45877570856231
30
0
41
1
10
190.577366505409
20
6.4873543207971
30
0
41
1
10
190.576936606798
20
6.50323805373935
30
0
41
1
10
190.57684952504
20
6.50642921499323
30
0
0
SPLINE
5
25C
100
AcDbEntity
8
1
62
256
6
ByLayer
370
-1
48
1
60
0
100
AcDbSpline
70
4
71
3
72
44
73
40
40
0
40
0
40
0
40
0
40
0.0005100809524593
40
0.0008224215521617
40
0.005507530547697
40
0.0105049801429347
40
0.0204998793334101
40
0.0404896777143609
40
0.0804692744762626
40
0.120448871238164
40
0.140438669619115
40
0.160428468000066
40
0.180418266381017
40
0.200408064761968
40
0.220397863142918
40
0.240387661523869
40
0.26037745990482
40
0.280367258285771
40
0.300357056666722
40
0.320346855047672
40
0.340336653428623
40
0.350331552619099
40
0.360326451809574
40
0.380316250190525
40
0.400306048571476
40
0.440285645333377
40
0.480265242095279
40
0.520244838857181
40
0.560224435619082
40
0.580214234000033
40
0.600204032380984
40
0.640183629142885
40
0.680163225904787
40
0.700153024285738
40
0.720142822666689
40
0.76012241942859
40
0.840081612952394
40
0.920040806476197
40
1
40
1
40
1
40
1
41
1
10
189.705862964603
20
16.6782911516863
30
0
41
1
10
189.70555053586
20
16.678273072105
30
0
41
1
10
189.705047305477
20
16.6782384933409
30
0
41
1
10
189.701682961135
20
16.6779477020868
30
0
41
1
10
189.695565810415
20
16.6774589436599
30
0
41
1
10
189.683502664954
20
16.6766066434496
30
0
41
1
10
189.662068994689
20
16.6753238336546
30
0
41
1
10
189.619143214322
20
16.6735872764149
30
0
41
1
10
189.557804375934
20
16.6724409782698
30
0
41
1
10
189.496475276643
20
16.6709414034905
30
0
41
1
10
189.44747514361
20
16.6681656020541
30
0
41
1
10
189.410812418453
20
16.6648510219335
30
0
41
1
10
189.374341456868
20
16.6597706111636
30
0
41
1
10
189.338286830023
20
16.6521813181646
30
0
41
1
10
189.303084656277
20
16.6412262015442
30
0
41
1
10
189.269097281554
20
16.6269139310737
30
0
41
1
10
189.236645681189
20
16.6093773619592
30
0
41
1
10
189.205928340895
20
16.5889450450904
30
0
41
1
10
189.176989446617
20
16.5660647693641
30
0
41
1
10
189.149699667641
20
16.5412452981227
30
0
41
1
10
189.128137530337
20
16.5193382024388
30
0
41
1
10
189.111395929779
20
16.5013371630298
30
0
41
1
10
189.094965373891
20
16.4830530091853
30
0
41
1
10
189.075006819499
20
16.4596783941741
30
0
41
1
10
189.044757126611
20
16.4209137468734
30
0
41
1
10
189.010855008895
20
16.369508584569
30
0
41
1
10
188.978791001446
20
16.3028309118483
30
0
41
1
10
188.956808523702
20
16.2321287929281
30
0
41
1
10
188.946940055146
20
16.1712259565974
30
0
41
1
10
188.943430910225
20
16.1220749220755
30
0
41
1
10
188.941989376085
20
16.0728201035732
30
0
41
1
10
188.942940323828
20
16.0112273369899
30
0
41
1
10
188.945445142083
20
15.9496915448626
30
0
41
1
10
188.947475399156
20
15.9004662781304
30
0
41
1
10
188.949380772893
20
15.8512374342933
30
0
41
1
10
188.952499102506
20
15.7650829580466
30
0
41
1
10
188.956504782979
20
15.6419978562799
30
0
41
1
10
188.96111038045
20
15.4942858747545
30
0
41
1
10
188.964346357717
20
15.3958045327904
30
0
41
1
10
188.966084294095
20
15.3465663468901
30
0
0
SPLINE
5
25D
100
AcDbEntity
8
1
62
256
6
ByLayer
370
-1
48
1
60
0
100
AcDbSpline
70
4
71
3
72
10
73
6
40
0
40
0
40
0
40
0
40
0.283853282483277
40
0.283853282483277
40
1
40
1
40
1
40
1
41
1
10
188.875233497526
20
16.0001514581855
30
0
41
1
10
188.874990149841
20
16.0152943444233
30
0
41
1
10
188.874787136
20
16.0304379127296
30
0
41
1
10
188.874206574841
20
16.0837884341154
30
0
41
1
10
188.87403207528
20
16.1219981235727
30
0
41
1
10
188.874077489027
20
16.1602068202316
30
0
0
SPLINE
5
25E
100
AcDbEntity
8
1
62
256
6
ByLayer
370
-1
48
1
60
0
100
AcDbSpline
70
4
71
3
72
8
73
4
40
0
40
0
40
0
40
0
40
1
40
1
40
1
40
1
41
1
10
189.775335954849
20
6.09933956940941
30
0
41
1
10
189.737630696933
20
6.09937072273743
30
0
41
1
10
189.700063799654
20
6.10369708184615
30
0
41
1
10
189.663323046597
20
6.11223173893274
30
0
0
SPLINE
5
25F
100
AcDbEntity
8
1
62
256
6
ByLayer
370
-1
48
1
60
0
100
AcDbSpline
70
4
71
3
72
18
73
14
40
0
40
0
40
0
40
0
40
0.0041315572796396
40
0.0497906845581686
40
0.0954498118366976
40
0.186768066393756
40
0.369404575507872
40
0.552041084621988
40
0.734677593736104
40
0.825995848293162
40
0.91731410285022
40
0.962973230128749
40
1
40
1
40
1
40
1
41
1
10
190.190662544959
20
7.48453883449989
30
0
41
1
10
190.190219346592
20
7.4845222938049
30
0
41
1
10
190.184875900479
20
7.48432288434199
30
0
41
1
10
190.17457336672
20
7.48393877362091
30
0
41
1
10
190.154434183874
20
7.48319060692455
30
0
41
1
10
190.118241529357
20
7.48185212070359
30
0
41
1
10
190.063942761366
20
7.47986126197122
30
0
41
1
10
189.99525687465
20
7.47736897390695
30
0
41
1
10
189.935586769789
20
7.47522454615344
30
0
41
1
10
189.886723674462
20
7.47348039293041
30
0
41
1
10
189.855785860002
20
7.47238088862636
30
0
41
1
10
189.832018464001
20
7.47153891959937
30
0
41
1
10
189.820668710208
20
7.47113776406863
30
0
41
1
10
189.81558321766
20
7.47095807035299
30
0
0
SPLINE
5
260
100
AcDbEntity
8
1
62
256
6
ByLayer
370
-1
48
1
60
0
100
AcDbSpline
70
4
71
3
72
8
73
4
40
0
40
0
40
0
40
0
40
1
40
1
40
1
40
1
41
1
10
199.445884649882
20
16.6428167614516
30
0
41
1
10
199.456905032766
20
16.6066067775435
30
0
41
1
10
199.463797379745
20
16.569275728341
30
0
41
1
10
199.466447826626
20
16.5315106848268
30
0
0
SPLINE
5
261
100
AcDbEntity
8
1
62
256
6
ByLayer
370
-1
48
1
60
0
100
AcDbSpline
70
4
71
2
72
9
73
6
40
0
40
0
40
0
40
0.25
40
0.5
40
0.75
40
1
40
1
40
1
41
1
10
198.389622005782
20
7.62222831007372
30
0
41
1
10
198.419298784239
20
7.62339079719206
30
0
41
1
10
198.472913371901
20
7.64765195855219
30
0
41
1
10
198.513633285068
20
7.69112711213748
30
0
41
1
10
198.534679669007
20
7.74693527920886
30
0
41
1
10
198.533745178225
20
7.77737185863194
30
0
0
SPLINE
5
262
100
AcDbEntity
8
1
62
256
6
ByLayer
370
-1
48
1
60
0
100
AcDbSpline
70
4
71
3
72
10
73
6
40
0
40
0
40
0
40
0
40
0.499225645850189
40
0.499225645850189
40
1
40
1
40
1
40
1
41
1
10
198.597830425903
20
17.0597633278661
30
0
41
1
10
198.612891754117
20
17.060324405911
30
0
41
1
10
198.62795609751
20
17.0608480445009
30
0
41
1
10
198.658139622567
20
17.0618165219245
30
0
41
1
10
198.673259049502
20
17.0622609517329
30
0
41
1
10
198.688382166218
20
17.062665015533
30
0
0
SPLINE
5
263
100
AcDbEntity
8
1
62
256
6
ByLayer
370
-1
48
1
60
0
100
AcDbSpline
70
4
71
3
72
10
73
6
40
0
40
0
40
0
40
0
40
0.499225645850197
40
0.499225645850197
40
1
40
1
40
1
40
1
41
1
10
190.074234862569
20
6.10448418855
30
0
41
1
10
190.059144314654
20
6.10392311050509
30
0
41
1
10
190.044053507486
20
6.10339947191517
30
0
41
1
10
190.013827343165
20
6.10243099449158
30
0
41
1
10
189.99869191964
20
6.1019865646831
30
0
41
1
10
189.983557974371
20
6.10158250088304
30
0
0
SPLINE
5
264
100
AcDbEntity
8
1
62
256
6
ByLayer
370
-1
48
1
60
0
100
AcDbSpline
70
4
71
3
72
9
73
5
40
0
40
0
40
0
40
0
40
0.339285714285774
40
1
40
1
40
1
40
1
41
1
10
190.588339303672
20
6.12250568848555
30
0
41
1
10
190.588004978727
20
6.13038742557754
30
0
41
1
10
190.587019599943
20
6.15361780858549
30
0
41
1
10
190.58603422116
20
6.17684819159345
30
0
41
1
10
190.58538316732
20
6.19219683750941
30
0
0
SPLINE
5
265
100
AcDbEntity
8
1
62
256
6
ByLayer
370
-1
48
1
60
0
100
AcDbSpline
70
4
71
2
72
9
73
6
40
0
40
0
40
0
40
0.25
40
0.5
40
0.75
40
1
40
1
40
1
41
1
10
198.259070558978
20
15.6730693384647
30
0
41
1
10
198.257912495474
20
15.7028594773939
30
0
41
1
10
198.233743655157
20
15.7566788640703
30
0
41
1
10
198.190433937657
20
15.7975543206903
30
0
41
1
10
198.13483813751
20
15.8186810983978
30
0
41
1
10
198.104517378461
20
15.8177430380122
30
0
0
SPLINE
5
266
100
AcDbEntity
8
1
62
256
6
ByLayer
370
-1
48
1
60
0
100
AcDbSpline
70
4
71
3
72
10
73
6
40
0
40
0
40
0
40
0
40
0.499225645850166
40
0.499225645850166
40
1
40
1
40
1
40
1
41
1
10
199.792828141587
20
7.30404660137236
30
0
41
1
10
199.79337247471
20
7.28891307567352
30
0
41
1
10
199.793880888809
20
7.27377790650542
30
0
41
1
10
199.794824361252
20
7.24345768421611
30
0
41
1
10
199.795259101576
20
7.22827247467939
30
0
41
1
10
199.795656213515
20
7.21308615515687
30
0
0
SPLINE
5
267
100
AcDbEntity
8
1
62
256
6
ByLayer
370
-1
48
1
60
0
100
AcDbSpline
70
4
71
3
72
8
73
4
40
0
40
0
40
0
40
0
40
1
40
1
40
1
40
1
41
1
10
189.294597105735
20
16.7114945683867
30
0
41
1
10
189.330675340379
20
16.7225509836104
30
0
41
1
10
189.367864459832
20
16.7294695315906
30
0
41
1
10
189.405469737653
20
16.7321462223893
30
0
0
SPLINE
5
268
100
AcDbEntity
8
1
62
256
6
ByLayer
370
-1
48
1
60
0
100
AcDbSpline
70
4
71
3
72
18
73
14
40
0
40
0
40
0
40
0
40
0.24999999999998
40
0.24999999999998
40
0.49999999999996
40
0.49999999999996
40
0.62499999999997
40
0.62499999999997
40
0.74999999999998
40
0.74999999999998
40
0.87499999999999
40
0.87499999999999
40
1
40
1
40
1
40
1
41
1
10
199.821200051654
20
-8.13031385678866
30
0
41
1
10
199.826184432081
20
-8.18123543575041
30
0
41
1
10
199.826551648723
20
-8.23411800771669
30
0
41
1
10
199.811910515533
20
-8.34598606386487
30
0
41
1
10
199.796760619251
20
-8.40589819648739
30
0
41
1
10
199.752323481182
20
-8.4958465393903
30
0
41
1
10
199.734319737139
20
-8.52487554366715
30
0
41
1
10
199.689971445029
20
-8.58039644423206
30
0
41
1
10
199.664209136646
20
-8.60586444838214
30
0
41
1
10
199.608127593794
20
-8.64934649667572
30
0
41
1
10
199.57787703946
20
-8.667326136637
30
0
41
1
10
199.517042020965
20
-8.69527784723323
30
0
41
1
10
199.486509544517
20
-8.70536476059206
30
0
41
1
10
199.456471747495
20
-8.71246778496393
30
0
0
SPLINE
5
269
100
AcDbEntity
8
1
62
256
6
ByLayer
370
-1
48
1
60
0
100
AcDbSpline
70
4
71
3
72
8
73
4
40
0
40
0
40
0
40
0
40
1
40
1
40
1
40
1
41
1
10
198.355508990196
20
0.814153481842055
30
0
41
1
10
198.318975728404
20
0.814512595584716
30
0
41
1
10
198.281739284014
20
0.814996811218663
30
0
41
1
10
198.243511911146
20
0.815628410411335
30
0
0
SPLINE
5
26A
100
AcDbEntity
8
1
62
256
6
ByLayer
370
-1
48
1
60
0
100
AcDbSpline
70
4
71
3
72
18
73
14
40
0
40
0
40
0
40
0
40
0.125000000000011
40
0.125000000000011
40
0.250000000000021
40
0.250000000000021
40
0.375000000000032
40
0.375000000000032
40
0.500000000000043
40
0.500000000000043
40
0.750000000000021
40
0.750000000000021
40
1
40
1
40
1
40
1
41
1
10
199.512796393722
20
-8.65683347198976
30
0
41
1
10
199.532606285206
20
-8.65280960558687
30
0
41
1
10
199.553076461815
20
-8.64689297312074
30
0
41
1
10
199.596419620271
20
-8.62811104421013
30
0
41
1
10
199.619384761863
20
-8.61487964904308
30
0
41
1
10
199.661686987148
20
-8.58054882436991
30
0
41
1
10
199.680790852425
20
-8.5594279664497
30
0
41
1
10
199.710501243329
20
-8.51603653980374
30
0
41
1
10
199.721064343562
20
-8.49462898191035
30
0
41
1
10
199.745264371041
20
-8.43271139790471
30
0
41
1
10
199.751569581413
20
-8.39520869500927
30
0
41
1
10
199.756981817525
20
-8.32517691668997
30
0
41
1
10
199.755666282398
20
-8.29273513455121
30
0
41
1
10
199.752169356645
20
-8.26178186126765
30
0
0
SPLINE
5
26B
100
AcDbEntity
8
1
62
256
6
ByLayer
370
-1
48
1
60
0
100
AcDbSpline
70
4
71
3
72
10
73
6
40
0
40
0
40
0
40
0
40
0.226400841880684
40
0.226400841880684
40
1
40
1
40
1
40
1
41
1
10
198.557355240269
20
-7.06937717223286
30
0
41
1
10
198.565251489244
20
-7.05861039411198
30
0
41
1
10
198.572434062977
20
-7.04730177147172
30
0
41
1
10
198.600340421093
20
-6.9959169347089
30
0
41
1
10
198.61271505239
20
-6.95100057193284
30
0
41
1
10
198.614272727131
20
-6.90521786932388
30
0
0
SPLINE
5
26C
100
AcDbEntity
8
1
62
256
6
ByLayer
370
-1
48
1
60
0
100
AcDbSpline
70
4
71
3
72
10
73
6
40
0
40
0
40
0
40
0
40
0.353613601408494
40
0.353613601408494
40
1
40
1
40
1
40
1
41
1
10
198.432081307833
20
-4.93474607354167
30
0
41
1
10
198.450200811239
20
-4.99713598363354
30
0
41
1
10
198.46995308958
20
-5.0591687347129
30
0
41
1
10
198.530480198727
20
-5.23357289602799
30
0
41
1
10
198.575251694407
20
-5.34532419468115
30
0
41
1
10
198.625183099259
20
-5.4545773665854
30
0
0
SPLINE
5
26D
100
AcDbEntity
8
1
62
256
6
ByLayer
370
-1
48
1
60
0
100
AcDbSpline
70
4
71
3
72
12
73
8
40
0
40
0
40
0
40
0
40
0.500000000000027
40
0.500000000000027
40
0.750000000000013
40
0.750000000000013
40
1
40
1
40
1
40
1
41
1
10
199.080114376822
20
-0.623883114650823
30
0
41
1
10
199.091839502515
20
-0.667925459969013
30
0
41
1
10
199.105414960079
20
-0.715804736542367
30
0
41
1
10
199.130577698947
20
-0.796377001181042
30
0
41
1
10
199.139650944299
20
-0.824300924254771
30
0
41
1
10
199.159610347081
20
-0.882968618938207
30
0
41
1
10
199.170444571758
20
-0.913514417547901
30
0
41
1
10
199.181788334444
20
-0.944160820244235
30
0
0
SPLINE
5
26E
100
AcDbEntity
8
1
62
256
6
ByLayer
370
-1
48
1
60
0
100
AcDbSpline
70
4
71
3
72
10
73
6
40
0
40
0
40
0
40
0
40
0.5
40
0.5
40
1
40
1
40
1
40
1
41
1
10
198.653525170328
20
-5.75703061250508
30
0
41
1
10
198.655266130176
20
-5.70639387917541
30
0
41
1
10
198.65111684339
20
-5.65655128042766
30
0
41
1
10
198.631465232744
20
-5.55839672161477
30
0
41
1
10
198.61575429295
20
-5.5098362759276
30
0
41
1
10
198.594575208668
20
-5.46377867165998
30
0
0
SPLINE
5
26F
100
AcDbEntity
8
1
62
256
6
ByLayer
370
-1
48
1
60
0
100
AcDbSpline
70
4
71
3
72
18
73
14
40
0
40
0
40
0
40
0
40
0.125
40
0.125
40
0.25
40
0.25
40
0.375
40
0.375
40
0.5
40
0.5
40
0.75
40
0.75
40
1
40
1
40
1
40
1
41
1
10
198.732278020572
20
0.556074392350439
30
0
41
1
10
198.726774605836
20
0.574360633408077
30
0
41
1
10
198.719510086901
20
0.593442214913409
30
0
41
1
10
198.698513657942
20
0.634501985811454
30
0
41
1
10
198.684443955563
20
0.65660139852065
30
0
41
1
10
198.649589534647
20
0.698357068467459
30
0
41
1
10
198.628808315006
20
0.717805742747998
30
0
41
1
10
198.587038377763
20
0.749174798611421
30
0
41
1
10
198.566828210526
20
0.760965028188707
30
0
41
1
10
198.509006086312
20
0.789364161162524
30
0
41
1
10
198.474816457377
20
0.799068403852516
30
0
41
1
10
198.411650478576
20
0.811524474995906
30
0
41
1
10
198.382792035906
20
0.813885295641995
30
0
41
1
10
198.355508990196
20
0.814153481842055
30
0
0
SPLINE
5
270
100
AcDbEntity
8
1
62
256
6
ByLayer
370
-1
48
1
60
0
100
AcDbSpline
70
4
71
3
72
8
73
4
40
0
40
0
40
0
40
0
40
1
40
1
40
1
40
1
41
1
10
199.423667326911
20
-8.67596991841381
30
0
41
1
10
199.454300295726
20
-8.66903363507788
30
0
41
1
10
199.483937869669
20
-8.66269533374933
30
0
41
1
10
199.512796393725
20
-8.65683347198802
30
0
0
SPLINE
5
271
100
AcDbEntity
8
1
62
256
6
ByLayer
370
-1
48
1
60
0
100
AcDbSpline
70
4
71
3
72
8
73
4
40
0
40
0
40
0
40
0
40
1
40
1
40
1
40
1
41
1
10
199.181788334444
20
-0.944160820244264
30
0
41
1
10
199.199314341572
20
-0.991958681294108
30
0
41
1
10
199.207694924911
20
-1.04082231768473
30
0
41
1
10
199.208048825694
20
-1.08713816852526
30
0
0
SPLINE
5
272
100
AcDbEntity
8
1
62
256
6
ByLayer
370
-1
48
1
60
0
100
AcDbSpline
70
4
71
3
72
12
73
8
40
0
40
0
40
0
40
0
40
0.326416499936631
40
0.326416499936631
40
0.652832999873262
40
0.652832999873262
40
1
40
1
40
1
40
1
41
1
10
198.645718670312
20
-6.9107933110692
30
0
41
1
10
198.644826512008
20
-6.93609863881565
30
0
41
1
10
198.641041239653
20
-6.96076057108593
30
0
41
1
10
198.627956965505
20
-7.00885824241462
30
0
41
1
10
198.618462823646
20
-7.03258202980703
30
0
41
1
10
198.593823930219
20
-7.07803358818859
30
0
41
1
10
198.578221626356
20
-7.09989567491479
30
0
41
1
10
198.560149423151
20
-7.11961873942002
30
0
0
SPLINE
5
273
100
AcDbEntity
8
1
62
256
6
ByLayer
370
-1
48
1
60
0
100
AcDbSpline
70
4
71
3
72
18
73
14
40
0
40
0
40
0
40
0
40
0.25
40
0.25
40
0.5
40
0.5
40
0.625
40
0.625
40
0.75
40
0.75
40
0.875
40
0.875
40
1
40
1
40
1
40
1
41
1
10
199.752169356645
20
-8.26178186126765
30
0
41
1
10
199.743488581266
20
-8.18494339467307
30
0
41
1
10
199.73535307527
20
-8.10580932643606
30
0
41
1
10
199.720632319123
20
-7.93946901920694
30
0
41
1
10
199.714043700148
20
-7.85247874520672
30
0
41
1
10
199.705999253844
20
-7.71103152419582
30
0
41
1
10
199.703621462119
20
-7.66183158695193
30
0
41
1
10
199.699731082462
20
-7.55896359286845
30
0
41
1
10
199.698206754999
20
-7.50524240018547
30
0
41
1
10
199.696314350324
20
-7.39020838702936
30
0
41
1
10
199.695952875586
20
-7.32786015619956
30
0
41
1
10
199.696973783658
20
-7.1972998197385
30
0
41
1
10
199.698387956348
20
-7.12769700958677
30
0
41
1
10
199.700813667861
20
-7.05844785244818
30
0
0
SPLINE
5
274
100
AcDbEntity
8
1
62
256
6
ByLayer
370
-1
48
1
60
0
100
AcDbSpline
70
4
71
3
72
10
73
6
40
0
40
0
40
0
40
0
40
0.5
40
0.5
40
1
40
1
40
1
40
1
41
1
10
199.192259320532
20
-1.33693711635041
30
0
41
1
10
199.189330032286
20
-1.28121526993434
30
0
41
1
10
199.187096555576
20
-1.22785575592957
30
0
41
1
10
199.183842461289
20
-1.12506004512528
30
0
41
1
10
199.18287902501
20
-1.07748999656781
30
0
41
1
10
199.182417344555
20
-1.0326961534484
30
0
0
SPLINE
5
275
100
AcDbEntity
8
1
62
256
6
ByLayer
370
-1
48
1
60
0
100
AcDbSpline
70
4
71
3
72
10
73
6
40
0
40
0
40
0
40
0
40
0.5
40
0.5
40
1
40
1
40
1
40
1
41
1
10
198.625183099259
20
-5.4545773665854
30
0
41
1
10
198.647375842366
20
-5.50309029283065
30
0
41
1
10
198.663485009218
20
-5.5531150895039
30
0
41
1
10
198.684100854302
20
-5.65604802252142
30
0
41
1
10
198.68854206977
20
-5.70943695071801
30
0
41
1
10
198.686658527969
20
-5.76272643560841
30
0
0
SPLINE
5
276
100
AcDbEntity
8
1
62
256
6
ByLayer
370
-1
48
1
60
0
100
AcDbSpline
70
4
71
3
72
18
73
14
40
0
40
0
40
0
40
0
40
0.186980592087521
40
0.186980592087521
40
0.45798706139168
40
0.45798706139168
40
0.59349029604376
40
0.59349029604376
40
0.72899353069584
40
0.72899353069584
40
0.86449676534792
40
0.86449676534792
40
1
40
1
40
1
40
1
41
1
10
198.26269318573
20
0.877150011534013
30
0
41
1
10
198.296017326036
20
0.875582845915801
30
0
41
1
10
198.330552302388
20
0.871485411807015
30
0
41
1
10
198.419080154453
20
0.852881471650591
30
0
41
1
10
198.475714992893
20
0.834326396954793
30
0
41
1
10
198.562210314684
20
0.786306586430243
30
0
41
1
10
198.590371968486
20
0.767404178465341
30
0
41
1
10
198.644888616415
20
0.722020288072173
30
0
41
1
10
198.670253472316
20
0.696156056653507
30
0
41
1
10
198.714347159591
20
0.640723107341188
30
0
41
1
10
198.733039332411
20
0.611220716498764
30
0
41
1
10
198.762993126727
20
0.552482978231808
30
0
41
1
10
198.77435834002
20
0.523287887993291
30
0
41
1
10
198.782914725408
20
0.494769672011046
30
0
0
SPLINE
5
277
100
AcDbEntity
8
1
62
256
6
ByLayer
370
-1
48
1
60
0
100
AcDbSpline
70
4
71
3
72
8
73
4
40
0
40
0
40
0
40
0
40
1
40
1
40
1
40
1
41
1
10
199.456471747495
20
-8.71246778496396
30
0
41
1
10
199.430357509862
20
-8.71630786043443
30
0
41
1
10
199.40350243295
20
-8.72059626123226
30
0
41
1
10
199.375662803624
20
-8.72548047247813
30
0
0
SPLINE
5
278
100
AcDbEntity
8
1
62
256
6
ByLayer
370
-1
48
1
60
0
100
AcDbSpline
70
4
71
3
72
10
73
6
40
0
40
0
40
0
40
0
40
0.433874726799862
40
0.433874726799862
40
1
40
1
40
1
40
1
41
1
10
198.61427272713
20
-6.90521786932379
30
0
41
1
10
198.619922533645
20
-6.73916047322402
30
0
41
1
10
198.625581819273
20
-6.57310339719572
30
0
41
1
10
198.638654025917
20
-6.19037390460309
30
0
41
1
10
198.646075720399
20
-5.97370178385734
30
0
41
1
10
198.653525170328
20
-5.75703061250508
30
0
0
SPLINE
5
279
100
AcDbEntity
8
1
62
256
6
ByLayer
370
-1
48
1
60
0
100
AcDbSpline
70
4
71
3
72
10
73
6
40
0
40
0
40
0
40
0
40
0.694155338182104
40
0.694155338182104
40
1
40
1
40
1
40
1
41
1
10
198.686658527981
20
-5.76272643560805
30
0
41
1
10
198.677226374443
20
-6.02838131958956
30
0
41
1
10
198.667762548715
20
-6.29402907425956
30
0
41
1
10
198.654093547427
20
-6.67671290143008
30
0
41
1
10
198.649908191028
20
-6.79375360059592
30
0
41
1
10
198.645718670312
20
-6.9107933110692
30
0
0
SPLINE
5
27A
100
AcDbEntity
8
1
62
256
6
ByLayer
370
-1
48
1
60
0
100
AcDbSpline
70
4
71
3
72
8
73
4
40
0
40
0
40
0
40
0
40
1
40
1
40
1
40
1
41
1
10
198.782914725408
20
0.494769672011017
30
0
41
1
10
198.788891608136
20
0.470854318380219
30
0
41
1
10
198.795250514085
20
0.446132929473265
30
0
41
1
10
198.802117117039
20
0.420340344696314
30
0
0
SPLINE
5
27B
100
AcDbEntity
8
1
62
256
6
ByLayer
370
-1
48
1
60
0
100
AcDbSpline
70
4
71
3
72
10
73
6
40
0
40
0
40
0
40
0
40
0.911217395074637
40
0.911217395074637
40
1
40
1
40
1
40
1
41
1
10
198.594575208667
20
-5.46377867166035
30
0
41
1
10
198.544133033143
20
-5.35408338324791
30
0
41
1
10
198.499039620409
20
-5.24235356323646
30
0
41
1
10
198.45539660635
20
-5.11751467583073
30
0
41
1
10
198.451572547869
20
-5.10641091350124
30
0
41
1
10
198.447799518068
20
-5.0952882742954
30
0
0
SPLINE
5
27C
100
AcDbEntity
8
1
62
256
6
ByLayer
370
-1
48
1
60
0
100
AcDbSpline
70
4
71
3
72
20
73
16
40
0
40
0
40
0
40
0
40
0.0624999999999999
40
0.0624999999999999
40
0.125
40
0.125
40
0.250000000000001
40
0.250000000000001
40
0.375000000000002
40
0.375000000000002
40
0.500000000000004
40
0.500000000000004
40
0.750000000000002
40
0.750000000000002
40
1
40
1
40
1
40
1
41
1
10
199.718170395308
20
-7.06420579849063
30
0
41
1
10
199.717024167053
20
-7.09692829666653
30
0
41
1
10
199.716498357707
20
-7.12904025022664
30
0
41
1
10
199.716470355444
20
-7.19225683231215
30
0
41
1
10
199.716983182873
20
-7.22361145827944
30
0
41
1
10
199.719609428138
20
-7.31241092242573
30
0
41
1
10
199.722776796592
20
-7.36678827265746
30
0
41
1
10
199.730269406562
20
-7.46774201344587
30
0
41
1
10
199.734593585301
20
-7.51421566496486
30
0
41
1
10
199.743846459043
20
-7.60297518320792
30
0
41
1
10
199.748786645932
20
-7.64518143992578
30
0
41
1
10
199.76418713638
20
-7.7677827480808
30
0
41
1
10
199.775205940569
20
-7.84418055379743
30
0
41
1
10
199.797790576964
20
-7.99098346356553
30
0
41
1
10
199.809404555383
20
-8.06147087900487
30
0
41
1
10
199.821200051654
20
-8.13031385678866
30
0
0
SPLINE
5
27D
100
AcDbEntity
8
1
62
256
6
ByLayer
370
-1
48
1
60
0
100
AcDbSpline
70
4
71
3
72
8
73
4
40
0
40
0
40
0
40
0
40
1
40
1
40
1
40
1
41
1
10
198.757623106991
20
0.473350590258747
30
0
41
1
10
198.748710296308
20
0.501940075728896
30
0
41
1
10
198.740295249068
20
0.529435481792888
30
0
41
1
10
198.732278020571
20
0.556074392353565
30
0
0
SPLINE
5
27E
100
AcDbEntity
8
1
62
256
6
ByLayer
370
-1
48
1
60
0
100
AcDbSpline
70
4
71
3
72
10
73
6
40
0
40
0
40
0
40
0
40
0.5
40
0.5
40
1
40
1
40
1
40
1
41
1
10
199.208048825694
20
-1.08713816852523
30
0
41
1
10
199.206573526447
20
-1.12331065064151
30
0
41
1
10
199.205683884961
20
-1.161949798508
30
0
41
1
10
199.205920867864
20
-1.24772017667402
30
0
41
1
10
199.207080551514
20
-1.29320517850684
30
0
41
1
10
199.209602826382
20
-1.34118468786576
30
0
0
SPLINE
5
27F
100
AcDbEntity
8
1
62
256
6
ByLayer
370
-1
48
1
60
0
100
AcDbSpline
70
4
71
3
72
12
73
8
40
0
40
0
40
0
40
0
40
0.250000000000014
40
0.250000000000014
40
0.500000000000028
40
0.500000000000028
40
1
40
1
40
1
40
1
41
1
10
199.166526660379
20
-0.947890146139287
30
0
41
1
10
199.1535789968
20
-0.912595643147284
30
0
41
1
10
199.141084917776
20
-0.878056915131992
30
0
41
1
10
199.116931627365
20
-0.810356785914223
30
0
41
1
10
199.105182366321
20
-0.77692812369483
30
0
41
1
10
199.072301697785
20
-0.681996030308142
30
0
41
1
10
199.053002787143
20
-0.624376624086352
30
0
41
1
10
199.035620366774
20
-0.57087286908839
30
0
0
SPLINE
5
280
100
AcDbEntity
8
1
62
256
6
ByLayer
370
-1
48
1
60
0
100
AcDbSpline
70
4
71
3
72
8
73
4
40
0
40
0
40
0
40
0
40
1
40
1
40
1
40
1
41
1
10
199.182417344555
20
-1.0326961534484
30
0
41
1
10
199.182155255939
20
-1.00726740466124
30
0
41
1
10
199.177472256174
20
-0.977727140375265
30
0
41
1
10
199.166526660378
20
-0.947890146139315
30
0
0
SPLINE
5
281
100
AcDbEntity
8
SK1
62
256
6
ByLayer
370
-1
48
1
60
0
100
AcDbSpline
70
4
71
3
72
8
73
4
40
0
40
0
40
0
40
0
40
1
40
1
40
1
40
1
41
1
10
-70
20
6.62311105146222
30
0
41
1
10
-69.7055026821388
20
7.46777015601646
30
0
41
1
10
-69.3687115489839
20
8.29265478028327
30
0
41
1
10
-69
20
9.10261500888626
30
0
0
SPLINE
5
282
100
AcDbEntity
8
SK1
62
256
6
ByLayer
370
-1
48
1
60
0
100
AcDbSpline
70
4
71
3
72
20
73
16
40
0
40
0
40
0
40
0
40
0.125000000000019
40
0.125000000000019
40
0.187500000000028
40
0.187500000000028
40
0.250000000000038
40
0.250000000000038
40
0.375000000000024
40
0.375000000000024
40
0.50000000000001
40
0.50000000000001
40
0.750000000000005
40
0.750000000000005
40
1
40
1
40
1
40
1
41
1
10
-67.6338144512151
20
-8.29060283092329
30
0
41
1
10
-67.6746000935235
20
-8.25730093016261
30
0
41
1
10
-67.7199836490945
20
-8.22876323292448
30
0
41
1
10
-67.7948550962205
20
-8.20056981372309
30
0
41
1
10
-67.8205420829085
20
-8.19379354056497
30
0
41
1
10
-67.8728129362724
20
-8.18630243082055
30
0
41
1
10
-67.8998340844743
20
-8.1856286499503
30
0
41
1
10
-67.9787783127119
20
-8.19310764466417
30
0
41
1
10
-68.0301252704948
20
-8.21095104743222
30
0
41
1
10
-68.1222359195847
20
-8.26210721442101
30
0
41
1
10
-68.1643255549633
20
-8.29567338223035
30
0
41
1
10
-68.2768770736766
20
-8.40615789436035
30
0
41
1
10
-68.3371994967397
20
-8.49473748926303
30
0
41
1
10
-68.4387470357031
20
-8.67793923211124
30
0
41
1
10
-68.4804562077026
20
-8.77402168984949
30
0
41
1
10
-68.5162227297291
20
-8.87304222606727
30
0
0
SPLINE
5
283
100
AcDbEntity
8
SK1
62
256
6
ByLayer
370
-1
48
1
60
0
100
AcDbSpline
70
4
71
3
72
20
73
16
40
0
40
0
40
0
40
0
40
0.249999999999997
40
0.249999999999997
40
0.374999999999998
40
0.374999999999998
40
0.499999999999998
40
0.499999999999998
40
0.624999999999999
40
0.624999999999999
40
0.749999999999999
40
0.749999999999999
40
0.875
40
0.875
40
1
40
1
40
1
40
1
41
1
10
-68.5162227297303
20
8.87304222606696
30
0
41
1
10
-68.4805102229812
20
8.77417123253394
30
0
41
1
10
-68.4382573152345
20
8.67693148618665
30
0
41
1
10
-68.3621710721186
20
8.53985159931514
30
0
41
1
10
-68.3346894685715
20
8.49562896904695
30
0
41
1
10
-68.2739659602408
20
8.41118058772861
30
0
41
1
10
-68.2407881315988
20
8.37091037639976
30
0
41
1
10
-68.1654488761744
20
8.29660337023134
30
0
41
1
10
-68.123541484252
20
8.2629600402953
30
0
41
1
10
-68.0305243323762
20
8.21104725205689
30
0
41
1
10
-67.9795833203366
20
8.19319188549028
30
0
41
1
10
-67.872813969243
20
8.18306085753042
30
0
41
1
10
-67.8196144054522
20
8.19122791676685
30
0
41
1
10
-67.7199392264586
20
8.22879859450236
30
0
41
1
10
-67.6749143258214
20
8.2570443562262
30
0
41
1
10
-67.6338144512151
20
8.29060283092346
30
0
0
SPLINE
5
284
100
AcDbEntity
8
SK1
62
256
6
ByLayer
370
-1
48
1
60
0
100
AcDbSpline
70
4
71
3
72
8
73
4
40
0
40
0
40
0
40
0
40
1
40
1
40
1
40
1
41
1
10
-68.6
20
9.10261500888626
30
0
41
1
10
-68.571834450002
20
9.02620926996562
30
0
41
1
10
-68.5439066952102
20
8.94968599658984
30
0
41
1
10
-68.516222729729
20
8.87304222606744
30
0
0
SPLINE
5
285
100
AcDbEntity
8
SK1
62
256
6
ByLayer
370
-1
48
1
60
0
100
AcDbSpline
70
4
71
3
72
8
73
4
40
0
40
0
40
0
40
0
40
1
40
1
40
1
40
1
41
1
10
-66.6
20
-9.10261500888609
30
0
41
1
10
-66.9484012097206
20
-8.83881772536392
30
0
41
1
10
-67.2932836983816
20
-8.56864972916986
30
0
41
1
10
-67.6338144512153
20
-8.2906028309236
30
0
0
SPLINE
5
286
100
AcDbEntity
8
SK1
62
256
6
ByLayer
370
-1
48
1
60
0
100
AcDbSpline
70
4
71
3
72
8
73
4
40
0
40
0
40
0
40
0
40
1
40
1
40
1
40
1
41
1
10
-69
20
-9.10261500888609
30
0
41
1
10
-69.3687115489839
20
-8.2926547802831
30
0
41
1
10
-69.7055026821388
20
-7.46777015601629
30
0
41
1
10
-70
20
-6.62311105146205
30
0
0
SPLINE
5
287
100
AcDbEntity
8
SK1
62
256
6
ByLayer
370
-1
48
1
60
0
100
AcDbSpline
70
4
71
3
72
8
73
4
40
0
40
0
40
0
40
0
40
1
40
1
40
1
40
1
41
1
10
-68.5162227297291
20
-8.87304222606727
30
0
41
1
10
-68.5439066952102
20
-8.94968599658964
30
0
41
1
10
-68.571834450002
20
-9.02620926996545
30
0
41
1
10
-68.6
20
-9.10261500888612
30
0
0
SPLINE
5
288
100
AcDbEntity
8
SK1
62
256
6
ByLayer
370
-1
48
1
60
0
100
AcDbSpline
70
4
71
3
72
8
73
4
40
0
40
0
40
0
40
0
40
1
40
1
40
1
40
1
41
1
10
-67.6338144512152
20
8.29060283092377
30
0
41
1
10
-67.2932836983815
20
8.56864972917003
30
0
41
1
10
-66.9484012097206
20
8.83881772536409
30
0
41
1
10
-66.6
20
9.10261500888626
30
0
0
SPLINE
5
289
100
AcDbEntity
8
SK1
62
256
6
ByLayer
370
-1
48
1
60
0
100
AcDbSpline
70
4
71
3
72
72
73
68
40
0
40
0
40
0
40
0
40
0.0156250000000003
40
0.0156250000000003
40
0.0312500000000005
40
0.0312500000000005
40
0.0468750000000008
40
0.0468750000000008
40
0.062500000000001
40
0.062500000000001
40
0.0937500000000014
40
0.0937500000000014
40
0.109375000000002
40
0.109375000000002
40
0.125000000000002
40
0.125000000000002
40
0.156250000000002
40
0.156250000000002
40
0.187500000000002
40
0.187500000000002
40
0.218750000000001
40
0.218750000000001
40
0.250000000000001
40
0.250000000000001
40
0.312500000000001
40
0.312500000000001
40
0.375000000000002
40
0.375000000000002
40
0.406250000000002
40
0.406250000000002
40
0.437500000000002
40
0.437500000000002
40
0.500000000000002
40
0.500000000000002
40
0.562500000000002
40
0.562500000000002
40
0.625000000000002
40
0.625000000000002
40
0.687500000000002
40
0.687500000000002
40
0.718750000000002
40
0.718750000000002
40
0.750000000000002
40
0.750000000000002
40
0.812500000000002
40
0.812500000000002
40
0.843750000000001
40
0.843750000000001
40
0.859375000000001
40
0.859375000000001
40
0.875000000000001
40
0.875000000000001
40
0.906250000000001
40
0.906250000000001
40
0.921875000000001
40
0.921875000000001
40
0.937500000000001
40
0.937500000000001
40
0.953125000000001
40
0.953125000000001
40
0.96875
40
0.96875
40
0.9765625
40
0.9765625
40
0.984375
40
0.984375
40
1
40
1
40
1
40
1
41
1
10
-6.5
20
-9.10261500888618
30
0
41
1
10
-6.38914660019725
20
-9.10261500888618
30
0
41
1
10
-6.27612961385466
20
-9.09015098385046
30
0
41
1
10
-6.05985917895461
20
-9.04281130004992
30
0
41
1
10
-5.95475985097423
20
-9.00792576349431
30
0
41
1
10
-5.75343258145492
20
-8.91941414226187
30
0
41
1
10
-5.65919810333844
20
-8.86684398682266
30
0
41
1
10
-5.48088894318994
20
-8.74834825662376
30
0
41
1
10
-5.39640443529882
20
-8.68198569080923
30
0
41
1
10
-5.15892238475899
20
-8.4684605676342
30
0
41
1
10
-5.02365441240056
20
-8.30974008062717
30
0
41
1
10
-4.84296399719619
20
-8.05482884459988
30
0
41
1
10
-4.78642322072847
20
-7.96675301550394
30
0
41
1
10
-4.68042079967142
20
-7.78654390286022
30
0
41
1
10
-4.63122526195846
20
-7.69491452027412
30
0
41
1
10
-4.49299887645103
20
-7.41608134345648
30
0
41
1
10
-4.41323038468988
20
-7.22496300624556
30
0
41
1
10
-4.27152687943763
20
-6.8343560263894
30
0
41
1
10
-4.20965906429049
20
-6.6348461887967
30
0
41
1
10
-4.09961007502051
20
-6.2286775881141
30
0
41
1
10
-4.05150917072524
20
-6.02203194443632
30
0
41
1
10
-3.96692144189856
20
-5.6074574550413
30
0
41
1
10
-3.93025488815388
20
-5.39884469275898
30
0
41
1
10
-3.83321097175369
20
-4.76942146087168
30
0
41
1
10
-3.78559277520367
20
-4.34504706257979
30
0
41
1
10
-3.7112361899147
20
-3.48808137992401
30
0
41
1
10
-3.68460707386046
20
-3.05547999795235
30
0
41
1
10
-3.65470782442822
20
-2.40091890566339
30
0
41
1
10
-3.64643900603767
20
-2.18145148399697
30
0
41
1
10
-3.63274891948819
20
-1.74230735687166
30
0
41
1
10
-3.62733252136272
20
-1.52296705685933
30
0
41
1
10
-3.61463310465442
20
-0.865617065631682
30
0
41
1
10
-3.61080933488054
20
-0.428275684574771
30
0
41
1
10
-3.61090950897167
20
0.444684991040077
30
0
41
1
10
-3.61483745040269
20
0.88030412472645
30
0
41
1
10
-3.63179619285316
20
1.74979970758309
30
0
41
1
10
-3.64481102904037
20
2.18367646184913
30
0
41
1
10
-3.68431141261161
20
3.04958358359085
30
0
41
1
10
-3.71074384326306
20
3.48161507013518
30
0
41
1
10
-3.76673696017031
20
4.12812283873399
30
0
41
1
10
-3.78821526595235
20
4.34375014492497
30
0
41
1
10
-3.83787895821774
20
4.77101649951717
30
0
41
1
10
-3.86607610819138
20
4.9829568382882
30
0
41
1
10
-3.96342969061479
20
5.61325776204001
30
0
41
1
10
-4.04484226281082
20
6.02618785295124
30
0
41
1
10
-4.20877761048993
20
6.63176810724454
30
0
41
1
10
-4.27047938114893
20
6.83131020667685
30
0
41
1
10
-4.37747378301123
20
7.1264778598424
30
0
41
1
10
-4.41562361112287
20
7.22427655673613
30
0
41
1
10
-4.49679279030673
20
7.41629459142595
30
0
41
1
10
-4.5398877733324
20
7.51074836914336
30
0
41
1
10
-4.67791145216944
20
7.78892537172752
30
0
41
1
10
-4.78135481362554
20
7.96756739375849
30
0
41
1
10
-4.96130737226687
20
8.22195198147358
30
0
41
1
10
-5.02546297402537
20
8.30446540137604
30
0
41
1
10
-5.16438164479459
20
8.46391044858186
30
0
41
1
10
-5.23841496286948
20
8.53994273964545
30
0
41
1
10
-5.39629023089529
20
8.68187427767452
30
0
41
1
10
-5.4804954947721
20
8.74813957968226
30
0
41
1
10
-5.66096910628903
20
8.86796771603022
30
0
41
1
10
-5.75541196182655
20
8.92033547523616
30
0
41
1
10
-5.90448373735469
20
8.98579651940287
30
0
41
1
10
-5.95541416893875
20
9.00542573092372
30
0
41
1
10
-6.06002939197239
20
9.03984379515771
30
0
41
1
10
-6.1141052041134
20
9.05470732343474
30
0
41
1
10
-6.277583542549
20
9.09042477028081
30
0
41
1
10
-6.38802552881097
20
9.10261500888618
30
0
41
1
10
-6.5
20
9.10261500888618
30
0
0
LINE
5
45
100
AcDbEntity
8
80
62
256
6
ByLayer
370
-1
48
1
60
0
100
AcDbLine
10
0
20
0
30
0
11
-7
21
0
31
0
39
0
210
0
220
0
230
1
0
LINE
5
46
100
AcDbEntity
8
81
62
256
6
ByLayer
370
-1
48
1
60
0
100
AcDbLine
10
200
20
0
30
0
11
207
21
0
31
0
39
0
210
0
220
0
230
1
0
LINE
5
47
100
AcDbEntity
8
1
62
256
6
ByLayer
370
-1
48
1
60
0
100
AcDbLine
10
5
20
24.75
30
0
11
0.2
21
24.75
31
0
39
0
210
0
220
0
230
1
0
LINE
5
49
100
AcDbEntity
8
1
62
256
6
ByLayer
370
-1
48
1
60
0
100
AcDbLine
10
0.2
20
-24.75
30
0
11
5
21
-24.75
31
0
39
0
210
0
220
0
230
1
0
LINE
5
4A
100
AcDbEntity
8
1
62
256
6
ByLayer
370
-1
48
1
60
0
100
AcDbLine
10
0.2
20
24.75
30
0
11
0
21
24.55
31
0
39
0
210
0
220
0
230
1
0
LINE
5
4B
100
AcDbEntity
8
1
62
256
6
ByLayer
370
-1
48
1
60
0
100
AcDbLine
10
0
20
-24.55
30
0
11
0.2
21
-24.75
31
0
39
0
210
0
220
0
230
1
0
LINE
5
4C
100
AcDbEntity
8
1
62
256
6
ByLayer
370
-1
48
1
60
0
100
AcDbLine
10
90.513737
20
16.487945
30
0
11
30
21
16.73
31
0
39
0
210
0
220
0
230
1
0
LINE
5
4D
100
AcDbEntity
8
1
62
256
6
ByLayer
370
-1
48
1
60
0
100
AcDbLine
10
30
20
16.73
30
0
11
25
21
16.73
31
0
39
0
210
0
220
0
230
1
0
LINE
5
4E
100
AcDbEntity
8
1
62
256
6
ByLayer
370
-1
48
1
60
0
100
AcDbLine
10
25
20
-16.73
30
0
11
30
21
-16.73
31
0
39
0
210
0
220
0
230
1
0
LINE
5
4F
100
AcDbEntity
8
1
62
256
6
ByLayer
370
-1
48
1
60
0
100
AcDbLine
10
30
20
-16.73
30
0
11
83.551011
21
-16.515796
31
0
39
0
210
0
220
0
230
1
0
LINE
5
50
100
AcDbEntity
8
SK1
62
256
6
ByLayer
370
-1
48
1
60
0
100
AcDbLine
10
-2
20
-19.996
30
0
11
-1.552821
21
-19.787477
31
0
39
0
210
0
220
0
230
1
0
LINE
5
52
100
AcDbEntity
8
SK1
62
256
6
ByLayer
370
-1
48
1
60
0
100
AcDbLine
10
-1.552821
20
19.787477
30
0
11
-2
21
19.996
31
0
39
0
210
0
220
0
230
1
0
LINE
5
53
100
AcDbEntity
8
SK1
62
256
6
ByLayer
370
-1
48
1
60
0
100
AcDbLine
10
-2
20
19.996
30
0
11
-66.6
21
19.996
31
0
39
0
210
0
220
0
230
1
0
LINE
5
54
100
AcDbEntity
8
SK1
62
256
6
ByLayer
370
-1
48
1
60
0
100
AcDbLine
10
-66.6
20
-19.996
30
0
11
-2
21
-19.996
31
0
39
0
210
0
220
0
230
1
0
LINE
5
55
100
AcDbEntity
8
SK1
62
256
6
ByLayer
370
-1
48
1
60
0
100
AcDbLine
10
-0.15
20
19.75
30
0
11
-1.383773
21
19.75
31
0
39
0
210
0
220
0
230
1
0
LINE
5
56
100
AcDbEntity
8
SK1
62
256
6
ByLayer
370
-1
48
1
60
0
100
AcDbLine
10
-1.383773
20
-19.75
30
0
11
-0.15
21
-19.75
31
0
39
0
210
0
220
0
230
1
0
LINE
5
57
100
AcDbEntity
8
SK1
62
256
6
ByLayer
370
-1
48
1
60
0
100
AcDbLine
10
-68.6
20
-19.996
30
0
11
-68.516223
21
-19.892544
31
0
39
0
210
0
220
0
230
1
0
LINE
5
58
100
AcDbEntity
8
SK1
62
256
6
ByLayer
370
-1
48
1
60
0
100
AcDbLine
10
-68.516223
20
19.892544
30
0
11
-68.6
21
19.996
31
0
39
0
210
0
220
0
230
1
0
LINE
5
59
100
AcDbEntity
8
SK1
62
256
6
ByLayer
370
-1
48
1
60
0
100
AcDbLine
10
-69
20
19.996
30
0
11
-70
21
18.996
31
0
39
0
210
0
220
0
230
1
0
LINE
5
5A
100
AcDbEntity
8
SK1
62
256
6
ByLayer
370
-1
48
1
60
0
100
AcDbLine
10
-70
20
-18.996
30
0
11
-69
21
-19.996
31
0
39
0
210
0
220
0
230
1
0
LINE
5
5B
100
AcDbEntity
8
SK1
62
256
6
ByLayer
370
-1
48
1
60
0
100
AcDbLine
10
-68.6
20
19.996
30
0
11
-69
21
19.996
31
0
39
0
210
0
220
0
230
1
0
LINE
5
5C
100
AcDbEntity
8
SK1
62
256
6
ByLayer
370
-1
48
1
60
0
100
AcDbLine
10
-69
20
-19.996
30
0
11
-68.6
21
-19.996
31
0
39
0
210
0
220
0
230
1
0
LINE
5
5D
100
AcDbEntity
8
SK1
62
256
6
ByLayer
370
-1
48
1
60
0
100
AcDbLine
10
-66.6
20
19.996
30
0
11
-67.633814
21
19.639667
31
0
39
0
210
0
220
0
230
1
0
LINE
5
5E
100
AcDbEntity
8
SK1
62
256
6
ByLayer
370
-1
48
1
60
0
100
AcDbLine
10
-67.633814
20
-19.639667
30
0
11
-66.6
21
-19.996
31
0
39
0
210
0
220
0
230
1
0
LINE
5
5F
100
AcDbEntity
8
SK4
62
256
6
ByLayer
370
-1
48
0.05
60
0
100
AcDbLine
10
200
20
0
30
0
11
-70
21
0
31
0
39
0
210
0
220
0
230
1
0
LINE
5
61
100
AcDbEntity
8
4
62
256
6
ByLayer
370
-1
48
0.05
60
0
100
AcDbLine
10
200
20
0
30
0
11
0
21
0
31
0
39
0
210
0
220
0
230
1
0
LINE
5
63
100
AcDbEntity
8
1
62
256
6
ByLayer
370
-1
48
1
60
0
100
AcDbLine
10
198.286826
20
6.208091
30
0
11
198.079063
21
6.211024
31
0
39
0
210
0
220
0
230
1
0
LINE
5
64
100
AcDbEntity
8
1
62
256
6
ByLayer
370
-1
48
1
60
0
100
AcDbLine
10
5
20
24.75
30
0
11
5
21
-24.75
31
0
39
0
210
0
220
0
230
1
0
LINE
5
65
100
AcDbEntity
8
1
62
256
6
ByLayer
370
-1
48
1
60
0
100
AcDbLine
10
182.490054
20
4.309288
30
0
11
182.089936
21
2.932801
31
0
39
0
210
0
220
0
230
1
0
LINE
5
66
100
AcDbEntity
8
1
62
256
6
ByLayer
370
-1
48
1
60
0
100
AcDbLine
10
0
20
24.55
30
0
11
0
21
-24.55
31
0
39
0
210
0
220
0
230
1
0
LINE
5
67
100
AcDbEntity
8
1
62
256
6
ByLayer
370
-1
48
1
60
0
100
AcDbLine
10
25
20
-16.73
30
0
11
25
21
-13.005591
31
0
39
0
210
0
220
0
230
1
0
LINE
5
68
100
AcDbEntity
8
1
62
256
6
ByLayer
370
-1
48
1
60
0
100
AcDbLine
10
188.462401
20
7.577888
30
0
11
188.732584
21
7.577888
31
0
39
0
210
0
220
0
230
1
0
LINE
5
69
100
AcDbEntity
8
1
62
256
6
ByLayer
370
-1
48
1
60
0
100
AcDbLine
10
188.818148
20
11.704058
30
0
11
188.668415
21
16.399831
31
0
39
0
210
0
220
0
230
1
0
LINE
5
6A
100
AcDbEntity
8
1
62
256
6
ByLayer
370
-1
48
1
60
0
100
AcDbLine
10
189.205765
20
5.954218
30
0
11
188.789844
21
5.939638
31
0
39
0
210
0
220
0
230
1
0
LINE
5
6B
100
AcDbEntity
8
1
62
256
6
ByLayer
370
-1
48
1
60
0
100
AcDbLine
10
183.801951
20
7.658115
30
0
11
181.26346
21
8.739756
31
0
39
0
210
0
220
0
230
1
0
LINE
5
6C
100
AcDbEntity
8
1
62
256
6
ByLayer
370
-1
48
1
60
0
100
AcDbLine
10
197.994956
20
6.215578
30
0
11
198.144428
21
6.215578
31
0
39
0
210
0
220
0
230
1
0
LINE
5
6D
100
AcDbEntity
8
1
62
256
6
ByLayer
370
-1
48
1
60
0
100
AcDbLine
10
25
20
16.73
30
0
11
25
21
6.366096
31
0
39
0
210
0
220
0
230
1
0
LINE
5
6E
100
AcDbEntity
8
1
62
256
6
ByLayer
370
-1
48
1
60
0
100
AcDbLine
10
196.57038
20
2.442924
30
0
11
198.079063
21
6.211024
31
0
39
0
210
0
220
0
230
1
0
LINE
5
6F
100
AcDbEntity
8
1
62
256
6
ByLayer
370
-1
48
1
60
0
100
AcDbLine
10
188.366793
20
10.326213
30
0
11
188.636975
21
10.326213
31
0
39
0
210
0
220
0
230
1
0
LINE
5
70
100
AcDbEntity
8
1
62
256
6
ByLayer
370
-1
48
1
60
0
100
AcDbLine
10
198.079063
20
6.211024
30
0
11
197.994956
21
6.215578
31
0
39
0
210
0
220
0
230
1
0
LINE
5
71
100
AcDbEntity
8
1
62
256
6
ByLayer
370
-1
48
1
60
0
100
AcDbLine
10
188.987244
20
11.83616
30
0
11
189.019226
21
11.83616
31
0
39
0
210
0
220
0
230
1
0
LINE
5
72
100
AcDbEntity
8
1
62
256
6
ByLayer
370
-1
48
1
60
0
100
AcDbLine
10
181.641955
20
7.679684
30
0
11
183.420831
21
6.921711
31
0
39
0
210
0
220
0
230
1
0
LINE
5
73
100
AcDbEntity
8
1
62
256
6
ByLayer
370
-1
48
1
60
0
100
AcDbLine
10
198.610025
20
-8.075471
30
0
11
198.158028
21
-7.809865
31
0
39
0
210
0
220
0
230
1
0
LINE
5
74
100
AcDbEntity
8
1
62
256
6
ByLayer
370
-1
48
1
60
0
100
AcDbLine
10
185.812155
20
11.402451
30
0
11
181.809466
21
12.206887
31
0
39
0
210
0
220
0
230
1
0
LINE
5
75
100
AcDbEntity
8
1
62
256
6
ByLayer
370
-1
48
1
60
0
100
AcDbLine
10
198.284305
20
0.855428
30
0
11
198.547607
21
6.401437
31
0
39
0
210
0
220
0
230
1
0
LINE
5
76
100
AcDbEntity
8
1
62
256
6
ByLayer
370
-1
48
1
60
0
100
AcDbLine
10
198.251382
20
0.87758
30
0
11
198.284305
21
0.855428
31
0
39
0
210
0
220
0
230
1
0
LINE
5
77
100
AcDbEntity
8
1
62
256
6
ByLayer
370
-1
48
1
60
0
100
AcDbLine
10
181.809466
20
16.360568
30
0
11
181.809466
21
12.206887
31
0
39
0
210
0
220
0
230
1
0
LINE
5
78
100
AcDbEntity
8
1
62
256
6
ByLayer
370
-1
48
1
60
0
100
AcDbLine
10
112.5
20
15.875778
30
0
11
112.5
21
-9.818015
31
0
39
0
210
0
220
0
230
1
0
LINE
5
79
100
AcDbEntity
8
1
62
256
6
ByLayer
370
-1
48
1
60
0
100
AcDbLine
10
30
20
-16.73
30
0
11
30
21
-13.600632
31
0
39
0
210
0
220
0
230
1
0
LINE
5
7A
100
AcDbEntity
8
1
62
256
6
ByLayer
370
-1
48
1
60
0
100
AcDbLine
10
185.812155
20
11.402451
30
0
11
185.812155
21
16.39679
31
0
39
0
210
0
220
0
230
1
0
LINE
5
7B
100
AcDbEntity
8
1
62
256
6
ByLayer
370
-1
48
1
60
0
100
AcDbLine
10
198.376617
20
-16.369641
30
0
11
199.004364
21
-9.300847
31
0
39
0
210
0
220
0
230
1
0
LINE
5
7C
100
AcDbEntity
8
1
62
256
6
ByLayer
370
-1
48
1
60
0
100
AcDbLine
10
188.636975
20
10.326213
30
0
11
188.732584
21
7.577888
31
0
39
0
210
0
220
0
230
1
0
LINE
5
7D
100
AcDbEntity
8
1
62
256
6
ByLayer
370
-1
48
1
60
0
100
AcDbLine
10
191.709302
20
5.99524
30
0
11
197.994956
21
6.215578
31
0
39
0
210
0
220
0
230
1
0
LINE
5
7E
100
AcDbEntity
8
1
62
256
6
ByLayer
370
-1
48
1
60
0
100
AcDbLine
10
198.179732
20
0.144821
30
0
11
198.182964
21
0.048226
31
0
39
0
210
0
220
0
230
1
0
LINE
5
7F
100
AcDbEntity
8
1
62
256
6
ByLayer
370
-1
48
1
60
0
100
AcDbLine
10
198.182964
20
0.048226
30
0
11
196.615079
21
0.96956
31
0
39
0
210
0
220
0
230
1
0
LINE
5
80
100
AcDbEntity
8
1
62
256
6
ByLayer
370
-1
48
1
60
0
100
AcDbLine
10
198.144501
20
6.215578
30
0
11
198.286826
21
6.208091
31
0
39
0
210
0
220
0
230
1
0
LINE
5
81
100
AcDbEntity
8
1
62
256
6
ByLayer
370
-1
48
1
60
0
100
AcDbLine
10
188.683693
20
5.574456
30
0
11
188.789844
21
5.939638
31
0
39
0
210
0
220
0
230
1
0
LINE
5
82
100
AcDbEntity
8
1
62
256
6
ByLayer
370
-1
48
1
60
0
100
AcDbLine
10
198.613419
20
-9.199477
30
0
11
199.004364
21
-9.300847
31
0
39
0
210
0
220
0
230
1
0
LINE
5
83
100
AcDbEntity
8
1
62
256
6
ByLayer
370
-1
48
1
60
0
100
AcDbLine
10
0.2
20
24.75
30
0
11
0.2
21
-24.75
31
0
39
0
210
0
220
0
230
1
0
LINE
5
84
100
AcDbEntity
8
1
62
256
6
ByLayer
370
-1
48
1
60
0
100
AcDbLine
10
185.975106
20
-16.369641
30
0
11
198.376617
21
-16.369641
31
0
39
0
210
0
220
0
230
1
0
LINE
5
85
100
AcDbEntity
8
1
62
256
6
ByLayer
370
-1
48
1
60
0
100
AcDbLine
10
188.818148
20
11.704058
30
0
11
188.83724
21
11.704058
31
0
39
0
210
0
220
0
230
1
0
LINE
5
86
100
AcDbEntity
8
1
62
256
6
ByLayer
370
-1
48
1
60
0
100
AcDbLine
10
179.17347
20
11.83
30
0
11
181.833999
21
11.83
31
0
39
0
210
0
220
0
230
1
0
LINE
5
87
100
AcDbEntity
8
1
62
256
6
ByLayer
370
-1
48
1
60
0
100
AcDbLine
10
198.236302
20
0.878105
30
0
11
198.251382
21
0.87758
31
0
39
0
210
0
220
0
230
1
0
LINE
5
88
100
AcDbEntity
8
1
62
256
6
ByLayer
370
-1
48
1
60
0
100
AcDbLine
10
189.205765
20
5.954218
30
0
11
189.251053
21
5.954218
31
0
39
0
210
0
220
0
230
1
0
LINE
5
89
100
AcDbEntity
8
1
62
256
6
ByLayer
370
-1
48
1
60
0
100
AcDbLine
10
198.182964
20
0.048226
30
0
11
198.610025
21
-8.075471
31
0
39
0
210
0
220
0
230
1
0
LINE
5
8A
100
AcDbEntity
8
1
62
256
6
ByLayer
370
-1
48
1
60
0
100
AcDbLine
10
188.366793
20
10.326213
30
0
11
188.462401
21
7.577888
31
0
39
0
210
0
220
0
230
1
0
LINE
5
8B
100
AcDbEntity
8
1
62
256
6
ByLayer
370
-1
48
1
60
0
100
AcDbLine
10
198.279238
20
0.83738
30
0
11
198.284305
21
0.855428
31
0
39
0
210
0
220
0
230
1
0
LINE
5
8C
100
AcDbEntity
8
1
62
256
6
ByLayer
370
-1
48
1
60
0
100
AcDbLine
10
188.687585
20
16.397387
30
0
11
188.83724
21
11.704058
31
0
39
0
210
0
220
0
230
1
0
LINE
5
8D
100
AcDbEntity
8
1
62
256
6
ByLayer
370
-1
48
1
60
0
100
AcDbLine
10
183.420831
20
6.921711
30
0
11
183.370093
21
6.921711
31
0
39
0
210
0
220
0
230
1
0
LINE
5
8E
100
AcDbEntity
8
1
62
256
6
ByLayer
370
-1
48
1
60
0
100
AcDbLine
10
197.814136
20
-7.607784
30
0
11
197.329358
21
-7.322914
31
0
39
0
210
0
220
0
230
1
0
LINE
5
8F
100
AcDbEntity
8
1
62
256
6
ByLayer
370
-1
48
1
60
0
100
AcDbLine
10
198.214965
20
0.839618
30
0
11
198.279238
21
0.83738
31
0
39
0
210
0
220
0
230
1
0
LINE
5
90
100
AcDbEntity
8
1
62
256
6
ByLayer
370
-1
48
1
60
0
100
AcDbLine
10
187.616518
20
1.903153
30
0
11
188.096085
21
3.552964
31
0
39
0
210
0
220
0
230
1
0
LINE
5
91
100
AcDbEntity
8
1
62
256
6
ByLayer
370
-1
48
1
60
0
100
AcDbLine
10
198.610025
20
-8.075471
30
0
11
198.590411
21
-8.296341
31
0
39
0
210
0
220
0
230
1
0
LINE
5
92
100
AcDbEntity
8
1
62
256
6
ByLayer
370
-1
48
1
60
0
100
AcDbLine
10
30
20
16.73
30
0
11
30
21
5.303811
31
0
39
0
210
0
220
0
230
1
0
LINE
5
93
100
AcDbEntity
8
1
62
256
6
ByLayer
370
-1
48
1
60
0
100
AcDbLine
10
198.107366
20
16.39677
30
0
11
190.241714
21
16.121046
31
0
39
0
210
0
220
0
230
1
0
LINE
5
94
100
AcDbEntity
8
1
62
256
6
ByLayer
370
-1
48
1
60
0
100
AcDbLine
10
198.391407
20
7.593567
30
0
11
190.525755
21
7.317843
31
0
39
0
210
0
220
0
230
1
0
LINE
5
95
100
AcDbEntity
8
1
62
256
6
ByLayer
370
-1
48
1
60
0
100
AcDbLine
10
198.563086
20
7.778373
30
0
11
198.288411
21
15.67407
31
0
39
0
210
0
220
0
230
1
0
LINE
5
96
100
AcDbEntity
8
1
62
256
6
ByLayer
370
-1
48
1
60
0
100
AcDbLine
10
198.105008
20
16.483613
30
0
11
190.239356
21
16.207889
31
0
39
0
210
0
220
0
230
1
0
LINE
5
97
100
AcDbEntity
8
1
62
256
6
ByLayer
370
-1
48
1
60
0
100
AcDbLine
10
191.582395
20
14.358117
30
0
11
191.585891
21
14.345171
31
0
39
0
210
0
220
0
230
1
0
LINE
5
98
100
AcDbEntity
8
1
62
256
6
ByLayer
370
-1
48
1
60
0
100
AcDbLine
10
190.369417
20
7.491178
30
0
11
190.094742
21
15.386876
31
0
39
0
210
0
220
0
230
1
0
LINE
5
99
100
AcDbEntity
8
1
62
256
6
ByLayer
370
-1
48
1
60
0
100
AcDbLine
10
191.417782
20
8.882361
30
0
11
191.409784
21
8.889848
31
0
39
0
210
0
220
0
230
1
0
LINE
5
9A
100
AcDbEntity
8
1
62
256
6
ByLayer
370
-1
48
1
60
0
100
AcDbLine
10
191.273429
20
9.012608
30
0
11
191.552649
21
9.313177
31
0
39
0
210
0
220
0
230
1
0
LINE
5
9B
100
AcDbEntity
8
1
62
256
6
ByLayer
370
-1
48
1
60
0
100
AcDbLine
10
191.273429
20
9.012608
30
0
11
191.273673
21
9.012379
31
0
39
0
210
0
220
0
230
1
0
LINE
5
9C
100
AcDbEntity
8
1
62
256
6
ByLayer
370
-1
48
1
60
0
100
AcDbLine
10
189.915986
20
15.380236
30
0
11
190.190661
21
7.484539
31
0
39
0
210
0
220
0
230
1
0
LINE
5
9D
100
AcDbEntity
8
1
62
256
6
ByLayer
370
-1
48
1
60
0
100
AcDbLine
10
197.951601
20
10.984802
30
0
11
198.041995
21
8.386386
31
0
39
0
210
0
220
0
230
1
0
LINE
5
9E
100
AcDbEntity
8
1
62
256
6
ByLayer
370
-1
48
1
60
0
100
AcDbLine
10
199.394278
20
7.806708
30
0
11
199.119604
21
15.702405
31
0
39
0
210
0
220
0
230
1
0
LINE
5
9F
100
AcDbEntity
8
1
62
256
6
ByLayer
370
-1
48
1
60
0
100
AcDbLine
10
191.665465
20
8.90676
30
0
11
191.744716
21
8.992071
31
0
39
0
210
0
220
0
230
1
0
LINE
5
A0
100
AcDbEntity
8
1
62
256
6
ByLayer
370
-1
48
1
60
0
100
AcDbLine
10
199.704918
20
7.817681
30
0
11
199.430243
21
15.713379
31
0
39
0
210
0
220
0
230
1
0
LINE
5
A1
100
AcDbEntity
8
1
62
256
6
ByLayer
370
-1
48
1
60
0
100
AcDbLine
10
199.133561
20
7.797592
30
0
11
198.858886
21
15.693289
31
0
39
0
210
0
220
0
230
1
0
LINE
5
A2
100
AcDbEntity
8
1
62
256
6
ByLayer
370
-1
48
1
60
0
100
AcDbLine
10
189.281519
20
15.35754
30
0
11
189.556193
21
7.461842
31
0
39
0
210
0
220
0
230
1
0
LINE
5
A3
100
AcDbEntity
8
1
62
256
6
ByLayer
370
-1
48
1
60
0
100
AcDbLine
10
195.165692
20
7.859045
30
0
11
197.754221
21
7.949784
31
0
39
0
210
0
220
0
230
1
0
LINE
5
A4
100
AcDbEntity
8
1
62
256
6
ByLayer
370
-1
48
1
60
0
100
AcDbLine
10
191.364986
20
14.124084
30
0
11
191.706542
21
13.804362
31
0
39
0
210
0
220
0
230
1
0
LINE
5
A5
100
AcDbEntity
8
1
62
256
6
ByLayer
370
-1
48
1
60
0
100
AcDbLine
10
191.582395
20
14.358117
30
0
11
191.923951
21
14.038395
31
0
39
0
210
0
220
0
230
1
0
LINE
5
A6
100
AcDbEntity
8
1
62
256
6
ByLayer
370
-1
48
1
60
0
100
AcDbLine
10
197.493426
20
15.446493
30
0
11
194.904898
21
15.355754
31
0
39
0
210
0
220
0
230
1
0
LINE
5
A7
100
AcDbEntity
8
1
62
256
6
ByLayer
370
-1
48
1
60
0
100
AcDbLine
10
199.774875
20
7.820115
30
0
11
199.482248
21
16.231881
31
0
39
0
210
0
220
0
230
1
0
LINE
5
A8
100
AcDbEntity
8
1
62
256
6
ByLayer
370
-1
48
1
60
0
100
AcDbLine
10
191.665465
20
8.90676
30
0
11
191.752894
21
8.82492
31
0
39
0
210
0
220
0
230
1
0
LINE
5
A9
100
AcDbEntity
8
1
62
256
6
ByLayer
370
-1
48
1
60
0
100
AcDbLine
10
197.501742
20
15.320177
30
0
11
194.913214
21
15.229439
31
0
39
0
210
0
220
0
230
1
0
LINE
5
AA
100
AcDbEntity
8
1
62
256
6
ByLayer
370
-1
48
1
60
0
100
AcDbLine
10
190.817548
20
14.599508
30
0
11
191.164187
21
14.53082
31
0
39
0
210
0
220
0
230
1
0
LINE
5
AB
100
AcDbEntity
8
1
62
256
6
ByLayer
370
-1
48
1
60
0
100
AcDbLine
10
191.367108
20
15.05188
30
0
11
192.168536
21
14.301682
31
0
39
0
210
0
220
0
230
1
0
LINE
5
AC
100
AcDbEntity
8
1
62
256
6
ByLayer
370
-1
48
1
60
0
100
AcDbLine
10
198.432757
20
7.043201
30
0
11
190.567105
21
6.767477
31
0
39
0
210
0
220
0
230
1
0
LINE
5
AD
100
AcDbEntity
8
1
62
256
6
ByLayer
370
-1
48
1
60
0
100
AcDbLine
10
188.966084
20
15.346566
30
0
11
189.240759
21
7.450869
31
0
39
0
210
0
220
0
230
1
0
LINE
5
AE
100
AcDbEntity
8
1
62
256
6
ByLayer
370
-1
48
1
60
0
100
AcDbLine
10
198.085619
20
16.972051
30
0
11
190.219967
21
16.696327
31
0
39
0
210
0
220
0
230
1
0
LINE
5
AF
100
AcDbEntity
8
1
62
256
6
ByLayer
370
-1
48
1
60
0
100
AcDbLine
10
197.901242
20
12.432414
30
0
11
197.810849
21
15.03083
31
0
39
0
210
0
220
0
230
1
0
LINE
5
B0
100
AcDbEntity
8
1
62
256
6
ByLayer
370
-1
48
1
60
0
100
AcDbLine
10
189.540911
20
15.366656
30
0
11
189.815585
21
7.470958
31
0
39
0
210
0
220
0
230
1
0
LINE
5
B1
100
AcDbEntity
8
1
62
256
6
ByLayer
370
-1
48
1
60
0
100
AcDbLine
10
191.071746
20
14.873144
30
0
11
191.164187
21
14.53082
31
0
39
0
210
0
220
0
230
1
0
LINE
5
B2
100
AcDbEntity
8
1
62
256
6
ByLayer
370
-1
48
1
60
0
100
AcDbLine
10
198.451035
20
6.467921
30
0
11
190.585383
21
6.192197
31
0
39
0
210
0
220
0
230
1
0
LINE
5
B3
100
AcDbEntity
8
1
62
256
6
ByLayer
370
-1
48
1
60
0
100
AcDbLine
10
199.220736
20
7.800625
30
0
11
198.946061
21
15.696322
31
0
39
0
210
0
220
0
230
1
0
LINE
5
B4
100
AcDbEntity
8
1
62
256
6
ByLayer
370
-1
48
1
60
0
100
AcDbLine
10
197.753749
20
8.076099
30
0
11
195.16522
21
7.985361
31
0
39
0
210
0
220
0
230
1
0
LINE
5
B5
100
AcDbEntity
8
1
62
256
6
ByLayer
370
-1
48
1
60
0
100
AcDbLine
10
190.588339
20
6.122506
30
0
11
198.968096
21
6.416251
31
0
39
0
210
0
220
0
230
1
0
LINE
5
B6
100
AcDbEntity
8
1
62
256
6
ByLayer
370
-1
48
1
60
0
100
AcDbLine
10
198.108551
20
16.007871
30
0
11
190.242899
21
15.732147
31
0
39
0
210
0
220
0
230
1
0
LINE
5
B7
100
AcDbEntity
8
1
62
256
6
ByLayer
370
-1
48
1
60
0
100
AcDbLine
10
190.660529
20
14.291272
30
0
11
191.461957
21
13.541074
31
0
39
0
210
0
220
0
230
1
0
LINE
5
B8
100
AcDbEntity
8
1
62
256
6
ByLayer
370
-1
48
1
60
0
100
AcDbLine
10
191.289737
20
8.766232
30
0
11
191.508309
21
8.561633
31
0
39
0
210
0
220
0
230
1
0
LINE
5
B9
100
AcDbEntity
8
1
62
256
6
ByLayer
370
-1
48
1
60
0
100
AcDbLine
10
198.442501
20
6.782153
30
0
11
190.576849
21
6.50643
31
0
39
0
210
0
220
0
230
1
0
LINE
5
BA
100
AcDbEntity
8
1
62
256
6
ByLayer
370
-1
48
1
60
0
100
AcDbLine
10
191.364986
20
14.124084
30
0
11
191.378095
21
14.121486
31
0
39
0
210
0
220
0
230
1
0
LINE
5
BB
100
AcDbEntity
8
1
62
256
6
ByLayer
370
-1
48
1
60
0
100
AcDbLine
10
198.104308
20
15.846404
30
0
11
190.238656
21
15.570681
31
0
39
0
210
0
220
0
230
1
0
LINE
5
BC
100
AcDbEntity
8
1
62
256
6
ByLayer
370
-1
48
1
60
0
100
AcDbLine
10
188.89719
20
15.344133
30
0
11
189.189818
21
6.932367
31
0
39
0
210
0
220
0
230
1
0
LINE
5
BD
100
AcDbEntity
8
1
62
256
6
ByLayer
370
-1
48
1
60
0
100
AcDbLine
10
198.259071
20
15.673069
30
0
11
198.533745
21
7.777372
31
0
39
0
210
0
220
0
230
1
0
LINE
5
BE
100
AcDbEntity
8
1
62
256
6
ByLayer
370
-1
48
1
60
0
100
AcDbLine
10
190.066978
20
15.385875
30
0
11
190.341653
21
7.490177
31
0
39
0
210
0
220
0
230
1
0
LINE
5
BF
100
AcDbEntity
8
1
62
256
6
ByLayer
370
-1
48
1
60
0
100
AcDbLine
10
198.436441
20
6.956359
30
0
11
190.570789
21
6.680635
31
0
39
0
210
0
220
0
230
1
0
LINE
5
C0
100
AcDbEntity
8
1
62
256
6
ByLayer
370
-1
48
1
60
0
100
AcDbLine
10
198.098948
20
16.657818
30
0
11
190.233296
21
16.382094
31
0
39
0
210
0
220
0
230
1
0
LINE
5
C1
100
AcDbEntity
8
1
62
256
6
ByLayer
370
-1
48
1
60
0
100
AcDbLine
10
198.163907
20
8.390797
30
0
11
198.073514
21
10.989214
31
0
39
0
210
0
220
0
230
1
0
LINE
5
C2
100
AcDbEntity
8
1
62
256
6
ByLayer
370
-1
48
1
60
0
100
AcDbLine
10
190.238865
20
15.542019
30
0
11
198.104517
21
15.817743
31
0
39
0
210
0
220
0
230
1
0
LINE
5
C3
100
AcDbEntity
8
1
62
256
6
ByLayer
370
-1
48
1
60
0
100
AcDbLine
10
198.023155
20
12.436825
30
0
11
197.932761
21
15.035241
31
0
39
0
210
0
220
0
230
1
0
LINE
5
C4
100
AcDbEntity
8
1
62
256
6
ByLayer
370
-1
48
1
60
0
100
AcDbLine
10
189.455061
20
15.363623
30
0
11
189.729736
21
7.467925
31
0
39
0
210
0
220
0
230
1
0
LINE
5
C5
100
AcDbEntity
8
1
62
256
6
ByLayer
370
-1
48
1
60
0
100
AcDbLine
10
198.406884
20
7.432101
30
0
11
190.541232
21
7.156377
31
0
39
0
210
0
220
0
230
1
0
LINE
5
C6
100
AcDbEntity
8
1
62
256
6
ByLayer
370
-1
48
1
60
0
100
AcDbLine
10
198.389622
20
7.622228
30
0
11
190.52397
21
7.346504
31
0
39
0
210
0
220
0
230
1
0
LINE
5
C7
100
AcDbEntity
8
1
62
256
6
ByLayer
370
-1
48
1
60
0
100
AcDbLine
10
198.083726
20
17.041742
30
0
11
189.70397
21
16.747996
31
0
39
0
210
0
220
0
230
1
0
LINE
5
C8
100
AcDbEntity
8
1
62
256
6
ByLayer
370
-1
48
1
60
0
100
AcDbLine
10
198.733797
20
7.784011
30
0
11
198.459123
21
15.679709
31
0
39
0
210
0
220
0
230
1
0
LINE
5
C9
100
AcDbEntity
8
1
62
256
6
ByLayer
370
-1
48
1
60
0
100
AcDbLine
10
198.835198
20
0.519388
30
0
11
198.782915
21
0.49477
31
0
39
0
210
0
220
0
230
1
0
LINE
5
CA
100
AcDbEntity
8
1
62
256
6
ByLayer
370
-1
48
1
60
0
100
AcDbLine
10
198.584039
20
-7.58135
30
0
11
198.719394
21
-7.486324
31
0
39
0
210
0
220
0
230
1
0
LINE
5
CB
100
AcDbEntity
8
1
62
256
6
ByLayer
370
-1
48
1
60
0
100
AcDbLine
10
199.03562
20
-0.570873
30
0
11
198.543834
21
-0.802872
31
0
39
0
210
0
220
0
230
1
0
LINE
5
CC
100
AcDbEntity
8
1
62
256
6
ByLayer
370
-1
48
1
60
0
100
AcDbLine
10
199.700814
20
-7.058448
30
0
11
199.741035
21
-5.910222
31
0
39
0
210
0
220
0
230
1
0
LINE
5
CD
100
AcDbEntity
8
1
62
256
6
ByLayer
370
-1
48
1
60
0
100
AcDbLine
10
199.435138
20
-1.187535
30
0
11
199.208049
21
-1.087138
31
0
39
0
210
0
220
0
230
1
0
LINE
5
CE
100
AcDbEntity
8
1
62
256
6
ByLayer
370
-1
48
1
60
0
100
AcDbLine
10
199.214299
20
-6.949843
30
0
11
199.25452
21
-5.801617
31
0
39
0
210
0
220
0
230
1
0
LINE
5
CF
100
AcDbEntity
8
1
62
256
6
ByLayer
370
-1
48
1
60
0
100
AcDbLine
10
198.543834
20
-0.802872
30
0
11
198.202292
21
-0.319377
31
0
39
0
210
0
220
0
230
1
0
LINE
5
D0
100
AcDbEntity
8
1
62
256
6
ByLayer
370
-1
48
1
60
0
100
AcDbLine
10
199.375663
20
-8.72548
30
0
11
198.563975
21
-8.867884
31
0
39
0
210
0
220
0
230
1
0
LINE
5
D1
100
AcDbEntity
8
1
62
256
6
ByLayer
370
-1
48
1
60
0
100
AcDbLine
10
199.922856
20
-8.270508
30
0
11
199.8212
21
-8.130314
31
0
39
0
210
0
220
0
230
1
0
LINE
5
D2
100
AcDbEntity
8
1
62
256
6
ByLayer
370
-1
48
1
60
0
100
AcDbLine
10
199.820051
20
-5.18063
30
0
11
199.600483
21
-5.126367
31
0
39
0
210
0
220
0
230
1
0
LINE
5
D3
100
AcDbEntity
8
1
62
256
6
ByLayer
370
-1
48
1
60
0
100
AcDbLine
10
198.653201
20
-4.073816
30
0
11
198.506389
21
-1.281104
31
0
39
0
210
0
220
0
230
1
0
LINE
5
D4
100
AcDbEntity
8
1
62
256
6
ByLayer
370
-1
48
1
60
0
100
AcDbLine
10
199.03562
20
-0.570873
30
0
11
198.757623
21
0.473351
31
0
39
0
210
0
220
0
230
1
0
LINE
5
D5
100
AcDbEntity
8
1
62
256
6
ByLayer
370
-1
48
1
60
0
100
AcDbLine
10
198.802117
20
0.42034
30
0
11
199.080114
21
-0.623883
31
0
39
0
210
0
220
0
230
1
0
LINE
5
D6
100
AcDbEntity
8
1
62
256
6
ByLayer
370
-1
48
1
60
0
100
AcDbLine
10
199.209603
20
-1.341185
30
0
11
199.356415
21
-4.133897
31
0
39
0
210
0
220
0
230
1
0
LINE
5
D7
100
AcDbEntity
8
1
62
256
6
ByLayer
370
-1
48
1
60
0
100
AcDbLine
10
198.563867
20
-8.826814
30
0
11
199.423667
21
-8.67597
31
0
39
0
210
0
220
0
230
1
0
LINE
5
D8
100
AcDbEntity
8
1
62
256
6
ByLayer
370
-1
48
1
60
0
100
AcDbLine
10
199.01442
20
-6.942885
30
0
11
199.054641
21
-5.794659
31
0
39
0
210
0
220
0
230
1
0
LINE
5
D9
100
AcDbEntity
8
1
62
256
6
ByLayer
370
-1
48
1
60
0
100
AcDbLine
10
199.528433
20
-8.811711
30
0
11
199.456472
21
-8.712468
31
0
39
0
210
0
220
0
230
1
0
LINE
5
DA
100
AcDbEntity
8
1
62
256
6
ByLayer
370
-1
48
1
60
0
100
AcDbLine
10
198.380313
20
-0.917672
30
0
11
198.221949
21
-0.693488
31
0
39
0
210
0
220
0
230
1
0
LINE
5
DB
100
AcDbEntity
8
1
62
256
6
ByLayer
370
-1
48
1
60
0
100
AcDbLine
10
199.922856
20
-8.270508
30
0
11
199.999634
21
-6.078626
31
0
39
0
210
0
220
0
230
1
0
LINE
5
DC
100
AcDbEntity
8
1
62
256
6
ByLayer
370
-1
48
1
60
0
100
AcDbLine
10
198.596408
20
-7.81653
30
0
11
198.83455
21
-7.649341
31
0
39
0
210
0
220
0
230
1
0
LINE
5
DD
100
AcDbEntity
8
1
62
256
6
ByLayer
370
-1
48
1
60
0
100
AcDbLine
10
198.292322
20
0.912595
30
0
11
198.286897
21
0.91004
31
0
39
0
210
0
220
0
230
1
0
LINE
5
DE
100
AcDbEntity
8
1
62
256
6
ByLayer
370
-1
48
1
60
0
100
AcDbLine
10
199.597475
20
-4.27555
30
0
11
199.356415
21
-4.133897
31
0
39
0
210
0
220
0
230
1
0
LINE
5
DF
100
AcDbEntity
8
1
62
256
6
ByLayer
370
-1
48
1
60
0
100
AcDbLine
10
199.40567
20
-1.043139
30
0
11
199.181788
21
-0.944161
31
0
39
0
210
0
220
0
230
1
0
LINE
5
E0
100
AcDbEntity
8
1
62
256
6
ByLayer
370
-1
48
1
60
0
100
AcDbLine
10
199.700814
20
-7.058448
30
0
11
199.214299
21
-6.949843
31
0
39
0
210
0
220
0
230
1
0
LINE
5
E1
100
AcDbEntity
8
1
62
256
6
ByLayer
370
-1
48
1
60
0
100
AcDbLine
10
198.757623
20
0.473351
30
0
11
198.17812
21
0.199972
31
0
39
0
210
0
220
0
230
1
0
LINE
5
E2
100
AcDbEntity
8
1
62
256
6
ByLayer
370
-1
48
1
60
0
100
AcDbLine
10
198.852927
20
-4.063381
30
0
11
198.706115
21
-1.270669
31
0
39
0
210
0
220
0
230
1
0
LINE
5
E3
100
AcDbEntity
8
1
62
256
6
ByLayer
370
-1
48
1
60
0
100
AcDbLine
10
199.339072
20
-4.129649
30
0
11
198.852927
21
-4.063381
31
0
39
0
210
0
220
0
230
1
0
LINE
5
E4
100
AcDbEntity
8
1
62
256
6
ByLayer
370
-1
48
1
60
0
100
AcDbLine
10
199.192259
20
-1.336937
30
0
11
198.706115
21
-1.270669
31
0
39
0
210
0
220
0
230
1
0
LINE
5
E5
100
AcDbEntity
8
1
62
256
6
ByLayer
370
-1
48
1
60
0
100
AcDbLine
10
199.423667
20
-8.67597
30
0
11
198.83455
21
-7.649341
31
0
39
0
210
0
220
0
230
1
0
LINE
5
E6
100
AcDbEntity
8
1
62
256
6
ByLayer
370
-1
48
1
60
0
100
AcDbLine
10
199.999634
20
-6.078626
30
0
11
199.758391
21
-5.91598
31
0
39
0
210
0
220
0
230
1
0
LINE
5
E7
100
AcDbEntity
8
1
62
256
6
ByLayer
370
-1
48
1
60
0
100
AcDbLine
10
199.597475
20
-4.27555
30
0
11
199.435138
21
-1.187535
31
0
39
0
210
0
220
0
230
1
0
LINE
5
E8
100
AcDbEntity
8
1
62
256
6
ByLayer
370
-1
48
1
60
0
100
AcDbLine
10
198.587259
20
-9.153214
30
0
11
199.528433
21
-8.811711
31
0
39
0
210
0
220
0
230
1
0
LINE
5
E9
100
AcDbEntity
8
1
62
256
6
ByLayer
370
-1
48
1
60
0
100
AcDbLine
10
199.584685
20
-5.128407
30
0
11
199.141882
21
-5.23838
31
0
39
0
210
0
220
0
230
1
0
LINE
5
EA
100
AcDbEntity
8
1
62
256
6
ByLayer
370
-1
48
1
60
0
100
AcDbLine
10
199.339072
20
-4.129649
30
0
11
199.192259
21
-1.336937
31
0
39
0
210
0
220
0
230
1
0
LINE
5
EB
100
AcDbEntity
8
1
62
256
6
ByLayer
370
-1
48
1
60
0
100
AcDbLine
10
198.292322
20
0.912595
30
0
11
198.286997
21
0.91278
31
0
39
0
210
0
220
0
230
1
0
LINE
5
EC
100
AcDbEntity
8
1
62
256
6
ByLayer
370
-1
48
1
60
0
100
AcDbLine
10
199.40567
20
-1.043139
30
0
11
198.835198
21
0.519388
31
0
39
0
210
0
220
0
230
1
0
LINE
5
ED
100
AcDbEntity
8
1
62
256
6
ByLayer
370
-1
48
1
60
0
100
AcDbLine
10
199.758391
20
-5.91598
30
0
11
199.71817
21
-7.064206
31
0
39
0
210
0
220
0
230
1
0
LINE
5
EE
100
AcDbEntity
8
1
62
256
6
ByLayer
370
-1
48
1
60
0
100
AcDbLine
10
199.741035
20
-5.910222
30
0
11
199.25452
21
-5.801617
31
0
39
0
210
0
220
0
230
1
0
LINE
5
EF
100
AcDbEntity
8
SK1
62
256
6
ByLayer
370
-1
48
1
60
0
100
AcDbLine
10
-67.633814
20
-8.290603
30
0
11
-67.633814
21
-19.639667
31
0
39
0
210
0
220
0
230
1
0
LINE
5
F0
100
AcDbEntity
8
SK1
62
256
6
ByLayer
370
-1
48
1
60
0
100
AcDbLine
10
-67.633814
20
19.639667
30
0
11
-67.633814
21
8.290603
31
0
39
0
210
0
220
0
230
1
0
LINE
5
F1
100
AcDbEntity
8
SK1
62
256
6
ByLayer
370
-1
48
1
60
0
100
AcDbLine
10
-68.6
20
-19.996
30
0
11
-68.6
21
-9.102615
31
0
39
0
210
0
220
0
230
1
0
LINE
5
F2
100
AcDbEntity
8
SK1
62
256
6
ByLayer
370
-1
48
1
60
0
100
AcDbLine
10
-68.6
20
9.102615
30
0
11
-68.6
21
19.996
31
0
39
0
210
0
220
0
230
1
0
LINE
5
F3
100
AcDbEntity
8
SK1
62
256
6
ByLayer
370
-1
48
1
60
0
100
AcDbLine
10
-70
20
-6.623111
30
0
11
-70
21
-18.996
31
0
39
0
210
0
220
0
230
1
0
LINE
5
F4
100
AcDbEntity
8
SK1
62
256
6
ByLayer
370
-1
48
1
60
0
100
AcDbLine
10
-70
20
18.996
30
0
11
-70
21
6.623111
31
0
39
0
210
0
220
0
230
1
0
LINE
5
F5
100
AcDbEntity
8
SK1
62
256
6
ByLayer
370
-1
48
1
60
0
100
AcDbLine
10
-1.383773
20
19.75
30
0
11
-1.383773
21
-19.75
31
0
39
0
210
0
220
0
230
1
0
LINE
5
F6
100
AcDbEntity
8
SK1
62
256
6
ByLayer
370
-1
48
1
60
0
100
AcDbLine
10
-6.5
20
-9.102615
30
0
11
-66.6
21
-9.102615
31
0
39
0
210
0
220
0
230
1
0
LINE
5
F7
100
AcDbEntity
8
SK1
62
256
6
ByLayer
370
-1
48
1
60
0
100
AcDbLine
10
-69
20
-9.102615
30
0
11
-69
21
-19.996
31
0
39
0
210
0
220
0
230
1
0
LINE
5
F8
100
AcDbEntity
8
SK1
62
256
6
ByLayer
370
-1
48
1
60
0
100
AcDbLine
10
-69
20
19.996
30
0
11
-69
21
9.102615
31
0
39
0
210
0
220
0
230
1
0
LINE
5
F9
100
AcDbEntity
8
SK1
62
256
6
ByLayer
370
-1
48
1
60
0
100
AcDbLine
10
-1.552821
20
19.787477
30
0
11
-1.552821
21
-19.787477
31
0
39
0
210
0
220
0
230
1
0
LINE
5
FA
100
AcDbEntity
8
SK1
62
256
6
ByLayer
370
-1
48
1
60
0
100
AcDbLine
10
-6.5
20
9.102615
30
0
11
-6.5
21
-9.102615
31
0
39
0
210
0
220
0
230
1
0
LINE
5
FB
100
AcDbEntity
8
SK1
62
256
6
ByLayer
370
-1
48
1
60
0
100
AcDbLine
10
-66.6
20
9.102615
30
0
11
-66.6
21
19.996
31
0
39
0
210
0
220
0
230
1
0
LINE
5
FC
100
AcDbEntity
8
SK1
62
256
6
ByLayer
370
-1
48
1
60
0
100
AcDbLine
10
-66.6
20
-19.996
30
0
11
-66.6
21
-9.102615
31
0
39
0
210
0
220
0
230
1
0
LINE
5
FD
100
AcDbEntity
8
SK1
62
256
6
ByLayer
370
-1
48
1
60
0
100
AcDbLine
10
-2
20
-19.996
30
0
11
-2
21
19.996
31
0
39
0
210
0
220
0
230
1
0
LINE
5
FE
100
AcDbEntity
8
SK1
62
256
6
ByLayer
370
-1
48
1
60
0
100
AcDbLine
10
-68.6
20
-9.102615
30
0
11
-69
21
-9.102615
31
0
39
0
210
0
220
0
230
1
0
LINE
5
FF
100
AcDbEntity
8
SK1
62
256
6
ByLayer
370
-1
48
1
60
0
100
AcDbLine
10
-0.15
20
19.75
30
0
11
-0.15
21
-19.75
31
0
39
0
210
0
220
0
230
1
0
LINE
5
100
100
AcDbEntity
8
SK1
62
256
6
ByLayer
370
-1
48
1
60
0
100
AcDbLine
10
-69
20
9.102615
30
0
11
-68.6
21
9.102615
31
0
39
0
210
0
220
0
230
1
0
LINE
5
101
100
AcDbEntity
8
SK1
62
256
6
ByLayer
370
-1
48
1
60
0
100
AcDbLine
10
-68.516223
20
-8.873042
30
0
11
-68.516223
21
-19.892544
31
0
39
0
210
0
220
0
230
1
0
LINE
5
102
100
AcDbEntity
8
SK1
62
256
6
ByLayer
370
-1
48
1
60
0
100
AcDbLine
10
-68.516223
20
19.892544
30
0
11
-68.516223
21
8.873042
31
0
39
0
210
0
220
0
230
1
0
LINE
5
103
100
AcDbEntity
8
SK1
62
256
6
ByLayer
370
-1
48
1
60
0
100
AcDbLine
10
-70
20
6.623111
30
0
11
-70
21
-6.623111
31
0
39
0
210
0
220
0
230
1
0
LINE
5
104
100
AcDbEntity
8
SK1
62
256
6
ByLayer
370
-1
48
1
60
0
100
AcDbLine
10
-66.6
20
9.102615
30
0
11
-6.5
21
9.102615
31
0
39
0
210
0
220
0
230
1
0
MTEXT
5
28A
100
AcDbEntity
8
SK6
62
256
6
ByLayer
370
-1
48
1
60
0
100
AcDbMText
10
0.79375
20
-80.79375
30
0
210
0
220
0
230
1
1
\W00.754;\fsimplex.shx,bigfont.shx;880-D3400L40-05 
40
3.175
41
0
44
1.084337
50
0
71
7
72
5
7
DEFAULT
0
DIMENSION
5
2BA
100
AcDbEntity
8
SK2
62
256
6
ByLayer
370
-3
48
1
60
0
100
AcDbDimension
2
DimnDraft3D1
10
200
20
-63.61955
30
0
11
65
21
-63.61955
31
0
70
32
71
5
72
1
41
1
210
0
220
0
230
1
3
Standard
100
AcDbAlignedDimension
13
-70
23
-21.5875
33
0
14
200
24
-18.5875
34
0
50
0
100
AcDbRotatedDimension
1001
ACAD
1000
DSTYLE
1002
{
1070
   279
1070
     0
1070
   172
1070
     1
1070
   173
1070
     1
1070
   340
1005
28B
1070
   271
1070
     1
1070
   272
1070
     2
1070
    77
1070
     1
1070
    73
1070
     0
1070
   171
1070
     3
1070
   274
1070
     4
1070
   177
1070
   150
1070
   176
1070
     9
1070
   178
1070
    43
1070
    78
1070
     8
1070
    48
1040
-0.005
1070
    41
1041
4.175
1070
   147
1041
2.25
1070
    42
1041
1.5875
1070
    44
1041
3.175
1070
   140
1041
4.5
1070
   343
1005
0
1070
   344
1005
0
1002
}
0
DIMENSION
5
2C4
100
AcDbEntity
8
SK2
62
256
6
ByLayer
370
-3
48
1
60
0
100
AcDbDimension
2
DimnDraft3D2
10
0
20
-51.6508
30
0
11
-35
21
-51.6508
31
0
70
32
71
5
72
1
41
1
210
0
220
0
230
1
3
Standard
100
AcDbAlignedDimension
13
-70
23
-21.5875
33
0
14
0
24
-26.3375
34
0
50
0
100
AcDbRotatedDimension
1001
ACAD
1000
DSTYLE
1002
{
1070
   279
1070
     0
1070
   172
1070
     1
1070
   173
1070
     1
1070
   340
1005
28B
1070
   271
1070
     1
1070
   272
1070
     2
1070
    77
1070
     1
1070
    73
1070
     0
1070
   171
1070
     3
1070
   274
1070
     4
1070
   177
1070
   150
1070
   176
1070
     9
1070
   178
1070
    43
1070
    78
1070
     8
1070
    48
1040
-0.005
1070
    41
1041
4.175
1070
   147
1041
2.25
1070
    42
1041
1.5875
1070
    44
1041
3.175
1070
   140
1041
4.5
1070
   343
1005
0
1070
   344
1005
0
1002
}
0
DIMENSION
5
2CF
100
AcDbEntity
8
2
62
256
6
ByLayer
370
-3
48
1
60
0
100
AcDbDimension
2
DimnDraft3D3
10
200
20
-51.6508
30
0
11
100
21
-51.6508
31
0
70
32
71
5
72
1
41
1
210
0
220
0
230
1
3
Standard
100
AcDbAlignedDimension
13
0
23
-26.3375
33
0
14
200
24
-18.5875
34
0
50
0
100
AcDbRotatedDimension
1001
ACAD
1000
DSTYLE
1002
{
1070
   279
1070
     0
1070
   172
1070
     1
1070
   173
1070
     1
1070
   340
1005
28B
1070
   271
1070
     1
1070
   272
1070
     2
1070
    77
1070
     1
1070
    73
1070
     0
1070
   171
1070
     3
1070
   274
1070
     4
1070
   177
1070
   150
1070
   176
1070
     9
1070
   178
1070
    43
1070
    78
1070
     8
1070
    48
1040
-0.005
1070
    41
1041
4.175
1070
   147
1041
2.25
1070
    42
1041
1.5875
1070
    44
1041
3.175
1070
   140
1041
4.5
1070
   343
1005
0
1070
   344
1005
0
1002
}
0
DIMENSION
5
2D9
100
AcDbEntity
8
SK2
62
256
6
ByLayer
370
-3
48
1
60
0
100
AcDbDimension
2
DimnDraft3D4
10
200
20
-41.6508
30
0
11
112.5
21
-41.6508
31
0
70
32
71
5
72
1
41
1
210
0
220
0
230
1
3
Standard
100
AcDbAlignedDimension
13
25
23
-11.5875
33
0
14
200
24
-18.5875
34
0
50
0
100
AcDbRotatedDimension
1001
ACAD
1000
DSTYLE
1002
{
1070
   279
1070
     0
1070
   172
1070
     1
1070
   173
1070
     1
1070
   340
1005
28B
1070
   271
1070
     1
1070
   272
1070
     2
1070
    77
1070
     1
1070
    73
1070
     0
1070
   171
1070
     3
1070
   274
1070
     4
1070
   177
1070
   150
1070
   176
1070
     9
1070
   178
1070
    43
1070
    78
1070
     8
1070
    48
1040
-0.005
1070
    41
1041
4.175
1070
   147
1041
2.25
1070
    42
1041
1.5875
1070
    44
1041
3.175
1070
   140
1041
4.5
1070
   343
1005
0
1070
   344
1005
0
1002
}
0
DIMENSION
5
2E4
100
AcDbEntity
8
SK2
62
256
6
ByLayer
370
-3
48
1
60
0
100
AcDbDimension
2
DimnDraft3D5
10
-81.9
20
-20
30
0
11
-82.1
21
3.884211
31
0
70
33
71
5
72
1
41
1
210
0
220
0
230
1
3
Standard
100
AcDbAlignedDimension
13
-71.5875
23
20
33
0
14
-71.5875
24
-20
34
0
1001
ACAD
1000
DSTYLE
1002
{
1070
   279
1070
     0
1070
    74
1070
     0
1070
   173
1070
     1
1070
   340
1005
28B
1070
   271
1070
     2
1070
   272
1070
     2
1070
    77
1070
     1
1070
    73
1070
     0
1070
   171
1070
     3
1070
   274
1070
     4
1070
   177
1070
   150
1070
   176
1070
     9
1070
   178
1070
    43
1070
    78
1070
     8
1070
    48
1040
-0.005
1070
    41
1041
4.175
1070
   147
1041
2.25
1070
    42
1041
1.5875
1070
    44
1041
3.175
1070
   140
1041
4.5
1070
   343
1005
0
1070
   344
1005
0
1002
}
0
DIMENSION
5
2EF
100
AcDbEntity
8
SK2
62
256
6
ByLayer
370
-3
48
1
60
0
100
AcDbDimension
2
DimnDraft3D6
10
-91.9
20
24.75
30
0
11
-92.1
21
1.35
31
0
70
33
71
5
72
1
41
1
210
0
220
0
230
1
3
Standard
100
AcDbAlignedDimension
13
-1.5875
23
-24.75
33
0
14
-1.5875
24
24.75
34
0
1001
ACAD
1000
DSTYLE
1002
{
1070
   279
1070
     0
1070
    74
1070
     0
1070
   173
1070
     1
1070
   340
1005
28B
1070
   271
1070
     1
1070
   272
1070
     2
1070
    77
1070
     1
1070
    73
1070
     0
1070
   171
1070
     3
1070
   274
1070
     4
1070
   177
1070
   150
1070
   176
1070
     9
1070
   178
1070
    43
1070
    78
1070
     8
1070
    48
1040
-0.005
1070
    41
1041
4.175
1070
   147
1041
2.25
1070
    42
1041
1.5875
1070
    44
1041
3.175
1070
   140
1041
4.5
1070
   343
1005
0
1070
   344
1005
0
1002
}
0
DIMENSION
5
2FA
100
AcDbEntity
8
2
62
256
6
ByLayer
370
-3
48
1
60
0
100
AcDbDimension
2
DimnDraft3D7
10
230.15
20
-17
30
0
11
223.6
21
3.884211
31
0
70
33
71
5
72
1
41
1
210
0
220
0
230
1
3
Standard
100
AcDbAlignedDimension
13
201.5875
23
17
33
0
14
201.5875
24
-17
34
0
1001
ACAD
1000
DSTYLE
1002
{
1070
   279
1070
     0
1070
    74
1070
     0
1070
   173
1070
     1
1070
   340
1005
28B
1070
   271
1070
     2
1070
   272
1070
     2
1070
    77
1070
     1
1070
    73
1070
     0
1070
   171
1070
     3
1070
   274
1070
     4
1070
   177
1070
   150
1070
   176
1070
     9
1070
   178
1070
    43
1070
    78
1070
     8
1070
    48
1040
-0.005
1070
    41
1041
4.175
1070
   147
1041
2.25
1070
    42
1041
1.5875
1070
    44
1041
3.175
1070
   140
1041
4.5
1070
   343
1005
0
1070
   344
1005
0
1002
}
0
ENDSEC
0
SECTION
2
OBJECTS
0
DICTIONARY
5
32b
330
0
100
AcDbDictionary
280
0
281
1
3
ACAD_GROUP
350
32c
3
ACAD_MLINESTYLE
350
32d
0
DICTIONARY
5
32c
330
0
100
AcDbDictionary
280
0
281
1
0
DICTIONARY
5
32d
330
0
100
AcDbDictionary
280
0
281
1
3
Standard
350
18
0
MLINESTYLE
5
18
330
32d
100
AcDbMlineStyle
2
Standard
70
0
3

62
256
51
90
52
90
71
2
49
-0.5
62
256
6
ByLayer
49
0.5
62
256
6
ByLayer
0
RASTERVARIABLES
5
319
330

100
AcDbRasterVariables
90
0
70
1
71
1
72
1
0
ENDSEC
0
EOF
