0
SECTION
2
HEADER
9
$ACADVER
1
AC1015
9
$DWGCODEPAGE
3
ANSI_1252
9
$HANDSEED
5
31b
9
$ANGBASE
50
0
9
$ANGDIR
70
0
9
$ATTMODE
70
1
9
$AUNITS
70
0
9
$AUPREC
70
0
9
$CECOLOR
62
256
9
$CELTSCALE
40
1
9
$CELTYPE
6
ByLayer
9
$CELWEIGHT
370
-1
9
$CLAYER
8
0
9
$CMLJUST
70
0
9
$CMLSCALE
40
1
9
$CMLSTYLE
2
Standard
9
$DIMSTYLE
2
Standard
9
$TEXTSIZE
40
0.2
9
$TEXTSTYLE
7
Standard
9
$LUNITS
70
2
9
$LUPREC
70
4
9
$EXTNAMES
290
1
9
$INSUNITS
70
4
9
$LTSCALE
40
1
9
$LWDISPLAY
290
0
9
$PDMODE
70
0
9
$PDSIZE
40
0
9
$PLINEGEN
70
0
0
ENDSEC
0
SECTION
2
CLASSES
0
CLASS
1
RASTERVARIABLES
2
AcDbRasterVariables
3
ISM
90
0
280
0
281
0
0
ENDSEC
0
SECTION
2
TABLES
0
TABLE
2
VPORT
5
311
100
AcDbSymbolTable
0
VPORT
5
1
100
AcDbSymbolTableRecord
100
AcDbViewportTableRecord
2
*Active
70
0
10
0
20
0
11
1
21
1
12
-1
22
1
13
0
23
0
14
0.5
24
0.5
15
10
25
10
16
0
26
0
36
1
17
0
27
0
37
0
0
ENDTAB
0
TABLE
2
LTYPE
5
312
100
AcDbSymbolTable
0
LTYPE
5
14
100
AcDbSymbolTableRecord
100
AcDbLinetypeTableRecord
70
0
2
ByBlock
3

72
65
73
0
40
0
0
LTYPE
5
15
100
AcDbSymbolTableRecord
100
AcDbLinetypeTableRecord
70
0
2
ByLayer
3

72
65
73
0
40
0
0
LTYPE
5
16
100
AcDbSymbolTableRecord
100
AcDbLinetypeTableRecord
70
0
2
CONTINUOUS
3
Solid line
72
65
73
0
40
0
0
LTYPE
5
3B
100
AcDbSymbolTableRecord
100
AcDbLinetypeTableRecord
70
0
2
DASHED
3
__ __ __ __ __ __ __ __ __
72
65
73
2
40
25.72
49
12.86
74
0
49
-12.86
74
0
0
LTYPE
5
3C
100
AcDbSymbolTableRecord
100
AcDbLinetypeTableRecord
70
0
2
HIDDEN
3
_ _ _ _ _ _ _ _ _ _ _ _ _ _ _
72
65
73
2
40
0.5
49
0.25
74
0
49
-0.25
74
0
0
LTYPE
5
3D
100
AcDbSymbolTableRecord
100
AcDbLinetypeTableRecord
70
0
2
PHANTOM
3
____ _ _ ____ _ _ _____ _ _ ____
72
65
73
6
40
50.5
49
18
74
0
49
-6.5
74
0
49
6.5
74
0
49
-6.5
74
0
49
6.5
74
0
49
-6.5
74
0
0
LTYPE
5
3E
100
AcDbSymbolTableRecord
100
AcDbLinetypeTableRecord
70
0
2
CENTER
3
____ _ ____ _ ____ _ ____
72
65
73
4
40
47.5
49
22
74
0
49
-8.5
74
0
49
8.5
74
0
49
-8.5
74
0
0
LTYPE
5
3F
100
AcDbSymbolTableRecord
100
AcDbLinetypeTableRecord
70
0
2
DOT
3
.........................
72
65
73
2
40
10
49
0
74
0
49
-10
74
0
0
LTYPE
5
40
100
AcDbSymbolTableRecord
100
AcDbLinetypeTableRecord
70
0
2
DASHDOT
3
_._._._._._._._._._._._._._._._.
72
65
73
4
40
70
49
31
74
0
49
-13
74
0
49
13
74
0
49
-13
74
0
0
ENDTAB
0
TABLE
2
LAYER
5
313
100
AcDbSymbolTable
0
LAYER
5
10
100
AcDbSymbolTableRecord
100
AcDbLayerTableRecord
2
0
70
0
62
7
6
CONTINUOUS
290
1
370
-3
390
0
0
LAYER
5
42
100
AcDbSymbolTableRecord
100
AcDbLayerTableRecord
2
81
70
0
62
-3
6
CONTINUOUS
290
1
370
-3
390
0
0
LAYER
5
44
100
AcDbSymbolTableRecord
100
AcDbLayerTableRecord
2
80
70
0
62
-6
6
CONTINUOUS
290
1
370
-3
390
0
0
LAYER
5
57
100
AcDbSymbolTableRecord
100
AcDbLayerTableRecord
2
1
70
0
62
4
6
CONTINUOUS
290
1
370
-3
390
0
0
LAYER
5
60
100
AcDbSymbolTableRecord
100
AcDbLayerTableRecord
2
4
70
0
62
-2
6
CENTER
290
1
370
-3
390
0
0
LAYER
5
2AA
100
AcDbSymbolTableRecord
100
AcDbLayerTableRecord
2
2
70
0
62
7
6
CONTINUOUS
290
1
370
-3
390
0
0
LAYER
5
2fd
100
AcDbSymbolTableRecord
100
AcDbLayerTableRecord
2
SK1
70
0
62
4
6
CONTINUOUS
290
1
370
-3
390
0
0
LAYER
5
2fe
100
AcDbSymbolTableRecord
100
AcDbLayerTableRecord
2
SK4
70
0
62
2
6
CENTER
290
1
370
-3
390
0
0
LAYER
5
2ff
100
AcDbSymbolTableRecord
100
AcDbLayerTableRecord
2
SK6
70
0
62
5
6
CONTINUOUS
290
1
370
-3
390
0
0
LAYER
5
300
100
AcDbSymbolTableRecord
100
AcDbLayerTableRecord
2
SK2
70
0
62
7
6
CONTINUOUS
290
1
370
-3
390
0
0
ENDTAB
0
TABLE
2
STYLE
5
314
100
AcDbSymbolTable
0
STYLE
5
11
100
AcDbSymbolTableRecord
100
AcDbTextStyleTableRecord
2
Standard
3
txt
70
0
71
0
40
0
41
1
42
0
50
0
0
STYLE
5
26E
100
AcDbSymbolTableRecord
100
AcDbTextStyleTableRecord
2
DEFAULT
3
simplex.shx
70
0
71
0
40
0
41
1
42
0
50
0
0
STYLE
5
291
100
AcDbSymbolTableRecord
100
AcDbTextStyleTableRecord
2
DWGDirectTextStyle
3
SIMPLEX
70
0
71
0
40
0
41
1
42
0
50
0
0
ENDTAB
0
TABLE
2
DIMSTYLE
5
315
100
AcDbSymbolTable
100
AcDbDimStyleTable
0
DIMSTYLE
105
27
100
AcDbSymbolTableRecord
100
AcDbDimStyleTableRecord
2
Standard
70
0
3
<>
41
0.18
42
0.0625
44
0.18
140
0.18
147
0.09
73
0
74
0
77
1
271
2
275
0
278
52
280
0
340
11
0
ENDTAB
0
TABLE
2
VIEW
5
316
100
AcDbSymbolTable
0
ENDTAB
0
TABLE
2
UCS
5
317
100
AcDbSymbolTable
0
ENDTAB
0
TABLE
2
APPID
5
318
100
AcDbSymbolTable
0
APPID
5
12
100
AcDbSymbolTableRecord
100
AcDbRegAppTableRecord
2
ACAD
70
0
0
ENDTAB
0
TABLE
2
BLOCK_RECORD
5
319
100
AcDbSymbolTable
0
BLOCK_RECORD
5
1F
100
AcDbSymbolTableRecord
100
AcDbBlockTableRecord
2
*Model_Space
340
0
70
0
0
BLOCK_RECORD
5
1B
100
AcDbSymbolTableRecord
100
AcDbBlockTableRecord
2
*Paper_Space
340
0
70
0
0
BLOCK_RECORD
5
23
100
AcDbSymbolTableRecord
100
AcDbBlockTableRecord
2
*Paper_Space0
340
0
70
0
0
BLOCK_RECORD
5
293
100
AcDbSymbolTableRecord
100
AcDbBlockTableRecord
2
DimnDraft3D1
340
0
70
0
0
BLOCK_RECORD
5
29E
100
AcDbSymbolTableRecord
100
AcDbBlockTableRecord
2
DimnDraft3D2
340
0
70
0
0
BLOCK_RECORD
5
2A8
100
AcDbSymbolTableRecord
100
AcDbBlockTableRecord
2
DimnDraft3D3
340
0
70
0
0
BLOCK_RECORD
5
2B3
100
AcDbSymbolTableRecord
100
AcDbBlockTableRecord
2
DimnDraft3D4
340
0
70
0
0
BLOCK_RECORD
5
2BD
100
AcDbSymbolTableRecord
100
AcDbBlockTableRecord
2
DimnDraft3D5
340
0
70
0
0
BLOCK_RECORD
5
2C8
100
AcDbSymbolTableRecord
100
AcDbBlockTableRecord
2
DimnDraft3D6
340
0
70
0
0
BLOCK_RECORD
5
2D3
100
AcDbSymbolTableRecord
100
AcDbBlockTableRecord
2
DimnDraft3D7
340
0
70
0
0
ENDTAB
0
ENDSEC
0
SECTION
2
BLOCKS
0
BLOCK
5
20
100
AcDbEntity
8
0
100
AcDbBlockBegin
2
*Model_Space
70
0
10
0
20
0
30
0
3
*Model_Space
0
ENDBLK
5
21
100
AcDbEntity
8
0
100
AcDbBlockEnd
0
BLOCK
5
1C
100
AcDbEntity
8
0
100
AcDbBlockBegin
2
*Paper_Space
70
0
10
0
20
0
30
0
3
*Paper_Space
0
ENDBLK
5
1D
100
AcDbEntity
8
0
100
AcDbBlockEnd
0
BLOCK
5
24
100
AcDbEntity
8
0
100
AcDbBlockBegin
2
*Paper_Space0
70
0
10
0
20
0
30
0
3
*Paper_Space0
0
ENDBLK
5
25
100
AcDbEntity
8
0
100
AcDbBlockEnd
0
BLOCK
5
29B
100
AcDbEntity
8
0
100
AcDbBlockBegin
2
DimnDraft3D1
70
0
10
0
20
0
30
0
3
DimnDraft3D1
0
MTEXT
5
294
100
AcDbEntity
8
SK2
62
256
6
ByLayer
370
-1
48
1
60
0
100
AcDbMText
10
6.906579
20
-60.5258
30
0
210
0
220
0
230
1
1
\W01.000;\fsimplex.shx,bigfont.shx;(168) 
40
4.5
41
0
44
1.084337
50
0
71
7
72
5
7
DEFAULT
0
LINE
5
296
100
AcDbEntity
8
SK2
62
256
6
ByLayer
370
-1
48
1
60
0
100
AcDbLine
10
-70
20
-21.5875
30
0
11
-70
21
-66.79455
31
0
39
0
210
0
220
0
230
1
0
LINE
5
297
100
AcDbEntity
8
SK2
62
256
6
ByLayer
370
-1
48
1
60
0
100
AcDbLine
10
98
20
-18.5875
30
0
11
98
21
-66.79455
31
0
39
0
210
0
220
0
230
1
0
LINE
5
298
100
AcDbEntity
8
SK2
62
256
6
ByLayer
370
-1
48
1
60
0
100
AcDbLine
10
-70
20
-63.61955
30
0
11
98
21
-63.61955
31
0
39
0
210
0
220
0
230
1
0
SOLID
5
299
100
AcDbEntity
8
SK2
62
256
6
ByLayer
370
-1
48
1
60
0
100
AcDbTrace
10
-70
20
-63.61955
30
0
11
-65.825003
21
-62.693975
31
0
12
-65.824997
22
-64.545125
32
0
13
-70
23
-63.61955
33
0
39
0
210
0
220
0
230
1
0
SOLID
5
29A
100
AcDbEntity
8
SK2
62
256
6
ByLayer
370
-1
48
1
60
0
100
AcDbTrace
10
98
20
-63.61955
30
0
11
93.825003
21
-64.545125
31
0
12
93.824997
22
-62.693975
32
0
13
98
23
-63.61955
33
0
39
0
210
0
220
0
230
1
0
ENDBLK
5
29C
100
AcDbEntity
8
0
100
AcDbBlockEnd
0
BLOCK
5
2A5
100
AcDbEntity
8
0
100
AcDbBlockBegin
2
DimnDraft3D2
70
0
10
0
20
0
30
0
3
DimnDraft3D2
0
MTEXT
5
29F
100
AcDbEntity
8
SK2
62
256
6
ByLayer
370
-1
48
1
60
0
100
AcDbMText
10
-36.503947
20
-50.5258
30
0
210
0
220
0
230
1
1
\W01.000;\fsimplex.shx,bigfont.shx;70 
40
4.5
41
0
44
1.084337
50
0
71
7
72
5
7
DEFAULT
0
LINE
5
2A0
100
AcDbEntity
8
SK2
62
256
6
ByLayer
370
-1
48
1
60
0
100
AcDbLine
10
-70
20
-21.5875
30
0
11
-70
21
-54.8258
31
0
39
0
210
0
220
0
230
1
0
LINE
5
2A1
100
AcDbEntity
8
SK2
62
256
6
ByLayer
370
-1
48
1
60
0
100
AcDbLine
10
0
20
-26.3375
30
0
11
0
21
-54.8258
31
0
39
0
210
0
220
0
230
1
0
LINE
5
2A2
100
AcDbEntity
8
SK2
62
256
6
ByLayer
370
-1
48
1
60
0
100
AcDbLine
10
-70
20
-51.6508
30
0
11
0
21
-51.6508
31
0
39
0
210
0
220
0
230
1
0
SOLID
5
2A3
100
AcDbEntity
8
SK2
62
256
6
ByLayer
370
-1
48
1
60
0
100
AcDbTrace
10
-70
20
-51.6508
30
0
11
-65.825003
21
-50.725225
31
0
12
-65.824997
22
-52.576375
32
0
13
-70
23
-51.6508
33
0
39
0
210
0
220
0
230
1
0
SOLID
5
2A4
100
AcDbEntity
8
SK2
62
256
6
ByLayer
370
-1
48
1
60
0
100
AcDbTrace
10
0
20
-51.6508
30
0
11
-4.174997
21
-52.576375
31
0
12
-4.175003
22
-50.725225
32
0
13
0
23
-51.6508
33
0
39
0
210
0
220
0
230
1
0
ENDBLK
5
2A6
100
AcDbEntity
8
0
100
AcDbBlockEnd
0
BLOCK
5
2B0
100
AcDbEntity
8
0
100
AcDbBlockBegin
2
DimnDraft3D3
70
0
10
0
20
0
30
0
3
DimnDraft3D3
0
MTEXT
5
2A9
100
AcDbEntity
8
2
62
256
6
ByLayer
370
-1
48
1
60
0
100
AcDbMText
10
47.496053
20
-50.5258
30
0
210
0
220
0
230
1
1
\W01.000;\fsimplex.shx,bigfont.shx;98 
40
4.5
41
0
44
1.084337
50
0
71
7
72
5
7
DEFAULT
0
LINE
5
2AB
100
AcDbEntity
8
2
62
256
6
ByLayer
370
-1
48
1
60
0
100
AcDbLine
10
0
20
-26.3375
30
0
11
0
21
-54.8258
31
0
39
0
210
0
220
0
230
1
0
LINE
5
2AC
100
AcDbEntity
8
2
62
256
6
ByLayer
370
-1
48
1
60
0
100
AcDbLine
10
98
20
-18.5875
30
0
11
98
21
-54.8258
31
0
39
0
210
0
220
0
230
1
0
LINE
5
2AD
100
AcDbEntity
8
2
62
256
6
ByLayer
370
-1
48
1
60
0
100
AcDbLine
10
0
20
-51.6508
30
0
11
98
21
-51.6508
31
0
39
0
210
0
220
0
230
1
0
SOLID
5
2AE
100
AcDbEntity
8
2
62
256
6
ByLayer
370
-1
48
1
60
0
100
AcDbTrace
10
0
20
-51.6508
30
0
11
4.174997
21
-50.725225
31
0
12
4.175003
22
-52.576375
32
0
13
0
23
-51.6508
33
0
39
0
210
0
220
0
230
1
0
SOLID
5
2AF
100
AcDbEntity
8
2
62
256
6
ByLayer
370
-1
48
1
60
0
100
AcDbTrace
10
98
20
-51.6508
30
0
11
93.825003
21
-52.576375
31
0
12
93.824997
22
-50.725225
32
0
13
98
23
-51.6508
33
0
39
0
210
0
220
0
230
1
0
ENDBLK
5
2B1
100
AcDbEntity
8
0
100
AcDbBlockEnd
0
BLOCK
5
2BA
100
AcDbEntity
8
0
100
AcDbBlockBegin
2
DimnDraft3D4
70
0
10
0
20
0
30
0
3
DimnDraft3D4
0
MTEXT
5
2B4
100
AcDbEntity
8
SK2
62
256
6
ByLayer
370
-1
48
1
60
0
100
AcDbMText
10
59.996053
20
-40.5258
30
0
210
0
220
0
230
1
1
\W01.000;\fsimplex.shx,bigfont.shx;73 
40
4.5
41
0
44
1.084337
50
0
71
7
72
5
7
DEFAULT
0
LINE
5
2B5
100
AcDbEntity
8
SK2
62
256
6
ByLayer
370
-1
48
1
60
0
100
AcDbLine
10
25
20
-11.5875
30
0
11
25
21
-44.8258
31
0
39
0
210
0
220
0
230
1
0
LINE
5
2B6
100
AcDbEntity
8
SK2
62
256
6
ByLayer
370
-1
48
1
60
0
100
AcDbLine
10
98
20
-18.5875
30
0
11
98
21
-44.8258
31
0
39
0
210
0
220
0
230
1
0
LINE
5
2B7
100
AcDbEntity
8
SK2
62
256
6
ByLayer
370
-1
48
1
60
0
100
AcDbLine
10
25
20
-41.6508
30
0
11
98
21
-41.6508
31
0
39
0
210
0
220
0
230
1
0
SOLID
5
2B8
100
AcDbEntity
8
SK2
62
256
6
ByLayer
370
-1
48
1
60
0
100
AcDbTrace
10
25
20
-41.6508
30
0
11
29.174997
21
-40.725225
31
0
12
29.175003
22
-42.576375
32
0
13
25
23
-41.6508
33
0
39
0
210
0
220
0
230
1
0
SOLID
5
2B9
100
AcDbEntity
8
SK2
62
256
6
ByLayer
370
-1
48
1
60
0
100
AcDbTrace
10
98
20
-41.6508
30
0
11
93.825003
21
-42.576375
31
0
12
93.824997
22
-40.725225
32
0
13
98
23
-41.6508
33
0
39
0
210
0
220
0
230
1
0
ENDBLK
5
2BB
100
AcDbEntity
8
0
100
AcDbBlockEnd
0
BLOCK
5
2C5
100
AcDbEntity
8
0
100
AcDbBlockBegin
2
DimnDraft3D5
70
0
10
0
20
0
30
0
3
DimnDraft3D5
0
MTEXT
5
2BE
100
AcDbEntity
8
SK2
62
256
6
ByLayer
370
-1
48
1
60
0
100
AcDbMText
10
-80.975
20
5.009211
30
0
210
0
220
0
230
1
1
\W01.000;\fsimplex.shx,bigfont.shx;40 
40
4.5
41
0
44
1.084337
50
90
71
7
72
5
7
DEFAULT
0
MTEXT
5
2BF
100
AcDbEntity
8
SK2
62
256
6
ByLayer
370
-1
48
1
60
0
100
AcDbMText
10
-80.975
20
-8.490789
30
0
210
0
220
0
230
1
1
\W01.000;\fsimplex.shx,bigfont.shx;%%c 
40
4.5
41
0
44
1.084337
50
90
71
7
72
5
7
DEFAULT
0
LINE
5
2C0
100
AcDbEntity
8
SK2
62
256
6
ByLayer
370
-1
48
1
60
0
100
AcDbLine
10
-71.5875
20
20
30
0
11
-81.9
21
20
31
0
39
0
210
0
220
0
230
1
0
LINE
5
2C1
100
AcDbEntity
8
SK2
62
256
6
ByLayer
370
-1
48
1
60
0
100
AcDbLine
10
-71.5875
20
-20
30
0
11
-81.9
21
-20
31
0
39
0
210
0
220
0
230
1
0
LINE
5
2C2
100
AcDbEntity
8
SK2
62
256
6
ByLayer
370
-1
48
1
60
0
100
AcDbLine
10
-78.725
20
20
30
0
11
-78.725
21
-20
31
0
39
0
210
0
220
0
230
1
0
SOLID
5
2C3
100
AcDbEntity
8
SK2
62
256
6
ByLayer
370
-1
48
1
60
0
100
AcDbTrace
10
-78.725
20
20
30
0
11
-77.799425
21
15.825003
31
0
12
-79.650575
22
15.824997
32
0
13
-78.725
23
20
33
0
39
0
210
0
220
0
230
1
0
SOLID
5
2C4
100
AcDbEntity
8
SK2
62
256
6
ByLayer
370
-1
48
1
60
0
100
AcDbTrace
10
-78.725
20
-20
30
0
11
-79.650575
21
-15.825003
31
0
12
-77.799425
22
-15.824997
32
0
13
-78.725
23
-20
33
0
39
0
210
0
220
0
230
1
0
ENDBLK
5
2C6
100
AcDbEntity
8
0
100
AcDbBlockEnd
0
BLOCK
5
2D0
100
AcDbEntity
8
0
100
AcDbBlockBegin
2
DimnDraft3D6
70
0
10
0
20
0
30
0
3
DimnDraft3D6
0
MTEXT
5
2C9
100
AcDbEntity
8
SK2
62
256
6
ByLayer
370
-1
48
1
60
0
100
AcDbMText
10
-90.975
20
2.475
30
0
210
0
220
0
230
1
1
\W01.000;\fsimplex.shx,bigfont.shx;49.5 
40
4.5
41
0
44
1.084337
50
90
71
7
72
5
7
DEFAULT
0
MTEXT
5
2CA
100
AcDbEntity
8
SK2
62
256
6
ByLayer
370
-1
48
1
60
0
100
AcDbMText
10
-90.975
20
-11.025
30
0
210
0
220
0
230
1
1
\W01.000;\fsimplex.shx,bigfont.shx;%%c 
40
4.5
41
0
44
1.084337
50
90
71
7
72
5
7
DEFAULT
0
LINE
5
2CB
100
AcDbEntity
8
SK2
62
256
6
ByLayer
370
-1
48
1
60
0
100
AcDbLine
10
-1.5875
20
-24.75
30
0
11
-91.9
21
-24.75
31
0
39
0
210
0
220
0
230
1
0
LINE
5
2CC
100
AcDbEntity
8
SK2
62
256
6
ByLayer
370
-1
48
1
60
0
100
AcDbLine
10
-1.5875
20
24.75
30
0
11
-91.9
21
24.75
31
0
39
0
210
0
220
0
230
1
0
LINE
5
2CD
100
AcDbEntity
8
SK2
62
256
6
ByLayer
370
-1
48
1
60
0
100
AcDbLine
10
-88.725
20
-24.75
30
0
11
-88.725
21
24.75
31
0
39
0
210
0
220
0
230
1
0
SOLID
5
2CE
100
AcDbEntity
8
SK2
62
256
6
ByLayer
370
-1
48
1
60
0
100
AcDbTrace
10
-88.725
20
-24.75
30
0
11
-89.650575
21
-20.575003
31
0
12
-87.799425
22
-20.574997
32
0
13
-88.725
23
-24.75
33
0
39
0
210
0
220
0
230
1
0
SOLID
5
2CF
100
AcDbEntity
8
SK2
62
256
6
ByLayer
370
-1
48
1
60
0
100
AcDbTrace
10
-88.725
20
24.75
30
0
11
-87.799425
21
20.575003
31
0
12
-89.650575
22
20.574997
32
0
13
-88.725
23
24.75
33
0
39
0
210
0
220
0
230
1
0
ENDBLK
5
2D1
100
AcDbEntity
8
0
100
AcDbBlockEnd
0
BLOCK
5
2DB
100
AcDbEntity
8
0
100
AcDbBlockBegin
2
DimnDraft3D7
70
0
10
0
20
0
30
0
3
DimnDraft3D7
0
MTEXT
5
2D4
100
AcDbEntity
8
2
62
256
6
ByLayer
370
-1
48
1
60
0
100
AcDbMText
10
122.725
20
5.009211
30
0
210
0
220
0
230
1
1
\W01.000;\fsimplex.shx,bigfont.shx;34 
40
4.5
41
0
44
1.084337
50
90
71
7
72
5
7
DEFAULT
0
MTEXT
5
2D5
100
AcDbEntity
8
2
62
256
6
ByLayer
370
-1
48
1
60
0
100
AcDbMText
10
122.725
20
-8.490789
30
0
210
0
220
0
230
1
1
\W01.000;\fsimplex.shx,bigfont.shx;%%c 
40
4.5
41
0
44
1.084337
50
90
71
7
72
5
7
DEFAULT
0
LINE
5
2D6
100
AcDbEntity
8
2
62
256
6
ByLayer
370
-1
48
1
60
0
100
AcDbLine
10
99.5875
20
17
30
0
11
128.15
21
17
31
0
39
0
210
0
220
0
230
1
0
LINE
5
2D7
100
AcDbEntity
8
2
62
256
6
ByLayer
370
-1
48
1
60
0
100
AcDbLine
10
99.5875
20
-17
30
0
11
128.15
21
-17
31
0
39
0
210
0
220
0
230
1
0
LINE
5
2D8
100
AcDbEntity
8
2
62
256
6
ByLayer
370
-1
48
1
60
0
100
AcDbLine
10
124.975
20
17
30
0
11
124.975
21
-17
31
0
39
0
210
0
220
0
230
1
0
SOLID
5
2D9
100
AcDbEntity
8
2
62
256
6
ByLayer
370
-1
48
1
60
0
100
AcDbTrace
10
124.975
20
17
30
0
11
125.900575
21
12.825003
31
0
12
124.049425
22
12.824997
32
0
13
124.975
23
17
33
0
39
0
210
0
220
0
230
1
0
SOLID
5
2DA
100
AcDbEntity
8
2
62
256
6
ByLayer
370
-1
48
1
60
0
100
AcDbTrace
10
124.975
20
-17
30
0
11
124.049425
21
-12.825003
31
0
12
125.900575
22
-12.824997
32
0
13
124.975
23
-17
33
0
39
0
210
0
220
0
230
1
0
ENDBLK
5
2DC
100
AcDbEntity
8
0
100
AcDbBlockEnd
0
ENDSEC
0
SECTION
2
ENTITIES
0
ARC
5
FE
100
AcDbEntity
8
SK1
62
256
6
ByLayer
370
-1
48
1
60
0
100
AcDbCircle
39
0
10
1.383773
20
20.15
30
0
40
0.4
210
0
220
0
230
-1
100
AcDbArc
50
270
51
295
0
ARC
5
FF
100
AcDbEntity
8
SK1
62
256
6
ByLayer
370
-1
48
1
60
0
100
AcDbCircle
39
0
10
1.383773
20
-20.15
30
0
40
0.4
210
0
220
0
230
-1
100
AcDbArc
50
65
51
90
0
ARC
5
100
100
AcDbEntity
8
SK1
62
256
6
ByLayer
370
-1
48
1
60
0
100
AcDbCircle
39
0
10
0.15
20
20.15
30
0
40
0.4
210
0
220
0
230
-1
100
AcDbArc
50
247.975687
51
270
0
ARC
5
101
100
AcDbEntity
8
SK1
62
256
6
ByLayer
370
-1
48
1
60
0
100
AcDbCircle
39
0
10
0.15
20
-20.15
30
0
40
0.4
210
0
220
0
230
-1
100
AcDbArc
50
90
51
112.024313
0
ARC
5
102
100
AcDbEntity
8
SK1
62
256
6
ByLayer
370
-1
48
1
60
0
100
AcDbCircle
39
0
10
67.894506
20
20.396
30
0
40
0.8
210
0
220
0
230
-1
100
AcDbArc
50
250.982048
51
321
0
ARC
5
103
100
AcDbEntity
8
SK1
62
256
6
ByLayer
370
-1
48
1
60
0
100
AcDbCircle
39
0
10
67.894506
20
-20.396
30
0
40
0.8
210
0
220
0
230
-1
100
AcDbArc
50
39
51
109.017952
0
ELLIPSE
5
104
100
AcDbEntity
8
1
62
256
6
ByLayer
370
-1
48
1
60
0
100
AcDbEllipse
10
86.213408
20
18.408016
30
0
11
-1.33983671596685E-14
21
-12.5
31
0
210
0
220
0
230
1
40
0.996195
41
-0.401425727958693
42
-6.8322920193673E-06
0
ELLIPSE
5
105
100
AcDbEntity
8
1
62
256
6
ByLayer
370
-1
48
1
60
0
100
AcDbEllipse
10
96.609552
20
0
30
0
11
-0.995123958972375
21
16.3995717951961
31
0
210
0
220
0
230
-1
40
0.119092
41
-2.04391284173572
42
-1.52188493710076
0
ELLIPSE
5
106
100
AcDbEntity
8
1
62
256
6
ByLayer
370
-1
48
1
60
0
100
AcDbEllipse
10
91.736114
20
11.1
30
0
11
-11.2846518478533
21
-6.90440987110178
31
0
210
0
220
0
230
-1
40
0.358091
41
-0.988932509760179
42
-0.838285236333909
0
ELLIPSE
5
107
100
AcDbEntity
8
1
62
256
6
ByLayer
370
-1
48
1
60
0
100
AcDbEllipse
10
88.654734
20
10.379496
30
0
11
-2.25092568282431E-15
21
-2.1
31
0
210
0
220
0
230
1
40
0.996195
41
-2.19211858706795
42
-1.53588974175501
0
ELLIPSE
5
108
100
AcDbEntity
8
1
62
256
6
ByLayer
370
-1
48
1
60
0
100
AcDbEllipse
10
92.548962
20
11.284255
30
0
11
2.05004334905348E-15
21
1.75
31
0
210
0
220
0
230
1
40
0.996195
41
-2.292184809512
42
0
0
ELLIPSE
5
109
100
AcDbEntity
8
1
62
256
6
ByLayer
370
-1
48
1
60
0
100
AcDbEllipse
10
92.548962
20
11.284255
30
0
11
2.05004334905348E-15
21
1.75
31
0
210
0
220
0
230
1
40
0.996195
41
0
42
1.57079639567442
0
ELLIPSE
5
10A
100
AcDbEntity
8
1
62
256
6
ByLayer
370
-1
48
1
60
0
100
AcDbEllipse
10
92.548962
20
11.284255
30
0
11
2.05004334905348E-15
21
1.75
31
0
210
0
220
0
230
1
40
0.996195
41
1.57079612015634
42
2.65012947763563
0
ELLIPSE
5
10B
100
AcDbEntity
8
1
62
256
6
ByLayer
370
-1
48
1
60
0
100
AcDbEllipse
10
86.283133
20
18.408016
30
0
11
1.37060041051004E-14
21
11.7
31
0
210
0
220
0
230
1
40
0.996195
41
2.7401669256311
42
-3.11448573132149
0
ELLIPSE
5
10C
100
AcDbEntity
8
1
62
256
6
ByLayer
370
-1
48
1
60
0
100
AcDbEllipse
10
96.6913
20
-8.384299
30
0
11
-0.0775054657237139
21
-0.878086631929609
31
0
210
0
220
0
230
-1
40
0.115224
41
0.00370845515606746
42
1.57450478195212
0
ELLIPSE
5
10D
100
AcDbEntity
8
1
62
256
6
ByLayer
370
-1
48
1
60
0
100
AcDbEllipse
10
-20.797168
20
0
30
0
11
-291.668059009279
21
-15.8597949692258
31
0
210
0
220
0
230
-1
40
0.014313
41
-1.9765648654686
42
-1.94321505347637
0
ELLIPSE
5
10E
100
AcDbEntity
8
1
62
256
6
ByLayer
370
-1
48
1
60
0
100
AcDbEllipse
10
97.788032
20
0
30
0
11
-1.34862851632924
21
-16.3991142665344
31
0
210
0
220
0
230
-1
40
0.126383
41
0.0305700797981114
42
1.08006031216244
0
ELLIPSE
5
10F
100
AcDbEntity
8
1
62
256
6
ByLayer
370
-1
48
1
60
0
100
AcDbEllipse
10
92.258024
20
-3.536288
30
0
11
1.85
21
0
31
0
210
0
220
0
230
1
40
0.998135
41
0.0645991858452054
42
3.03055691192692
0
ELLIPSE
5
110
100
AcDbEntity
8
1
62
256
6
ByLayer
370
-1
48
1
60
0
100
AcDbEllipse
10
87.534989
20
12.519481
30
0
11
-0.773306887427586
21
-0.82444923970429
31
0
210
0
220
0
230
-1
40
0.04503
41
-0.656797883743255
42
-0.592589705816796
0
ELLIPSE
5
111
100
AcDbEntity
8
1
62
256
6
ByLayer
370
-1
48
1
60
0
100
AcDbEllipse
10
62.828844
20
14.683647
30
0
11
-30.6229321919698
21
13.2919024024796
31
0
210
0
220
0
230
-1
40
0.008381
41
2.18290685288897
42
2.21542160354303
0
ELLIPSE
5
112
100
AcDbEntity
8
1
62
256
6
ByLayer
370
-1
48
1
60
0
100
AcDbEllipse
10
45.082232
20
17.743552
30
0
11
-39.0195068051598
21
6.60877543023034
31
0
210
0
220
0
230
-1
40
0.199599
41
3.10779927229952
42
-2.70186025185601
0
ELLIPSE
5
113
100
AcDbEntity
8
1
62
256
6
ByLayer
370
-1
48
1
60
0
100
AcDbEllipse
10
88.384551
20
10.379496
30
0
11
2.46005201886418E-15
21
2.1
31
0
210
0
220
0
230
1
40
0.996195
41
0.900501422405727
42
1.60570291183478
0
ELLIPSE
5
114
100
AcDbEntity
8
1
62
256
6
ByLayer
370
-1
48
1
60
0
100
AcDbEllipse
10
63.211348
20
14.615984
30
0
11
-21.8762766720939
21
11.5990377757087
31
0
210
0
220
0
230
-1
40
0.088682
41
-2.51687564612725
42
-1.95088435629397
0
ELLIPSE
5
115
100
AcDbEntity
8
1
62
256
6
ByLayer
370
-1
48
1
60
0
100
AcDbEllipse
10
81.65925
20
7.638109
30
0
11
-0.31359574849725
21
-0.735973984950861
31
0
210
0
220
0
230
1
40
0.080227
41
0.034171237731822
42
1.60496756452651
0
ELLIPSE
5
116
100
AcDbEntity
8
1
62
256
6
ByLayer
370
-1
48
1
60
0
100
AcDbEllipse
10
84.185169
20
11.001337
30
0
11
-1.34232823963851
21
-7.78512394872869
31
0
210
0
220
0
230
1
40
0.282349
41
0.214673200756723
42
0.869361739973196
0
ELLIPSE
5
117
100
AcDbEntity
8
1
62
256
6
ByLayer
370
-1
48
1
60
0
100
AcDbEllipse
10
96.09379
20
-9.945833
30
0
11
-0.153810158131893
21
2.55157432616085
31
0
210
0
220
0
230
-1
40
0.115886
41
-0.55960994512977
42
0.679942747379646
0
ELLIPSE
5
118
100
AcDbEntity
8
1
62
256
6
ByLayer
370
-1
48
1
60
0
100
AcDbEllipse
10
92.258024
20
-3.569076
30
0
11
1.425
21
0
31
0
210
0
220
0
230
1
40
0.998135
41
0
42
3.14159232533693
0
ELLIPSE
5
119
100
AcDbEntity
8
1
62
256
6
ByLayer
370
-1
48
1
60
0
100
AcDbEllipse
10
13.5
20
-7.310721
30
0
11
8
21
0
31
0
210
0
220
0
230
1
40
0.997654
41
3.14155437227376
42
-2.14979853583067
0
ELLIPSE
5
11A
100
AcDbEntity
8
1
62
256
6
ByLayer
370
-1
48
1
60
0
100
AcDbEllipse
10
87.447637
20
2.6E-05
30
0
11
-187.452708016709
21
-3.19962149032556E-07
31
0
210
0
220
0
230
-1
40
0.087489
41
1.55306501633675
42
1.56624670423448
0
ELLIPSE
5
11B
100
AcDbEntity
8
1
62
256
6
ByLayer
370
-1
48
1
60
0
100
AcDbEllipse
10
96.611282
20
0
30
0
11
-0.860134053848538
21
16.3996769652411
31
0
210
0
220
0
230
-1
40
0.119644
41
-1.52283625687287
42
-1.4161311556447
0
ELLIPSE
5
11C
100
AcDbEntity
8
1
62
256
6
ByLayer
370
-1
48
1
60
0
100
AcDbEllipse
10
85.097613
20
0
30
0
11
-54.9104505167056
21
-6.22190144837509E-14
31
0
210
0
220
0
230
-1
40
0.298668
41
1.4026969377625
42
1.55306501098844
0
ELLIPSE
5
11D
100
AcDbEntity
8
1
62
256
6
ByLayer
370
-1
48
1
60
0
100
AcDbEllipse
10
86.620179
20
6.715143
30
0
11
0.0280261150489236
21
-0.799508934831416
31
0
210
0
220
0
230
1
40
0.087103
41
0.0631133954161788
42
1.33958737577324
0
ELLIPSE
5
11E
100
AcDbEntity
8
1
62
256
6
ByLayer
370
-1
48
1
60
0
100
AcDbEllipse
10
88.902738
20
7.631171
30
0
11
-1.83236116208168
21
-1.63166900511856
31
0
210
0
220
0
230
-1
40
0.721468
41
-1.34329611406128
42
-0.0510154422234735
0
ELLIPSE
5
11F
100
AcDbEntity
8
1
62
256
6
ByLayer
370
-1
48
1
60
0
100
AcDbEllipse
10
96.277145
20
0.027124
30
0
11
-0.0424447361138489
21
0.801921187278505
31
0
210
0
220
0
230
-1
40
0.119318
41
-1.49925368293412
42
0.0715426438547565
0
ELLIPSE
5
120
100
AcDbEntity
8
1
62
256
6
ByLayer
370
-1
48
1
60
0
100
AcDbEllipse
10
95.808149
20
-9.902274
30
0
11
-0.201497259084532
21
-2.49807382796018
31
0
210
0
220
0
230
-1
40
0.125542
41
-2.47762281146571
42
2.56600980320493
0
ELLIPSE
5
121
100
AcDbEntity
8
1
62
256
6
ByLayer
370
-1
48
1
60
0
100
AcDbEllipse
10
87.115211
20
0.000103
30
0
11
-0.531001609766708
21
16.3998317820085
31
0
210
0
220
0
230
-1
40
0.087398
41
0.0073794598248224
42
0.0206860515049861
0
ELLIPSE
5
122
100
AcDbEntity
8
1
62
256
6
ByLayer
370
-1
48
1
60
0
100
AcDbEllipse
10
87.36047
20
10.334127
30
0
11
-0.799516360141551
21
-0.0278134835287907
31
0
210
0
220
0
230
1
40
0.003042
41
0.0872135714658715
42
1.10059836684055
0
ELLIPSE
5
123
100
AcDbEntity
8
1
62
256
6
ByLayer
370
-1
48
1
60
0
100
AcDbEllipse
10
96.18468
20
6.990717
30
0
11
-0.0418410633224799
21
0.803245590191714
31
0
210
0
220
0
230
-1
40
0.118375
41
2.4511581137282
42
-3.1337443449185
0
ELLIPSE
5
124
100
AcDbEntity
8
1
62
256
6
ByLayer
370
-1
48
1
60
0
100
AcDbEllipse
10
92.548962
20
11.284255
30
0
11
2.34290668463255E-15
21
2
31
0
210
0
220
0
230
1
40
0.996195
41
0.0503637830432908
42
1.49510350031178
0
ELLIPSE
5
125
100
AcDbEntity
8
1
62
256
6
ByLayer
370
-1
48
1
60
0
100
AcDbEllipse
10
88.480159
20
7.631171
30
0
11
2.46005201886418E-15
21
2.1
31
0
210
0
220
0
230
1
40
0.996195
41
1.60570291183478
42
2.02366955143475
0
ELLIPSE
5
126
100
AcDbEntity
8
1
62
256
6
ByLayer
370
-1
48
1
60
0
100
AcDbEllipse
10
88.750342
20
7.631171
30
0
11
-2.25092568282431E-15
21
-2.1
31
0
210
0
220
0
230
1
40
0.996195
41
-1.53588974175501
42
-0.126517127577415
0
ELLIPSE
5
127
100
AcDbEntity
8
1
62
256
6
ByLayer
370
-1
48
1
60
0
100
AcDbEllipse
10
92.258024
20
-3.536288
30
0
11
-1.425
21
1.44016065349237E-15
31
0
210
0
220
0
230
1
40
0.998135
41
0
42
6.28318530717959
0
ELLIPSE
5
128
100
AcDbEntity
8
1
62
256
6
ByLayer
370
-1
48
1
60
0
100
AcDbEllipse
10
92.348504
20
11.284255
30
0
11
-2.14373874554696E-15
21
-2
31
0
210
0
220
0
230
1
40
0.996195
41
1.57079654872777
42
-2.28776637790648
0
ELLIPSE
5
129
100
AcDbEntity
8
1
62
256
6
ByLayer
370
-1
48
1
60
0
100
AcDbEllipse
10
92.348504
20
11.284255
30
0
11
-2.14373874554696E-15
21
-2
31
0
210
0
220
0
230
1
40
0.996195
41
1.33988912650863
42
1.57079604872776
0
ELLIPSE
5
12A
100
AcDbEntity
8
1
62
256
6
ByLayer
370
-1
48
1
60
0
100
AcDbEllipse
10
82.507404
20
5.919633
30
0
11
-13.1377297384948
21
-0.413299327993561
31
0
210
0
220
0
230
-1
40
0.010629
41
-1.89662447235433
42
-1.88745099696971
0
ELLIPSE
5
12B
100
AcDbEntity
8
1
62
256
6
ByLayer
370
-1
48
1
60
0
100
AcDbEllipse
10
92.82786
20
11.284255
30
0
11
2.05004334905348E-15
21
1.75
31
0
210
0
220
0
230
1
40
0.996195
41
0.0801107747665383
42
1.57079669158491
0
ELLIPSE
5
12C
100
AcDbEntity
8
1
62
256
6
ByLayer
370
-1
48
1
60
0
100
AcDbEllipse
10
92.82786
20
11.284255
30
0
11
2.05004334905348E-15
21
1.75
31
0
210
0
220
0
230
1
40
0.996195
41
1.57079612015634
42
2.96193274908736
0
ELLIPSE
5
12D
100
AcDbEntity
8
1
62
256
6
ByLayer
370
-1
48
1
60
0
100
AcDbEllipse
10
87.456078
20
7.585802
30
0
11
-0.799516360141551
21
-0.0278134835287907
31
0
210
0
220
0
230
1
40
0.003042
41
0.0872135714662382
42
1.10059836684027
0
ELLIPSE
5
12E
100
AcDbEntity
8
1
62
256
6
ByLayer
370
-1
48
1
60
0
100
AcDbEllipse
10
84.858416
20
0
30
0
11
-71.087378367908
21
1.0572378746581
31
0
210
0
220
0
230
-1
40
0.230222
41
-1.57191179252003
42
-1.35503680486344
0
ELLIPSE
5
12F
100
AcDbEntity
8
1
62
256
6
ByLayer
370
-1
48
1
60
0
100
AcDbEllipse
10
97.853652
20
0
30
0
11
-39.1617348310928
21
15.883334748025
31
0
210
0
220
0
230
-1
40
0.104287
41
-1.14062540910752
42
-0.52969382366323
0
ELLIPSE
5
130
100
AcDbEntity
8
1
62
256
6
ByLayer
370
-1
48
1
60
0
100
AcDbEllipse
10
88.081475
20
6.615909
30
0
11
-7.99024324291871
21
0.420322729291192
31
0
210
0
220
0
230
-1
40
0.000428
41
-3.13465803229051
42
-3.13345250724271
0
ELLIPSE
5
131
100
AcDbEntity
8
1
62
256
6
ByLayer
370
-1
48
1
60
0
100
AcDbEllipse
10
95.810888
20
-1.379438
30
0
11
-0.896455297444665
21
9.05992734733055E-16
31
0
210
0
220
0
230
1
40
0.998135
41
-3.08923277602998
42
-2.52803529712435
0
ELLIPSE
5
132
100
AcDbEntity
8
1
62
256
6
ByLayer
370
-1
48
1
60
0
100
AcDbEllipse
10
92.501839
20
-4.359057
30
0
11
1.84999999999999
21
0
31
0
210
0
220
0
230
1
40
0.998135
41
1.04399050339587
42
2.69509384832007
0
ELLIPSE
5
133
100
AcDbEntity
8
1
62
256
6
ByLayer
370
-1
48
1
60
0
100
AcDbEllipse
10
96.41528
20
-6.981783
30
0
11
-0.249836092965612
21
0.0090513342484963
31
0
210
0
220
0
230
1
40
0.063945
41
-2.7426166382982
42
-2.48994881891797
0
ELLIPSE
5
134
100
AcDbEntity
8
1
62
256
6
ByLayer
370
-1
48
1
60
0
100
AcDbEllipse
10
96.000853
20
-5.900729
30
0
11
1.75860976494223
21
0
31
0
210
0
220
0
230
1
40
0.998135
41
-0.0349065850399041
42
0.428478331364595
0
ELLIPSE
5
135
100
AcDbEntity
8
1
62
256
6
ByLayer
370
-1
48
1
60
0
100
AcDbEllipse
10
97.374778
20
-5.276178
30
0
11
0.227326369036527
21
0.104032312002901
31
0
210
0
220
0
230
1
40
0.05553
41
0.0967662315023253
42
0.3693843035635
0
ELLIPSE
5
136
100
AcDbEntity
8
1
62
256
6
ByLayer
370
-1
48
1
60
0
100
AcDbEllipse
10
100.094049
20
-4.154544
30
0
11
2.49999999999999
21
0
31
0
210
0
220
0
230
1
40
0.998135
41
-3.08923277602998
42
-2.7131143222252
0
ELLIPSE
5
137
100
AcDbEntity
8
1
62
256
6
ByLayer
370
-1
48
1
60
0
100
AcDbEllipse
10
92.501839
20
-4.293999
30
0
11
1.95
21
0
31
0
210
0
220
0
230
1
40
0.998135
41
1.23386063536417
42
2.55558770024486
0
ELLIPSE
5
138
100
AcDbEntity
8
1
62
256
6
ByLayer
370
-1
48
1
60
0
100
AcDbEllipse
10
96.959962
20
-5.363689
30
0
11
-0.363722190458463
21
-0.166451699204598
31
0
210
0
220
0
230
1
40
0.05553
41
0.37698204363667
42
1.54538951065761
0
ELLIPSE
5
139
100
AcDbEntity
8
1
62
256
6
ByLayer
370
-1
48
1
60
0
100
AcDbEllipse
10
96.415946
20
-5.627261
30
0
11
-0.227482860807361
21
-0.103689671804375
31
0
210
0
220
0
230
1
40
0.059322
41
-2.76452408340539
42
-2.50045272736036
0
ELLIPSE
5
13A
100
AcDbEntity
8
1
62
256
6
ByLayer
370
-1
48
1
60
0
100
AcDbEllipse
10
96.653201
20
-4.11476
30
0
11
-0.39944976744044
21
-0.0209733948558421
31
0
210
0
220
0
230
1
40
0.060965
41
0.880360888655661
42
1.56759533351589
0
ELLIPSE
5
13B
100
AcDbEntity
8
1
62
256
6
ByLayer
370
-1
48
1
60
0
100
AcDbEllipse
10
96.209805
20
0.610287
30
0
11
0.0201676425453919
21
-0.249185204605252
31
0
210
0
220
0
230
1
40
0.883139
41
2.33027371081699
42
2.73713007557794
0
ELLIPSE
5
13C
100
AcDbEntity
8
1
62
256
6
ByLayer
370
-1
48
1
60
0
100
AcDbEllipse
10
97.371604
20
-8.507112
30
0
11
0.0407786310637451
21
-0.246651785415324
31
0
210
0
220
0
230
1
40
0.718136
41
0.259521461126587
42
0.663282346836788
0
ELLIPSE
5
13D
100
AcDbEntity
8
1
62
256
6
ByLayer
370
-1
48
1
60
0
100
AcDbEllipse
10
100.094049
20
-4.034524
30
0
11
-2.74139023505778
21
2.77055603677081E-15
31
0
210
0
220
0
230
1
40
0.998135
41
0.0523598775598122
42
0.42847833136459
0
ELLIPSE
5
13E
100
AcDbEntity
8
1
62
256
6
ByLayer
370
-1
48
1
60
0
100
AcDbEllipse
10
96.960252
20
-1.140334
30
0
11
-0.249798405989015
21
0.0100377470254754
31
0
210
0
220
0
230
1
40
0.641378
41
-2.98655764043283
42
-2.64036488648923
0
ELLIPSE
5
13F
100
AcDbEntity
8
1
62
256
6
ByLayer
370
-1
48
1
60
0
100
AcDbEllipse
10
100.094049
20
-3.959188
30
0
11
3.4455691218058
21
0
31
0
210
0
220
0
230
1
40
0.998135
41
-3.08923277602997
42
-2.71311432222519
0
ELLIPSE
5
140
100
AcDbEntity
8
1
62
256
6
ByLayer
370
-1
48
1
60
0
100
AcDbEllipse
10
96.948616
20
-1.068468
30
0
11
-0.234464016242266
21
-0.0867561242077252
31
0
210
0
220
0
230
1
40
0.010828
41
-3.04049678127009
42
-2.76756120207458
0
ELLIPSE
5
141
100
AcDbEntity
8
1
62
256
6
ByLayer
370
-1
48
1
60
0
100
AcDbEllipse
10
96.271382
20
0.310825
30
0
11
0.600000000000008
21
0
31
0
210
0
220
0
230
1
40
0.998135
41
0.349065850398899
42
1.535889741755
0
ELLIPSE
5
142
100
AcDbEntity
8
1
62
256
6
ByLayer
370
-1
48
1
60
0
100
AcDbEllipse
10
96.45645
20
-5.832755
30
0
11
-0.249840320464324
21
0.00893388327011123
31
0
210
0
220
0
230
1
40
0.062811
41
-2.73802132925234
42
-2.47597552140492
0
ELLIPSE
5
143
100
AcDbEntity
8
1
62
256
6
ByLayer
370
-1
48
1
60
0
100
AcDbEllipse
10
97.323221
20
-8.264076
30
0
11
0.600000000000008
21
0
31
0
210
0
220
0
230
1
40
0.998135
41
-1.22173047639604
42
-0.0349065850399192
0
ELLIPSE
5
144
100
AcDbEntity
8
1
62
256
6
ByLayer
370
-1
48
1
60
0
100
AcDbEllipse
10
96.380313
20
-0.954762
30
0
11
-0.326839369832627
21
-0.230599276511034
31
0
210
0
220
0
230
1
40
0.049914
41
1.08731558825769
42
1.53559468457123
0
ELLIPSE
5
145
100
AcDbEntity
8
1
62
256
6
ByLayer
370
-1
48
1
60
0
100
AcDbEllipse
10
96.318389
20
-6.987491
30
0
11
-0.696455297444665
21
7.03864923716582E-16
31
0
210
0
220
0
230
1
40
0.998135
41
2.18435368326034
42
3.10668606854989
0
ELLIPSE
5
146
100
AcDbEntity
8
1
62
256
6
ByLayer
370
-1
48
1
60
0
100
AcDbEllipse
10
96.000853
20
-5.896719
30
0
11
-1.74124245780115
21
1.75976763222145E-15
31
0
210
0
220
0
230
1
40
0.998135
41
3.10668606854989
42
-2.71311432222524
0
ELLIPSE
5
147
100
AcDbEntity
8
1
62
256
6
ByLayer
370
-1
48
1
60
0
100
AcDbEllipse
10
96.719394
20
-7.531435
30
0
11
-0.230024413902902
21
0.327244203934351
31
0
210
0
220
0
230
1
40
0.035151
41
0.898438903777925
42
1.62076156591598
0
ELLIPSE
5
148
100
AcDbEntity
8
1
62
256
6
ByLayer
370
-1
48
1
60
0
100
AcDbEllipse
10
96.000853
20
-6.020749
30
0
11
2.00000000000001
21
0
31
0
210
0
220
0
230
1
40
0.998135
41
-0.0349065850399051
42
0.428478331364597
0
ELLIPSE
5
149
100
AcDbEntity
8
1
62
256
6
ByLayer
370
-1
48
1
60
0
100
AcDbEllipse
10
97.470185
20
-7.104834
30
0
11
0.249847137568551
21
-0.00874115832150585
31
0
210
0
220
0
230
1
40
0.061011
41
0.124307589058036
42
0.39692566111825
0
ELLIPSE
5
14A
100
AcDbEntity
8
1
62
256
6
ByLayer
370
-1
48
1
60
0
100
AcDbEllipse
10
97.573215
20
-8.152679
30
0
11
0.246207635299979
21
0.0433797224517663
31
0
210
0
220
0
230
1
40
0.848996
41
-0.917139554015293
42
-0.236406431610134
0
ELLIPSE
5
14B
100
AcDbEntity
8
1
62
256
6
ByLayer
370
-1
48
1
60
0
100
AcDbEllipse
10
92.501839
20
-4.293999
30
0
11
1.85
21
0
31
0
210
0
220
0
230
1
40
0.998135
41
1.09661201881274
42
2.69283583168232
0
ELLIPSE
5
14C
100
AcDbEntity
8
1
62
256
6
ByLayer
370
-1
48
1
60
0
100
AcDbEllipse
10
100.094049
20
-4.030514
30
0
11
2.75875754219888
21
0
31
0
210
0
220
0
230
1
40
0.998135
41
-3.08923277602996
42
-2.71311432222518
0
ELLIPSE
5
14D
100
AcDbEntity
8
1
62
256
6
ByLayer
370
-1
48
1
60
0
100
AcDbEllipse
10
96.506389
20
-1.318637
30
0
11
-0.39944976744044
21
-0.0209733948558421
31
0
210
0
220
0
230
1
40
0.060965
41
0.880370604324542
42
1.56759533351589
0
ELLIPSE
5
14E
100
AcDbEntity
8
1
62
256
6
ByLayer
370
-1
48
1
60
0
100
AcDbEllipse
10
96.549743
20
0.393923
30
0
11
-0.242830867590662
21
-0.059440472282498
31
0
210
0
220
0
230
1
40
0.750457
41
-2.98829975360063
42
-2.58453886789051
0
ELLIPSE
5
14F
100
AcDbEntity
8
1
62
256
6
ByLayer
370
-1
48
1
60
0
100
AcDbEllipse
10
97.510406
20
-5.955206
30
0
11
0.249847137568551
21
-0.00874115832150585
31
0
210
0
220
0
230
1
40
0.061011
41
0.124307589058274
42
0.396925661118433
0
ELLIPSE
5
150
100
AcDbEntity
8
1
62
256
6
ByLayer
370
-1
48
1
60
0
100
AcDbEllipse
10
95.810888
20
-1.379438
30
0
11
-0.696455297444664
21
7.03864923716581E-16
31
0
210
0
220
0
230
1
40
0.998135
41
-3.08923277602998
42
-2.52803529712435
0
ELLIPSE
5
151
100
AcDbEntity
8
1
62
256
6
ByLayer
370
-1
48
1
60
0
100
AcDbEllipse
10
96.318389
20
-6.987491
30
0
11
-0.896455297444665
21
9.05992734733055E-16
31
0
210
0
220
0
230
1
40
0.998135
41
2.18435368326036
42
3.10668606854989
0
ELLIPSE
5
152
100
AcDbEntity
8
1
62
256
6
ByLayer
370
-1
48
1
60
0
100
AcDbEllipse
10
96.000853
20
-5.825393
30
0
11
-1.05443087819422
21
1.06564902638787E-15
31
0
210
0
220
0
230
1
40
0.998135
41
3.10668606854988
42
-2.71311432222525
0
ELLIPSE
5
153
100
AcDbEntity
8
1
62
256
6
ByLayer
370
-1
48
1
60
0
100
AcDbEllipse
10
97.054641
20
-5.837704
30
0
11
-0.399755420109682
21
0.0139858533144093
31
0
210
0
220
0
230
1
40
0.061011
41
0.403526855955891
42
1.57293086821332
0
ELLIPSE
5
154
100
AcDbEntity
8
1
62
256
6
ByLayer
370
-1
48
1
60
0
100
AcDbEllipse
10
97.290795
20
-8.521509
30
0
11
0.0469907225759693
21
-0.245544032694318
31
0
210
0
220
0
230
1
40
0.666914
41
0.242018859204359
42
0.61509913411379
0
ELLIPSE
5
155
100
AcDbEntity
8
1
62
256
6
ByLayer
370
-1
48
1
60
0
100
AcDbEllipse
10
97.108619
20
-4.192552
30
0
11
-0.249656104650274
21
-0.0131083717849014
31
0
210
0
220
0
230
1
40
0.060965
41
-3.02262059922897
42
-2.75000252716883
0
ELLIPSE
5
156
100
AcDbEntity
8
1
62
256
6
ByLayer
370
-1
48
1
60
0
100
AcDbEllipse
10
92.501839
20
-4.287894
30
0
11
2.12320508075689
21
0
31
0
210
0
220
0
230
1
40
0.998135
41
1.56834173060227
42
2.22630921383066
0
ELLIPSE
5
157
100
AcDbEntity
8
1
62
256
6
ByLayer
370
-1
48
1
60
0
100
AcDbEllipse
10
96.846942
20
-0.74518
30
0
11
-0.241868899159971
21
-0.0632410912235391
31
0
210
0
220
0
230
1
40
0.700573
41
-2.9996924083658
42
-2.62661213345643
0
ELLIPSE
5
158
100
AcDbEntity
8
1
62
256
6
ByLayer
370
-1
48
1
60
0
100
AcDbEllipse
10
97.01442
20
-6.987332
30
0
11
-0.399755420109682
21
0.0139858533144093
31
0
210
0
220
0
230
1
40
0.061011
41
0.398898449093531
42
1.57293086821332
0
ELLIPSE
5
159
100
AcDbEntity
8
1
62
256
6
ByLayer
370
-1
48
1
60
0
100
AcDbEllipse
10
96.935823
20
-1.219472
30
0
11
0.500000000000016
21
0
31
0
210
0
220
0
230
1
40
0.998135
41
0.0523598775598178
42
0.349065850398887
0
ELLIPSE
5
15A
100
AcDbEntity
8
1
62
256
6
ByLayer
370
-1
48
1
60
0
100
AcDbEllipse
10
96.000853
20
-5.825393
30
0
11
-1.25443087819422
21
1.26777683740435E-15
31
0
210
0
220
0
230
1
40
0.998135
41
3.10668606854989
42
-2.71311432222524
0
ELLIPSE
5
15B
100
AcDbEntity
8
1
62
256
6
ByLayer
370
-1
48
1
60
0
100
AcDbEllipse
10
96.568945
20
0.318035
30
0
11
-0.241868899159971
21
-0.0632410912235391
31
0
210
0
220
0
230
1
40
0.700573
41
-2.99969240836584
42
-2.62661213345648
0
ELLIPSE
5
15C
100
AcDbEntity
8
1
62
256
6
ByLayer
370
-1
48
1
60
0
100
AcDbEllipse
10
96.961806
20
-1.396429
30
0
11
-0.249656104650274
21
-0.0131083717849014
31
0
210
0
220
0
230
1
40
0.060965
41
-3.02262059922926
42
-2.75000252716904
0
ELLIPSE
5
15D
100
AcDbEntity
8
1
62
256
6
ByLayer
370
-1
48
1
60
0
100
AcDbEllipse
10
100.094049
20
-3.959188
30
0
11
3.2455691218058
21
0
31
0
210
0
220
0
230
1
40
0.998135
41
-3.08923277602997
42
-2.71311432222519
0
ELLIPSE
5
15E
100
AcDbEntity
8
1
62
256
6
ByLayer
370
-1
48
1
60
0
100
AcDbEllipse
10
89.318137
20
8.87787
30
0
11
0.205016422911356
21
0.21901658918135
31
0
210
0
220
0
230
1
40
0.063742
41
-2.15470096795605
42
-1.54779877208525
0
ELLIPSE
5
15F
100
AcDbEntity
8
1
62
256
6
ByLayer
370
-1
48
1
60
0
100
AcDbEllipse
10
89.17184
20
14.900231
30
0
11
2.1086160161693E-16
21
0.18
31
0
210
0
220
0
230
1
40
0.996195
41
-0.750491578357536
42
1.83550459668071
0
ELLIPSE
5
160
100
AcDbEntity
8
1
62
256
6
ByLayer
370
-1
48
1
60
0
100
AcDbEllipse
10
88.999352
20
8.512193
30
0
11
2.1086160161693E-16
21
0.18
31
0
210
0
220
0
230
1
40
0.996195
41
-1.39399268715079
42
1.74759996643901
0
ELLIPSE
5
161
100
AcDbEntity
8
1
62
256
6
ByLayer
370
-1
48
1
60
0
100
AcDbEllipse
10
89.150922
20
14.900231
30
0
11
0.289625964928695
21
0.0782099765958423
31
0
210
0
220
0
230
1
40
0.022802
41
-2.13005594553378
42
-1.4865548367406
0
ELLIPSE
5
162
100
AcDbEntity
8
1
62
256
6
ByLayer
370
-1
48
1
60
0
100
AcDbEllipse
10
95.679508
20
10.957817
30
0
11
2.34290668463255E-16
21
0.2
31
0
210
0
220
0
230
1
40
0.996195
41
-1.53588974175497
42
1.39726929682705
0
ELLIPSE
5
163
100
AcDbEntity
8
1
62
256
6
ByLayer
370
-1
48
1
60
0
100
AcDbEllipse
10
95.625227
20
12.405428
30
0
11
-3.49849852638745E-16
21
-0.326392246597645
31
0
210
0
220
0
230
1
40
0.996195
41
-1.32745612674729
42
1.60570291183477
0
ELLIPSE
5
164
100
AcDbEntity
8
1
62
256
6
ByLayer
370
-1
48
1
60
0
100
AcDbEllipse
10
92.843269
20
15.009555
30
0
11
-3.49849852638746E-16
21
-0.326392246597646
31
0
210
0
220
0
230
1
40
0.996195
41
-3.10668606854987
42
-0.173527029967859
0
ELLIPSE
5
165
100
AcDbEntity
8
1
62
256
6
ByLayer
370
-1
48
1
60
0
100
AcDbEllipse
10
95.46583
20
10.992348
30
0
11
0.197018693541058
21
-0.0344039880736919
31
0
210
0
220
0
230
1
40
0.015048
41
1.48483394276055
42
2.16891517455752
0
ELLIPSE
5
166
100
AcDbEntity
8
1
62
256
6
ByLayer
370
-1
48
1
60
0
100
AcDbEllipse
10
95.418348
20
12.357239
30
0
11
0.194150530809912
21
0.0480163658165557
31
0
210
0
220
0
230
1
40
0.021
41
-2.17016962363693
42
-1.48608839184242
0
ELLIPSE
5
167
100
AcDbEntity
8
1
62
256
6
ByLayer
370
-1
48
1
60
0
100
AcDbEllipse
10
95.720442
20
15.010824
30
0
11
0.199879090035388
21
0.00695337088219777
31
0
210
0
220
0
230
1
40
0.003042
41
-1.48358275532875
42
-0.799501523536307
0
ELLIPSE
5
168
100
AcDbEntity
8
1
62
256
6
ByLayer
370
-1
48
1
60
0
100
AcDbEllipse
10
93.085291
20
8.165233
30
0
11
2.34290668463255E-16
21
0.2
31
0
210
0
220
0
230
1
40
0.996195
41
0.243340200047663
42
-3.10668606854993
0
ELLIPSE
5
169
100
AcDbEntity
8
1
62
256
6
ByLayer
370
-1
48
1
60
0
100
AcDbEllipse
10
89.490356
20
13.652712
30
0
11
0.205016422911356
21
0.21901658918135
31
0
210
0
220
0
230
1
40
0.063742
41
-2.1547009679558
42
-0.867698750369351
0
ELLIPSE
5
16A
100
AcDbEntity
8
1
62
256
6
ByLayer
370
-1
48
1
60
0
100
AcDbEllipse
10
89.318928
20
14.278072
30
0
11
0.289625964928695
21
0.0782099765958423
31
0
210
0
220
0
230
1
40
0.022802
41
-1.48655483674055
42
-0.843053727947324
0
ELLIPSE
5
16B
100
AcDbEntity
8
1
62
256
6
ByLayer
370
-1
48
1
60
0
100
AcDbEllipse
10
89.973267
20
14.150032
30
0
11
-1.92936487099227E-16
21
-0.18
31
0
210
0
220
0
230
1
40
0.996195
41
-0.75049157835755
42
2.39110107523225
0
ELLIPSE
5
16C
100
AcDbEntity
8
1
62
256
6
ByLayer
370
-1
48
1
60
0
100
AcDbEllipse
10
89.161196
20
8.975993
30
0
11
1.3823149439332E-15
21
1.18
31
0
210
0
220
0
230
1
40
0.996195
41
-2.421455326314
42
-2.22112048399089
0
ELLIPSE
5
16D
100
AcDbEntity
8
1
62
256
6
ByLayer
370
-1
48
1
60
0
100
AcDbEllipse
10
92.24519
20
11.562118
30
0
11
3.86579602964371E-15
21
3.3
31
0
210
0
220
0
230
1
40
0.996195
41
-1.32745612674727
42
-0.173527029967855
0
ELLIPSE
5
16E
100
AcDbEntity
8
1
62
256
6
ByLayer
370
-1
48
1
60
0
100
AcDbEllipse
10
89.557625
20
8.673271
30
0
11
-1.92936487099227E-16
21
-0.18
31
0
210
0
220
0
230
1
40
0.996195
41
-0.750491578357446
42
2.39110107523225
0
ELLIPSE
5
16F
100
AcDbEntity
8
1
62
256
6
ByLayer
370
-1
48
1
60
0
100
AcDbEllipse
10
89.797257
20
8.224278
30
0
11
-0.198272361006446
21
0.225140113842313
31
0
210
0
220
0
230
1
40
0.065516
41
-2.27193125321665
42
-0.98492903563109
0
ELLIPSE
5
170
100
AcDbEntity
8
1
62
256
6
ByLayer
370
-1
48
1
60
0
100
AcDbEllipse
10
89.318137
20
8.87787
30
0
11
-0.423200635101962
21
-0.0147783846825028
31
0
210
0
220
0
230
-1
40
0.002159
41
-2.27604469499448
42
-1.63254358591251
0
ELLIPSE
5
171
100
AcDbEntity
8
1
62
256
6
ByLayer
370
-1
48
1
60
0
100
AcDbEllipse
10
88.688928
20
14.40291
30
0
11
-0.970611796110076
21
0.497940610450624
31
0
210
0
220
0
230
-1
40
0.010943
41
1.59212368497216
42
2.23562479424169
0
ELLIPSE
5
172
100
AcDbEntity
8
1
62
256
6
ByLayer
370
-1
48
1
60
0
100
AcDbEllipse
10
92.430887
20
11.562118
30
0
11
-2.14373874554696E-15
21
-2
31
0
210
0
220
0
230
1
40
0.996195
41
3.09653044246734
42
0
0
ELLIPSE
5
173
100
AcDbEntity
8
1
62
256
6
ByLayer
370
-1
48
1
60
0
100
AcDbEllipse
10
92.430887
20
11.562118
30
0
11
-2.14373874554696E-15
21
-2
31
0
210
0
220
0
230
1
40
0.996195
41
0
42
0.0531124184876186
0
ELLIPSE
5
174
100
AcDbEntity
8
1
62
256
6
ByLayer
370
-1
48
1
60
0
100
AcDbEllipse
10
92.822807
20
15.209433
30
0
11
0.00700652876223089
21
-0.199877233707854
31
0
210
0
220
0
230
1
40
0.087103
41
1.56774302595899
42
2.25182425775535
0
ELLIPSE
5
175
100
AcDbEntity
8
1
62
256
6
ByLayer
370
-1
48
1
60
0
100
AcDbEllipse
10
93.081369
20
8.165233
30
0
11
-3.49849852638746E-16
21
-0.326392246597646
31
0
210
0
220
0
230
1
40
0.996195
41
-2.89825245354224
42
0.0349065850399636
0
ELLIPSE
5
176
100
AcDbEntity
8
1
62
256
6
ByLayer
370
-1
48
1
60
0
100
AcDbEllipse
10
88.709845
20
14.40291
30
0
11
2.1086160161693E-16
21
0.18
31
0
210
0
220
0
230
1
40
0.996195
41
-0.194895099805984
42
2.39110107523224
0
ELLIPSE
5
177
100
AcDbEntity
8
1
62
256
6
ByLayer
370
-1
48
1
60
0
100
AcDbEllipse
10
92.312559
20
11.562118
30
0
11
-2.71334196247261E-15
21
-2.53141103887668
31
0
210
0
220
0
230
1
40
0.996195
41
0
42
6.28318530717959
0
ELLIPSE
5
178
100
AcDbEntity
8
1
62
256
6
ByLayer
370
-1
48
1
60
0
100
AcDbEllipse
10
89.933137
20
8.370548
30
0
11
-0.239099387447144
21
0.181194599595022
31
0
210
0
220
0
230
1
40
0.052768
41
-2.28381636720093
42
-0.996814149613856
0
ELLIPSE
5
179
100
AcDbEntity
8
1
62
256
6
ByLayer
370
-1
48
1
60
0
100
AcDbEllipse
10
93.019854
20
8.35934
30
0
11
0.0483624820755146
21
-0.194064603489394
31
0
210
0
220
0
230
1
40
0.084588
41
1.54971942607875
42
2.23380065787354
0
ELLIPSE
5
17A
100
AcDbEntity
8
1
62
256
6
ByLayer
370
-1
48
1
60
0
100
AcDbEllipse
10
89.489685
20
8.600135
30
0
11
3.74865069541208E-16
21
0.32
31
0
210
0
220
0
230
1
40
0.996195
41
1.74759996643894
42
-2.42145532631397
0
ELLIPSE
5
17B
100
AcDbEntity
8
1
62
256
6
ByLayer
370
-1
48
1
60
0
100
AcDbEllipse
10
95.675586
20
10.957817
30
0
11
-3.49849852638745E-16
21
-0.326392246597645
31
0
210
0
220
0
230
1
40
0.996195
41
1.60570291183477
42
-1.74432335676277
0
ELLIPSE
5
17C
100
AcDbEntity
8
1
62
256
6
ByLayer
370
-1
48
1
60
0
100
AcDbEllipse
10
89.536708
20
8.673271
30
0
11
-0.205016422911355
21
-0.219016589181351
31
0
210
0
220
0
230
1
40
0.063742
41
0.986891685633957
42
2.27389390322088
0
ELLIPSE
5
17D
100
AcDbEntity
8
1
62
256
6
ByLayer
370
-1
48
1
60
0
100
AcDbEllipse
10
89.161196
20
8.975993
30
0
11
9.60591740699346E-16
21
0.82
31
0
210
0
220
0
230
1
40
0.996195
41
-2.42145532631402
42
-2.22112048399092
0
ELLIPSE
5
17E
100
AcDbEntity
8
1
62
256
6
ByLayer
370
-1
48
1
60
0
100
AcDbEllipse
10
89.511273
20
13.652712
30
0
11
-1.92936487099227E-16
21
-0.18
31
0
210
0
220
0
230
1
40
0.996195
41
-0.750491578357543
42
2.39110107523224
0
ELLIPSE
5
17F
100
AcDbEntity
8
1
62
256
6
ByLayer
370
-1
48
1
60
0
100
AcDbEllipse
10
89.557625
20
8.673271
30
0
11
-7.28871173485968E-16
21
-0.68
31
0
210
0
220
0
230
1
40
0.996195
41
0.920472169598897
42
3.03460218402551
0
ELLIPSE
5
180
100
AcDbEntity
8
1
62
256
6
ByLayer
370
-1
48
1
60
0
100
AcDbEllipse
10
89.95235
20
14.150032
30
0
11
0.205016422911356
21
0.21901658918135
31
0
210
0
220
0
230
1
40
0.063742
41
-2.15470096795567
42
-0.867698750368954
0
ELLIPSE
5
181
100
AcDbEntity
8
1
62
256
6
ByLayer
370
-1
48
1
60
0
100
AcDbEllipse
10
95.411335
20
15.300171
30
0
11
-0.00700652876222967
21
0.199877233707854
31
0
210
0
220
0
230
1
40
0.087103
41
-1.5738496276308
42
-0.889768395834446
0
ELLIPSE
5
182
100
AcDbEntity
8
1
62
256
6
ByLayer
370
-1
48
1
60
0
100
AcDbEllipse
10
95.629149
20
12.405428
30
0
11
-2.14373874554696E-16
21
-0.2
31
0
210
0
220
0
230
1
40
0.996195
41
-1.32745612674723
42
1.60570291183482
0
ELLIPSE
5
183
100
AcDbEntity
8
1
62
256
6
ByLayer
370
-1
48
1
60
0
100
AcDbEllipse
10
89.589898
20
9.170412
30
0
11
-0.0321569088447815
21
-0.298271576274958
31
0
210
0
220
0
230
1
40
0.086657
41
1.58013866027564
42
2.2236397690688
0
ELLIPSE
5
184
100
AcDbEntity
8
1
62
256
6
ByLayer
370
-1
48
1
60
0
100
AcDbEllipse
10
92.79536
20
14.812558
30
0
11
0.0346594459730841
21
0.19697391402122
31
0
210
0
220
0
230
1
40
0.085847
41
-2.23977313548269
42
-1.5556919036868
0
ELLIPSE
5
185
100
AcDbEntity
8
1
62
256
6
ByLayer
370
-1
48
1
60
0
100
AcDbEllipse
10
95.439196
20
15.000354
30
0
11
-3.21560811832045E-16
21
-0.3
31
0
210
0
220
0
230
1
40
0.996195
41
1.60570291183477
42
-3.10668606854993
0
ELLIPSE
5
186
100
AcDbEntity
8
1
62
256
6
ByLayer
370
-1
48
1
60
0
100
AcDbEllipse
10
92.241268
20
11.562118
30
0
11
3.16169255543626E-15
21
2.69894876836046
31
0
210
0
220
0
230
1
40
0.996195
41
0
42
6.28318530717959
0
ELLIPSE
5
187
100
AcDbEntity
8
1
62
256
6
ByLayer
370
-1
48
1
60
0
100
AcDbEllipse
10
95.663341
20
8.056093
30
0
11
0.00700652876223089
21
-0.199877233707854
31
0
210
0
220
0
230
1
40
0.087103
41
0.883661794162903
42
1.56774302595899
0
ELLIPSE
5
188
100
AcDbEntity
8
1
62
256
6
ByLayer
370
-1
48
1
60
0
100
AcDbEllipse
10
89.318928
20
14.278072
30
0
11
-0.415037230590094
21
0.387683427845137
31
0
210
0
220
0
230
-1
40
0.031444
41
0.960945087897724
42
1.60444619633734
0
ELLIPSE
5
189
100
AcDbEntity
8
1
62
256
6
ByLayer
370
-1
48
1
60
0
100
AcDbEllipse
10
89.310679
20
8.869842
30
0
11
-0.219647545956874
21
0.204045230606606
31
0
210
0
220
0
230
1
40
0.05944
41
-1.63469437803417
42
-0.992087287820035
0
ELLIPSE
5
18A
100
AcDbEntity
8
1
62
256
6
ByLayer
370
-1
48
1
60
0
100
AcDbEllipse
10
92.550671
20
11.562118
30
0
11
2.34290668463255E-15
21
2
31
0
210
0
220
0
230
1
40
0.996195
41
0.0301394508327505
42
1.57079604872776
0
ELLIPSE
5
18B
100
AcDbEntity
8
1
62
256
6
ByLayer
370
-1
48
1
60
0
100
AcDbEllipse
10
92.550671
20
11.562118
30
0
11
2.34290668463255E-15
21
2
31
0
210
0
220
0
230
1
40
0.996195
41
1.57079654872776
42
3.11145314640854
0
ELLIPSE
5
18C
100
AcDbEntity
8
1
62
256
6
ByLayer
370
-1
48
1
60
0
100
AcDbEllipse
10
92.241268
20
11.562118
30
0
11
3.71773340992403E-15
21
3.17360775340235
31
0
210
0
220
0
230
1
40
0.996195
41
-1.32745612674727
42
-0.173527029967849
0
ELLIPSE
5
18D
100
AcDbEntity
8
1
62
256
6
ByLayer
370
-1
48
1
60
0
100
AcDbEllipse
10
92.24519
20
11.562118
30
0
11
-3.53716893015249E-15
21
-3.3
31
0
210
0
220
0
230
1
40
0.996195
41
0.243340200047628
42
1.39726929682704
0
ELLIPSE
5
18E
100
AcDbEntity
8
1
62
256
6
ByLayer
370
-1
48
1
60
0
100
AcDbEllipse
10
88.978435
20
8.512193
30
0
11
0.295357977434014
21
0.052570573195355
31
0
210
0
220
0
230
1
40
0.015329
41
-2.12838464107872
42
-0.841382423491877
0
ELLIPSE
5
18F
100
AcDbEntity
8
1
62
256
6
ByLayer
370
-1
48
1
60
0
100
AcDbEllipse
10
89.318928
20
14.278072
30
0
11
0.0583126460802219
21
0.294278159752168
31
0
210
0
220
0
230
1
40
0.085506
41
-2.19735568521894
42
-1.55385457642577
0
ELLIPSE
5
190
100
AcDbEntity
8
1
62
256
6
ByLayer
370
-1
48
1
60
0
100
AcDbEllipse
10
95.951588
20
8.36638
30
0
11
0.199879090035388
21
0.00695337088219777
31
0
210
0
220
0
230
1
40
0.003042
41
-1.48358275532882
42
-0.799501523532591
0
ELLIPSE
5
191
100
AcDbEntity
8
1
62
256
6
ByLayer
370
-1
48
1
60
0
100
AcDbEllipse
10
89.150922
20
14.900231
30
0
11
-0.56291243778455
21
0.936794971992648
31
0
210
0
220
0
230
-1
40
0.020508
41
1.58311883861864
42
2.22661994676098
0
ELLIPSE
5
192
100
AcDbEntity
8
1
62
256
6
ByLayer
370
-1
48
1
60
0
100
AcDbEllipse
10
89.150922
20
14.900231
30
0
11
0.205016422911356
21
0.21901658918135
31
0
210
0
220
0
230
1
40
0.063742
41
-1.51119985916241
42
-0.867698750369652
0
ELLIPSE
5
193
100
AcDbEntity
8
1
62
256
6
ByLayer
370
-1
48
1
60
0
100
AcDbEllipse
10
92.241268
20
11.562118
30
0
11
3.71773340992403E-15
21
3.17360775340235
31
0
210
0
220
0
230
1
40
0.996195
41
-2.89825245354216
42
-1.74432335676274
0
ELLIPSE
5
194
100
AcDbEntity
8
1
62
256
6
ByLayer
370
-1
48
1
60
0
100
AcDbEllipse
10
95.435274
20
15.000354
30
0
11
-4.57036789916095E-16
21
-0.426392246597646
31
0
210
0
220
0
230
1
40
0.996195
41
1.60570291183478
42
-3.10668606854992
0
ELLIPSE
5
195
100
AcDbEntity
8
1
62
256
6
ByLayer
370
-1
48
1
60
0
100
AcDbEllipse
10
89.589898
20
9.170412
30
0
11
0.219794734898739
21
-0.204181964215239
31
0
210
0
220
0
230
1
40
0.05944
41
1.50689827555573
42
2.15039938434865
0
ELLIPSE
5
196
100
AcDbEntity
8
1
62
256
6
ByLayer
370
-1
48
1
60
0
100
AcDbEllipse
10
95.810835
20
12.412408
30
0
11
0.199879090035388
21
0.00695337088219777
31
0
210
0
220
0
230
1
40
0.003042
41
-1.48358275532889
42
-0.799501523532591
0
ELLIPSE
5
197
100
AcDbEntity
8
1
62
256
6
ByLayer
370
-1
48
1
60
0
100
AcDbEllipse
10
92.286017
20
11.562118
30
0
11
-2.85443725674398E-15
21
-2.66304582372577
31
0
210
0
220
0
230
1
40
0.996195
41
2.21550992406688
42
0
0
ELLIPSE
5
198
100
AcDbEntity
8
1
62
256
6
ByLayer
370
-1
48
1
60
0
100
AcDbEllipse
10
92.286017
20
11.562118
30
0
11
-2.85443725674398E-15
21
-2.66304582372577
31
0
210
0
220
0
230
1
40
0.996195
41
0
42
0.926082659473384
0
ELLIPSE
5
199
100
AcDbEntity
8
1
62
256
6
ByLayer
370
-1
48
1
60
0
100
AcDbEllipse
10
89.318137
20
8.87787
30
0
11
-0.014806245652111
21
0.423999017735384
31
0
210
0
220
0
230
-1
40
0.06159
41
1.57294642163551
42
1.60954581944646
0
ELLIPSE
5
19A
100
AcDbEntity
8
1
62
256
6
ByLayer
370
-1
48
1
60
0
100
AcDbEllipse
10
88.688928
20
14.40291
30
0
11
0.205016422911356
21
0.21901658918135
31
0
210
0
220
0
230
1
40
0.063742
41
-2.1547009679552
42
-1.51119985916241
0
ELLIPSE
5
19B
100
AcDbEntity
8
1
62
256
6
ByLayer
370
-1
48
1
60
0
100
AcDbEllipse
10
89.339054
20
8.87787
30
0
11
2.1086160161693E-16
21
0.18
31
0
210
0
220
0
230
1
40
0.996195
41
0.881327184779114
42
2.39110107523225
0
ELLIPSE
5
19C
100
AcDbEntity
8
1
62
256
6
ByLayer
370
-1
48
1
60
0
100
AcDbEllipse
10
89.557625
20
8.673271
30
0
11
-3.42998199287514E-16
21
-0.32
31
0
210
0
220
0
230
1
40
0.996195
41
0.92047216959887
42
2.77549784972784
0
ELLIPSE
5
19D
100
AcDbEntity
8
1
62
256
6
ByLayer
370
-1
48
1
60
0
100
AcDbEllipse
10
88.688928
20
14.40291
30
0
11
0.0583126460802219
21
0.294278159752168
31
0
210
0
220
0
230
1
40
0.085506
41
-1.55385457642577
42
-0.910353467633023
0
ELLIPSE
5
19E
100
AcDbEntity
8
1
62
256
6
ByLayer
370
-1
48
1
60
0
100
AcDbEllipse
10
89.610815
20
9.170412
30
0
11
2.1086160161693E-16
21
0.18
31
0
210
0
220
0
230
1
40
0.996195
41
-0.106990469564289
42
0.820304748434668
0
ELLIPSE
5
19F
100
AcDbEntity
8
1
62
256
6
ByLayer
370
-1
48
1
60
0
100
AcDbEllipse
10
89.339846
20
14.278072
30
0
11
-1.92936487099227E-16
21
-0.18
31
0
210
0
220
0
230
1
40
0.996195
41
-0.194895099806061
42
1.83550459668071
0
ELLIPSE
5
1A0
100
AcDbEntity
8
1
62
256
6
ByLayer
370
-1
48
1
60
0
100
AcDbEllipse
10
95.670343
20
8.355911
30
0
11
3.51436002694883E-16
21
0.3
31
0
210
0
220
0
230
1
40
0.996195
41
-3.10668606854988
42
-1.53588974175502
0
ELLIPSE
5
1A1
100
AcDbEntity
8
1
62
256
6
ByLayer
370
-1
48
1
60
0
100
AcDbEllipse
10
95.861194
20
10.964797
30
0
11
0.199879090035388
21
0.00695337088219777
31
0
210
0
220
0
230
1
40
0.003042
41
-1.48358275532896
42
-0.799501523532591
0
ELLIPSE
5
1A2
100
AcDbEntity
8
1
62
256
6
ByLayer
370
-1
48
1
60
0
100
AcDbEllipse
10
93.074813
20
7.965355
30
0
11
-0.00700652876222967
21
0.199877233707854
31
0
210
0
220
0
230
1
40
0.087103
41
-2.25793085942692
42
-1.5738496276308
0
ELLIPSE
5
1A3
100
AcDbEntity
8
1
62
256
6
ByLayer
370
-1
48
1
60
0
100
AcDbEllipse
10
92.847191
20
15.009555
30
0
11
-2.14373874554696E-16
21
-0.2
31
0
210
0
220
0
230
1
40
0.996195
41
-3.10668606854993
42
-0.173527029967774
0
ELLIPSE
5
1A4
100
AcDbEntity
8
1
62
256
6
ByLayer
370
-1
48
1
60
0
100
AcDbEllipse
10
95.666421
20
8.355911
30
0
11
-4.57036789916095E-16
21
-0.426392246597646
31
0
210
0
220
0
230
1
40
0.996195
41
0.0349065850399055
42
1.60570291183478
0
ELLIPSE
5
1A5
100
AcDbEntity
8
1
62
256
6
ByLayer
370
-1
48
1
60
0
100
AcDbEllipse
10
89.489685
20
8.600135
30
0
11
7.96588272775067E-16
21
0.68
31
0
210
0
220
0
230
1
40
0.996195
41
1.74759996643895
42
-2.421455326314
0
ELLIPSE
5
1A6
100
AcDbEntity
8
1
62
256
6
ByLayer
370
-1
48
1
60
0
100
AcDbEllipse
10
89.310679
20
8.869842
30
0
11
0.219794734898739
21
-0.204181964215239
31
0
210
0
220
0
230
1
40
0.05944
41
1.47029936263278
42
2.15039938434908
0
POINT
5
41
100
AcDbEntity
8
81
62
256
6
ByLayer
370
-1
48
1
60
0
100
AcDbPoint
10
98
20
0
30
0
39
0
210
0
220
0
230
1
50
360
0
POINT
5
43
100
AcDbEntity
8
80
62
256
6
ByLayer
370
-1
48
1
60
0
100
AcDbPoint
10
0
20
0
30
0
39
0
210
0
220
0
230
1
50
360
0
SPLINE
5
1A7
100
AcDbEntity
8
1
62
256
6
ByLayer
370
-1
48
1
60
0
100
AcDbSpline
70
4
71
3
72
22
73
18
40
0
40
0
40
0
40
0
40
0.0685258051363234
40
0.137844346448236
40
0.207070023626668
40
0.276154960780616
40
0.345078477059915
40
0.413848577453282
40
0.482498515129194
40
0.551079961994356
40
0.61964979503723
40
0.688255079381931
40
0.756953914136092
40
0.825790465221871
40
0.894787126098305
40
0.963939122780589
40
1
40
1
40
1
40
1
41
1
10
92.5200140769052
20
13.5596514112762
30
0
41
1
10
92.6592415433879
20
13.5532761335007
30
0
41
1
10
92.9313342761078
20
13.5126431788891
30
0
41
1
10
93.3239429101583
20
13.3648143536404
30
0
41
1
10
93.6773741869542
20
13.1374277188721
30
0
41
1
10
93.9761983766931
20
12.840622422122
30
0
41
1
10
94.2067678581881
20
12.4877960306977
30
0
41
1
10
94.3591853587715
20
12.0945923760883
30
0
41
1
10
94.426921032735
20
11.6783868903212
30
0
41
1
10
94.407234200421
20
11.2574225654288
30
0
41
1
10
94.3011763120501
20
10.8500870861212
30
0
41
1
10
94.1135137737452
20
10.4739829906932
30
0
41
1
10
93.8524656894344
20
10.1456376159102
30
0
41
1
10
93.529290169146
20
9.87823473851032
30
0
41
1
10
93.1579343015666
20
9.68721593636931
30
0
41
1
10
92.8188839826121
20
9.58618360604368
30
0
41
1
10
92.6089355900888
20
9.57497062841705
30
0
41
1
10
92.5360423889481
20
9.57593795518008
30
0
0
SPLINE
5
1A8
100
AcDbEntity
8
1
62
256
6
ByLayer
370
-1
48
1
60
0
100
AcDbSpline
70
4
71
3
72
8
73
4
40
0
40
0
40
0
40
0
40
1
40
1
40
1
40
1
41
1
10
92.339695209345
20
-2.52519685187994
30
0
41
1
10
92.3612960191055
20
-2.52330771748856
30
0
41
1
10
92.3829682001378
20
-2.5217904675423
30
0
41
1
10
92.404725634641
20
-2.52064165774985
30
0
0
SPLINE
5
1A9
100
AcDbEntity
8
1
62
256
6
ByLayer
370
-1
48
1
60
0
100
AcDbSpline
70
4
71
3
72
11
73
7
40
0
40
0
40
0
40
0
40
0.126859990034156
40
0.514832663910906
40
0.903601581676184
40
1
40
1
40
1
40
1
41
1
10
92.404725634641
20
-2.52064165774985
30
0
41
1
10
92.4485512339904
20
-2.51835742265936
30
0
41
1
10
92.6258097747623
20
-2.51532166659456
30
0
41
1
10
92.9379187045387
20
-2.55493964884482
30
0
41
1
10
93.2231348595526
20
-2.65691442629054
30
0
41
1
10
93.3716024047395
20
-2.73391907616426
30
0
41
1
10
93.4006627721174
20
-2.74999544609273
30
0
0
SPLINE
5
1AA
100
AcDbEntity
8
1
62
256
6
ByLayer
370
-1
48
1
60
0
100
AcDbSpline
70
4
71
3
72
18
73
14
40
0
40
0
40
0
40
0
40
0.0794581130961017
40
0.160407113578847
40
0.241962594016331
40
0.32319977995227
40
0.403215192356611
40
0.483074804402109
40
0.562723914184844
40
0.671547862571784
40
0.780322709616793
40
0.889639552440299
40
1
40
1
40
1
40
1
41
1
10
25
20
16.4
30
0
41
1
10
24.4061054435165
20
16.4004748439462
30
0
41
1
10
23.2221062915262
20
16.4876729679463
30
0
41
1
10
21.4632281632827
20
16.8852295560848
30
0
41
1
10
19.7749838669454
20
17.54681348248
30
0
41
1
10
18.2099222619673
20
18.4505062678161
30
0
41
1
10
16.8100302638622
20
19.5730946158957
30
0
41
1
10
15.5891670733711
20
20.8673557132657
30
0
41
1
10
14.0069316822168
20
22.0843371573341
30
0
41
1
10
12.0990959453327
20
23.2030994568398
30
0
41
1
10
9.83351001784044
20
24.089612449004
30
0
41
1
10
7.44644623143324
20
24.6297262216179
30
0
41
1
10
5.82502085232954
20
24.7499946290064
30
0
41
1
10
5.00000000000003
20
24.75
30
0
0
SPLINE
5
1AB
100
AcDbEntity
8
1
62
256
6
ByLayer
370
-1
48
1
60
0
100
AcDbSpline
70
4
71
3
72
18
73
14
40
0
40
0
40
0
40
0
40
0.0937442314700363
40
0.186684043693464
40
0.279120162317218
40
0.371384104415321
40
0.463881569443421
40
0.557133125912082
40
0.644661826668582
40
0.733637838346775
40
0.823331781458173
40
0.912515023991618
40
1
40
1
40
1
40
1
41
1
10
4.99999999999997
20
-24.75
30
0
41
1
10
5.69915900177185
20
-24.7500470941922
30
0
41
1
10
7.07875030036837
20
-24.6632095169212
30
0
41
1
10
9.11874461090426
20
-24.2736282730756
30
0
41
1
10
11.080339693973
20
-23.6322626242289
30
0
41
1
10
12.9382680764772
20
-22.7421970728851
30
0
41
1
10
14.67717005189
20
-21.6201851069863
30
0
41
1
10
16.1885300160955
20
-20.266086182363
30
0
41
1
10
17.6119279141325
20
-18.8543612482448
30
0
41
1
10
19.2897415009636
20
-17.7882533433129
30
0
41
1
10
21.1133532692775
20
-16.9871715666767
30
0
41
1
10
23.0424656703398
20
-16.5065593199934
30
0
41
1
10
24.3450054884274
20
-16.4006979708448
30
0
41
1
10
25
20
-16.4
30
0
0
SPLINE
5
1AC
100
AcDbEntity
8
1
62
256
6
ByLayer
370
-1
48
1
60
0
100
AcDbSpline
70
4
71
3
72
14
73
10
40
0
40
0
40
0
40
0
40
0.0148352406566476
40
0.0390776615035273
40
0.233017028278564
40
0.620895761828639
40
0.814835128603676
40
0.911804811991195
40
1
40
1
40
1
40
1
41
1
10
88.1656800598197
20
15.5506769428572
30
0
41
1
10
88.1657003596522
20
15.551479592279
30
0
41
1
10
88.165757703254
20
15.5535707670887
30
0
41
1
10
88.1660839731203
20
15.5661318595782
30
0
41
1
10
88.1669453810263
20
15.5987254048643
30
0
41
1
10
88.1680407261017
20
15.6404886150668
30
0
41
1
10
88.1689995678013
20
15.6770294330885
30
0
41
1
10
88.1695380104842
20
15.6974191574452
30
0
41
1
10
88.1698009785737
20
15.7073782140072
30
0
41
1
10
88.1699234535896
20
15.7121391537924
30
0
0
SPLINE
5
1AD
100
AcDbEntity
8
1
62
256
6
ByLayer
370
-1
48
1
60
0
100
AcDbSpline
70
4
71
3
72
16
73
12
40
0
40
0
40
0
40
0
40
0.125000000000002
40
0.125000000000002
40
0.250000000000004
40
0.250000000000004
40
0.500000000000002
40
0.500000000000002
40
0.750000000000001
40
0.750000000000001
40
1
40
1
40
1
40
1
41
1
10
78.2247870666991
20
8.67695401437419
30
0
41
1
10
77.9076304972505
20
8.74071341765213
30
0
41
1
10
77.5975577525152
20
8.81778726914783
30
0
41
1
10
76.9870344860768
20
8.99053807242188
30
0
41
1
10
76.6865419716688
20
9.08615030379357
30
0
41
1
10
75.7940763078268
20
9.39164908842895
30
0
41
1
10
75.2113110500297
20
9.62071378140175
30
0
41
1
10
74.0525643245009
20
10.0993252367575
30
0
41
1
10
73.4765274103595
20
10.3487526902698
30
0
41
1
10
72.3193105905335
20
10.844268069773
30
0
41
1
10
71.7379757938563
20
11.0899052311734
30
0
41
1
10
71.1516134262602
20
11.3274549710353
30
0
0
SPLINE
5
1AE
100
AcDbEntity
8
1
62
256
6
ByLayer
370
-1
48
1
60
0
100
AcDbSpline
70
4
71
3
72
10
73
6
40
0
40
0
40
0
40
0
40
0.5
40
0.5
40
1
40
1
40
1
40
1
41
1
10
84.9981313612159
20
5.68795698563522
30
0
41
1
10
85.2727624711185
20
5.64520029959053
30
0
41
1
10
85.5469393131074
20
5.60802610632854
30
0
41
1
10
86.0803483281981
20
5.54467930506556
30
0
41
1
10
86.3406288362185
20
5.51831517290273
30
0
41
1
10
86.5936503830159
20
5.4957389124711
30
0
0
SPLINE
5
1AF
100
AcDbEntity
8
1
62
256
6
ByLayer
370
-1
48
1
60
0
100
AcDbSpline
70
4
71
3
72
34
73
30
40
0
40
0
40
0
40
0
40
0.125000000000002
40
0.125000000000002
40
0.187500000000003
40
0.187500000000003
40
0.218750000000003
40
0.218750000000003
40
0.250000000000003
40
0.250000000000003
40
0.312500000000003
40
0.312500000000003
40
0.343750000000004
40
0.343750000000004
40
0.375000000000004
40
0.375000000000004
40
0.437500000000003
40
0.437500000000003
40
0.468750000000003
40
0.468750000000003
40
0.500000000000002
40
0.500000000000002
40
0.625000000000002
40
0.625000000000002
40
0.687500000000002
40
0.687500000000002
40
0.750000000000002
40
0.750000000000002
40
1
40
1
40
1
40
1
41
1
10
14.284178376558
20
-20.016515859612
30
0
41
1
10
14.4025191347726
20
-20.1007520678256
30
0
41
1
10
14.5398323044748
20
-20.1534271808455
30
0
41
1
10
14.7810946272285
20
-20.177058951149
30
0
41
1
10
14.8674259156196
20
-20.1756466124704
30
0
41
1
10
15.007058260047
20
-20.1577477924489
30
0
41
1
10
15.0553760716085
20
-20.1491082947204
30
0
41
1
10
15.154273075016
20
-20.1265193850061
30
0
41
1
10
15.2049950753712
20
-20.1125599619682
30
0
41
1
10
15.3610508783951
20
-20.0624981576446
30
0
41
1
10
15.4702692935155
20
-20.0182392527505
30
0
41
1
10
15.6422287539012
20
-19.9343347092884
30
0
41
1
10
15.7009050983704
20
-19.9034408150428
30
0
41
1
10
15.8210478631838
20
-19.8355144931923
30
0
41
1
10
15.8827128981092
20
-19.7983397709373
30
0
41
1
10
16.0689358502097
20
-19.6791415012578
30
0
41
1
10
16.1955065200969
20
-19.5890771206168
30
0
41
1
10
16.3884993892621
20
-19.4382843032872
30
0
41
1
10
16.4533870954536
20
-19.3856522694856
30
0
41
1
10
16.5851375147482
20
-19.281555558867
30
0
41
1
10
16.6519484831081
20
-19.2297281430923
30
0
41
1
10
16.9907038478614
20
-18.9718838415656
30
0
41
1
10
17.27670946477
20
-18.7697681196794
30
0
41
1
10
17.7291089185135
20
-18.4760573229564
30
0
41
1
10
17.8835274934342
20
-18.3799302111405
30
0
41
1
10
18.1978823880266
20
-18.1927264959131
30
0
41
1
10
18.3580690077513
20
-18.1014848242524
30
0
41
1
10
19.1741477451986
20
-17.6580084537187
30
0
41
1
10
19.8749178533717
20
-17.3435478528275
30
0
41
1
10
20.6290778669372
20
-17.0836658369298
30
0
0
SPLINE
5
1B0
100
AcDbEntity
8
1
62
256
6
ByLayer
370
-1
48
1
60
0
100
AcDbSpline
70
4
71
3
72
22
73
18
40
0
40
0
40
0
40
0
40
0.0978468732112209
40
0.0978468732112209
40
0.248205727676017
40
0.248205727676017
40
0.323385154908416
40
0.323385154908416
40
0.398564582140814
40
0.398564582140814
40
0.54892343660561
40
0.54892343660561
40
0.624102863838008
40
0.624102863838008
40
0.699282291070407
40
0.699282291070407
40
1
40
1
40
1
40
1
41
1
10
31.4367399919104
20
16.3998923334484
30
0
41
1
10
32.4707594964132
20
16.3999262005586
30
0
41
1
10
33.5047387128837
20
16.383746354732
30
0
41
1
10
36.1288055842367
20
16.301656488654
30
0
41
1
10
37.7195077394693
20
16.213880960909
30
0
41
1
10
40.1094976248237
20
16.0262018065639
30
0
41
1
10
40.9069279414932
20
15.9542872799929
30
0
41
1
10
42.5003981463467
20
15.7923066351526
30
0
41
1
10
43.2968015134531
20
15.7022110646173
30
0
41
1
10
45.6855164794902
20
15.4050845708544
30
0
41
1
10
47.2773646911954
20
15.1712083416015
30
0
41
1
10
49.6666913857254
20
14.7692876047193
30
0
41
1
10
50.4633930728878
20
14.6268023229535
30
0
41
1
10
52.0577266470807
20
14.3253007263037
30
0
41
1
10
52.8556772159297
20
14.1662170060099
30
0
41
1
10
56.8446286632074
20
13.3316489863521
30
0
41
1
10
60.0303546868216
20
12.5398332484879
30
0
41
1
10
63.2216268661675
20
11.6431537157312
30
0
0
SPLINE
5
1B1
100
AcDbEntity
8
1
62
256
6
ByLayer
370
-1
48
1
60
0
100
AcDbSpline
70
4
71
3
72
14
73
10
40
0
40
0
40
0
40
0
40
0.0649585527665121
40
0.0649585527665121
40
0.376639035177675
40
0.376639035177675
40
0.688319517588837
40
0.688319517588837
40
1
40
1
40
1
40
1
41
1
10
96.1073473860706
20
6.35969760200734
30
0
41
1
10
96.1067393481614
20
6.35289709671434
30
0
41
1
10
96.1061133174825
20
6.34628485525494
30
0
41
1
10
96.1023901468502
20
6.30902854323207
30
0
41
1
10
96.098883482447
20
6.28227841380911
30
0
41
1
10
96.0915094642271
20
6.23948526323548
30
0
41
1
10
96.087646474572
20
6.22328637850251
30
0
41
1
10
96.0796818082089
20
6.20129145388293
30
0
41
1
10
96.0755771471926
20
6.19560926872174
30
0
41
1
10
96.0715248641927
20
6.19557232969467
30
0
0
SPLINE
5
1B2
100
AcDbEntity
8
1
62
256
6
ByLayer
370
-1
48
1
60
0
100
AcDbSpline
70
4
71
4
72
10
73
5
40
0
40
0
40
0
40
0
40
0
40
1
40
1
40
1
40
1
40
1
41
0.980797332422098
10
77.3350921867229
20
5.19990727351984
30
0
41
0.977520044019889
10
77.6292740928854
20
5.84193816704759
30
0
41
0.977151513387023
10
77.8885715480068
20
6.67176267090108
30
0
41
0.981371959306715
10
78.0883394686407
20
7.64856546567219
30
0
41
0.98681424485338
10
78.2247870666919
20
8.67695401432015
30
0
0
SPLINE
5
1B3
100
AcDbEntity
8
1
62
256
6
ByLayer
370
-1
48
1
60
0
100
AcDbSpline
70
4
71
3
72
62
73
58
40
0
40
0
40
0
40
0
40
0.0625000000000007
40
0.0625000000000007
40
0.125000000000001
40
0.125000000000001
40
0.140625000000001
40
0.140625000000001
40
0.156250000000002
40
0.156250000000002
40
0.187500000000002
40
0.187500000000002
40
0.250000000000001
40
0.250000000000001
40
0.265625000000001
40
0.265625000000001
40
0.281250000000001
40
0.281250000000001
40
0.312500000000001
40
0.312500000000001
40
0.375000000000001
40
0.375000000000001
40
0.390625000000001
40
0.390625000000001
40
0.406250000000001
40
0.406250000000001
40
0.437500000000001
40
0.437500000000001
40
0.500000000000001
40
0.500000000000001
40
0.531250000000001
40
0.531250000000001
40
0.562500000000001
40
0.562500000000001
40
0.625000000000001
40
0.625000000000001
40
0.656250000000001
40
0.656250000000001
40
0.687500000000001
40
0.687500000000001
40
0.718750000000001
40
0.718750000000001
40
0.734375000000001
40
0.734375000000001
40
0.750000000000001
40
0.750000000000001
40
0.812500000000001
40
0.812500000000001
40
0.843750000000001
40
0.843750000000001
40
0.875
40
0.875
40
0.9375
40
0.9375
40
0.96875
40
0.96875
40
1
40
1
40
1
40
1
41
1
10
15.4136435671
20
0.33383909958178
30
0
41
1
10
15.0735511142229
20
0.397825801340275
30
0
41
1
10
14.7218399914817
20
0.442110732960515
30
0
41
1
10
13.9958734101542
20
0.485004683887212
30
0
41
1
10
13.6216269219118
20
0.483668911118201
30
0
41
1
10
13.1396467310128
20
0.448050195924509
30
0
41
1
10
13.0425395986906
20
0.439220366159702
30
0
41
1
10
12.8468898353873
20
0.417971599346771
30
0
41
1
10
12.7481442537737
20
0.405519613951014
30
0
41
1
10
12.4519250973292
20
0.362822286422897
30
0
41
1
10
12.2541302305456
20
0.327235343025905
30
0
41
1
10
11.6602636616707
20
0.198235423293056
30
0
41
1
10
11.2637046302799
20
0.0827268165436124
30
0
41
1
10
10.7687374134878
20
-0.103190440538043
30
0
41
1
10
10.6697809504559
20
-0.14246171619962
30
0
41
1
10
10.4719831921748
20
-0.225347476176069
30
0
41
1
10
10.3728798423792
20
-0.26908782251337
30
0
41
1
10
10.0782085236089
20
-0.405974868566375
30
0
41
1
10
9.88521543432816
20
-0.504743884527613
30
0
41
1
10
9.31693179318566
20
-0.823752565273793
30
0
41
1
10
8.95226516042516
20
-1.06654128592422
30
0
41
1
10
8.51617880381622
20
-1.41028120134351
30
0
41
1
10
8.42995451525348
20
-1.48105393150888
30
0
41
1
10
8.2595675438042
20
-1.62676706388328
30
0
41
1
10
8.17519172423852
20
-1.70190769693204
30
0
41
1
10
7.92688420568302
20
-1.93230273448708
30
0
41
1
10
7.76850322598571
20
-2.0917619295912
30
0
41
1
10
7.31449341066528
20
-2.58744213626682
30
0
41
1
10
7.03985127916084
20
-2.94084570503983
30
0
41
1
10
6.6711961450645
20
-3.50638514746467
30
0
41
1
10
6.55509727458858
20
-3.70182600919409
30
0
41
1
10
6.34198412748358
20
-4.09743124647488
30
0
41
1
10
6.24452379479155
20
-4.29810746590661
30
0
41
1
10
5.97865328672921
20
-4.90857495037562
30
0
41
1
10
5.83656952887091
20
-5.32675181198718
30
0
41
1
10
5.6765757372701
20
-5.9710861931967
30
0
41
1
10
5.63265309092577
20
-6.18690460957413
30
0
41
1
10
5.56362737717276
20
-6.6168131996528
30
0
41
1
10
5.53837467540009
20
-6.83150272038122
30
0
41
1
10
5.50585228470334
20
-7.26035708218907
30
0
41
1
10
5.49858398539155
20
-7.47452188643828
30
0
41
1
10
5.50104815369377
20
-7.79535645483233
30
0
41
1
10
5.50410009154672
20
-7.9022323057246
30
0
41
1
10
5.51467750230259
20
-8.11583996069731
30
0
41
1
10
5.52222796588876
20
-8.22278057377704
30
0
41
1
10
5.57080928323342
20
-8.75293559998698
30
0
41
1
10
5.64406826391954
20
-9.16473127635967
30
0
41
1
10
5.80157643874028
20
-9.7647525090552
30
0
41
1
10
5.86205830577055
20
-9.96179670938196
30
0
41
1
10
5.99876514662446
20
-10.3499042108362
30
0
41
1
10
6.07534723237299
20
-10.5417120318192
30
0
41
1
10
6.32566721548235
20
-11.1012738620106
30
0
41
1
10
6.51949713890414
20
-11.4533226722225
30
0
41
1
10
6.84700988978017
20
-11.9513401757069
30
0
41
1
10
6.96233720423101
20
-12.1123135065339
30
0
41
1
10
7.20498582531656
20
-12.4241836342732
30
0
41
1
10
7.33260444375659
20
-12.5754010723305
30
0
41
1
10
7.46547969552796
20
-12.7207842047838
30
0
0
SPLINE
5
1B4
100
AcDbEntity
8
1
62
256
6
ByLayer
370
-1
48
1
60
0
100
AcDbSpline
70
4
71
3
72
20
73
16
40
0
40
0
40
0
40
0
40
0.337239630989829
40
0.337239630989829
40
0.421549538737286
40
0.421549538737286
40
0.505859446484742
40
0.505859446484742
40
0.674479261979663
40
0.674479261979663
40
0.843099077474583
40
0.843099077474583
40
0.927408985222043
40
0.927408985222043
40
1
40
1
40
1
40
1
41
1
10
91.2340709604015
20
11.2196913085121
30
0
41
1
10
91.2591350834143
20
11.0056816725379
30
0
41
1
10
91.3193938870068
20
10.7923380261067
30
0
41
1
10
91.447299271832
20
10.529118792071
30
0
41
1
10
91.4755719886375
20
10.4767403868341
30
0
41
1
10
91.5369354655122
20
10.3741544457526
30
0
41
1
10
91.5701194526142
20
10.3237426643229
30
0
41
1
10
91.677559201792
20
10.1754253771301
30
0
41
1
10
91.7595969626173
20
10.0803868034011
30
0
41
1
10
91.9484971770295
20
9.90038911110653
30
0
41
1
10
92.0526594797409
20
9.81807632722027
30
0
41
1
10
92.2243816067247
20
9.70868359591913
30
0
41
1
10
92.2842526190377
20
9.67454938382804
30
0
41
1
10
92.4010907841882
20
9.61593127543568
30
0
41
1
10
92.4567124718735
20
9.59108736646584
30
0
41
1
10
92.5135117583424
20
9.56880281856832
30
0
0
SPLINE
5
1B5
100
AcDbEntity
8
1
62
256
6
ByLayer
370
-1
48
1
60
0
100
AcDbSpline
70
4
71
3
72
16
73
12
40
0
40
0
40
0
40
0
40
0.0754653822814492
40
0.0754653822814492
40
0.306599036711087
40
0.306599036711087
40
0.537732691140725
40
0.537732691140725
40
0.768866345570363
40
0.768866345570363
40
1
40
1
40
1
40
1
41
1
10
91.5659192171968
20
12.491315882833
30
0
41
1
10
91.5446978775689
20
12.4634525531329
30
0
41
1
10
91.5245635256749
20
12.4351443877469
30
0
41
1
10
91.4472208097261
20
12.3187997350394
30
0
41
1
10
91.3988728063073
20
12.2278746878163
30
0
41
1
10
91.3193776434704
20
12.0398269094977
30
0
41
1
10
91.2882645240038
20
11.9426993015933
30
0
41
1
10
91.2428502324533
20
11.7420262347642
30
0
41
1
10
91.2288448851578
20
11.6395008921085
30
0
41
1
10
91.2182288682906
20
11.4319377381789
30
0
41
1
10
91.2215388988951
20
11.3266961264992
30
0
41
1
10
91.2340709604015
20
11.2196913085121
30
0
0
SPLINE
5
1B6
100
AcDbEntity
8
1
62
256
6
ByLayer
370
-1
48
1
60
0
100
AcDbSpline
70
4
71
3
72
14
73
10
40
0
40
0
40
0
40
0
40
0.133401395625322
40
0.133401395625322
40
0.422267597083548
40
0.422267597083548
40
0.711133798541774
40
0.711133798541774
40
1
40
1
40
1
40
1
41
1
10
90.0243035888757
20
6.14938629465323
30
0
41
1
10
90.0094838350805
20
6.13592236575425
30
0
41
1
10
89.9948603813851
20
6.12307467959832
30
0
41
1
10
89.949391453952
20
6.08434699103316
30
0
41
1
10
89.9192601930122
20
6.06055614727114
30
0
41
1
10
89.8647525586116
20
6.02032606388042
30
0
41
1
10
89.8407577880905
20
6.00413104579241
30
0
41
1
10
89.8032657983196
20
5.98132216694114
30
0
41
1
10
89.7906588249361
20
5.97523368330374
30
0
41
1
10
89.7857976835039
20
5.97523368330374
30
0
0
SPLINE
5
1B7
100
AcDbEntity
8
1
62
256
6
ByLayer
370
-1
48
1
60
0
100
AcDbSpline
70
4
71
3
72
20
73
16
40
0
40
0
40
0
40
0
40
0.249999999999988
40
0.249999999999988
40
0.374999999999981
40
0.374999999999981
40
0.437499999999978
40
0.437499999999978
40
0.499999999999975
40
0.499999999999975
40
0.749999999999987
40
0.749999999999987
40
0.874999999999994
40
0.874999999999994
40
1
40
1
40
1
40
1
41
1
10
86.0056806620957
20
3.4730003749527
30
0
41
1
10
85.6853308967138
20
3.39652612140199
30
0
41
1
10
85.3448117507367
20
3.34082882818152
30
0
41
1
10
84.8126340538574
20
3.290434888883
30
0
41
1
10
84.6315787633931
20
3.27919114165815
30
0
41
1
10
84.3550037392587
20
3.27113407906612
30
0
41
1
10
84.2619771105868
20
3.26991795030429
30
0
41
1
10
84.0743064424559
20
3.2705231305718
30
0
41
1
10
83.9795818881347
20
3.27235559107225
30
0
41
1
10
83.5066855412684
20
3.28914245040008
30
0
41
1
10
83.1271105534747
20
3.32680232047892
30
0
41
1
10
82.5571083765915
20
3.42001427725757
30
0
41
1
10
82.3669905962647
20
3.45722907852439
30
0
41
1
10
81.9866297653528
20
3.54429898404319
30
0
41
1
10
81.7963351160518
20
3.59420769517746
30
0
41
1
10
81.6078291574354
20
3.6501001101332
30
0
0
SPLINE
5
1B8
100
AcDbEntity
8
1
62
256
6
ByLayer
370
-1
48
1
60
0
100
AcDbSpline
70
4
71
3
72
8
73
4
40
0
40
0
40
0
40
0
40
1
40
1
40
1
40
1
41
1
10
25
20
-2.71860526153415
30
0
41
1
10
25.7884743006303
20
-3.16112707661955
30
0
41
1
10
26.5582435606303
20
-3.62968274676305
30
0
41
1
10
27.3136435670998
20
-4.11594443406412
30
0
0
SPLINE
5
1B9
100
AcDbEntity
8
1
62
256
6
ByLayer
370
-1
48
1
60
0
100
AcDbSpline
70
4
71
3
72
10
73
6
40
0
40
0
40
0
40
0
40
0.5
40
0.5
40
1
40
1
40
1
40
1
41
1
10
25
20
-16.3812872364908
30
0
41
1
10
24.2700595205207
20
-16.3671190814607
30
0
41
1
10
23.5381923901897
20
-16.413131737775
30
0
41
1
10
22.0785009079618
20
-16.6411726623484
30
0
41
1
10
21.3506623344445
20
-16.8229931693495
30
0
41
1
10
20.6290778667591
20
-17.0836658369912
30
0
0
SPLINE
5
1BA
100
AcDbEntity
8
1
62
256
6
ByLayer
370
-1
48
1
60
0
100
AcDbSpline
70
4
71
3
72
8
73
4
40
0
40
0
40
0
40
0
40
1
40
1
40
1
40
1
41
1
10
81.6078291574349
20
3.65010011013339
30
0
41
1
10
81.1816394059557
20
3.77646627178905
30
0
41
1
10
80.7639102922209
20
3.91638075431902
30
0
41
1
10
80.3542104290228
20
4.07300555110007
30
0
0
SPLINE
5
1BB
100
AcDbEntity
8
1
62
256
6
ByLayer
370
-1
48
1
60
0
100
AcDbSpline
70
4
71
3
72
10
73
6
40
0
40
0
40
0
40
0
40
0.5
40
0.5
40
1
40
1
40
1
40
1
41
1
10
86.7642640783347
20
11.6840518105121
30
0
41
1
10
86.771074982644
20
11.6840518105121
30
0
41
1
10
86.7884533532135
20
11.6980293252213
30
0
41
1
10
86.8407202546489
20
11.7461662890858
30
0
41
1
10
86.8744159801116
20
11.778982267423
30
0
41
1
10
86.9142676773542
20
11.8161539503377
30
0
0
SPLINE
5
1BC
100
AcDbEntity
8
1
62
256
6
ByLayer
370
-1
48
1
60
0
100
AcDbSpline
70
4
71
3
72
8
73
4
40
0
40
0
40
0
40
0
40
1
40
1
40
1
40
1
41
1
10
65.0926660046662
20
11.0733042502633
30
0
41
1
10
66.8214684163636
20
10.2039203621885
30
0
41
1
10
68.5819099935578
20
9.35014514162626
30
0
41
1
10
70.3722764634179
20
8.51113287996768
30
0
0
SPLINE
5
1BD
100
AcDbEntity
8
1
62
256
6
ByLayer
370
-1
48
1
60
0
100
AcDbSpline
70
4
71
3
72
8
73
4
40
0
40
0
40
0
40
0
40
1
40
1
40
1
40
1
41
1
10
65.0926660046663
20
11.0733042502633
30
0
41
1
10
64.4802733490494
20
11.2445041962804
30
0
41
1
10
63.8556465286152
20
11.4360273378407
30
0
41
1
10
63.2216268661674
20
11.6431537157312
30
0
0
SPLINE
5
1BE
100
AcDbEntity
8
1
62
256
6
ByLayer
370
-1
48
1
60
0
100
AcDbSpline
70
4
71
3
72
40
73
36
40
0
40
0
40
0
40
0
40
0.0312499999999991
40
0.0312499999999991
40
0.0624999999999983
40
0.0624999999999983
40
0.124999999999996
40
0.187499999999994
40
0.187499999999994
40
0.218749999999993
40
0.218749999999993
40
0.249999999999992
40
0.249999999999992
40
0.374999999999991
40
0.374999999999991
40
0.406249999999991
40
0.406249999999991
40
0.43749999999999
40
0.43749999999999
40
0.499999999999988
40
0.499999999999988
40
0.562499999999987
40
0.562499999999987
40
0.593749999999986
40
0.593749999999986
40
0.624999999999985
40
0.624999999999985
40
0.749999999999988
40
0.749999999999988
40
0.812499999999991
40
0.812499999999991
40
0.874999999999994
40
0.937499999999997
40
0.937499999999997
40
1
40
1
40
1
40
1
41
1
10
87.599819593825
20
3.92950602077502
30
0
41
1
10
87.6521937722188
20
3.94673060870932
30
0
41
1
10
87.7031052306239
20
3.96428764852055
30
0
41
1
10
87.8019438882774
20
4.00008000051622
30
0
41
1
10
87.8499773297266
20
4.0183623969948
30
0
41
1
10
87.9878284657366
20
4.07357455691036
30
0
41
1
10
88.1560292961676
20
4.14849714325629
30
0
41
1
10
88.2938719946324
20
4.22596186474823
30
0
41
1
10
88.3857462961903
20
4.28502404174964
30
0
41
1
10
88.4144486321504
20
4.30487241500251
30
0
41
1
10
88.4679312132517
20
4.34489759031035
30
0
41
1
10
88.4927505003387
20
4.36511960293882
30
0
41
1
10
88.6054451055495
20
4.46581026548492
30
0
41
1
10
88.6608248319231
20
4.54587719268139
30
0
41
1
10
88.6873200225116
20
4.64536418800338
30
0
41
1
10
88.6904569010525
20
4.66523139520828
30
0
41
1
10
88.6923198307694
20
4.70490421791988
30
0
41
1
10
88.6910261885058
20
4.72473948623193
30
0
41
1
10
88.680550186532
20
4.78340025011556
30
0
41
1
10
88.6648362271677
20
4.82162471471196
30
0
41
1
10
88.6164262731933
20
4.89635654116884
30
0
41
1
10
88.5837292871416
20
4.93286380278175
30
0
41
1
10
88.5218125449928
20
4.9863232445378
30
0
41
1
10
88.4990234349936
20
5.00392564592056
30
0
41
1
10
88.4490596249516
20
5.03868700898326
30
0
41
1
10
88.4218532732206
20
5.05585234164738
30
0
41
1
10
88.2765838002181
20
5.1394740377836
30
0
41
1
10
88.1299607495032
20
5.20029638218392
30
0
41
1
10
87.8652192301171
20
5.28257806160758
30
0
41
1
10
87.7687467590428
20
5.30864578713857
30
0
41
1
10
87.5641698908856
20
5.35670021057211
30
0
41
1
10
87.3480767765438
20
5.40076294003532
30
0
41
1
10
87.1095751852396
20
5.43705857413249
30
0
41
1
10
86.8597562754925
20
5.469431465431
30
0
41
1
10
86.7283441852265
20
5.4837206381554
30
0
41
1
10
86.5936503830161
20
5.49573891247124
30
0
0
SPLINE
5
1BF
100
AcDbEntity
8
1
62
256
6
ByLayer
370
-1
48
1
60
0
100
AcDbSpline
70
4
71
3
72
10
73
6
40
0
40
0
40
0
40
0
40
0.5
40
0.5
40
1
40
1
40
1
40
1
41
1
10
82.4878725101001
20
6.45976164605713
30
0
41
1
10
82.8748911302201
20
6.28024863360167
30
0
41
1
10
83.274430480433
20
6.12341069340889
30
0
41
1
10
84.1078461525959
20
5.86278491070962
30
0
41
1
10
84.5418175831741
20
5.75899942854173
30
0
41
1
10
84.9981313612172
20
5.68795698563503
30
0
0
SPLINE
5
1C0
100
AcDbEntity
8
1
62
256
6
ByLayer
370
-1
48
1
60
0
100
AcDbSpline
70
4
71
3
72
20
73
16
40
0
40
0
40
0
40
0
40
0.124999999999994
40
0.124999999999994
40
0.249999999999987
40
0.249999999999987
40
0.374999999999981
40
0.374999999999981
40
0.499999999999974
40
0.499999999999974
40
0.749999999999978
40
0.749999999999978
40
0.874999999999989
40
0.874999999999989
40
1
40
1
40
1
40
1
41
1
10
87.1780769281165
20
5.93421227580797
30
0
41
1
10
87.1825449504033
20
5.93421227580797
30
0
41
1
10
87.180457338612
20
5.93886001246108
30
0
41
1
10
87.165492645267
20
5.95635212758577
30
0
41
1
10
87.1524488479226
20
5.96936457335846
30
0
41
1
10
87.1196867418581
20
6.00145525108977
30
0
41
1
10
87.0996938161881
20
6.02083494099898
30
0
41
1
10
87.0559450276318
20
6.06457002017879
30
0
41
1
10
87.0323049131617
20
6.08880008469063
30
0
41
1
10
86.9581755334549
20
6.16833376123782
30
0
41
1
10
86.9040279744556
20
6.23118970912734
30
0
41
1
10
86.824373574913
20
6.33597558095187
30
0
41
1
10
86.7979048849978
20
6.37280181234385
30
0
41
1
10
86.7454353273652
20
6.45070359833821
30
0
41
1
10
86.7194755525053
20
6.49175106339999
30
0
41
1
10
86.6943872732243
20
6.53430839993399
30
0
0
SPLINE
5
1C1
100
AcDbEntity
8
1
62
256
6
ByLayer
370
-1
48
1
60
0
100
AcDbSpline
70
4
71
3
72
18
73
14
40
0
40
0
40
0
40
0
40
0.249999999999997
40
0.249999999999997
40
0.374999999999999
40
0.374999999999999
40
0.500000000000001
40
0.500000000000001
40
0.750000000000004
40
0.750000000000004
40
0.875000000000002
40
0.875000000000002
40
1
40
1
40
1
40
1
41
1
10
75.9106095335271
20
16.1688343973129
30
0
41
1
10
75.6996394206051
20
15.8137615635838
30
0
41
1
10
75.4548196469671
20
15.4902099603788
30
0
41
1
10
75.0317857445862
20
15.0568481687182
30
0
41
1
10
74.881461589268
20
14.920861345235
30
0
41
1
10
74.5634349451363
20
14.6659024906395
30
0
41
1
10
74.3989467774267
20
14.5494036214522
30
0
41
1
10
73.8919915378825
20
14.2269645466132
30
0
41
1
10
73.5361953521636
20
14.0477577174053
30
0
41
1
10
72.9853514647126
20
13.8133433797163
30
0
41
1
10
72.7984674616289
20
13.7408842611298
30
0
41
1
10
72.4220250780625
20
13.6059084028154
30
0
41
1
10
72.2326644937671
20
13.5434310983294
30
0
41
1
10
72.0424229152637
20
13.4848280788398
30
0
0
SPLINE
5
1C2
100
AcDbEntity
8
1
62
256
6
ByLayer
370
-1
48
1
60
0
100
AcDbSpline
70
4
71
3
72
16
73
12
40
0
40
0
40
0
40
0
40
0.356560518284011
40
0.356560518284011
40
0.534840777426017
40
0.534840777426017
40
0.713121036568023
40
0.713121036568023
40
0.891401295710028
40
0.891401295710028
40
1
40
1
40
1
40
1
41
1
10
24.9999999999999
20
-16.3812872364908
30
0
41
1
10
28.4298448780052
20
-16.4478605740805
30
0
41
1
10
31.8477949274252
20
-16.3359074997193
30
0
41
1
10
36.9831236474967
20
-15.9088257068977
30
0
41
1
10
38.6966028847131
20
-15.7234022810496
30
0
41
1
10
42.1287214730565
20
-15.26922763003
30
0
41
1
10
43.8426783330644
20
-15.0010925115013
30
0
41
1
10
47.2697591714276
20
-14.3866217340453
30
0
41
1
10
48.9829332201912
20
-14.0403094835284
30
0
41
1
10
51.742339691624
20
-13.4242788540333
30
0
41
1
10
52.787993526343
20
-13.1773964926492
30
0
41
1
10
53.8335257205959
20
-12.9179582431916
30
0
0
SPLINE
5
1C3
100
AcDbEntity
8
1
62
256
6
ByLayer
370
-1
48
1
60
0
100
AcDbSpline
70
4
71
4
72
16
73
11
40
0
40
0
40
0
40
0
40
0
40
0.192257591068827
40
0.192257591068827
40
0.192257591068827
40
0.482162302453704
40
0.482162302453704
40
0.482162302453704
40
1
40
1
40
1
40
1
40
1
41
0.989825750372438
10
26.0222840305661
20
-3.40314717853214
30
0
41
0.993469183524893
10
25.8655603466544
20
-3.91843037817455
30
0
41
0.997205260640484
10
25.7064373953113
20
-4.47153618672982
30
0
41
1
10
25.5495626063212
20
-5.043995288269
30
0
41
1
10
25.1744749428241
20
-6.46802499297809
30
0
41
0.993645449064674
10
24.9312926252211
20
-7.44403019861703
30
0
41
0.987290898129347
10
24.6893345694276
20
-8.4847153643205
30
0
41
0.975487386886736
10
24.0570464778618
20
-11.4096128962523
30
0
41
0.974678588431022
10
23.7131920401368
20
-13.2558688708625
30
0
41
0.992700123038199
10
23.5397333860754
20
-14.5943199576401
30
0
41
0.998497185224231
10
23.4964644533761
20
-15.3788615663303
30
0
0
SPLINE
5
1C4
100
AcDbEntity
8
1
62
256
6
ByLayer
370
-1
48
1
60
0
100
AcDbSpline
70
4
71
3
72
22
73
18
40
0
40
0
40
0
40
0
40
0.25
40
0.25
40
0.375
40
0.375
40
0.5
40
0.5
40
0.625
40
0.625
40
0.75
40
0.75
40
0.8125
40
0.8125
40
0.875
40
0.875
40
1
40
1
40
1
40
1
41
1
10
14.284178376558
20
-14.1504144545092
30
0
41
1
10
14.5657515056657
20
-13.9575166628769
30
0
41
1
10
14.9262364816682
20
-13.7902816326292
30
0
41
1
10
15.5738384401829
20
-13.626055499028
30
0
41
1
10
15.8078871784229
20
-13.5855822505602
30
0
41
1
10
16.3100363982807
20
-13.5391469874629
30
0
41
1
10
16.5737791600343
20
-13.5335667698058
30
0
41
1
10
17.1237786912323
20
-13.5573563445478
30
0
41
1
10
17.4100398776131
20
-13.5867020890098
30
0
41
1
10
18.00377297178
20
-13.6780654022435
30
0
41
1
10
18.3112471469771
20
-13.7400618359804
30
0
41
1
10
18.7884395746557
20
-13.8549460822347
30
0
41
1
10
18.9499052322488
20
-13.8968256229515
30
0
41
1
10
19.2758188469877
20
-13.986598176181
30
0
41
1
10
19.4405385871347
20
-14.0345551624819
30
0
41
1
10
19.9401762825034
20
-14.1866106175576
30
0
41
1
10
20.2805388377021
20
-14.2988861113708
30
0
41
1
10
20.6290778669372
20
-14.4194463490399
30
0
0
SPLINE
5
1C5
100
AcDbEntity
8
1
62
256
6
ByLayer
370
-1
48
1
60
0
100
AcDbSpline
70
4
71
3
72
25
73
21
40
0
40
0
40
0
40
0
40
0.25
40
0.25
40
0.375
40
0.375
40
0.437499999999999
40
0.437499999999999
40
0.499999999999999
40
0.499999999999999
40
0.749999999999999
40
0.749999999999999
40
0.8125
40
0.8125
40
0.875
40
0.875
40
0.90625
40
0.90625
40
0.937500000000001
40
1
40
1
40
1
40
1
41
1
10
25
20
-2.71860526153415
30
0
41
1
10
24.1630538056905
20
-2.2488791731397
30
0
41
1
10
23.3122706477843
20
-1.83977834825811
30
0
41
1
10
22.0252010254964
20
-1.31412863969368
30
0
41
1
10
21.5944261527211
20
-1.15348628152447
30
0
41
1
10
20.9475273087211
20
-0.933015464682768
30
0
41
1
10
20.7316006757716
20
-0.862904809756344
30
0
41
1
10
20.3059547313189
20
-0.730948728912864
30
0
41
1
10
20.0954822380359
20
-0.668835854419115
30
0
41
1
10
19.0557045837269
20
-0.375697016993854
30
0
41
1
10
18.2639952609748
20
-0.196681878921936
30
0
41
1
10
17.3386075037147
20
-0.0136811807044523
30
0
41
1
10
17.1564228805966
20
0.020921793402465
30
0
41
1
10
16.8005325382702
20
0.0863426929283264
30
0
41
1
10
16.6272642326451
20
0.117087296257978
30
0
41
1
10
16.3745062044859
20
0.160772447472226
30
0
41
1
10
16.2907158856393
20
0.175207937643961
30
0
41
1
10
16.120431350821
20
0.205127552215913
30
0
41
1
10
15.8621580789579
20
0.251119582525803
30
0
41
1
10
15.5953426988226
20
0.300126095107203
30
0
41
1
10
15.4136435670994
20
0.333839099579421
30
0
0
SPLINE
5
1C6
100
AcDbEntity
8
1
62
256
6
ByLayer
370
-1
48
1
60
0
100
AcDbSpline
70
4
71
3
72
14
73
10
40
0
40
0
40
0
40
0
40
0.50000000000001
40
0.50000000000001
40
0.625000000000007
40
0.625000000000007
40
0.750000000000005
40
0.750000000000005
40
1
40
1
40
1
40
1
41
1
10
82.4878725101001
20
6.45976164605713
30
0
41
1
10
83.1496841076015
20
6.25708924684969
30
0
41
1
10
83.8265552747085
20
6.1088532105226
30
0
41
1
10
84.6921331104181
20
5.9939774522407
30
0
41
1
10
84.8666512228626
20
5.97451335702479
30
0
41
1
10
85.2152469020082
20
5.94302829661245
30
0
41
1
10
85.3892769541778
20
5.93098855716224
30
0
41
1
10
85.9105794839638
20
5.90579836974064
30
0
41
1
10
86.257065703549
20
5.90355818238135
30
0
41
1
10
86.6025274998735
20
5.91563059575964
30
0
0
SPLINE
5
1C7
100
AcDbEntity
8
1
62
256
6
ByLayer
370
-1
48
1
60
0
100
AcDbSpline
70
4
71
3
72
28
73
24
40
0
40
0
40
0
40
0
40
0.0773207438600958
40
0.0773207438600958
40
0.169588669474086
40
0.169588669474086
40
0.261856595088077
40
0.261856595088077
40
0.354124520702067
40
0.354124520702067
40
0.446392446316058
40
0.446392446316058
40
0.538660371930048
40
0.538660371930048
40
0.630928297544038
40
0.630928297544038
40
0.723196223158029
40
0.723196223158029
40
0.815464148772019
40
0.815464148772019
40
0.90773207438601
40
0.90773207438601
40
1
40
1
40
1
40
1
41
1
10
22.7575569750747
20
-1.62051959586464
30
0
41
1
10
22.5414284861965
20
-1.84212415678519
30
0
41
1
10
22.3364707649631
20
-2.09256562063257
30
0
41
1
10
21.9171757004089
20
-2.69832390683573
30
0
41
1
10
21.7086943672276
20
-3.06454124157938
30
0
41
1
10
21.3385047543129
20
-3.85711413986348
30
0
41
1
10
21.1768044997206
20
-4.28345252164314
30
0
41
1
10
20.9059984493227
20
-5.18092676963062
30
0
41
1
10
20.7968985241756
20
-5.65204317997785
30
0
41
1
10
20.6352217744484
20
-6.62212057382325
30
0
41
1
10
20.5826484547715
20
-7.12106052753643
30
0
41
1
10
20.5359194106819
20
-8.12883002942169
30
0
41
1
10
20.541764699283
20
-8.63763773070187
30
0
41
1
10
20.6116650404972
20
-9.64683184339901
30
0
41
1
10
20.6757185777786
20
-10.1471963770407
30
0
41
1
10
20.8597327385605
20
-11.1214963345856
30
0
41
1
10
20.9796893729173
20
-11.5954106371651
30
0
41
1
10
21.2711950720294
20
-12.4997534405848
30
0
41
1
10
21.4427378173899
20
-12.9301623366648
30
0
41
1
10
21.8312443800173
20
-13.7320025973018
30
0
41
1
10
22.0481997750598
20
-14.1034165791959
30
0
41
1
10
22.5197256700532
20
-14.7738977585505
30
0
41
1
10
22.7742859480483
20
-15.0729504210108
30
0
41
1
10
23.0430739508836
20
-15.3304468688319
30
0
0
SPLINE
5
1C8
100
AcDbEntity
8
1
62
256
6
ByLayer
370
-1
48
1
60
0
100
AcDbSpline
70
4
71
3
72
20
73
16
40
0
40
0
40
0
40
0
40
0.131984401879439
40
0.131984401879439
40
0.305587521503551
40
0.305587521503551
40
0.479190641127663
40
0.479190641127663
40
0.565992200939719
40
0.565992200939719
40
0.652793760751775
40
0.652793760751775
40
0.826396880375887
40
0.826396880375887
40
1
40
1
40
1
40
1
41
1
10
52.980392647806
20
-12.7091657559806
30
0
41
1
10
51.681788960788
20
-12.9904314628415
30
0
41
1
10
50.3824949962341
20
-13.2527811177762
30
0
41
1
10
47.3778731572521
20
-13.8125126048242
30
0
41
1
10
45.6726617672455
20
-14.0944017645712
30
0
41
1
10
42.2618615447452
20
-14.5818748211728
30
0
41
1
10
40.5561422816646
20
-14.7879752067543
30
0
41
1
10
37.9949102225292
20
-15.039074699653
30
0
41
1
10
37.1405550004054
20
-15.1130847643052
30
0
41
1
10
35.4336031248568
20
-15.2411644127174
30
0
41
1
10
34.5806404102779
20
-15.2952872604764
30
0
41
1
10
32.0227109987058
20
-15.4273609747959
30
0
41
1
10
30.3188033380755
20
-15.4745293623879
30
0
41
1
10
26.9095488431068
20
-15.4879573006967
30
0
41
1
10
25.2042324607775
20
-15.45420551774
30
0
41
1
10
23.4964644533761
20
-15.3788615663306
30
0
0
SPLINE
5
1C9
100
AcDbEntity
8
1
62
256
6
ByLayer
370
-1
48
1
60
0
100
AcDbSpline
70
4
71
3
72
28
73
24
40
0
40
0
40
0
40
0
40
0.0138306871956569
40
0.0138306871956569
40
0.112447618476092
40
0.112447618476092
40
0.211064549756526
40
0.211064549756526
40
0.408298412317395
40
0.408298412317395
40
0.50691534359783
40
0.50691534359783
40
0.605532274878264
40
0.605532274878264
40
0.704149206158698
40
0.704149206158698
40
0.802766137439133
40
0.802766137439133
40
0.901383068719567
40
0.901383068719567
40
0.950691534359784
40
0.950691534359784
40
1
40
1
40
1
40
1
41
1
10
78.4476424387875
20
4.81778943221724
30
0
41
1
10
78.4511015620205
20
4.82895310027695
30
0
41
1
10
78.4545336657346
20
4.84024076272289
30
0
41
1
10
78.4822140117135
20
4.93302150894127
30
0
41
1
10
78.5051582172293
20
5.02111138329047
30
0
41
1
10
78.5471644649478
20
5.20782800351077
30
0
41
1
10
78.5662585677637
20
5.30644827589802
30
0
41
1
10
78.6171448146243
20
5.61754686293094
30
0
41
1
10
78.6426829269277
20
5.84521674768382
30
0
41
1
10
78.663829443747
20
6.21599574909564
30
0
41
1
10
78.6679902715484
20
6.34448105012964
30
0
41
1
10
78.669191011658
20
6.61116280741584
30
0
41
1
10
78.6662031103249
20
6.74950087450014
30
0
41
1
10
78.6513844890351
20
7.03173803847085
30
0
41
1
10
78.6395899246352
20
7.1760838061148
30
0
41
1
10
78.6045649499882
20
7.47038102828654
30
0
41
1
10
78.5814007328846
20
7.62034937980371
30
0
41
1
10
78.5187712603864
20
7.92457282343844
30
0
41
1
10
78.4794117544457
20
8.07887376291524
30
0
41
1
10
78.4015802253142
20
8.30782784683953
30
0
41
1
10
78.3723273007786
20
8.38405381858115
30
0
41
1
10
78.3055931233338
20
8.53333663902077
30
0
41
1
10
78.2681596622458
20
8.6064745025248
30
0
41
1
10
78.2247870666923
20
8.67695401432044
30
0
0
SPLINE
5
1CA
100
AcDbEntity
8
1
62
256
6
ByLayer
370
-1
48
1
60
0
100
AcDbSpline
70
4
71
3
72
8
73
4
40
0
40
0
40
0
40
0
40
1
40
1
40
1
40
1
41
1
10
81.3191773601874
20
6.90170526534286
30
0
41
1
10
81.6969585503749
20
6.7348926980178
30
0
41
1
10
82.0858810263914
20
6.58736676626015
30
0
41
1
10
82.4878725101001
20
6.45976164605713
30
0
0
SPLINE
5
1CB
100
AcDbEntity
8
1
62
256
6
ByLayer
370
-1
48
1
60
0
100
AcDbSpline
70
4
71
2
72
6
73
3
40
0
40
0
40
0
40
1
40
1
40
1
41
1
10
20.6290778667591
20
-14.4194463490718
30
0
41
1
10
20.6290778667591
20
-15.7515560930168
30
0
41
1
10
20.6290778667591
20
-17.0836658369617
30
0
0
SPLINE
5
1CC
100
AcDbEntity
8
1
62
256
6
ByLayer
370
-1
48
1
60
0
100
AcDbSpline
70
4
71
3
72
8
73
4
40
0
40
0
40
0
40
0
40
1
40
1
40
1
40
1
41
1
10
23.496464453378
20
-15.3788615663306
30
0
41
1
10
23.3441968966009
20
-15.3674476311169
30
0
41
1
10
23.1930809433692
20
-15.351334134315
30
0
41
1
10
23.0430739896177
20
-15.3304469059419
30
0
0
SPLINE
5
1CD
100
AcDbEntity
8
1
62
256
6
ByLayer
370
-1
48
1
60
0
100
AcDbSpline
70
4
71
3
72
8
73
4
40
0
40
0
40
0
40
0
40
1
40
1
40
1
40
1
41
1
10
86.6943872732243
20
6.53430839993408
30
0
41
1
10
86.6604954008004
20
6.59179930253259
30
0
41
1
10
86.6287071389402
20
6.65111029051911
30
0
41
1
10
86.5990384391512
20
6.71231416392291
30
0
0
SPLINE
5
1CE
100
AcDbEntity
8
1
62
256
6
ByLayer
370
-1
48
1
60
0
100
AcDbSpline
70
4
71
3
72
10
73
6
40
0
40
0
40
0
40
0
40
0.5
40
0.5
40
1
40
1
40
1
40
1
41
1
10
10.401841513841
20
-14.3061374326664
30
0
41
1
10
10.1770349175072
20
-14.3118855973874
30
0
41
1
10
9.95848649113319
20
-14.2882400330274
30
0
41
1
10
9.53237947876545
20
-14.1834631716516
30
0
41
1
10
9.32482479725562
20
-14.1023395677316
30
0
41
1
10
9.12248760596546
20
-13.991080719063
30
0
0
SPLINE
5
1CF
100
AcDbEntity
8
1
62
256
6
ByLayer
370
-1
48
1
60
0
100
AcDbSpline
70
4
71
3
72
14
73
10
40
0
40
0
40
0
40
0
40
0.25
40
0.25
40
0.5
40
0.5
40
0.75
40
0.75
40
1
40
1
40
1
40
1
41
1
10
86.6139708289429
20
16.3973855530293
30
0
41
1
10
86.6187670078021
20
16.3964129413486
30
0
41
1
10
86.6290153343382
20
16.3951949415896
30
0
41
1
10
86.6599623392042
20
16.3923470456925
30
0
41
1
10
86.6810016957432
20
16.3906948567443
30
0
41
1
10
86.7324143183567
20
16.3871934971152
30
0
41
1
10
86.7626509955675
20
16.3853480442609
30
0
41
1
10
86.8321853421497
20
16.3816171609377
30
0
41
1
10
86.8715555326787
20
16.3797331843005
30
0
41
1
10
86.9143989722231
20
16.3779728740924
30
0
0
SPLINE
5
1D0
100
AcDbEntity
8
1
62
256
6
ByLayer
370
-1
48
1
60
0
100
AcDbSpline
70
4
71
3
72
13
73
9
40
0
40
0
40
0
40
0
40
0.11660373605995
40
0.412180139798771
40
0.559968341668182
40
0.707756543537592
40
0.855544745407003
40
1
40
1
40
1
40
1
41
1
10
71.1516134262499
20
11.3274549710344
30
0
41
1
10
70.943722290708
20
11.3079607323699
30
0
41
1
10
70.2086365937714
20
11.2375383020982
30
0
41
1
10
69.2098426953268
20
11.1345963381884
30
0
41
1
10
68.1567418178646
20
11.0178281697904
30
0
41
1
10
67.3679184209806
20
10.926237043734
30
0
41
1
10
66.585253087375
20
10.8312595929088
30
0
41
1
10
66.0649288849008
20
10.7654197263471
30
0
41
1
10
65.8076395425064
20
10.7321919188421
30
0
0
SPLINE
5
1D1
100
AcDbEntity
8
1
62
256
6
ByLayer
370
-1
48
1
60
0
100
AcDbSpline
70
4
71
3
72
8
73
4
40
0
40
0
40
0
40
0
40
1
40
1
40
1
40
1
41
1
10
10.401841677358
20
-14.306136703821
30
0
41
1
10
11.7032757159139
20
-14.2691389728547
30
0
41
1
10
12.9998678350289
20
-14.2216593012328
30
0
41
1
10
14.284178376558
20
-14.1504144545093
30
0
0
SPLINE
5
1D2
100
AcDbEntity
8
1
62
256
6
ByLayer
370
-1
48
1
60
0
100
AcDbSpline
70
4
71
3
72
38
73
34
40
0
40
0
40
0
40
0
40
0.124999999999986
40
0.124999999999986
40
0.187499999999983
40
0.187499999999983
40
0.249999999999981
40
0.249999999999981
40
0.28124999999998
40
0.28124999999998
40
0.312499999999978
40
0.312499999999978
40
0.343749999999977
40
0.343749999999977
40
0.374999999999976
40
0.374999999999976
40
0.406249999999974
40
0.406249999999974
40
0.437499999999973
40
0.437499999999973
40
0.468749999999972
40
0.468749999999972
40
0.49999999999997
40
0.49999999999997
40
0.562499999999974
40
0.562499999999974
40
0.624999999999978
40
0.624999999999978
40
0.749999999999985
40
0.749999999999985
40
0.874999999999992
40
0.874999999999992
40
1
40
1
40
1
40
1
41
1
10
71.15161342625
20
11.3274549710344
30
0
41
1
10
71.008593408402
20
11.3853958791012
30
0
41
1
10
70.8692240128127
20
11.4493988802052
30
0
41
1
10
70.6698627125596
20
11.5618514540124
30
0
41
1
10
70.6050466366789
20
11.6021160697677
30
0
41
1
10
70.4803516095132
20
11.6911295070493
30
0
41
1
10
70.4201415385551
20
11.7401547277693
30
0
41
1
10
70.3390350926145
20
11.8216965455824
30
0
41
1
10
70.3134546693921
20
11.8502863891266
30
0
41
1
10
70.2662089168034
20
11.9112801510862
30
0
41
1
10
70.2444053070932
20
11.943964833368
30
0
41
1
10
70.2075476164438
20
12.0125694193708
30
0
41
1
10
70.1923468365625
20
12.0485808538832
30
0
41
1
10
70.1706048684179
20
12.1252189908655
30
0
41
1
10
70.1645531515424
20
12.1643410923306
30
0
41
1
10
70.1630133816083
20
12.2440437748168
30
0
41
1
10
70.1677686398286
20
12.2851983226162
30
0
41
1
10
70.1871842140571
20
12.3641946950858
30
0
41
1
10
70.2018970434473
20
12.4029328844476
30
0
41
1
10
70.2384404043135
20
12.4766097328447
30
0
41
1
10
70.2600034789328
20
12.5112942070765
30
0
41
1
10
70.3079274966321
20
12.5775228256148
30
0
41
1
10
70.3344829105757
20
12.6092302074467
30
0
41
1
10
70.4180489779905
20
12.698915697422
30
0
41
1
10
70.4789690695797
20
12.7520166315755
30
0
41
1
10
70.6068145743379
20
12.8504798338223
30
0
41
1
10
70.6741095339349
20
12.89587192393
30
0
41
1
10
70.8785548947955
20
13.0217772793619
30
0
41
1
10
71.0192866091853
20
13.0932754833784
30
0
41
1
10
71.3052898811981
20
13.2233648264058
30
0
41
1
10
71.4506701776813
20
13.281656814877
30
0
41
1
10
71.7445139500984
20
13.3894150694026
30
0
41
1
10
71.8931436972859
20
13.43884332099
30
0
41
1
10
72.0424229152635
20
13.4848280788403
30
0
0
SPLINE
5
1D3
100
AcDbEntity
8
1
62
256
6
ByLayer
370
-1
48
1
60
0
100
AcDbSpline
70
4
71
3
72
93
73
89
40
-0.0312500000000054
40
-0.0312500000000054
40
0
40
0
40
0.0312499999999961
40
0.0312499999999961
40
0.0468749999999939
40
0.0468749999999939
40
0.0624999999999917
40
0.0624999999999917
40
0.0937499999999864
40
0.0937499999999864
40
0.124999999999981
40
0.124999999999981
40
0.156249999999976
40
0.156249999999976
40
0.171874999999972
40
0.171874999999972
40
0.187499999999968
40
0.187499999999968
40
0.218749999999963
40
0.218749999999963
40
0.249999999999958
40
0.249999999999958
40
0.265624999999957
40
0.265624999999957
40
0.281249999999956
40
0.281249999999956
40
0.312499999999958
40
0.312499999999958
40
0.328124999999959
40
0.328124999999959
40
0.34374999999996
40
0.34374999999996
40
0.374999999999962
40
0.374999999999962
40
0.406249999999965
40
0.406249999999965
40
0.421874999999966
40
0.421874999999966
40
0.437499999999967
40
0.437499999999967
40
0.468749999999969
40
0.468749999999969
40
0.484374999999971
40
0.484374999999971
40
0.499999999999972
40
0.499999999999972
40
0.531249999999975
40
0.531249999999975
40
0.562499999999978
40
0.562499999999978
40
0.578124999999979
40
0.578124999999979
40
0.59374999999998
40
0.59374999999998
40
0.624999999999982
40
0.624999999999982
40
0.640624999999982
40
0.640624999999982
40
0.656249999999981
40
0.656249999999981
40
0.687499999999981
40
0.687499999999981
40
0.71874999999998
40
0.71874999999998
40
0.74999999999998
40
0.74999999999998
40
0.76562499999998
40
0.76562499999998
40
0.781249999999979
40
0.796874999999979
40
0.796874999999979
40
0.812499999999979
40
0.812499999999979
40
0.843749999999979
40
0.843749999999979
40
0.85937499999998
40
0.85937499999998
40
0.874999999999981
40
0.874999999999981
40
0.906249999999985
40
0.906249999999985
40
0.93749999999999
40
0.93749999999999
40
0.953124999999992
40
0.953124999999992
40
0.968749999999995
40
0.968749999999995
40
1
40
1
40
1.03125
40
1.03125
41
1
10
90.4168398245146
20
-3.50172463519238
30
0
41
1
10
90.4042783047682
20
-3.25845476240295
30
0
41
1
10
90.4096317312381
20
-3.13786842919234
30
0
41
1
10
90.4347364928631
20
-2.95854455855954
30
0
41
1
10
90.4459701713412
20
-2.89903140418826
30
0
41
1
10
90.4743468355188
20
-2.78055240203972
30
0
41
1
10
90.4916028422844
20
-2.72132660104543
30
0
41
1
10
90.5513961976508
20
-2.54810860833644
30
0
41
1
10
90.6019991612773
20
-2.4376059785358
30
0
41
1
10
90.7247345912484
20
-2.22667234982407
30
0
41
1
10
90.7978088673189
20
-2.12543856258475
30
0
41
1
10
90.960307500925
20
-1.94200103002143
30
0
41
1
10
91.0500390794872
20
-1.85882138454861
30
0
41
1
10
91.1976482024304
20
-1.74722635898985
30
0
41
1
10
91.2492785783284
20
-1.71212343851386
30
0
41
1
10
91.3547340890159
20
-1.64794630837292
30
0
41
1
10
91.4087693060397
20
-1.61868083559273
30
0
41
1
10
91.5747242695307
20
-1.53920870980525
30
0
41
1
10
91.6909688185275
20
-1.49711433470443
30
0
41
1
10
91.9320092032717
20
-1.4367180069743
30
0
41
1
10
92.0536847232659
20
-1.41908617362515
30
0
41
1
10
92.237875585878
20
-1.41090093293613
30
0
41
1
10
92.2995542750065
20
-1.41123930261028
30
0
41
1
10
92.4234920712657
20
-1.41823398143285
30
0
41
1
10
92.4854282822442
20
-1.42490787769029
30
0
41
1
10
92.6680254328219
20
-1.45392198595599
30
0
41
1
10
92.786737741142
20
-1.48521952702615
30
0
41
1
10
92.9602480672013
20
-1.55018627927006
30
0
41
1
10
93.0175901196482
20
-1.57502583135045
30
0
41
1
10
93.1283801476184
20
-1.62982078152052
30
0
41
1
10
93.1820437410078
20
-1.65982346200568
30
0
41
1
10
93.3379611113139
20
-1.75745120881271
30
0
41
1
10
93.4355205098512
20
-1.83293743525988
30
0
41
1
10
93.6152659549036
20
-2.00351460555788
30
0
41
1
10
93.6951586514655
20
-2.09630249950496
30
0
41
1
10
93.8006839232784
20
-2.24615980934678
30
0
41
1
10
93.8334558327349
20
-2.29790475834122
30
0
41
1
10
93.8940961449436
20
-2.40503935732963
30
0
41
1
10
93.9218153449239
20
-2.46023707650093
30
0
41
1
10
93.9959451437442
20
-2.62771399849933
30
0
41
1
10
94.0340339858624
20
-2.74292535152026
30
0
41
1
10
94.0744455405455
20
-2.92093249733341
30
0
41
1
10
94.0851370997364
20
-2.98145721733542
30
0
41
1
10
94.1005038388113
20
-3.10219651188092
30
0
41
1
10
94.1052335257294
20
-3.16249022697579
30
0
41
1
10
94.1108482972141
20
-3.34314443273911
30
0
41
1
10
94.1032377724904
20
-3.46327818760741
30
0
41
1
10
94.0648926837239
20
-3.70294043607876
30
0
41
1
10
94.0345837015025
20
-3.81944587729475
30
0
41
1
10
93.9734701621146
20
-3.988088916668
30
0
41
1
10
93.9504583548918
20
-4.04335789564925
30
0
41
1
10
93.8990575096987
20
-4.15198692686997
30
0
41
1
10
93.8704971453181
20
-4.20561797713046
30
0
41
1
10
93.7778403578634
20
-4.36115456050396
30
0
41
1
10
93.7070271777746
20
-4.45774002296895
30
0
41
1
10
93.587277403394
20
-4.59214321441584
30
0
41
1
10
93.5450896728954
20
-4.63518603512904
30
0
41
1
10
93.4559679854052
20
-4.71762659957858
30
0
41
1
10
93.4089843362115
20
-4.7570067174583
30
0
41
1
10
93.2639779235769
20
-4.86689414950033
30
0
41
1
10
93.1609453994147
20
-4.93021513896994
30
0
41
1
10
92.9417237078004
20
-5.03654267023822
30
0
41
1
10
92.8244107497931
20
-5.07958571897768
30
0
41
1
10
92.5869922888201
20
-5.14012270054508
30
0
41
1
10
92.4657768388377
20
-5.15837695613399
30
0
41
1
10
92.2800275286997
20
-5.1670024410335
30
0
41
1
10
92.2175198093599
20
-5.16667311675943
30
0
41
1
10
92.0943228908399
20
-5.15970936046392
30
0
41
1
10
91.9721503493349
20
-5.14649877020986
30
0
41
1
10
91.8519866130659
20
-5.12102280330643
30
0
41
1
10
91.7328362054094
20
-5.08934475929857
30
0
41
1
10
91.6735502450435
20
-5.0702903812892
30
0
41
1
10
91.5011223856629
20
-5.00508440562066
30
0
41
1
10
91.3921606428502
20
-4.95075126013916
30
0
41
1
10
91.2373186510073
20
-4.85349574578791
30
0
41
1
10
91.1869047071255
20
-4.81822440887663
30
0
41
1
10
91.0906680672808
20
-4.74357364053188
30
0
41
1
10
91.0447510040088
20
-4.70417836205712
30
0
41
1
10
90.9133379252486
20
-4.57998861936542
30
0
41
1
10
90.8339656799417
20
-4.48903276481332
30
0
41
1
10
90.6927751927398
20
-4.29174562642103
30
0
41
1
10
90.6327224417279
20
-4.18797185065
30
0
41
1
10
90.5576697906003
20
-4.02487226037357
30
0
41
1
10
90.5351761174528
20
-3.96925685230025
30
0
41
1
10
90.4953321584448
20
-3.85546420979338
30
0
41
1
10
90.4779690471011
20
-3.79713815589406
30
0
41
1
10
90.4345926098703
20
-3.62119934564962
30
0
41
1
10
90.4168398245146
20
-3.50172463519238
30
0
41
1
10
90.4042783047682
20
-3.25845476240295
30
0
0
SPLINE
5
1D4
100
AcDbEntity
8
1
62
256
6
ByLayer
370
-1
48
1
60
0
100
AcDbSpline
70
4
71
3
72
26
73
22
40
0
40
0
40
0
40
0
40
0.125
40
0.125
40
0.25
40
0.25
40
0.3125
40
0.3125
40
0.375000000000001
40
0.375000000000001
40
0.500000000000001
40
0.500000000000001
40
0.625000000000001
40
0.625000000000001
40
0.6875
40
0.6875
40
0.75
40
0.75
40
0.875
40
0.875
40
1
40
1
40
1
40
1
41
1
10
27.3136435671002
20
-4.11594443406435
30
0
41
1
10
29.0697660068175
20
-4.80449626791389
30
0
41
1
10
30.8230477867366
20
-5.47985613160731
30
0
41
1
10
34.328286631704
20
-6.79426040820303
30
0
41
1
10
36.0802304722283
20
-7.43335998964741
30
0
41
1
10
38.7095738738212
20
-8.3593927513995
30
0
41
1
10
39.5863267874321
20
-8.66248484348785
30
0
41
1
10
41.3410215072811
20
-9.25624875502484
30
0
41
1
10
42.2193743289749
20
-9.54707835919882
30
0
41
1
10
44.8538897726486
20
-10.3983666705334
30
0
41
1
10
46.6076536386328
20
-10.9369320428362
30
0
41
1
10
50.1138958838779
20
-11.9494195674622
30
0
41
1
10
51.8659376085423
20
-12.4241004795138
30
0
41
1
10
54.4956920701297
20
-13.0829567204408
30
0
41
1
10
55.3726159515199
20
-13.2936330009553
30
0
41
1
10
57.127657097422
20
-13.6962940876616
30
0
41
1
10
58.0062712623596
20
-13.8883973921568
30
0
41
1
10
60.6400738152815
20
-14.4349914560486
30
0
41
1
10
62.3928374537279
20
-14.759658669162
30
0
41
1
10
65.8974835954451
20
-15.3239135075404
30
0
41
1
10
67.6488206816118
20
-15.5640663607003
30
0
41
1
10
69.4016055448443
20
-15.7600849965746
30
0
0
SPLINE
5
1D5
100
AcDbEntity
8
1
62
256
6
ByLayer
370
-1
48
1
60
0
100
AcDbSpline
70
4
71
3
72
20
73
16
40
0
40
0
40
0
40
0
40
0.0435197319067794
40
0.0435197319067794
40
0.202933109922316
40
0.202933109922316
40
0.362346487937853
40
0.362346487937853
40
0.52175986595339
40
0.52175986595339
40
0.681173243968927
40
0.681173243968927
40
0.840586621984463
40
0.840586621984463
40
1
40
1
40
1
40
1
41
1
10
57.0914420813642
20
13.2352410345418
30
0
41
1
10
57.3650264325972
20
13.3005112689581
30
0
41
1
10
57.6386648267369
20
13.3649027881523
30
0
41
1
10
58.9149300454818
20
13.6610051883749
30
0
41
1
10
59.9173202973271
20
13.8814078666948
30
0
41
1
10
61.9190510199597
20
14.2958908070086
30
0
41
1
10
62.9191176316056
20
14.4898501789297
30
0
41
1
10
64.9186881384033
20
14.8503085750976
30
0
41
1
10
65.9182294687263
20
15.0168128896185
30
0
41
1
10
67.9162114928152
20
15.3230491086798
30
0
41
1
10
68.91449157631
20
15.4628494525648
30
0
41
1
10
70.9119371880519
20
15.7136811211665
30
0
41
1
10
71.911075671831
20
15.8248087751365
30
0
41
1
10
73.9098882361664
20
16.0185889356476
30
0
41
1
10
74.9097557389986
20
16.1010855892731
30
0
41
1
10
75.9106095335276
20
16.1688343972999
30
0
0
SPLINE
5
1D6
100
AcDbEntity
8
1
62
256
6
ByLayer
370
-1
48
1
60
0
100
AcDbSpline
70
4
71
3
72
8
73
4
40
0
40
0
40
0
40
0
40
1
40
1
40
1
40
1
41
1
10
14.284178376558
20
-14.1504144545093
30
0
41
1
10
14.284178376558
20
-16.1057815895435
30
0
41
1
10
14.284178376558
20
-18.0611487245778
30
0
41
1
10
14.284178376558
20
-20.016515859612
30
0
0
SPLINE
5
1D7
100
AcDbEntity
8
1
62
256
6
ByLayer
370
-1
48
1
60
0
100
AcDbSpline
70
4
71
3
72
12
73
8
40
0
40
0
40
0
40
0
40
0.499999999999999
40
0.499999999999999
40
0.75
40
0.75
40
1
40
1
40
1
40
1
41
1
10
7.46547969552631
20
-12.7207842047816
30
0
41
1
10
7.72342332993424
20
-12.989827713883
30
0
41
1
10
7.9917838695184
20
-13.2263087220945
30
0
41
1
10
8.40691799513641
20
-13.5416278174045
30
0
41
1
10
8.54741834411428
20
-13.6401051112777
30
0
41
1
10
8.83237580792837
20
-13.8247980882451
30
0
41
1
10
8.97683948982768
20
-13.9109934073391
30
0
41
1
10
9.12248760597035
20
-13.9910807190657
30
0
0
SPLINE
5
1D8
100
AcDbEntity
8
1
62
256
6
ByLayer
370
-1
48
1
60
0
100
AcDbSpline
70
4
71
3
72
16
73
12
40
0
40
0
40
0
40
0
40
0.250000000000004
40
0.250000000000004
40
0.500000000000007
40
0.500000000000007
40
0.625000000000005
40
0.625000000000005
40
0.750000000000004
40
0.750000000000004
40
1
40
1
40
1
40
1
41
1
10
85.5433546528516
20
1.88250242493649
30
0
41
1
10
85.0674701451054
20
1.85395618285437
30
0
41
1
10
84.5946506965395
20
1.85436626863319
30
0
41
1
10
83.6549721154774
20
1.9114943673089
30
0
41
1
10
83.188113086416
20
1.96821362523926
30
0
41
1
10
82.4924014999482
20
2.09635970959266
30
0
41
1
10
82.2612628653449
20
2.14627383285094
30
0
41
1
10
81.8005648996595
20
2.26090829099201
30
0
41
1
10
81.5707474392018
20
2.32575305767713
30
0
41
1
10
80.8909881937815
20
2.54087038829087
30
0
41
1
10
80.4483731805693
20
2.71214597318436
30
0
41
1
10
80.0166629549552
20
2.91177180088252
30
0
0
SPLINE
5
1D9
100
AcDbEntity
8
1
62
256
6
ByLayer
370
-1
48
1
60
0
100
AcDbSpline
70
4
71
3
72
94
73
90
40
0
40
0
40
0
40
0
40
0.0044827197430892
40
0.0144715753999703
40
0.0244604310568512
40
0.0394437145421729
40
0.0444381423706133
40
0.0544269980274944
40
0.0644158536843756
40
0.0793991371696973
40
0.0843935649981376
40
0.094382420655019
40
0.1043712763119
40
0.119354559797221
40
0.124348987625662
40
0.134337843282543
40
0.144326698939424
40
0.159309982424746
40
0.164304410253186
40
0.174293265910067
40
0.184282121566948
40
0.19926540505227
40
0.20425983288071
40
0.214248688537591
40
0.224237544194473
40
0.239220827679794
40
0.244215255508234
40
0.254204111165116
40
0.264192966821997
40
0.279176250307318
40
0.284170678135759
40
0.29415953379264
40
0.304148389449521
40
0.324126100763283
40
0.334114956420164
40
0.344103812077045
40
0.364081523390807
40
0.374070379047688
40
0.384059234704569
40
0.404036946018331
40
0.414025801675213
40
0.424014657332093
40
0.443992368645856
40
0.448986796474296
40
0.453981224302737
40
0.463970079959618
40
0.468964507788058
40
0.473958935616499
40
0.48145057735916
40
0.48394779127338
40
0.48894221910182
40
0.493936646930261
40
0.503925502587142
40
0.513914358244023
40
0.523903213900904
40
0.543880925214666
40
0.563858636528428
40
0.573847492185309
40
0.58383634784219
40
0.603814059155952
40
0.613802914812834
40
0.623791770469715
40
0.643769481783477
40
0.653758337440358
40
0.663747193097239
40
0.683724904411001
40
0.693713760067882
40
0.703702615724763
40
0.723680327038525
40
0.733669182695406
40
0.743658038352287
40
0.763635749666049
40
0.77362460532293
40
0.783613460979812
40
0.803591172293573
40
0.813580027950455
40
0.823568883607336
40
0.843546594921098
40
0.853535450577979
40
0.86352430623486
40
0.883502017548622
40
0.893490873205503
40
0.903479728862384
40
0.923457440176146
40
0.933446295833027
40
0.943435151489908
40
0.96341286280367
40
0.983390574117432
40
1
40
1
40
1
40
1
41
1
10
13.6909497459954
20
0.478658055988149
30
0
41
1
10
13.6729784744924
20
0.473733120637832
30
0
41
1
10
13.6148802434596
20
0.457296892563306
30
0
41
1
10
13.5162614024294
20
0.42656942575772
30
0
41
1
10
13.3746108186232
20
0.376808664232243
30
0
41
1
10
13.2525904404873
20
0.327865814785213
30
0
41
1
10
13.1302535825552
20
0.273853046624623
30
0
41
1
10
13.0281433997842
20
0.225665935585994
30
0
41
1
10
12.8850268239822
20
0.152291530732612
30
0
41
1
10
12.7623332472106
20
0.083082591097849
30
0
41
1
10
12.6398039153142
20
0.0088421868841237
30
0
41
1
10
12.5378367138105
20
-0.0561649383401175
30
0
41
1
10
12.3954906503242
20
-0.152971178908189
30
0
41
1
10
12.2740729142232
20
-0.242088281513929
30
0
41
1
10
12.153316933672
20
-0.336033693030629
30
0
41
1
10
12.0531395502613
20
-0.417321739224292
30
0
41
1
10
11.9138780030702
20
-0.53661346865843
30
0
41
1
10
11.7957203109652
20
-0.644624111853517
30
0
41
1
10
11.6787125860845
20
-0.757099336284938
30
0
41
1
10
11.5819628966466
20
-0.853589076109017
30
0
41
1
10
11.4480565149806
20
-0.993674123246194
30
0
41
1
10
11.3350729423708
20
-1.11893927292303
30
0
41
1
10
11.2236919285514
20
-1.24816111222526
30
0
41
1
10
11.1319109950336
20
-1.35827784430987
30
0
41
1
10
11.0054651712324
20
-1.51679481224025
30
0
41
1
10
10.8993973443856
20
-1.65713178777864
30
0
41
1
10
10.7953256549164
20
-1.80080192835513
30
0
41
1
10
10.709876976867
20
-1.92256046824374
30
0
41
1
10
10.5927232058026
20
-2.09661043436222
30
0
41
1
10
10.4950524670749
20
-2.24941786756867
30
0
41
1
10
10.3996939435957
20
-2.40485564063218
30
0
41
1
10
10.321697556849
20
-2.53597544340562
30
0
41
1
10
10.2001093859657
20
-2.74890692190655
30
0
41
1
10
10.0834384004619
20
-2.96617514189216
30
0
41
1
10
9.97190082736182
20
-3.18703420414147
30
0
41
1
10
9.8638265945597
20
-3.41004054861082
30
0
41
1
10
9.76100897024745
20
-3.6358978974767
30
0
41
1
10
9.66357115051113
20
-3.86386641287191
30
0
41
1
10
9.56973139069549
20
-4.09300925930461
30
0
41
1
10
9.48130600606601
20
-4.32356393232044
30
0
41
1
10
9.39832956723288
20
-4.55483109197317
30
0
41
1
10
9.31897089563068
20
-4.78636274774641
30
0
41
1
10
9.25426086938808
20
-4.98902382305695
30
0
41
1
10
9.20214498635644
20
-5.16238926418791
30
0
41
1
10
9.16829518860871
20
-5.27782985089928
30
0
41
1
10
9.13578782218195
20
-5.39299893627987
30
0
41
1
10
9.10462537689801
20
-5.50776263979577
30
0
41
1
10
9.07810566236685
20
-5.6080585903421
30
0
41
1
10
9.0561355279664
20
-5.69401786155413
30
0
41
1
10
9.03472651741413
20
-5.78011699000666
30
0
41
1
10
9.01722643691352
20
-5.8519842591507
30
0
41
1
10
8.98992962703537
20
-5.96736060905155
30
0
41
1
10
8.95708301414334
20
-6.11256676195725
30
0
41
1
10
8.91956428252303
20
-6.28921326436375
30
0
41
1
10
8.87222574990076
20
-6.52763575380189
30
0
41
1
10
8.81838373526605
20
-6.8305178916608
30
0
41
1
10
8.77219137586735
20
-7.13903281199424
30
0
41
1
10
8.74015215371713
20
-7.38872086638139
30
0
41
1
10
8.71148572678618
20
-7.64012259293716
30
0
41
1
10
8.68802302014436
20
-7.89378921787849
30
0
41
1
10
8.670053088712
20
-8.14910952147045
30
0
41
1
10
8.65582261311869
20
-8.40529831768626
30
0
41
1
10
8.64731772983302
20
-8.66243891312294
30
0
41
1
10
8.6447712559532
20
-8.91982942835074
30
0
41
1
10
8.64624945508803
20
-9.17713111063529
30
0
41
1
10
8.65384326386084
20
-9.433916374299
30
0
41
1
10
8.66770988250383
20
-9.68941888092996
30
0
41
1
10
8.68578041582199
20
-9.9438011307671
30
0
41
1
10
8.71018988329541
20
-10.1961053672555
30
0
41
1
10
8.7410044092091
20
-10.4455363340791
30
0
41
1
10
8.77607730466946
20
-10.6927907087138
30
0
41
1
10
8.81752025032958
20
-10.9363885764468
30
0
41
1
10
8.86529823794893
20
-11.175546700041
30
0
41
1
10
8.91725357201867
20
-11.4115021716978
30
0
41
1
10
8.97540590348035
20
-11.6422894316812
30
0
41
1
10
9.03961718776668
20
-11.8671800124564
30
0
41
1
10
9.10778930907355
20
-12.0879282321639
30
0
41
1
10
9.18178498861744
20
-12.3021460478765
30
0
41
1
10
9.26136883181073
20
-12.5091997348076
30
0
41
1
10
9.34457187250987
20
-12.7113082993548
30
0
41
1
10
9.43304434207707
20
-12.9057456255315
30
0
41
1
10
9.52646750573101
20
-13.0920046037492
30
0
41
1
10
9.62306364211199
20
-13.2726917911629
30
0
41
1
10
9.72422800258747
20
-13.4448419541237
30
0
41
1
10
9.82957811716514
20
-13.6080964161382
30
0
41
1
10
9.93757784562723
20
-13.765353076894
30
0
41
1
10
10.0772813656436
20
-13.9505517743019
30
0
41
1
10
10.2418092369966
20
-14.1427461412865
30
0
41
1
10
10.3514730811774
20
-14.2566094725916
30
0
41
1
10
10.401841677355
20
-14.3061367038181
30
0
0
SPLINE
5
1DA
100
AcDbEntity
8
1
62
256
6
ByLayer
370
-1
48
1
60
0
100
AcDbSpline
70
4
71
3
72
30
73
26
40
0
40
0
40
0
40
0
40
0.125000000000001
40
0.125000000000001
40
0.187500000000001
40
0.187500000000001
40
0.250000000000001
40
0.250000000000001
40
0.375000000000001
40
0.375000000000001
40
0.5
40
0.5
40
0.562500000000001
40
0.562500000000001
40
0.625000000000001
40
0.625000000000001
40
0.75
40
0.75
40
0.875
40
0.875
40
0.90625
40
0.90625
40
0.9375
40
0.9375
40
1
40
1
40
1
40
1
41
1
10
7.46547969551793
20
-12.7207842047728
30
0
41
1
10
7.64678397776615
20
-13.2693625289212
30
0
41
1
10
7.84336672871865
20
-13.7957847811664
30
0
41
1
10
8.16091852212253
20
-14.5515522684518
30
0
41
1
10
8.2705635955349
20
-14.7978158672835
30
0
41
1
10
8.49758761615146
20
-15.2787305904423
30
0
41
1
10
8.61530883484627
20
-15.5139772231868
30
0
41
1
10
8.97637741385262
20
-16.1941905451909
30
0
41
1
10
9.22832116385629
20
-16.6156085983861
30
0
41
1
10
9.75496068969215
20
-17.3945126233574
30
0
41
1
10
10.0296480073855
20
-17.7520144899925
30
0
41
1
10
10.4602280664601
20
-18.238151856083
30
0
41
1
10
10.6068601091223
20
-18.3918198504058
30
0
41
1
10
10.906782543021
20
-18.6816757096607
30
0
41
1
10
11.0603026587904
20
-18.8180516717419
30
0
41
1
10
11.5303016798178
20
-19.1982226205777
30
0
41
1
10
11.851311459066
20
-19.4094345182975
30
0
41
1
10
12.511444381695
20
-19.7445278575334
30
0
41
1
10
12.8505278032066
20
-19.8685037015606
30
0
41
1
10
13.2887907551442
20
-19.9630148525127
30
0
41
1
10
13.3771712733707
20
-19.978872910779
30
0
41
1
10
13.5555015994804
20
-20.0042531265062
30
0
41
1
10
13.6455413618789
20
-20.0137740843896
30
0
41
1
10
13.9167393464255
20
-20.0323275114743
30
0
41
1
10
14.0993634391169
20
-20.0314579713688
30
0
41
1
10
14.284178376558
20
-20.016515859612
30
0
0
SPLINE
5
1DB
100
AcDbEntity
8
1
62
256
6
ByLayer
370
-1
48
1
60
0
100
AcDbSpline
70
4
71
3
72
8
73
4
40
0
40
0
40
0
40
0
40
1
40
1
40
1
40
1
41
1
10
23.0430741501765
20
-15.3304462776886
30
0
41
1
10
22.2305011576628
20
-15.0615163738388
30
0
41
1
10
21.4243998866652
20
-14.7618853610363
30
0
41
1
10
20.6290778667591
20
-14.4194463489781
30
0
0
SPLINE
5
1DC
100
AcDbEntity
8
1
62
256
6
ByLayer
370
-1
48
1
60
0
100
AcDbSpline
70
4
71
3
72
8
73
4
40
0
40
0
40
0
40
0
40
1
40
1
40
1
40
1
41
1
10
84.6943120717537
20
-16.367055848935
30
0
41
1
10
85.0950443738418
20
-16.3729127560378
30
0
41
1
10
85.4863195672751
20
-16.3799842075666
30
0
41
1
10
85.8681330946203
20
-16.3862424473962
30
0
0
SPLINE
5
1DD
100
AcDbEntity
8
1
62
256
6
ByLayer
370
-1
48
1
60
0
100
AcDbSpline
70
4
71
3
72
8
73
4
40
0
40
0
40
0
40
0
40
1
40
1
40
1
40
1
41
1
10
86.0056806620957
20
3.47300037495268
30
0
41
1
10
86.0130932440323
20
3.47476991478618
30
0
41
1
10
86.0204859152119
20
3.47654697700361
30
0
41
1
10
86.0278586244379
20
3.47833158094724
30
0
0
SPLINE
5
1DE
100
AcDbEntity
8
1
62
256
6
ByLayer
370
-1
48
1
60
0
100
AcDbSpline
70
4
71
3
72
28
73
24
40
0
40
0
40
0
40
0
40
0.0624999999999953
40
0.0624999999999953
40
0.124999999999991
40
0.124999999999991
40
0.187499999999986
40
0.187499999999986
40
0.249999999999981
40
0.249999999999981
40
0.28124999999998
40
0.28124999999998
40
0.312499999999979
40
0.312499999999979
40
0.374999999999976
40
0.374999999999976
40
0.49999999999998
40
0.49999999999998
40
0.624999999999985
40
0.624999999999985
40
0.74999999999999
40
0.74999999999999
40
1
40
1
40
1
40
1
41
1
10
79.8281030567879
20
8.44806351009078
30
0
41
1
10
79.7837195203458
20
8.43750870952897
30
0
41
1
10
79.7399885050683
20
8.42467899401433
30
0
41
1
10
79.6546336421665
20
8.39165739051003
30
0
41
1
10
79.6135681057734
20
8.37172527392758
30
0
41
1
10
79.5390676886891
20
8.32077473642036
30
0
41
1
10
79.5056073828008
20
8.28899628703579
30
0
41
1
10
79.4606873536676
20
8.21566210327276
30
0
41
1
10
79.4500021250141
20
8.17491726715659
30
0
41
1
10
79.4497903218083
20
8.11548734256525
30
0
41
1
10
79.4522041892374
20
8.09580046204113
30
0
41
1
10
79.4605493945049
20
8.05800433085673
30
0
41
1
10
79.4664791956611
20
8.03967611544536
30
0
41
1
10
79.4882352130371
20
7.98598100659172
30
0
41
1
10
79.5078372487886
20
7.9522814948451
30
0
41
1
10
79.5741015978355
20
7.85739096980802
30
0
41
1
10
79.6292191753543
20
7.80046682564631
30
0
41
1
10
79.7466707942152
20
7.69595302469619
30
0
41
1
10
79.8094937226944
20
7.64818862057979
30
0
41
1
10
79.9401790525148
20
7.55812276219103
30
0
41
1
10
80.0081078739348
20
7.5158945945582
30
0
41
1
10
80.2175699664621
20
7.3952740566603
30
0
41
1
10
80.3648439543683
20
7.32282210461315
30
0
41
1
10
80.5158350374992
20
7.25622580883999
30
0
0
SPLINE
5
1DF
100
AcDbEntity
8
1
62
256
6
ByLayer
370
-1
48
1
60
0
100
AcDbSpline
70
4
71
3
72
11
73
7
40
0
40
0
40
0
40
0
40
0.0414539424598121
40
0.479978610899563
40
0.918503279339314
40
1
40
1
40
1
40
1
41
1
10
88.1687373526486
20
16.1010413556797
30
0
41
1
10
88.1687051028939
20
16.1022410280878
30
0
41
1
10
88.1683307370576
20
16.1161325666957
30
0
41
1
10
88.1676054358179
20
16.1427238164712
30
0
41
1
10
88.1668527704111
20
16.1704702691633
30
0
41
1
10
88.1664439700727
20
16.185523798937
30
0
41
1
10
88.1663795732568
20
16.1878832506687
30
0
0
SPLINE
5
1E0
100
AcDbEntity
8
1
62
256
6
ByLayer
370
-1
48
1
60
0
100
AcDbSpline
70
4
71
3
72
8
73
4
40
0
40
0
40
0
40
0
40
1
40
1
40
1
40
1
41
1
10
97.4236673269107
20
-8.70396474847564
30
0
41
1
10
97.454300295726
20
-8.69658510744597
30
0
41
1
10
97.4839378696688
20
-8.68978147481531
30
0
41
1
10
97.5127963937246
20
-8.68343704750441
30
0
0
SPLINE
5
1E1
100
AcDbEntity
8
1
62
256
6
ByLayer
370
-1
48
1
60
0
100
AcDbSpline
70
4
71
3
72
10
73
6
40
0
40
0
40
0
40
0
40
0.226403792113077
40
0.226403792113077
40
1
40
1
40
1
40
1
41
1
10
96.5573548412379
20
-7.14365099492298
30
0
41
1
10
96.5652512472669
20
-7.13287090478909
30
0
41
1
10
96.5724339565521
20
-7.12154828648434
30
0
41
1
10
96.6003404210933
20
-7.0701005008481
30
0
41
1
10
96.6127150523896
20
-7.02512928489236
30
0
41
1
10
96.6142727271306
20
-6.97929067110411
30
0
0
SPLINE
5
1E2
100
AcDbEntity
8
1
62
256
6
ByLayer
370
-1
48
1
60
0
100
AcDbSpline
70
4
71
3
72
8
73
4
40
0
40
0
40
0
40
0
40
1
40
1
40
1
40
1
41
1
10
97.1824173445548
20
-1.07215320977599
30
0
41
1
10
97.1821552559394
20
-1.04639905345496
30
0
41
1
10
97.177472256174
20
-1.01663373071392
30
0
41
1
10
97.1665266603784
20
-0.986782006311046
30
0
0
SPLINE
5
1E3
100
AcDbEntity
8
1
62
256
6
ByLayer
370
-1
48
1
60
0
100
AcDbSpline
70
4
71
3
72
8
73
4
40
0
40
0
40
0
40
0
40
1
40
1
40
1
40
1
41
1
10
97.4564717474952
20
-8.73798937020163
30
0
41
1
10
97.4303575098622
20
-8.74230680443449
30
0
41
1
10
97.4035024329497
20
-8.74705805492113
30
0
41
1
10
97.3756628036236
20
-8.7523858337473
30
0
0
SPLINE
5
1E4
100
AcDbEntity
8
1
62
256
6
ByLayer
370
-1
48
1
60
0
100
AcDbSpline
70
4
71
3
72
20
73
16
40
0
40
0
40
0
40
0
40
0.0624999999999997
40
0.0624999999999997
40
0.124999999999999
40
0.124999999999999
40
0.25
40
0.25
40
0.375000000000001
40
0.375000000000001
40
0.500000000000002
40
0.500000000000002
40
0.750000000000001
40
0.750000000000001
40
1
40
1
40
1
40
1
41
1
10
97.718170395308
20
-7.11161738471466
30
0
41
1
10
97.7170241670528
20
-7.14437984456515
30
0
41
1
10
97.7164983577069
20
-7.17644752503321
30
0
41
1
10
97.7164703554441
20
-7.23943658372158
30
0
41
1
10
97.7169831828732
20
-7.27060495074539
30
0
41
1
10
97.7196094281378
20
-7.35871330507308
30
0
41
1
10
97.7227767965917
20
-7.41245014137735
30
0
41
1
10
97.7302694065617
20
-7.51199003574754
30
0
41
1
10
97.7345935853007
20
-7.55769087901044
30
0
41
1
10
97.743846459043
20
-7.64483585810504
30
0
41
1
10
97.7487866459319
20
-7.68619907370771
30
0
41
1
10
97.7641871363799
20
-7.8062051390566
30
0
41
1
10
97.7752059405692
20
-7.88078753626604
30
0
41
1
10
97.7977905769644
20
-8.02390532623718
30
0
41
1
10
97.8094045553834
20
-8.09251601875735
30
0
41
1
10
97.8212000516542
20
-8.15946299489946
30
0
0
SPLINE
5
1E5
100
AcDbEntity
8
1
62
256
6
ByLayer
370
-1
48
1
60
0
100
AcDbSpline
70
4
71
3
72
8
73
4
40
0
40
0
40
0
40
0
40
1
40
1
40
1
40
1
41
1
10
96.3555089901956
20
0.794777657063719
30
0
41
1
10
96.3169905184546
20
0.793974082332738
30
0
41
1
10
96.2776903661527
20
0.793317946199153
30
0
41
1
10
96.2372712841022
20
0.79283897412418
30
0
0
SPLINE
5
1E6
100
AcDbEntity
8
1
62
256
6
ByLayer
370
-1
48
1
60
0
100
AcDbSpline
70
4
71
3
72
12
73
8
40
0
40
0
40
0
40
0
40
0.5
40
0.5
40
0.75
40
0.75
40
1
40
1
40
1
40
1
41
1
10
97.0801143768219
20
-0.658611099442879
30
0
41
1
10
97.0918395025154
20
-0.703454462976225
30
0
41
1
10
97.105414960079
20
-0.752062312733926
30
0
41
1
10
97.1305776989473
20
-0.833462927631757
30
0
41
1
10
97.1396509442989
20
-0.861613426948395
30
0
41
1
10
97.1596103470811
20
-0.920603288149721
30
0
41
1
10
97.1704445717581
20
-0.951240943867646
30
0
41
1
10
97.1817883344445
20
-0.981898193520323
30
0
0
SPLINE
5
1E7
100
AcDbEntity
8
1
62
256
6
ByLayer
370
-1
48
1
60
0
100
AcDbSpline
70
4
71
3
72
18
73
14
40
0
40
0
40
0
40
0
40
0.249999999999999
40
0.249999999999999
40
0.499999999999997
40
0.499999999999997
40
0.624999999999998
40
0.624999999999998
40
0.749999999999999
40
0.749999999999999
40
0.874999999999999
40
0.874999999999999
40
1
40
1
40
1
40
1
41
1
10
97.7521693566453
20
-8.29224148449509
30
0
41
1
10
97.7434885812662
20
-8.21738867448678
30
0
41
1
10
97.7353530752698
20
-8.14021210328494
30
0
41
1
10
97.7206323191231
20
-7.97768731266467
30
0
41
1
10
97.7140437001483
20
-7.89255608270764
30
0
41
1
10
97.7059992538442
20
-7.75372497774629
30
0
41
1
10
97.7036214621187
20
-7.70537039721796
30
0
41
1
10
97.6997310824616
20
-7.60407933594655
30
0
41
1
10
97.6982067549995
20
-7.5510928254362
30
0
41
1
10
97.6963143503239
20
-7.43734950963858
30
0
41
1
10
97.6959528755856
20
-7.37556418472195
30
0
41
1
10
97.6969737836581
20
-7.24575294009153
30
0
41
1
10
97.6983879563481
20
-7.17633606567355
30
0
41
1
10
97.7008136678611
20
-7.10700233943311
30
0
0
SPLINE
5
1E8
100
AcDbEntity
8
1
62
256
6
ByLayer
370
-1
48
1
60
0
100
AcDbSpline
70
4
71
3
72
10
73
6
40
0
40
0
40
0
40
0
40
0.5
40
0.5
40
1
40
1
40
1
40
1
41
1
10
97.192259320532
20
-1.37850432660562
30
0
41
1
10
97.1893300322857
20
-1.32271443103633
30
0
41
1
10
97.1870965555755
20
-1.26912138449435
30
0
41
1
10
97.1838424612888
20
-1.16558361058102
30
0
41
1
10
97.1828790250103
20
-1.11752027236997
30
0
41
1
10
97.1824173445548
20
-1.07215320977596
30
0
0
SPLINE
5
1E9
100
AcDbEntity
8
1
62
256
6
ByLayer
370
-1
48
1
60
0
100
AcDbSpline
70
4
71
3
72
10
73
6
40
0
40
0
40
0
40
0
40
0.353874973319971
40
0.353874973319971
40
1
40
1
40
1
40
1
41
1
10
96.4320191299169
20
-5.00518607267338
30
0
41
1
10
96.4501556215014
20
-5.06772637138266
30
0
41
1
10
96.4699286050207
20
-5.12990844361042
30
0
41
1
10
96.5304801987271
20
-5.30460264879645
30
0
41
1
10
96.5752516944065
20
-5.41649515210759
30
0
41
1
10
96.6251830992587
20
-5.52588692003545
30
0
0
SPLINE
5
1EA
100
AcDbEntity
8
1
62
256
6
ByLayer
370
-1
48
1
60
0
100
AcDbSpline
70
4
71
3
72
18
73
14
40
0
40
0
40
0
40
0
40
0.124999999999994
40
0.124999999999994
40
0.249999999999988
40
0.249999999999988
40
0.374999999999983
40
0.374999999999983
40
0.499999999999977
40
0.499999999999977
40
0.749999999999988
40
0.749999999999988
40
1
40
1
40
1
40
1
41
1
10
97.5127963937217
20
-8.68343704750606
30
0
41
1
10
97.5326062852055
20
-8.67908192468994
30
0
41
1
10
97.5530764618149
20
-8.67286231301179
30
0
41
1
10
97.5964196202712
20
-8.65357777337317
30
0
41
1
10
97.6193847618625
20
-8.64015284786834
30
0
41
1
10
97.6616869871476
20
-8.60568724254617
30
0
41
1
10
97.6807908524252
20
-8.58463066770469
30
0
41
1
10
97.7105012433285
20
-8.54157677936516
30
0
41
1
10
97.721064343562
20
-8.52042414968216
30
0
41
1
10
97.7452643710405
20
-8.45938453096761
30
0
41
1
10
97.7515695814133
20
-8.42259878275428
30
0
41
1
10
97.7569818175247
20
-8.3540568747373
30
0
41
1
10
97.7556662823978
20
-8.32239486452616
30
0
41
1
10
97.7521693566453
20
-8.29224148449509
30
0
0
SPLINE
5
1EB
100
AcDbEntity
8
1
62
256
6
ByLayer
370
-1
48
1
60
0
100
AcDbSpline
70
4
71
3
72
8
73
4
40
0
40
0
40
0
40
0
40
1
40
1
40
1
40
1
41
1
10
96.7576231069906
20
0.456529178762679
30
0
41
1
10
96.7487102963083
20
0.485588465452139
30
0
41
1
10
96.7402952490681
20
0.513575040495084
30
0
41
1
10
96.7322780205706
20
0.540721890146756
30
0
0
SPLINE
5
1EC
100
AcDbEntity
8
1
62
256
6
ByLayer
370
-1
48
1
60
0
100
AcDbSpline
70
4
71
3
72
10
73
6
40
0
40
0
40
0
40
0
40
0.911217334902707
40
0.911217334902707
40
1
40
1
40
1
40
1
41
1
10
96.5945752086667
20
-5.53609114561326
30
0
41
1
10
96.5441330331428
20
-5.42626189409711
30
0
41
1
10
96.4990396204091
20
-5.31439562635231
30
0
41
1
10
96.4553966034679
20
-5.18940427378183
30
0
41
1
10
96.4515725421805
20
-5.1782869429282
30
0
41
1
10
96.447799509649
20
-5.16715071211812
30
0
0
SPLINE
5
1ED
100
AcDbEntity
8
1
62
256
6
ByLayer
370
-1
48
1
60
0
100
AcDbSpline
70
4
71
3
72
12
73
8
40
0
40
0
40
0
40
0
40
0.25
40
0.25
40
0.5
40
0.5
40
1
40
1
40
1
40
1
41
1
10
97.1665266603785
20
-0.986782006311046
30
0
41
1
10
97.1535789968
20
-0.951470078845375
30
0
41
1
10
97.1410849177762
20
-0.916840661251229
30
0
41
1
10
97.1169316273647
20
-0.848825398283367
30
0
41
1
10
97.1051823663212
20
-0.8151691333656
30
0
41
1
10
97.0723016977853
20
-0.719408639395397
30
0
41
1
10
97.0530027871428
20
-0.661041933600984
30
0
41
1
10
97.0356203667736
20
-0.606686048747207
30
0
0
SPLINE
5
1EE
100
AcDbEntity
8
1
62
256
6
ByLayer
370
-1
48
1
60
0
100
AcDbSpline
70
4
71
3
72
18
73
14
40
0
40
0
40
0
40
0
40
0.16901489462397
40
0.16901489462397
40
0.446009929749342
40
0.446009929749342
40
0.584507447312007
40
0.584507447312007
40
0.723004964874671
40
0.723004964874671
40
0.861502482437335
40
0.861502482437335
40
1
40
1
40
1
40
1
41
1
10
96.2743017431484
20
0.859434861667296
30
0
41
1
10
96.3040250835978
20
0.858069501836383
30
0
41
1
10
96.3347313523253
20
0.854614718723298
30
0
41
1
10
96.4190801544526
20
0.838200464467604
30
0
41
1
10
96.4757149928928
20
0.820392938831873
30
0
41
1
10
96.5622103146842
20
0.773144442512063
30
0
41
1
10
96.5903719684856
20
0.754431850367411
30
0
41
1
10
96.6448886164146
20
0.709254110135618
30
0
41
1
10
96.6702534723156
20
0.68339875439716
30
0
41
1
10
96.7143471595913
20
0.627791964175515
30
0
41
1
10
96.7330393324105
20
0.59810741554179
30
0
41
1
10
96.7629931267272
20
0.538871828360129
30
0
41
1
10
96.7743583400196
20
0.509363677805084
30
0
41
1
10
96.7829147254081
20
0.480492235215166
30
0
0
SPLINE
5
1EF
100
AcDbEntity
8
1
62
256
6
ByLayer
370
-1
48
1
60
0
100
AcDbSpline
70
4
71
3
72
10
73
6
40
0
40
0
40
0
40
0
40
0.5
40
0.5
40
1
40
1
40
1
40
1
41
1
10
96.6535251703284
20
-5.82970121432956
30
0
41
1
10
96.6552661301762
20
-5.77900264193593
30
0
41
1
10
96.6511168433895
20
-5.72909917394463
30
0
41
1
10
96.6314652327436
20
-5.63082474590553
30
0
41
1
10
96.6157542929501
20
-5.58220499677776
30
0
41
1
10
96.5945752086676
20
-5.53609114561289
30
0
0
SPLINE
5
1F0
100
AcDbEntity
8
1
62
256
6
ByLayer
370
-1
48
1
60
0
100
AcDbSpline
70
4
71
3
72
10
73
6
40
0
40
0
40
0
40
0
40
0.5
40
0.5
40
1
40
1
40
1
40
1
41
1
10
96.6251830992587
20
-5.52588692003545
30
0
41
1
10
96.6473758423663
20
-5.57446053211476
30
0
41
1
10
96.6634850092179
20
-5.62454766805104
30
0
41
1
10
96.6841008543018
20
-5.72760844887171
30
0
41
1
10
96.6885420697702
20
-5.78106347726671
30
0
41
1
10
96.6866585279693
20
-5.83441873208298
30
0
0
SPLINE
5
1F1
100
AcDbEntity
8
1
62
256
6
ByLayer
370
-1
48
1
60
0
100
AcDbSpline
70
4
71
3
72
12
73
8
40
0
40
0
40
0
40
0
40
0.326328593701748
40
0.326328593701748
40
0.652657187403496
40
0.652657187403496
40
1
40
1
40
1
40
1
41
1
10
96.6457186703124
20
-6.98391752426434
30
0
41
1
10
96.6448265120078
20
-7.00925399392327
30
0
41
1
10
96.6410412396534
20
-7.03394623503485
30
0
41
1
10
96.6279569655055
20
-7.08210293699798
30
0
41
1
10
96.6184628236464
20
-7.10585579806789
30
0
41
1
10
96.5938140766331
20
-7.15138116667865
30
0
41
1
10
96.5781974118175
20
-7.17328571817814
30
0
41
1
10
96.5601073500506
20
-7.19304480698483
30
0
0
SPLINE
5
1F2
100
AcDbEntity
8
1
62
256
6
ByLayer
370
-1
48
1
60
0
100
AcDbSpline
70
4
71
3
72
18
73
14
40
0
40
0
40
0
40
0
40
0.250000000000002
40
0.250000000000002
40
0.500000000000005
40
0.500000000000005
40
0.625000000000004
40
0.625000000000004
40
0.750000000000002
40
0.750000000000002
40
0.875000000000001
40
0.875000000000001
40
1
40
1
40
1
40
1
41
1
10
97.8212000516542
20
-8.15946299489946
30
0
41
1
10
97.8261844320808
20
-8.20950346789166
30
0
41
1
10
97.8265516487228
20
-8.26155219023863
30
0
41
1
10
97.811910515533
20
-8.37190099789612
30
0
41
1
10
97.7967606192512
20
-8.43111608791074
30
0
41
1
10
97.7523234811823
20
-8.52034432096247
30
0
41
1
10
97.7343197371387
20
-8.54919587631545
30
0
41
1
10
97.6899714450288
20
-8.60452300633315
30
0
41
1
10
97.6642091366459
20
-8.62998165091867
30
0
41
1
10
97.6081275937935
20
-8.67362294533072
30
0
41
1
10
97.5778770394604
20
-8.69177067116195
30
0
41
1
10
97.5170420209649
20
-8.72018263387289
30
0
41
1
10
97.4865095445172
20
-8.73055927208219
30
0
41
1
10
97.4564717474952
20
-8.73798937020163
30
0
0
SPLINE
5
1F3
100
AcDbEntity
8
1
62
256
6
ByLayer
370
-1
48
1
60
0
100
AcDbSpline
70
4
71
3
72
8
73
4
40
0
40
0
40
0
40
0
40
1
40
1
40
1
40
1
41
1
10
96.7829147254082
20
0.480492235215166
30
0
41
1
10
96.7888916081362
20
0.45607500630345
30
0
41
1
10
96.7952505140848
20
0.430865814343264
30
0
41
1
10
96.802117117039
20
0.404604128067007
30
0
0
SPLINE
5
1F4
100
AcDbEntity
8
1
62
256
6
ByLayer
370
-1
48
1
60
0
100
AcDbSpline
70
4
71
3
72
18
73
14
40
0
40
0
40
0
40
0
40
0.124999999999989
40
0.124999999999989
40
0.249999999999978
40
0.249999999999978
40
0.374999999999967
40
0.374999999999967
40
0.499999999999956
40
0.499999999999956
40
0.749999999999978
40
0.749999999999978
40
1
40
1
40
1
40
1
41
1
10
96.7322780205719
20
0.540721890143715
30
0
41
1
10
96.7267746058362
20
0.559356805244903
30
0
41
1
10
96.7195100869014
20
0.57875744338412
30
0
41
1
10
96.6985136579418
20
0.620347031364247
30
0
41
1
10
96.684443955563
20
0.642650804294391
30
0
41
1
10
96.6495895346469
20
0.684550322328988
30
0
41
1
10
96.6288083150059
20
0.70393267141111
30
0
41
1
10
96.5870383777633
20
0.734949506896243
30
0
41
1
10
96.5668282105256
20
0.74647306329976
30
0
41
1
10
96.509006086312
20
0.773953297266957
30
0
41
1
10
96.4748164573772
20
0.782906636979789
30
0
41
1
10
96.4116504785756
20
0.79380252467854
30
0
41
1
10
96.3827920359063
20
0.79534683764453
30
0
41
1
10
96.3555089901956
20
0.794777657063719
30
0
0
SPLINE
5
1F5
100
AcDbEntity
8
1
62
256
6
ByLayer
370
-1
48
1
60
0
100
AcDbSpline
70
4
71
3
72
8
73
4
40
0
40
0
40
0
40
0
40
1
40
1
40
1
40
1
41
1
10
97.1817883344444
20
-0.981898193520379
30
0
41
1
10
97.1993143415719
20
-1.02974152021915
30
0
41
1
10
97.2076949249115
20
-1.0788327950485
30
0
41
1
10
97.2080488256936
20
-1.125511778505
30
0
0
SPLINE
5
1F6
100
AcDbEntity
8
1
62
256
6
ByLayer
370
-1
48
1
60
0
100
AcDbSpline
70
4
71
3
72
10
73
6
40
0
40
0
40
0
40
0
40
0.694155338182105
40
0.694155338182105
40
1
40
1
40
1
40
1
41
1
10
96.6866585279806
20
-5.83441873208255
30
0
41
1
10
96.6772263744429
20
-6.10040322642243
30
0
41
1
10
96.667762548715
20
-6.36638190718514
30
0
41
1
10
96.6540935474267
20
-6.74954398398785
30
0
41
1
10
96.6499081910284
20
-6.86673115748354
30
0
41
1
10
96.6457186703124
20
-6.98391752426434
30
0
0
SPLINE
5
1F7
100
AcDbEntity
8
1
62
256
6
ByLayer
370
-1
48
1
60
0
100
AcDbSpline
70
4
71
3
72
10
73
6
40
0
40
0
40
0
40
0
40
0.433874726799862
40
0.433874726799862
40
1
40
1
40
1
40
1
41
1
10
96.6142727271303
20
-6.97929067110402
30
0
41
1
10
96.6199225336447
20
-6.81303048084146
30
0
41
1
10
96.6255818192732
20
-6.64677061104126
30
0
41
1
10
96.6386540259164
20
-6.26357371796638
30
0
41
1
10
96.6460757203994
20
-6.04663699087152
30
0
41
1
10
96.6535251703284
20
-5.82970121432956
30
0
0
SPLINE
5
1F8
100
AcDbEntity
8
1
62
256
6
ByLayer
370
-1
48
1
60
0
100
AcDbSpline
70
4
71
3
72
10
73
6
40
0
40
0
40
0
40
0
40
0.5
40
0.5
40
1
40
1
40
1
40
1
41
1
10
97.2080488256936
20
-1.12551177850497
30
0
41
1
10
97.2065735264468
20
-1.16222593350986
30
0
41
1
10
97.2056838849606
20
-1.2013425886864
30
0
41
1
10
97.2059208678645
20
-1.28784707623566
30
0
41
1
10
97.2070805515141
20
-1.33356904950338
30
0
41
1
10
97.2096028263823
20
-1.38160715284644
30
0
0
SPLINE
5
1F9
100
AcDbEntity
8
1
62
256
6
ByLayer
370
-1
48
1
60
0
100
AcDbSpline
70
4
71
3
72
18
73
14
40
0
40
0
40
0
40
0
40
0.0041315572796323
40
0.049790684558169
40
0.0954498118367056
40
0.186768066393779
40
0.369404575507925
40
0.552041084622072
40
0.734677593736219
40
0.825995848293292
40
0.917314102850365
40
0.962973230128902
40
1
40
1
40
1
40
1
41
1
10
88.1176865449586
20
7.46453286124034
30
0
41
1
10
88.1172433465917
20
7.46451632054538
30
0
41
1
10
88.1118999004788
20
7.46431691108245
30
0
41
1
10
88.1015973667201
20
7.46393280036136
30
0
41
1
10
88.0814581838741
20
7.46318463366501
30
0
41
1
10
88.0452655293568
20
7.46184614744408
30
0
41
1
10
87.9909667613665
20
7.45985528871171
30
0
41
1
10
87.9222808746498
20
7.45736300064743
30
0
41
1
10
87.8626107697894
20
7.4552185728939
30
0
41
1
10
87.8137476744623
20
7.45347441967087
30
0
41
1
10
87.7828098600017
20
7.45237491536682
30
0
41
1
10
87.7590424640008
20
7.45153294633983
30
0
41
1
10
87.7476927102079
20
7.45113179080909
30
0
41
1
10
87.7426072176604
20
7.45095209709345
30
0
0
SPLINE
5
1FA
100
AcDbEntity
8
1
62
256
6
ByLayer
370
-1
48
1
60
0
100
AcDbSpline
70
4
71
3
72
13
73
9
40
0
40
0
40
0
40
0
40
0.0688517852168038
40
0.178433579648076
40
0.616760757373163
40
0.835924346235707
40
0.945506140666978
40
1
40
1
40
1
40
1
41
1
10
87.6567590487987
20
7.44791951129625
30
0
41
1
10
87.6528155991317
20
7.44778022910222
30
0
41
1
10
87.6425913810434
20
7.44741919522545
30
0
41
1
10
87.6071453070923
20
7.44616952441757
30
0
41
1
10
87.5627615966395
20
7.44461121356861
30
0
41
1
10
87.5182049208883
20
7.44305472174327
30
0
41
1
10
87.4959253852466
20
7.44227834303658
30
0
41
1
10
87.4863857879574
20
7.44194636610416
30
0
41
1
10
87.483217379226
20
7.4418361300628
30
0
0
SPLINE
5
1FB
100
AcDbEntity
8
1
62
256
6
ByLayer
370
-1
48
1
60
0
100
AcDbSpline
70
4
71
3
72
10
73
6
40
0
40
0
40
0
40
0
40
0.499245058431801
40
0.499245058431801
40
1
40
1
40
1
40
1
41
1
10
87.1203871416243
20
6.82142490980064
30
0
41
1
10
87.1197313054892
20
6.83655528717441
30
0
41
1
10
87.1191094044372
20
6.8516871957757
30
0
41
1
10
87.1179285160663
20
6.88199931572819
30
0
41
1
10
87.1173697394728
20
6.89717961278984
30
0
41
1
10
87.1168416115235
20
6.91236098823097
30
0
0
SPLINE
5
1FC
100
AcDbEntity
8
1
62
256
6
ByLayer
370
-1
48
1
60
0
100
AcDbSpline
70
4
71
1
72
4
73
2
40
0
40
0
40
1
40
1
41
1
10
87.6309935759297
20
16.7279905230489
30
0
41
1
10
87.6328862549922
20
16.658299374025
30
0
0
SPLINE
5
1FD
100
AcDbEntity
8
1
62
256
6
ByLayer
370
-1
48
1
60
0
100
AcDbSpline
70
4
71
3
72
14
73
10
40
0
40
0
40
0
40
0
40
0.25
40
0.25
40
0.5
40
0.5
40
0.75
40
0.75
40
1
40
1
40
1
40
1
41
1
10
87.5903470466022
20
6.09222576567154
30
0
41
1
10
87.5391157937182
20
6.10412647915965
30
0
41
1
10
87.4898356039078
20
6.12273196490077
30
0
41
1
10
87.3980257792625
20
6.17179655660428
30
0
41
1
10
87.354802179231
20
6.20277647579641
30
0
41
1
10
87.2787857202571
20
6.27398398986102
30
0
41
1
10
87.2450289360289
20
6.31512163655503
30
0
41
1
10
87.1900686573343
20
6.40361232855969
30
0
41
1
10
87.1685558281989
20
6.45092958699905
30
0
41
1
10
87.1532046385281
20
6.50142478169897
30
0
0
SPLINE
5
1FE
100
AcDbEntity
8
1
62
256
6
ByLayer
370
-1
48
1
60
0
100
AcDbSpline
70
4
71
3
72
8
73
4
40
0
40
0
40
0
40
0
40
1
40
1
40
1
40
1
41
1
10
87.9105819743714
20
6.08157652762347
30
0
41
1
10
87.8943104141773
20
6.0811420904474
30
0
41
1
10
87.8780391415642
20
6.08079425414672
30
0
41
1
10
87.8617689913515
20
6.08053142936399
30
0
0
SPLINE
5
1FF
100
AcDbEntity
8
1
62
256
6
ByLayer
370
-1
48
1
60
0
100
AcDbSpline
70
4
71
3
72
10
73
6
40
0
40
0
40
0
40
0
40
0.499225645850186
40
0.499225645850186
40
1
40
1
40
1
40
1
41
1
10
86.8062611468847
20
15.8401949417842
30
0
41
1
10
86.8056875940614
20
15.855328467483
30
0
41
1
10
86.8051527161863
20
15.8704636366511
30
0
41
1
10
86.8041666044801
20
15.9007838589404
30
0
41
1
10
86.8037158675659
20
15.9159690684771
30
0
41
1
10
86.8033079270742
20
15.9311553879997
30
0
0
SPLINE
5
200
100
AcDbEntity
8
1
62
256
6
ByLayer
370
-1
48
1
60
0
100
AcDbSpline
70
4
71
3
72
8
73
4
40
0
40
0
40
0
40
0
40
1
40
1
40
1
40
1
41
1
10
86.8033079270741
20
15.9311553879997
30
0
41
1
10
86.8028693217964
20
15.9474832594077
30
0
41
1
10
86.8025199490882
20
15.9638138146843
30
0
41
1
10
86.8022574975261
20
15.9801454849259
30
0
0
SPLINE
5
201
100
AcDbEntity
8
1
62
256
6
ByLayer
370
-1
48
1
60
0
100
AcDbSpline
70
4
71
3
72
14
73
10
40
0
40
0
40
0
40
0
40
0.0148352406567083
40
0.0390776615035871
40
0.233017028278617
40
0.620895761828676
40
0.814835128603706
40
0.911804811991221
40
1
40
1
40
1
40
1
41
1
10
96.2154369930386
20
15.654064324007
30
0
41
1
10
96.2162848104455
20
15.6540923531424
30
0
41
1
10
96.2184981188553
20
15.6541653785759
30
0
41
1
10
96.2317746563082
20
15.6546040215913
30
0
41
1
10
96.2662394417391
20
15.6557422132732
30
0
41
1
10
96.3103919291648
20
15.6572006167099
30
0
41
1
10
96.3490237178321
20
15.658476650193
30
0
41
1
10
96.3705836112093
20
15.6591886750573
30
0
41
1
10
96.3811141931624
20
15.6595364529759
30
0
41
1
10
96.386145114178
20
15.6597027086566
30
0
0
SPLINE
5
202
100
AcDbEntity
8
1
62
256
6
ByLayer
370
-1
48
1
60
0
100
AcDbSpline
70
4
71
3
72
8
73
4
40
0
40
0
40
0
40
0
40
1
40
1
40
1
40
1
41
1
10
96.0355751611164
20
15.9878646033275
30
0
41
1
10
96.0385787013277
20
16.1021701310231
30
0
41
1
10
96.0381656519523
20
16.237753819882
30
0
41
1
10
96.0343903969438
20
16.3767641067351
30
0
0
SPLINE
5
203
100
AcDbEntity
8
1
62
256
6
ByLayer
370
-1
48
1
60
0
100
AcDbSpline
70
4
71
3
72
14
73
10
40
0
40
0
40
0
40
0
40
0.25
40
0.25
40
0.5
40
0.5
40
0.75
40
0.75
40
1
40
1
40
1
40
1
41
1
10
96.9357662418691
20
17.0320098042255
30
0
41
1
10
96.9870196054938
20
17.0201090907374
30
0
41
1
10
97.0363081824146
20
17.0015036049963
30
0
41
1
10
97.128115696201
20
16.9524390132928
30
0
41
1
10
97.1713284857212
20
16.9214590941006
30
0
41
1
10
97.2473098522529
20
16.850251580036
30
0
41
1
10
97.2810441339603
20
16.809113933342
30
0
41
1
10
97.3360075317507
20
16.7206232413373
30
0
41
1
10
97.357540612756
20
16.673305982898
30
0
41
1
10
97.3729086499453
20
16.622810788198
30
0
0
SPLINE
5
204
100
AcDbEntity
8
1
62
256
6
ByLayer
370
-1
48
1
60
0
100
AcDbSpline
70
4
71
3
72
11
73
7
40
0
40
0
40
0
40
0
40
0.0814967294345615
40
0.520021388628438
40
0.958546047822315
40
1
40
1
40
1
40
1
41
1
10
97.1477597311863
20
7.78061857867465
30
0
41
1
10
97.145391574119
20
7.78053618479649
30
0
41
1
10
97.1302804476345
20
7.78001050396196
30
0
41
1
10
97.1024270037713
20
7.77904157649414
30
0
41
1
10
97.0757371896586
20
7.77811298959494
30
0
41
1
10
97.0617896212034
20
7.77762788638165
30
0
41
1
10
97.0605850293226
20
7.77758599288856
30
0
0
SPLINE
5
205
100
AcDbEntity
8
1
62
256
6
ByLayer
370
-1
48
1
60
0
100
AcDbSpline
70
4
71
3
72
14
73
10
40
0
40
0
40
0
40
0
40
0.0881951882033834
40
0.185164860420261
40
0.379104204854016
40
0.766982893721526
40
0.960922238155282
40
0.985164656209501
40
1
40
1
40
1
40
1
41
1
10
96.0355754907368
20
15.9878625494785
30
0
41
1
10
96.035453025445
20
15.9831015484157
30
0
41
1
10
96.0351899776807
20
15.9731429900479
30
0
41
1
10
96.0346515349796
20
15.9527532650632
30
0
41
1
10
96.0336926930877
20
15.9162124402395
30
0
41
1
10
96.032597349184
20
15.8744492730757
30
0
41
1
10
96.0317359391941
20
15.8418556519384
30
0
41
1
10
96.0314096707149
20
15.8292946097527
30
0
41
1
10
96.0313523269244
20
15.8272034305361
30
0
41
1
10
96.0313320269397
20
15.8264007747134
30
0
0
SPLINE
5
206
100
AcDbEntity
8
1
62
256
6
ByLayer
370
-1
48
1
60
0
100
AcDbSpline
70
4
71
3
72
8
73
4
40
0
40
0
40
0
40
0
40
1
40
1
40
1
40
1
41
1
10
86.8011014889957
20
16.1402008469698
30
0
41
1
10
86.8011464922248
20
16.1780641546519
30
0
41
1
10
86.8054691069447
20
16.2157873186726
30
0
41
1
10
86.8139792154993
20
16.2526763741372
30
0
0
SPLINE
5
207
100
AcDbEntity
8
1
62
256
6
ByLayer
370
-1
48
1
60
0
100
AcDbSpline
70
4
71
3
72
10
73
6
40
0
40
0
40
0
40
0
40
0.499245058431776
40
0.499245058431776
40
1
40
1
40
1
40
1
41
1
10
97.4057070817282
20
16.3028106600964
30
0
41
1
10
97.4063678214463
20
16.2876802827226
30
0
41
1
10
97.4069944369543
20
16.2725483741213
30
0
41
1
10
97.4081824041411
20
16.2422362541688
30
0
41
1
10
97.4087435489986
20
16.2270559571072
30
0
41
1
10
97.409271676948
20
16.211874581666
30
0
0
SPLINE
5
208
100
AcDbEntity
8
1
62
256
6
ByLayer
370
-1
48
1
60
0
100
AcDbSpline
70
4
71
3
72
11
73
7
40
0
40
0
40
0
40
0
40
0.0814967294345782
40
0.520021388628268
40
0.958546047821959
40
1
40
1
40
1
40
1
41
1
10
87.382084429549
20
15.3436169912224
30
0
41
1
10
87.3844172195714
20
15.3436993851005
30
0
41
1
10
87.399298585796
20
15.3442250659351
30
0
41
1
10
87.4267268796416
20
15.3451939934029
30
0
41
1
10
87.4530171895382
20
15.3461225803021
30
0
41
1
10
87.4667469751561
20
15.3466076835153
30
0
41
1
10
87.4679325984091
20
15.3466495770084
30
0
0
SPLINE
5
209
100
AcDbEntity
8
1
62
256
6
ByLayer
370
-1
48
1
60
0
100
AcDbSpline
70
4
71
3
72
12
73
8
40
0
40
0
40
0
40
0
40
0.484768844990483
40
0.727153267485725
40
0.848345478733346
40
0.969537689980967
40
1
40
1
40
1
40
1
41
1
10
97.6319415370876
20
7.79767519626645
30
0
41
1
10
97.5817454542686
20
7.79590203416856
30
0
41
1
10
97.506451332711
20
7.79324229111609
30
0
41
1
10
97.4186081917371
20
7.79013925758468
30
0
41
1
10
97.3684096617918
20
7.78836605699334
30
0
41
1
10
97.3401584597459
20
7.78736806986677
30
0
41
1
10
97.3244578320711
20
7.78681339769204
30
0
41
1
10
97.3213027461426
20
7.7867019598859
30
0
0
SPLINE
5
20A
100
AcDbEntity
8
1
62
256
6
ByLayer
370
-1
48
1
60
0
100
AcDbSpline
70
4
71
3
72
16
73
12
40
0
40
0
40
0
40
0
40
0.572471985996874
40
0.858707978995311
40
0.93026697724492
40
0.966046476369725
40
0.983936225932127
40
0.992881100713328
40
0.997353538103929
40
0.999589756799229
40
1
40
1
40
1
40
1
41
1
10
88.1469906964061
20
16.6763208739664
30
0
41
1
10
88.0488873101156
20
16.6728819420468
30
0
41
1
10
87.9017321650746
20
16.6677239808458
30
0
41
1
10
87.7423143097287
20
16.6621347339415
30
0
41
1
10
87.6748680861803
20
16.6597714234122
30
0
41
1
10
87.6534081257267
20
16.6590181336433
30
0
41
1
10
87.6426778349345
20
16.6586435355828
30
0
41
1
10
87.6373131751956
20
16.6584531953747
30
0
41
1
10
87.6346301891499
20
16.6583629056455
30
0
41
1
10
87.6334100770065
20
16.658314347551
30
0
41
1
10
87.632957158189
20
16.6582892403791
30
0
41
1
10
87.6328869646032
20
16.6582851784268
30
0
0
SPLINE
5
20B
100
AcDbEntity
8
1
62
256
6
ByLayer
370
-1
48
1
60
0
100
AcDbSpline
70
4
71
3
72
11
73
7
40
0
40
0
40
0
40
0
40
0.0414539424599235
40
0.479978610899584
40
0.918503279339245
40
1
40
1
40
1
40
1
41
1
10
87.7426072176604
20
7.45095209709345
30
0
41
1
10
87.7414215946797
20
7.45091020360982
30
0
41
1
10
87.7276918089873
20
7.45042510039221
30
0
41
1
10
87.7014014990559
20
7.4494965134883
30
0
41
1
10
87.6739732050034
20
7.44852758600965
30
0
41
1
10
87.6590918385859
20
7.44800190516636
30
0
41
1
10
87.656759048801
20
7.44791951129633
30
0
0
SPLINE
5
20C
100
AcDbEntity
8
1
62
256
6
ByLayer
370
-1
48
1
60
0
100
AcDbSpline
70
4
71
3
72
13
73
9
40
0
40
0
40
0
40
0
40
0.0688517852168548
40
0.178433579648119
40
0.616760757373173
40
0.835924346235701
40
0.945506140666964
40
1
40
1
40
1
40
1
41
1
10
96.3634645874779
20
6.93635231922605
30
0
41
1
10
96.3636332326562
20
6.9323637990405
30
0
41
1
10
96.3640679904279
20
6.92202514150105
30
0
41
1
10
96.36551654557
20
6.88623925172647
30
0
41
1
10
96.3671395917946
20
6.84161506756163
30
0
41
1
10
96.3685359688157
20
6.7970429734184
30
0
41
1
10
96.369177833145
20
6.77481039612991
30
0
41
1
10
96.3694393496465
20
6.76530382060935
30
0
41
1
10
96.3695254923001
20
6.76214707340807
30
0
0
SPLINE
5
20D
100
AcDbEntity
8
1
62
256
6
ByLayer
370
-1
48
1
60
0
100
AcDbSpline
70
4
71
3
72
16
73
12
40
0
40
0
40
0
40
0
40
0.572471985996885
40
0.858707978995328
40
0.930266977244938
40
0.966046476369744
40
0.983936225932146
40
0.992881100713348
40
0.997353538103948
40
0.999589756799249
40
1
40
1
40
1
40
1
41
1
10
87.1677829133471
20
7.43086289364209
30
0
41
1
10
87.1712087590926
20
7.33238476835348
30
0
41
1
10
87.1763470959684
20
7.18466751127778
30
0
41
1
10
87.1819150667334
20
7.02464071301844
30
0
41
1
10
87.1842693913154
20
6.95693684866305
30
0
41
1
10
87.185019806915
20
6.9353949223505
30
0
41
1
10
87.1853929910283
20
6.92462363203518
30
0
41
1
10
87.1855825898838
20
6.91923849728332
30
0
41
1
10
87.1856725641009
20
6.91654523449202
30
0
41
1
10
87.1857208940218
20
6.91532050527965
30
0
41
1
10
87.1857458351408
20
6.91486592716771
30
0
41
1
10
87.1857498693935
20
6.91479547774324
30
0
0
SPLINE
5
20E
100
AcDbEntity
8
1
62
256
6
ByLayer
370
-1
48
1
60
0
100
AcDbSpline
70
4
71
3
72
8
73
4
40
0
40
0
40
0
40
0
40
1
40
1
40
1
40
1
41
1
10
88.4978129716168
20
6.66062884601973
30
0
41
1
10
88.5002698436394
20
6.60270789316431
30
0
41
1
10
88.5023001827004
20
6.54434449922709
30
0
41
1
10
88.5038732056207
20
6.48642354637167
30
0
0
SPLINE
5
20F
100
AcDbEntity
8
1
62
256
6
ByLayer
370
-1
48
1
60
0
100
AcDbSpline
70
4
71
3
72
10
73
6
40
0
40
0
40
0
40
0
40
0.5
40
0.5
40
1
40
1
40
1
40
1
41
1
10
89.6717403275103
20
8.97206503537947
30
0
41
1
10
89.6664289435454
20
9.00248801229054
30
0
41
1
10
89.6590473836551
20
9.03445628064006
30
0
41
1
10
89.6402133053102
20
9.10137799988689
30
0
41
1
10
89.6286242745538
20
9.1364299561009
30
0
41
1
10
89.6160446651934
20
9.1704116522192
30
0
0
SPLINE
5
210
100
AcDbEntity
8
1
62
256
6
ByLayer
370
-1
48
1
60
0
100
AcDbSpline
70
4
71
3
72
8
73
4
40
0
40
0
40
0
40
0
40
1
40
1
40
1
40
1
41
1
10
97.1477597378382
20
7.78061856625024
30
0
41
1
10
97.2059022085325
20
7.78264121049367
30
0
41
1
10
97.2640435121353
20
7.78467930512011
30
0
41
1
10
97.3213021337272
20
7.7867019493635
30
0
0
SPLINE
5
211
100
AcDbEntity
8
1
62
256
6
ByLayer
370
-1
48
1
60
0
100
AcDbSpline
70
4
71
3
72
8
73
4
40
0
40
0
40
0
40
0
40
1
40
1
40
1
40
1
41
1
10
87.4916292342159
20
16.7220455194682
30
0
41
1
10
87.5078801242237
20
16.7229175114264
30
0
41
1
10
87.5241356457719
20
16.7237092184127
30
0
41
1
10
87.5403940041726
20
16.7244218806268
30
0
0
SPLINE
5
212
100
AcDbEntity
8
1
62
256
6
ByLayer
370
-1
48
1
60
0
100
AcDbSpline
70
4
71
3
72
13
73
9
40
0
40
0
40
0
40
0
40
0.0688517852168948
40
0.178433579648154
40
0.616760757373191
40
0.835924346235709
40
0.945506140666968
40
1
40
1
40
1
40
1
41
1
10
88.1663795732568
20
16.187883250671
30
0
41
1
10
88.1662707140686
20
16.1918717708565
30
0
41
1
10
88.1659861517726
20
16.2022104283959
30
0
41
1
10
88.1649448760483
20
16.2379963181705
30
0
41
1
10
88.1634631602615
20
16.2826205023354
30
0
41
1
10
88.1617583994745
20
16.3271925964786
30
0
41
1
10
88.1608534151012
20
16.3494251737671
30
0
41
1
10
88.1604535042827
20
16.3589317492877
30
0
41
1
10
88.1603200138164
20
16.362088496489
30
0
0
SPLINE
5
213
100
AcDbEntity
8
1
62
256
6
ByLayer
370
-1
48
1
60
0
100
AcDbSpline
70
4
71
3
72
14
73
10
40
0
40
0
40
0
40
0
40
0.0881951882033999
40
0.185164860420275
40
0.379104204854026
40
0.766982893721528
40
0.960922238155278
40
0.985164656209497
40
1
40
1
40
1
40
1
41
1
10
88.4682562780111
20
7.13637302041852
30
0
41
1
10
88.4678025624017
20
7.14113402148129
30
0
41
1
10
88.4668466402657
20
7.15109257984915
30
0
41
1
10
88.4648895667378
20
7.1714823048338
30
0
41
1
10
88.461388368803
20
7.20802312965751
30
0
41
1
10
88.4573873203639
20
7.24978629682133
30
0
41
1
10
88.454258184069
20
7.28237991795862
30
0
41
1
10
88.4530579714011
20
7.29494096014426
30
0
41
1
10
88.4528551322053
20
7.29703213936091
30
0
41
1
10
88.4527789868233
20
7.2978347951836
30
0
0
SPLINE
5
214
100
AcDbEntity
8
1
62
256
6
ByLayer
370
-1
48
1
60
0
100
AcDbSpline
70
4
71
3
72
8
73
4
40
0
40
0
40
0
40
0
40
1
40
1
40
1
40
1
41
1
10
87.1227458675022
20
6.7724824916757
30
0
41
1
10
87.121880083822
20
6.7887925563183
30
0
41
1
10
87.1210944477355
20
6.80510710142062
30
0
41
1
10
87.1203871416242
20
6.82142490980067
30
0
0
SPLINE
5
215
100
AcDbEntity
8
1
62
256
6
ByLayer
370
-1
48
1
60
0
100
AcDbSpline
70
4
71
3
72
10
73
6
40
0
40
0
40
0
40
0
40
0.499245058431737
40
0.499245058431737
40
1
40
1
40
1
40
1
41
1
10
87.5403940041726
20
16.7244218806267
30
0
41
1
10
87.555469257684
20
16.7250826831063
30
0
41
1
10
87.5705459420326
20
16.7257093259515
30
0
41
1
10
87.6007462546252
20
16.726898278052
30
0
41
1
10
87.6158699702054
20
16.7274603777365
30
0
41
1
10
87.6309935759297
20
16.7279905230489
30
0
0
SPLINE
5
216
100
AcDbEntity
8
1
62
256
6
ByLayer
370
-1
48
1
60
0
100
AcDbSpline
70
4
71
2
72
9
73
6
40
0
40
0
40
0
40
0.25
40
0.5
40
0.75
40
1
40
1
40
1
41
1
10
88.2964408581198
20
7.47117220469181
30
0
41
1
10
88.2975989216236
20
7.44138206576261
30
0
41
1
10
88.3217677619401
20
7.38756267908627
30
0
41
1
10
88.3650774794405
20
7.34668722246624
30
0
41
1
10
88.4206732795873
20
7.32556044475879
30
0
41
1
10
88.4509940386366
20
7.32649850514434
30
0
0
SPLINE
5
217
100
AcDbEntity
8
1
62
256
6
ByLayer
370
-1
48
1
60
0
100
AcDbSpline
70
4
71
3
72
10
73
6
40
0
40
0
40
0
40
0
40
0.626169544094244
40
0.939254316141366
40
1
40
1
40
1
40
1
41
1
10
88.1658894113152
20
15.5220132330828
30
0
41
1
10
88.1656677668361
20
15.5283845452911
30
0
41
1
10
88.1654970508998
20
15.5379366312379
30
0
41
1
10
88.165591607837
20
15.5470140774783
30
0
41
1
10
88.1656671874851
20
15.550167974522
30
0
41
1
10
88.1656800598197
20
15.5506769428572
30
0
0
SPLINE
5
218
100
AcDbEntity
8
1
62
256
6
ByLayer
370
-1
48
1
60
0
100
AcDbSpline
70
4
71
3
72
8
73
4
40
0
40
0
40
0
40
0
40
1
40
1
40
1
40
1
41
1
10
96.6154061662174
20
17.0426590422735
30
0
41
1
10
96.6316660838791
20
17.0430934794496
30
0
41
1
10
96.6479316364327
20
17.0434413157503
30
0
41
1
10
96.6642005328314
20
17.043704140533
30
0
0
SPLINE
5
219
100
AcDbEntity
8
1
62
256
6
ByLayer
370
-1
48
1
60
0
100
AcDbSpline
70
4
71
3
72
16
73
12
40
0
40
0
40
0
40
0
40
0.0879840035943965
40
0.0879840035943965
40
0.263952205556036
40
0.263952205556036
40
0.43992004707609
40
0.43992004707609
40
0.6158883993753
40
0.6158883993753
40
1
40
1
40
1
40
1
41
1
10
88.5153633036717
20
6.102499715226
30
0
41
1
10
88.5002853222177
20
6.10197116923419
30
0
41
1
10
88.4852091274529
20
6.10144696146295
30
0
41
1
10
88.4399846833022
20
6.0998839450599
30
0
41
1
10
88.4098405469586
20
6.09885478162548
30
0
41
1
10
88.3495554357549
20
6.09680324509807
30
0
41
1
10
88.3194143939501
20
6.09578086767723
30
0
41
1
10
88.2591263505131
20
6.09372267933981
30
0
41
1
10
88.2289791822596
20
6.09268671439671
30
0
41
1
10
88.133004725808
20
6.08933647147512
30
0
41
1
10
88.0671379226436
20
6.08692764876602
30
0
41
1
10
88.0012588625715
20
6.08447821522418
30
0
0
SPLINE
5
21A
100
AcDbEntity
8
1
62
256
6
ByLayer
370
-1
48
1
60
0
100
AcDbSpline
70
4
71
3
72
11
73
7
40
0
40
0
40
0
40
0
40
0.0414539424597786
40
0.479978610899539
40
0.918503279339299
40
1
40
1
40
1
40
1
41
1
10
96.3597802750844
20
7.02319421421728
30
0
41
1
10
96.3598314934623
20
7.02199454180925
30
0
41
1
10
96.3604236421328
20
7.00810300320137
30
0
41
1
10
96.3615484475939
20
6.98151175342582
30
0
41
1
10
96.3627262630213
20
6.95376530073366
30
0
41
1
10
96.3633648236207
20
6.93871177095997
30
0
41
1
10
96.3634645874778
20
6.93635231922832
30
0
0
SPLINE
5
21B
100
AcDbEntity
8
1
62
256
6
ByLayer
370
-1
48
1
60
0
100
AcDbSpline
70
4
71
3
72
8
73
4
40
0
40
0
40
0
40
0
40
1
40
1
40
1
40
1
41
1
10
87.3820851504059
20
15.3436170036468
30
0
41
1
10
87.3248265288141
20
15.3415943594034
30
0
41
1
10
87.2666852252112
20
15.3395562647769
30
0
41
1
10
87.208542754517
20
15.3375336205335
30
0
0
SPLINE
5
21C
100
AcDbEntity
8
1
62
256
6
ByLayer
370
-1
48
1
60
0
100
AcDbSpline
70
4
71
3
72
14
73
10
40
0
40
0
40
0
40
0
40
0.0148352406565739
40
0.039077661503454
40
0.233017028278494
40
0.620895761828575
40
0.814835128603616
40
0.911804811991136
40
1
40
1
40
1
40
1
41
1
10
88.2686740207707
20
7.47017124589001
30
0
41
1
10
88.2679226479809
20
7.47014321675456
30
0
41
1
10
88.2659695218742
20
7.47007019132107
30
0
41
1
10
88.2542194718465
20
7.4696315483057
30
0
41
1
10
88.2237452232653
20
7.46849335662384
30
0
41
1
10
88.184689133533
20
7.46703495318712
30
0
41
1
10
88.150517383846
20
7.46575891970394
30
0
41
1
10
88.1314530066239
20
7.4650468948397
30
0
41
1
10
88.1221412698869
20
7.46469911692114
30
0
41
1
10
88.1176865449586
20
7.46453286124034
30
0
0
SPLINE
5
21D
100
AcDbEntity
8
1
62
256
6
ByLayer
370
-1
48
1
60
0
100
AcDbSpline
70
4
71
3
72
9
73
5
40
0
40
0
40
0
40
0
40
0.339285714285115
40
1
40
1
40
1
40
1
41
1
10
96.0107499847996
20
17.0217358546709
30
0
41
1
10
96.0109640377889
20
17.013854117579
30
0
41
1
10
96.0115949308097
20
16.990623734571
30
0
41
1
10
96.0122258238306
20
16.9673933515631
30
0
41
1
10
96.0126426638622
20
16.9520447056471
30
0
0
SPLINE
5
21E
100
AcDbEntity
8
1
62
256
6
ByLayer
370
-1
48
1
60
0
100
AcDbSpline
70
4
71
3
72
8
73
4
40
0
40
0
40
0
40
0
40
1
40
1
40
1
40
1
41
1
10
88.4682560913466
20
7.13637096656947
30
0
41
1
10
88.4792125267588
20
7.02206543887394
30
0
41
1
10
88.4882328170494
20
6.88648175001495
30
0
41
1
10
88.4941293099036
20
6.7474714631619
30
0
0
SPLINE
5
21F
100
AcDbEntity
8
1
62
256
6
ByLayer
370
-1
48
1
60
0
100
AcDbSpline
70
4
71
3
72
9
73
5
40
0
40
0
40
0
40
0
40
0.339285714285773
40
1
40
1
40
1
40
1
41
1
10
97.7018992188991
20
7.8001088646613
30
0
41
1
10
97.6939873382187
20
7.7998336283371
30
0
41
1
10
97.67066811095
20
7.79902240548688
30
0
41
1
10
97.6473488836813
20
7.79821118263663
30
0
41
1
10
97.6319415370931
20
7.79767519611062
30
0
0
SPLINE
5
220
100
AcDbEntity
8
1
62
256
6
ByLayer
370
-1
48
1
60
0
100
AcDbSpline
70
4
71
3
72
10
73
6
40
0
40
0
40
0
40
0
40
0.283856160922818
40
0.283856160922818
40
1
40
1
40
1
40
1
41
1
10
87.3324937376523
20
16.7121402491295
30
0
41
1
10
87.3475366083094
20
16.7132109795111
30
0
41
1
10
87.3625846995319
20
16.7142423813775
30
0
41
1
10
87.415611710797
20
16.7177417008346
30
0
41
1
10
87.4536137773114
20
16.7200056820998
30
0
41
1
10
87.491629234216
20
16.7220455194681
30
0
0
SPLINE
5
221
100
AcDbEntity
8
1
62
256
6
ByLayer
370
-1
48
1
60
0
100
AcDbSpline
70
4
71
3
72
12
73
8
40
0
40
0
40
0
40
0
40
0.0304623077133689
40
0.151654519249198
40
0.272846730785027
40
0.515231153856685
40
1
40
1
40
1
40
1
41
1
10
88.1603200138164
20
16.362088496489
30
0
41
1
10
88.1601850680769
20
16.3652796576046
30
0
41
1
10
88.1595098437051
20
16.3811633910944
30
0
41
1
10
88.1582969942864
20
16.4097420030597
30
0
41
1
10
88.1561444747034
20
16.46051982437
30
0
41
1
10
88.152375271929
20
16.5493790788125
30
0
41
1
10
88.1491445266607
20
16.625544154834
30
0
41
1
10
88.1469906964061
20
16.6763208739664
30
0
0
SPLINE
5
222
100
AcDbEntity
8
1
62
256
6
ByLayer
370
-1
48
1
60
0
100
AcDbSpline
70
4
71
3
72
8
73
4
40
0
40
0
40
0
40
0
40
1
40
1
40
1
40
1
41
1
10
97.7226802135147
20
7.19308018189733
30
0
41
1
10
97.7231071762599
20
7.17675231048932
30
0
41
1
10
97.7234508289087
20
7.16042175521272
30
0
41
1
10
97.7237120266568
20
7.14409008497108
30
0
0
SPLINE
5
223
100
AcDbEntity
8
1
62
256
6
ByLayer
370
-1
48
1
60
0
100
AcDbSpline
70
4
71
3
72
8
73
4
40
0
40
0
40
0
40
0
40
1
40
1
40
1
40
1
41
1
10
87.8430101106659
20
15.360230284576
30
0
41
1
10
87.7361195378247
20
15.3562386475917
30
0
41
1
10
87.6053554062933
20
15.3515039608462
30
0
41
1
10
87.4679347144729
20
15.346649614662
30
0
0
SPLINE
5
224
100
AcDbEntity
8
1
62
256
6
ByLayer
370
-1
48
1
60
0
100
AcDbSpline
70
4
71
1
72
4
73
2
40
0
40
0
40
1
40
1
41
1
10
96.8951197125418
20
6.39624504684815
30
0
41
1
10
96.8921635761901
20
6.46593619587202
30
0
0
SPLINE
5
225
100
AcDbEntity
8
1
62
256
6
ByLayer
370
-1
48
1
60
0
100
AcDbSpline
70
4
71
2
72
9
73
6
40
0
40
0
40
0
40
0.25
40
0.5
40
0.75
40
1
40
1
40
1
41
1
10
96.1860945589779
20
15.6530633652052
30
0
41
1
10
96.1849364954739
20
15.6828535041344
30
0
41
1
10
96.1607676551574
20
15.7366728908107
30
0
41
1
10
96.117457937657
20
15.7775483474308
30
0
41
1
10
96.0618621375103
20
15.7986751251382
30
0
41
1
10
96.031541378461
20
15.7977370647527
30
0
0
SPLINE
5
226
100
AcDbEntity
8
1
62
256
6
ByLayer
370
-1
48
1
60
0
100
AcDbSpline
70
4
71
3
72
44
73
40
40
0
40
0
40
0
40
0
40
0.0005100809524649
40
0.0008224215521672
40
0.0055075305477025
40
0.0105049801429402
40
0.0204998793334156
40
0.0404896777143663
40
0.0804692744762677
40
0.120448871238169
40
0.14043866961912
40
0.16042846800007
40
0.180418266381021
40
0.200408064761972
40
0.220397863142923
40
0.240387661523873
40
0.260377459904824
40
0.280367258285775
40
0.300357056666725
40
0.320346855047676
40
0.340336653428627
40
0.350331552619102
40
0.360326451809578
40
0.380316250190528
40
0.400306048571479
40
0.44028564533338
40
0.480265242095282
40
0.520244838857183
40
0.560224435619085
40
0.580214234000035
40
0.600204032380986
40
0.640183629142887
40
0.680163225904789
40
0.70015302428574
40
0.72014282266669
40
0.760122419428592
40
0.840081612952394
40
0.920040806476197
40
1
40
1
40
1
40
1
41
1
10
87.1857498693935
20
6.91479547774324
30
0
41
1
10
87.1857678256848
20
6.91448191027288
30
0
41
1
10
87.1858021430951
20
6.91397688789826
30
0
41
1
10
87.1860904979478
20
6.91060102724052
30
0
41
1
10
87.1865752026296
20
6.90446271225068
30
0
41
1
10
87.1874205178219
20
6.89235724358483
30
0
41
1
10
87.1886929521837
20
6.8708472151217
30
0
41
1
10
87.1904166393879
20
6.82776375107844
30
0
41
1
10
87.1915597443542
20
6.76618943499582
30
0
41
1
10
87.1930626034365
20
6.70461704352815
30
0
41
1
10
87.1958367995755
20
6.65542074626651
30
0
41
1
10
87.1991455494881
20
6.61861116677559
30
0
41
1
10
87.2042125347729
20
6.58199496246732
30
0
41
1
10
87.2117766713071
20
6.54579887549767
30
0
41
1
10
87.2226902403772
20
6.51046209465599
30
0
41
1
10
87.2369456859398
20
6.47634726510421
30
0
41
1
10
87.2544120035084
20
6.44377523794893
30
0
41
1
10
87.2747636549609
20
6.41294348781878
30
0
41
1
10
87.2975565375323
20
6.38389437971259
30
0
41
1
10
87.3222859294772
20
6.35649597525011
30
0
41
1
10
87.3441188842801
20
6.33484221662533
30
0
41
1
10
87.3620633842197
20
6.31802466026781
30
0
41
1
10
87.3802931317261
20
6.30151611399026
30
0
41
1
10
87.4036038247575
20
6.28145620008212
30
0
41
1
10
87.4422715312419
20
6.25104019474131
30
0
41
1
10
87.4935599751489
20
6.21692938131693
30
0
41
1
10
87.5600885301062
20
6.18463788405967
30
0
41
1
10
87.6306212107398
20
6.16247145172713
30
0
41
1
10
87.6913622066605
20
6.15249510689779
30
0
41
1
10
87.7403716030772
20
6.14892698778547
30
0
41
1
10
87.7894757195608
20
6.14744307949113
30
0
41
1
10
87.8508614673355
20
6.14837019492407
30
0
41
1
10
87.9121608476488
20
6.15088683931728
30
0
41
1
10
87.9611760315263
20
6.1529477044576
30
0
41
1
10
88.0101812312258
20
6.1548968086488
30
0
41
1
10
88.0959166345518
20
6.15811862738335
30
0
41
1
10
88.2183577270031
20
6.16231591313769
30
0
41
1
10
88.3653137014242
20
6.16713376239883
30
0
41
1
10
88.4633561576154
20
6.17044648009158
30
0
41
1
10
88.5124071674753
20
6.1721908642553
30
0
0
SPLINE
5
227
100
AcDbEntity
8
1
62
256
6
ByLayer
370
-1
48
1
60
0
100
AcDbSpline
70
4
71
3
72
8
73
4
40
0
40
0
40
0
40
0
40
1
40
1
40
1
40
1
41
1
10
96.6608211417971
20
7.76400528532102
30
0
41
1
10
96.7816716902617
20
7.76799692230531
30
0
41
1
10
96.9210430627084
20
7.77273160905079
30
0
41
1
10
97.0605849923745
20
7.77758595523497
30
0
0
SPLINE
5
228
100
AcDbEntity
8
1
62
256
6
ByLayer
370
-1
48
1
60
0
100
AcDbSpline
70
4
71
3
72
12
73
8
40
0
40
0
40
0
40
0
40
0.484768844990482
40
0.727153267485723
40
0.848345478733344
40
0.969537689980964
40
1
40
1
40
1
40
1
41
1
10
96.012642663707
20
16.9520447056417
30
0
41
1
10
96.0147964939551
20
16.901267986509
30
0
41
1
10
96.0180272392128
20
16.825102910512
30
0
41
1
10
96.021796441977
20
16.7362436560351
30
0
41
1
10
96.0239489615595
20
16.6854658345942
30
0
41
1
10
96.025161810985
20
16.6568872223594
30
0
41
1
10
96.0258370353328
20
16.6410034894172
30
0
41
1
10
96.0259719810778
20
16.6378123281633
30
0
0
SPLINE
5
229
100
AcDbEntity
8
1
62
256
6
ByLayer
370
-1
48
1
60
0
100
AcDbSpline
70
4
71
3
72
44
73
40
40
0
40
0
40
0
40
0
40
0.0005100809524636
40
0.0008224215521659
40
0.0055075305477013
40
0.0105049801429389
40
0.0204998793334143
40
0.040489677714365
40
0.0804692744762665
40
0.120448871238168
40
0.140438669619119
40
0.160428468000069
40
0.18041826638102
40
0.200408064761971
40
0.220397863142922
40
0.240387661523872
40
0.260377459904823
40
0.280367258285774
40
0.300357056666725
40
0.320346855047675
40
0.340336653428626
40
0.350331552619101
40
0.360326451809577
40
0.380316250190527
40
0.400306048571478
40
0.44028564533338
40
0.480265242095281
40
0.520244838857183
40
0.560224435619084
40
0.580214234000035
40
0.600204032380985
40
0.640183629142887
40
0.680163225904788
40
0.700153024285739
40
0.72014282266669
40
0.760122419428591
40
0.840081612952394
40
0.920040806476197
40
1
40
1
40
1
40
1
41
1
10
96.892162650126
20
6.46595039147022
30
0
41
1
10
96.8924749698857
20
6.4659684710515
30
0
41
1
10
96.8929779407266
20
6.46600304981567
30
0
41
1
10
96.8963396253623
20
6.46629384106976
30
0
41
1
10
96.9024523883387
20
6.46678259949664
30
0
41
1
10
96.9145080502832
20
6.46763489970692
30
0
41
1
10
96.9359307326393
20
6.46891770950194
30
0
41
1
10
96.9788439891838
20
6.4706542667416
30
0
41
1
10
97.0401851652356
20
6.47180056488671
30
0
41
1
10
97.1015322458023
20
6.47330013966604
30
0
41
1
10
97.1505502937652
20
6.47607594110247
30
0
41
1
10
97.1872265844631
20
6.479390521223
30
0
41
1
10
97.2237093600709
20
6.48447093199297
30
0
41
1
10
97.2597714330881
20
6.49206022499194
30
0
41
1
10
97.2949738867861
20
6.50301534161238
30
0
41
1
10
97.3289565367141
20
6.51732761208282
30
0
41
1
10
97.3614010978663
20
6.53486418119738
30
0
41
1
10
97.392112609597
20
6.5552964980661
30
0
41
1
10
97.4210508502786
20
6.57817677379248
30
0
41
1
10
97.4483493618251
20
6.60299624503386
30
0
41
1
10
97.4699299435928
20
6.62490334071776
30
0
41
1
10
97.4866954639913
20
6.64290438012671
30
0
41
1
10
97.5031563606536
20
6.66118853397128
30
0
41
1
10
97.5231649660203
20
6.68456314898248
30
0
41
1
10
97.553515799648
20
6.72332779628312
30
0
41
1
10
97.5875757048937
20
6.77473295858758
30
0
41
1
10
97.6198489341667
20
6.84141063130826
30
0
41
1
10
97.6420306211535
20
6.91211275022849
30
0
41
1
10
97.6520389162481
20
6.97301558655914
30
0
41
1
10
97.6556388540103
20
7.022166621081
30
0
41
1
10
97.6571538430216
20
7.07142143958336
30
0
41
1
10
97.6562576158065
20
7.13301420616668
30
0
41
1
10
97.6537482984581
20
7.19454999829398
30
0
41
1
10
97.6516725096787
20
7.2437752650261
30
0
41
1
10
97.6496945088931
20
7.29300410886327
30
0
41
1
10
97.6463937210237
20
7.37915858510993
30
0
41
1
10
97.6420367738662
20
7.5022436868766
30
0
41
1
10
97.6370433395569
20
7.64995566840199
30
0
41
1
10
97.6336790932206
20
7.74843701036613
30
0
41
1
10
97.6319415370876
20
7.79767519626645
30
0
0
SPLINE
5
22A
100
AcDbEntity
8
1
62
256
6
ByLayer
370
-1
48
1
60
0
100
AcDbSpline
70
4
71
3
72
10
73
6
40
0
40
0
40
0
40
0
40
0.0607450479741281
40
0.373830031982752
40
1
40
1
40
1
40
1
41
1
10
96.0313320269397
20
15.8264007747134
30
0
41
1
10
96.031319154743
20
15.8258918115887
30
0
41
1
10
96.0312435751421
20
15.8227379148759
30
0
41
1
10
96.031149017627
20
15.8136604225387
30
0
41
1
10
96.0313197339827
20
15.8041083769609
30
0
41
1
10
96.031541378461
20
15.7977370647527
30
0
0
SPLINE
5
22B
100
AcDbEntity
8
1
62
256
6
ByLayer
370
-1
48
1
60
0
100
AcDbSpline
70
4
71
3
72
10
73
6
40
0
40
0
40
0
40
0
40
0.626169544094492
40
0.939254316141738
40
1
40
1
40
1
40
1
41
1
10
96.1860945589779
20
15.6530633652052
30
0
41
1
10
96.1924416264196
20
15.6532858563302
30
0
41
1
10
96.2021189447306
20
15.6536194225217
30
0
41
1
10
96.2115721906444
20
15.6539364139294
30
0
41
1
10
96.2148993832147
20
15.6540465504411
30
0
41
1
10
96.2154369930386
20
15.654064324007
30
0
0
SPLINE
5
22C
100
AcDbEntity
8
1
62
256
6
ByLayer
370
-1
48
1
60
0
100
AcDbSpline
70
4
71
3
72
10
73
6
40
0
40
0
40
0
40
0
40
0.0607450479735076
40
0.373830031982338
40
1
40
1
40
1
40
1
41
1
10
87.9939994013149
20
15.3658687257202
30
0
41
1
10
87.9944758497338
20
15.3658864991041
30
0
41
1
10
87.9974324479196
20
15.3659966356037
30
0
41
1
10
88.0060650533806
20
15.3663136286198
30
0
41
1
10
88.0154191714309
20
15.3666471934004
30
0
41
1
10
88.0217662388727
20
15.3668696845246
30
0
0
SPLINE
5
22D
100
AcDbEntity
8
1
62
256
6
ByLayer
370
-1
48
1
60
0
100
AcDbSpline
70
4
71
3
72
12
73
8
40
0
40
0
40
0
40
0
40
0.0304623077133539
40
0.151654519249185
40
0.272846730785015
40
0.515231153856677
40
1
40
1
40
1
40
1
41
1
10
87.483217379226
20
7.4418361300628
30
0
41
1
10
87.4800144294496
20
7.44172469226106
30
0
41
1
10
87.46406847549
20
7.44117002006521
30
0
41
1
10
87.4353799538312
20
7.44017203294439
30
0
41
1
10
87.3844092909079
20
7.43839883235111
30
0
41
1
10
87.2952101955435
20
7.43529579880953
30
0
41
1
10
87.2187538273007
20
7.43263605574646
30
0
41
1
10
87.1677829133471
20
7.43086289364209
30
0
0
SPLINE
5
22E
100
AcDbEntity
8
1
62
256
6
ByLayer
370
-1
48
1
60
0
100
AcDbSpline
70
4
71
3
72
8
73
4
40
0
40
0
40
0
40
0
40
1
40
1
40
1
40
1
41
1
10
97.7249425683206
20
6.98403472292728
30
0
41
1
10
97.7249255019893
20
6.94617141524509
30
0
41
1
10
97.7206283246969
20
6.90844825122437
30
0
41
1
10
97.7121340729721
20
6.87155919575974
30
0
0
SPLINE
5
22F
100
AcDbEntity
8
1
62
256
6
ByLayer
370
-1
48
1
60
0
100
AcDbSpline
70
4
71
3
72
8
73
4
40
0
40
0
40
0
40
0
40
1
40
1
40
1
40
1
41
1
10
87.7023599548489
20
6.07933359614987
30
0
41
1
10
87.6646546969326
20
6.07936474947792
30
0
41
1
10
87.6270877996537
20
6.08369110858663
30
0
41
1
10
87.5903470465972
20
6.09222576567319
30
0
0
SPLINE
5
230
100
AcDbEntity
8
1
62
256
6
ByLayer
370
-1
48
1
60
0
100
AcDbSpline
70
4
71
3
72
10
73
6
40
0
40
0
40
0
40
0
40
0.283856160922821
40
0.283856160922821
40
1
40
1
40
1
40
1
41
1
10
97.3934718266261
20
16.5115047115684
30
0
41
1
10
97.3945320589108
20
16.4963979314074
30
0
41
1
10
97.3955553702182
20
16.481288177245
30
0
41
1
10
97.3990326383513
20
16.4280498426869
30
0
41
1
10
97.4012923349289
20
16.3899069614383
30
0
41
1
10
97.4033311708323
20
16.3517530782212
30
0
0
SPLINE
5
231
100
AcDbEntity
8
1
62
256
6
ByLayer
370
-1
48
1
60
0
100
AcDbSpline
70
4
71
3
72
16
73
12
40
0
40
0
40
0
40
0
40
0.0879840035943915
40
0.0879840035943915
40
0.263952205556022
40
0.263952205556022
40
0.439920047076074
40
0.439920047076074
40
0.615888399375294
40
0.615888399375294
40
1
40
1
40
1
40
1
41
1
10
86.8242140695723
20
15.3241267052357
30
0
41
1
10
86.8236875348575
20
15.3392622821294
30
0
41
1
10
86.8231672683404
20
15.3543980194294
30
0
41
1
10
86.8216203466697
20
15.3998053993527
30
0
41
1
10
86.8206076254004
20
15.4300772551344
30
0
41
1
10
86.8185919882508
20
15.4906208456405
30
0
41
1
10
86.8175890671571
20
15.5208926466599
30
0
41
1
10
86.8155638220314
20
15.5814361877331
30
0
41
1
10
86.8145412770966
20
15.6117080273245
30
0
41
1
10
86.8112101842717
20
15.7080555164712
30
0
41
1
10
86.8087650400592
20
15.7741282585662
30
0
41
1
10
86.8062611468193
20
15.8401949417819
30
0
0
SPLINE
5
232
100
AcDbEntity
8
1
62
256
6
ByLayer
370
-1
48
1
60
0
100
AcDbSpline
70
4
71
3
72
8
73
4
40
0
40
0
40
0
40
0
40
1
40
1
40
1
40
1
41
1
10
96.0320319166274
20
16.4636067238773
30
0
41
1
10
96.0304588937071
20
16.5215276767327
30
0
41
1
10
96.028428554646
20
16.5798910706699
30
0
41
1
10
96.0259716826234
20
16.6378120235254
30
0
0
SPLINE
5
233
100
AcDbEntity
8
1
62
256
6
ByLayer
370
-1
48
1
60
0
100
AcDbSpline
70
4
71
3
72
14
73
10
40
0
40
0
40
0
40
0
40
0.0881951882034009
40
0.185164860420266
40
0.379104204853995
40
0.766982893721455
40
0.960922238155184
40
0.985164656209401
40
1
40
1
40
1
40
1
41
1
10
87.843012414842
20
15.360230356327
30
0
41
1
10
87.8474672084076
20
15.3603966141469
30
0
41
1
10
87.8567783865041
20
15.3607443746666
30
0
41
1
10
87.8758427643149
20
15.3614563995496
30
0
41
1
10
87.9100145203549
20
15.3627324332647
30
0
41
1
10
87.9490705698876
20
15.3641908351919
30
0
41
1
10
87.9795448893138
20
15.3653290295175
30
0
41
1
10
87.991294892368
20
15.3657676707743
30
0
41
1
10
87.9932480225233
20
15.3658406963613
30
0
41
1
10
87.9939994013149
20
15.3658687257202
30
0
0
SPLINE
5
234
100
AcDbEntity
8
1
62
256
6
ByLayer
370
-1
48
1
60
0
100
AcDbSpline
70
4
71
3
72
9
73
5
40
0
40
0
40
0
40
0
40
0.339285714285725
40
1
40
1
40
1
40
1
41
1
10
88.5153633036717
20
6.102499715226
30
0
41
1
10
88.5150289787272
20
6.11038145231799
30
0
41
1
10
88.5140435999433
20
6.13361183532595
30
0
41
1
10
88.5130582211594
20
6.15684221833391
30
0
41
1
10
88.51240716732
20
6.17219086424987
30
0
0
SPLINE
5
235
100
AcDbEntity
8
1
62
256
6
ByLayer
370
-1
48
1
60
0
100
AcDbSpline
70
4
71
3
72
10
73
6
40
0
40
0
40
0
40
0
40
0.283856160922795
40
0.283856160922795
40
1
40
1
40
1
40
1
41
1
10
97.1935997678589
20
6.41209532076758
30
0
41
1
10
97.1785440499129
20
6.41102459038592
30
0
41
1
10
97.1634876271632
20
6.40999318851951
30
0
41
1
10
97.1104431451843
20
6.40649386906244
30
0
41
1
10
97.072449739559
20
6.40422988779724
30
0
41
1
10
97.0344478041187
20
6.40219005042889
30
0
0
SPLINE
5
236
100
AcDbEntity
8
1
62
256
6
ByLayer
370
-1
48
1
60
0
100
AcDbSpline
70
4
71
3
72
11
73
7
40
0
40
0
40
0
40
0
40
0.0814967294346792
40
0.520021388628435
40
0.958546047822191
40
1
40
1
40
1
40
1
41
1
10
88.4978126202395
20
6.66062848755323
30
0
41
1
10
88.4977128563725
20
6.6629879395251
30
0
41
1
10
88.4970742957822
20
6.6780414691045
30
0
41
1
10
88.4958964803672
20
6.70578792158753
30
0
41
1
10
88.4947716749135
20
6.73237917132553
30
0
41
1
10
88.4941795262457
20
6.74627070986014
30
0
41
1
10
88.494128307856
20
6.74747038254378
30
0
0
SPLINE
5
237
100
AcDbEntity
8
1
62
256
6
ByLayer
370
-1
48
1
60
0
100
AcDbSpline
70
4
71
3
72
16
73
12
40
0
40
0
40
0
40
0
40
0.0879840035944078
40
0.0879840035944078
40
0.263952205556033
40
0.263952205556033
40
0.439920047076072
40
0.439920047076072
40
0.615888399375314
40
0.615888399375314
40
1
40
1
40
1
40
1
41
1
10
96.0107499847996
20
17.021735854671
30
0
41
1
10
96.0258279662537
20
17.0222644006628
30
0
41
1
10
96.040908053989
20
17.0227886084341
30
0
41
1
10
96.0861527921059
20
17.0243516248371
30
0
41
1
10
96.1163219802245
20
17.0253807882715
30
0
41
1
10
96.1766632767521
20
17.0274323247989
30
0
41
1
10
96.2068354503016
20
17.0284547022198
30
0
41
1
10
96.2671737161062
20
17.0305128905572
30
0
41
1
10
96.2973398400576
20
17.0315488555003
30
0
41
1
10
96.3933270993309
20
17.0348990984219
30
0
41
1
10
96.4591029268933
20
17.037307921131
30
0
41
1
10
96.5248544259011
20
17.0397573546728
30
0
0
SPLINE
5
238
100
AcDbEntity
8
1
62
256
6
ByLayer
370
-1
48
1
60
0
100
AcDbSpline
70
4
71
3
72
18
73
14
40
0
40
0
40
0
40
0
40
0.0041315572796562
40
0.049790684558189
40
0.0954498118367219
40
0.186768066393788
40
0.369404575507919
40
0.55204108462205
40
0.734677593736181
40
0.825995848293247
40
0.917314102850313
40
0.962973230128846
40
1
40
1
40
1
40
1
41
1
10
96.386145114178
20
15.6597027086566
30
0
41
1
10
96.3866456380071
20
15.6597192493516
30
0
41
1
10
96.3926794125338
20
15.6599186588146
30
0
41
1
10
96.4042921497955
20
15.6603027695356
30
0
41
1
10
96.4268392941436
20
15.661050936232
30
0
41
1
10
96.4670133919167
20
15.662389422453
30
0
41
1
10
96.5263022076318
20
15.6643802811853
30
0
41
1
10
96.5998127382271
20
15.6668725692496
30
0
41
1
10
96.6624920311373
20
15.6690169970031
30
0
41
1
10
96.7131408434078
20
15.6707611502261
30
0
41
1
10
96.7449347713564
20
15.6718606545302
30
0
41
1
10
96.7692055539434
20
15.6727026235572
30
0
41
1
10
96.7807435554114
20
15.6731037790879
30
0
41
1
10
96.7859104100726
20
15.6732834728036
30
0
0
SPLINE
5
239
100
AcDbEntity
8
1
62
256
6
ByLayer
370
-1
48
1
60
0
100
AcDbSpline
70
4
71
3
72
9
73
5
40
0
40
0
40
0
40
0
40
0.339285714287777
40
1
40
1
40
1
40
1
41
1
10
86.8242140695721
20
15.3241267052357
30
0
41
1
10
86.8320056782973
20
15.3244019415599
30
0
41
1
10
86.854970419803
20
15.3252131644101
30
0
41
1
10
86.8779351613087
20
15.3260243872604
30
0
41
1
10
86.8931082940892
20
15.3265603737864
30
0
0
SPLINE
5
23A
100
AcDbEntity
8
1
62
256
6
ByLayer
370
-1
48
1
60
0
100
AcDbSpline
70
4
71
3
72
12
73
8
40
0
40
0
40
0
40
0
40
0.484768844990484
40
0.727153267485726
40
0.848345478733346
40
0.969537689980967
40
1
40
1
40
1
40
1
41
1
10
88.5124071674753
20
6.1721908642553
30
0
41
1
10
88.5110281683619
20
6.222967583388
30
0
41
1
10
88.5089596697652
20
6.29913265938501
30
0
41
1
10
88.5065464214255
20
6.38799191386192
30
0
41
1
10
88.5051660349526
20
6.4387697353028
30
0
41
1
10
88.5043905054094
20
6.46734834753758
30
0
41
1
10
88.503960606798
20
6.48323208047981
30
0
41
1
10
88.5038735250397
20
6.48642324173369
30
0
0
SPLINE
5
23B
100
AcDbEntity
8
1
62
256
6
ByLayer
370
-1
48
1
60
0
100
AcDbSpline
70
4
71
3
72
44
73
40
40
0
40
0
40
0
40
0
40
0.0005100809524595
40
0.0008224215521618
40
0.0055075305476972
40
0.0105049801429349
40
0.0204998793334103
40
0.0404896777143611
40
0.0804692744762627
40
0.120448871238164
40
0.140438669619115
40
0.160428468000066
40
0.180418266381017
40
0.200408064761968
40
0.220397863142918
40
0.240387661523869
40
0.26037745990482
40
0.280367258285771
40
0.300357056666722
40
0.320346855047673
40
0.340336653428623
40
0.350331552619099
40
0.360326451809574
40
0.380316250190525
40
0.400306048571476
40
0.440285645333377
40
0.480265242095279
40
0.520244838857181
40
0.560224435619082
40
0.580214234000033
40
0.600204032380984
40
0.640183629142885
40
0.680163225904787
40
0.700153024285738
40
0.720142822666689
40
0.76012241942859
40
0.840081612952394
40
0.920040806476197
40
1
40
1
40
1
40
1
41
1
10
87.6328869646032
20
16.6582851784268
30
0
41
1
10
87.63257453586
20
16.6582670988455
30
0
41
1
10
87.6320713054768
20
16.6582325200814
30
0
41
1
10
87.6287069611352
20
16.6579417288272
30
0
41
1
10
87.6225898104153
20
16.6574529704004
30
0
41
1
10
87.6105266649541
20
16.6566006701901
30
0
41
1
10
87.5890929946887
20
16.6553178603951
30
0
41
1
10
87.5461672143225
20
16.6535813031554
30
0
41
1
10
87.4848283759341
20
16.6524350050103
30
0
41
1
10
87.4234992766429
20
16.650935430231
30
0
41
1
10
87.3744991436103
20
16.6481596287946
30
0
41
1
10
87.3378364184525
20
16.644845048674
30
0
41
1
10
87.3013654568679
20
16.639764637904
30
0
41
1
10
87.2653108300235
20
16.6321753449051
30
0
41
1
10
87.2301086562773
20
16.6212202282846
30
0
41
1
10
87.1961212815538
20
16.6069079578142
30
0
41
1
10
87.1636696811895
20
16.5893713886997
30
0
41
1
10
87.1329523408951
20
16.5689390718309
30
0
41
1
10
87.1040134466174
20
16.5460587961045
30
0
41
1
10
87.0767236676405
20
16.5212393248632
30
0
41
1
10
87.0551615303366
20
16.4993322291792
30
0
41
1
10
87.0384199297787
20
16.4813311897703
30
0
41
1
10
87.0219893738913
20
16.4630470359257
30
0
41
1
10
87.0020308194991
20
16.4396724209145
30
0
41
1
10
86.9717811266115
20
16.4009077736139
30
0
41
1
10
86.9378790088952
20
16.3495026113094
30
0
41
1
10
86.9058150014459
20
16.2828249385887
30
0
41
1
10
86.8838325237022
20
16.2121228196685
30
0
41
1
10
86.8739640551461
20
16.1512199833379
30
0
41
1
10
86.8704549102247
20
16.102068948816
30
0
41
1
10
86.8690133760853
20
16.0528141303137
30
0
41
1
10
86.8699643238278
20
15.9912213637304
30
0
41
1
10
86.8724691420825
20
15.929685571603
30
0
41
1
10
86.8744993991556
20
15.8804603048709
30
0
41
1
10
86.8764047728926
20
15.8312314610338
30
0
41
1
10
86.8795231025064
20
15.7450769847871
30
0
41
1
10
86.8835287829785
20
15.6219918830204
30
0
41
1
10
86.8881343804496
20
15.474279901495
30
0
41
1
10
86.8913703577169
20
15.3757985595309
30
0
41
1
10
86.8931082940946
20
15.3265603736306
30
0
0
SPLINE
5
23C
100
AcDbEntity
8
1
62
256
6
ByLayer
370
-1
48
1
60
0
100
AcDbSpline
70
4
71
3
72
10
73
6
40
0
40
0
40
0
40
0
40
0.626169544094257
40
0.939254316141386
40
1
40
1
40
1
40
1
41
1
10
96.3166460057823
20
7.60222233681418
30
0
41
1
10
96.3168676502614
20
7.59585102460593
30
0
41
1
10
96.317361528068
20
7.5862989386591
30
0
41
1
10
96.3180876553246
20
7.57722149241877
30
0
41
1
10
96.3183826697907
20
7.57406759537506
30
0
41
1
10
96.3184309539896
20
7.5735586270398
30
0
0
SPLINE
5
23D
100
AcDbEntity
8
1
62
256
6
ByLayer
370
-1
48
1
60
0
100
AcDbSpline
70
4
71
3
72
12
73
8
40
0
40
0
40
0
40
0
40
0.0304623077133647
40
0.151654519249194
40
0.272846730785023
40
0.515231153856682
40
1
40
1
40
1
40
1
41
1
10
96.3695254923001
20
6.76214707340807
30
0
41
1
10
96.3696125740551
20
6.75895591229244
30
0
41
1
10
96.3700424726846
20
6.74307217880261
30
0
41
1
10
96.370818002223
20
6.71449356683729
30
0
41
1
10
96.3721983886993
20
6.66371574552699
30
0
41
1
10
96.3746116370492
20
6.57485649108449
30
0
41
1
10
96.3766801356563
20
6.49869141506303
30
0
41
1
10
96.3780591347762
20
6.44791469593059
30
0
0
SPLINE
5
23E
100
AcDbEntity
8
1
62
256
6
ByLayer
370
-1
48
1
60
0
100
AcDbSpline
70
4
71
3
72
10
73
6
40
0
40
0
40
0
40
0
40
0.283853282483267
40
0.283853282483267
40
1
40
1
40
1
40
1
41
1
10
97.7237120266566
20
7.14409008497108
30
0
41
1
10
97.7239542117931
20
7.12894719873319
30
0
41
1
10
97.7241598288622
20
7.11380363042696
30
0
41
1
10
97.7247581886644
20
7.06045310904116
30
0
41
1
10
97.7249597903002
20
7.02224341958387
30
0
41
1
10
97.7249425682904
20
6.98403472292497
30
0
0
SPLINE
5
23F
100
AcDbEntity
8
1
62
256
6
ByLayer
370
-1
48
1
60
0
100
AcDbSpline
70
4
71
3
72
8
73
4
40
0
40
0
40
0
40
0
40
1
40
1
40
1
40
1
41
1
10
97.3044921827369
20
6.43274697476986
30
0
41
1
10
97.2684260294074
20
6.42169055954614
30
0
41
1
10
97.2312371622802
20
6.41477201156593
30
0
41
1
10
97.1935997678578
20
6.41209532076726
30
0
0
SPLINE
5
240
100
AcDbEntity
8
1
62
256
6
ByLayer
370
-1
48
1
60
0
100
AcDbSpline
70
4
71
3
72
8
73
4
40
0
40
0
40
0
40
0
40
1
40
1
40
1
40
1
41
1
10
97.4033311708325
20
16.3517530782213
30
0
41
1
10
97.4042027346833
20
16.3354430135787
30
0
41
1
10
97.4049944872011
20
16.3191284684764
30
0
41
1
10
97.4057070817282
20
16.3028106600964
30
0
0
SPLINE
5
241
100
AcDbEntity
8
1
62
256
6
ByLayer
370
-1
48
1
60
0
100
AcDbSpline
70
4
71
3
72
14
73
10
40
0
40
0
40
0
40
0
40
0.0881951882033513
40
0.185164860420236
40
0.379104204854005
40
0.766982893721543
40
0.960922238155312
40
0.985164656209533
40
1
40
1
40
1
40
1
41
1
10
96.660819353906
20
7.76400521356999
30
0
41
1
10
96.6557883794391
20
7.76383895575006
30
0
41
1
10
96.6452582314422
20
7.76349119523039
30
0
41
1
10
96.6236983374025
20
7.76277917034739
30
0
41
1
10
96.5850665415359
20
7.76150313663237
30
0
41
1
10
96.5409140996603
20
7.76004473470508
30
0
41
1
10
96.5064492339494
20
7.75890654037954
30
0
41
1
10
96.4931727497479
20
7.75846789912273
30
0
41
1
10
96.4909594366064
20
7.75839487353568
30
0
41
1
10
96.4901116124481
20
7.75836684417683
30
0
0
SPLINE
5
242
100
AcDbEntity
8
1
62
256
6
ByLayer
370
-1
48
1
60
0
100
AcDbSpline
70
4
71
2
72
9
73
6
40
0
40
0
40
0
40
0.25
40
0.5
40
0.75
40
1
40
1
40
1
41
1
10
88.1658894113152
20
15.5220132330828
30
0
41
1
10
88.1362126328585
20
15.5208507459645
30
0
41
1
10
88.082598045197
20
15.4965895846044
30
0
41
1
10
88.0418781320301
20
15.4531144310191
30
0
41
1
10
88.0208317480901
20
15.3973062639477
30
0
41
1
10
88.0217662388727
20
15.3668696845246
30
0
0
SPLINE
5
243
100
AcDbEntity
8
1
62
256
6
ByLayer
370
-1
48
1
60
0
100
AcDbSpline
70
4
71
3
72
10
73
6
40
0
40
0
40
0
40
0
40
0.283853282483256
40
0.283853282483256
40
1
40
1
40
1
40
1
41
1
10
86.8022574975263
20
15.9801454849259
30
0
41
1
10
86.8020141498412
20
15.9952883711638
30
0
41
1
10
86.8018111359999
20
16.01043193947
30
0
41
1
10
86.8012305748409
20
16.0637824608558
30
0
41
1
10
86.8010560752798
20
16.1019921503131
30
0
41
1
10
86.8011014890274
20
16.1402008469721
30
0
0
SPLINE
5
244
100
AcDbEntity
8
1
62
256
6
ByLayer
370
-1
48
1
60
0
100
AcDbSpline
70
4
71
3
72
16
73
12
40
0
40
0
40
0
40
0
40
0.0879840035943936
40
0.0879840035943936
40
0.263952205556022
40
0.263952205556022
40
0.439920047076071
40
0.439920047076071
40
0.615888399375298
40
0.615888399375298
40
1
40
1
40
1
40
1
41
1
10
97.7018992188991
20
7.8001088646613
30
0
41
1
10
97.7024257536139
20
7.78497328776763
30
0
41
1
10
97.7029499131016
20
7.76983755046754
30
0
41
1
10
97.7045171287384
20
7.72443017054428
30
0
41
1
10
97.7055549017828
20
7.69415831476257
30
0
41
1
10
97.7076267242562
20
7.63361472425646
30
0
41
1
10
97.7086607770947
20
7.60334292323711
30
0
41
1
10
97.7107362445878
20
7.54279938216396
30
0
41
1
10
97.7117777452206
20
7.51252754257251
30
0
41
1
10
97.7151216408672
20
7.41618005342576
30
0
41
1
10
97.7174758094776
20
7.35010731133085
30
0
41
1
10
97.7198521416532
20
7.28404062811515
30
0
0
SPLINE
5
245
100
AcDbEntity
8
1
62
256
6
ByLayer
370
-1
48
1
60
0
100
AcDbSpline
70
4
71
3
72
14
73
10
40
0
40
0
40
0
40
0
40
0.0148352406566506
40
0.03907766150353
40
0.233017028278565
40
0.620895761828635
40
0.81483512860367
40
0.911804811991188
40
1
40
1
40
1
40
1
41
1
10
96.3184309539896
20
7.5735586270398
30
0
41
1
10
96.3185070987743
20
7.57275597761802
30
0
41
1
10
96.3187099374755
20
7.57066480280832
30
0
41
1
10
96.3199101550343
20
7.55810371031882
30
0
41
1
10
96.3230392839781
20
7.52551016503267
30
0
41
1
10
96.3270403365961
20
7.48374695483022
30
0
41
1
10
96.3305415338767
20
7.44720613680849
30
0
41
1
10
96.3324986073491
20
7.42681641245181
30
0
41
1
10
96.3334544844756
20
7.41685735588982
30
0
41
1
10
96.3339082055471
20
7.41209641610465
30
0
0
SPLINE
5
246
100
AcDbEntity
8
1
62
256
6
ByLayer
370
-1
48
1
60
0
100
AcDbSpline
70
4
71
3
72
11
73
7
40
0
40
0
40
0
40
0
40
0.0414539424596586
40
0.479978610899533
40
0.918503279339408
40
1
40
1
40
1
40
1
41
1
10
96.7859104100726
20
15.6732834728036
30
0
41
1
10
96.7871150016766
20
15.6733253662872
30
0
41
1
10
96.8010625702032
20
15.6738104695048
30
0
41
1
10
96.8277523843558
20
15.6747390564087
30
0
41
1
10
96.855605828429
20
15.6757079838874
30
0
41
1
10
96.8707169551076
20
15.6762336647306
30
0
41
1
10
96.8730851119336
20
15.6763160586007
30
0
0
SPLINE
5
247
100
AcDbEntity
8
1
62
256
6
ByLayer
370
-1
48
1
60
0
100
AcDbSpline
70
4
71
2
72
9
73
6
40
0
40
0
40
0
40
0.25
40
0.5
40
0.75
40
1
40
1
40
1
41
1
10
96.3166460057823
20
7.60222233681418
30
0
41
1
10
96.3463227842391
20
7.60338482393252
30
0
41
1
10
96.3999373719006
20
7.62764598529265
30
0
41
1
10
96.4406572850675
20
7.67112113887794
30
0
41
1
10
96.4617036690074
20
7.72692930594931
30
0
41
1
10
96.4607691782249
20
7.75736588537242
30
0
0
SPLINE
5
248
100
AcDbEntity
8
1
62
256
6
ByLayer
370
-1
48
1
60
0
100
AcDbSpline
70
4
71
3
72
14
73
10
40
0
40
0
40
0
40
0
40
0.25
40
0.25
40
0.5
40
0.5
40
0.75
40
0.75
40
1
40
1
40
1
40
1
41
1
10
86.8139792154976
20
16.2526763741322
30
0
41
1
10
86.8258456985483
20
16.3041144196794
30
0
41
1
10
86.8443845783542
20
16.3535870613829
30
0
41
1
10
86.8932613090438
20
16.4457464248002
30
0
41
1
10
86.9241179350348
20
16.489129706059
30
0
41
1
10
86.9950369367891
20
16.5654189223119
30
0
41
1
10
87.0360067910572
20
16.5992933577336
30
0
41
1
10
87.1241623088106
20
16.6544651412692
30
0
41
1
10
87.1713096367311
20
16.6760703105314
30
0
41
1
10
87.2216211057295
20
16.6914885951894
30
0
0
SPLINE
5
249
100
AcDbEntity
8
1
62
256
6
ByLayer
370
-1
48
1
60
0
100
AcDbSpline
70
4
71
3
72
16
73
12
40
0
40
0
40
0
40
0
40
0.572471985996888
40
0.858707978995332
40
0.930266977244943
40
0.966046476369748
40
0.983936225932151
40
0.992881100713352
40
0.997353538103953
40
0.999589756799253
40
1
40
1
40
1
40
1
41
1
10
97.3572669178352
20
15.6933726762549
30
0
41
1
10
97.3538410720898
20
15.7918508015435
30
0
41
1
10
97.3487027417629
20
15.9395680586192
30
0
41
1
10
97.3431347562631
20
16.0995948568786
30
0
41
1
10
97.3407804460066
20
16.167298721234
30
0
41
1
10
97.3400300150583
20
16.1888406475465
30
0
41
1
10
97.3396568539681
20
16.1996119378618
30
0
41
1
10
97.3394672210114
20
16.2049970726137
30
0
41
1
10
97.3393773029295
20
16.207690335405
30
0
41
1
10
97.3393288862178
20
16.2089150646173
30
0
41
1
10
97.3393038040737
20
16.2093696427293
30
0
41
1
10
97.3392997453357
20
16.2094400921538
30
0
0
SPLINE
5
24A
100
AcDbEntity
8
1
62
256
6
ByLayer
370
-1
48
1
60
0
100
AcDbSpline
70
4
71
3
72
10
73
6
40
0
40
0
40
0
40
0
40
0.499225645850197
40
0.499225645850197
40
1
40
1
40
1
40
1
41
1
10
88.0012588625685
20
6.08447821529046
30
0
41
1
10
87.986168314654
20
6.08391713724558
30
0
41
1
10
87.971077507486
20
6.08339349865562
30
0
41
1
10
87.9408513431648
20
6.08242502123207
30
0
41
1
10
87.9257159196396
20
6.08198059142359
30
0
41
1
10
87.9105819743714
20
6.08157652762353
30
0
0
SPLINE
5
24B
100
AcDbEntity
8
1
62
256
6
ByLayer
370
-1
48
1
60
0
100
AcDbSpline
70
4
71
3
72
8
73
4
40
0
40
0
40
0
40
0
40
1
40
1
40
1
40
1
41
1
10
87.2216211057345
20
16.6914885951271
30
0
41
1
10
87.2576993403793
20
16.7025450103509
30
0
41
1
10
87.2948884598318
20
16.7094635583311
30
0
41
1
10
87.3324937376534
20
16.7121402491298
30
0
0
SPLINE
5
24C
100
AcDbEntity
8
1
62
256
6
ByLayer
370
-1
48
1
60
0
100
AcDbSpline
70
4
71
3
72
8
73
4
40
0
40
0
40
0
40
0
40
1
40
1
40
1
40
1
41
1
10
96.8236841024673
20
17.0449019737471
30
0
41
1
10
96.8614172972814
20
17.0448708204191
30
0
41
1
10
96.8990096319878
20
17.0405444613104
30
0
41
1
10
96.9357662418743
20
17.0320098042238
30
0
0
SPLINE
5
24D
100
AcDbEntity
8
1
62
256
6
ByLayer
370
-1
48
1
60
0
100
AcDbSpline
70
4
71
3
72
12
73
8
40
0
40
0
40
0
40
0
40
0.484768844990526
40
0.727153267485789
40
0.84834547873342
40
0.969537689981052
40
1
40
1
40
1
40
1
41
1
10
86.8931082940946
20
15.3265603736306
30
0
41
1
10
86.9440792080484
20
15.3283335357284
30
0
41
1
10
87.0205355762669
20
15.3309932787809
30
0
41
1
10
87.1097346716655
20
15.3340963123123
30
0
41
1
10
87.1607053347203
20
15.3358695129037
30
0
41
1
10
87.1893938566486
20
15.3368675000302
30
0
41
1
10
87.2053398100597
20
15.337422172205
30
0
41
1
10
87.2085427599749
20
15.3375336100111
30
0
0
SPLINE
5
24E
100
AcDbEntity
8
1
62
256
6
ByLayer
370
-1
48
1
60
0
100
AcDbSpline
70
4
71
3
72
16
73
12
40
0
40
0
40
0
40
0
40
0.572471985996883
40
0.858707978995324
40
0.930266977244934
40
0.966046476369739
40
0.983936225932142
40
0.992881100713343
40
0.997353538103944
40
0.999589756799244
40
1
40
1
40
1
40
1
41
1
10
96.3780591347762
20
6.44791469593059
30
0
41
1
10
96.4761625210668
20
6.45135362785021
30
0
41
1
10
96.6233176726566
20
6.45651158905116
30
0
41
1
10
96.7827355132679
20
6.46210083595554
30
0
41
1
10
96.8501817511417
20
6.46446414648486
30
0
41
1
10
96.8716416962467
20
6.46521743625374
30
0
41
1
10
96.8823720100619
20
6.46559203431423
30
0
41
1
10
96.8877366356996
20
6.46578237452232
30
0
41
1
10
96.8904196778805
20
6.46587266425146
30
0
41
1
10
96.891639703233
20
6.46592122234597
30
0
41
1
10
96.8920924810255
20
6.46594632951795
30
0
41
1
10
96.892162650126
20
6.46595039147022
30
0
0
SPLINE
5
24F
100
AcDbEntity
8
1
62
256
6
ByLayer
370
-1
48
1
60
0
100
AcDbSpline
70
4
71
3
72
10
73
6
40
0
40
0
40
0
40
0
40
0.499225645850181
40
0.499225645850181
40
1
40
1
40
1
40
1
41
1
10
97.7198521415865
20
7.28404062811285
30
0
41
1
10
97.7203964747102
20
7.26890710241398
30
0
41
1
10
97.7209048888092
20
7.25377193324587
30
0
41
1
10
97.7218483612521
20
7.22345171095657
30
0
41
1
10
97.7222831015758
20
7.20826650141984
30
0
41
1
10
97.7226802135147
20
7.19308018189733
30
0
0
SPLINE
5
250
100
AcDbEntity
8
1
62
256
6
ByLayer
370
-1
48
1
60
0
100
AcDbSpline
70
4
71
3
72
44
73
40
40
0
40
0
40
0
40
0
40
0.0005100809524661
40
0.0008224215521685
40
0.0055075305477038
40
0.0105049801429415
40
0.0204998793334168
40
0.0404896777143675
40
0.0804692744762688
40
0.12044887123817
40
0.140438669619121
40
0.160428468000071
40
0.180418266381022
40
0.200408064761973
40
0.220397863142924
40
0.240387661523874
40
0.260377459904825
40
0.280367258285776
40
0.300357056666726
40
0.320346855047677
40
0.340336653428628
40
0.350331552619103
40
0.360326451809578
40
0.380316250190529
40
0.40030604857148
40
0.440285645333381
40
0.480265242095282
40
0.520244838857184
40
0.560224435619085
40
0.580214234000036
40
0.600204032380986
40
0.640183629142888
40
0.680163225904789
40
0.70015302428574
40
0.720142822666691
40
0.760122419428592
40
0.840081612952395
40
0.920040806476197
40
1
40
1
40
1
40
1
41
1
10
97.3392997453357
20
16.2094400921538
30
0
41
1
10
97.3392816800609
20
16.2097536596241
30
0
41
1
10
97.3392471031083
20
16.2102586819988
30
0
41
1
10
97.3389560885497
20
16.2136345426565
30
0
41
1
10
97.3384669961245
20
16.2197728576463
30
0
41
1
10
97.3376141974155
20
16.2318783263122
30
0
41
1
10
97.3363307751443
20
16.2533883547753
30
0
41
1
10
97.3345945641184
20
16.2964718188186
30
0
41
1
10
97.3334537968155
20
16.3580461349012
30
0
41
1
10
97.3319689190088
20
16.4196185263689
30
0
41
1
10
97.3292126378
20
16.4688148236305
30
0
41
1
10
97.3259174534276
20
16.5056244031214
30
0
41
1
10
97.3208622821659
20
16.5422406074297
30
0
41
1
10
97.3133055918045
20
16.5784366943993
30
0
41
1
10
97.3023923026861
20
16.613773475241
30
0
41
1
10
97.2881321323281
20
16.6478883047928
30
0
41
1
10
97.2706587755474
20
16.6804603319481
30
0
41
1
10
97.2503012955312
20
16.7112920820782
30
0
41
1
10
97.2275077593637
20
16.7403411901844
30
0
41
1
10
97.2027870999883
20
16.7677395946469
30
0
41
1
10
97.1809725896493
20
16.7893933532717
30
0
41
1
10
97.1630520095503
20
16.8062109096292
30
0
41
1
10
97.1448526028187
20
16.8227194559067
30
0
41
1
10
97.1215919607619
20
16.8427793698149
30
0
41
1
10
97.0830253950176
20
16.8731953751557
30
0
41
1
10
97.0318947386401
20
16.9073061885801
30
0
41
1
10
96.9655754055065
20
16.9395976858374
30
0
41
1
10
96.8952419341158
20
16.9617641181699
30
0
41
1
10
96.8346407647338
20
16.9717404629992
30
0
41
1
10
96.7857221611578
20
16.9753085821115
30
0
41
1
10
96.7366914995462
20
16.9767924904059
30
0
41
1
10
96.6753604722988
20
16.9758653749729
30
0
41
1
10
96.6140565928919
20
16.9733487305797
30
0
41
1
10
96.564995877308
20
16.9712878654394
30
0
41
1
10
96.5159180505599
20
16.9693387612482
30
0
41
1
10
96.4300001889783
20
16.9661169425137
30
0
41
1
10
96.3072078298416
20
16.9619196567593
30
0
41
1
10
96.1598640185823
20
16.9571018074982
30
0
41
1
10
96.0616932933222
20
16.9537890898054
30
0
41
1
10
96.012642663707
20
16.9520447056417
30
0
0
SPLINE
5
251
100
AcDbEntity
8
1
62
256
6
ByLayer
370
-1
48
1
60
0
100
AcDbSpline
70
4
71
3
72
10
73
6
40
0
40
0
40
0
40
0
40
0.0607450479743273
40
0.373830031982885
40
1
40
1
40
1
40
1
41
1
10
96.4901116124481
20
7.75836684417683
30
0
41
1
10
96.4895740081342
20
7.75834907079295
30
0
41
1
10
96.4862468159528
20
7.75823893429333
30
0
41
1
10
96.4767935219373
20
7.75792194127717
30
0
41
1
10
96.4671162456667
20
7.75758837649659
30
0
41
1
10
96.4607691782249
20
7.75736588537242
30
0
0
SPLINE
5
252
100
AcDbEntity
8
1
62
256
6
ByLayer
370
-1
48
1
60
0
100
AcDbSpline
70
4
71
3
72
18
73
14
40
0
40
0
40
0
40
0
40
0.0041315572796274
40
0.0497906845581631
40
0.0954498118366988
40
0.18676806639377
40
0.369404575507913
40
0.552041084622056
40
0.734677593736199
40
0.82599584829327
40
0.917314102850342
40
0.962973230128877
40
1
40
1
40
1
40
1
41
1
10
88.1699234535896
20
15.7121391537924
30
0
41
1
10
88.169935638568
20
15.7126128173231
30
0
41
1
10
88.1700821521252
20
15.7183231572102
30
0
41
1
10
88.1703546048129
20
15.7293226491079
30
0
41
1
10
88.1708132658678
20
15.7507473401225
30
0
41
1
10
88.1714705946189
20
15.7890765705615
30
0
41
1
10
88.1719823355675
20
15.8460873054725
30
0
41
1
10
88.171911853351
20
15.9174570977352
30
0
41
1
10
88.1712801798174
20
15.978865474032
30
0
41
1
10
88.1704355220957
20
16.0288114874911
30
0
41
1
10
88.1697682584814
20
16.0602971712281
30
0
41
1
10
88.1691811866938
20
16.0844080095411
30
0
41
1
10
88.1688756815186
20
16.095895600925
30
0
41
1
10
88.1687373526486
20
16.1010413556797
30
0
0
SPLINE
5
253
100
AcDbEntity
8
1
62
256
6
ByLayer
370
-1
48
1
60
0
100
AcDbSpline
70
4
71
3
72
8
73
4
40
0
40
0
40
0
40
0
40
1
40
1
40
1
40
1
41
1
10
87.1532046385892
20
6.50142478170494
30
0
41
1
10
87.142196337021
20
6.53763476561301
30
0
41
1
10
87.1353042423673
20
6.57496581481559
30
0
41
1
10
87.1326216788849
20
6.61273085832974
30
0
0
SPLINE
5
254
100
AcDbEntity
8
1
62
256
6
ByLayer
370
-1
48
1
60
0
100
AcDbSpline
70
4
71
3
72
8
73
4
40
0
40
0
40
0
40
0
40
1
40
1
40
1
40
1
41
1
10
97.0344478041188
20
6.40219005042874
30
0
41
1
10
97.0182026942816
20
6.40131805847057
30
0
41
1
10
97.0019532891645
20
6.4005263514843
30
0
41
1
10
96.9857002191798
20
6.39981368927025
30
0
0
SPLINE
5
255
100
AcDbEntity
8
1
62
256
6
ByLayer
370
-1
48
1
60
0
100
AcDbSpline
70
4
71
3
72
13
73
9
40
0
40
0
40
0
40
0
40
0.0688517852168754
40
0.178433579648133
40
0.616760757373166
40
0.835924346235682
40
0.94550614066694
40
1
40
1
40
1
40
1
41
1
10
96.873085111936
20
15.6763160586008
30
0
41
1
10
96.877088347593
20
15.6764553407948
30
0
41
1
10
96.8874627611571
20
15.6768163746716
30
0
41
1
10
96.923316114526
20
15.6780660454794
30
0
41
1
10
96.9678411554165
20
15.6796243563284
30
0
41
1
10
97.0120894474019
20
15.6811808481537
30
0
41
1
10
97.0341058629996
20
15.6819572268604
30
0
41
1
10
97.0435070659717
20
15.6822892037929
30
0
41
1
10
97.0466281268905
20
15.6823994398342
30
0
0
SPLINE
5
256
100
AcDbEntity
8
1
62
256
6
ByLayer
370
-1
48
1
60
0
100
AcDbSpline
70
4
71
3
72
10
73
6
40
0
40
0
40
0
40
0
40
0.283853282483271
40
0.283853282483271
40
1
40
1
40
1
40
1
41
1
10
96.6642005328314
20
17.0437041405329
30
0
41
1
10
96.6792852145411
20
17.0439478342719
30
0
41
1
10
96.6943724586119
20
17.044152930179
30
0
41
1
10
96.7475288644785
20
17.0447446423028
30
0
41
1
10
96.7856067055689
20
17.044933411224
30
0
41
1
10
96.8236841024703
20
17.0449019737161
30
0
0
SPLINE
5
257
100
AcDbEntity
8
1
62
256
6
ByLayer
370
-1
48
1
60
0
100
AcDbSpline
70
4
71
3
72
10
73
6
40
0
40
0
40
0
40
0
40
0.626169544093945
40
0.939254316140918
40
1
40
1
40
1
40
1
41
1
10
88.2964408581198
20
7.47117220469181
30
0
41
1
10
88.290093790678
20
7.47094971356685
30
0
41
1
10
88.2807396342371
20
7.47061614737532
30
0
41
1
10
88.2721070725173
20
7.47029915596758
30
0
41
1
10
88.2691504740611
20
7.47018901945592
30
0
41
1
10
88.2686740207707
20
7.47017124589001
30
0
0
SPLINE
5
258
100
AcDbEntity
8
1
62
256
6
ByLayer
370
-1
48
1
60
0
100
AcDbSpline
70
4
71
3
72
10
73
6
40
0
40
0
40
0
40
0
40
0.499225645850189
40
0.499225645850189
40
1
40
1
40
1
40
1
41
1
10
96.5248544259027
20
17.0397573546066
30
0
41
1
10
96.5399157541175
20
17.0403184326515
30
0
41
1
10
96.5549800975095
20
17.0408420712414
30
0
41
1
10
96.5851636225674
20
17.041810548665
30
0
41
1
10
96.600283049502
20
17.0422549784734
30
0
41
1
10
96.6154061662174
20
17.0426590422735
30
0
0
SPLINE
5
259
100
AcDbEntity
8
1
62
256
6
ByLayer
370
-1
48
1
60
0
100
AcDbSpline
70
4
71
1
72
4
73
2
40
0
40
0
40
1
40
1
41
1
10
97.409271676948
20
16.211874581666
30
0
41
1
10
97.3393139951419
20
16.2094409131153
30
0
0
SPLINE
5
25A
100
AcDbEntity
8
1
62
256
6
ByLayer
370
-1
48
1
60
0
100
AcDbSpline
70
4
71
3
72
10
73
6
40
0
40
0
40
0
40
0
40
0.0607450479741002
40
0.373830031982734
40
1
40
1
40
1
40
1
41
1
10
88.4527789868233
20
7.2978347951836
30
0
41
1
10
88.452730703125
20
7.29834375830833
30
0
41
1
10
88.4524356887301
20
7.30149765502114
30
0
41
1
10
88.4517095576909
20
7.31057514735829
30
0
41
1
10
88.4512156831149
20
7.32012719293607
30
0
41
1
10
88.4509940386366
20
7.32649850514434
30
0
0
SPLINE
5
25B
100
AcDbEntity
8
1
62
256
6
ByLayer
370
-1
48
1
60
0
100
AcDbSpline
70
4
71
3
72
10
73
6
40
0
40
0
40
0
40
0
40
0.283853282483284
40
0.283853282483284
40
1
40
1
40
1
40
1
41
1
10
87.8617689913515
20
6.08053142936416
30
0
41
1
10
87.8466831470931
20
6.08028773562515
30
0
41
1
10
87.8315985062502
20
6.08008263971806
30
0
41
1
10
87.7784598990269
20
6.07949092759424
30
0
41
1
10
87.7404091600112
20
6.07930215867302
30
0
41
1
10
87.7023599548475
20
6.07933359618093
30
0
0
SPLINE
5
25C
100
AcDbEntity
8
1
62
256
6
ByLayer
370
-1
48
1
60
0
100
AcDbSpline
70
4
71
3
72
8
73
4
40
0
40
0
40
0
40
0
40
1
40
1
40
1
40
1
41
1
10
97.3729086498822
20
16.6228107881921
30
0
41
1
10
97.3839290327656
20
16.586600804284
30
0
41
1
10
97.3908213797447
20
16.5492697550814
30
0
41
1
10
97.3934718266264
20
16.5115047115673
30
0
0
SPLINE
5
25D
100
AcDbEntity
8
1
62
256
6
ByLayer
370
-1
48
1
60
0
100
AcDbSpline
70
4
71
1
72
4
73
2
40
0
40
0
40
1
40
1
41
1
10
87.1168416115235
20
6.91236098823097
30
0
41
1
10
87.1857358360404
20
6.91479465678165
30
0
0
SPLINE
5
25E
100
AcDbEntity
8
1
62
256
6
ByLayer
370
-1
48
1
60
0
100
AcDbSpline
70
4
71
3
72
11
73
7
40
0
40
0
40
0
40
0
40
0.0814967294346951
40
0.520021388628469
40
0.958546047822244
40
1
40
1
40
1
40
1
41
1
10
96.0320315404958
20
16.4636070823438
30
0
41
1
10
96.0320959373179
20
16.4612476303719
30
0
41
1
10
96.0325047376483
20
16.4461941007925
30
0
41
1
10
96.0332574030457
20
16.4184476483095
30
0
41
1
10
96.0339827042834
20
16.3918563985715
30
0
41
1
10
96.0343570701138
20
16.3779648600369
30
0
41
1
10
96.0343893198756
20
16.3767651873532
30
0
0
SPLINE
5
25F
100
AcDbEntity
8
1
62
256
6
ByLayer
370
-1
48
1
60
0
100
AcDbSpline
70
4
71
3
72
12
73
8
40
0
40
0
40
0
40
0
40
0.0304623077133368
40
0.15165451924917
40
0.272846730785002
40
0.515231153856668
40
1
40
1
40
1
40
1
41
1
10
97.0466281268905
20
15.6823994398342
30
0
41
1
10
97.0497832126824
20
15.6825108776359
30
0
41
1
10
97.0654838408997
20
15.6830655498318
30
0
41
1
10
97.0937350426782
20
15.6840635369526
30
0
41
1
10
97.1439335724949
20
15.6858367375459
30
0
41
1
10
97.2317767134346
20
15.6889397710875
30
0
41
1
10
97.3070708350164
20
15.6915995141505
30
0
41
1
10
97.3572669178352
20
15.6933726762549
30
0
0
SPLINE
5
260
100
AcDbEntity
8
1
62
256
6
ByLayer
370
-1
48
1
60
0
100
AcDbSpline
70
4
71
3
72
10
73
6
40
0
40
0
40
0
40
0
40
0.283856160922818
40
0.283856160922818
40
1
40
1
40
1
40
1
41
1
10
87.1326216788852
20
6.61273085832866
30
0
41
1
10
87.1315485993114
20
6.62783763848958
30
0
41
1
10
87.1305169564769
20
6.64294739265199
30
0
41
1
10
87.1270222176299
20
6.69618572721009
30
0
41
1
10
87.1247711819416
20
6.73432860845872
30
0
41
1
10
87.1227458675023
20
6.77248249167582
30
0
0
SPLINE
5
261
100
AcDbEntity
8
1
62
256
6
ByLayer
370
-1
48
1
60
0
100
AcDbSpline
70
4
71
3
72
10
73
6
40
0
40
0
40
0
40
0
40
0.499245058431779
40
0.499245058431779
40
1
40
1
40
1
40
1
41
1
10
96.9857002191798
20
6.39981368927027
30
0
41
1
10
96.9706298692515
20
6.39915288679072
30
0
41
1
10
96.9555578993588
20
6.3985262439455
30
0
41
1
10
96.9253646655823
20
6.39733729184499
30
0
41
1
10
96.9102433182659
20
6.39677519216048
30
0
41
1
10
96.8951197125418
20
6.39624504684815
30
0
0
SPLINE
5
262
100
AcDbEntity
8
1
62
256
6
ByLayer
370
-1
48
1
60
0
100
AcDbSpline
70
4
71
3
72
18
73
14
40
0
40
0
40
0
40
0
40
0.0041315572796243
40
0.0497906845581599
40
0.0954498118366954
40
0.186768066393767
40
0.369404575507909
40
0.552041084622051
40
0.734677593736193
40
0.825995848293264
40
0.917314102850335
40
0.962973230128871
40
1
40
1
40
1
40
1
41
1
10
96.3339082055471
20
7.41209641610465
30
0
41
1
10
96.3339533460307
20
7.41162275257395
30
0
41
1
10
96.3344971608873
20
7.4059124126868
30
0
41
1
10
96.3355349117027
20
7.39491292078907
30
0
41
1
10
96.3374842121499
20
7.37348822977449
30
0
41
1
10
96.3408083266546
20
7.33515899933553
30
0
41
1
10
96.3452866334309
20
7.27814826442452
30
0
41
1
10
96.3501817595259
20
7.2067784721618
30
0
41
1
10
96.3538226211093
20
7.14537009586502
30
0
41
1
10
96.3564529957745
20
7.09542408240588
30
0
41
1
10
96.3579763728767
20
7.06393839866894
30
0
41
1
10
96.3590668312503
20
7.03982756035592
30
0
41
1
10
96.3595605841008
20
7.02833996897198
30
0
41
1
10
96.3597802750844
20
7.02319421421728
30
0
0
SPLINE
5
263
100
AcDbEntity
8
1
62
256
6
ByLayer
370
-1
48
1
60
0
100
AcDbSpline
70
4
71
3
72
14
73
10
40
0
40
0
40
0
40
0
40
0.25
40
0.25
40
0.5
40
0.5
40
0.75
40
0.75
40
1
40
1
40
1
40
1
41
1
10
97.7121340729738
20
6.87155919576483
30
0
41
1
10
97.7002897006637
20
6.8201211502176
30
0
41
1
10
97.6817592079682
20
6.77064850851411
30
0
41
1
10
97.6328801664196
20
6.67848914509682
30
0
41
1
10
97.6020127299175
20
6.63510586383799
30
0
41
1
10
97.5310586357209
20
6.55881664758505
30
0
41
1
10
97.490066278932
20
6.52494221216344
30
0
41
1
10
97.4019138802744
20
6.46977042862784
30
0
41
1
10
97.3547868042238
20
6.44816525936562
30
0
41
1
10
97.3044921827438
20
6.43274697470758
30
0
0
SPLINE
5
264
100
AcDbEntity
8
SK1
62
256
6
ByLayer
370
-1
48
1
60
0
100
AcDbSpline
70
4
71
3
72
8
73
4
40
0
40
0
40
0
40
0
40
1
40
1
40
1
40
1
41
1
10
-66.6
20
-9.10261500888609
30
0
41
1
10
-66.9484012097206
20
-8.83881772536392
30
0
41
1
10
-67.2932836983816
20
-8.56864972916986
30
0
41
1
10
-67.6338144512153
20
-8.2906028309236
30
0
0
SPLINE
5
265
100
AcDbEntity
8
SK1
62
256
6
ByLayer
370
-1
48
1
60
0
100
AcDbSpline
70
4
71
3
72
20
73
16
40
0
40
0
40
0
40
0
40
0.125000000000019
40
0.125000000000019
40
0.187500000000028
40
0.187500000000028
40
0.250000000000038
40
0.250000000000038
40
0.375000000000024
40
0.375000000000024
40
0.50000000000001
40
0.50000000000001
40
0.750000000000005
40
0.750000000000005
40
1
40
1
40
1
40
1
41
1
10
-67.6338144512151
20
-8.29060283092329
30
0
41
1
10
-67.6746000935235
20
-8.25730093016261
30
0
41
1
10
-67.7199836490945
20
-8.22876323292448
30
0
41
1
10
-67.7948550962205
20
-8.20056981372309
30
0
41
1
10
-67.8205420829085
20
-8.19379354056497
30
0
41
1
10
-67.8728129362724
20
-8.18630243082055
30
0
41
1
10
-67.8998340844743
20
-8.1856286499503
30
0
41
1
10
-67.9787783127119
20
-8.19310764466417
30
0
41
1
10
-68.0301252704948
20
-8.21095104743222
30
0
41
1
10
-68.1222359195847
20
-8.26210721442101
30
0
41
1
10
-68.1643255549633
20
-8.29567338223035
30
0
41
1
10
-68.2768770736766
20
-8.40615789436035
30
0
41
1
10
-68.3371994967397
20
-8.49473748926303
30
0
41
1
10
-68.4387470357031
20
-8.67793923211124
30
0
41
1
10
-68.4804562077026
20
-8.77402168984949
30
0
41
1
10
-68.5162227297291
20
-8.87304222606727
30
0
0
SPLINE
5
266
100
AcDbEntity
8
SK1
62
256
6
ByLayer
370
-1
48
1
60
0
100
AcDbSpline
70
4
71
3
72
8
73
4
40
0
40
0
40
0
40
0
40
1
40
1
40
1
40
1
41
1
10
-68.6
20
9.10261500888626
30
0
41
1
10
-68.571834450002
20
9.02620926996562
30
0
41
1
10
-68.5439066952102
20
8.94968599658984
30
0
41
1
10
-68.516222729729
20
8.87304222606744
30
0
0
SPLINE
5
267
100
AcDbEntity
8
SK1
62
256
6
ByLayer
370
-1
48
1
60
0
100
AcDbSpline
70
4
71
3
72
8
73
4
40
0
40
0
40
0
40
0
40
1
40
1
40
1
40
1
41
1
10
-68.5162227297291
20
-8.87304222606727
30
0
41
1
10
-68.5439066952102
20
-8.94968599658964
30
0
41
1
10
-68.571834450002
20
-9.02620926996545
30
0
41
1
10
-68.6
20
-9.10261500888612
30
0
0
SPLINE
5
268
100
AcDbEntity
8
SK1
62
256
6
ByLayer
370
-1
48
1
60
0
100
AcDbSpline
70
4
71
3
72
8
73
4
40
0
40
0
40
0
40
0
40
1
40
1
40
1
40
1
41
1
10
-70
20
6.62311105146222
30
0
41
1
10
-69.7055026821388
20
7.46777015601646
30
0
41
1
10
-69.3687115489839
20
8.29265478028327
30
0
41
1
10
-69
20
9.10261500888626
30
0
0
SPLINE
5
269
100
AcDbEntity
8
SK1
62
256
6
ByLayer
370
-1
48
1
60
0
100
AcDbSpline
70
4
71
3
72
8
73
4
40
0
40
0
40
0
40
0
40
1
40
1
40
1
40
1
41
1
10
-69
20
-9.10261500888609
30
0
41
1
10
-69.3687115489839
20
-8.2926547802831
30
0
41
1
10
-69.7055026821388
20
-7.46777015601629
30
0
41
1
10
-70
20
-6.62311105146205
30
0
0
SPLINE
5
26A
100
AcDbEntity
8
SK1
62
256
6
ByLayer
370
-1
48
1
60
0
100
AcDbSpline
70
4
71
3
72
8
73
4
40
0
40
0
40
0
40
0
40
1
40
1
40
1
40
1
41
1
10
-67.6338144512152
20
8.29060283092377
30
0
41
1
10
-67.2932836983815
20
8.56864972917003
30
0
41
1
10
-66.9484012097206
20
8.83881772536409
30
0
41
1
10
-66.6
20
9.10261500888626
30
0
0
SPLINE
5
26B
100
AcDbEntity
8
SK1
62
256
6
ByLayer
370
-1
48
1
60
0
100
AcDbSpline
70
4
71
3
72
20
73
16
40
0
40
0
40
0
40
0
40
0.249999999999997
40
0.249999999999997
40
0.374999999999998
40
0.374999999999998
40
0.499999999999998
40
0.499999999999998
40
0.624999999999999
40
0.624999999999999
40
0.749999999999999
40
0.749999999999999
40
0.875
40
0.875
40
1
40
1
40
1
40
1
41
1
10
-68.5162227297303
20
8.87304222606696
30
0
41
1
10
-68.4805102229812
20
8.77417123253394
30
0
41
1
10
-68.4382573152345
20
8.67693148618665
30
0
41
1
10
-68.3621710721186
20
8.53985159931514
30
0
41
1
10
-68.3346894685715
20
8.49562896904695
30
0
41
1
10
-68.2739659602408
20
8.41118058772861
30
0
41
1
10
-68.2407881315988
20
8.37091037639976
30
0
41
1
10
-68.1654488761744
20
8.29660337023134
30
0
41
1
10
-68.123541484252
20
8.2629600402953
30
0
41
1
10
-68.0305243323762
20
8.21104725205689
30
0
41
1
10
-67.9795833203366
20
8.19319188549028
30
0
41
1
10
-67.872813969243
20
8.18306085753042
30
0
41
1
10
-67.8196144054522
20
8.19122791676685
30
0
41
1
10
-67.7199392264586
20
8.22879859450236
30
0
41
1
10
-67.6749143258214
20
8.2570443562262
30
0
41
1
10
-67.6338144512151
20
8.29060283092346
30
0
0
SPLINE
5
26C
100
AcDbEntity
8
SK1
62
256
6
ByLayer
370
-1
48
1
60
0
100
AcDbSpline
70
4
71
3
72
72
73
68
40
0
40
0
40
0
40
0
40
0.0156250000000003
40
0.0156250000000003
40
0.0312500000000005
40
0.0312500000000005
40
0.0468750000000008
40
0.0468750000000008
40
0.062500000000001
40
0.062500000000001
40
0.0937500000000014
40
0.0937500000000014
40
0.109375000000002
40
0.109375000000002
40
0.125000000000002
40
0.125000000000002
40
0.156250000000002
40
0.156250000000002
40
0.187500000000002
40
0.187500000000002
40
0.218750000000001
40
0.218750000000001
40
0.250000000000001
40
0.250000000000001
40
0.312500000000001
40
0.312500000000001
40
0.375000000000002
40
0.375000000000002
40
0.406250000000002
40
0.406250000000002
40
0.437500000000002
40
0.437500000000002
40
0.500000000000002
40
0.500000000000002
40
0.562500000000002
40
0.562500000000002
40
0.625000000000002
40
0.625000000000002
40
0.687500000000002
40
0.687500000000002
40
0.718750000000002
40
0.718750000000002
40
0.750000000000002
40
0.750000000000002
40
0.812500000000002
40
0.812500000000002
40
0.843750000000001
40
0.843750000000001
40
0.859375000000001
40
0.859375000000001
40
0.875000000000001
40
0.875000000000001
40
0.906250000000001
40
0.906250000000001
40
0.921875000000001
40
0.921875000000001
40
0.937500000000001
40
0.937500000000001
40
0.953125000000001
40
0.953125000000001
40
0.96875
40
0.96875
40
0.9765625
40
0.9765625
40
0.984375
40
0.984375
40
1
40
1
40
1
40
1
41
1
10
-6.5
20
-9.10261500888618
30
0
41
1
10
-6.38914660019725
20
-9.10261500888618
30
0
41
1
10
-6.27612961385466
20
-9.09015098385046
30
0
41
1
10
-6.05985917895461
20
-9.04281130004992
30
0
41
1
10
-5.95475985097423
20
-9.00792576349431
30
0
41
1
10
-5.75343258145492
20
-8.91941414226187
30
0
41
1
10
-5.65919810333844
20
-8.86684398682266
30
0
41
1
10
-5.48088894318994
20
-8.74834825662376
30
0
41
1
10
-5.39640443529882
20
-8.68198569080923
30
0
41
1
10
-5.15892238475899
20
-8.4684605676342
30
0
41
1
10
-5.02365441240056
20
-8.30974008062717
30
0
41
1
10
-4.84296399719619
20
-8.05482884459988
30
0
41
1
10
-4.78642322072847
20
-7.96675301550394
30
0
41
1
10
-4.68042079967142
20
-7.78654390286022
30
0
41
1
10
-4.63122526195846
20
-7.69491452027412
30
0
41
1
10
-4.49299887645103
20
-7.41608134345648
30
0
41
1
10
-4.41323038468988
20
-7.22496300624556
30
0
41
1
10
-4.27152687943763
20
-6.8343560263894
30
0
41
1
10
-4.20965906429049
20
-6.6348461887967
30
0
41
1
10
-4.09961007502051
20
-6.2286775881141
30
0
41
1
10
-4.05150917072524
20
-6.02203194443632
30
0
41
1
10
-3.96692144189856
20
-5.6074574550413
30
0
41
1
10
-3.93025488815388
20
-5.39884469275898
30
0
41
1
10
-3.83321097175369
20
-4.76942146087168
30
0
41
1
10
-3.78559277520367
20
-4.34504706257979
30
0
41
1
10
-3.7112361899147
20
-3.48808137992401
30
0
41
1
10
-3.68460707386046
20
-3.05547999795235
30
0
41
1
10
-3.65470782442822
20
-2.40091890566339
30
0
41
1
10
-3.64643900603767
20
-2.18145148399697
30
0
41
1
10
-3.63274891948819
20
-1.74230735687166
30
0
41
1
10
-3.62733252136272
20
-1.52296705685933
30
0
41
1
10
-3.61463310465442
20
-0.865617065631682
30
0
41
1
10
-3.61080933488054
20
-0.428275684574771
30
0
41
1
10
-3.61090950897167
20
0.444684991040077
30
0
41
1
10
-3.61483745040269
20
0.88030412472645
30
0
41
1
10
-3.63179619285316
20
1.74979970758309
30
0
41
1
10
-3.64481102904037
20
2.18367646184913
30
0
41
1
10
-3.68431141261161
20
3.04958358359085
30
0
41
1
10
-3.71074384326306
20
3.48161507013518
30
0
41
1
10
-3.76673696017031
20
4.12812283873399
30
0
41
1
10
-3.78821526595235
20
4.34375014492497
30
0
41
1
10
-3.83787895821774
20
4.77101649951717
30
0
41
1
10
-3.86607610819138
20
4.9829568382882
30
0
41
1
10
-3.96342969061479
20
5.61325776204001
30
0
41
1
10
-4.04484226281082
20
6.02618785295124
30
0
41
1
10
-4.20877761048993
20
6.63176810724454
30
0
41
1
10
-4.27047938114893
20
6.83131020667685
30
0
41
1
10
-4.37747378301123
20
7.1264778598424
30
0
41
1
10
-4.41562361112287
20
7.22427655673613
30
0
41
1
10
-4.49679279030673
20
7.41629459142595
30
0
41
1
10
-4.5398877733324
20
7.51074836914336
30
0
41
1
10
-4.67791145216944
20
7.78892537172752
30
0
41
1
10
-4.78135481362554
20
7.96756739375849
30
0
41
1
10
-4.96130737226687
20
8.22195198147358
30
0
41
1
10
-5.02546297402537
20
8.30446540137604
30
0
41
1
10
-5.16438164479459
20
8.46391044858186
30
0
41
1
10
-5.23841496286948
20
8.53994273964545
30
0
41
1
10
-5.39629023089529
20
8.68187427767452
30
0
41
1
10
-5.4804954947721
20
8.74813957968226
30
0
41
1
10
-5.66096910628903
20
8.86796771603022
30
0
41
1
10
-5.75541196182655
20
8.92033547523616
30
0
41
1
10
-5.90448373735469
20
8.98579651940287
30
0
41
1
10
-5.95541416893875
20
9.00542573092372
30
0
41
1
10
-6.06002939197239
20
9.03984379515771
30
0
41
1
10
-6.1141052041134
20
9.05470732343474
30
0
41
1
10
-6.277583542549
20
9.09042477028081
30
0
41
1
10
-6.38802552881097
20
9.10261500888618
30
0
41
1
10
-6.5
20
9.10261500888618
30
0
0
LINE
5
45
100
AcDbEntity
8
80
62
256
6
ByLayer
370
-1
48
1
60
0
100
AcDbLine
10
0
20
0
30
0
11
-7
21
0
31
0
39
0
210
0
220
0
230
1
0
LINE
5
46
100
AcDbEntity
8
81
62
256
6
ByLayer
370
-1
48
1
60
0
100
AcDbLine
10
98
20
0
30
0
11
105
21
0
31
0
39
0
210
0
220
0
230
1
0
LINE
5
47
100
AcDbEntity
8
SK1
62
256
6
ByLayer
370
-1
48
1
60
0
100
AcDbLine
10
-2
20
-19.996
30
0
11
-1.552821
21
-19.787477
31
0
39
0
210
0
220
0
230
1
0
LINE
5
49
100
AcDbEntity
8
SK1
62
256
6
ByLayer
370
-1
48
1
60
0
100
AcDbLine
10
-1.552821
20
19.787477
30
0
11
-2
21
19.996
31
0
39
0
210
0
220
0
230
1
0
LINE
5
4A
100
AcDbEntity
8
SK1
62
256
6
ByLayer
370
-1
48
1
60
0
100
AcDbLine
10
-2
20
19.996
30
0
11
-66.6
21
19.996
31
0
39
0
210
0
220
0
230
1
0
LINE
5
4B
100
AcDbEntity
8
SK1
62
256
6
ByLayer
370
-1
48
1
60
0
100
AcDbLine
10
-66.6
20
-19.996
30
0
11
-2
21
-19.996
31
0
39
0
210
0
220
0
230
1
0
LINE
5
4C
100
AcDbEntity
8
SK1
62
256
6
ByLayer
370
-1
48
1
60
0
100
AcDbLine
10
-0.15
20
19.75
30
0
11
-1.383773
21
19.75
31
0
39
0
210
0
220
0
230
1
0
LINE
5
4D
100
AcDbEntity
8
SK1
62
256
6
ByLayer
370
-1
48
1
60
0
100
AcDbLine
10
-1.383773
20
-19.75
30
0
11
-0.15
21
-19.75
31
0
39
0
210
0
220
0
230
1
0
LINE
5
4E
100
AcDbEntity
8
SK1
62
256
6
ByLayer
370
-1
48
1
60
0
100
AcDbLine
10
-68.6
20
-19.996
30
0
11
-68.516223
21
-19.892544
31
0
39
0
210
0
220
0
230
1
0
LINE
5
4F
100
AcDbEntity
8
SK1
62
256
6
ByLayer
370
-1
48
1
60
0
100
AcDbLine
10
-68.516223
20
19.892544
30
0
11
-68.6
21
19.996
31
0
39
0
210
0
220
0
230
1
0
LINE
5
50
100
AcDbEntity
8
SK1
62
256
6
ByLayer
370
-1
48
1
60
0
100
AcDbLine
10
-68.6
20
19.996
30
0
11
-69
21
19.996
31
0
39
0
210
0
220
0
230
1
0
LINE
5
51
100
AcDbEntity
8
SK1
62
256
6
ByLayer
370
-1
48
1
60
0
100
AcDbLine
10
-69
20
-19.996
30
0
11
-68.6
21
-19.996
31
0
39
0
210
0
220
0
230
1
0
LINE
5
52
100
AcDbEntity
8
SK1
62
256
6
ByLayer
370
-1
48
1
60
0
100
AcDbLine
10
-66.6
20
19.996
30
0
11
-67.633814
21
19.639667
31
0
39
0
210
0
220
0
230
1
0
LINE
5
53
100
AcDbEntity
8
SK1
62
256
6
ByLayer
370
-1
48
1
60
0
100
AcDbLine
10
-67.633814
20
-19.639667
30
0
11
-66.6
21
-19.996
31
0
39
0
210
0
220
0
230
1
0
LINE
5
54
100
AcDbEntity
8
SK1
62
256
6
ByLayer
370
-1
48
1
60
0
100
AcDbLine
10
-69
20
19.996
30
0
11
-70
21
18.996
31
0
39
0
210
0
220
0
230
1
0
LINE
5
55
100
AcDbEntity
8
SK1
62
256
6
ByLayer
370
-1
48
1
60
0
100
AcDbLine
10
-70
20
-18.996
30
0
11
-69
21
-19.996
31
0
39
0
210
0
220
0
230
1
0
LINE
5
56
100
AcDbEntity
8
1
62
256
6
ByLayer
370
-1
48
1
60
0
100
AcDbLine
10
0.2
20
24.75
30
0
11
0
21
24.55
31
0
39
0
210
0
220
0
230
1
0
LINE
5
58
100
AcDbEntity
8
1
62
256
6
ByLayer
370
-1
48
1
60
0
100
AcDbLine
10
0
20
-24.55
30
0
11
0.2
21
-24.75
31
0
39
0
210
0
220
0
230
1
0
LINE
5
59
100
AcDbEntity
8
1
62
256
6
ByLayer
370
-1
48
1
60
0
100
AcDbLine
10
5
20
24.75
30
0
11
0.2
21
24.75
31
0
39
0
210
0
220
0
230
1
0
LINE
5
5A
100
AcDbEntity
8
1
62
256
6
ByLayer
370
-1
48
1
60
0
100
AcDbLine
10
0.2
20
-24.75
30
0
11
5
21
-24.75
31
0
39
0
210
0
220
0
230
1
0
LINE
5
5B
100
AcDbEntity
8
1
62
256
6
ByLayer
370
-1
48
1
60
0
100
AcDbLine
10
31.437282
20
16.4
30
0
11
25
21
16.4
31
0
39
0
210
0
220
0
230
1
0
LINE
5
5C
100
AcDbEntity
8
1
62
256
6
ByLayer
370
-1
48
1
60
0
100
AcDbLine
10
25
20
-16.4
30
0
11
26.927603
21
-16.4
31
0
39
0
210
0
220
0
230
1
0
LINE
5
5D
100
AcDbEntity
8
SK4
62
256
6
ByLayer
370
-1
48
0.05
60
0
100
AcDbLine
10
98
20
0
30
0
11
-70
21
0
31
0
39
0
210
0
220
0
230
1
0
LINE
5
5F
100
AcDbEntity
8
4
62
256
6
ByLayer
370
-1
48
0.05
60
0
100
AcDbLine
10
98
20
0
30
0
11
0
21
0
31
0
39
0
210
0
220
0
230
1
0
LINE
5
61
100
AcDbEntity
8
1
62
256
6
ByLayer
370
-1
48
1
60
0
100
AcDbLine
10
81.728975
20
7.638109
30
0
11
79.828103
21
8.448064
31
0
39
0
210
0
220
0
230
1
0
LINE
5
62
100
AcDbEntity
8
1
62
256
6
ByLayer
370
-1
48
1
60
0
100
AcDbLine
10
96.178672
20
0.079395
30
0
11
96.182964
21
-0.017355
31
0
39
0
210
0
220
0
230
1
0
LINE
5
63
100
AcDbEntity
8
1
62
256
6
ByLayer
370
-1
48
1
60
0
100
AcDbLine
10
95.92198
20
6.195572
30
0
11
96.071452
21
6.195572
31
0
39
0
210
0
220
0
230
1
0
LINE
5
64
100
AcDbEntity
8
1
62
256
6
ByLayer
370
-1
48
1
60
0
100
AcDbLine
10
5
20
24.75
30
0
11
5
21
-24.75
31
0
39
0
210
0
220
0
230
1
0
LINE
5
65
100
AcDbEntity
8
1
62
256
6
ByLayer
370
-1
48
1
60
0
100
AcDbLine
10
25
20
16.4
30
0
11
25
21
-2.718605
31
0
39
0
210
0
220
0
230
1
0
LINE
5
66
100
AcDbEntity
8
1
62
256
6
ByLayer
370
-1
48
1
60
0
100
AcDbLine
10
86.293817
20
10.306207
30
0
11
86.563999
21
10.306207
31
0
39
0
210
0
220
0
230
1
0
LINE
5
67
100
AcDbEntity
8
1
62
256
6
ByLayer
370
-1
48
1
60
0
100
AcDbLine
10
87.132789
20
5.934212
30
0
11
86.716868
21
5.919632
31
0
39
0
210
0
220
0
230
1
0
LINE
5
68
100
AcDbEntity
8
1
62
256
6
ByLayer
370
-1
48
1
60
0
100
AcDbLine
10
86.745172
20
11.684052
30
0
11
86.764264
21
11.684052
31
0
39
0
210
0
220
0
230
1
0
LINE
5
69
100
AcDbEntity
8
1
62
256
6
ByLayer
370
-1
48
1
60
0
100
AcDbLine
10
96.182964
20
-0.017355
30
0
11
96.610025
21
-8.150973
31
0
39
0
210
0
220
0
230
1
0
LINE
5
6A
100
AcDbEntity
8
1
62
256
6
ByLayer
370
-1
48
1
60
0
100
AcDbLine
10
96.210418
20
0.79792
30
0
11
96.272058
21
0.795772
31
0
39
0
210
0
220
0
230
1
0
LINE
5
6B
100
AcDbEntity
8
1
62
256
6
ByLayer
370
-1
48
1
60
0
100
AcDbLine
10
85.868133
20
-16.386242
30
0
11
96.376684
21
-16.386242
31
0
39
0
210
0
220
0
230
1
0
LINE
5
6C
100
AcDbEntity
8
1
62
256
6
ByLayer
370
-1
48
1
60
0
100
AcDbLine
10
0.2
20
24.75
30
0
11
0.2
21
-24.75
31
0
39
0
210
0
220
0
230
1
0
LINE
5
6D
100
AcDbEntity
8
1
62
256
6
ByLayer
370
-1
48
1
60
0
100
AcDbLine
10
87.132789
20
5.934212
30
0
11
87.178077
21
5.934212
31
0
39
0
210
0
220
0
230
1
0
LINE
5
6E
100
AcDbEntity
8
1
62
256
6
ByLayer
370
-1
48
1
60
0
100
AcDbLine
10
86.293817
20
10.306207
30
0
11
86.389425
21
7.557882
31
0
39
0
210
0
220
0
230
1
0
LINE
5
6F
100
AcDbEntity
8
1
62
256
6
ByLayer
370
-1
48
1
60
0
100
AcDbLine
10
80.35421
20
4.073006
30
0
11
80.016663
21
2.911772
31
0
39
0
210
0
220
0
230
1
0
LINE
5
70
100
AcDbEntity
8
1
62
256
6
ByLayer
370
-1
48
1
60
0
100
AcDbLine
10
86.914268
20
11.816154
30
0
11
86.94625
21
11.816154
31
0
39
0
210
0
220
0
230
1
0
LINE
5
71
100
AcDbEntity
8
1
62
256
6
ByLayer
370
-1
48
1
60
0
100
AcDbLine
10
86.389425
20
7.557882
30
0
11
86.659608
21
7.557882
31
0
39
0
210
0
220
0
230
1
0
LINE
5
72
100
AcDbEntity
8
1
62
256
6
ByLayer
370
-1
48
1
60
0
100
AcDbLine
10
86.59365
20
5.495739
30
0
11
86.716868
21
5.919632
31
0
39
0
210
0
220
0
230
1
0
LINE
5
73
100
AcDbEntity
8
1
62
256
6
ByLayer
370
-1
48
1
60
0
100
AcDbLine
10
86.563999
20
10.306207
30
0
11
86.659608
21
7.557882
31
0
39
0
210
0
220
0
230
1
0
LINE
5
74
100
AcDbEntity
8
1
62
256
6
ByLayer
370
-1
48
1
60
0
100
AcDbLine
10
80.515835
20
7.256226
30
0
11
81.347855
21
6.901705
31
0
39
0
210
0
220
0
230
1
0
LINE
5
75
100
AcDbEntity
8
1
62
256
6
ByLayer
370
-1
48
1
60
0
100
AcDbLine
10
96.610025
20
-8.150973
30
0
11
96.160101
21
-7.950499
31
0
39
0
210
0
220
0
230
1
0
LINE
5
76
100
AcDbEntity
8
1
62
256
6
ByLayer
370
-1
48
1
60
0
100
AcDbLine
10
96.276452
20
0.808882
30
0
11
96.486559
21
6.381846
31
0
39
0
210
0
220
0
230
1
0
LINE
5
77
100
AcDbEntity
8
1
62
256
6
ByLayer
370
-1
48
1
60
0
100
AcDbLine
10
96.376684
20
-16.386242
30
0
11
97.004364
21
-9.30957
31
0
39
0
210
0
220
0
230
1
0
LINE
5
78
100
AcDbEntity
8
1
62
256
6
ByLayer
370
-1
48
1
60
0
100
AcDbLine
10
84.124029
20
11.401691
30
0
11
84.124029
21
16.397422
31
0
39
0
210
0
220
0
230
1
0
LINE
5
79
100
AcDbEntity
8
1
62
256
6
ByLayer
370
-1
48
1
60
0
100
AcDbLine
10
86.745172
20
11.684052
30
0
11
86.594801
21
16.39983
31
0
39
0
210
0
220
0
230
1
0
LINE
5
7A
100
AcDbEntity
8
1
62
256
6
ByLayer
370
-1
48
1
60
0
100
AcDbLine
10
85.543355
20
1.882502
30
0
11
86.005681
21
3.473
31
0
39
0
210
0
220
0
230
1
0
LINE
5
7B
100
AcDbEntity
8
1
62
256
6
ByLayer
370
-1
48
1
60
0
100
AcDbLine
10
96.610025
20
-8.150973
30
0
11
96.590411
21
-8.372112
31
0
39
0
210
0
220
0
230
1
0
LINE
5
7C
100
AcDbEntity
8
1
62
256
6
ByLayer
370
-1
48
1
60
0
100
AcDbLine
10
96.241648
20
0.827356
30
0
11
96.276452
21
0.808882
31
0
39
0
210
0
220
0
230
1
0
LINE
5
7D
100
AcDbEntity
8
1
62
256
6
ByLayer
370
-1
48
1
60
0
100
AcDbLine
10
0
20
24.55
30
0
11
0
21
-24.55
31
0
39
0
210
0
220
0
230
1
0
LINE
5
7E
100
AcDbEntity
8
1
62
256
6
ByLayer
370
-1
48
1
60
0
100
AcDbLine
10
96.225773
20
6.187458
30
0
11
96.017304
21
6.19041
31
0
39
0
210
0
220
0
230
1
0
LINE
5
7F
100
AcDbEntity
8
1
62
256
6
ByLayer
370
-1
48
1
60
0
100
AcDbLine
10
89.636326
20
5.975234
30
0
11
95.92198
21
6.195572
31
0
39
0
210
0
220
0
230
1
0
LINE
5
80
100
AcDbEntity
8
1
62
256
6
ByLayer
370
-1
48
1
60
0
100
AcDbLine
10
96.272058
20
0.795772
30
0
11
96.276452
21
0.808882
31
0
39
0
210
0
220
0
230
1
0
LINE
5
81
100
AcDbEntity
8
1
62
256
6
ByLayer
370
-1
48
1
60
0
100
AcDbLine
10
95.806473
20
-7.792932
30
0
11
95.324472
21
-7.578166
31
0
39
0
210
0
220
0
230
1
0
LINE
5
82
100
AcDbEntity
8
1
62
256
6
ByLayer
370
-1
48
1
60
0
100
AcDbLine
10
96.229918
20
0.827765
30
0
11
96.241648
21
0.827356
31
0
39
0
210
0
220
0
230
1
0
LINE
5
83
100
AcDbEntity
8
1
62
256
6
ByLayer
370
-1
48
1
60
0
100
AcDbLine
10
96.182964
20
-0.017355
30
0
11
94.610175
21
0.683436
31
0
39
0
210
0
220
0
230
1
0
LINE
5
84
100
AcDbEntity
8
1
62
256
6
ByLayer
370
-1
48
1
60
0
100
AcDbLine
10
96.613419
20
-9.262347
30
0
11
97.004364
21
-9.30957
31
0
39
0
210
0
220
0
230
1
0
LINE
5
85
100
AcDbEntity
8
1
62
256
6
ByLayer
370
-1
48
1
60
0
100
AcDbLine
10
94.540074
20
2.424677
30
0
11
96.017304
21
6.19041
31
0
39
0
210
0
220
0
230
1
0
LINE
5
86
100
AcDbEntity
8
1
62
256
6
ByLayer
370
-1
48
1
60
0
100
AcDbLine
10
25
20
-16.4
30
0
11
25
21
-16.381287
31
0
39
0
210
0
220
0
230
1
0
LINE
5
87
100
AcDbEntity
8
1
62
256
6
ByLayer
370
-1
48
1
60
0
100
AcDbLine
10
96.017304
20
6.19041
30
0
11
95.92198
21
6.195572
31
0
39
0
210
0
220
0
230
1
0
LINE
5
88
100
AcDbEntity
8
1
62
256
6
ByLayer
370
-1
48
1
60
0
100
AcDbLine
10
86.613971
20
16.397386
30
0
11
86.764264
21
11.684052
31
0
39
0
210
0
220
0
230
1
0
LINE
5
89
100
AcDbEntity
8
1
62
256
6
ByLayer
370
-1
48
1
60
0
100
AcDbLine
10
96.071525
20
6.195572
30
0
11
96.225773
21
6.187458
31
0
39
0
210
0
220
0
230
1
0
LINE
5
8A
100
AcDbEntity
8
1
62
256
6
ByLayer
370
-1
48
1
60
0
100
AcDbLine
10
81.347855
20
6.901705
30
0
11
81.319177
21
6.901705
31
0
39
0
210
0
220
0
230
1
0
LINE
5
8B
100
AcDbEntity
8
1
62
256
6
ByLayer
370
-1
48
1
60
0
100
AcDbLine
10
84.124029
20
11.401691
30
0
11
72.042423
21
13.484828
31
0
39
0
210
0
220
0
230
1
0
LINE
5
8C
100
AcDbEntity
8
1
62
256
6
ByLayer
370
-1
48
1
60
0
100
AcDbLine
10
97.584685
20
-5.174605
30
0
11
97.141882
21
-5.305165
31
0
39
0
210
0
220
0
230
1
0
LINE
5
8D
100
AcDbEntity
8
1
62
256
6
ByLayer
370
-1
48
1
60
0
100
AcDbLine
10
97.209603
20
-1.381607
30
0
11
97.356415
21
-4.17773
31
0
39
0
210
0
220
0
230
1
0
LINE
5
8E
100
AcDbEntity
8
1
62
256
6
ByLayer
370
-1
48
1
60
0
100
AcDbLine
10
96.292322
20
0.909342
30
0
11
96.279924
21
0.901004
31
0
39
0
210
0
220
0
230
1
0
LINE
5
8F
100
AcDbEntity
8
1
62
256
6
ByLayer
370
-1
48
1
60
0
100
AcDbLine
10
97.435138
20
-1.193353
30
0
11
97.208049
21
-1.125512
31
0
39
0
210
0
220
0
230
1
0
LINE
5
90
100
AcDbEntity
8
1
62
256
6
ByLayer
370
-1
48
1
60
0
100
AcDbLine
10
96.577683
20
-9.172239
30
0
11
97.528433
21
-8.82684
31
0
39
0
210
0
220
0
230
1
0
LINE
5
91
100
AcDbEntity
8
1
62
256
6
ByLayer
370
-1
48
1
60
0
100
AcDbLine
10
97.597475
20
-4.28514
30
0
11
97.356415
21
-4.17773
31
0
39
0
210
0
220
0
230
1
0
LINE
5
92
100
AcDbEntity
8
1
62
256
6
ByLayer
370
-1
48
1
60
0
100
AcDbLine
10
97.01442
20
-7.011752
30
0
11
97.054641
21
-5.862124
31
0
39
0
210
0
220
0
230
1
0
LINE
5
93
100
AcDbEntity
8
1
62
256
6
ByLayer
370
-1
48
1
60
0
100
AcDbLine
10
97.922856
20
-8.284976
30
0
11
97.999634
21
-6.090417
31
0
39
0
210
0
220
0
230
1
0
LINE
5
94
100
AcDbEntity
8
1
62
256
6
ByLayer
370
-1
48
1
60
0
100
AcDbLine
10
97.528433
20
-8.82684
30
0
11
97.456472
21
-8.737989
31
0
39
0
210
0
220
0
230
1
0
LINE
5
95
100
AcDbEntity
8
1
62
256
6
ByLayer
370
-1
48
1
60
0
100
AcDbLine
10
97.192259
20
-1.378504
30
0
11
96.706115
21
-1.332609
31
0
39
0
210
0
220
0
230
1
0
LINE
5
96
100
AcDbEntity
8
1
62
256
6
ByLayer
370
-1
48
1
60
0
100
AcDbLine
10
97.700814
20
-7.107002
30
0
11
97.741035
21
-5.957374
31
0
39
0
210
0
220
0
230
1
0
LINE
5
97
100
AcDbEntity
8
1
62
256
6
ByLayer
370
-1
48
1
60
0
100
AcDbLine
10
97.40567
20
-1.048781
30
0
11
97.181788
21
-0.981898
31
0
39
0
210
0
220
0
230
1
0
LINE
5
98
100
AcDbEntity
8
1
62
256
6
ByLayer
370
-1
48
1
60
0
100
AcDbLine
10
97.597475
20
-4.28514
30
0
11
97.435138
21
-1.193353
31
0
39
0
210
0
220
0
230
1
0
LINE
5
99
100
AcDbEntity
8
1
62
256
6
ByLayer
370
-1
48
1
60
0
100
AcDbLine
10
97.40567
20
-1.048781
30
0
11
96.835198
21
0.515655
31
0
39
0
210
0
220
0
230
1
0
LINE
5
9A
100
AcDbEntity
8
1
62
256
6
ByLayer
370
-1
48
1
60
0
100
AcDbLine
10
97.999634
20
-6.090417
30
0
11
97.758391
21
-5.961989
31
0
39
0
210
0
220
0
230
1
0
LINE
5
9B
100
AcDbEntity
8
1
62
256
6
ByLayer
370
-1
48
1
60
0
100
AcDbLine
10
96.757623
20
0.456529
30
0
11
96.175859
21
0.151853
31
0
39
0
210
0
220
0
230
1
0
LINE
5
9C
100
AcDbEntity
8
1
62
256
6
ByLayer
370
-1
48
1
60
0
100
AcDbLine
10
96.292322
20
0.909342
30
0
11
96.280229
21
0.909763
31
0
39
0
210
0
220
0
230
1
0
LINE
5
9D
100
AcDbEntity
8
1
62
256
6
ByLayer
370
-1
48
1
60
0
100
AcDbLine
10
97.339072
20
-4.174627
30
0
11
96.852927
21
-4.128731
31
0
39
0
210
0
220
0
230
1
0
LINE
5
9E
100
AcDbEntity
8
1
62
256
6
ByLayer
370
-1
48
1
60
0
100
AcDbLine
10
96.543834
20
-0.86424
30
0
11
96.202
21
-0.379742
31
0
39
0
210
0
220
0
230
1
0
LINE
5
9F
100
AcDbEntity
8
1
62
256
6
ByLayer
370
-1
48
1
60
0
100
AcDbLine
10
96.380313
20
-0.979181
30
0
11
96.221657
21
-0.754309
31
0
39
0
210
0
220
0
230
1
0
LINE
5
A0
100
AcDbEntity
8
1
62
256
6
ByLayer
370
-1
48
1
60
0
100
AcDbLine
10
96.653201
20
-4.139179
30
0
11
96.506389
21
-1.343056
31
0
39
0
210
0
220
0
230
1
0
LINE
5
A1
100
AcDbEntity
8
1
62
256
6
ByLayer
370
-1
48
1
60
0
100
AcDbLine
10
97.820051
20
-5.191324
30
0
11
97.600483
21
-5.171412
31
0
39
0
210
0
220
0
230
1
0
LINE
5
A2
100
AcDbEntity
8
1
62
256
6
ByLayer
370
-1
48
1
60
0
100
AcDbLine
10
96.835198
20
0.515655
30
0
11
96.782915
21
0.480492
31
0
39
0
210
0
220
0
230
1
0
LINE
5
A3
100
AcDbEntity
8
1
62
256
6
ByLayer
370
-1
48
1
60
0
100
AcDbLine
10
97.375663
20
-8.752386
30
0
11
96.563852
21
-8.907745
31
0
39
0
210
0
220
0
230
1
0
LINE
5
A4
100
AcDbEntity
8
1
62
256
6
ByLayer
370
-1
48
1
60
0
100
AcDbLine
10
97.214299
20
-7.018719
30
0
11
97.25452
21
-5.869091
31
0
39
0
210
0
220
0
230
1
0
LINE
5
A5
100
AcDbEntity
8
1
62
256
6
ByLayer
370
-1
48
1
60
0
100
AcDbLine
10
97.03562
20
-0.606686
30
0
11
96.757623
21
0.456529
31
0
39
0
210
0
220
0
230
1
0
LINE
5
A6
100
AcDbEntity
8
1
62
256
6
ByLayer
370
-1
48
1
60
0
100
AcDbLine
10
97.758391
20
-5.961989
30
0
11
97.71817
21
-7.111617
31
0
39
0
210
0
220
0
230
1
0
LINE
5
A7
100
AcDbEntity
8
1
62
256
6
ByLayer
370
-1
48
1
60
0
100
AcDbLine
10
96.852927
20
-4.128731
30
0
11
96.706115
21
-1.332609
31
0
39
0
210
0
220
0
230
1
0
LINE
5
A8
100
AcDbEntity
8
1
62
256
6
ByLayer
370
-1
48
1
60
0
100
AcDbLine
10
97.03562
20
-0.606686
30
0
11
96.543834
21
-0.86424
31
0
39
0
210
0
220
0
230
1
0
LINE
5
A9
100
AcDbEntity
8
1
62
256
6
ByLayer
370
-1
48
1
60
0
100
AcDbLine
10
97.922856
20
-8.284976
30
0
11
97.8212
21
-8.159463
31
0
39
0
210
0
220
0
230
1
0
LINE
5
AA
100
AcDbEntity
8
1
62
256
6
ByLayer
370
-1
48
1
60
0
100
AcDbLine
10
97.339072
20
-4.174627
30
0
11
97.192259
21
-1.378504
31
0
39
0
210
0
220
0
230
1
0
LINE
5
AB
100
AcDbEntity
8
1
62
256
6
ByLayer
370
-1
48
1
60
0
100
AcDbLine
10
96.583777
20
-7.651182
30
0
11
96.719394
21
-7.555854
31
0
39
0
210
0
220
0
230
1
0
LINE
5
AC
100
AcDbEntity
8
1
62
256
6
ByLayer
370
-1
48
1
60
0
100
AcDbLine
10
97.423667
20
-8.703965
30
0
11
96.83455
21
-7.71907
31
0
39
0
210
0
220
0
230
1
0
LINE
5
AD
100
AcDbEntity
8
1
62
256
6
ByLayer
370
-1
48
1
60
0
100
AcDbLine
10
97.700814
20
-7.107002
30
0
11
97.214299
21
-7.018719
31
0
39
0
210
0
220
0
230
1
0
LINE
5
AE
100
AcDbEntity
8
1
62
256
6
ByLayer
370
-1
48
1
60
0
100
AcDbLine
10
97.741035
20
-5.957374
30
0
11
97.25452
21
-5.869091
31
0
39
0
210
0
220
0
230
1
0
LINE
5
AF
100
AcDbEntity
8
1
62
256
6
ByLayer
370
-1
48
1
60
0
100
AcDbLine
10
96.564078
20
-8.868468
30
0
11
97.423667
21
-8.703965
31
0
39
0
210
0
220
0
230
1
0
LINE
5
B0
100
AcDbEntity
8
1
62
256
6
ByLayer
370
-1
48
1
60
0
100
AcDbLine
10
96.802117
20
0.404604
30
0
11
97.080114
21
-0.658611
31
0
39
0
210
0
220
0
230
1
0
LINE
5
B1
100
AcDbEntity
8
1
62
256
6
ByLayer
370
-1
48
1
60
0
100
AcDbLine
10
96.596145
20
-7.886648
30
0
11
96.83455
21
-7.71907
31
0
39
0
210
0
220
0
230
1
0
LINE
5
B2
100
AcDbEntity
8
1
62
256
6
ByLayer
370
-1
48
1
60
0
100
AcDbLine
10
97.060585
20
7.777586
30
0
11
96.78591
21
15.673283
31
0
39
0
210
0
220
0
230
1
0
LINE
5
B3
100
AcDbEntity
8
1
62
256
6
ByLayer
370
-1
48
1
60
0
100
AcDbLine
10
87.208543
20
15.337534
30
0
11
87.483217
21
7.441836
31
0
39
0
210
0
220
0
230
1
0
LINE
5
B4
100
AcDbEntity
8
1
62
256
6
ByLayer
370
-1
48
1
60
0
100
AcDbLine
10
95.950179
20
12.416819
30
0
11
95.859785
21
15.015235
31
0
39
0
210
0
220
0
230
1
0
LINE
5
B5
100
AcDbEntity
8
1
62
256
6
ByLayer
370
-1
48
1
60
0
100
AcDbLine
10
96.01075
20
17.021736
30
0
11
87.630994
21
16.727991
31
0
39
0
210
0
220
0
230
1
0
LINE
5
B6
100
AcDbEntity
8
1
62
256
6
ByLayer
370
-1
48
1
60
0
100
AcDbLine
10
95.428766
20
15.300171
30
0
11
92.840238
21
15.209433
31
0
39
0
210
0
220
0
230
1
0
LINE
5
B7
100
AcDbEntity
8
1
62
256
6
ByLayer
370
-1
48
1
60
0
100
AcDbLine
10
88.515363
20
6.1025
30
0
11
96.89512
21
6.396245
31
0
39
0
210
0
220
0
230
1
0
LINE
5
B8
100
AcDbEntity
8
1
62
256
6
ByLayer
370
-1
48
1
60
0
100
AcDbLine
10
96.318431
20
7.573561
30
0
11
88.452779
21
7.297837
31
0
39
0
210
0
220
0
230
1
0
LINE
5
B9
100
AcDbEntity
8
1
62
256
6
ByLayer
370
-1
48
1
60
0
100
AcDbLine
10
97.631942
20
7.797675
30
0
11
97.357267
21
15.693373
31
0
39
0
210
0
220
0
230
1
0
LINE
5
BA
100
AcDbEntity
8
1
62
256
6
ByLayer
370
-1
48
1
60
0
100
AcDbLine
10
95.878625
20
10.964797
30
0
11
95.969019
21
8.36638
31
0
39
0
210
0
220
0
230
1
0
LINE
5
BB
100
AcDbEntity
8
1
62
256
6
ByLayer
370
-1
48
1
60
0
100
AcDbLine
10
96.03439
20
16.376764
30
0
11
88.168738
21
16.10104
31
0
39
0
210
0
220
0
230
1
0
LINE
5
BC
100
AcDbEntity
8
1
62
256
6
ByLayer
370
-1
48
1
60
0
100
AcDbLine
10
89.592489
20
8.886754
30
0
11
89.679918
21
8.804914
31
0
39
0
210
0
220
0
230
1
0
LINE
5
BD
100
AcDbEntity
8
1
62
256
6
ByLayer
370
-1
48
1
60
0
100
AcDbLine
10
89.216761
20
8.746227
30
0
11
89.435333
21
8.541627
31
0
39
0
210
0
220
0
230
1
0
LINE
5
BE
100
AcDbEntity
8
1
62
256
6
ByLayer
370
-1
48
1
60
0
100
AcDbLine
10
96.012643
20
16.952045
30
0
11
88.146991
21
16.676321
31
0
39
0
210
0
220
0
230
1
0
LINE
5
BF
100
AcDbEntity
8
1
62
256
6
ByLayer
370
-1
48
1
60
0
100
AcDbLine
10
96.186095
20
15.653063
30
0
11
96.460769
21
7.757366
31
0
39
0
210
0
220
0
230
1
0
LINE
5
C0
100
AcDbEntity
8
1
62
256
6
ByLayer
370
-1
48
1
60
0
100
AcDbLine
10
96.363465
20
6.936353
30
0
11
88.497813
21
6.660629
31
0
39
0
210
0
220
0
230
1
0
LINE
5
C1
100
AcDbEntity
8
1
62
256
6
ByLayer
370
-1
48
1
60
0
100
AcDbLine
10
89.200453
20
8.992602
30
0
11
89.479673
21
9.293171
31
0
39
0
210
0
220
0
230
1
0
LINE
5
C2
100
AcDbEntity
8
1
62
256
6
ByLayer
370
-1
48
1
60
0
100
AcDbLine
10
96.316646
20
7.602222
30
0
11
88.450994
21
7.326499
31
0
39
0
210
0
220
0
230
1
0
LINE
5
C3
100
AcDbEntity
8
1
62
256
6
ByLayer
370
-1
48
1
60
0
100
AcDbLine
10
88.296441
20
7.471172
30
0
11
88.021766
21
15.36687
31
0
39
0
210
0
220
0
230
1
0
LINE
5
C4
100
AcDbEntity
8
1
62
256
6
ByLayer
370
-1
48
1
60
0
100
AcDbLine
10
96.359781
20
7.023195
30
0
11
88.494129
21
6.747471
31
0
39
0
210
0
220
0
230
1
0
LINE
5
C5
100
AcDbEntity
8
1
62
256
6
ByLayer
370
-1
48
1
60
0
100
AcDbLine
10
89.509419
20
14.338111
30
0
11
89.850975
21
14.018389
31
0
39
0
210
0
220
0
230
1
0
LINE
5
C6
100
AcDbEntity
8
1
62
256
6
ByLayer
370
-1
48
1
60
0
100
AcDbLine
10
87.84301
20
15.36023
30
0
11
88.117685
21
7.464533
31
0
39
0
210
0
220
0
230
1
0
LINE
5
C7
100
AcDbEntity
8
1
62
256
6
ByLayer
370
-1
48
1
60
0
100
AcDbLine
10
89.29201
20
14.104078
30
0
11
89.633566
21
13.784356
31
0
39
0
210
0
220
0
230
1
0
LINE
5
C8
100
AcDbEntity
8
1
62
256
6
ByLayer
370
-1
48
1
60
0
100
AcDbLine
10
89.509419
20
14.338111
30
0
11
89.512915
21
14.325165
31
0
39
0
210
0
220
0
230
1
0
LINE
5
C9
100
AcDbEntity
8
1
62
256
6
ByLayer
370
-1
48
1
60
0
100
AcDbLine
10
96.032032
20
16.463607
30
0
11
88.16638
21
16.187883
31
0
39
0
210
0
220
0
230
1
0
LINE
5
CA
100
AcDbEntity
8
1
62
256
6
ByLayer
370
-1
48
1
60
0
100
AcDbLine
10
96.025972
20
16.637812
30
0
11
88.16032
21
16.362088
31
0
39
0
210
0
220
0
230
1
0
LINE
5
CB
100
AcDbEntity
8
1
62
256
6
ByLayer
370
-1
48
1
60
0
100
AcDbLine
10
96.333908
20
7.412095
30
0
11
88.468256
21
7.136371
31
0
39
0
210
0
220
0
230
1
0
LINE
5
CC
100
AcDbEntity
8
1
62
256
6
ByLayer
370
-1
48
1
60
0
100
AcDbLine
10
89.344806
20
8.862355
30
0
11
89.336808
21
8.869842
31
0
39
0
210
0
220
0
230
1
0
LINE
5
CD
100
AcDbEntity
8
1
62
256
6
ByLayer
370
-1
48
1
60
0
100
AcDbLine
10
96.378059
20
6.447915
30
0
11
88.512407
21
6.172191
31
0
39
0
210
0
220
0
230
1
0
LINE
5
CE
100
AcDbEntity
8
1
62
256
6
ByLayer
370
-1
48
1
60
0
100
AcDbLine
10
96.660821
20
7.764005
30
0
11
96.386147
21
15.659703
31
0
39
0
210
0
220
0
230
1
0
LINE
5
CF
100
AcDbEntity
8
1
62
256
6
ByLayer
370
-1
48
1
60
0
100
AcDbLine
10
88.165889
20
15.522013
30
0
11
96.031541
21
15.797737
31
0
39
0
210
0
220
0
230
1
0
LINE
5
D0
100
AcDbEntity
8
1
62
256
6
ByLayer
370
-1
48
1
60
0
100
AcDbLine
10
97.321302
20
7.786702
30
0
11
97.046628
21
15.682399
31
0
39
0
210
0
220
0
230
1
0
LINE
5
D1
100
AcDbEntity
8
1
62
256
6
ByLayer
370
-1
48
1
60
0
100
AcDbLine
10
95.828266
20
12.412408
30
0
11
95.737873
21
15.010824
31
0
39
0
210
0
220
0
230
1
0
LINE
5
D2
100
AcDbEntity
8
1
62
256
6
ByLayer
370
-1
48
1
60
0
100
AcDbLine
10
97.701899
20
7.800109
30
0
11
97.409272
21
16.211875
31
0
39
0
210
0
220
0
230
1
0
LINE
5
D3
100
AcDbEntity
8
1
62
256
6
ByLayer
370
-1
48
1
60
0
100
AcDbLine
10
96.031332
20
15.826398
30
0
11
88.16568
21
15.550675
31
0
39
0
210
0
220
0
230
1
0
LINE
5
D4
100
AcDbEntity
8
1
62
256
6
ByLayer
370
-1
48
1
60
0
100
AcDbLine
10
93.092716
20
7.839039
30
0
11
95.681245
21
7.929778
31
0
39
0
210
0
220
0
230
1
0
LINE
5
D5
100
AcDbEntity
8
1
62
256
6
ByLayer
370
-1
48
1
60
0
100
AcDbLine
10
88.587553
20
14.271266
30
0
11
89.388981
21
13.521068
31
0
39
0
210
0
220
0
230
1
0
LINE
5
D6
100
AcDbEntity
8
1
62
256
6
ByLayer
370
-1
48
1
60
0
100
AcDbLine
10
95.680773
20
8.056093
30
0
11
93.092244
21
7.965355
31
0
39
0
210
0
220
0
230
1
0
LINE
5
D7
100
AcDbEntity
8
1
62
256
6
ByLayer
370
-1
48
1
60
0
100
AcDbLine
10
97.14776
20
7.780619
30
0
11
96.873085
21
15.676316
31
0
39
0
210
0
220
0
230
1
0
LINE
5
D8
100
AcDbEntity
8
1
62
256
6
ByLayer
370
-1
48
1
60
0
100
AcDbLine
10
96.035575
20
15.987865
30
0
11
88.169923
21
15.712141
31
0
39
0
210
0
220
0
230
1
0
LINE
5
D9
100
AcDbEntity
8
1
62
256
6
ByLayer
370
-1
48
1
60
0
100
AcDbLine
10
89.592489
20
8.886754
30
0
11
89.67174
21
8.972065
31
0
39
0
210
0
220
0
230
1
0
LINE
5
DA
100
AcDbEntity
8
1
62
256
6
ByLayer
370
-1
48
1
60
0
100
AcDbLine
10
96.369525
20
6.762147
30
0
11
88.503873
21
6.486424
31
0
39
0
210
0
220
0
230
1
0
LINE
5
DB
100
AcDbEntity
8
1
62
256
6
ByLayer
370
-1
48
1
60
0
100
AcDbLine
10
88.744572
20
14.579502
30
0
11
89.091211
21
14.510814
31
0
39
0
210
0
220
0
230
1
0
LINE
5
DC
100
AcDbEntity
8
1
62
256
6
ByLayer
370
-1
48
1
60
0
100
AcDbLine
10
89.200453
20
8.992602
30
0
11
89.200697
21
8.992373
31
0
39
0
210
0
220
0
230
1
0
LINE
5
DD
100
AcDbEntity
8
1
62
256
6
ByLayer
370
-1
48
1
60
0
100
AcDbLine
10
87.382085
20
15.343617
30
0
11
87.65676
21
7.44792
31
0
39
0
210
0
220
0
230
1
0
LINE
5
DE
100
AcDbEntity
8
1
62
256
6
ByLayer
370
-1
48
1
60
0
100
AcDbLine
10
88.99877
20
14.853138
30
0
11
89.091211
21
14.510814
31
0
39
0
210
0
220
0
230
1
0
LINE
5
DF
100
AcDbEntity
8
1
62
256
6
ByLayer
370
-1
48
1
60
0
100
AcDbLine
10
87.467935
20
15.34665
30
0
11
87.742609
21
7.450952
31
0
39
0
210
0
220
0
230
1
0
LINE
5
E0
100
AcDbEntity
8
1
62
256
6
ByLayer
370
-1
48
1
60
0
100
AcDbLine
10
86.824214
20
15.324127
30
0
11
87.116842
21
6.912361
31
0
39
0
210
0
220
0
230
1
0
LINE
5
E1
100
AcDbEntity
8
1
62
256
6
ByLayer
370
-1
48
1
60
0
100
AcDbLine
10
96.090931
20
8.370791
30
0
11
96.000538
21
10.969208
31
0
39
0
210
0
220
0
230
1
0
LINE
5
E2
100
AcDbEntity
8
1
62
256
6
ByLayer
370
-1
48
1
60
0
100
AcDbLine
10
89.294132
20
15.031874
30
0
11
90.09556
21
14.281676
31
0
39
0
210
0
220
0
230
1
0
LINE
5
E3
100
AcDbEntity
8
1
62
256
6
ByLayer
370
-1
48
1
60
0
100
AcDbLine
10
89.29201
20
14.104078
30
0
11
89.305119
21
14.10148
31
0
39
0
210
0
220
0
230
1
0
LINE
5
E4
100
AcDbEntity
8
1
62
256
6
ByLayer
370
-1
48
1
60
0
100
AcDbLine
10
87.994002
20
15.365869
30
0
11
88.268677
21
7.470171
31
0
39
0
210
0
220
0
230
1
0
LINE
5
E5
100
AcDbEntity
8
1
62
256
6
ByLayer
370
-1
48
1
60
0
100
AcDbLine
10
95.42045
20
15.426487
30
0
11
92.831922
21
15.335748
31
0
39
0
210
0
220
0
230
1
0
LINE
5
E6
100
AcDbEntity
8
1
62
256
6
ByLayer
370
-1
48
1
60
0
100
AcDbLine
10
96.49011
20
7.758367
30
0
11
96.215435
21
15.654064
31
0
39
0
210
0
220
0
230
1
0
LINE
5
E7
100
AcDbEntity
8
1
62
256
6
ByLayer
370
-1
48
1
60
0
100
AcDbLine
10
86.893108
20
15.32656
30
0
11
87.167783
21
7.430863
31
0
39
0
210
0
220
0
230
1
0
LINE
5
E8
100
AcDbEntity
8
SK1
62
256
6
ByLayer
370
-1
48
1
60
0
100
AcDbLine
10
-2
20
-19.996
30
0
11
-2
21
19.996
31
0
39
0
210
0
220
0
230
1
0
LINE
5
E9
100
AcDbEntity
8
SK1
62
256
6
ByLayer
370
-1
48
1
60
0
100
AcDbLine
10
-68.6
20
-9.102615
30
0
11
-69
21
-9.102615
31
0
39
0
210
0
220
0
230
1
0
LINE
5
EA
100
AcDbEntity
8
SK1
62
256
6
ByLayer
370
-1
48
1
60
0
100
AcDbLine
10
-70
20
-6.623111
30
0
11
-70
21
-18.996
31
0
39
0
210
0
220
0
230
1
0
LINE
5
EB
100
AcDbEntity
8
SK1
62
256
6
ByLayer
370
-1
48
1
60
0
100
AcDbLine
10
-70
20
18.996
30
0
11
-70
21
6.623111
31
0
39
0
210
0
220
0
230
1
0
LINE
5
EC
100
AcDbEntity
8
SK1
62
256
6
ByLayer
370
-1
48
1
60
0
100
AcDbLine
10
-69
20
-9.102615
30
0
11
-69
21
-19.996
31
0
39
0
210
0
220
0
230
1
0
LINE
5
ED
100
AcDbEntity
8
SK1
62
256
6
ByLayer
370
-1
48
1
60
0
100
AcDbLine
10
-69
20
19.996
30
0
11
-69
21
9.102615
31
0
39
0
210
0
220
0
230
1
0
LINE
5
EE
100
AcDbEntity
8
SK1
62
256
6
ByLayer
370
-1
48
1
60
0
100
AcDbLine
10
-1.383773
20
19.75
30
0
11
-1.383773
21
-19.75
31
0
39
0
210
0
220
0
230
1
0
LINE
5
EF
100
AcDbEntity
8
SK1
62
256
6
ByLayer
370
-1
48
1
60
0
100
AcDbLine
10
-69
20
9.102615
30
0
11
-68.6
21
9.102615
31
0
39
0
210
0
220
0
230
1
0
LINE
5
F0
100
AcDbEntity
8
SK1
62
256
6
ByLayer
370
-1
48
1
60
0
100
AcDbLine
10
-66.6
20
9.102615
30
0
11
-66.6
21
19.996
31
0
39
0
210
0
220
0
230
1
0
LINE
5
F1
100
AcDbEntity
8
SK1
62
256
6
ByLayer
370
-1
48
1
60
0
100
AcDbLine
10
-66.6
20
-19.996
30
0
11
-66.6
21
-9.102615
31
0
39
0
210
0
220
0
230
1
0
LINE
5
F2
100
AcDbEntity
8
SK1
62
256
6
ByLayer
370
-1
48
1
60
0
100
AcDbLine
10
-70
20
6.623111
30
0
11
-70
21
-6.623111
31
0
39
0
210
0
220
0
230
1
0
LINE
5
F3
100
AcDbEntity
8
SK1
62
256
6
ByLayer
370
-1
48
1
60
0
100
AcDbLine
10
-68.516223
20
-8.873042
30
0
11
-68.516223
21
-19.892544
31
0
39
0
210
0
220
0
230
1
0
LINE
5
F4
100
AcDbEntity
8
SK1
62
256
6
ByLayer
370
-1
48
1
60
0
100
AcDbLine
10
-68.516223
20
19.892544
30
0
11
-68.516223
21
8.873042
31
0
39
0
210
0
220
0
230
1
0
LINE
5
F5
100
AcDbEntity
8
SK1
62
256
6
ByLayer
370
-1
48
1
60
0
100
AcDbLine
10
-0.15
20
19.75
30
0
11
-0.15
21
-19.75
31
0
39
0
210
0
220
0
230
1
0
LINE
5
F6
100
AcDbEntity
8
SK1
62
256
6
ByLayer
370
-1
48
1
60
0
100
AcDbLine
10
-68.6
20
-19.996
30
0
11
-68.6
21
-9.102615
31
0
39
0
210
0
220
0
230
1
0
LINE
5
F7
100
AcDbEntity
8
SK1
62
256
6
ByLayer
370
-1
48
1
60
0
100
AcDbLine
10
-68.6
20
9.102615
30
0
11
-68.6
21
19.996
31
0
39
0
210
0
220
0
230
1
0
LINE
5
F8
100
AcDbEntity
8
SK1
62
256
6
ByLayer
370
-1
48
1
60
0
100
AcDbLine
10
-1.552821
20
19.787477
30
0
11
-1.552821
21
-19.787477
31
0
39
0
210
0
220
0
230
1
0
LINE
5
F9
100
AcDbEntity
8
SK1
62
256
6
ByLayer
370
-1
48
1
60
0
100
AcDbLine
10
-66.6
20
9.102615
30
0
11
-6.5
21
9.102615
31
0
39
0
210
0
220
0
230
1
0
LINE
5
FA
100
AcDbEntity
8
SK1
62
256
6
ByLayer
370
-1
48
1
60
0
100
AcDbLine
10
-6.5
20
-9.102615
30
0
11
-66.6
21
-9.102615
31
0
39
0
210
0
220
0
230
1
0
LINE
5
FB
100
AcDbEntity
8
SK1
62
256
6
ByLayer
370
-1
48
1
60
0
100
AcDbLine
10
-6.5
20
9.102615
30
0
11
-6.5
21
-9.102615
31
0
39
0
210
0
220
0
230
1
0
LINE
5
FC
100
AcDbEntity
8
SK1
62
256
6
ByLayer
370
-1
48
1
60
0
100
AcDbLine
10
-67.633814
20
-8.290603
30
0
11
-67.633814
21
-19.639667
31
0
39
0
210
0
220
0
230
1
0
LINE
5
FD
100
AcDbEntity
8
SK1
62
256
6
ByLayer
370
-1
48
1
60
0
100
AcDbLine
10
-67.633814
20
19.639667
30
0
11
-67.633814
21
8.290603
31
0
39
0
210
0
220
0
230
1
0
MTEXT
5
26D
100
AcDbEntity
8
SK6
62
256
6
ByLayer
370
-1
48
1
60
0
100
AcDbMText
10
0.79375
20
-80.79375
30
0
210
0
220
0
230
1
1
\W00.754;\fsimplex.shx,bigfont.shx;880-D3400L40-02 
40
3.175
41
0
44
1.084337
50
0
71
7
72
5
7
DEFAULT
0
DIMENSION
5
29D
100
AcDbEntity
8
SK2
62
256
6
ByLayer
370
-3
48
1
60
0
100
AcDbDimension
2
DimnDraft3D1
10
98
20
-63.61955
30
0
11
14
21
-63.61955
31
0
70
32
71
5
72
1
41
1
210
0
220
0
230
1
3
Standard
100
AcDbAlignedDimension
13
-70
23
-21.5875
33
0
14
98
24
-18.5875
34
0
50
0
100
AcDbRotatedDimension
1001
ACAD
1000
DSTYLE
1002
{
1070
   279
1070
     0
1070
   172
1070
     1
1070
   173
1070
     1
1070
   340
1005
26E
1070
   271
1070
     1
1070
   272
1070
     2
1070
    77
1070
     1
1070
    73
1070
     0
1070
   171
1070
     3
1070
   274
1070
     4
1070
   177
1070
   150
1070
   176
1070
     9
1070
   178
1070
    43
1070
    78
1070
     8
1070
    48
1040
-0.005
1070
    41
1041
4.175
1070
   147
1041
2.25
1070
    42
1041
1.5875
1070
    44
1041
3.175
1070
   140
1041
4.5
1070
   343
1005
0
1070
   344
1005
0
1002
}
0
DIMENSION
5
2A7
100
AcDbEntity
8
SK2
62
256
6
ByLayer
370
-3
48
1
60
0
100
AcDbDimension
2
DimnDraft3D2
10
0
20
-51.6508
30
0
11
-35
21
-51.6508
31
0
70
32
71
5
72
1
41
1
210
0
220
0
230
1
3
Standard
100
AcDbAlignedDimension
13
-70
23
-21.5875
33
0
14
0
24
-26.3375
34
0
50
0
100
AcDbRotatedDimension
1001
ACAD
1000
DSTYLE
1002
{
1070
   279
1070
     0
1070
   172
1070
     1
1070
   173
1070
     1
1070
   340
1005
26E
1070
   271
1070
     1
1070
   272
1070
     2
1070
    77
1070
     1
1070
    73
1070
     0
1070
   171
1070
     3
1070
   274
1070
     4
1070
   177
1070
   150
1070
   176
1070
     9
1070
   178
1070
    43
1070
    78
1070
     8
1070
    48
1040
-0.005
1070
    41
1041
4.175
1070
   147
1041
2.25
1070
    42
1041
1.5875
1070
    44
1041
3.175
1070
   140
1041
4.5
1070
   343
1005
0
1070
   344
1005
0
1002
}
0
DIMENSION
5
2B2
100
AcDbEntity
8
2
62
256
6
ByLayer
370
-3
48
1
60
0
100
AcDbDimension
2
DimnDraft3D3
10
98
20
-51.6508
30
0
11
49
21
-51.6508
31
0
70
32
71
5
72
1
41
1
210
0
220
0
230
1
3
Standard
100
AcDbAlignedDimension
13
0
23
-26.3375
33
0
14
98
24
-18.5875
34
0
50
0
100
AcDbRotatedDimension
1001
ACAD
1000
DSTYLE
1002
{
1070
   279
1070
     0
1070
   172
1070
     1
1070
   173
1070
     1
1070
   340
1005
26E
1070
   271
1070
     1
1070
   272
1070
     2
1070
    77
1070
     1
1070
    73
1070
     0
1070
   171
1070
     3
1070
   274
1070
     4
1070
   177
1070
   150
1070
   176
1070
     9
1070
   178
1070
    43
1070
    78
1070
     8
1070
    48
1040
-0.005
1070
    41
1041
4.175
1070
   147
1041
2.25
1070
    42
1041
1.5875
1070
    44
1041
3.175
1070
   140
1041
4.5
1070
   343
1005
0
1070
   344
1005
0
1002
}
0
DIMENSION
5
2BC
100
AcDbEntity
8
SK2
62
256
6
ByLayer
370
-3
48
1
60
0
100
AcDbDimension
2
DimnDraft3D4
10
98
20
-41.6508
30
0
11
61.5
21
-41.6508
31
0
70
32
71
5
72
1
41
1
210
0
220
0
230
1
3
Standard
100
AcDbAlignedDimension
13
25
23
-11.5875
33
0
14
98
24
-18.5875
34
0
50
0
100
AcDbRotatedDimension
1001
ACAD
1000
DSTYLE
1002
{
1070
   279
1070
     0
1070
   172
1070
     1
1070
   173
1070
     1
1070
   340
1005
26E
1070
   271
1070
     1
1070
   272
1070
     2
1070
    77
1070
     1
1070
    73
1070
     0
1070
   171
1070
     3
1070
   274
1070
     4
1070
   177
1070
   150
1070
   176
1070
     9
1070
   178
1070
    43
1070
    78
1070
     8
1070
    48
1040
-0.005
1070
    41
1041
4.175
1070
   147
1041
2.25
1070
    42
1041
1.5875
1070
    44
1041
3.175
1070
   140
1041
4.5
1070
   343
1005
0
1070
   344
1005
0
1002
}
0
DIMENSION
5
2C7
100
AcDbEntity
8
SK2
62
256
6
ByLayer
370
-3
48
1
60
0
100
AcDbDimension
2
DimnDraft3D5
10
-81.9
20
-20
30
0
11
-82.1
21
3.884211
31
0
70
33
71
5
72
1
41
1
210
0
220
0
230
1
3
Standard
100
AcDbAlignedDimension
13
-71.5875
23
20
33
0
14
-71.5875
24
-20
34
0
1001
ACAD
1000
DSTYLE
1002
{
1070
   279
1070
     0
1070
    74
1070
     0
1070
   173
1070
     1
1070
   340
1005
26E
1070
   271
1070
     2
1070
   272
1070
     2
1070
    77
1070
     1
1070
    73
1070
     0
1070
   171
1070
     3
1070
   274
1070
     4
1070
   177
1070
   150
1070
   176
1070
     9
1070
   178
1070
    43
1070
    78
1070
     8
1070
    48
1040
-0.005
1070
    41
1041
4.175
1070
   147
1041
2.25
1070
    42
1041
1.5875
1070
    44
1041
3.175
1070
   140
1041
4.5
1070
   343
1005
0
1070
   344
1005
0
1002
}
0
DIMENSION
5
2D2
100
AcDbEntity
8
SK2
62
256
6
ByLayer
370
-3
48
1
60
0
100
AcDbDimension
2
DimnDraft3D6
10
-91.9
20
24.75
30
0
11
-92.1
21
1.35
31
0
70
33
71
5
72
1
41
1
210
0
220
0
230
1
3
Standard
100
AcDbAlignedDimension
13
-1.5875
23
-24.75
33
0
14
-1.5875
24
24.75
34
0
1001
ACAD
1000
DSTYLE
1002
{
1070
   279
1070
     0
1070
    74
1070
     0
1070
   173
1070
     1
1070
   340
1005
26E
1070
   271
1070
     1
1070
   272
1070
     2
1070
    77
1070
     1
1070
    73
1070
     0
1070
   171
1070
     3
1070
   274
1070
     4
1070
   177
1070
   150
1070
   176
1070
     9
1070
   178
1070
    43
1070
    78
1070
     8
1070
    48
1040
-0.005
1070
    41
1041
4.175
1070
   147
1041
2.25
1070
    42
1041
1.5875
1070
    44
1041
3.175
1070
   140
1041
4.5
1070
   343
1005
0
1070
   344
1005
0
1002
}
0
DIMENSION
5
2DD
100
AcDbEntity
8
2
62
256
6
ByLayer
370
-3
48
1
60
0
100
AcDbDimension
2
DimnDraft3D7
10
128.15
20
-17
30
0
11
121.6
21
3.884211
31
0
70
33
71
5
72
1
41
1
210
0
220
0
230
1
3
Standard
100
AcDbAlignedDimension
13
99.5875
23
17
33
0
14
99.5875
24
-17
34
0
1001
ACAD
1000
DSTYLE
1002
{
1070
   279
1070
     0
1070
    74
1070
     0
1070
   173
1070
     1
1070
   340
1005
26E
1070
   271
1070
     2
1070
   272
1070
     2
1070
    77
1070
     1
1070
    73
1070
     0
1070
   171
1070
     3
1070
   274
1070
     4
1070
   177
1070
   150
1070
   176
1070
     9
1070
   178
1070
    43
1070
    78
1070
     8
1070
    48
1040
-0.005
1070
    41
1041
4.175
1070
   147
1041
2.25
1070
    42
1041
1.5875
1070
    44
1041
3.175
1070
   140
1041
4.5
1070
   343
1005
0
1070
   344
1005
0
1002
}
0
ENDSEC
0
SECTION
2
OBJECTS
0
DICTIONARY
5
30e
330
0
100
AcDbDictionary
280
0
281
1
3
ACAD_GROUP
350
30f
3
ACAD_MLINESTYLE
350
310
0
DICTIONARY
5
30f
330
0
100
AcDbDictionary
280
0
281
1
0
DICTIONARY
5
310
330
0
100
AcDbDictionary
280
0
281
1
3
Standard
350
18
0
MLINESTYLE
5
18
330
310
100
AcDbMlineStyle
2
Standard
70
0
3

62
256
51
90
52
90
71
2
49
-0.5
62
256
6
ByLayer
49
0.5
62
256
6
ByLayer
0
RASTERVARIABLES
5
2fc
330

100
AcDbRasterVariables
90
0
70
1
71
1
72
1
0
ENDSEC
0
EOF
