0
SECTION
2
HEADER
9
$ACADVER
1
AC1015
9
$DWGCODEPAGE
3
ANSI_1252
9
$HANDSEED
5
33e
9
$ANGBASE
50
0
9
$ANGDIR
70
0
9
$ATTMODE
70
1
9
$AUNITS
70
0
9
$AUPREC
70
0
9
$CECOLOR
62
256
9
$CELTSCALE
40
1
9
$CELTYPE
6
ByLayer
9
$CELWEIGHT
370
-1
9
$CLAYER
8
0
9
$CMLJUST
70
0
9
$CMLSCALE
40
1
9
$CMLSTYLE
2
Standard
9
$DIMSTYLE
2
Standard
9
$TEXTSIZE
40
0.2
9
$TEXTSTYLE
7
Standard
9
$LUNITS
70
2
9
$LUPREC
70
4
9
$EXTNAMES
290
1
9
$INSUNITS
70
4
9
$LTSCALE
40
1
9
$LWDISPLAY
290
0
9
$PDMODE
70
0
9
$PDSIZE
40
0
9
$PLINEGEN
70
0
0
ENDSEC
0
SECTION
2
CLASSES
0
CLASS
1
RASTERVARIABLES
2
AcDbRasterVariables
3
ISM
90
0
280
0
281
0
0
ENDSEC
0
SECTION
2
TABLES
0
TABLE
2
VPORT
5
334
100
AcDbSymbolTable
0
VPORT
5
1
100
AcDbSymbolTableRecord
100
AcDbViewportTableRecord
2
*Active
70
0
10
0
20
0
11
1
21
1
12
-1
22
1
13
0
23
0
14
0.5
24
0.5
15
10
25
10
16
0
26
0
36
1
17
0
27
0
37
0
0
ENDTAB
0
TABLE
2
LTYPE
5
335
100
AcDbSymbolTable
0
LTYPE
5
14
100
AcDbSymbolTableRecord
100
AcDbLinetypeTableRecord
70
0
2
ByBlock
3

72
65
73
0
40
0
0
LTYPE
5
15
100
AcDbSymbolTableRecord
100
AcDbLinetypeTableRecord
70
0
2
ByLayer
3

72
65
73
0
40
0
0
LTYPE
5
16
100
AcDbSymbolTableRecord
100
AcDbLinetypeTableRecord
70
0
2
CONTINUOUS
3
Solid line
72
65
73
0
40
0
0
LTYPE
5
3B
100
AcDbSymbolTableRecord
100
AcDbLinetypeTableRecord
70
0
2
DASHED
3
__ __ __ __ __ __ __ __ __
72
65
73
2
40
25.72
49
12.86
74
0
49
-12.86
74
0
0
LTYPE
5
3C
100
AcDbSymbolTableRecord
100
AcDbLinetypeTableRecord
70
0
2
HIDDEN
3
_ _ _ _ _ _ _ _ _ _ _ _ _ _ _
72
65
73
2
40
0.5
49
0.25
74
0
49
-0.25
74
0
0
LTYPE
5
3D
100
AcDbSymbolTableRecord
100
AcDbLinetypeTableRecord
70
0
2
PHANTOM
3
____ _ _ ____ _ _ _____ _ _ ____
72
65
73
6
40
50.5
49
18
74
0
49
-6.5
74
0
49
6.5
74
0
49
-6.5
74
0
49
6.5
74
0
49
-6.5
74
0
0
LTYPE
5
3E
100
AcDbSymbolTableRecord
100
AcDbLinetypeTableRecord
70
0
2
CENTER
3
____ _ ____ _ ____ _ ____
72
65
73
4
40
47.5
49
22
74
0
49
-8.5
74
0
49
8.5
74
0
49
-8.5
74
0
0
LTYPE
5
3F
100
AcDbSymbolTableRecord
100
AcDbLinetypeTableRecord
70
0
2
DOT
3
.........................
72
65
73
2
40
10
49
0
74
0
49
-10
74
0
0
LTYPE
5
40
100
AcDbSymbolTableRecord
100
AcDbLinetypeTableRecord
70
0
2
DASHDOT
3
_._._._._._._._._._._._._._._._.
72
65
73
4
40
70
49
31
74
0
49
-13
74
0
49
13
74
0
49
-13
74
0
0
ENDTAB
0
TABLE
2
LAYER
5
336
100
AcDbSymbolTable
0
LAYER
5
10
100
AcDbSymbolTableRecord
100
AcDbLayerTableRecord
2
0
70
0
62
7
6
CONTINUOUS
290
1
370
-3
390
0
0
LAYER
5
42
100
AcDbSymbolTableRecord
100
AcDbLayerTableRecord
2
81
70
0
62
-3
6
CONTINUOUS
290
1
370
-3
390
0
0
LAYER
5
44
100
AcDbSymbolTableRecord
100
AcDbLayerTableRecord
2
80
70
0
62
-6
6
CONTINUOUS
290
1
370
-3
390
0
0
LAYER
5
48
100
AcDbSymbolTableRecord
100
AcDbLayerTableRecord
2
1
70
0
62
4
6
CONTINUOUS
290
1
370
-3
390
0
0
LAYER
5
5D
100
AcDbSymbolTableRecord
100
AcDbLayerTableRecord
2
4
70
0
62
-2
6
CENTER
290
1
370
-3
390
0
0
LAYER
5
2D8
100
AcDbSymbolTableRecord
100
AcDbLayerTableRecord
2
2
70
0
62
7
6
CONTINUOUS
290
1
370
-3
390
0
0
LAYER
5
320
100
AcDbSymbolTableRecord
100
AcDbLayerTableRecord
2
SK4
70
0
62
2
6
CENTER
290
1
370
-3
390
0
0
LAYER
5
321
100
AcDbSymbolTableRecord
100
AcDbLayerTableRecord
2
SK1
70
0
62
4
6
CONTINUOUS
290
1
370
-3
390
0
0
LAYER
5
322
100
AcDbSymbolTableRecord
100
AcDbLayerTableRecord
2
SK6
70
0
62
5
6
CONTINUOUS
290
1
370
-3
390
0
0
LAYER
5
323
100
AcDbSymbolTableRecord
100
AcDbLayerTableRecord
2
SK2
70
0
62
7
6
CONTINUOUS
290
1
370
-3
390
0
0
ENDTAB
0
TABLE
2
STYLE
5
337
100
AcDbSymbolTable
0
STYLE
5
11
100
AcDbSymbolTableRecord
100
AcDbTextStyleTableRecord
2
Standard
3
txt
70
0
71
0
40
0
41
1
42
0
50
0
0
STYLE
5
29C
100
AcDbSymbolTableRecord
100
AcDbTextStyleTableRecord
2
DEFAULT
3
simplex.shx
70
0
71
0
40
0
41
1
42
0
50
0
0
STYLE
5
2BF
100
AcDbSymbolTableRecord
100
AcDbTextStyleTableRecord
2
DWGDirectTextStyle
3
SIMPLEX
70
0
71
0
40
0
41
1
42
0
50
0
0
ENDTAB
0
TABLE
2
DIMSTYLE
5
338
100
AcDbSymbolTable
100
AcDbDimStyleTable
0
DIMSTYLE
105
27
100
AcDbSymbolTableRecord
100
AcDbDimStyleTableRecord
2
Standard
70
0
3
<>
41
0.18
42
0.0625
44
0.18
140
0.18
147
0.09
73
0
74
0
77
1
271
2
275
0
278
52
280
0
340
11
0
ENDTAB
0
TABLE
2
VIEW
5
339
100
AcDbSymbolTable
0
ENDTAB
0
TABLE
2
UCS
5
33a
100
AcDbSymbolTable
0
ENDTAB
0
TABLE
2
APPID
5
33b
100
AcDbSymbolTable
0
APPID
5
12
100
AcDbSymbolTableRecord
100
AcDbRegAppTableRecord
2
ACAD
70
0
0
ENDTAB
0
TABLE
2
BLOCK_RECORD
5
33c
100
AcDbSymbolTable
0
BLOCK_RECORD
5
1F
100
AcDbSymbolTableRecord
100
AcDbBlockTableRecord
2
*Model_Space
340
0
70
0
0
BLOCK_RECORD
5
1B
100
AcDbSymbolTableRecord
100
AcDbBlockTableRecord
2
*Paper_Space
340
0
70
0
0
BLOCK_RECORD
5
23
100
AcDbSymbolTableRecord
100
AcDbBlockTableRecord
2
*Paper_Space0
340
0
70
0
0
BLOCK_RECORD
5
2C1
100
AcDbSymbolTableRecord
100
AcDbBlockTableRecord
2
DimnDraft3D1
340
0
70
0
0
BLOCK_RECORD
5
2CC
100
AcDbSymbolTableRecord
100
AcDbBlockTableRecord
2
DimnDraft3D2
340
0
70
0
0
BLOCK_RECORD
5
2D6
100
AcDbSymbolTableRecord
100
AcDbBlockTableRecord
2
DimnDraft3D3
340
0
70
0
0
BLOCK_RECORD
5
2E1
100
AcDbSymbolTableRecord
100
AcDbBlockTableRecord
2
DimnDraft3D4
340
0
70
0
0
BLOCK_RECORD
5
2EB
100
AcDbSymbolTableRecord
100
AcDbBlockTableRecord
2
DimnDraft3D5
340
0
70
0
0
BLOCK_RECORD
5
2F6
100
AcDbSymbolTableRecord
100
AcDbBlockTableRecord
2
DimnDraft3D6
340
0
70
0
0
ENDTAB
0
ENDSEC
0
SECTION
2
BLOCKS
0
BLOCK
5
20
100
AcDbEntity
8
0
100
AcDbBlockBegin
2
*Model_Space
70
0
10
0
20
0
30
0
3
*Model_Space
0
ENDBLK
5
21
100
AcDbEntity
8
0
100
AcDbBlockEnd
0
BLOCK
5
1C
100
AcDbEntity
8
0
100
AcDbBlockBegin
2
*Paper_Space
70
0
10
0
20
0
30
0
3
*Paper_Space
0
ENDBLK
5
1D
100
AcDbEntity
8
0
100
AcDbBlockEnd
0
BLOCK
5
24
100
AcDbEntity
8
0
100
AcDbBlockBegin
2
*Paper_Space0
70
0
10
0
20
0
30
0
3
*Paper_Space0
0
ENDBLK
5
25
100
AcDbEntity
8
0
100
AcDbBlockEnd
0
BLOCK
5
2C9
100
AcDbEntity
8
0
100
AcDbBlockBegin
2
DimnDraft3D1
70
0
10
0
20
0
30
0
3
DimnDraft3D1
0
MTEXT
5
2C2
100
AcDbEntity
8
SK2
62
256
6
ByLayer
370
-1
48
1
60
0
100
AcDbMText
10
49.669737
20
-60.725
30
0
210
0
220
0
230
1
1
\W01.000;\fsimplex.shx,bigfont.shx;(174) 
40
4.5
41
0
44
1.084337
50
0
71
7
72
5
7
DEFAULT
0
LINE
5
2C4
100
AcDbEntity
8
SK2
62
256
6
ByLayer
370
-1
48
1
60
0
100
AcDbLine
10
-30
20
-4.0875
30
0
11
-30
21
-66.99375
31
0
39
0
210
0
220
0
230
1
0
LINE
5
2C5
100
AcDbEntity
8
SK2
62
256
6
ByLayer
370
-1
48
1
60
0
100
AcDbLine
10
144
20
-17.5875
30
0
11
144
21
-66.99375
31
0
39
0
210
0
220
0
230
1
0
LINE
5
2C6
100
AcDbEntity
8
SK2
62
256
6
ByLayer
370
-1
48
1
60
0
100
AcDbLine
10
-30
20
-63.81875
30
0
11
144
21
-63.81875
31
0
39
0
210
0
220
0
230
1
0
SOLID
5
2C7
100
AcDbEntity
8
SK2
62
256
6
ByLayer
370
-1
48
1
60
0
100
AcDbTrace
10
-30
20
-63.81875
30
0
11
-25.825003
21
-62.893175
31
0
12
-25.824997
22
-64.744325
32
0
13
-30
23
-63.81875
33
0
39
0
210
0
220
0
230
1
0
SOLID
5
2C8
100
AcDbEntity
8
SK2
62
256
6
ByLayer
370
-1
48
1
60
0
100
AcDbTrace
10
144
20
-63.81875
30
0
11
139.825003
21
-64.744325
31
0
12
139.824997
22
-62.893175
32
0
13
144
23
-63.81875
33
0
39
0
210
0
220
0
230
1
0
ENDBLK
5
2CA
100
AcDbEntity
8
0
100
AcDbBlockEnd
0
BLOCK
5
2D3
100
AcDbEntity
8
0
100
AcDbBlockBegin
2
DimnDraft3D2
70
0
10
0
20
0
30
0
3
DimnDraft3D2
0
MTEXT
5
2CD
100
AcDbEntity
8
SK2
62
256
6
ByLayer
370
-1
48
1
60
0
100
AcDbMText
10
-16.503947
20
-50.725
30
0
210
0
220
0
230
1
1
\W01.000;\fsimplex.shx,bigfont.shx;30 
40
4.5
41
0
44
1.084337
50
0
71
7
72
5
7
DEFAULT
0
LINE
5
2CE
100
AcDbEntity
8
SK2
62
256
6
ByLayer
370
-1
48
1
60
0
100
AcDbLine
10
-30
20
-4.0875
30
0
11
-30
21
-55.025
31
0
39
0
210
0
220
0
230
1
0
LINE
5
2CF
100
AcDbEntity
8
SK2
62
256
6
ByLayer
370
-1
48
1
60
0
100
AcDbLine
10
0
20
-26.5875
30
0
11
0
21
-55.025
31
0
39
0
210
0
220
0
230
1
0
LINE
5
2D0
100
AcDbEntity
8
SK2
62
256
6
ByLayer
370
-1
48
1
60
0
100
AcDbLine
10
-30
20
-51.85
30
0
11
0
21
-51.85
31
0
39
0
210
0
220
0
230
1
0
SOLID
5
2D1
100
AcDbEntity
8
SK2
62
256
6
ByLayer
370
-1
48
1
60
0
100
AcDbTrace
10
-30
20
-51.85
30
0
11
-25.825003
21
-50.924425
31
0
12
-25.824997
22
-52.775575
32
0
13
-30
23
-51.85
33
0
39
0
210
0
220
0
230
1
0
SOLID
5
2D2
100
AcDbEntity
8
SK2
62
256
6
ByLayer
370
-1
48
1
60
0
100
AcDbTrace
10
0
20
-51.85
30
0
11
-4.174997
21
-52.775575
31
0
12
-4.175003
22
-50.924425
32
0
13
0
23
-51.85
33
0
39
0
210
0
220
0
230
1
0
ENDBLK
5
2D4
100
AcDbEntity
8
0
100
AcDbBlockEnd
0
BLOCK
5
2DE
100
AcDbEntity
8
0
100
AcDbBlockBegin
2
DimnDraft3D3
70
0
10
0
20
0
30
0
3
DimnDraft3D3
0
MTEXT
5
2D7
100
AcDbEntity
8
2
62
256
6
ByLayer
370
-1
48
1
60
0
100
AcDbMText
10
68.932895
20
-50.725
30
0
210
0
220
0
230
1
1
\W01.000;\fsimplex.shx,bigfont.shx;144 
40
4.5
41
0
44
1.084337
50
0
71
7
72
5
7
DEFAULT
0
LINE
5
2D9
100
AcDbEntity
8
2
62
256
6
ByLayer
370
-1
48
1
60
0
100
AcDbLine
10
0
20
-26.5875
30
0
11
0
21
-55.025
31
0
39
0
210
0
220
0
230
1
0
LINE
5
2DA
100
AcDbEntity
8
2
62
256
6
ByLayer
370
-1
48
1
60
0
100
AcDbLine
10
144
20
-17.5875
30
0
11
144
21
-55.025
31
0
39
0
210
0
220
0
230
1
0
LINE
5
2DB
100
AcDbEntity
8
2
62
256
6
ByLayer
370
-1
48
1
60
0
100
AcDbLine
10
0
20
-51.85
30
0
11
144
21
-51.85
31
0
39
0
210
0
220
0
230
1
0
SOLID
5
2DC
100
AcDbEntity
8
2
62
256
6
ByLayer
370
-1
48
1
60
0
100
AcDbTrace
10
0
20
-51.85
30
0
11
4.174997
21
-50.924425
31
0
12
4.175003
22
-52.775575
32
0
13
0
23
-51.85
33
0
39
0
210
0
220
0
230
1
0
SOLID
5
2DD
100
AcDbEntity
8
2
62
256
6
ByLayer
370
-1
48
1
60
0
100
AcDbTrace
10
144
20
-51.85
30
0
11
139.825003
21
-52.775575
31
0
12
139.824997
22
-50.924425
32
0
13
144
23
-51.85
33
0
39
0
210
0
220
0
230
1
0
ENDBLK
5
2DF
100
AcDbEntity
8
0
100
AcDbBlockEnd
0
BLOCK
5
2E8
100
AcDbEntity
8
0
100
AcDbBlockBegin
2
DimnDraft3D4
70
0
10
0
20
0
30
0
3
DimnDraft3D4
0
MTEXT
5
2E2
100
AcDbEntity
8
SK2
62
256
6
ByLayer
370
-1
48
1
60
0
100
AcDbMText
10
91.406579
20
-40.725
30
0
210
0
220
0
230
1
1
\W01.000;\fsimplex.shx,bigfont.shx;100 
40
4.5
41
0
44
1.084337
50
0
71
7
72
5
7
DEFAULT
0
LINE
5
2E3
100
AcDbEntity
8
SK2
62
256
6
ByLayer
370
-1
48
1
60
0
100
AcDbLine
10
44
20
-11.5875
30
0
11
44
21
-45.025
31
0
39
0
210
0
220
0
230
1
0
LINE
5
2E4
100
AcDbEntity
8
SK2
62
256
6
ByLayer
370
-1
48
1
60
0
100
AcDbLine
10
144
20
-17.5875
30
0
11
144
21
-45.025
31
0
39
0
210
0
220
0
230
1
0
LINE
5
2E5
100
AcDbEntity
8
SK2
62
256
6
ByLayer
370
-1
48
1
60
0
100
AcDbLine
10
44
20
-41.85
30
0
11
144
21
-41.85
31
0
39
0
210
0
220
0
230
1
0
SOLID
5
2E6
100
AcDbEntity
8
SK2
62
256
6
ByLayer
370
-1
48
1
60
0
100
AcDbTrace
10
44
20
-41.85
30
0
11
48.174997
21
-40.924425
31
0
12
48.175003
22
-42.775575
32
0
13
44
23
-41.85
33
0
39
0
210
0
220
0
230
1
0
SOLID
5
2E7
100
AcDbEntity
8
SK2
62
256
6
ByLayer
370
-1
48
1
60
0
100
AcDbTrace
10
144
20
-41.85
30
0
11
139.825003
21
-42.775575
31
0
12
139.824997
22
-40.924425
32
0
13
144
23
-41.85
33
0
39
0
210
0
220
0
230
1
0
ENDBLK
5
2E9
100
AcDbEntity
8
0
100
AcDbBlockEnd
0
BLOCK
5
2F3
100
AcDbEntity
8
0
100
AcDbBlockBegin
2
DimnDraft3D5
70
0
10
0
20
0
30
0
3
DimnDraft3D5
0
MTEXT
5
2EC
100
AcDbEntity
8
SK2
62
256
6
ByLayer
370
-1
48
1
60
0
100
AcDbMText
10
-51.159264
20
5.246053
30
0
210
0
220
0
230
1
1
\W01.000;\fsimplex.shx,bigfont.shx;50 
40
4.5
41
0
44
1.084337
50
90
71
7
72
5
7
DEFAULT
0
MTEXT
5
2ED
100
AcDbEntity
8
SK2
62
256
6
ByLayer
370
-1
48
1
60
0
100
AcDbMText
10
-51.159264
20
-8.253947
30
0
210
0
220
0
230
1
1
\W01.000;\fsimplex.shx,bigfont.shx;%%c 
40
4.5
41
0
44
1.084337
50
90
71
7
72
5
7
DEFAULT
0
LINE
5
2EE
100
AcDbEntity
8
SK2
62
256
6
ByLayer
370
-1
48
1
60
0
100
AcDbLine
10
-1.5875
20
-25
30
0
11
-52.084264
21
-25
31
0
39
0
210
0
220
0
230
1
0
LINE
5
2EF
100
AcDbEntity
8
SK2
62
256
6
ByLayer
370
-1
48
1
60
0
100
AcDbLine
10
-1.5875
20
25
30
0
11
-52.084264
21
25
31
0
39
0
210
0
220
0
230
1
0
LINE
5
2F0
100
AcDbEntity
8
SK2
62
256
6
ByLayer
370
-1
48
1
60
0
100
AcDbLine
10
-48.909264
20
-25
30
0
11
-48.909264
21
25
31
0
39
0
210
0
220
0
230
1
0
SOLID
5
2F1
100
AcDbEntity
8
SK2
62
256
6
ByLayer
370
-1
48
1
60
0
100
AcDbTrace
10
-48.909264
20
-25
30
0
11
-49.834839
21
-20.825003
31
0
12
-47.983689
22
-20.824997
32
0
13
-48.909264
23
-25
33
0
39
0
210
0
220
0
230
1
0
SOLID
5
2F2
100
AcDbEntity
8
SK2
62
256
6
ByLayer
370
-1
48
1
60
0
100
AcDbTrace
10
-48.909264
20
25
30
0
11
-47.983689
21
20.825003
31
0
12
-49.834839
22
20.824997
32
0
13
-48.909264
23
25
33
0
39
0
210
0
220
0
230
1
0
ENDBLK
5
2F4
100
AcDbEntity
8
0
100
AcDbBlockEnd
0
BLOCK
5
2FE
100
AcDbEntity
8
0
100
AcDbBlockBegin
2
DimnDraft3D6
70
0
10
0
20
0
30
0
3
DimnDraft3D6
0
MTEXT
5
2F7
100
AcDbEntity
8
2
62
256
6
ByLayer
370
-1
48
1
60
0
100
AcDbMText
10
168.725
20
5.246053
30
0
210
0
220
0
230
1
1
\W01.000;\fsimplex.shx,bigfont.shx;32 
40
4.5
41
0
44
1.084337
50
90
71
7
72
5
7
DEFAULT
0
MTEXT
5
2F8
100
AcDbEntity
8
2
62
256
6
ByLayer
370
-1
48
1
60
0
100
AcDbMText
10
168.725
20
-8.253947
30
0
210
0
220
0
230
1
1
\W01.000;\fsimplex.shx,bigfont.shx;%%c 
40
4.5
41
0
44
1.084337
50
90
71
7
72
5
7
DEFAULT
0
LINE
5
2F9
100
AcDbEntity
8
2
62
256
6
ByLayer
370
-1
48
1
60
0
100
AcDbLine
10
145.5875
20
16
30
0
11
174.15
21
16
31
0
39
0
210
0
220
0
230
1
0
LINE
5
2FA
100
AcDbEntity
8
2
62
256
6
ByLayer
370
-1
48
1
60
0
100
AcDbLine
10
145.5875
20
-16
30
0
11
174.15
21
-16
31
0
39
0
210
0
220
0
230
1
0
LINE
5
2FB
100
AcDbEntity
8
2
62
256
6
ByLayer
370
-1
48
1
60
0
100
AcDbLine
10
170.975
20
16
30
0
11
170.975
21
-16
31
0
39
0
210
0
220
0
230
1
0
SOLID
5
2FC
100
AcDbEntity
8
2
62
256
6
ByLayer
370
-1
48
1
60
0
100
AcDbTrace
10
170.975
20
16
30
0
11
171.900575
21
11.825003
31
0
12
170.049425
22
11.824997
32
0
13
170.975
23
16
33
0
39
0
210
0
220
0
230
1
0
SOLID
5
2FD
100
AcDbEntity
8
2
62
256
6
ByLayer
370
-1
48
1
60
0
100
AcDbTrace
10
170.975
20
-16
30
0
11
170.049425
21
-11.825003
31
0
12
171.900575
22
-11.824997
32
0
13
170.975
23
-16
33
0
39
0
210
0
220
0
230
1
0
ENDBLK
5
2FF
100
AcDbEntity
8
0
100
AcDbBlockEnd
0
ENDSEC
0
SECTION
2
ENTITIES
0
ARC
5
100
100
AcDbEntity
8
1
62
256
6
ByLayer
370
-1
48
1
60
0
100
AcDbCircle
39
0
10
-26.015785
20
24.05
30
0
40
0.8
210
0
220
0
230
-1
100
AcDbArc
50
270
51
345
0
ARC
5
101
100
AcDbEntity
8
1
62
256
6
ByLayer
370
-1
48
1
60
0
100
AcDbCircle
39
0
10
-26.015785
20
-24.05
30
0
40
0.8
210
0
220
0
230
-1
100
AcDbArc
50
15
51
90
0
ARC
5
102
100
AcDbEntity
8
SK1
62
256
6
ByLayer
370
-1
48
1
60
0
100
AcDbCircle
39
0
10
0.6
20
18.75
30
0
40
1
210
0
220
0
230
-1
100
AcDbArc
50
233.130102
51
246.421822
0
ARC
5
103
100
AcDbEntity
8
SK1
62
256
6
ByLayer
370
-1
48
1
60
0
100
AcDbCircle
39
0
10
0.6
20
-18.75
30
0
40
1
210
0
220
0
230
-1
100
AcDbArc
50
113.578178
51
126.869898
0
ELLIPSE
5
104
100
AcDbEntity
8
1
62
256
6
ByLayer
370
-1
48
1
60
0
100
AcDbEllipse
10
21.056258
20
0
30
0
11
-11.7092723497263
21
-24.6771864409363
31
0
210
0
220
0
230
-1
40
0.341999
41
0.167213071908987
42
1.08183270048931
0
ELLIPSE
5
105
100
AcDbEntity
8
1
62
256
6
ByLayer
370
-1
48
1
60
0
100
AcDbEllipse
10
136.169426
20
5.50659
30
0
11
-5.91829205387551
21
0.311322127455817
31
0
210
0
220
0
230
-1
40
0.000498
41
-3.13353509124479
42
-3.13213434269542
0
ELLIPSE
5
106
100
AcDbEntity
8
1
62
256
6
ByLayer
370
-1
48
1
60
0
100
AcDbEllipse
10
127.67525
20
6.637792
30
0
11
-0.313595748497264
21
-0.735973984950855
31
0
210
0
220
0
230
1
40
0.080227
41
0.034171237731822
42
1.6049675645265
0
ELLIPSE
5
107
100
AcDbEntity
8
1
62
256
6
ByLayer
370
-1
48
1
60
0
100
AcDbEllipse
10
143.743766
20
0
30
0
11
-1.26639507021849
21
-15.3991682747278
31
0
210
0
220
0
230
-1
40
0.126383
41
0.0292631774284304
42
0.692706054462909
0
ELLIPSE
5
108
100
AcDbEntity
8
1
62
256
6
ByLayer
370
-1
48
1
60
0
100
AcDbEllipse
10
138.564962
20
10.283938
30
0
11
2.34290668463255E-15
21
2
31
0
210
0
220
0
230
1
40
0.996195
41
0.0503637830432939
42
1.49510350031179
0
ELLIPSE
5
109
100
AcDbEntity
8
1
62
256
6
ByLayer
370
-1
48
1
60
0
100
AcDbEllipse
10
138.564962
20
10.283938
30
0
11
2.34290668463255E-15
21
2
31
0
210
0
220
0
230
1
40
0.996195
41
1.57079654872778
42
-1.57079625281727
0
ELLIPSE
5
10A
100
AcDbEntity
8
1
62
256
6
ByLayer
370
-1
48
1
60
0
100
AcDbEllipse
10
131.267235
20
0
30
0
11
-51.2106881728194
21
-5.80268149171008E-14
31
0
210
0
220
0
230
-1
40
0.300718
41
1.37571602728523
42
1.55319772015017
0
ELLIPSE
5
10B
100
AcDbEntity
8
1
62
256
6
ByLayer
370
-1
48
1
60
0
100
AcDbEllipse
10
134.670734
20
9.379178
30
0
11
-2.25092568282431E-15
21
-2.1
31
0
210
0
220
0
230
1
40
0.996195
41
-2.19211858706794
42
-1.53588974175501
0
ELLIPSE
5
10C
100
AcDbEntity
8
1
62
256
6
ByLayer
370
-1
48
1
60
0
100
AcDbEllipse
10
142.635989
20
6E-06
30
0
11
-0.947562719566734
21
15.3995541521705
31
0
210
0
220
0
230
-1
40
0.119034
41
-1.49016153349904
42
-1.45458273159199
0
ELLIPSE
5
10D
100
AcDbEntity
8
1
62
256
6
ByLayer
370
-1
48
1
60
0
100
AcDbEllipse
10
133.472078
20
6.585484
30
0
11
-0.799516360141551
21
-0.02781348352879
31
0
210
0
220
0
230
1
40
0.003042
41
0.087213571465873
42
1.10059836684024
0
ELLIPSE
5
10E
100
AcDbEntity
8
1
62
256
6
ByLayer
370
-1
48
1
60
0
100
AcDbEllipse
10
138.258024
20
-3.037221
30
0
11
-1.425
21
1.44016065349237E-15
31
0
210
0
220
0
230
1
40
0.998135
41
0
42
6.28318530717959
0
ELLIPSE
5
10F
100
AcDbEntity
8
1
62
256
6
ByLayer
370
-1
48
1
60
0
100
AcDbEllipse
10
141.581396
20
0
30
0
11
-36.7738241708189
21
14.9148387268549
31
0
210
0
220
0
230
-1
40
0.104287
41
-1.17901205307281
42
-0.593853207500743
0
ELLIPSE
5
110
100
AcDbEntity
8
1
62
256
6
ByLayer
370
-1
48
1
60
0
100
AcDbEllipse
10
133.463641
20
2.2E-05
30
0
11
-176.022678826166
21
-1.99451242892678E-13
31
0
210
0
220
0
230
-1
40
0.087489
41
1.55319770748986
42
1.56595119601942
0
ELLIPSE
5
111
100
AcDbEntity
8
1
62
256
6
ByLayer
370
-1
48
1
60
0
100
AcDbEllipse
10
33.7
20
6.85381
30
0
11
-8.00000000000001
21
8.08511244065891E-15
31
0
210
0
220
0
230
1
40
0.763591
41
-1.82462635594488
42
-0.222693301868844
0
ELLIPSE
5
112
100
AcDbEntity
8
1
62
256
6
ByLayer
370
-1
48
1
60
0
100
AcDbEllipse
10
141.810131
20
-9.369261
30
0
11
-0.201522274362664
21
-2.49291121091549
31
0
210
0
220
0
230
-1
40
0.125777
41
-2.45744519606991
42
0.294128997987004
0
ELLIPSE
5
113
100
AcDbEntity
8
1
62
256
6
ByLayer
370
-1
48
1
60
0
100
AcDbEllipse
10
108.984922
20
13.884072
30
0
11
-20.4031826561462
21
11.4347089953772
31
0
210
0
220
0
230
-1
40
0.09644
41
-2.63822418881196
42
-1.77022972875516
0
ELLIPSE
5
114
100
AcDbEntity
8
1
62
256
6
ByLayer
370
-1
48
1
60
0
100
AcDbEllipse
10
-1.056258
20
0
30
0
11
-11.7092723497272
21
-24.6771864409374
31
0
210
0
220
0
230
-1
40
0.341999
41
-2.97437958168081
42
-2.05975995310052
0
ELLIPSE
5
115
100
AcDbEntity
8
1
62
256
6
ByLayer
370
-1
48
1
60
0
100
AcDbEllipse
10
-1.056258
20
0
30
0
11
-11.7092723497278
21
24.6771864409381
31
0
210
0
220
0
230
-1
40
0.341999
41
2.05975995310054
42
2.97437958168082
0
ELLIPSE
5
116
100
AcDbEntity
8
1
62
256
6
ByLayer
370
-1
48
1
60
0
100
AcDbEllipse
10
142.276351
20
0.526219
30
0
11
-0.0497380461819767
21
0.802166363693104
31
0
210
0
220
0
230
-1
40
0.118672
41
-1.4982279743907
42
0.0725683524023186
0
ELLIPSE
5
117
100
AcDbEntity
8
1
62
256
6
ByLayer
370
-1
48
1
60
0
100
AcDbEllipse
10
133.550989
20
11.519163
30
0
11
-0.773306863685207
21
-0.824449212877887
31
0
210
0
220
0
230
-1
40
0.04503
41
-0.656797892522186
42
-0.592589713280768
0
ELLIPSE
5
118
100
AcDbEntity
8
1
62
256
6
ByLayer
370
-1
48
1
60
0
100
AcDbEllipse
10
134.400551
20
9.379178
30
0
11
2.46005201886418E-15
21
2.1
31
0
210
0
220
0
230
1
40
0.996195
41
0.900501422405726
42
1.60570291183478
0
ELLIPSE
5
119
100
AcDbEntity
8
1
62
256
6
ByLayer
370
-1
48
1
60
0
100
AcDbEllipse
10
130.240737
20
10.201337
30
0
11
-1.34287304987531
21
-7.78502999171606
31
0
210
0
220
0
230
1
40
0.284129
41
0.0489713822390245
42
0.825136719025934
0
ELLIPSE
5
11A
100
AcDbEntity
8
1
62
256
6
ByLayer
370
-1
48
1
60
0
100
AcDbEllipse
10
132.229408
20
17.407698
30
0
11
-1.33983671596685E-14
21
-12.5
31
0
210
0
220
0
230
1
40
0.996195
41
-0.401425727958697
42
-6.83229202279093E-06
0
ELLIPSE
5
11B
100
AcDbEntity
8
1
62
256
6
ByLayer
370
-1
48
1
60
0
100
AcDbEllipse
10
133.37647
20
9.333809
30
0
11
-0.799516360141551
21
-0.02781348352879
31
0
210
0
220
0
230
1
40
0.003042
41
0.0872135714666033
42
1.1005983668406
0
ELLIPSE
5
11C
100
AcDbEntity
8
1
62
256
6
ByLayer
370
-1
48
1
60
0
100
AcDbEllipse
10
141.810131
20
-9.369261
30
0
11
-0.201522274362739
21
-2.49291121090977
31
0
210
0
220
0
230
-1
40
0.125777
41
1.24625733094706
42
2.54594821145569
0
ELLIPSE
5
11D
100
AcDbEntity
8
1
62
256
6
ByLayer
370
-1
48
1
60
0
100
AcDbEllipse
10
108.059162
20
14.02753
30
0
11
-30.6224406464435
21
13.2941086389995
31
0
210
0
220
0
230
-1
40
0.008385
41
2.20455575596167
42
2.24761562126352
0
ELLIPSE
5
11E
100
AcDbEntity
8
1
62
256
6
ByLayer
370
-1
48
1
60
0
100
AcDbEllipse
10
134.766342
20
6.630853
30
0
11
-2.25092568282431E-15
21
-2.1
31
0
210
0
220
0
230
1
40
0.996195
41
-1.53588974175501
42
-0.126517127577411
0
ELLIPSE
5
11F
100
AcDbEntity
8
1
62
256
6
ByLayer
370
-1
48
1
60
0
100
AcDbEllipse
10
138.258024
20
-3.037221
30
0
11
1.85
21
0
31
0
210
0
220
0
230
1
40
0.998135
41
0.0635193421429119
42
3.06030431326929
0
ELLIPSE
5
120
100
AcDbEntity
8
1
62
256
6
ByLayer
370
-1
48
1
60
0
100
AcDbEllipse
10
138.564962
20
10.283938
30
0
11
2.05004334905348E-15
21
1.75
31
0
210
0
220
0
230
1
40
0.996195
41
-2.292184809512
42
0
0
ELLIPSE
5
121
100
AcDbEntity
8
1
62
256
6
ByLayer
370
-1
48
1
60
0
100
AcDbEllipse
10
138.564962
20
10.283938
30
0
11
2.05004334905348E-15
21
1.75
31
0
210
0
220
0
230
1
40
0.996195
41
0
42
1.57079639567442
0
ELLIPSE
5
122
100
AcDbEntity
8
1
62
256
6
ByLayer
370
-1
48
1
60
0
100
AcDbEllipse
10
138.564962
20
10.283938
30
0
11
2.05004334905348E-15
21
1.75
31
0
210
0
220
0
230
1
40
0.996195
41
1.57079612015634
42
2.65012947763562
0
ELLIPSE
5
123
100
AcDbEntity
8
1
62
256
6
ByLayer
370
-1
48
1
60
0
100
AcDbEllipse
10
142.635755
20
0
30
0
11
-0.934445668785451
21
15.3995979047803
31
0
210
0
220
0
230
-1
40
0.119092
41
-2.04465683466533
42
-1.49025917358854
0
ELLIPSE
5
124
100
AcDbEntity
8
1
62
256
6
ByLayer
370
-1
48
1
60
0
100
AcDbEllipse
10
134.496159
20
6.630853
30
0
11
2.46005201886418E-15
21
2.1
31
0
210
0
220
0
230
1
40
0.996195
41
1.60570291183478
42
2.02366955143475
0
ELLIPSE
5
125
100
AcDbEntity
8
1
62
256
6
ByLayer
370
-1
48
1
60
0
100
AcDbEllipse
10
132.636179
20
5.714826
30
0
11
0.0280261150489101
21
-0.799508934831416
31
0
210
0
220
0
230
1
40
0.087103
41
0.0631133954162678
42
1.33958737577324
0
ELLIPSE
5
126
100
AcDbEntity
8
1
62
256
6
ByLayer
370
-1
48
1
60
0
100
AcDbEllipse
10
21.056258
20
0
30
0
11
-11.7092723497256
21
24.6771864409355
31
0
210
0
220
0
230
-1
40
0.341999
41
-1.08183270048934
42
-0.16721307190899
0
ELLIPSE
5
127
100
AcDbEntity
8
1
62
256
6
ByLayer
370
-1
48
1
60
0
100
AcDbEllipse
10
142.09011
20
-9.400121
30
0
11
-0.152023190245623
21
2.53139269088206
31
0
210
0
220
0
230
-1
40
0.116799
41
-0.579289500934794
42
0.700502398719214
0
ELLIPSE
5
128
100
AcDbEntity
8
1
62
256
6
ByLayer
370
-1
48
1
60
0
100
AcDbEllipse
10
42.419607
20
0
30
0
11
-273.883400789086
21
-14.8927333654977
31
0
210
0
220
0
230
-1
40
0.014313
41
-1.93706423381573
42
-1.90180390901352
0
ELLIPSE
5
129
100
AcDbEntity
8
1
62
256
6
ByLayer
370
-1
48
1
60
0
100
AcDbEllipse
10
128.522862
20
4.919315
30
0
11
-13.1386744172292
21
-0.413323575108907
31
0
210
0
220
0
230
-1
40
0.01063
41
-1.89664371619061
42
-1.88747084062433
0
ELLIPSE
5
12A
100
AcDbEntity
8
1
62
256
6
ByLayer
370
-1
48
1
60
0
100
AcDbEllipse
10
138.042815
20
10.3
30
0
11
-11.3294496454111
21
-6.9092439623969
31
0
210
0
220
0
230
-1
40
0.355945
41
-0.932975791725963
42
-0.81547273587534
0
ELLIPSE
5
12B
100
AcDbEntity
8
1
62
256
6
ByLayer
370
-1
48
1
60
0
100
AcDbEllipse
10
130.256344
20
10.3
30
0
11
-8.57495498218787E-15
21
-8.00000000000001
31
0
210
0
220
0
230
1
40
0.957637
41
-0.16370850455169
42
-0.0214218465397087
0
ELLIPSE
5
12C
100
AcDbEntity
8
1
62
256
6
ByLayer
370
-1
48
1
60
0
100
AcDbEllipse
10
142.6913
20
-7.885232
30
0
11
-0.07750546572408
21
-0.878086631931193
31
0
210
0
220
0
230
-1
40
0.115224
41
0.00370845515681272
42
1.57450478195024
0
ELLIPSE
5
12D
100
AcDbEntity
8
1
62
256
6
ByLayer
370
-1
48
1
60
0
100
AcDbEllipse
10
91.677857
20
16.853213
30
0
11
-38.6656822226982
21
6.5504792373503
31
0
210
0
220
0
230
-1
40
0.201424
41
3.1074820216412
42
-2.67878662538799
0
ELLIPSE
5
12E
100
AcDbEntity
8
1
62
256
6
ByLayer
370
-1
48
1
60
0
100
AcDbEllipse
10
133.099073
20
2E-06
30
0
11
-0.498626416526369
21
15.3999368276053
31
0
210
0
220
0
230
-1
40
0.087398
41
0.0076749253324442
42
0.021845642308258
0
ELLIPSE
5
12F
100
AcDbEntity
8
1
62
256
6
ByLayer
370
-1
48
1
60
0
100
AcDbEllipse
10
142.20764
20
5.990034
30
0
11
-0.0490805299562228
21
0.803616105719305
31
0
210
0
220
0
230
-1
40
0.117724
41
2.45009078106336
42
-3.13274596367612
0
ELLIPSE
5
130
100
AcDbEntity
8
1
62
256
6
ByLayer
370
-1
48
1
60
0
100
AcDbEllipse
10
132.299133
20
17.407698
30
0
11
1.37060041051004E-14
21
11.7
31
0
210
0
220
0
230
1
40
0.996195
41
2.7401669256311
42
-3.11448573132149
0
ELLIPSE
5
131
100
AcDbEntity
8
1
62
256
6
ByLayer
370
-1
48
1
60
0
100
AcDbEllipse
10
138.364504
20
10.283938
30
0
11
-2.14373874554696E-15
21
-2
31
0
210
0
220
0
230
1
40
0.996195
41
1.57079654872778
42
-2.28776637790648
0
ELLIPSE
5
132
100
AcDbEntity
8
1
62
256
6
ByLayer
370
-1
48
1
60
0
100
AcDbEllipse
10
138.364504
20
10.283938
30
0
11
-2.14373874554696E-15
21
-2
31
0
210
0
220
0
230
1
40
0.996195
41
1.33988912650863
42
1.57079604872776
0
ELLIPSE
5
133
100
AcDbEntity
8
1
62
256
6
ByLayer
370
-1
48
1
60
0
100
AcDbEllipse
10
143.743766
20
0
30
0
11
-1.26639507259538
21
-15.3991682883045
31
0
210
0
220
0
230
-1
40
0.126383
41
0.841643435891069
42
1.07931631882819
0
ELLIPSE
5
134
100
AcDbEntity
8
1
62
256
6
ByLayer
370
-1
48
1
60
0
100
AcDbEllipse
10
134.918738
20
6.630853
30
0
11
-1.8323611620816
21
-1.6316690051184
31
0
210
0
220
0
230
-1
40
0.721468
41
-1.34329611406136
42
-0.0510154422235041
0
ELLIPSE
5
135
100
AcDbEntity
8
1
62
256
6
ByLayer
370
-1
48
1
60
0
100
AcDbEllipse
10
131.137038
20
0
30
0
11
-65.2970311245024
21
0.995282968787066
31
0
210
0
220
0
230
-1
40
0.235352
41
-1.56861143738062
42
-1.31744393490243
0
ELLIPSE
5
136
100
AcDbEntity
8
1
62
256
6
ByLayer
370
-1
48
1
60
0
100
AcDbEllipse
10
138.84386
20
10.283938
30
0
11
2.05004334905348E-15
21
1.75
31
0
210
0
220
0
230
1
40
0.996195
41
0.080110774766543
42
1.57079669158491
0
ELLIPSE
5
137
100
AcDbEntity
8
1
62
256
6
ByLayer
370
-1
48
1
60
0
100
AcDbEllipse
10
138.84386
20
10.283938
30
0
11
2.05004334905348E-15
21
1.75
31
0
210
0
220
0
230
1
40
0.996195
41
1.57079612015634
42
2.96193274908737
0
ELLIPSE
5
138
100
AcDbEntity
8
1
62
256
6
ByLayer
370
-1
48
1
60
0
100
AcDbEllipse
10
138.258024
20
-3.070009
30
0
11
1.425
21
0
31
0
210
0
220
0
230
1
40
0.998135
41
0
42
3.14159232533693
0
ELLIPSE
5
139
100
AcDbEntity
8
1
62
256
6
ByLayer
370
-1
48
1
60
0
100
AcDbEllipse
10
141.686343
20
7.355593
30
0
11
3.51436002694883E-16
21
0.3
31
0
210
0
220
0
230
1
40
0.996195
41
-3.10668606854989
42
-1.53588974175502
0
ELLIPSE
5
13A
100
AcDbEntity
8
1
62
256
6
ByLayer
370
-1
48
1
60
0
100
AcDbEllipse
10
146.094049
20
-3.535457
30
0
11
-2.74139023505778
21
2.77055603677081E-15
31
0
210
0
220
0
230
1
40
0.998135
41
0.0523598775598122
42
0.428478331364588
0
ELLIPSE
5
13B
100
AcDbEntity
8
1
62
256
6
ByLayer
370
-1
48
1
60
0
100
AcDbEllipse
10
146.094049
20
-3.460121
30
0
11
3.4455691218058
21
0
31
0
210
0
220
0
230
1
40
0.998135
41
-3.08923277602997
42
-2.7131143222252
0
ELLIPSE
5
13C
100
AcDbEntity
8
1
62
256
6
ByLayer
370
-1
48
1
60
0
100
AcDbEllipse
10
146.094049
20
-3.460121
30
0
11
3.2455691218058
21
0
31
0
210
0
220
0
230
1
40
0.998135
41
-3.08923277602997
42
-2.71311432222519
0
ELLIPSE
5
13D
100
AcDbEntity
8
1
62
256
6
ByLayer
370
-1
48
1
60
0
100
AcDbEllipse
10
143.470185
20
-6.605766
30
0
11
0.249847137568551
21
-0.0087411583215063
31
0
210
0
220
0
230
1
40
0.061011
41
0.124307589057978
42
0.396925661118174
0
ELLIPSE
5
13E
100
AcDbEntity
8
1
62
256
6
ByLayer
370
-1
48
1
60
0
100
AcDbEllipse
10
138.501839
20
-3.788826
30
0
11
2.12320508075689
21
0
31
0
210
0
220
0
230
1
40
0.998135
41
1.56834173060227
42
2.22630921383066
0
ELLIPSE
5
13F
100
AcDbEntity
8
1
62
256
6
ByLayer
370
-1
48
1
60
0
100
AcDbEllipse
10
138.501839
20
-3.788826
30
0
11
2.12320508075689
21
0
31
0
210
0
220
0
230
1
40
0.998135
41
-3.14159253124681
42
-2.09550640108754E-16
0
ELLIPSE
5
140
100
AcDbEntity
8
1
62
256
6
ByLayer
370
-1
48
1
60
0
100
AcDbEllipse
10
143.290795
20
-8.022441
30
0
11
0.0469907225759682
21
-0.245544032694318
31
0
210
0
220
0
230
1
40
0.666914
41
0.242018859204556
42
0.615099134113947
0
ELLIPSE
5
141
100
AcDbEntity
8
1
62
256
6
ByLayer
370
-1
48
1
60
0
100
AcDbEllipse
10
142.549743
20
0.89299
30
0
11
-0.242830867590662
21
-0.0594404722824987
31
0
210
0
220
0
230
1
40
0.750457
41
-2.98829975360058
42
-2.58453886789045
0
ELLIPSE
5
142
100
AcDbEntity
8
1
62
256
6
ByLayer
370
-1
48
1
60
0
100
AcDbEllipse
10
142.41528
20
-6.482716
30
0
11
-0.249836092965612
21
0.00905133424849663
31
0
210
0
220
0
230
1
40
0.063945
41
-2.74261663829818
42
-2.48994881891825
0
ELLIPSE
5
143
100
AcDbEntity
8
1
62
256
6
ByLayer
370
-1
48
1
60
0
100
AcDbEllipse
10
142.846942
20
-0.246113
30
0
11
-0.24186889915997
21
-0.0632410912235395
31
0
210
0
220
0
230
1
40
0.700573
41
-2.99969240836582
42
-2.62661213345654
0
ELLIPSE
5
144
100
AcDbEntity
8
1
62
256
6
ByLayer
370
-1
48
1
60
0
100
AcDbEllipse
10
146.094049
20
-3.655476
30
0
11
2.49999999999999
21
0
31
0
210
0
220
0
230
1
40
0.998135
41
-3.08923277602998
42
-2.71311432222521
0
ELLIPSE
5
145
100
AcDbEntity
8
1
62
256
6
ByLayer
370
-1
48
1
60
0
100
AcDbEllipse
10
143.054641
20
-5.338637
30
0
11
-0.399755420109682
21
0.0139858533144093
31
0
210
0
220
0
230
1
40
0.061011
41
0.403526855955871
42
1.57293086821329
0
ELLIPSE
5
146
100
AcDbEntity
8
1
62
256
6
ByLayer
370
-1
48
1
60
0
100
AcDbEllipse
10
141.810888
20
-0.880371
30
0
11
-0.696455297444664
21
7.03864923716581E-16
31
0
210
0
220
0
230
1
40
0.998135
41
-3.08923277602998
42
-2.5280352971244
0
ELLIPSE
5
147
100
AcDbEntity
8
1
62
256
6
ByLayer
370
-1
48
1
60
0
100
AcDbEllipse
10
142.506389
20
-0.819569
30
0
11
-0.399449767440439
21
-0.020973394855857
31
0
210
0
220
0
230
1
40
0.060965
41
0.880370604324545
42
1.56759533351589
0
ELLIPSE
5
148
100
AcDbEntity
8
1
62
256
6
ByLayer
370
-1
48
1
60
0
100
AcDbEllipse
10
141.810888
20
-0.880371
30
0
11
-0.896455297444665
21
9.05992734733055E-16
31
0
210
0
220
0
230
1
40
0.998135
41
-3.08923277602998
42
-2.52803529712437
0
ELLIPSE
5
149
100
AcDbEntity
8
1
62
256
6
ByLayer
370
-1
48
1
60
0
100
AcDbEllipse
10
142.000853
20
-5.401662
30
0
11
1.75860976494223
21
0
31
0
210
0
220
0
230
1
40
0.998135
41
-0.0349065850399049
42
0.428478331364605
0
ELLIPSE
5
14A
100
AcDbEntity
8
1
62
256
6
ByLayer
370
-1
48
1
60
0
100
AcDbEllipse
10
142.568945
20
0.817102
30
0
11
-0.24186889915997
21
-0.0632410912235395
31
0
210
0
220
0
230
1
40
0.700573
41
-2.99969240836578
42
-2.62661213345638
0
ELLIPSE
5
14B
100
AcDbEntity
8
1
62
256
6
ByLayer
370
-1
48
1
60
0
100
AcDbEllipse
10
143.371604
20
-8.008045
30
0
11
0.0407786310637449
21
-0.246651785415324
31
0
210
0
220
0
230
1
40
0.718136
41
0.259521461126582
42
0.663282346836682
0
ELLIPSE
5
14C
100
AcDbEntity
8
1
62
256
6
ByLayer
370
-1
48
1
60
0
100
AcDbEllipse
10
138.501839
20
-3.794931
30
0
11
1.95
21
0
31
0
210
0
220
0
230
1
40
0.998135
41
1.23386063536418
42
2.55558770024485
0
ELLIPSE
5
14D
100
AcDbEntity
8
1
62
256
6
ByLayer
370
-1
48
1
60
0
100
AcDbEllipse
10
138.501839
20
-3.794931
30
0
11
1.95
21
0
31
0
210
0
220
0
230
1
40
0.998135
41
3.1415925491868
42
-2.28163581412701E-16
0
ELLIPSE
5
14E
100
AcDbEntity
8
1
62
256
6
ByLayer
370
-1
48
1
60
0
100
AcDbEllipse
10
142.959962
20
-4.864621
30
0
11
-0.363722190458463
21
-0.166451699204598
31
0
210
0
220
0
230
1
40
0.05553
41
0.376982043637605
42
1.54538951065765
0
ELLIPSE
5
14F
100
AcDbEntity
8
1
62
256
6
ByLayer
370
-1
48
1
60
0
100
AcDbEllipse
10
142.653201
20
-3.615692
30
0
11
-0.399449767440439
21
-0.020973394855857
31
0
210
0
220
0
230
1
40
0.060965
41
0.880360888655661
42
1.56759533351589
0
ELLIPSE
5
150
100
AcDbEntity
8
1
62
256
6
ByLayer
370
-1
48
1
60
0
100
AcDbEllipse
10
142.000853
20
-5.521681
30
0
11
2.00000000000001
21
0
31
0
210
0
220
0
230
1
40
0.998135
41
-0.0349065850399051
42
0.428478331364595
0
ELLIPSE
5
151
100
AcDbEntity
8
1
62
256
6
ByLayer
370
-1
48
1
60
0
100
AcDbEllipse
10
142.000853
20
-5.397652
30
0
11
-1.74124245780115
21
1.75976763222145E-15
31
0
210
0
220
0
230
1
40
0.998135
41
3.10668606854989
42
-2.71311432222524
0
ELLIPSE
5
152
100
AcDbEntity
8
1
62
256
6
ByLayer
370
-1
48
1
60
0
100
AcDbEllipse
10
142.960252
20
-0.641267
30
0
11
-0.249798405989015
21
0.0100377470254754
31
0
210
0
220
0
230
1
40
0.641378
41
-2.98655764043277
42
-2.64036488648929
0
ELLIPSE
5
153
100
AcDbEntity
8
1
62
256
6
ByLayer
370
-1
48
1
60
0
100
AcDbEllipse
10
142.961806
20
-0.897362
30
0
11
-0.249656104650274
21
-0.0131083717849106
31
0
210
0
220
0
230
1
40
0.060965
41
-3.0226205992292
42
-2.75000252716898
0
ELLIPSE
5
154
100
AcDbEntity
8
1
62
256
6
ByLayer
370
-1
48
1
60
0
100
AcDbEllipse
10
143.374778
20
-4.77711
30
0
11
0.227326369036527
21
0.104032312002901
31
0
210
0
220
0
230
1
40
0.05553
41
0.0967662315028402
42
0.369384303563021
0
ELLIPSE
5
155
100
AcDbEntity
8
1
62
256
6
ByLayer
370
-1
48
1
60
0
100
AcDbEllipse
10
143.323221
20
-7.765008
30
0
11
0.600000000000008
21
0
31
0
210
0
220
0
230
1
40
0.998135
41
-1.22173047639606
42
-0.0349065850399139
0
ELLIPSE
5
156
100
AcDbEntity
8
1
62
256
6
ByLayer
370
-1
48
1
60
0
100
AcDbEllipse
10
142.318389
20
-6.488424
30
0
11
-0.896455297444665
21
9.05992734733055E-16
31
0
210
0
220
0
230
1
40
0.998135
41
2.18435368326036
42
3.10668606854987
0
ELLIPSE
5
157
100
AcDbEntity
8
1
62
256
6
ByLayer
370
-1
48
1
60
0
100
AcDbEllipse
10
142.415946
20
-5.128194
30
0
11
-0.227482860807363
21
-0.10368967180437
31
0
210
0
220
0
230
1
40
0.059322
41
-2.76452408340496
42
-2.50045272736074
0
ELLIPSE
5
158
100
AcDbEntity
8
1
62
256
6
ByLayer
370
-1
48
1
60
0
100
AcDbEllipse
10
143.108619
20
-3.693485
30
0
11
-0.249656104650274
21
-0.0131083717849106
31
0
210
0
220
0
230
1
40
0.060965
41
-3.02262059922889
42
-2.75000252716864
0
ELLIPSE
5
159
100
AcDbEntity
8
1
62
256
6
ByLayer
370
-1
48
1
60
0
100
AcDbEllipse
10
142.948616
20
-0.5694
30
0
11
-0.234464016242265
21
-0.0867561242077296
31
0
210
0
220
0
230
1
40
0.010828
41
-3.04049678127017
42
-2.76756120207211
0
ELLIPSE
5
15A
100
AcDbEntity
8
1
62
256
6
ByLayer
370
-1
48
1
60
0
100
AcDbEllipse
10
143.573215
20
-7.653612
30
0
11
0.24620763529998
21
0.0433797224517662
31
0
210
0
220
0
230
1
40
0.848996
41
-0.917139554015157
42
-0.236406431610105
0
ELLIPSE
5
15B
100
AcDbEntity
8
1
62
256
6
ByLayer
370
-1
48
1
60
0
100
AcDbEllipse
10
142.935823
20
-0.720404
30
0
11
0.500000000000016
21
0
31
0
210
0
220
0
230
1
40
0.998135
41
0.0523598775598152
42
0.349065850398896
0
ELLIPSE
5
15C
100
AcDbEntity
8
1
62
256
6
ByLayer
370
-1
48
1
60
0
100
AcDbEllipse
10
142.456449
20
-5.333874
30
0
11
-0.249840320464324
21
0.00893388327011178
31
0
210
0
220
0
230
1
40
0.062811
41
-2.73802132925219
42
-2.47597552140472
0
ELLIPSE
5
15D
100
AcDbEntity
8
1
62
256
6
ByLayer
370
-1
48
1
60
0
100
AcDbEllipse
10
142.271382
20
0.809893
30
0
11
0.600000000000008
21
0
31
0
210
0
220
0
230
1
40
0.998135
41
0.349065850398875
42
1.53588974175502
0
ELLIPSE
5
15E
100
AcDbEntity
8
1
62
256
6
ByLayer
370
-1
48
1
60
0
100
AcDbEllipse
10
142.000853
20
-5.326326
30
0
11
-1.05443087819422
21
1.06564902638787E-15
31
0
210
0
220
0
230
1
40
0.998135
41
3.10668606854989
42
-2.71311432222522
0
ELLIPSE
5
15F
100
AcDbEntity
8
1
62
256
6
ByLayer
370
-1
48
1
60
0
100
AcDbEllipse
10
146.094049
20
-3.531447
30
0
11
2.75875754219888
21
0
31
0
210
0
220
0
230
1
40
0.998135
41
-3.08923277602996
42
-2.71311432222518
0
ELLIPSE
5
160
100
AcDbEntity
8
1
62
256
6
ByLayer
370
-1
48
1
60
0
100
AcDbEllipse
10
143.510406
20
-5.456138
30
0
11
0.249847137568551
21
-0.0087411583215063
31
0
210
0
220
0
230
1
40
0.061011
41
0.124307589058267
42
0.396925661118487
0
ELLIPSE
5
161
100
AcDbEntity
8
1
62
256
6
ByLayer
370
-1
48
1
60
0
100
AcDbEllipse
10
143.01442
20
-6.488265
30
0
11
-0.399755420109682
21
0.0139858533144093
31
0
210
0
220
0
230
1
40
0.061011
41
0.398898449093517
42
1.57293086821329
0
ELLIPSE
5
162
100
AcDbEntity
8
1
62
256
6
ByLayer
370
-1
48
1
60
0
100
AcDbEllipse
10
138.501839
20
-3.794931
30
0
11
1.85
21
0
31
0
210
0
220
0
230
1
40
0.998135
41
1.09661201881273
42
2.69283583168232
0
ELLIPSE
5
163
100
AcDbEntity
8
1
62
256
6
ByLayer
370
-1
48
1
60
0
100
AcDbEllipse
10
138.501839
20
-3.794931
30
0
11
1.85
21
0
31
0
210
0
220
0
230
1
40
0.998135
41
-3.14159241084493
42
-2.4049674797555E-16
0
ELLIPSE
5
164
100
AcDbEntity
8
1
62
256
6
ByLayer
370
-1
48
1
60
0
100
AcDbEllipse
10
142.209805
20
1.109354
30
0
11
0.0201676425453917
21
-0.249185204605252
31
0
210
0
220
0
230
1
40
0.883139
41
2.33027371081675
42
2.68771330496653
0
ELLIPSE
5
165
100
AcDbEntity
8
1
62
256
6
ByLayer
370
-1
48
1
60
0
100
AcDbEllipse
10
142.719394
20
-7.032368
30
0
11
-0.230024413902893
21
0.327244203934357
31
0
210
0
220
0
230
1
40
0.035151
41
0.89843890377783
42
1.62076156591594
0
ELLIPSE
5
166
100
AcDbEntity
8
1
62
256
6
ByLayer
370
-1
48
1
60
0
100
AcDbEllipse
10
142.380313
20
-0.455694
30
0
11
-0.326839369832622
21
-0.23059927651104
31
0
210
0
220
0
230
1
40
0.049914
41
1.08731558825765
42
1.53559468457123
0
ELLIPSE
5
167
100
AcDbEntity
8
1
62
256
6
ByLayer
370
-1
48
1
60
0
100
AcDbEllipse
10
142.000853
20
-5.326326
30
0
11
-1.25443087819422
21
1.26777683740435E-15
31
0
210
0
220
0
230
1
40
0.998135
41
3.10668606854989
42
-2.71311432222524
0
ELLIPSE
5
168
100
AcDbEntity
8
1
62
256
6
ByLayer
370
-1
48
1
60
0
100
AcDbEllipse
10
138.501839
20
-3.85999
30
0
11
1.84999999999999
21
0
31
0
210
0
220
0
230
1
40
0.998135
41
1.04399050339588
42
2.69538834923972
0
ELLIPSE
5
169
100
AcDbEntity
8
1
62
256
6
ByLayer
370
-1
48
1
60
0
100
AcDbEllipse
10
138.501839
20
-3.85999
30
0
11
1.84999999999999
21
0
31
0
210
0
220
0
230
1
40
0.998135
41
-3.14159241084494
42
-2.4049674797555E-16
0
ELLIPSE
5
16A
100
AcDbEntity
8
1
62
256
6
ByLayer
370
-1
48
1
60
0
100
AcDbEllipse
10
142.318389
20
-6.488424
30
0
11
-0.696455297444665
21
7.03864923716582E-16
31
0
210
0
220
0
230
1
40
0.998135
41
2.18435368326036
42
3.10668606854991
0
ELLIPSE
5
16B
100
AcDbEntity
8
1
62
256
6
ByLayer
370
-1
48
1
60
0
100
AcDbEllipse
10
141.641227
20
11.40511
30
0
11
-3.49849852638745E-16
21
-0.326392246597645
31
0
210
0
220
0
230
1
40
0.996195
41
-1.32745612674725
42
1.60570291183482
0
ELLIPSE
5
16C
100
AcDbEntity
8
1
62
256
6
ByLayer
370
-1
48
1
60
0
100
AcDbEllipse
10
135.355846
20
13.277755
30
0
11
-1.92936487099227E-16
21
-0.18
31
0
210
0
220
0
230
1
40
0.996195
41
-0.194895099806164
42
1.83550459668071
0
ELLIPSE
5
16D
100
AcDbEntity
8
1
62
256
6
ByLayer
370
-1
48
1
60
0
100
AcDbEllipse
10
141.695508
20
9.957499
30
0
11
2.34290668463255E-16
21
0.2
31
0
210
0
220
0
230
1
40
0.996195
41
-1.53588974175497
42
1.39726929682705
0
ELLIPSE
5
16E
100
AcDbEntity
8
1
62
256
6
ByLayer
370
-1
48
1
60
0
100
AcDbEllipse
10
134.725845
20
13.402592
30
0
11
2.1086160161693E-16
21
0.18
31
0
210
0
220
0
230
1
40
0.996195
41
-0.194895099806009
42
2.39110107523234
0
ELLIPSE
5
16F
100
AcDbEntity
8
1
62
256
6
ByLayer
370
-1
48
1
60
0
100
AcDbEllipse
10
135.96835
20
13.149715
30
0
11
0.205016422911348
21
0.219016589181357
31
0
210
0
220
0
230
1
40
0.063742
41
-2.15470096795563
42
-0.867698750369423
0
ELLIPSE
5
170
100
AcDbEntity
8
1
62
256
6
ByLayer
370
-1
48
1
60
0
100
AcDbEllipse
10
135.015352
20
7.511876
30
0
11
2.1086160161693E-16
21
0.18
31
0
210
0
220
0
230
1
40
0.996195
41
-1.39399268715095
42
1.74759996643901
0
ELLIPSE
5
171
100
AcDbEntity
8
1
62
256
6
ByLayer
370
-1
48
1
60
0
100
AcDbEllipse
10
135.334137
20
7.877553
30
0
11
-0.423200635129553
21
-0.0147783846834268
31
0
210
0
220
0
230
-1
40
0.002159
41
-2.27604469498613
42
-1.63254358594489
0
ELLIPSE
5
172
100
AcDbEntity
8
1
62
256
6
ByLayer
370
-1
48
1
60
0
100
AcDbEllipse
10
134.704928
20
13.402592
30
0
11
-0.970611798124147
21
0.497940611467083
31
0
210
0
220
0
230
-1
40
0.010943
41
1.59212368622567
42
2.2356247942691
0
ELLIPSE
5
173
100
AcDbEntity
8
1
62
256
6
ByLayer
370
-1
48
1
60
0
100
AcDbEllipse
10
141.48183
20
9.99203
30
0
11
0.197018693541058
21
-0.0344039880736935
31
0
210
0
220
0
230
1
40
0.015048
41
1.4848339427607
42
2.16891517455643
0
ELLIPSE
5
174
100
AcDbEntity
8
1
62
256
6
ByLayer
370
-1
48
1
60
0
100
AcDbEllipse
10
138.838807
20
14.209115
30
0
11
0.00700652876222752
21
-0.199877233707854
31
0
210
0
220
0
230
1
40
0.087103
41
1.56774302595899
42
2.25182425775453
0
ELLIPSE
5
175
100
AcDbEntity
8
1
62
256
6
ByLayer
370
-1
48
1
60
0
100
AcDbEllipse
10
138.566671
20
10.5618
30
0
11
2.34290668463255E-15
21
2
31
0
210
0
220
0
230
1
40
0.996195
41
0.0301394508327523
42
1.57079604872776
0
ELLIPSE
5
176
100
AcDbEntity
8
1
62
256
6
ByLayer
370
-1
48
1
60
0
100
AcDbEllipse
10
138.566671
20
10.5618
30
0
11
2.34290668463255E-15
21
2
31
0
210
0
220
0
230
1
40
0.996195
41
3.11145314640854
42
-1.57079625281728
0
ELLIPSE
5
177
100
AcDbEntity
8
1
62
256
6
ByLayer
370
-1
48
1
60
0
100
AcDbEllipse
10
138.566671
20
10.5618
30
0
11
2.34290668463255E-15
21
2
31
0
210
0
220
0
230
1
40
0.996195
41
1.57079654872776
42
3.11145314640854
0
ELLIPSE
5
178
100
AcDbEntity
8
1
62
256
6
ByLayer
370
-1
48
1
60
0
100
AcDbEllipse
10
135.552708
20
7.672953
30
0
11
-0.205016422911348
21
-0.219016589181357
31
0
210
0
220
0
230
1
40
0.063742
41
0.986891685634192
42
2.27389390322044
0
ELLIPSE
5
179
100
AcDbEntity
8
1
62
256
6
ByLayer
370
-1
48
1
60
0
100
AcDbEllipse
10
139.090813
20
6.965037
30
0
11
-0.00700652876222936
21
0.199877233707854
31
0
210
0
220
0
230
1
40
0.087103
41
-2.25793085942654
42
-1.5738496276308
0
ELLIPSE
5
17A
100
AcDbEntity
8
1
62
256
6
ByLayer
370
-1
48
1
60
0
100
AcDbEllipse
10
141.736442
20
14.010506
30
0
11
0.199879090035388
21
0.00695337088219757
31
0
210
0
220
0
230
1
40
0.003042
41
-1.48358275532868
42
-0.799501523532794
0
ELLIPSE
5
17B
100
AcDbEntity
8
1
62
256
6
ByLayer
370
-1
48
1
60
0
100
AcDbEllipse
10
135.949137
20
7.370231
30
0
11
-0.239099387447144
21
0.181194599595023
31
0
210
0
220
0
230
1
40
0.052768
41
-2.28381636720085
42
-0.996814149613926
0
ELLIPSE
5
17C
100
AcDbEntity
8
1
62
256
6
ByLayer
370
-1
48
1
60
0
100
AcDbEllipse
10
138.81136
20
13.81224
30
0
11
0.0346594459730841
21
0.19697391402122
31
0
210
0
220
0
230
1
40
0.085847
41
-2.23977313548217
42
-1.55569190368687
0
ELLIPSE
5
17D
100
AcDbEntity
8
1
62
256
6
ByLayer
370
-1
48
1
60
0
100
AcDbEllipse
10
135.626815
20
8.170094
30
0
11
2.1086160161693E-16
21
0.18
31
0
210
0
220
0
230
1
40
0.996195
41
-0.10699046956435
42
0.82030474843457
0
ELLIPSE
5
17E
100
AcDbEntity
8
1
62
256
6
ByLayer
370
-1
48
1
60
0
100
AcDbEllipse
10
135.989267
20
13.149715
30
0
11
-1.92936487099227E-16
21
-0.18
31
0
210
0
220
0
230
1
40
0.996195
41
-0.750491578357453
42
2.39110107523234
0
ELLIPSE
5
17F
100
AcDbEntity
8
1
62
256
6
ByLayer
370
-1
48
1
60
0
100
AcDbEllipse
10
135.166922
20
13.899913
30
0
11
0.289625964928695
21
0.0782099765958442
31
0
210
0
220
0
230
1
40
0.022802
41
-2.13005594553382
42
-1.4865548367406
0
ELLIPSE
5
180
100
AcDbEntity
8
1
62
256
6
ByLayer
370
-1
48
1
60
0
100
AcDbEllipse
10
138.328559
20
10.5618
30
0
11
-2.71334196247261E-15
21
-2.53141103887668
31
0
210
0
220
0
230
1
40
0.996195
41
0
42
6.28318530717959
0
ELLIPSE
5
181
100
AcDbEntity
8
1
62
256
6
ByLayer
370
-1
48
1
60
0
100
AcDbEllipse
10
135.573625
20
7.672953
30
0
11
-1.92936487099227E-16
21
-0.18
31
0
210
0
220
0
230
1
40
0.996195
41
-0.750491578357651
42
2.39110107523214
0
ELLIPSE
5
182
100
AcDbEntity
8
1
62
256
6
ByLayer
370
-1
48
1
60
0
100
AcDbEllipse
10
135.605898
20
8.170094
30
0
11
0.219794734898745
21
-0.204181964215232
31
0
210
0
220
0
230
1
40
0.05944
41
1.50689827555568
42
2.15039938434861
0
ELLIPSE
5
183
100
AcDbEntity
8
1
62
256
6
ByLayer
370
-1
48
1
60
0
100
AcDbEllipse
10
135.506356
20
12.652394
30
0
11
0.205016422911348
21
0.219016589181357
31
0
210
0
220
0
230
1
40
0.063742
41
-2.15470096795524
42
-0.86769875036982
0
ELLIPSE
5
184
100
AcDbEntity
8
1
62
256
6
ByLayer
370
-1
48
1
60
0
100
AcDbEllipse
10
134.704928
20
13.402592
30
0
11
0.205016422911348
21
0.219016589181357
31
0
210
0
220
0
230
1
40
0.063742
41
-2.15470096795605
42
-1.51119985916236
0
ELLIPSE
5
185
100
AcDbEntity
8
1
62
256
6
ByLayer
370
-1
48
1
60
0
100
AcDbEllipse
10
138.257268
20
10.5618
30
0
11
3.16169255543626E-15
21
2.69894876836046
31
0
210
0
220
0
230
1
40
0.996195
41
0
42
6.28318530717959
0
ELLIPSE
5
186
100
AcDbEntity
8
1
62
256
6
ByLayer
370
-1
48
1
60
0
100
AcDbEllipse
10
141.877194
20
9.964479
30
0
11
0.199879090035388
21
0.00695337088219757
31
0
210
0
220
0
230
1
40
0.003042
41
-1.48358275532868
42
-0.799501523532387
0
ELLIPSE
5
187
100
AcDbEntity
8
1
62
256
6
ByLayer
370
-1
48
1
60
0
100
AcDbEllipse
10
134.994435
20
7.511876
30
0
11
0.295357977434014
21
0.0525705731953551
31
0
210
0
220
0
230
1
40
0.015329
41
-2.12838464107911
42
-0.841382423491842
0
ELLIPSE
5
188
100
AcDbEntity
8
1
62
256
6
ByLayer
370
-1
48
1
60
0
100
AcDbEllipse
10
135.177196
20
7.975675
30
0
11
9.60591740699346E-16
21
0.82
31
0
210
0
220
0
230
1
40
0.996195
41
-2.42145532631402
42
-2.22112048399088
0
ELLIPSE
5
189
100
AcDbEntity
8
1
62
256
6
ByLayer
370
-1
48
1
60
0
100
AcDbEllipse
10
135.334928
20
13.277755
30
0
11
-0.415037229903769
21
0.387683427182203
31
0
210
0
220
0
230
-1
40
0.031444
41
0.960945087823969
42
1.60444619729627
0
ELLIPSE
5
18A
100
AcDbEntity
8
1
62
256
6
ByLayer
370
-1
48
1
60
0
100
AcDbEllipse
10
135.573625
20
7.672953
30
0
11
-3.42998199287514E-16
21
-0.32
31
0
210
0
220
0
230
1
40
0.996195
41
0.920472169598915
42
2.77549784972783
0
ELLIPSE
5
18B
100
AcDbEntity
8
1
62
256
6
ByLayer
370
-1
48
1
60
0
100
AcDbEllipse
10
138.302017
20
10.5618
30
0
11
-2.85443725674398E-15
21
-2.66304582372577
31
0
210
0
220
0
230
1
40
0.996195
41
2.21550992406688
42
0
0
ELLIPSE
5
18C
100
AcDbEntity
8
1
62
256
6
ByLayer
370
-1
48
1
60
0
100
AcDbEllipse
10
138.302017
20
10.5618
30
0
11
-2.85443725674398E-15
21
-2.66304582372577
31
0
210
0
220
0
230
1
40
0.996195
41
0
42
0.926082659473384
0
ELLIPSE
5
18D
100
AcDbEntity
8
1
62
256
6
ByLayer
370
-1
48
1
60
0
100
AcDbEllipse
10
135.334138
20
7.877552
30
0
11
-0.0148060500421531
21
0.423993546558767
31
0
210
0
220
0
230
-1
40
0.06159
41
1.57294627541646
42
1.60954614563717
0
ELLIPSE
5
18E
100
AcDbEntity
8
1
62
256
6
ByLayer
370
-1
48
1
60
0
100
AcDbEllipse
10
135.326679
20
7.869524
30
0
11
0.219794734898745
21
-0.204181964215232
31
0
210
0
220
0
230
1
40
0.05944
41
1.47029936263283
42
2.15039938434813
0
ELLIPSE
5
18F
100
AcDbEntity
8
1
62
256
6
ByLayer
370
-1
48
1
60
0
100
AcDbEllipse
10
138.446887
20
10.5618
30
0
11
-2.14373874554696E-15
21
-2
31
0
210
0
220
0
230
1
40
0.996195
41
3.09653044246734
42
0
0
ELLIPSE
5
190
100
AcDbEntity
8
1
62
256
6
ByLayer
370
-1
48
1
60
0
100
AcDbEllipse
10
138.446887
20
10.5618
30
0
11
-2.14373874554696E-15
21
-2
31
0
210
0
220
0
230
1
40
0.996195
41
0
42
0.0531124184876182
0
ELLIPSE
5
191
100
AcDbEntity
8
1
62
256
6
ByLayer
370
-1
48
1
60
0
100
AcDbEllipse
10
141.455196
20
14.000036
30
0
11
-3.21560811832045E-16
21
-0.3
31
0
210
0
220
0
230
1
40
0.996195
41
1.60570291183477
42
-3.10668606854988
0
ELLIPSE
5
192
100
AcDbEntity
8
1
62
256
6
ByLayer
370
-1
48
1
60
0
100
AcDbEllipse
10
135.166922
20
13.899913
30
0
11
-0.562912436410739
21
0.936794969766585
31
0
210
0
220
0
230
-1
40
0.020508
41
1.58311883722602
42
2.22661994680827
0
ELLIPSE
5
193
100
AcDbEntity
8
1
62
256
6
ByLayer
370
-1
48
1
60
0
100
AcDbEllipse
10
138.257268
20
10.5618
30
0
11
3.71773340992403E-15
21
3.17360775340235
31
0
210
0
220
0
230
1
40
0.996195
41
-2.89825245354217
42
-1.74432335676275
0
ELLIPSE
5
194
100
AcDbEntity
8
1
62
256
6
ByLayer
370
-1
48
1
60
0
100
AcDbEllipse
10
135.505685
20
7.599818
30
0
11
7.96588272775067E-16
21
0.68
31
0
210
0
220
0
230
1
40
0.996195
41
1.74759996643897
42
-2.42145532631397
0
ELLIPSE
5
195
100
AcDbEntity
8
1
62
256
6
ByLayer
370
-1
48
1
60
0
100
AcDbEllipse
10
135.527273
20
12.652394
30
0
11
-1.92936487099227E-16
21
-0.18
31
0
210
0
220
0
230
1
40
0.996195
41
-0.750491578357453
42
2.39110107523234
0
ELLIPSE
5
196
100
AcDbEntity
8
1
62
256
6
ByLayer
370
-1
48
1
60
0
100
AcDbEllipse
10
135.505685
20
7.599818
30
0
11
3.74865069541208E-16
21
0.32
31
0
210
0
220
0
230
1
40
0.996195
41
1.74759996643894
42
-2.42145532631398
0
ELLIPSE
5
197
100
AcDbEntity
8
1
62
256
6
ByLayer
370
-1
48
1
60
0
100
AcDbEllipse
10
135.177196
20
7.975675
30
0
11
1.3823149439332E-15
21
1.18
31
0
210
0
220
0
230
1
40
0.996195
41
-2.42145532631401
42
-2.22112048399089
0
ELLIPSE
5
198
100
AcDbEntity
8
1
62
256
6
ByLayer
370
-1
48
1
60
0
100
AcDbEllipse
10
135.334928
20
13.277755
30
0
11
0.289625964928695
21
0.0782099765958442
31
0
210
0
220
0
230
1
40
0.022802
41
-1.4865548367407
42
-0.843053727947779
0
ELLIPSE
5
199
100
AcDbEntity
8
1
62
256
6
ByLayer
370
-1
48
1
60
0
100
AcDbEllipse
10
135.573625
20
7.672953
30
0
11
-7.28871173485968E-16
21
-0.68
31
0
210
0
220
0
230
1
40
0.996195
41
0.920472169598951
42
3.03460218402547
0
ELLIPSE
5
19A
100
AcDbEntity
8
1
62
256
6
ByLayer
370
-1
48
1
60
0
100
AcDbEllipse
10
141.679341
20
7.055776
30
0
11
0.00700652876222752
21
-0.199877233707854
31
0
210
0
220
0
230
1
40
0.087103
41
0.883661794164332
42
1.56774302595899
0
ELLIPSE
5
19B
100
AcDbEntity
8
1
62
256
6
ByLayer
370
-1
48
1
60
0
100
AcDbEllipse
10
141.967588
20
7.366063
30
0
11
0.199879090035388
21
0.00695337088219757
31
0
210
0
220
0
230
1
40
0.003042
41
-1.48358275532882
42
-0.799501523532692
0
ELLIPSE
5
19C
100
AcDbEntity
8
1
62
256
6
ByLayer
370
-1
48
1
60
0
100
AcDbEllipse
10
135.326679
20
7.869524
30
0
11
-0.219647545956867
21
0.204045230606613
31
0
210
0
220
0
230
1
40
0.05944
41
-1.63469437803422
42
-0.992087287819995
0
ELLIPSE
5
19D
100
AcDbEntity
8
1
62
256
6
ByLayer
370
-1
48
1
60
0
100
AcDbEllipse
10
141.427335
20
14.299854
30
0
11
-0.00700652876222936
21
0.199877233707854
31
0
210
0
220
0
230
1
40
0.087103
41
-1.5738496276308
42
-0.889768395834326
0
ELLIPSE
5
19E
100
AcDbEntity
8
1
62
256
6
ByLayer
370
-1
48
1
60
0
100
AcDbEllipse
10
141.826835
20
11.41209
30
0
11
0.199879090035388
21
0.00695337088219757
31
0
210
0
220
0
230
1
40
0.003042
41
-1.48358275532868
42
-0.799501523532183
0
ELLIPSE
5
19F
100
AcDbEntity
8
1
62
256
6
ByLayer
370
-1
48
1
60
0
100
AcDbEllipse
10
141.451274
20
14.000036
30
0
11
-4.57036789916095E-16
21
-0.426392246597646
31
0
210
0
220
0
230
1
40
0.996195
41
1.60570291183478
42
-3.10668606854992
0
ELLIPSE
5
1A0
100
AcDbEntity
8
1
62
256
6
ByLayer
370
-1
48
1
60
0
100
AcDbEllipse
10
135.334137
20
7.877553
30
0
11
0.205016422911348
21
0.219016589181357
31
0
210
0
220
0
230
1
40
0.063742
41
-2.15470096795571
42
-1.5477987720853
0
ELLIPSE
5
1A1
100
AcDbEntity
8
1
62
256
6
ByLayer
370
-1
48
1
60
0
100
AcDbEllipse
10
135.355054
20
7.877553
30
0
11
2.1086160161693E-16
21
0.18
31
0
210
0
220
0
230
1
40
0.996195
41
0.881327184778926
42
2.39110107523216
0
ELLIPSE
5
1A2
100
AcDbEntity
8
1
62
256
6
ByLayer
370
-1
48
1
60
0
100
AcDbEllipse
10
135.334928
20
13.277755
30
0
11
0.0583126460802219
21
0.294278159752169
31
0
210
0
220
0
230
1
40
0.085506
41
-2.1973556852189
42
-1.55385457642582
0
ELLIPSE
5
1A3
100
AcDbEntity
8
1
62
256
6
ByLayer
370
-1
48
1
60
0
100
AcDbEllipse
10
135.18784
20
13.899913
30
0
11
2.1086160161693E-16
21
0.18
31
0
210
0
220
0
230
1
40
0.996195
41
-0.750491578357655
42
1.83550459668071
0
ELLIPSE
5
1A4
100
AcDbEntity
8
1
62
256
6
ByLayer
370
-1
48
1
60
0
100
AcDbEllipse
10
138.863191
20
14.009237
30
0
11
-2.14373874554696E-16
21
-0.2
31
0
210
0
220
0
230
1
40
0.996195
41
-3.10668606854993
42
-0.173527029967774
0
ELLIPSE
5
1A5
100
AcDbEntity
8
1
62
256
6
ByLayer
370
-1
48
1
60
0
100
AcDbEllipse
10
138.26119
20
10.5618
30
0
11
-3.53716893015249E-15
21
-3.3
31
0
210
0
220
0
230
1
40
0.996195
41
0.243340200047626
42
1.39726929682705
0
ELLIPSE
5
1A6
100
AcDbEntity
8
1
62
256
6
ByLayer
370
-1
48
1
60
0
100
AcDbEllipse
10
141.434348
20
11.356921
30
0
11
0.194150530809913
21
0.0480163658165525
31
0
210
0
220
0
230
1
40
0.021
41
-2.17016962363846
42
-1.48608839184227
0
ELLIPSE
5
1A7
100
AcDbEntity
8
1
62
256
6
ByLayer
370
-1
48
1
60
0
100
AcDbEllipse
10
141.645149
20
11.40511
30
0
11
-2.14373874554696E-16
21
-0.2
31
0
210
0
220
0
230
1
40
0.996195
41
-1.32745612674723
42
1.60570291183482
0
ELLIPSE
5
1A8
100
AcDbEntity
8
1
62
256
6
ByLayer
370
-1
48
1
60
0
100
AcDbEllipse
10
141.691586
20
9.957499
30
0
11
-3.49849852638745E-16
21
-0.326392246597645
31
0
210
0
220
0
230
1
40
0.996195
41
1.60570291183482
42
-1.74432335676277
0
ELLIPSE
5
1A9
100
AcDbEntity
8
1
62
256
6
ByLayer
370
-1
48
1
60
0
100
AcDbEllipse
10
141.682421
20
7.355593
30
0
11
-4.57036789916095E-16
21
-0.426392246597646
31
0
210
0
220
0
230
1
40
0.996195
41
0.03490658503994
42
1.60570291183478
0
ELLIPSE
5
1AA
100
AcDbEntity
8
1
62
256
6
ByLayer
370
-1
48
1
60
0
100
AcDbEllipse
10
138.26119
20
10.5618
30
0
11
3.86579602964371E-15
21
3.3
31
0
210
0
220
0
230
1
40
0.996195
41
-1.32745612674727
42
-0.173527029967853
0
ELLIPSE
5
1AB
100
AcDbEntity
8
1
62
256
6
ByLayer
370
-1
48
1
60
0
100
AcDbEllipse
10
139.035854
20
7.359023
30
0
11
0.0483624820755146
21
-0.194064603489394
31
0
210
0
220
0
230
1
40
0.084588
41
1.54971942607882
42
2.23380065787359
0
ELLIPSE
5
1AC
100
AcDbEntity
8
1
62
256
6
ByLayer
370
-1
48
1
60
0
100
AcDbEllipse
10
138.859269
20
14.009237
30
0
11
-3.49849852638746E-16
21
-0.326392246597646
31
0
210
0
220
0
230
1
40
0.996195
41
-3.10668606854987
42
-0.173527029967822
0
ELLIPSE
5
1AD
100
AcDbEntity
8
1
62
256
6
ByLayer
370
-1
48
1
60
0
100
AcDbEllipse
10
138.257268
20
10.5618
30
0
11
3.71773340992403E-15
21
3.17360775340235
31
0
210
0
220
0
230
1
40
0.996195
41
-1.32745612674727
42
-0.173527029967845
0
ELLIPSE
5
1AE
100
AcDbEntity
8
1
62
256
6
ByLayer
370
-1
48
1
60
0
100
AcDbEllipse
10
139.097369
20
7.164915
30
0
11
-3.49849852638746E-16
21
-0.326392246597646
31
0
210
0
220
0
230
1
40
0.996195
41
-2.89825245354222
42
0.0349065850399199
0
ELLIPSE
5
1AF
100
AcDbEntity
8
1
62
256
6
ByLayer
370
-1
48
1
60
0
100
AcDbEllipse
10
135.166922
20
13.899913
30
0
11
0.205016422911348
21
0.219016589181357
31
0
210
0
220
0
230
1
40
0.063742
41
-1.51119985916246
42
-0.867698750368485
0
ELLIPSE
5
1B0
100
AcDbEntity
8
1
62
256
6
ByLayer
370
-1
48
1
60
0
100
AcDbEllipse
10
135.605898
20
8.170094
30
0
11
-0.0321569088447677
21
-0.29827157627496
31
0
210
0
220
0
230
1
40
0.086657
41
1.58013866027564
42
2.22363976906915
0
ELLIPSE
5
1B1
100
AcDbEntity
8
1
62
256
6
ByLayer
370
-1
48
1
60
0
100
AcDbEllipse
10
135.813257
20
7.22396
30
0
11
-0.198272361006438
21
0.22514011384232
31
0
210
0
220
0
230
1
40
0.065516
41
-2.2719312532171
42
-0.984929035630961
0
ELLIPSE
5
1B2
100
AcDbEntity
8
1
62
256
6
ByLayer
370
-1
48
1
60
0
100
AcDbEllipse
10
139.101291
20
7.164915
30
0
11
2.34290668463255E-16
21
0.2
31
0
210
0
220
0
230
1
40
0.996195
41
0.243340200047767
42
-3.10668606854993
0
ELLIPSE
5
1B3
100
AcDbEntity
8
1
62
256
6
ByLayer
370
-1
48
1
60
0
100
AcDbEllipse
10
134.704928
20
13.402592
30
0
11
0.0583126460802219
21
0.294278159752169
31
0
210
0
220
0
230
1
40
0.085506
41
-1.55385457642582
42
-0.910353467631967
0
POINT
5
41
100
AcDbEntity
8
81
62
256
6
ByLayer
370
-1
48
1
60
0
100
AcDbPoint
10
144
20
0
30
0
39
0
210
0
220
0
230
1
50
360
0
POINT
5
43
100
AcDbEntity
8
80
62
256
6
ByLayer
370
-1
48
1
60
0
100
AcDbPoint
10
0
20
0
30
0
39
0
210
0
220
0
230
1
50
360
0
SPLINE
5
1B4
100
AcDbEntity
8
1
62
256
6
ByLayer
370
-1
48
1
60
0
100
AcDbSpline
70
4
71
3
72
22
73
18
40
0
40
0
40
0
40
0
40
0.0685258051363299
40
0.137844346448241
40
0.207070023626661
40
0.276154960780631
40
0.345078477059898
40
0.413848577453257
40
0.482498515129173
40
0.551079961994338
40
0.619649795037215
40
0.688255079381912
40
0.756953914136045
40
0.825790465221833
40
0.894787126098271
40
0.963939122780571
40
1
40
1
40
1
40
1
41
1
10
138.536014076905
20
12.5593337633484
30
0
41
1
10
138.675241543388
20
12.5529584855729
30
0
41
1
10
138.947334276108
20
12.5123255309612
30
0
41
1
10
139.339942910158
20
12.3644967057126
30
0
41
1
10
139.693374186954
20
12.1371100709442
30
0
41
1
10
139.992198376693
20
11.8403047741942
30
0
41
1
10
140.222767858188
20
11.48747838277
30
0
41
1
10
140.375185358771
20
11.0942747281607
30
0
41
1
10
140.442921032735
20
10.6780692423935
30
0
41
1
10
140.423234200421
20
10.2571049175011
30
0
41
1
10
140.31717631205
20
9.8497694381935
30
0
41
1
10
140.129513773745
20
9.47366534276554
30
0
41
1
10
139.868465689435
20
9.14531996798249
30
0
41
1
10
139.545290169146
20
8.87791709058263
30
0
41
1
10
139.173934301567
20
8.68689828844151
30
0
41
1
10
138.834883982612
20
8.58586595811585
30
0
41
1
10
138.624935590089
20
8.57465298048925
30
0
41
1
10
138.552042388948
20
8.57562030725225
30
0
0
SPLINE
5
1B5
100
AcDbEntity
8
1
62
256
6
ByLayer
370
-1
48
1
60
0
100
AcDbSpline
70
4
71
3
72
11
73
7
40
0
40
0
40
0
40
0
40
0.126859990033999
40
0.514832663910419
40
0.903601581675341
40
1
40
1
40
1
40
1
41
1
10
138.404725634641
20
-2.02157425853898
30
0
41
1
10
138.44855123399
20
-2.01929002344846
30
0
41
1
10
138.625809774762
20
-2.01625426738369
30
0
41
1
10
138.937918704539
20
-2.05587224963392
30
0
41
1
10
139.223134859553
20
-2.15784702707975
30
0
41
1
10
139.37160240474
20
-2.23485167695367
30
0
41
1
10
139.400662772118
20
-2.25092804688234
30
0
0
SPLINE
5
1B6
100
AcDbEntity
8
1
62
256
6
ByLayer
370
-1
48
1
60
0
100
AcDbSpline
70
4
71
3
72
13
73
9
40
0
40
0
40
0
40
0
40
0.0932096136016388
40
0.296279138552574
40
0.498861361456807
40
0.700936173345112
40
0.902577993284012
40
1
40
1
40
1
40
1
41
1
10
136.828199099939
20
-3.07686531917835
30
0
41
1
10
136.854333758778
20
-3.02122463935629
30
0
41
1
10
136.945814501468
20
-2.84849038214927
30
0
41
1
10
137.147765677497
20
-2.58427496896607
30
0
41
1
10
137.457665285807
20
-2.32253913249423
30
0
41
1
10
137.816911260412
20
-2.13403054851506
30
0
41
1
10
138.141925882755
20
-2.04571537260668
30
0
41
1
10
138.339575547094
20
-2.0250142348167
30
0
41
1
10
138.404725634641
20
-2.02157425853898
30
0
0
SPLINE
5
1B7
100
AcDbEntity
8
1
62
256
6
ByLayer
370
-1
48
1
60
0
100
AcDbSpline
70
4
71
3
72
18
73
14
40
0
40
0
40
0
40
0
40
0.0921404593368118
40
0.183485190541032
40
0.275147701228959
40
0.367690464852879
40
0.461232388431275
40
0.554593783567191
40
0.643207240217475
40
0.73301718901914
40
0.82306235138415
40
0.912366357698325
40
1
40
1
40
1
40
1
41
1
10
26.5
20
-23.25
30
0
41
1
10
27.1116580500134
20
-23.2475123583151
30
0
41
1
10
28.309790996411
20
-23.1431764397066
30
0
41
1
10
30.0671615439655
20
-22.6749294793684
30
0
41
1
10
31.727370258704
20
-21.9396938689501
30
0
41
1
10
33.2757609793083
20
-20.9651257665266
30
0
41
1
10
34.6979497916922
20
-19.7957703492423
30
0
41
1
10
35.9205430526422
20
-18.455970224546
30
0
41
1
10
37.3445797727481
20
-17.3655194804909
30
0
41
1
10
38.8848135527464
20
-16.4959248524963
30
0
41
1
10
40.5422058265047
20
-15.8635780525577
30
0
41
1
10
42.2627778232741
20
-15.4836528454487
30
0
41
1
10
43.4199811804023
20
-15.4004326941187
30
0
41
1
10
44
20
-15.4000000000001
30
0
0
SPLINE
5
1B8
100
AcDbEntity
8
1
62
256
6
ByLayer
370
-1
48
1
60
0
100
AcDbSpline
70
4
71
3
72
19
73
15
40
0
40
0
40
0
40
0
40
0.0795890530373889
40
0.160626621143443
40
0.242421685031683
40
0.324243421316153
40
0.4053595851292
40
0.485075077881084
40
0.565582442093069
40
0.653544217788749
40
0.740611011027758
40
0.826947636378305
40
0.913085534804037
40
1
40
1
40
1
40
1
41
1
10
44.0000000000001
20
15.4
30
0
41
1
10
43.4738868717787
20
15.4002943668273
30
0
41
1
10
42.4224977840327
20
15.4689740774654
30
0
41
1
10
40.8548093135082
20
15.7823890760662
30
0
41
1
10
39.3307235327949
20
16.3060344942701
30
0
41
1
10
37.8912564040426
20
17.0312020843113
30
0
41
1
10
36.5665195398401
20
17.9282631922077
30
0
41
1
10
35.401889951376
20
19.008025050047
30
0
41
1
10
34.2685672794877
20
20.1817673709346
30
0
41
1
10
32.9279482876008
20
21.2024253703621
30
0
41
1
10
31.4476467045614
20
22.079723431126
30
0
41
1
10
29.869033045711
20
22.7374947769698
30
0
41
1
10
28.2071962286198
20
23.1549791553778
30
0
41
1
10
27.0763872392272
20
23.2479912922065
30
0
41
1
10
26.5
20
23.25
30
0
0
SPLINE
5
1B9
100
AcDbEntity
8
SK1
62
256
6
ByLayer
370
-1
48
1
60
0
100
AcDbSpline
70
4
71
2
72
6
73
3
40
0
40
0
40
0
40
1
40
1
40
1
41
1
10
-2.99999999999997
20
17.5000000000527
30
0
41
1
10
-15.7502365839532
20
17.1796696772131
30
0
41
1
10
-28.5004731679065
20
16.8593393543736
30
0
0
SPLINE
5
1BA
100
AcDbEntity
8
SK1
62
256
6
ByLayer
370
-1
48
1
60
0
100
AcDbSpline
70
4
71
2
72
6
73
3
40
0
40
0
40
0
40
1
40
1
40
1
41
1
10
-28.5004731679065
20
-16.8593393543424
30
0
41
1
10
-15.7502365839533
20
-17.1796696771814
30
0
41
1
10
-3.00000000000003
20
-17.5000000000204
30
0
0
SPLINE
5
1BB
100
AcDbEntity
8
SK1
62
256
6
ByLayer
370
-1
48
1
60
0
100
AcDbSpline
70
4
71
2
72
6
73
3
40
0
40
0
40
0
40
1
40
1
40
1
41
1
10
-2.19492113517944
20
17.5202263833814
30
0
41
1
10
-2.59746056758971
20
17.5101131917171
30
0
41
1
10
-2.99999999999997
20
17.5000000000527
30
0
0
SPLINE
5
1BC
100
AcDbEntity
8
SK1
62
256
6
ByLayer
370
-1
48
1
60
0
100
AcDbSpline
70
4
71
2
72
6
73
3
40
0
40
0
40
0
40
1
40
1
40
1
41
1
10
-3.00000000000003
20
-17.5000000000204
30
0
41
1
10
-2.59746056758976
20
-17.5101131916847
30
0
41
1
10
-2.1949211351795
20
-17.5202263833491
30
0
0
SPLINE
5
1BD
100
AcDbEntity
8
SK1
62
256
6
ByLayer
370
-1
48
1
60
0
100
AcDbSpline
70
4
71
2
72
6
73
3
40
0
40
0
40
0
40
1
40
1
40
1
41
1
10
-0.399999999999977
20
17.3251501409625
30
0
41
1
10
-1.19999999999999
20
17.3251501409625
30
0
41
1
10
-1.99999999999997
20
17.3251501409625
30
0
0
SPLINE
5
1BE
100
AcDbEntity
8
SK1
62
256
6
ByLayer
370
-1
48
1
60
0
100
AcDbSpline
70
4
71
2
72
6
73
3
40
0
40
0
40
0
40
1
40
1
40
1
41
1
10
-2.00000000000003
20
-17.3251501414068
30
0
41
1
10
-1.20000000000005
20
-17.3251501414067
30
0
41
1
10
-0.400000000000034
20
-17.3251501414068
30
0
0
SPLINE
5
1BF
100
AcDbEntity
8
SK1
62
256
6
ByLayer
370
-1
48
1
60
0
100
AcDbSpline
70
4
71
2
72
6
73
3
40
0
40
0
40
0
40
1
40
1
40
1
41
1
10
-28.5003904504266
20
16.8597456617509
30
0
41
1
10
-29.2501952787077
20
16.4010253845911
30
0
41
1
10
-30
20
15.9423013487223
30
0
0
SPLINE
5
1C0
100
AcDbEntity
8
SK1
62
256
6
ByLayer
370
-1
48
1
60
0
100
AcDbSpline
70
4
71
2
72
6
73
3
40
0
40
0
40
0
40
1
40
1
40
1
41
1
10
-30
20
-15.9408160639385
30
0
41
1
10
-29.250201613525
20
-16.3993636736325
30
0
41
1
10
-28.5004032853135
20
-16.8579102610942
30
0
0
SPLINE
5
1C1
100
AcDbEntity
8
SK1
62
256
6
ByLayer
370
-1
48
1
60
0
100
AcDbSpline
70
4
71
3
72
11
73
7
40
0
40
0
40
0
40
0
40
0.245755007744097
40
0.501794198211019
40
0.756953870258405
40
1
40
1
40
1
40
1
41
1
10
-0.199999999999989
20
17.5191731511753
30
0
41
1
10
-0.199994647676362
20
17.493844966999
30
0
41
1
10
-0.209350242264492
20
17.4456228534321
30
0
41
1
10
-0.254178184246626
20
17.3766360753193
30
0
41
1
10
-0.324420736760771
20
17.33275982811
30
0
41
1
10
-0.37399106702361
20
17.3239685556465
30
0
41
1
10
-0.399999999999977
20
17.3241476526065
30
0
0
SPLINE
5
1C2
100
AcDbEntity
8
SK1
62
256
6
ByLayer
370
-1
48
1
60
0
100
AcDbSpline
70
4
71
3
72
11
73
7
40
0
40
0
40
0
40
0
40
0.243046950855008
40
0.498204668192555
40
0.75424246970475
40
1
40
1
40
1
40
1
41
1
10
-0.400000000000034
20
-17.3241468641747
30
0
41
1
10
-0.373991174653838
20
-17.3239674893689
30
0
41
1
10
-0.32442120264767
20
-17.332758304075
30
0
41
1
10
-0.254178044541192
20
-17.3766339294131
30
0
41
1
10
-0.209350044376095
20
-17.4456203921356
30
0
41
1
10
-0.199994500672261
20
-17.4938412312526
30
0
41
1
10
-0.200000000000046
20
-17.5191688355708
30
0
0
SPLINE
5
1C3
100
AcDbEntity
8
1
62
256
6
ByLayer
370
-1
48
1
60
0
100
AcDbSpline
70
4
71
3
72
20
73
16
40
0
40
0
40
0
40
0
40
0.0952004618496288
40
0.0952004618496288
40
0.224457538728252
40
0.224457538728252
40
0.4829716924855
40
0.4829716924855
40
0.612228769364125
40
0.612228769364125
40
0.74148584624275
40
0.74148584624275
40
0.870742923121375
40
0.870742923121375
40
1
40
1
40
1
40
1
41
1
10
103.30157790302
20
12.0899591306369
30
0
41
1
10
103.874963926579
20
12.2331099646172
30
0
41
1
10
104.448986884866
20
12.372314749798
30
0
41
1
10
105.803024700863
20
12.6907059723723
30
0
41
1
10
106.581957490368
20
12.8660260695606
30
0
41
1
10
108.916151630692
20
13.3681594444031
30
0
41
1
10
110.468770828121
20
13.6709580791297
30
0
41
1
10
112.797509704115
20
14.0713020244571
30
0
41
1
10
113.573959230227
20
14.1955922440086
30
0
41
1
10
115.126735740586
20
14.4265708382723
30
0
41
1
10
115.902883729967
20
14.5333813180573
30
0
41
1
10
117.455997071207
20
14.7285360962704
30
0
41
1
10
118.232076976764
20
14.8175408438396
30
0
41
1
10
119.785937067644
20
14.9764058974252
30
0
41
1
10
120.562855325943
20
15.046855663887
30
0
41
1
10
121.340283173087
20
15.1078944482529
30
0
0
SPLINE
5
1C4
100
AcDbEntity
8
1
62
256
6
ByLayer
370
-1
48
1
60
0
100
AcDbSpline
70
4
71
3
72
10
73
6
40
0
40
0
40
0
40
0
40
0.5
40
0.5
40
1
40
1
40
1
40
1
41
1
10
128.206538561415
20
5.55452945975395
30
0
41
1
10
128.62424197343
20
5.3416288574293
30
0
41
1
10
129.056923806594
20
5.15500791599052
30
0
41
1
10
129.967192435058
20
4.84489969917644
30
0
41
1
10
130.444938396214
20
4.72136665135486
30
0
41
1
10
130.954644326992
20
4.63923140558597
30
0
0
SPLINE
5
1C5
100
AcDbEntity
8
1
62
256
6
ByLayer
370
-1
48
1
60
0
100
AcDbSpline
70
4
71
3
72
20
73
16
40
0
40
0
40
0
40
0
40
0.25
40
0.25
40
0.375
40
0.375
40
0.5
40
0.5
40
0.625
40
0.625
40
0.75
40
0.75
40
0.875
40
0.875
40
1
40
1
40
1
40
1
41
1
10
26.0157853790299
20
7.7607117604266
30
0
41
1
10
25.9131998743366
20
8.11769131688089
30
0
41
1
10
25.8363730164452
20
8.48205991404521
30
0
41
1
10
25.7569861386105
20
9.02846547585887
30
0
41
1
10
25.7365631212798
20
9.21124329173963
30
0
41
1
10
25.7086215333798
20
9.5726952672172
30
0
41
1
10
25.7010885999858
20
9.75104116644087
30
0
41
1
10
25.6991302909458
20
10.1023323211666
30
0
41
1
10
25.7047106816227
20
10.2752722860687
30
0
41
1
10
25.729433812324
20
10.6161526502098
30
0
41
1
10
25.7485820651603
20
10.7840967840671
30
0
41
1
10
25.8009342023856
20
11.1164765141483
30
0
41
1
10
25.8342423033214
20
11.2812880775835
30
0
41
1
10
25.9147673096899
20
11.6078166862406
30
0
41
1
10
25.9619095050582
20
11.7694006163713
30
0
41
1
10
26.0157853790297
20
11.9312081321431
30
0
0
SPLINE
5
1C6
100
AcDbEntity
8
1
62
256
6
ByLayer
370
-1
48
1
60
0
100
AcDbSpline
70
4
71
4
72
19
73
14
40
0
40
0
40
0
40
0
40
0
40
0.412563790319894
40
0.412563790319894
40
0.412563790319894
40
0.618845685479842
40
0.618845685479842
40
0.618845685479842
40
0.825127580639789
40
0.825127580639789
40
0.825127580639789
40
1
40
1
40
1
40
1
40
1
41
1
10
46.4089047872284
20
4.80500519803675
30
0
41
1
10
46.4089047872284
20
4.03402351000153
30
0
41
0.974581796258695
10
46.2562159492181
20
2.58272704345671
30
0
41
0.974581796258695
10
45.8613952227139
20
0.463087286168508
30
0
41
0.987290898129348
10
45.1460423718118
20
-2.7063754454095
30
0
41
0.993645449064674
10
44.8920396385191
20
-3.74095952316679
30
0
41
1
10
44.6367516996362
20
-4.69995596987752
30
0
41
1
10
44.1632483003676
20
-6.36561490173466
30
0
41
0.993645449064674
10
43.9079603614846
20
-7.20268849909335
30
0
41
0.987290898129348
10
43.6539576281919
20
-7.9551324430085
30
0
41
0.979463213255178
10
43.2155592379379
20
-9.09708974632254
30
0
41
0.977394138799034
10
43.0277741423604
20
-9.51989525919734
30
0
41
0.978137766521441
10
42.865873603991
20
-9.80422765298629
30
0
41
0.980796620403866
10
42.7351317859965
20
-9.94889127691612
30
0
0
SPLINE
5
1C7
100
AcDbEntity
8
1
62
256
6
ByLayer
370
-1
48
1
60
0
100
AcDbSpline
70
4
71
3
72
8
73
4
40
0
40
0
40
0
40
0
40
1
40
1
40
1
40
1
41
1
10
42.4711003089894
20
-9.96106010140872
30
0
41
1
10
41.9746590053945
20
-9.81984984741837
30
0
41
1
10
41.4919807397559
20
-9.63056603191353
30
0
41
1
10
41.0217268835386
20
-9.3935890158283
30
0
0
SPLINE
5
1C8
100
AcDbEntity
8
1
62
256
6
ByLayer
370
-1
48
1
60
0
100
AcDbSpline
70
4
71
3
72
10
73
6
40
0
40
0
40
0
40
0
40
0.5
40
0.5
40
1
40
1
40
1
40
1
41
1
10
30.3190016996119
20
0.364331951181669
30
0
41
1
10
30.1575917575862
20
0.557064056504487
30
0
41
1
10
29.999827330065
20
0.765495910947891
30
0
41
1
10
29.6908170719917
20
1.21294818683302
30
0
41
1
10
29.5395728959487
20
1.4519672252523
30
0
41
1
10
29.3914213440329
20
1.70672399920508
30
0
0
SPLINE
5
1C9
100
AcDbEntity
8
1
62
256
6
ByLayer
370
-1
48
1
60
0
100
AcDbSpline
70
4
71
4
72
13
73
8
40
0
40
0
40
0
40
0
40
0
40
0.157920700540129
40
0.157920700540129
40
0.157920700540129
40
1
40
1
40
1
40
1
40
1
41
0.999874793364101
10
123.15780759217
20
4.17286622723526
30
0
41
0.99993453816909
10
123.182590278006
20
4.2136241457897
30
0
41
0.999977183044784
10
123.20709582084
20
4.25539164798431
30
0
41
1
10
123.231314785555
20
4.29812990429878
30
0
41
1
10
123.382805467969
20
4.57464125003204
30
0
41
0.99935123778335
10
123.507472863824
20
4.84395588020397
30
0
41
0.998506895453587
10
123.626667689595
20
5.14906228226702
30
0
41
0.997709113211483
10
123.738417072378
20
5.48673205047107
30
0
0
SPLINE
5
1CA
100
AcDbEntity
8
1
62
256
6
ByLayer
370
-1
48
1
60
0
100
AcDbSpline
70
4
71
3
72
14
73
10
40
0
40
0
40
0
40
0
40
0.232147462812554
40
0.232147462812554
40
0.488098308541703
40
0.488098308541703
40
0.744049154270851
40
0.744049154270851
40
1
40
1
40
1
40
1
41
1
10
77.861933073755
20
15.39999025707
30
0
41
1
10
80.3659472354853
20
15.4001553360536
30
0
41
1
10
82.8612256460628
20
15.3005679270856
30
0
41
1
10
88.1051276049809
20
14.8878704132168
30
0
41
1
10
90.8536158190293
20
14.5543042236196
30
0
41
1
10
96.3643352013185
20
13.6659647891655
30
0
41
1
10
99.1264387582139
20
13.110583127075
30
0
41
1
10
104.682286371239
20
11.7982813972297
30
0
41
1
10
107.455700454199
20
11.0467164193229
30
0
41
1
10
110.233236962261
20
10.215346421897
30
0
0
SPLINE
5
1CB
100
AcDbEntity
8
1
62
256
6
ByLayer
370
-1
48
1
60
0
100
AcDbSpline
70
4
71
3
72
30
73
26
40
0
40
0
40
0
40
0
40
0.125
40
0.125
40
0.1875
40
0.1875
40
0.25
40
0.25
40
0.375000000000001
40
0.375000000000001
40
0.500000000000001
40
0.500000000000001
40
0.562500000000001
40
0.562500000000001
40
0.593750000000001
40
0.593750000000001
40
0.625000000000001
40
0.625000000000001
40
0.75
40
0.75
40
0.875
40
0.875
40
0.9375
40
0.9375
40
1
40
1
40
1
40
1
41
1
10
28.3045612896001
20
3.68294832643332
30
0
41
1
10
28.4413911638659
20
3.09985572270915
30
0
41
1
10
28.5890677973251
20
2.51509305542473
30
0
41
1
10
28.8273077349801
20
1.63522694474466
30
0
41
1
10
28.9093740667613
20
1.34207040458713
30
0
41
1
10
29.0773689094312
20
0.761064331012506
30
0
41
1
10
29.1634912098417
20
0.472491007866069
30
0
41
1
10
29.428201607709
20
-0.387461732114872
30
0
41
1
10
29.6131049229778
20
-0.953093851611783
30
0
41
1
10
30.0002744524174
20
-2.06866743421597
30
0
41
1
10
30.2025342565768
20
-2.61861369908442
30
0
41
1
10
30.5200550399222
20
-3.4309842775518
30
0
41
1
10
30.6282586620639
20
-3.69967718279071
30
0
41
1
10
30.7943360779236
20
-4.09941000389426
30
0
41
1
10
30.8503918454445
20
-4.23225405031445
30
0
41
1
10
30.9630827392819
20
-4.49513420820904
30
0
41
1
10
31.019790667437
20
-4.62535038993306
30
0
41
1
10
31.3051757064934
20
-5.27030834391252
30
0
41
1
10
31.5393562837573
20
-5.76675287594821
30
0
41
1
10
32.0208088000022
20
-6.71939380152739
30
0
41
1
10
32.2680684309308
20
-7.17561122648186
30
0
41
1
10
32.6505283841977
20
-7.82728431967615
30
0
41
1
10
32.7802132648914
20
-8.03945134217065
30
0
41
1
10
33.042606022907
20
-8.45018630667875
30
0
41
1
10
33.1750431585823
20
-8.64836952028526
30
0
41
1
10
33.3088712852312
20
-8.83911579641884
30
0
0
SPLINE
5
1CC
100
AcDbEntity
8
1
62
256
6
ByLayer
370
-1
48
1
60
0
100
AcDbSpline
70
4
71
3
72
8
73
4
40
0
40
0
40
0
40
0
40
1
40
1
40
1
40
1
41
1
10
26.0157853790299
20
7.7607117604266
30
0
41
1
10
26.1424013453135
20
7.32011041407532
30
0
41
1
10
26.3041885779731
20
6.88697304602999
30
0
41
1
10
26.5
20
6.46157386768576
30
0
0
SPLINE
5
1CD
100
AcDbEntity
8
1
62
256
6
ByLayer
370
-1
48
1
60
0
100
AcDbSpline
70
4
71
3
72
32
73
28
40
0
40
0
40
0
40
0
40
0.0624999999999964
40
0.0624999999999964
40
0.124999999999993
40
0.124999999999993
40
0.249999999999992
40
0.249999999999992
40
0.312499999999994
40
0.312499999999994
40
0.374999999999996
40
0.437499999999998
40
0.437499999999998
40
0.5
40
0.5
40
0.625000000000002
40
0.625000000000002
40
0.656250000000003
40
0.656250000000003
40
0.687500000000004
40
0.687500000000004
40
0.750000000000002
40
0.812499999999999
40
0.812499999999999
40
0.874999999999997
40
0.874999999999997
40
1
40
1
40
1
40
1
41
1
10
133.272539960337
20
2.94609841403135
30
0
41
1
10
133.376614308012
20
2.97712077034788
30
0
41
1
10
133.47501462994
20
3.00935068631989
30
0
41
1
10
133.660228985625
20
3.07627633967152
30
0
41
1
10
133.747346548143
20
3.11114760993536
30
0
41
1
10
133.984608498094
20
3.21693712889029
30
0
41
1
10
134.113176612697
20
3.28969068834888
30
0
41
1
10
134.261351845131
20
3.40218194555749
30
0
41
1
10
134.303215003839
20
3.44035926218416
30
0
41
1
10
134.369595071937
20
3.5158987512564
30
0
41
1
10
134.419356665362
20
3.59109311161163
30
0
41
1
10
134.43637663902
20
3.6656075014252
30
0
41
1
10
134.43661591184
20
3.73977339344546
30
0
41
1
10
134.428197159041
20
3.77667787346735
30
0
41
1
10
134.378316288972
20
3.88399367831758
30
0
41
1
10
134.312692791918
20
3.95204176801855
30
0
41
1
10
134.189644931313
20
4.03267205416677
30
0
41
1
10
134.162878301701
20
4.04861115229679
30
0
41
1
10
134.105817682591
20
4.07964965241183
30
0
41
1
10
134.075472674188
20
4.09479031523367
30
0
41
1
10
133.979102906821
20
4.13909935579144
30
0
41
1
10
133.836416945071
20
4.19521710844185
30
0
41
1
10
133.665657325472
20
4.24547806092406
30
0
41
1
10
133.480459788206
20
4.29272693713597
30
0
41
1
10
133.381299266791
20
4.31464114047296
30
0
41
1
10
133.069470176619
20
4.37433488809063
30
0
41
1
10
132.840836376196
20
4.40661591429893
30
0
41
1
10
132.590986140113
20
4.43121237410139
30
0
0
SPLINE
5
1CE
100
AcDbEntity
8
1
62
256
6
ByLayer
370
-1
48
1
60
0
100
AcDbSpline
70
4
71
3
72
8
73
4
40
0
40
0
40
0
40
0
40
1
40
1
40
1
40
1
41
1
10
33.3088712852312
20
-2.8731685718775
30
0
41
1
10
33.3088712852312
20
-4.8618176467246
30
0
41
1
10
33.3088712852312
20
-6.85046672157173
30
0
41
1
10
33.3088712852312
20
-8.83911579641884
30
0
0
SPLINE
5
1CF
100
AcDbEntity
8
1
62
256
6
ByLayer
370
-1
48
1
60
0
100
AcDbSpline
70
4
71
3
72
18
73
14
40
0
40
0
40
0
40
0
40
0.25
40
0.25
40
0.374999999999999
40
0.374999999999999
40
0.499999999999999
40
0.499999999999999
40
0.624999999999999
40
0.624999999999999
40
0.749999999999998
40
0.749999999999998
40
1
40
1
40
1
40
1
41
1
10
44
20
9.04198285676523
30
0
41
1
10
43.2921165865718
20
9.35212356472172
30
0
41
1
10
42.5717973303305
20
9.66117035664135
30
0
41
1
10
41.4775652720843
20
10.1419861894032
30
0
41
1
10
41.1092811271683
20
10.3058276414763
30
0
41
1
10
40.3815748898233
20
10.6380392714549
30
0
41
1
10
40.0210384212019
20
10.8068860044423
30
0
41
1
10
39.3084115723997
20
11.1537645358371
30
0
41
1
10
38.9563194197385
20
11.3317946049927
30
0
41
1
10
38.2624646013133
20
11.7009209989317
30
0
41
1
10
37.9202535927482
20
11.8922781030665
30
0
41
1
10
36.9149436432176
20
12.4905193579381
30
0
41
1
10
36.2882011263329
20
12.9125368245806
30
0
41
1
10
35.7089047872264
20
13.3695713733046
30
0
0
SPLINE
5
1D0
100
AcDbEntity
8
1
62
256
6
ByLayer
370
-1
48
1
60
0
100
AcDbSpline
70
4
71
3
72
8
73
4
40
0
40
0
40
0
40
0
40
1
40
1
40
1
40
1
41
1
10
127.32540852749
20
5.90138761741502
30
0
41
1
10
127.611919867643
20
5.77470383174534
30
0
41
1
10
127.90530048948
20
5.65898883463623
30
0
41
1
10
128.206538561415
20
5.55452945975398
30
0
0
SPLINE
5
1D1
100
AcDbEntity
8
1
62
256
6
ByLayer
370
-1
48
1
60
0
100
AcDbSpline
70
4
71
3
72
8
73
4
40
0
40
0
40
0
40
0
40
1
40
1
40
1
40
1
41
1
10
35.7089047872264
20
12.7667994317404
30
0
41
1
10
35.7089047872264
20
12.9677234122619
30
0
41
1
10
35.7089047872264
20
13.1686473927833
30
0
41
1
10
35.7089047872264
20
13.3695713733048
30
0
0
SPLINE
5
1D2
100
AcDbEntity
8
1
62
256
6
ByLayer
370
-1
48
1
60
0
100
AcDbSpline
70
4
71
3
72
16
73
12
40
0
40
0
40
0
40
0
40
0.250000000000001
40
0.250000000000001
40
0.500000000000001
40
0.500000000000001
40
0.750000000000002
40
0.750000000000002
40
0.875000000000001
40
0.875000000000001
40
1
40
1
40
1
40
1
41
1
10
11.8943375672974
20
-8.05584836782771
30
0
41
1
10
11.878892303015
20
-7.99849169434907
30
0
41
1
10
11.8604037172646
20
-7.94218253951252
30
0
41
1
10
11.8151421892069
20
-7.83248598676801
30
0
41
1
10
11.7882878950994
20
-7.77870179643023
30
0
41
1
10
11.7218733396747
20
-7.67767014498887
30
0
41
1
10
11.6822221825146
20
-7.63015704912689
30
0
41
1
10
11.6094109295817
20
-7.57464889660886
30
0
41
1
10
11.5822992776727
20
-7.5585498960358
30
0
41
1
10
11.5243601613892
20
-7.53610198950835
30
0
41
1
10
11.4930267682388
20
-7.5296667942647
30
0
41
1
10
11.4613248654053
20
-7.5296667942647
30
0
0
SPLINE
5
1D3
100
AcDbEntity
8
1
62
256
6
ByLayer
370
-1
48
1
60
0
100
AcDbSpline
70
4
71
3
72
22
73
18
40
0
40
0
40
0
40
0
40
0.249999999999999
40
0.249999999999999
40
0.375
40
0.375
40
0.4375
40
0.4375
40
0.5
40
0.5
40
0.625
40
0.625
40
0.75
40
0.75
40
0.875
40
0.875
40
1
40
1
40
1
40
1
41
1
10
33.3088712852312
20
-2.87316857187753
30
0
41
1
10
33.5976379484209
20
-3.2535805317911
30
0
41
1
10
33.9658490142008
20
-3.63245501051497
30
0
41
1
10
34.6256329145646
20
-4.2495273241359
30
0
41
1
10
34.8635743279491
20
-4.4632337055676
30
0
41
1
10
35.2470383800665
20
-4.80056665351105
30
0
41
1
10
35.3786588676288
20
-4.91523075435509
30
0
41
1
10
35.6467589333182
20
-5.1472584119694
30
0
41
1
10
35.7835823173661
20
-5.26492410597544
30
0
41
1
10
36.201847918774
20
-5.62298476813973
30
0
41
1
10
36.4910342070282
20
-5.8685105223631
30
0
41
1
10
37.0886033274384
20
-6.37187952683456
30
0
41
1
10
37.3969926733796
20
-6.62969768794306
30
0
41
1
10
38.033053718882
20
-7.15444470890671
30
0
41
1
10
38.3570489491628
20
-7.41828694110657
30
0
41
1
10
39.0170550847168
20
-7.94423698826864
30
0
41
1
10
39.3532402803258
20
-8.20649015171676
30
0
41
1
10
39.6966320431218
20
-8.46590018604851
30
0
0
SPLINE
5
1D4
100
AcDbEntity
8
1
62
256
6
ByLayer
370
-1
48
1
60
0
100
AcDbSpline
70
4
71
3
72
34
73
30
40
0
40
0
40
0
40
0
40
0.0741440522516669
40
0.0741440522516669
40
0.148288104503334
40
0.148288104503334
40
0.222432156755001
40
0.222432156755001
40
0.296576209006667
40
0.296576209006667
40
0.370720261258334
40
0.370720261258334
40
0.444864313510001
40
0.444864313510001
40
0.519008365761668
40
0.519008365761668
40
0.593152418013335
40
0.593152418013335
40
0.667296470265002
40
0.667296470265002
40
0.741440522516669
40
0.741440522516669
40
0.815584574768335
40
0.815584574768335
40
0.889728627020002
40
0.889728627020002
40
0.963872679271669
40
0.963872679271669
40
1
40
1
40
1
40
1
41
1
10
46.4089047872284
20
4.80500519803678
30
0
41
1
10
46.1061045037226
20
4.73031951385371
30
0
41
1
10
45.792639529737
20
4.61810163595811
30
0
41
1
10
45.1542959550868
20
4.32215125107328
30
0
41
1
10
44.8294280856749
20
4.1384237193333
30
0
41
1
10
44.1785766417212
20
3.70527578147946
30
0
41
1
10
43.8526040087032
20
3.4558626570556
30
0
41
1
10
43.209876326323
20
2.89924771634529
30
0
41
1
10
42.8931320819152
20
2.59205525736399
30
0
41
1
10
42.2789022732368
20
1.92961769962656
30
0
41
1
10
41.9814270348401
20
1.57438373716937
30
0
41
1
10
41.4151658451545
20
0.827122466677054
30
0
41
1
10
41.1463894133348
20
0.435107720920143
30
0
41
1
10
40.6460470092372
20
-0.373289493265588
30
0
41
1
10
40.4144894482616
20
-0.789658371654184
30
0
41
1
10
39.9959264072952
20
-1.63356578486326
30
0
41
1
10
39.8089279638062
20
-2.06109013267829
30
0
41
1
10
39.4854125029247
20
-2.91375634656785
30
0
41
1
10
39.3489009241805
20
-3.33888387839195
30
0
41
1
10
39.1306883046073
20
-4.17327984548103
30
0
41
1
10
39.0489909321709
20
-4.58253425363839
30
0
41
1
10
38.9429983732889
20
-5.37221008316681
30
0
41
1
10
38.918704968694
20
-5.75261822922457
30
0
41
1
10
38.9282923760158
20
-6.47254163406404
30
0
41
1
10
38.9621730267578
20
-6.81204479014687
30
0
41
1
10
39.087036484779
20
-7.43939459646077
30
0
41
1
10
39.1780171929671
20
-7.72723070025631
30
0
41
1
10
39.3536485965511
20
-8.11011764555667
30
0
41
1
10
39.4176248326759
20
-8.22834221933323
30
0
41
1
10
39.4877709348081
20
-8.33893377568455
30
0
0
SPLINE
5
1D5
100
AcDbEntity
8
1
62
256
6
ByLayer
370
-1
48
1
60
0
100
AcDbSpline
70
4
71
3
72
18
73
14
40
0
40
0
40
0
40
0
40
0.250000000000012
40
0.250000000000012
40
0.375000000000015
40
0.375000000000015
40
0.437500000000016
40
0.437500000000016
40
0.500000000000018
40
0.500000000000018
40
0.750000000000009
40
0.750000000000009
40
1
40
1
40
1
40
1
41
1
10
121.340283173087
20
15.1078944482529
30
0
41
1
10
121.088538139795
20
14.7972731088113
30
0
41
1
10
120.808879502769
20
14.5234371050791
30
0
41
1
10
120.352262707715
20
14.1616125332812
30
0
41
1
10
120.193900809304
20
14.0491172888479
30
0
41
1
10
119.948011094367
20
13.8913741597984
30
0
41
1
10
119.864659548475
20
13.8406226677373
30
0
41
1
10
119.695344952007
20
13.7425611982751
30
0
41
1
10
119.609196732601
20
13.6951731014726
30
0
41
1
10
119.176537723058
20
13.4682117385232
30
0
41
1
10
118.821965013307
20
13.3163000238831
30
0
41
1
10
118.104117481967
20
13.0430350855915
30
0
41
1
10
117.740880930238
20
12.9215474728225
30
0
41
1
10
117.373895692201
20
12.8132238136848
30
0
0
SPLINE
5
1D6
100
AcDbEntity
8
1
62
256
6
ByLayer
370
-1
48
1
60
0
100
AcDbSpline
70
4
71
3
72
38
73
34
40
0
40
0
40
0
40
0
40
0.0306137332151046
40
0.0306137332151046
40
0.0693891838865
40
0.0693891838865
40
0.224490986572082
40
0.224490986572082
40
0.263266437243477
40
0.263266437243477
40
0.302041887914873
40
0.302041887914873
40
0.379592789257665
40
0.379592789257665
40
0.457143690600456
40
0.457143690600456
40
0.534694591943248
40
0.534694591943248
40
0.689796394628831
40
0.689796394628831
40
0.767347295971623
40
0.767347295971623
40
0.844898197314415
40
0.844898197314415
40
0.883673647985811
40
0.883673647985811
40
0.903061373321509
40
0.903061373321509
40
0.922449098657207
40
0.922449098657207
40
0.961224549328604
40
0.961224549328604
40
1
40
1
40
1
40
1
41
1
10
98.8483351498069
20
-11.4779811648121
30
0
41
1
10
98.2723625096493
20
-11.6125998062672
30
0
41
1
10
97.6961078331854
20
-11.7433576356997
30
0
41
1
10
96.3907372314071
20
-12.0303840758334
30
0
41
1
10
95.6617029138244
20
-12.1841946398837
30
0
41
1
10
92.0178130239831
20
-12.9195246970532
30
0
41
1
10
89.1068653749778
20
-13.4005908748745
30
0
41
1
10
85.4629106615009
20
-13.8514802259296
30
0
41
1
10
84.7338147311988
20
-13.9342525195824
30
0
41
1
10
83.2746677249488
20
-14.0849727761555
30
0
41
1
10
82.5447375922054
20
-14.1529300813178
30
0
41
1
10
80.35704172779
20
-14.3335046111067
30
0
41
1
10
78.9002619734237
20
-14.4224308716502
30
0
41
1
10
75.987864633037
20
-14.5329669261886
30
0
41
1
10
74.5319432943002
20
-14.5556032661522
30
0
41
1
10
71.6181492346955
20
-14.5381361953134
30
0
41
1
10
70.1601784470795
20
-14.4977622216673
30
0
41
1
10
65.7813912298127
20
-14.283511055637
30
0
41
1
10
62.8694131323726
20
-14.0165745253644
30
0
41
1
10
58.4988494256903
20
-13.434150525538
30
0
41
1
10
57.0413401758038
20
-13.2091538230868
30
0
41
1
10
54.123703482031
20
-12.7026689378682
30
0
41
1
10
52.6665665282773
20
-12.4225218618918
30
0
41
1
10
50.482446201117
20
-11.9594634605229
30
0
41
1
10
49.754376123179
20
-11.7996436361877
30
0
41
1
10
48.6626362924261
20
-11.548162131025
30
0
41
1
10
48.2987202725203
20
-11.4627402523355
30
0
41
1
10
47.5707285143213
20
-11.2895457259544
30
0
41
1
10
47.2066720061324
20
-11.201669731227
30
0
41
1
10
46.1146141949177
20
-10.931865265735
30
0
41
1
10
45.3865053330667
20
-10.7451441162276
30
0
41
1
10
43.9293972929483
20
-10.3616162437049
30
0
41
1
10
43.2004543652655
20
-10.1644955870578
30
0
41
1
10
42.4711003089885
20
-9.96106010140858
30
0
0
SPLINE
5
1D7
100
AcDbEntity
8
1
62
256
6
ByLayer
370
-1
48
1
60
0
100
AcDbSpline
70
4
71
3
72
16
73
12
40
0
40
0
40
0
40
0
40
0.125000000000002
40
0.125000000000002
40
0.250000000000004
40
0.250000000000004
40
0.500000000000002
40
0.500000000000002
40
0.750000000000001
40
0.750000000000001
40
1
40
1
40
1
40
1
41
1
10
11.4613248654052
20
-23.8391299750503
30
0
41
1
10
11.4930777586346
20
-23.8391299750504
30
0
41
1
10
11.523990670531
20
-23.8371392949586
30
0
41
1
10
11.582404000511
20
-23.829983326401
30
0
41
1
10
11.6089650834003
20
-23.824989671385
30
0
41
1
10
11.6829561422921
20
-23.8070141183761
30
0
41
1
10
11.7219265489987
20
-23.7919105160783
30
0
41
1
10
11.7882603826481
20
-23.7591079584198
30
0
41
1
10
11.8148780607232
20
-23.7416171457992
30
0
41
1
10
11.8602443227467
20
-23.7051129235882
30
0
41
1
10
11.8788862370738
20
-23.6860331168061
30
0
41
1
10
11.8943375672975
20
-23.6665017920809
30
0
0
SPLINE
5
1D8
100
AcDbEntity
8
1
62
256
6
ByLayer
370
-1
48
1
60
0
100
AcDbSpline
70
4
71
3
72
16
73
12
40
0
40
0
40
0
40
0
40
0.124999999999998
40
0.124999999999998
40
0.249999999999997
40
0.249999999999997
40
0.499999999999996
40
0.499999999999996
40
0.749999999999998
40
0.749999999999998
40
1
40
1
40
1
40
1
41
1
10
8.5386751345948
20
-7.52966679426501
30
0
41
1
10
8.50692224136537
20
-7.52966679426501
30
0
41
1
10
8.47600932946898
20
-7.53597576299643
30
0
41
1
10
8.41759599948892
20
-7.558573617501
30
0
41
1
10
8.39103491659966
20
-7.57431556968106
30
0
41
1
10
8.31704385770789
20
-7.63070347545334
30
0
41
1
10
8.27807345100129
20
-7.67774765104227
30
0
41
1
10
8.21173961735187
20
-7.7786633825045
30
0
41
1
10
8.18512193927671
20
-7.83191947486043
30
0
41
1
10
8.13975567725325
20
-7.94172327888185
30
0
41
1
10
8.12111376292617
20
-7.99846916820704
30
0
41
1
10
8.10566243270242
20
-8.05584836782768
30
0
0
SPLINE
5
1D9
100
AcDbEntity
8
1
62
256
6
ByLayer
370
-1
48
1
60
0
100
AcDbSpline
70
4
71
3
72
10
73
6
40
0
40
0
40
0
40
0
40
0.5
40
0.5
40
1
40
1
40
1
40
1
41
1
10
132.780264078335
20
10.6837341625843
30
0
41
1
10
132.787074982644
20
10.6837341625843
30
0
41
1
10
132.804453353213
20
10.6977116772935
30
0
41
1
10
132.856720254649
20
10.745848641158
30
0
41
1
10
132.890415980112
20
10.7786646194951
30
0
41
1
10
132.930267677354
20
10.8158363024099
30
0
0
SPLINE
5
1DA
100
AcDbEntity
8
1
62
256
6
ByLayer
370
-1
48
1
60
0
100
AcDbSpline
70
4
71
3
72
14
73
10
40
0
40
0
40
0
40
0
40
0.133401395629406
40
0.133401395629406
40
0.42226759708627
40
0.42226759708627
40
0.711133798543135
40
0.711133798543135
40
1
40
1
40
1
40
1
41
1
10
136.040303588877
20
5.14906864672685
30
0
41
1
10
136.025483835082
20
5.13560471782733
30
0
41
1
10
136.010860381386
20
5.12275703167091
30
0
41
1
10
135.965391453952
20
5.08402934310533
30
0
41
1
10
135.935260193012
20
5.06023849934331
30
0
41
1
10
135.880752558612
20
5.02000841595262
30
0
41
1
10
135.856757788091
20
5.00381339786458
30
0
41
1
10
135.819265798319
20
4.98100451901334
30
0
41
1
10
135.806658824936
20
4.97491603537591
30
0
41
1
10
135.801797683504
20
4.97491603537591
30
0
0
SPLINE
5
1DB
100
AcDbEntity
8
1
62
256
6
ByLayer
370
-1
48
1
60
0
100
AcDbSpline
70
4
71
3
72
36
73
32
40
0
40
0
40
0
40
0
40
0.124999999999986
40
0.124999999999986
40
0.18749999999998
40
0.18749999999998
40
0.249999999999973
40
0.249999999999973
40
0.312499999999966
40
0.312499999999966
40
0.374999999999959
40
0.374999999999959
40
0.406249999999963
40
0.406249999999963
40
0.437499999999966
40
0.437499999999966
40
0.46874999999997
40
0.46874999999997
40
0.499999999999974
40
0.499999999999974
40
0.562499999999977
40
0.562499999999977
40
0.62499999999998
40
0.62499999999998
40
0.687499999999984
40
0.687499999999984
40
0.749999999999987
40
0.749999999999987
40
0.874999999999994
40
0.874999999999994
40
1
40
1
40
1
40
1
41
1
10
141.448687740406
20
-10.1401568347009
30
0
41
1
10
141.290431553497
20
-10.1814559810452
30
0
41
1
10
141.133645361548
20
-10.2259747176811
30
0
41
1
10
140.901962412668
20
-10.3003537649699
30
0
41
1
10
140.825325033541
20
-10.3264297997836
30
0
41
1
10
140.673650345088
20
-10.3820483278023
30
0
41
1
10
140.59833087775
20
-10.4117024047586
30
0
41
1
10
140.452095110668
20
-10.4751190949022
30
0
41
1
10
140.38103101441
20
-10.508879303597
30
0
41
1
10
140.24522088297
20
-10.5826913050474
30
0
41
1
10
140.179842155971
20
-10.6230467100259
30
0
41
1
10
140.092376833307
20
-10.6903823137801
30
0
41
1
10
140.065073037196
20
-10.7139139044624
30
0
41
1
10
140.015600834561
20
-10.763986824673
30
0
41
1
10
139.993742403897
20
-10.7902819141164
30
0
41
1
10
139.958525970804
20
-10.8450006504957
30
0
41
1
10
139.94492757212
20
-10.8738651188389
30
0
41
1
10
139.929175364444
20
-10.9334708195464
30
0
41
1
10
139.927185472137
20
-10.9633570447799
30
0
41
1
10
139.939576275128
20
-11.0532745742171
30
0
41
1
10
139.972707221953
20
-11.1098943340144
30
0
41
1
10
140.063338231315
20
-11.2089586543758
30
0
41
1
10
140.12115728917
20
-11.2529629066638
30
0
41
1
10
140.245553666466
20
-11.3315193157775
30
0
41
1
10
140.312598763155
20
-11.3664391682853
30
0
41
1
10
140.452491487838
20
-11.4310764752657
30
0
41
1
10
140.525565343707
20
-11.4607663820345
30
0
41
1
10
140.74732104531
20
-11.5431188871224
30
0
41
1
10
140.899783783323
20
-11.5898837810583
30
0
41
1
10
141.209652191478
20
-11.6747867836162
30
0
41
1
10
141.367162200927
20
-11.7127398059884
30
0
41
1
10
141.526362688565
20
-11.7477662590751
30
0
0
SPLINE
5
1DC
100
AcDbEntity
8
1
62
256
6
ByLayer
370
-1
48
1
60
0
100
AcDbSpline
70
4
71
3
72
16
73
12
40
0
40
0
40
0
40
0
40
0.124999999999996
40
0.124999999999996
40
0.249999999999993
40
0.249999999999993
40
0.499999999999995
40
0.499999999999995
40
0.749999999999997
40
0.749999999999997
40
1
40
1
40
1
40
1
41
1
10
11.4613248654052
20
7.52966679426498
30
0
41
1
10
11.4930777586346
20
7.52966679426498
30
0
41
1
10
11.523990670531
20
7.5359757629964
30
0
41
1
10
11.5824040005111
20
7.558573617501
30
0
41
1
10
11.6089650834003
20
7.57431556968103
30
0
41
1
10
11.6829561422921
20
7.63070347545334
30
0
41
1
10
11.7219265489987
20
7.67774765104227
30
0
41
1
10
11.7882603826481
20
7.7786633825045
30
0
41
1
10
11.8148780607233
20
7.8319194748604
30
0
41
1
10
11.8602443227468
20
7.94172327888182
30
0
41
1
10
11.8788862370738
20
7.99846916820701
30
0
41
1
10
11.8943375672975
20
8.05584836782765
30
0
0
SPLINE
5
1DD
100
AcDbEntity
8
1
62
256
6
ByLayer
370
-1
48
1
60
0
100
AcDbSpline
70
4
71
3
72
92
73
88
40
-0.0312499999999977
40
-0.0312499999999977
40
0
40
0
40
0.0312499999999989
40
0.0312499999999989
40
0.0468749999999978
40
0.0468749999999978
40
0.0624999999999968
40
0.0624999999999968
40
0.0937499999999948
40
0.0937499999999948
40
0.124999999999993
40
0.124999999999993
40
0.156249999999991
40
0.156249999999991
40
0.17187499999999
40
0.17187499999999
40
0.187499999999989
40
0.203124999999988
40
0.203124999999988
40
0.218749999999987
40
0.218749999999987
40
0.249999999999992
40
0.249999999999992
40
0.281249999999996
40
0.281249999999996
40
0.312500000000001
40
0.312500000000001
40
0.328125
40
0.328125
40
0.34375
40
0.34375
40
0.374999999999998
40
0.374999999999998
40
0.406249999999996
40
0.406249999999996
40
0.421874999999995
40
0.421874999999995
40
0.437499999999994
40
0.437499999999994
40
0.468749999999993
40
0.468749999999993
40
0.484374999999992
40
0.484374999999992
40
0.499999999999991
40
0.499999999999991
40
0.531249999999989
40
0.531249999999989
40
0.562499999999987
40
0.562499999999987
40
0.578124999999986
40
0.578124999999986
40
0.593749999999986
40
0.593749999999986
40
0.624999999999984
40
0.624999999999984
40
0.640624999999985
40
0.640624999999985
40
0.656249999999987
40
0.656249999999987
40
0.68749999999999
40
0.68749999999999
40
0.718749999999993
40
0.718749999999993
40
0.749999999999996
40
0.749999999999996
40
0.765624999999998
40
0.765624999999998
40
0.78125
40
0.796875000000001
40
0.796875000000001
40
0.812500000000003
40
0.812500000000003
40
0.843750000000006
40
0.843750000000006
40
0.859375000000007
40
0.859375000000007
40
0.875000000000009
40
0.875000000000009
40
0.906250000000007
40
0.906250000000007
40
0.937500000000004
40
0.937500000000004
40
0.953125000000003
40
0.953125000000003
40
0.968750000000002
40
0.968750000000002
40
1
40
1
40
1.03125
40
1.03125
41
1
10
136.4168538475
20
-3.05784203688481
30
0
41
1
10
136.404264281782
20
-2.81427666181162
30
0
41
1
10
136.409655604062
20
-2.69355895873355
30
0
41
1
10
136.434888028723
20
-2.51406103545432
30
0
41
1
10
136.446176240775
20
-2.45449371960402
30
0
41
1
10
136.474686873859
20
-2.3359141093087
30
0
41
1
10
136.492018469144
20
-2.27666117828826
30
0
41
1
10
136.552031213996
20
-2.10345664620758
30
0
41
1
10
136.602802654031
20
-1.99299238855207
30
0
41
1
10
136.725914337811
20
-1.78218496048922
30
0
41
1
10
136.799152787724
20
-1.68111919477252
30
0
41
1
10
136.961830207499
20
-1.49814753734373
30
0
41
1
10
137.051645154665
20
-1.4151903934187
30
0
41
1
10
137.199381936464
20
-1.30391544761582
30
0
41
1
10
137.250992996623
20
-1.26896284036016
30
0
41
1
10
137.356330134742
20
-1.20509710489938
30
0
41
1
10
137.46428369047
20
-1.14684336968264
30
0
41
1
10
137.577378568485
20
-1.09963111954678
30
0
41
1
10
137.69307498239
20
-1.05801188212166
30
0
41
1
10
137.752509876758
20
-1.03993062005253
30
0
41
1
10
137.932823652844
20
-0.994935091048831
30
0
41
1
10
138.054231790313
20
-0.977405400518819
30
0
41
1
10
138.299376113986
20
-0.966570506961688
30
0
41
1
10
138.424440377982
20
-0.973615502079468
30
0
41
1
10
138.667340356201
20
-1.01210123748604
30
0
41
1
10
138.785849995416
20
-1.04323679704055
30
0
41
1
10
138.959163128694
20
-1.10792185479954
30
0
41
1
10
139.016435812603
20
-1.13265251874944
30
0
41
1
10
139.127075893991
20
-1.18719495225756
30
0
41
1
10
139.180686890556
20
-1.21706755087396
30
0
41
1
10
139.336504936615
20
-1.31430699502061
30
0
41
1
10
139.434099685509
20
-1.38955851086911
30
0
41
1
10
139.613933367153
20
-1.5596444880122
30
0
41
1
10
139.693927792166
20
-1.65222102267441
30
0
41
1
10
139.799652348351
20
-1.80184626137228
30
0
41
1
10
139.832498592065
20
-1.85352804521167
30
0
41
1
10
139.893296998169
20
-1.96057167693326
30
0
41
1
10
139.921098734993
20
-2.01574097565248
30
0
41
1
10
139.995462695752
20
-2.18316581382456
30
0
41
1
10
140.03369665665
20
-2.29839349376061
30
0
41
1
10
140.074279312803
20
-2.47651372714452
30
0
41
1
10
140.085020130215
20
-2.53709377804233
30
0
41
1
10
140.100458915639
20
-2.65794166024605
30
0
41
1
10
140.10521297962
20
-2.71829475925963
30
0
41
1
10
140.110864762897
20
-2.89914198738481
30
0
41
1
10
140.103231534737
20
-3.01942416430035
30
0
41
1
10
140.064723763156
20
-3.25942278826452
30
0
41
1
10
140.034316788127
20
-3.37594543809669
30
0
41
1
10
139.972986527147
20
-3.54470138121368
30
0
41
1
10
139.949893190209
20
-3.60000587108016
30
0
41
1
10
139.898309291458
20
-3.70870124006731
30
0
41
1
10
139.869645547851
20
-3.76235956899893
30
0
41
1
10
139.776800197261
20
-3.91775127020512
30
0
41
1
10
139.705853670658
20
-4.01424447049718
30
0
41
1
10
139.585881365709
20
-4.1485091807082
30
0
41
1
10
139.54361565719
20
-4.19150581130961
30
0
41
1
10
139.454327510336
20
-4.27385235716164
30
0
41
1
10
139.407372323956
20
-4.31308434194949
30
0
41
1
10
139.262427300669
20
-4.42260310014726
30
0
41
1
10
139.15942850329
20
-4.48572938433495
30
0
41
1
10
138.940228444852
20
-4.59172967698777
30
0
41
1
10
138.823111604035
20
-4.63455054872816
30
0
41
1
10
138.58619299693
20
-4.69477188068933
30
0
41
1
10
138.465176584955
20
-4.7129462671659
30
0
41
1
10
138.279631929911
20
-4.72150925334293
30
0
41
1
10
138.217340026582
20
-4.72116811770687
30
0
41
1
10
138.094470626406
20
-4.7142261450999
30
0
41
1
10
137.972577123265
20
-4.7010715505605
30
0
41
1
10
137.852601167778
20
-4.67569401545151
30
0
41
1
10
137.733594336065
20
-4.64412381542203
30
0
41
1
10
137.674412236682
20
-4.62514377921329
30
0
41
1
10
137.502297307809
20
-4.56020922299834
30
0
41
1
10
137.393436787947
20
-4.50607510790559
30
0
41
1
10
137.238623843967
20
-4.40908272186741
30
0
41
1
10
137.188205720542
20
-4.373896864122
30
0
41
1
10
137.091984023551
20
-4.29944750742982
30
0
41
1
10
137.046054830289
20
-4.26014527738346
30
0
41
1
10
136.914559266541
20
-4.13620206502262
30
0
41
1
10
136.835042616768
20
-4.04532865019775
30
0
41
1
10
136.693614793279
20
-3.84822991982773
30
0
41
1
10
136.633417894878
20
-3.74449985614825
30
0
41
1
10
136.558150876966
20
-3.5813739710716
30
0
41
1
10
136.535585993393
20
-3.52573439839907
30
0
41
1
10
136.495607341913
20
-3.41185824941837
30
0
41
1
10
136.478185827789
20
-3.35348660467125
30
0
41
1
10
136.434668085421
20
-3.1774214669897
30
0
41
1
10
136.4168538475
20
-3.05784203688481
30
0
41
1
10
136.404264281782
20
-2.81427666181162
30
0
0
SPLINE
5
1DE
100
AcDbEntity
8
1
62
256
6
ByLayer
370
-1
48
1
60
0
100
AcDbSpline
70
4
71
3
72
16
73
12
40
0
40
0
40
0
40
0
40
0.25
40
0.25
40
0.5
40
0.5
40
0.75
40
0.75
40
0.875
40
0.875
40
1
40
1
40
1
40
1
41
1
10
8.10566243270259
20
8.05584836782774
30
0
41
1
10
8.12110769698498
20
7.9984916943491
30
0
41
1
10
8.1395962827354
20
7.94218253951252
30
0
41
1
10
8.18485781079312
20
7.83248598676801
30
0
41
1
10
8.21171210490061
20
7.77870179643023
30
0
41
1
10
8.27812666032528
20
7.67767014498889
30
0
41
1
10
8.31777781748545
20
7.63015704912689
30
0
41
1
10
8.39058907041826
20
7.57464889660889
30
0
41
1
10
8.41770072232734
20
7.5585498960358
30
0
41
1
10
8.47563983861082
20
7.53610198950835
30
0
41
1
10
8.50697323176118
20
7.5296667942647
30
0
41
1
10
8.53867513459474
20
7.5296667942647
30
0
0
SPLINE
5
1DF
100
AcDbEntity
8
1
62
256
6
ByLayer
370
-1
48
1
60
0
100
AcDbSpline
70
4
71
3
72
8
73
4
40
0
40
0
40
0
40
0
40
1
40
1
40
1
40
1
41
1
10
132.066702770102
20
2.6275681737821
30
0
41
1
10
131.281337261913
20
2.44844460921857
30
0
41
1
10
130.477151758932
20
2.3412678437283
30
0
41
1
10
129.666181521813
20
2.30982230087113
30
0
0
SPLINE
5
1E0
100
AcDbEntity
8
1
62
256
6
ByLayer
370
-1
48
1
60
0
100
AcDbSpline
70
4
71
3
72
10
73
6
40
0
40
0
40
0
40
0
40
0.5
40
0.5
40
1
40
1
40
1
40
1
41
1
10
130.95464432699
20
4.63923140558629
30
0
41
1
10
131.2376348466
20
4.59362962919928
30
0
41
1
10
131.520008353508
20
4.55379886772789
30
0
41
1
10
132.067473629334
20
4.48535824185029
30
0
41
1
10
132.333616337128
20
4.45654909626231
30
0
41
1
10
132.590986140113
20
4.43121237410139
30
0
0
SPLINE
5
1E1
100
AcDbEntity
8
1
62
256
6
ByLayer
370
-1
48
1
60
0
100
AcDbSpline
70
4
71
3
72
8
73
4
40
0
40
0
40
0
40
0
40
1
40
1
40
1
40
1
41
1
10
130.760129732638
20
-15.3655931289477
30
0
41
1
10
131.199051768851
20
-15.3725091073182
30
0
41
1
10
131.626165334086
20
-15.380923322339
30
0
41
1
10
132.041464447028
20
-15.387892389056
30
0
0
SPLINE
5
1E2
100
AcDbEntity
8
1
62
256
6
ByLayer
370
-1
48
1
60
0
100
AcDbSpline
70
4
71
3
72
8
73
4
40
0
40
0
40
0
40
0
40
1
40
1
40
1
40
1
41
1
10
41.0217271047693
20
-9.39358810988185
30
0
41
1
10
40.5765228236827
20
-9.09059334758436
30
0
41
1
10
40.1343787340528
20
-8.78207244397859
30
0
41
1
10
39.6966320433366
20
-8.4659001862108
30
0
0
SPLINE
5
1E3
100
AcDbEntity
8
1
62
256
6
ByLayer
370
-1
48
1
60
0
100
AcDbSpline
70
4
71
3
72
67
73
63
40
0
40
0
40
0
40
0
40
0.0295366473845553
40
0.0590732947691107
40
0.0738416184613884
40
0.088609942153666
40
0.118146589538222
40
0.132914913230499
40
0.147683236922777
40
0.177219884307332
40
0.19198820799961
40
0.206756531691888
40
0.236293179076443
40
0.251061502768721
40
0.265829826460998
40
0.295366473845554
40
0.310134797537832
40
0.324903121230109
40
0.354439768614665
40
0.369208092306943
40
0.38397641599922
40
0.406128901537637
40
0.413513063383775
40
0.428281387076053
40
0.443049710768331
40
0.465202196306747
40
0.472586358152886
40
0.487354681845164
40
0.502123005537442
40
0.524275491075858
40
0.531659652921997
40
0.546427976614275
40
0.561196300306553
40
0.583348785844969
40
0.590732947691108
40
0.605501271383386
40
0.620269595075663
40
0.649806242460218
40
0.664574566152496
40
0.679342889844774
40
0.708879537229329
40
0.723647860921607
40
0.738416184613885
40
0.76795283199844
40
0.782721155690718
40
0.797489479382995
40
0.827026126767551
40
0.841794450459829
40
0.856562774152106
40
0.886099421536662
40
0.893483583382801
40
0.900867745228939
40
0.915636068921217
40
0.923020230767356
40
0.930404392613495
40
0.942403655613471
40
0.945172716305772
40
0.947941776998074
40
0.959941039998051
40
0.974709363690328
40
0.989477687382606
40
1
40
1
40
1
40
1
41
1
10
35.7089047872267
20
12.766799431741
30
0
41
1
10
35.6338427819487
20
12.7243672083783
30
0
41
1
10
35.4810277733651
20
12.634867979211
30
0
41
1
10
35.2836249390654
20
12.5111990580142
30
0
41
1
10
35.1220782803828
20
12.4050622330345
30
0
41
1
10
34.9582120180254
20
12.2941129887378
30
0
41
1
10
34.7910113358866
20
12.175928174512
30
0
41
1
10
34.6207662054276
20
12.0504739084504
30
0
41
1
10
34.4486159628604
20
11.9201983168249
30
0
41
1
10
34.2737948322888
20
11.7827282003433
30
0
41
1
10
34.0966763740282
20
11.6381384859856
30
0
41
1
10
33.9181761279107
20
11.4888674710873
30
0
41
1
10
33.7378278459112
20
11.3326721524437
30
0
41
1
10
33.5560808198365
20
11.1697478241857
30
0
41
1
10
33.373571445415
20
11.0024442071321
30
0
41
1
10
33.1901737700281
20
10.8287317333059
30
0
41
1
10
33.0063982367856
20
10.648930555549
30
0
41
1
10
32.8225539970161
20
10.4652166311299
30
0
41
1
10
32.6388814955212
20
10.2758531706551
30
0
41
1
10
32.4559303284311
20
10.0812793419994
30
0
41
1
10
32.2964327003861
20
9.90814620910768
30
0
41
1
10
32.1605224205423
20
9.75682921927492
30
0
41
1
10
32.0254644021691
20
9.60338209121414
30
0
41
1
10
31.9134926092894
20
9.4742205629135
30
0
41
1
10
31.7579670514033
20
9.29116962641146
30
0
41
1
10
31.626152644855
20
9.13207924497399
30
0
41
1
10
31.4957368716849
20
8.97147015922658
30
0
41
1
10
31.3879737194421
20
8.83672859729901
30
0
41
1
10
31.2389613711121
20
8.64660388026604
30
0
41
1
10
31.1133804653859
20
8.4822557292259
30
0
41
1
10
30.9897011191602
20
8.31705061573487
30
0
41
1
10
30.887862302844
20
8.17889623709473
30
0
41
1
10
30.7477027317844
20
7.98477537820426
30
0
41
1
10
30.6302858564765
20
7.81784283891511
30
0
41
1
10
30.5152040743629
20
7.65072991616685
30
0
41
1
10
30.4207951836157
20
7.51140936627218
30
0
41
1
10
30.2730359660738
20
7.28858647168403
30
0
41
1
10
30.130385469581
20
7.06622483182699
30
0
41
1
10
29.993176113274
20
6.844977000433
30
0
41
1
10
29.8596707549033
20
6.62467036867267
30
0
41
1
10
29.7318362501558
20
6.40607352735026
30
0
41
1
10
29.6099023124688
20
6.18978245844053
30
0
41
1
10
29.4919435103192
20
5.97520011772849
30
0
41
1
10
29.3800095477213
20
5.7634381891969
30
0
41
1
10
29.2742246971664
20
5.55501131261346
30
0
41
1
10
29.1725474390997
20
5.34894708449534
30
0
41
1
10
29.0770438464546
20
5.14663574982504
30
0
41
1
10
28.9877384726096
20
4.94849515010219
30
0
41
1
10
28.9025439609226
20
4.75323962841091
30
0
41
1
10
28.833366334911
20
4.58631498368487
30
0
41
1
10
28.7778652997431
20
4.44623563136869
30
0
41
1
10
28.7418763676525
20
4.35367461733446
30
0
41
1
10
28.7074050804891
20
4.26238969999321
30
0
41
1
10
28.6744514540433
20
4.1724574102011
30
0
41
1
10
28.6454630141819
20
4.09167551070325
30
0
41
1
10
28.6223791818172
20
4.02549634590878
30
0
41
1
10
28.6046075241056
20
3.97340723310023
30
0
41
1
10
28.587020717485
20
3.92142261580511
30
0
41
1
10
28.5582220598154
20
3.83430289348931
30
0
41
1
10
28.5197179172328
20
3.71249766411995
30
0
41
1
10
28.4845749973637
20
3.59525516500426
30
0
41
1
10
28.4635277995943
20
3.52147135307789
30
0
41
1
10
28.4549760473524
20
3.49082755952108
30
0
0
SPLINE
5
1E4
100
AcDbEntity
8
1
62
256
6
ByLayer
370
-1
48
1
60
0
100
AcDbSpline
70
4
71
3
72
8
73
4
40
0
40
0
40
0
40
0
40
1
40
1
40
1
40
1
41
1
10
127.418661036129
20
2.58185949794702
30
0
41
1
10
127.046759108265
20
2.68174905589035
30
0
41
1
10
126.682802977584
20
2.79312178307597
30
0
41
1
10
126.325398412178
20
2.91852521385215
30
0
0
SPLINE
5
1E5
100
AcDbEntity
8
1
62
256
6
ByLayer
370
-1
48
1
60
0
100
AcDbSpline
70
4
71
3
72
8
73
4
40
0
40
0
40
0
40
0
40
1
40
1
40
1
40
1
41
1
10
30.3190019106015
20
0.364332733191219
30
0
41
1
10
31.3152244134596
20
-0.760399659373718
30
0
41
1
10
32.3113771087715
20
-1.84557605208693
30
0
41
1
10
33.3088712852312
20
-2.87316857187753
30
0
0
SPLINE
5
1E6
100
AcDbEntity
8
1
62
256
6
ByLayer
370
-1
48
1
60
0
100
AcDbSpline
70
4
71
3
72
17
73
13
40
0
40
0
40
0
40
0
40
0.0200154804807434
40
0.088213833621502
40
0.156412186762259
40
0.190511363332639
40
0.292808893043776
40
0.429205599325292
40
0.565602305606807
40
0.701999011888322
40
0.974792424451354
40
1
40
1
40
1
40
1
41
1
10
115.514341007909
20
10.5548582387566
30
0
41
1
10
115.484625407414
20
10.5515516765921
30
0
41
1
10
115.353684403501
20
10.5369385901483
30
0
41
1
10
115.121748407042
20
10.5107176070168
30
0
41
1
10
114.869510473794
20
10.4816232410239
30
0
41
1
10
114.567160162893
20
10.4462364976834
30
0
41
1
10
114.163638771193
20
10.3981355586399
30
0
41
1
10
113.60788559635
20
10.3296633016311
30
0
41
1
10
113.001488932908
20
10.2520542372412
30
0
41
1
10
112.193387482547
20
10.1446291309188
30
0
41
1
10
111.550353118785
20
10.0542168275072
30
0
41
1
10
111.109130593208
20
9.99002372445636
30
0
41
1
10
111.071807363627
20
9.98457835536342
30
0
0
SPLINE
5
1E7
100
AcDbEntity
8
1
62
256
6
ByLayer
370
-1
48
1
60
0
100
AcDbSpline
70
4
71
3
72
20
73
16
40
0
40
0
40
0
40
0
40
0.339241844271454
40
0.339241844271454
40
0.424052305339314
40
0.424052305339314
40
0.508862766407175
40
0.508862766407175
40
0.678483688542913
40
0.678483688542913
40
0.848104610678651
40
0.848104610678651
40
0.932915071746507
40
0.932915071746507
40
1
40
1
40
1
40
1
41
1
10
137.211494062577
20
10.2193736605843
30
0
41
1
10
137.235837973811
20
10.0032928072552
30
0
41
1
10
137.296025023674
20
9.78833537501734
30
0
41
1
10
137.424293847043
20
9.52374971052677
30
0
41
1
10
137.452719930172
20
9.47102673909896
30
0
41
1
10
137.514381735166
20
9.36794436070852
30
0
41
1
10
137.547716569307
20
9.31736010849602
30
0
41
1
10
137.65556776734
20
9.16874464188646
30
0
41
1
10
137.737830735537
20
9.07379971516443
30
0
41
1
10
137.926756782948
20
8.8945399520905
30
0
41
1
10
138.030839468488
20
8.81277429362748
30
0
41
1
10
138.201666862428
20
8.70457858040945
30
0
41
1
10
138.26112761192
20
8.67088855796752
30
0
41
1
10
138.372564209614
20
8.61530785516661
30
0
41
1
10
138.423104415547
20
8.59265274849241
30
0
41
1
10
138.474488648902
20
8.57215701527892
30
0
0
SPLINE
5
1E8
100
AcDbEntity
8
1
62
256
6
ByLayer
370
-1
48
1
60
0
100
AcDbSpline
70
4
71
3
72
12
73
8
40
0
40
0
40
0
40
0
40
0.315654275256113
40
0.315654275256113
40
0.657827137628056
40
0.657827137628056
40
1
40
1
40
1
40
1
41
1
10
137.334406711094
20
11.1185902722903
30
0
41
1
10
137.297735246604
20
11.030500421502
30
0
41
1
10
137.268819249323
20
10.9402817585098
30
0
41
1
10
137.223685925541
20
10.7478096057642
30
0
41
1
10
137.208751564332
20
10.6451813443903
30
0
41
1
10
137.1965159698
20
10.4346277077575
30
0
41
1
10
137.19932210696
20
10.3274140872488
30
0
41
1
10
137.211494062577
20
10.2193736605843
30
0
0
SPLINE
5
1E9
100
AcDbEntity
8
1
62
256
6
ByLayer
370
-1
48
1
60
0
100
AcDbSpline
70
4
71
3
72
14
73
10
40
0
40
0
40
0
40
0
40
0.25
40
0.25
40
0.5
40
0.5
40
0.75
40
0.75
40
1
40
1
40
1
40
1
41
1
10
129.666181521803
20
2.30982230087039
30
0
41
1
10
129.491395077864
20
2.30304491945495
30
0
41
1
10
129.312134927677
20
2.30378905978776
30
0
41
1
10
128.947013505496
20
2.31977122790127
30
0
41
1
10
128.761129207622
20
2.33502119100623
30
0
41
1
10
128.384033372169
20
2.38017125284793
30
0
41
1
10
128.192762734471
20
2.41008381140944
30
0
41
1
10
127.805825962114
20
2.48513555424111
30
0
41
1
10
127.61221664613
20
2.52987217851725
30
0
41
1
10
127.418661036129
20
2.58185949794719
30
0
0
SPLINE
5
1EA
100
AcDbEntity
8
1
62
256
6
ByLayer
370
-1
48
1
60
0
100
AcDbSpline
70
4
71
2
72
6
73
3
40
0
40
0
40
0
40
1
40
1
40
1
41
1
10
39.6966320433366
20
-8.46590018608904
30
0
41
1
10
39.6966320433366
20
-9.65083870915237
30
0
41
1
10
39.6966320433365
20
-10.8357772322157
30
0
0
SPLINE
5
1EB
100
AcDbEntity
8
1
62
256
6
ByLayer
370
-1
48
1
60
0
100
AcDbSpline
70
4
71
3
72
14
73
10
40
0
40
0
40
0
40
0
40
0.5
40
0.5
40
0.75
40
0.75
40
0.875
40
0.875
40
1
40
1
40
1
40
1
41
1
10
26.5
20
6.46157386768579
30
0
41
1
10
26.7289274177998
20
5.96423038064898
30
0
41
1
10
26.9976799191909
20
5.48676496728231
30
0
41
1
10
27.4513505956219
20
4.793832463352
30
0
41
1
10
27.6110504102327
20
4.56675795186172
30
0
41
1
10
27.8625246900001
20
4.23134588713947
30
0
41
1
10
27.9483387956365
20
4.12040929411606
30
0
41
1
10
28.1238343188699
20
3.90016984491874
30
0
41
1
10
28.2136798079282
20
3.79068391227707
30
0
41
1
10
28.3045612895965
20
3.68294832644887
30
0
0
SPLINE
5
1EC
100
AcDbEntity
8
1
62
256
6
ByLayer
370
-1
48
1
60
0
100
AcDbSpline
70
4
71
3
72
8
73
4
40
0
40
0
40
0
40
0
40
1
40
1
40
1
40
1
41
1
10
44
20
9.04198285676523
30
0
41
1
10
44.8219465894194
20
8.68186833464304
30
0
41
1
10
45.6232438534361
20
8.282889251988
30
0
41
1
10
46.4089047872259
20
7.84742966866457
30
0
0
SPLINE
5
1ED
100
AcDbEntity
8
1
62
256
6
ByLayer
370
-1
48
1
60
0
100
AcDbSpline
70
4
71
3
72
20
73
16
40
0
40
0
40
0
40
0
40
0.124999999999996
40
0.124999999999996
40
0.249999999999991
40
0.249999999999991
40
0.374999999999987
40
0.374999999999987
40
0.499999999999982
40
0.499999999999982
40
0.749999999999974
40
0.749999999999974
40
0.874999999999987
40
0.874999999999987
40
1
40
1
40
1
40
1
41
1
10
133.194076928117
20
4.93389462788019
30
0
41
1
10
133.198544950403
20
4.93389462788019
30
0
41
1
10
133.196457338612
20
4.93854236453328
30
0
41
1
10
133.181492645267
20
4.95603447965797
30
0
41
1
10
133.168448847923
20
4.96904692543069
30
0
41
1
10
133.135686741858
20
5.00113760316196
30
0
41
1
10
133.115693816188
20
5.02051729307118
30
0
41
1
10
133.071945027632
20
5.06425237225099
30
0
41
1
10
133.048304913162
20
5.08848243676286
30
0
41
1
10
132.974175533455
20
5.16801611331002
30
0
41
1
10
132.920027974456
20
5.23087206119953
30
0
41
1
10
132.840373574913
20
5.33565793302407
30
0
41
1
10
132.813904884998
20
5.37248416441605
30
0
41
1
10
132.761435327365
20
5.45038595041041
30
0
41
1
10
132.735475552505
20
5.49143341547222
30
0
41
1
10
132.710387273224
20
5.53399075200619
30
0
0
SPLINE
5
1EE
100
AcDbEntity
8
1
62
256
6
ByLayer
370
-1
48
1
60
0
100
AcDbSpline
70
4
71
3
72
8
73
4
40
0
40
0
40
0
40
0
40
1
40
1
40
1
40
1
41
1
10
28.3045612895964
20
3.68294832644884
30
0
41
1
10
28.6574083813182
20
3.00164503365681
30
0
41
1
10
29.0204248997299
20
2.34467787870489
30
0
41
1
10
29.3914213440345
20
1.70672399920241
30
0
0
SPLINE
5
1EF
100
AcDbEntity
8
1
62
256
6
ByLayer
370
-1
48
1
60
0
100
AcDbSpline
70
4
71
3
72
24
73
20
40
0
40
0
40
0
40
0
40
0.154279322911287
40
0.154279322911287
40
0.308558645822574
40
0.308558645822574
40
0.462837968733861
40
0.462837968733861
40
0.501407799461683
40
0.501407799461683
40
0.539977630189504
40
0.539977630189504
40
0.617117291645147
40
0.617117291645147
40
0.771396614556434
40
0.771396614556434
40
0.925675937467721
40
0.925675937467721
40
1
40
1
40
1
40
1
41
1
10
44
20
-11.2799312256153
30
0
41
1
10
46.8725521775714
20
-12.0739285090296
30
0
41
1
10
49.7277958728353
20
-12.766506157616
30
0
41
1
10
55.425899743224
20
-13.9208278507919
30
0
41
1
10
58.2687862146171
20
-14.3827664613199
30
0
41
1
10
63.9618349184066
20
-15.0591803412221
30
0
41
1
10
66.8121007705561
20
-15.2735670228609
30
0
41
1
10
70.3918146183867
20
-15.3796145517189
30
0
41
1
10
71.1085961468103
20
-15.39274204939
30
0
41
1
10
72.5441156087982
20
-15.4026991532987
30
0
41
1
10
73.2634006341243
20
-15.3995093004743
30
0
41
1
10
75.4168554548709
20
-15.365483326953
30
0
41
1
10
76.8485538615738
20
-15.310242966603
30
0
41
1
10
81.1352353158259
20
-15.0486369180138
30
0
41
1
10
83.9820207035747
20
-14.7460963762169
30
0
41
1
10
89.6751433966753
20
-13.9017640527727
30
0
41
1
10
92.5215904757038
20
-13.3603325649162
30
0
41
1
10
96.7528970433911
20
-12.3968775346213
30
0
41
1
10
98.1307048469756
20
-12.0583858680814
30
0
41
1
10
99.511782345614
20
-11.6961744184071
30
0
0
SPLINE
5
1F0
100
AcDbEntity
8
1
62
256
6
ByLayer
370
-1
48
1
60
0
100
AcDbSpline
70
4
71
3
72
28
73
24
40
0
40
0
40
0
40
0
40
0.124999999999998
40
0.124999999999998
40
0.187499999999998
40
0.187499999999998
40
0.249999999999998
40
0.249999999999998
40
0.374999999999998
40
0.374999999999998
40
0.406249999999998
40
0.406249999999998
40
0.437499999999997
40
0.437499999999997
40
0.499999999999998
40
0.499999999999998
40
0.750000000000001
40
0.750000000000001
40
0.8125
40
0.8125
40
0.875
40
0.875
40
1
40
1
40
1
40
1
41
1
10
33.3088712852312
20
-8.83911579641889
30
0
41
1
10
33.4340238007748
20
-9.15881932463498
30
0
41
1
10
33.5787722710495
20
-9.44887431658407
30
0
41
1
10
33.8312540257268
20
-9.83206408164887
30
0
41
1
10
33.9213331479899
20
-9.95109312230926
30
0
41
1
10
34.1148001913536
20
-10.1695699847158
30
0
41
1
10
34.2162615581778
20
-10.2667696589217
30
0
41
1
10
34.5336951452104
20
-10.5206824793784
30
0
41
1
10
34.7631410577646
20
-10.6405893077103
30
0
41
1
10
35.0724613517956
20
-10.7226891488297
30
0
41
1
10
35.1352003015895
20
-10.7355984855991
30
0
41
1
10
35.2610724728772
20
-10.7542480480248
30
0
41
1
10
35.3243612741812
20
-10.7598771350012
30
0
41
1
10
35.5168685364353
20
-10.7758410400808
30
0
41
1
10
35.6486645310326
20
-10.7847591234993
30
0
41
1
10
36.3249716081284
20
-10.8224928791336
30
0
41
1
10
36.9208474407509
20
-10.8313548401758
30
0
41
1
10
37.7407167831418
20
-10.8348787988839
30
0
41
1
10
37.9088139864743
20
-10.8351753002305
30
0
41
1
10
38.2504975434718
20
-10.8353518851733
30
0
41
1
10
38.4242204436685
20
-10.8352337640179
30
0
41
1
10
38.9541854307542
20
-10.8348544291118
30
0
41
1
10
39.3191948389141
20
-10.8345672514058
30
0
41
1
10
39.6966320431218
20
-10.8357772321752
30
0
0
SPLINE
5
1F1
100
AcDbEntity
8
1
62
256
6
ByLayer
370
-1
48
1
60
0
100
AcDbSpline
70
4
71
3
72
8
73
4
40
0
40
0
40
0
40
0
40
1
40
1
40
1
40
1
41
1
10
35.7089047872267
20
12.766799431741
30
0
41
1
10
39.3453766148128
20
10.0974192900642
30
0
41
1
10
42.892736183462
20
7.42547172884801
30
0
41
1
10
46.4089047872255
20
4.80500519803758
30
0
0
SPLINE
5
1F2
100
AcDbEntity
8
1
62
256
6
ByLayer
370
-1
48
1
60
0
100
AcDbSpline
70
4
71
3
72
14
73
10
40
0
40
0
40
0
40
0
40
0.0649585527669678
40
0.0649585527669678
40
0.376639035177978
40
0.376639035177978
40
0.688319517588989
40
0.688319517588989
40
1
40
1
40
1
40
1
41
1
10
142.123347386071
20
5.35937995407969
30
0
41
1
10
142.122739348162
20
5.35257944878666
30
0
41
1
10
142.122113317483
20
5.34596720732719
30
0
41
1
10
142.11839014685
20
5.30871089530422
30
0
41
1
10
142.114883482447
20
5.28196076588128
30
0
41
1
10
142.107509464227
20
5.23916761530765
30
0
41
1
10
142.103646474572
20
5.22296873057468
30
0
41
1
10
142.095681808209
20
5.2009738059551
30
0
41
1
10
142.091577147193
20
5.19529162079391
30
0
41
1
10
142.087524864193
20
5.19525468176681
30
0
0
SPLINE
5
1F3
100
AcDbEntity
8
1
62
256
6
ByLayer
370
-1
48
1
60
0
100
AcDbSpline
70
4
71
3
72
16
73
12
40
0
40
0
40
0
40
0
40
0.249999999999999
40
0.249999999999999
40
0.499999999999999
40
0.499999999999999
40
0.749999999999998
40
0.749999999999998
40
0.874999999999999
40
0.874999999999999
40
1
40
1
40
1
40
1
41
1
10
8.10566243270256
20
-23.6665017920809
30
0
41
1
10
8.12110769698495
20
-23.6860254491252
30
0
41
1
10
8.13959628273537
20
-23.7049589195931
30
0
41
1
10
8.18485781079309
20
-23.7414301198899
30
0
41
1
10
8.21171210490058
20
-23.7590955179201
30
0
41
1
10
8.27812666032526
20
-23.7919356634172
30
0
41
1
10
8.31777781748542
20
-23.8071882416308
30
0
41
1
10
8.39058907041823
20
-23.8248834464053
30
0
41
1
10
8.41770072232731
20
-23.8299908115613
30
0
41
1
10
8.47563983861079
20
-23.8370993498304
30
0
41
1
10
8.50697323176115
20
-23.8391299750505
30
0
41
1
10
8.53867513459471
20
-23.8391299750505
30
0
0
SPLINE
5
1F4
100
AcDbEntity
8
1
62
256
6
ByLayer
370
-1
48
1
60
0
100
AcDbSpline
70
4
71
3
72
8
73
4
40
0
40
0
40
0
40
0
40
1
40
1
40
1
40
1
41
1
10
26.5
20
13.0057810898442
30
0
41
1
10
26.302223508204
20
12.6652968517059
30
0
41
1
10
26.1410549839036
20
12.3074352273553
30
0
41
1
10
26.0157853790299
20
11.9312081321431
30
0
0
SPLINE
5
1F5
100
AcDbEntity
8
1
62
256
6
ByLayer
370
-1
48
1
60
0
100
AcDbSpline
70
4
71
3
72
40
73
36
40
0
40
0
40
0
40
0
40
0.0312500000000011
40
0.0312500000000011
40
0.0625000000000021
40
0.0625000000000021
40
0.125000000000005
40
0.125000000000005
40
0.250000000000011
40
0.250000000000011
40
0.312500000000014
40
0.312500000000014
40
0.343750000000014
40
0.343750000000014
40
0.375000000000015
40
0.375000000000015
40
0.500000000000013
40
0.500000000000013
40
0.562500000000012
40
0.562500000000012
40
0.625000000000011
40
0.625000000000011
40
0.68750000000001
40
0.68750000000001
40
0.718750000000009
40
0.718750000000009
40
0.750000000000009
40
0.750000000000009
40
0.875000000000005
40
0.875000000000005
40
0.906250000000004
40
0.906250000000004
40
0.937500000000002
40
0.937500000000002
40
1
40
1
40
1
40
1
41
1
10
35.7089047872264
20
13.3695713733048
30
0
41
1
10
35.6166262262108
20
13.4436007721745
30
0
41
1
10
35.5256888794719
20
13.5171313706645
30
0
41
1
10
35.3465210169897
20
13.6634860111543
30
0
41
1
10
35.2587089745312
20
13.7365852109194
30
0
41
1
10
34.9913915310921
20
13.9501724790768
30
0
41
1
10
34.8090599240362
20
14.0855065981374
30
0
41
1
10
34.2496091804369
20
14.4688195046699
30
0
41
1
10
33.8601111409632
20
14.6942996950865
30
0
41
1
10
33.2494740712147
20
14.9787443192545
30
0
41
1
10
33.0415126125912
20
15.0645564023623
30
0
41
1
10
32.7225453520206
20
15.1781454216821
30
0
41
1
10
32.6147682960895
20
15.2135590117769
30
0
41
1
10
32.3987528152137
20
15.2784325660424
30
0
41
1
10
32.2904182025353
20
15.3079437499009
30
0
41
1
10
31.7472385981866
20
15.4405608436039
30
0
41
1
10
31.307861814673
20
15.4991970319613
30
0
41
1
10
30.6440500539951
20
15.5062773637706
30
0
41
1
10
30.4207439661728
20
15.4948315270358
30
0
41
1
10
29.9833502054246
20
15.4438014946225
30
0
41
1
10
29.7684127139718
20
15.4043859223808
30
0
41
1
10
29.3467319357018
20
15.2977832912076
30
0
41
1
10
29.1399862520984
20
15.2305988854953
30
0
41
1
10
28.8366768515772
20
15.1085828502688
30
0
41
1
10
28.7367104492885
20
15.0643661751887
30
0
41
1
10
28.5391892023021
20
14.9687106495236
30
0
41
1
10
28.4413012401317
20
14.9170691159167
30
0
41
1
10
27.9636195866928
20
14.6435226987724
30
0
41
1
10
27.6176480619523
20
14.3760736394122
30
0
41
1
10
27.2307672188739
20
13.9862804760547
30
0
41
1
10
27.1556889216503
20
13.9055209258666
30
0
41
1
10
27.010214688309
20
13.7384256770622
30
0
41
1
10
26.9396911316026
20
13.6519083328415
30
0
41
1
10
26.7368453059413
20
13.3860431017285
30
0
41
1
10
26.61285281743
20
13.20006406663
30
0
41
1
10
26.5
20
13.0057810898442
30
0
0
SPLINE
5
1F6
100
AcDbEntity
8
1
62
256
6
ByLayer
370
-1
48
1
60
0
100
AcDbSpline
70
4
71
3
72
16
73
12
40
0
40
0
40
0
40
0
40
0.249999999999999
40
0.249999999999999
40
0.499999999999999
40
0.499999999999999
40
0.749999999999998
40
0.749999999999998
40
0.874999999999999
40
0.874999999999999
40
1
40
1
40
1
40
1
41
1
10
11.8943375672974
20
23.6665017920809
30
0
41
1
10
11.878892303015
20
23.6860254491252
30
0
41
1
10
11.8604037172646
20
23.7049589195931
30
0
41
1
10
11.8151421892069
20
23.7414301198899
30
0
41
1
10
11.7882878950994
20
23.7590955179201
30
0
41
1
10
11.7218733396747
20
23.7919356634172
30
0
41
1
10
11.6822221825146
20
23.8071882416308
30
0
41
1
10
11.6094109295818
20
23.8248834464053
30
0
41
1
10
11.5822992776727
20
23.8299908115613
30
0
41
1
10
11.5243601613892
20
23.8370993498304
30
0
41
1
10
11.4930267682389
20
23.8391299750505
30
0
41
1
10
11.4613248654053
20
23.8391299750505
30
0
0
SPLINE
5
1F7
100
AcDbEntity
8
1
62
256
6
ByLayer
370
-1
48
1
60
0
100
AcDbSpline
70
4
71
3
72
34
73
30
40
0
40
0
40
0
40
0
40
0.0624999999999987
40
0.0624999999999987
40
0.124999999999997
40
0.124999999999997
40
0.156249999999996
40
0.156249999999996
40
0.187499999999995
40
0.187499999999995
40
0.218749999999994
40
0.218749999999994
40
0.249999999999993
40
0.249999999999993
40
0.281249999999992
40
0.281249999999992
40
0.312499999999991
40
0.312499999999991
40
0.37499999999999
40
0.37499999999999
40
0.437499999999988
40
0.437499999999988
40
0.499999999999986
40
0.499999999999986
40
0.624999999999989
40
0.624999999999989
40
0.749999999999993
40
0.749999999999993
40
1
40
1
40
1
40
1
41
1
10
115.514341007909
20
10.5548582387566
30
0
41
1
10
115.446437036492
20
10.5963074916009
30
0
41
1
10
115.380883906838
20
10.6408195984843
30
0
41
1
10
115.256642722373
20
10.7389119749371
30
0
41
1
10
115.197942857338
20
10.7924979132966
30
0
41
1
10
115.120466622155
20
10.8815558914214
30
0
41
1
10
115.096342151931
20
10.9127675524969
30
0
41
1
10
115.052641312749
20
10.9792987147695
30
0
41
1
10
115.033214996558
20
11.014499150481
30
0
41
1
10
115.001648662128
20
11.0878787671916
30
0
41
1
10
114.989267144957
20
11.1267229347817
30
0
41
1
10
114.973900368735
20
11.2067117644894
30
0
41
1
10
114.970942027061
20
11.2472867655452
30
0
41
1
10
114.97498981059
20
11.3296872645174
30
0
41
1
10
114.982203257625
20
11.3717066691618
30
0
41
1
10
115.005318692917
20
11.4524344069982
30
0
41
1
10
115.021360041289
20
11.4920696538482
30
0
41
1
10
115.079199350429
20
11.6059555760869
30
0
41
1
10
115.129538991843
20
11.674368436077
30
0
41
1
10
115.243261446186
20
11.8015943854289
30
0
41
1
10
115.305163552838
20
11.8586435031611
30
0
41
1
10
115.434966621463
20
11.9649054929755
30
0
41
1
10
115.503030776466
20
12.0140615485684
30
0
41
1
10
115.713150812364
20
12.1528075704306
30
0
41
1
10
115.857778387897
20
12.2319743806464
30
0
41
1
10
116.151838164782
20
12.3760818649415
30
0
41
1
10
116.301388165586
20
12.4406895433494
30
0
41
1
10
116.754769692347
20
12.6203422761747
30
0
41
1
10
117.063684271893
20
12.7216581792364
30
0
41
1
10
117.373895692201
20
12.8132238136847
30
0
0
SPLINE
5
1F8
100
AcDbEntity
8
1
62
256
6
ByLayer
370
-1
48
1
60
0
100
AcDbSpline
70
4
71
3
72
26
73
22
40
0
40
0
40
0
40
0
40
0.125
40
0.125
40
0.250000000000001
40
0.250000000000001
40
0.312500000000001
40
0.312500000000001
40
0.375000000000001
40
0.375000000000001
40
0.500000000000001
40
0.500000000000001
40
0.625000000000001
40
0.625000000000001
40
0.750000000000002
40
0.750000000000002
40
0.812500000000002
40
0.812500000000002
40
0.875000000000002
40
0.875000000000002
40
1
40
1
40
1
40
1
41
1
10
123.738417072378
20
5.48673205047351
30
0
41
1
10
123.310619328015
20
5.57816944011944
30
0
41
1
10
122.911336368103
20
5.698551404825
30
0
41
1
10
122.156928307812
20
5.98946844519494
30
0
41
1
10
121.801492434509
20
6.15990003228333
30
0
41
1
10
121.288326468552
20
6.44533546165573
30
0
41
1
10
121.120431650501
20
6.54554745176893
30
0
41
1
10
120.790017197575
20
6.7538662363406
30
0
41
1
10
120.627804858239
20
6.86176073299455
30
0
41
1
10
120.146655462403
20
7.1943686585706
30
0
41
1
10
119.832733666353
20
7.42773028297049
30
0
41
1
10
119.201676501082
20
7.90361193645464
30
0
41
1
10
118.884741527005
20
8.14612487939098
30
0
41
1
10
118.248007223391
20
8.64012946155498
30
0
41
1
10
117.928882817456
20
8.89252068829686
30
0
41
1
10
117.436580396694
20
9.2648534853414
30
0
41
1
10
117.270030699108
20
9.38767816881352
30
0
41
1
10
116.931366928437
20
9.62953643544267
30
0
41
1
10
116.759390860478
20
9.74871794605727
30
0
41
1
10
116.236744923092
20
10.1017855281112
30
0
41
1
10
115.879830020883
20
10.3317659869554
30
0
41
1
10
115.514341007931
20
10.5548582387591
30
0
0
SPLINE
5
1F9
100
AcDbEntity
8
1
62
256
6
ByLayer
370
-1
48
1
60
0
100
AcDbSpline
70
4
71
3
72
12
73
8
40
0
40
0
40
0
40
0
40
0.500000000000009
40
0.500000000000009
40
0.750000000000005
40
0.750000000000005
40
1
40
1
40
1
40
1
41
1
10
128.206538561415
20
5.55452945975398
30
0
41
1
10
128.913173184613
20
5.31890155743366
30
0
41
1
10
129.637230271927
20
5.14625549875203
30
0
41
1
10
130.750174365634
20
4.98433661106412
30
0
41
1
10
131.126869803214
20
4.94671993845384
30
0
41
1
10
131.874505723024
20
4.90589353520227
30
0
41
1
10
132.247108517299
20
4.90233344172759
30
0
41
1
10
132.618527499873
20
4.91531294783186
30
0
0
SPLINE
5
1FA
100
AcDbEntity
8
1
62
256
6
ByLayer
370
-1
48
1
60
0
100
AcDbSpline
70
4
71
3
72
8
73
4
40
0
40
0
40
0
40
0
40
1
40
1
40
1
40
1
41
1
10
132.710387273224
20
5.53399075200628
30
0
41
1
10
132.6764954008
20
5.59148165460479
30
0
41
1
10
132.64470713894
20
5.65079264259131
30
0
41
1
10
132.615038439151
20
5.71199651599511
30
0
0
SPLINE
5
1FB
100
AcDbEntity
8
1
62
256
6
ByLayer
370
-1
48
1
60
0
100
AcDbSpline
70
4
71
3
72
16
73
12
40
0
40
0
40
0
40
0
40
0.249999999999996
40
0.249999999999996
40
0.499999999999993
40
0.499999999999993
40
0.624999999999998
40
0.624999999999998
40
0.750000000000003
40
0.750000000000003
40
1
40
1
40
1
40
1
41
1
10
131.632222476154
20
1.1328652952302
30
0
41
1
10
131.156446778956
20
1.1046467444352
30
0
41
1
10
130.683717801663
20
1.10505575161653
30
0
41
1
10
129.74417873021
20
1.16148832950407
30
0
41
1
10
129.277368778729
20
1.21751339985943
30
0
41
1
10
128.58169066403
20
1.34405831568478
30
0
41
1
10
128.350556435347
20
1.39334524164127
30
0
41
1
10
127.889851395171
20
1.50652917258356
30
0
41
1
10
127.65983250782
20
1.57059533760111
30
0
41
1
10
126.978868311297
20
1.78335517526179
30
0
41
1
10
126.535197570875
20
1.95285220604725
30
0
41
1
10
126.102175299108
20
2.15059112267906
30
0
0
SPLINE
5
1FC
100
AcDbEntity
8
1
62
256
6
ByLayer
370
-1
48
1
60
0
100
AcDbSpline
70
4
71
3
72
16
73
12
40
0
40
0
40
0
40
0
40
0.125000000000001
40
0.125000000000001
40
0.250000000000002
40
0.250000000000002
40
0.500000000000001
40
0.500000000000001
40
0.750000000000001
40
0.750000000000001
40
1
40
1
40
1
40
1
41
1
10
8.53867513459483
20
23.8391299750503
30
0
41
1
10
8.5069222413654
20
23.8391299750503
30
0
41
1
10
8.47600932946901
20
23.8371392949586
30
0
41
1
10
8.41759599948895
20
23.8299833264009
30
0
41
1
10
8.39103491659969
20
23.824989671385
30
0
41
1
10
8.31704385770792
20
23.8070141183761
30
0
41
1
10
8.27807345100132
20
23.7919105160783
30
0
41
1
10
8.2117396173519
20
23.7591079584198
30
0
41
1
10
8.18512193927677
20
23.7416171457992
30
0
41
1
10
8.13975567725328
20
23.7051129235882
30
0
41
1
10
8.1211137629262
20
23.6860331168061
30
0
41
1
10
8.10566243270245
20
23.6665017920809
30
0
0
SPLINE
5
1FD
100
AcDbEntity
8
1
62
256
6
ByLayer
370
-1
48
1
60
0
100
AcDbSpline
70
4
71
3
72
52
73
48
40
0
40
0
40
0
40
0
40
0.0312500000000002
40
0.0312500000000002
40
0.0625000000000003
40
0.0625000000000003
40
0.0781250000000004
40
0.0781250000000004
40
0.0937500000000005
40
0.0937500000000005
40
0.125
40
0.125
40
0.1875
40
0.1875
40
0.21875
40
0.21875
40
0.25
40
0.25
40
0.375
40
0.375
40
0.406250000000001
40
0.406250000000001
40
0.437500000000001
40
0.437500000000001
40
0.500000000000001
40
0.500000000000001
40
0.562500000000001
40
0.562500000000001
40
0.625000000000001
40
0.625000000000001
40
0.656250000000001
40
0.656250000000001
40
0.687500000000001
40
0.687500000000001
40
0.750000000000002
40
0.750000000000002
40
0.812500000000002
40
0.812500000000002
40
0.843750000000001
40
0.843750000000001
40
0.875000000000001
40
0.875000000000001
40
0.937500000000001
40
0.937500000000001
40
0.96875
40
0.96875
40
1
40
1
40
1
40
1
41
1
10
46.4089047872266
20
7.84742966866432
30
0
41
1
10
47.1197124480196
20
7.59990329008548
30
0
41
1
10
47.8300854408167
20
7.34863966015064
30
0
41
1
10
49.2503492186229
20
6.83954281896658
30
0
41
1
10
49.9603921355765
20
6.58205851412538
30
0
41
1
10
51.0246873125362
20
6.19000298848641
30
0
41
1
10
51.3792106066644
20
6.05808259411296
30
0
41
1
10
52.0885477012226
20
5.7935431181572
30
0
41
1
10
52.4433152343492
20
5.6608217994459
30
0
41
1
10
53.5074801332243
20
5.26030951030762
30
0
41
1
10
54.2163561812635
20
4.98925851383586
30
0
41
1
10
56.3445497761899
20
4.17162748439969
30
0
41
1
10
57.7630369621074
20
3.61490801135673
30
0
41
1
10
59.8938326608094
20
2.77078216829685
30
0
41
1
10
60.6048904037158
20
2.48764347148949
30
0
41
1
10
62.0263647677701
20
1.91943446530689
30
0
41
1
10
62.7366440994519
20
1.63442192729144
30
0
41
1
10
66.2862057013105
20
0.205950868533108
30
0
41
1
10
69.1204832777947
20
-0.946473928254676
30
0
41
1
10
72.6692797452897
20
-2.36754353942055
30
0
41
1
10
73.3793424311308
20
-2.65077017733898
30
0
41
1
10
74.8004126144583
20
-3.21440994481216
30
0
41
1
10
75.5116252011192
20
-3.49490673821916
30
0
41
1
10
77.643020414324
20
-4.32971447774202
30
0
41
1
10
79.0621466094695
20
-4.87785144256645
30
0
41
1
10
81.8995175081144
20
-5.9509285122902
30
0
41
1
10
83.3177588483077
20
-6.47587633275418
30
0
41
1
10
86.1560839372582
20
-7.49643779357956
30
0
41
1
10
87.5759992432401
20
-7.9924481346425
30
0
41
1
10
89.7081682902571
20
-8.71231618151003
30
0
41
1
10
90.4188864226435
20
-8.94808701166556
30
0
41
1
10
91.8388229912335
20
-9.40973373289134
30
0
41
1
10
92.5483394009289
20
-9.63567162633012
30
0
41
1
10
94.6766075257346
20
-10.2968243895511
30
0
41
1
10
96.0948269827514
20
-10.7159184989648
30
0
41
1
10
98.9313434824397
20
-11.5086095196606
30
0
41
1
10
100.349857337147
20
-11.8818035805237
30
0
41
1
10
102.479657692669
20
-12.4041025473568
30
0
41
1
10
103.189926034121
20
-12.5719595853664
30
0
41
1
10
104.611373334197
20
-12.8947731223478
30
0
41
1
10
105.322351835886
20
-13.0498515987653
30
0
41
1
10
107.452804804838
20
-13.4939022768922
30
0
41
1
10
108.871740213664
20
-13.7614783983355
30
0
41
1
10
110.998888950894
20
-14.1195585725039
30
0
41
1
10
111.707581126692
20
-14.2318236088628
30
0
41
1
10
113.125596885385
20
-14.4408956292335
30
0
41
1
10
113.834433680209
20
-14.5381561579151
30
0
41
1
10
114.543524444932
20
-14.6277585317292
30
0
0
SPLINE
5
1FE
100
AcDbEntity
8
1
62
256
6
ByLayer
370
-1
48
1
60
0
100
AcDbSpline
70
4
71
1
72
4
73
2
40
0
40
0
40
1
40
1
41
1
10
46.4089047872255
20
4.80500519803758
30
0
41
1
10
46.4089047872259
20
7.84742966866457
30
0
0
SPLINE
5
1FF
100
AcDbEntity
8
1
62
256
6
ByLayer
370
-1
48
1
60
0
100
AcDbSpline
70
4
71
3
72
30
73
26
40
0
40
0
40
0
40
0
40
0.0624999999999991
40
0.0624999999999991
40
0.124999999999998
40
0.124999999999998
40
0.156249999999998
40
0.156249999999998
40
0.187499999999997
40
0.187499999999997
40
0.218749999999997
40
0.218749999999997
40
0.249999999999997
40
0.249999999999997
40
0.31249999999999
40
0.31249999999999
40
0.374999999999983
40
0.374999999999983
40
0.499999999999987
40
0.499999999999987
40
0.62499999999999
40
0.62499999999999
40
0.749999999999994
40
0.749999999999994
40
1
40
1
40
1
40
1
41
1
10
125.686964583848
20
7.51470197480683
30
0
41
1
10
125.643400769786
20
7.50514903651737
30
0
41
1
10
125.600377195046
20
7.49360585672994
30
0
41
1
10
125.515990910771
20
7.46438830017394
30
0
41
1
10
125.474646783437
20
7.44669398895473
30
0
41
1
10
125.41756655865
20
7.41369712771299
30
0
41
1
10
125.399282986061
20
7.40158088933765
30
0
41
1
10
125.364772125636
20
7.37426124235421
30
0
41
1
10
125.34877254319
20
7.35916021247843
30
0
41
1
10
125.321212212641
20
7.32664403324057
30
0
41
1
10
125.309381384623
20
7.30880777444682
30
0
41
1
10
125.291593709056
20
7.27215507693046
30
0
41
1
10
125.28542437662
20
7.25308815471064
30
0
41
1
10
125.274996848373
20
7.19500243514469
30
0
41
1
10
125.279012100249
20
7.1565478039343
30
0
41
1
10
125.299284586886
20
7.08484204159274
30
0
41
1
10
125.315610326145
20
7.05077136038071
30
0
41
1
10
125.373996430866
20
6.95487752811829
30
0
41
1
10
125.424926473856
20
6.89868504099692
30
0
41
1
10
125.537007604719
20
6.79389983400805
30
0
41
1
10
125.597496045867
20
6.74651722116278
30
0
41
1
10
125.723654150432
20
6.65752158334723
30
0
41
1
10
125.789411111147
20
6.61600748712115
30
0
41
1
10
125.992396731625
20
6.49773767640065
30
0
41
1
10
126.135547224096
20
6.42703125860419
30
0
41
1
10
126.282935155565
20
6.36196346500171
30
0
0
SPLINE
5
200
100
AcDbEntity
8
1
62
256
6
ByLayer
370
-1
48
1
60
0
100
AcDbSpline
70
4
71
3
72
16
73
12
40
0
40
0
40
0
40
0
40
0.0316215870701334
40
0.0316215870701334
40
0.2737161903026
40
0.2737161903026
40
0.515810793535067
40
0.515810793535067
40
0.757905396767533
40
0.757905396767533
40
1
40
1
40
1
40
1
41
1
10
123.682619925285
20
3.93613278503233
30
0
41
1
10
123.685578648718
20
3.94755518305334
30
0
41
1
10
123.688494729762
20
3.95914902945168
30
0
41
1
10
123.713356526949
20
4.06098667879837
30
0
41
1
10
123.732736084827
20
4.16114608626751
30
0
41
1
10
123.76419606625
20
4.38198754956002
30
0
41
1
10
123.776080072301
20
4.50126248799398
30
0
41
1
10
123.789413342459
20
4.75600177617983
30
0
41
1
10
123.790941059971
20
4.89155697519476
30
0
41
1
10
123.778687995517
20
5.17800681215755
30
0
41
1
10
123.765159902468
20
5.32893880780739
30
0
41
1
10
123.738417072378
20
5.48673205047118
30
0
0
SPLINE
5
201
100
AcDbEntity
8
1
62
256
6
ByLayer
370
-1
48
1
60
0
100
AcDbSpline
70
4
71
3
72
14
73
10
40
0
40
0
40
0
40
0
40
0.25
40
0.25
40
0.5
40
0.5
40
0.75
40
0.75
40
1
40
1
40
1
40
1
41
1
10
132.629966114762
20
15.397215746139
30
0
41
1
10
132.634764632048
20
15.3961798876773
30
0
41
1
10
132.645016419418
20
15.3948826800872
30
0
41
1
10
132.675971180764
20
15.3918495925577
30
0
41
1
10
132.697014895263
20
15.3900899711773
30
0
41
1
10
132.748435267525
20
15.3863609608709
30
0
41
1
10
132.778675571234
20
15.3843955120596
30
0
41
1
10
132.848216417701
20
15.3804219751678
30
0
41
1
10
132.887588881288
20
15.3784154635156
30
0
41
1
10
132.93043451419
20
15.3765405975748
30
0
0
SPLINE
5
202
100
AcDbEntity
8
1
62
256
6
ByLayer
370
-1
48
1
60
0
100
AcDbSpline
70
4
71
3
72
10
73
6
40
0
40
0
40
0
40
0
40
0.5
40
0.5
40
1
40
1
40
1
40
1
41
1
10
44
20
-11.2799312256154
30
0
41
1
10
43.2794166214466
20
-11.0807559940871
30
0
41
1
10
42.5578235144243
20
-10.9445103450131
30
0
41
1
10
41.1206229503207
20
-10.7962940526566
30
0
41
1
10
40.4050003247199
20
-10.7841747936512
30
0
41
1
10
39.6966320433365
20
-10.8357772321762
30
0
0
SPLINE
5
203
100
AcDbEntity
8
1
62
256
6
ByLayer
370
-1
48
1
60
0
100
AcDbSpline
70
4
71
3
72
37
73
33
40
0
40
0
40
0
40
0
40
0.140492185311022
40
0.283743487759185
40
0.355369138983266
40
0.391181964595307
40
0.426994790207347
40
0.462807615819389
40
0.498620441431429
40
0.53443326704347
40
0.55233967984949
40
0.561292886252502
40
0.570246092655511
40
0.579199299058522
40
0.588152505461531
40
0.606058918267551
40
0.62396533107357
40
0.641871743879592
40
0.659778156685611
40
0.677684569491633
40
0.695590982297653
40
0.70566333950104
40
0.713497395103674
40
0.721331450706308
40
0.731403807909694
40
0.749310220715715
40
0.785123046327756
40
0.856748697551837
40
0.892561523163878
40
0.928374348775918
40
0.964187174387959
40
1
40
1
40
1
40
1
41
1
10
62.4645822674454
20
1.74359440721548
30
0
41
1
10
61.7128774516428
20
1.89848881772698
30
0
41
1
10
60.1945479700505
20
2.20924513796422
30
0
41
1
10
58.2927495547571
20
2.59250313092642
30
0
41
1
10
56.9508607459013
20
2.85917024183397
30
0
41
1
10
56.1842461130622
20
3.01016310866575
30
0
41
1
10
55.6096400662912
20
3.12242627053416
30
0
41
1
10
55.0348925826371
20
3.23368242752611
30
0
41
1
10
54.4591163283041
20
3.3445065682231
30
0
41
1
10
53.979015863112
20
3.43666871097008
30
0
41
1
10
53.6437711263558
20
3.50070722270595
30
0
41
1
10
53.4525295970753
20
3.53705890032663
30
0
41
1
10
53.309318646673
20
3.56417005325284
30
0
41
1
10
53.166120432715
20
3.59117110863585
30
0
41
1
10
52.9748877876425
20
3.62712645970882
30
0
41
1
10
52.7352894042085
20
3.67202236456723
30
0
41
1
10
52.4472527753191
20
3.72586850822753
30
0
41
1
10
52.1587657594518
20
3.77971065672074
30
0
41
1
10
51.8702759849416
20
3.8334942402004
30
0
41
1
10
51.582080864557
20
3.88709316297909
30
0
41
1
10
51.3365149796765
20
3.9326025294807
30
0
41
1
10
51.1453143537828
20
3.96785780563894
30
0
41
1
10
51.0081505761337
20
3.99304080505496
30
0
41
1
10
50.8710383679831
20
4.01812254891777
30
0
41
1
10
50.6800416843323
20
4.05294860208937
30
0
41
1
10
50.339195400954
20
4.11480300062064
30
0
41
1
10
49.6681588601085
20
4.23567869550769
30
0
41
1
10
48.9003105170602
20
4.37240037901964
30
0
41
1
10
48.1324706424828
20
4.50765129192422
30
0
41
1
10
47.5567630639919
20
4.60813266249784
30
0
41
1
10
46.9819682654404
20
4.70747069134271
30
0
41
1
10
46.5997604685267
20
4.77269930882986
30
0
41
1
10
46.4089047872284
20
4.80500519803675
30
0
0
SPLINE
5
204
100
AcDbEntity
8
1
62
256
6
ByLayer
370
-1
48
1
60
0
100
AcDbSpline
70
4
71
3
72
8
73
4
40
0
40
0
40
0
40
0
40
1
40
1
40
1
40
1
41
1
10
111.946172610415
20
9.69001462316351
30
0
41
1
10
111.383473062668
20
9.84840535106932
30
0
41
1
10
110.811700484362
20
10.0251195330911
30
0
41
1
10
110.233236962261
20
10.215346421897
30
0
0
SPLINE
5
205
100
AcDbEntity
8
1
62
256
6
ByLayer
370
-1
48
1
60
0
100
AcDbSpline
70
4
71
3
72
8
73
4
40
0
40
0
40
0
40
0
40
1
40
1
40
1
40
1
41
1
10
142.757623106991
20
0.95559657797358
30
0
41
1
10
142.748710296308
20
0.984655864663011
30
0
41
1
10
142.740295249068
20
1.01264243970596
30
0
41
1
10
142.732278020571
20
1.03978928935766
30
0
0
SPLINE
5
206
100
AcDbEntity
8
1
62
256
6
ByLayer
370
-1
48
1
60
0
100
AcDbSpline
70
4
71
3
72
12
73
8
40
0
40
0
40
0
40
0
40
0.326328593701436
40
0.326328593701436
40
0.652657187402871
40
0.652657187402871
40
1
40
1
40
1
40
1
41
1
10
142.645718670312
20
-6.48485012505347
30
0
41
1
10
142.644826512008
20
-6.51018659471237
30
0
41
1
10
142.641041239653
20
-6.53487883582395
30
0
41
1
10
142.627956965505
20
-6.58303553778708
30
0
41
1
10
142.618462823646
20
-6.60678839885699
30
0
41
1
10
142.593814076633
20
-6.6523137674678
30
0
41
1
10
142.578197411818
20
-6.67421831896738
30
0
41
1
10
142.560107350051
20
-6.6939774077741
30
0
0
SPLINE
5
207
100
AcDbEntity
8
1
62
256
6
ByLayer
370
-1
48
1
60
0
100
AcDbSpline
70
4
71
3
72
20
73
16
40
0
40
0
40
0
40
0
40
0.0625000000000005
40
0.0625000000000005
40
0.125000000000001
40
0.125000000000001
40
0.250000000000002
40
0.250000000000002
40
0.375000000000004
40
0.375000000000004
40
0.500000000000005
40
0.500000000000005
40
0.750000000000003
40
0.750000000000003
40
1
40
1
40
1
40
1
41
1
10
143.718170395308
20
-6.61254998550379
30
0
41
1
10
143.717024167053
20
-6.64531244535428
30
0
41
1
10
143.716498357707
20
-6.67738012582234
30
0
41
1
10
143.716470355444
20
-6.74036918451074
30
0
41
1
10
143.716983182873
20
-6.77153755153452
30
0
41
1
10
143.719609428138
20
-6.85964590586221
30
0
41
1
10
143.722776796592
20
-6.9133827421665
30
0
41
1
10
143.730269406562
20
-7.0129226365367
30
0
41
1
10
143.734593585301
20
-7.05862347979959
30
0
41
1
10
143.743846459043
20
-7.1457684588942
30
0
41
1
10
143.748786645932
20
-7.18713167449687
30
0
41
1
10
143.76418713638
20
-7.30713773984576
30
0
41
1
10
143.775205940569
20
-7.38172013705517
30
0
41
1
10
143.797790576964
20
-7.52483792702631
30
0
41
1
10
143.809404555383
20
-7.59344861954645
30
0
41
1
10
143.821200051654
20
-7.66039559568858
30
0
0
SPLINE
5
208
100
AcDbEntity
8
1
62
256
6
ByLayer
370
-1
48
1
60
0
100
AcDbSpline
70
4
71
3
72
8
73
4
40
0
40
0
40
0
40
0
40
1
40
1
40
1
40
1
41
1
10
143.423667326911
20
-8.20489734926474
30
0
41
1
10
143.454300295726
20
-8.19751770823507
30
0
41
1
10
143.483937869669
20
-8.19071407560443
30
0
41
1
10
143.512796393725
20
-8.18436964829354
30
0
0
SPLINE
5
209
100
AcDbEntity
8
1
62
256
6
ByLayer
370
-1
48
1
60
0
100
AcDbSpline
70
4
71
3
72
10
73
6
40
0
40
0
40
0
40
0
40
0.22640379211541
40
0.22640379211541
40
1
40
1
40
1
40
1
41
1
10
142.557354841238
20
-6.64458359571253
30
0
41
1
10
142.565251247267
20
-6.6338035055785
30
0
41
1
10
142.572433956552
20
-6.62248088727361
30
0
41
1
10
142.600340421093
20
-6.57103310163723
30
0
41
1
10
142.61271505239
20
-6.52606188568149
30
0
41
1
10
142.614272727131
20
-6.48022327189321
30
0
0
SPLINE
5
20A
100
AcDbEntity
8
1
62
256
6
ByLayer
370
-1
48
1
60
0
100
AcDbSpline
70
4
71
3
72
8
73
4
40
0
40
0
40
0
40
0
40
1
40
1
40
1
40
1
41
1
10
143.456471747495
20
-8.23892197099076
30
0
41
1
10
143.430357509862
20
-8.24323940522362
30
0
41
1
10
143.40350243295
20
-8.24799065571025
30
0
41
1
10
143.375662803624
20
-8.2533184345364
30
0
0
SPLINE
5
20B
100
AcDbEntity
8
1
62
256
6
ByLayer
370
-1
48
1
60
0
100
AcDbSpline
70
4
71
3
72
18
73
14
40
0
40
0
40
0
40
0
40
0.25000000000002
40
0.25000000000002
40
0.500000000000043
40
0.500000000000043
40
0.625000000000033
40
0.625000000000033
40
0.750000000000022
40
0.750000000000022
40
0.875000000000011
40
0.875000000000011
40
1
40
1
40
1
40
1
41
1
10
143.821200051654
20
-7.66039559568858
30
0
41
1
10
143.826184432081
20
-7.71043606868076
30
0
41
1
10
143.826551648723
20
-7.76248479102773
30
0
41
1
10
143.811910515533
20
-7.87283359868522
30
0
41
1
10
143.796760619251
20
-7.93204868869987
30
0
41
1
10
143.752323481182
20
-8.02127692175159
30
0
41
1
10
143.734319737139
20
-8.05012847710458
30
0
41
1
10
143.689971445029
20
-8.10545560712228
30
0
41
1
10
143.664209136646
20
-8.13091425170776
30
0
41
1
10
143.608127593794
20
-8.17455554611985
30
0
41
1
10
143.57787703946
20
-8.19270327195107
30
0
41
1
10
143.517042020965
20
-8.22111523466202
30
0
41
1
10
143.486509544517
20
-8.23149187287129
30
0
41
1
10
143.456471747495
20
-8.23892197099073
30
0
0
SPLINE
5
20C
100
AcDbEntity
8
1
62
256
6
ByLayer
370
-1
48
1
60
0
100
AcDbSpline
70
4
71
3
72
12
73
8
40
0
40
0
40
0
40
0
40
0.250000000000014
40
0.250000000000014
40
0.500000000000028
40
0.500000000000028
40
1
40
1
40
1
40
1
41
1
10
143.166526660378
20
-0.487714607100145
30
0
41
1
10
143.1535789968
20
-0.452402679634474
30
0
41
1
10
143.141084917776
20
-0.417773262040356
30
0
41
1
10
143.116931627365
20
-0.349757999072494
30
0
41
1
10
143.105182366321
20
-0.316101734154728
30
0
41
1
10
143.072301697785
20
-0.220341240184524
30
0
41
1
10
143.053002787143
20
-0.161974534390112
30
0
41
1
10
143.035620366774
20
-0.107618649536306
30
0
0
SPLINE
5
20D
100
AcDbEntity
8
1
62
256
6
ByLayer
370
-1
48
1
60
0
100
AcDbSpline
70
4
71
3
72
8
73
4
40
0
40
0
40
0
40
0
40
1
40
1
40
1
40
1
41
1
10
142.782914725408
20
0.979559634426039
30
0
41
1
10
142.788891608136
20
0.955142405514323
30
0
41
1
10
142.795250514085
20
0.929933213554136
30
0
41
1
10
142.802117117039
20
0.903671527277879
30
0
0
SPLINE
5
20E
100
AcDbEntity
8
1
62
256
6
ByLayer
370
-1
48
1
60
0
100
AcDbSpline
70
4
71
3
72
12
73
8
40
0
40
0
40
0
40
0
40
0.500000000000027
40
0.500000000000027
40
0.750000000000014
40
0.750000000000014
40
1
40
1
40
1
40
1
41
1
10
143.080114376822
20
-0.159543700232007
30
0
41
1
10
143.091839502516
20
-0.204387063765353
30
0
41
1
10
143.105414960079
20
-0.252994913523082
30
0
41
1
10
143.130577698947
20
-0.334395528420885
30
0
41
1
10
143.139650944299
20
-0.362546027737522
30
0
41
1
10
143.159610347081
20
-0.421535888938848
30
0
41
1
10
143.170444571758
20
-0.452173544656773
30
0
41
1
10
143.181788334444
20
-0.48283079430945
30
0
0
SPLINE
5
20F
100
AcDbEntity
8
1
62
256
6
ByLayer
370
-1
48
1
60
0
100
AcDbSpline
70
4
71
3
72
8
73
4
40
0
40
0
40
0
40
0
40
1
40
1
40
1
40
1
41
1
10
143.181788334444
20
-0.482830794309479
30
0
41
1
10
143.199314341572
20
-0.530674121008275
30
0
41
1
10
143.207694924911
20
-0.579765395837626
30
0
41
1
10
143.208048825694
20
-0.626444379294128
30
0
0
SPLINE
5
210
100
AcDbEntity
8
1
62
256
6
ByLayer
370
-1
48
1
60
0
100
AcDbSpline
70
4
71
3
72
10
73
6
40
0
40
0
40
0
40
0
40
0.911217334901828
40
0.911217334901828
40
1
40
1
40
1
40
1
41
1
10
142.594575208667
20
-5.03702374640238
30
0
41
1
10
142.544133033143
20
-4.92719449488624
30
0
41
1
10
142.499039620409
20
-4.81532822714141
30
0
41
1
10
142.455396603468
20
-4.69033687457085
30
0
41
1
10
142.45157254218
20
-4.67921954371707
30
0
41
1
10
142.447799509649
20
-4.66808331290684
30
0
0
SPLINE
5
211
100
AcDbEntity
8
1
62
256
6
ByLayer
370
-1
48
1
60
0
100
AcDbSpline
70
4
71
3
72
18
73
14
40
0
40
0
40
0
40
0
40
0.25
40
0.25
40
0.500000000000001
40
0.500000000000001
40
0.625000000000001
40
0.625000000000001
40
0.75
40
0.75
40
0.875
40
0.875
40
1
40
1
40
1
40
1
41
1
10
143.752169356645
20
-7.79317408528422
30
0
41
1
10
143.743488581266
20
-7.71832127527591
30
0
41
1
10
143.73535307527
20
-7.64114470407404
30
0
41
1
10
143.720632319123
20
-7.4786199134538
30
0
41
1
10
143.714043700148
20
-7.3934886834968
30
0
41
1
10
143.705999253844
20
-7.25465757853542
30
0
41
1
10
143.703621462119
20
-7.20630299800709
30
0
41
1
10
143.699731082462
20
-7.10501193673565
30
0
41
1
10
143.698206755
20
-7.05202542622533
30
0
41
1
10
143.696314350324
20
-6.93828211042768
30
0
41
1
10
143.695952875586
20
-6.87649678551108
30
0
41
1
10
143.696973783658
20
-6.74668554088066
30
0
41
1
10
143.698387956348
20
-6.67726866646268
30
0
41
1
10
143.700813667861
20
-6.60793494022221
30
0
0
SPLINE
5
212
100
AcDbEntity
8
1
62
256
6
ByLayer
370
-1
48
1
60
0
100
AcDbSpline
70
4
71
3
72
10
73
6
40
0
40
0
40
0
40
0
40
0.353874973323548
40
0.353874973323548
40
1
40
1
40
1
40
1
41
1
10
142.432019129916
20
-4.50611867345953
30
0
41
1
10
142.450155621501
20
-4.56865897216983
30
0
41
1
10
142.46992860502
20
-4.63084104439858
30
0
41
1
10
142.530480198727
20
-4.80553524958557
30
0
41
1
10
142.575251694407
20
-4.91742775289669
30
0
41
1
10
142.625183099259
20
-5.02681952082457
30
0
0
SPLINE
5
213
100
AcDbEntity
8
1
62
256
6
ByLayer
370
-1
48
1
60
0
100
AcDbSpline
70
4
71
3
72
18
73
14
40
0
40
0
40
0
40
0
40
0.125
40
0.125
40
0.25
40
0.25
40
0.375
40
0.375
40
0.5
40
0.5
40
0.75
40
0.75
40
1
40
1
40
1
40
1
41
1
10
142.732278020572
20
1.03978928935459
30
0
41
1
10
142.726774605836
20
1.05842420445578
30
0
41
1
10
142.719510086901
20
1.07782484259499
30
0
41
1
10
142.698513657942
20
1.11941443057515
30
0
41
1
10
142.684443955563
20
1.14171820350526
30
0
41
1
10
142.649589534647
20
1.18361772153986
30
0
41
1
10
142.628808315006
20
1.20300007062198
30
0
41
1
10
142.587038377763
20
1.23401690610714
30
0
41
1
10
142.566828210526
20
1.24554046251063
30
0
41
1
10
142.509006086312
20
1.27302069647786
30
0
41
1
10
142.474816457377
20
1.28197403619069
30
0
41
1
10
142.411650478576
20
1.29286992388944
30
0
41
1
10
142.382792035906
20
1.2944142368554
30
0
41
1
10
142.355508990196
20
1.29384505627459
30
0
0
SPLINE
5
214
100
AcDbEntity
8
1
62
256
6
ByLayer
370
-1
48
1
60
0
100
AcDbSpline
70
4
71
3
72
8
73
4
40
0
40
0
40
0
40
0
40
1
40
1
40
1
40
1
41
1
10
142.355508990196
20
1.29384505627459
30
0
41
1
10
142.314505972672
20
1.29298964879638
30
0
41
1
10
142.2726171813
20
1.29230131372648
30
0
41
1
10
142.229435806448
20
1.29181590764909
30
0
0
SPLINE
5
215
100
AcDbEntity
8
1
62
256
6
ByLayer
370
-1
48
1
60
0
100
AcDbSpline
70
4
71
3
72
10
73
6
40
0
40
0
40
0
40
0
40
0.5
40
0.5
40
1
40
1
40
1
40
1
41
1
10
142.625183099259
20
-5.02681952082457
30
0
41
1
10
142.647375842366
20
-5.07539313290388
30
0
41
1
10
142.663485009218
20
-5.12548026884016
30
0
41
1
10
142.684100854302
20
-5.22854104966083
30
0
41
1
10
142.68854206977
20
-5.28199607805581
30
0
41
1
10
142.686658527969
20
-5.33535133287208
30
0
0
SPLINE
5
216
100
AcDbEntity
8
1
62
256
6
ByLayer
370
-1
48
1
60
0
100
AcDbSpline
70
4
71
3
72
10
73
6
40
0
40
0
40
0
40
0
40
0.694155338182104
40
0.694155338182104
40
1
40
1
40
1
40
1
41
1
10
142.686658527981
20
-5.33535133287165
30
0
41
1
10
142.677226374443
20
-5.60133582721156
30
0
41
1
10
142.667762548715
20
-5.86731450797424
30
0
41
1
10
142.654093547427
20
-6.25047658477698
30
0
41
1
10
142.649908191028
20
-6.36766375827267
30
0
41
1
10
142.645718670312
20
-6.48485012505347
30
0
0
SPLINE
5
217
100
AcDbEntity
8
1
62
256
6
ByLayer
370
-1
48
1
60
0
100
AcDbSpline
70
4
71
3
72
10
73
6
40
0
40
0
40
0
40
0
40
0.433874726799861
40
0.433874726799861
40
1
40
1
40
1
40
1
41
1
10
142.61427272713
20
-6.48022327189315
30
0
41
1
10
142.619922533645
20
-6.31396308163059
30
0
41
1
10
142.625581819273
20
-6.14770321183039
30
0
41
1
10
142.638654025917
20
-5.76450631875548
30
0
41
1
10
142.646075720399
20
-5.54756959166065
30
0
41
1
10
142.653525170328
20
-5.33063381511869
30
0
0
SPLINE
5
218
100
AcDbEntity
8
1
62
256
6
ByLayer
370
-1
48
1
60
0
100
AcDbSpline
70
4
71
3
72
18
73
14
40
0
40
0
40
0
40
0
40
0.125000000000009
40
0.125000000000009
40
0.250000000000018
40
0.250000000000018
40
0.375000000000027
40
0.375000000000027
40
0.500000000000037
40
0.500000000000037
40
0.750000000000018
40
0.750000000000018
40
1
40
1
40
1
40
1
41
1
10
143.512796393722
20
-8.18436964829519
30
0
41
1
10
143.532606285206
20
-8.18001452547904
30
0
41
1
10
143.553076461815
20
-8.17379491380092
30
0
41
1
10
143.596419620271
20
-8.1545103741623
30
0
41
1
10
143.619384761863
20
-8.14108544865744
30
0
41
1
10
143.661686987148
20
-8.10661984333527
30
0
41
1
10
143.680790852425
20
-8.08556326849379
30
0
41
1
10
143.710501243328
20
-8.04250938015429
30
0
41
1
10
143.721064343562
20
-8.02135675047126
30
0
41
1
10
143.745264371041
20
-7.96031713175668
30
0
41
1
10
143.751569581413
20
-7.92353138354341
30
0
41
1
10
143.756981817525
20
-7.85498947552639
30
0
41
1
10
143.755666282398
20
-7.82332746531526
30
0
41
1
10
143.752169356645
20
-7.79317408528422
30
0
0
SPLINE
5
219
100
AcDbEntity
8
1
62
256
6
ByLayer
370
-1
48
1
60
0
100
AcDbSpline
70
4
71
3
72
18
73
14
40
0
40
0
40
0
40
0
40
0.152877285059333
40
0.152877285059333
40
0.435251523372889
40
0.435251523372889
40
0.576438642529667
40
0.576438642529667
40
0.717625761686445
40
0.717625761686445
40
0.858812880843222
40
0.858812880843222
40
1
40
1
40
1
40
1
41
1
10
142.284390076586
20
1.35795998684793
30
0
41
1
10
142.310962953933
20
1.35632298309056
30
0
41
1
10
142.33833404543
20
1.3529810348229
30
0
41
1
10
142.419080154453
20
1.33726786367848
30
0
41
1
10
142.475714992893
20
1.31946033804274
30
0
41
1
10
142.562210314684
20
1.27221184172294
30
0
41
1
10
142.590371968486
20
1.25349924957831
30
0
41
1
10
142.644888616415
20
1.20832150934652
30
0
41
1
10
142.670253472315
20
1.18246615360806
30
0
41
1
10
142.714347159591
20
1.12685936338642
30
0
41
1
10
142.733039332411
20
1.09717481475269
30
0
41
1
10
142.762993126727
20
1.03793922757103
30
0
41
1
10
142.77435834002
20
1.00843107701596
30
0
41
1
10
142.782914725408
20
0.979559634426039
30
0
0
SPLINE
5
21A
100
AcDbEntity
8
1
62
256
6
ByLayer
370
-1
48
1
60
0
100
AcDbSpline
70
4
71
3
72
10
73
6
40
0
40
0
40
0
40
0
40
0.5
40
0.5
40
1
40
1
40
1
40
1
41
1
10
143.192259320532
20
-0.879436927394721
30
0
41
1
10
143.189330032286
20
-0.823647031825431
30
0
41
1
10
143.187096555576
20
-0.770053985283482
30
0
41
1
10
143.183842461289
20
-0.666516211370151
30
0
41
1
10
143.18287902501
20
-0.6184528731591
30
0
41
1
10
143.182417344555
20
-0.573085810565061
30
0
0
SPLINE
5
21B
100
AcDbEntity
8
1
62
256
6
ByLayer
370
-1
48
1
60
0
100
AcDbSpline
70
4
71
3
72
10
73
6
40
0
40
0
40
0
40
0
40
0.5
40
0.5
40
1
40
1
40
1
40
1
41
1
10
142.653525170328
20
-5.33063381511869
30
0
41
1
10
142.655266130176
20
-5.27993524272506
30
0
41
1
10
142.65111684339
20
-5.23003177473376
30
0
41
1
10
142.631465232744
20
-5.13175734669463
30
0
41
1
10
142.61575429295
20
-5.08313759756686
30
0
41
1
10
142.594575208668
20
-5.03702374640201
30
0
0
SPLINE
5
21C
100
AcDbEntity
8
1
62
256
6
ByLayer
370
-1
48
1
60
0
100
AcDbSpline
70
4
71
3
72
8
73
4
40
0
40
0
40
0
40
0
40
1
40
1
40
1
40
1
41
1
10
143.182417344555
20
-0.57308581056509
30
0
41
1
10
143.182155255939
20
-0.54733165424409
30
0
41
1
10
143.177472256174
20
-0.517566331503048
30
0
41
1
10
143.166526660378
20
-0.487714607100173
30
0
0
SPLINE
5
21D
100
AcDbEntity
8
1
62
256
6
ByLayer
370
-1
48
1
60
0
100
AcDbSpline
70
4
71
3
72
10
73
6
40
0
40
0
40
0
40
0
40
0.5
40
0.5
40
1
40
1
40
1
40
1
41
1
10
143.208048825694
20
-0.626444379294099
30
0
41
1
10
143.206573526447
20
-0.663158534298958
30
0
41
1
10
143.205683884961
20
-0.702275189475557
30
0
41
1
10
143.205920867864
20
-0.78877967702482
30
0
41
1
10
143.207080551514
20
-0.834501650292509
30
0
41
1
10
143.209602826382
20
-0.882539753635541
30
0
0
SPLINE
5
21E
100
AcDbEntity
8
1
62
256
6
ByLayer
370
-1
48
1
60
0
100
AcDbSpline
70
4
71
3
72
10
73
6
40
0
40
0
40
0
40
0
40
0.499225645850171
40
0.499225645850171
40
1
40
1
40
1
40
1
41
1
10
132.822261146885
20
14.8398772938564
30
0
41
1
10
132.821687594061
20
14.8550108195553
30
0
41
1
10
132.821152716186
20
14.8701459887233
30
0
41
1
10
132.82016660448
20
14.9004662110126
30
0
41
1
10
132.819715867566
20
14.9156514205494
30
0
41
1
10
132.819307927074
20
14.9308377400719
30
0
0
SPLINE
5
21F
100
AcDbEntity
8
1
62
256
6
ByLayer
370
-1
48
1
60
0
100
AcDbSpline
70
4
71
3
72
16
73
12
40
0
40
0
40
0
40
0
40
0.087984003594391
40
0.087984003594391
40
0.263952205556021
40
0.263952205556021
40
0.439920047076071
40
0.439920047076071
40
0.615888399375296
40
0.615888399375296
40
1
40
1
40
1
40
1
41
1
10
143.717899218899
20
6.79979121673344
30
0
41
1
10
143.718425753614
20
6.78465563983977
30
0
41
1
10
143.718949913102
20
6.76951990253971
30
0
41
1
10
143.720517128738
20
6.72411252261645
30
0
41
1
10
143.721554901783
20
6.69384066683475
30
0
41
1
10
143.723626724256
20
6.63329707632863
30
0
41
1
10
143.724660777095
20
6.60302527530928
30
0
41
1
10
143.726736244588
20
6.54248173423611
30
0
41
1
10
143.727777745221
20
6.51220989464468
30
0
41
1
10
143.731121640867
20
6.41586240549793
30
0
41
1
10
143.733475809478
20
6.34978966340299
30
0
41
1
10
143.735852141653
20
6.28372298018729
30
0
0
SPLINE
5
220
100
AcDbEntity
8
1
62
256
6
ByLayer
370
-1
48
1
60
0
100
AcDbSpline
70
4
71
3
72
8
73
4
40
0
40
0
40
0
40
0
40
1
40
1
40
1
40
1
41
1
10
142.048031916627
20
15.4632890759494
30
0
41
1
10
142.046458893707
20
15.5212100288049
30
0
41
1
10
142.044428554646
20
15.5795734227421
30
0
41
1
10
142.041971682624
20
15.6374943755975
30
0
0
SPLINE
5
221
100
AcDbEntity
8
1
62
256
6
ByLayer
370
-1
48
1
60
0
100
AcDbSpline
70
4
71
3
72
10
73
6
40
0
40
0
40
0
40
0
40
0.0607450479741356
40
0.373830031982757
40
1
40
1
40
1
40
1
41
1
10
134.009999401315
20
14.3655510777923
30
0
41
1
10
134.010475849734
20
14.3655688511762
30
0
41
1
10
134.01343244792
20
14.3656789876758
30
0
41
1
10
134.022065053381
20
14.365995980692
30
0
41
1
10
134.031419171431
20
14.3663295454726
30
0
41
1
10
134.037766238873
20
14.3665520365968
30
0
0
SPLINE
5
222
100
AcDbEntity
8
1
62
256
6
ByLayer
370
-1
48
1
60
0
100
AcDbSpline
70
4
71
3
72
13
73
9
40
0
40
0
40
0
40
0
40
0.0688517852169378
40
0.178433579648197
40
0.616760757373236
40
0.835924346235755
40
0.945506140667014
40
1
40
1
40
1
40
1
41
1
10
142.889085111936
20
14.6759984106729
30
0
41
1
10
142.893088347593
20
14.6761376928669
30
0
41
1
10
142.903462761157
20
14.6764987267437
30
0
41
1
10
142.939316114526
20
14.6777483975516
30
0
41
1
10
142.983841155417
20
14.6793067084006
30
0
41
1
10
143.028089447402
20
14.6808632002259
30
0
41
1
10
143.050105863
20
14.6816395789326
30
0
41
1
10
143.059507065972
20
14.681971555865
30
0
41
1
10
143.062628126891
20
14.6820817919064
30
0
0
SPLINE
5
223
100
AcDbEntity
8
1
62
256
6
ByLayer
370
-1
48
1
60
0
100
AcDbSpline
70
4
71
3
72
11
73
7
40
0
40
0
40
0
40
0
40
0.0414539424600558
40
0.479978610899749
40
0.918503279339442
40
1
40
1
40
1
40
1
41
1
10
142.801910410073
20
14.6729658248757
30
0
41
1
10
142.803115001677
20
14.6730077183593
30
0
41
1
10
142.817062570203
20
14.673492821577
30
0
41
1
10
142.843752384356
20
14.6744214084809
30
0
41
1
10
142.871605828429
20
14.6753903359595
30
0
41
1
10
142.886716955108
20
14.6759160168028
30
0
41
1
10
142.889085111934
20
14.6759984106728
30
0
0
SPLINE
5
224
100
AcDbEntity
8
1
62
256
6
ByLayer
370
-1
48
1
60
0
100
AcDbSpline
70
4
71
3
72
10
73
6
40
0
40
0
40
0
40
0
40
0.499225645850197
40
0.499225645850197
40
1
40
1
40
1
40
1
41
1
10
134.017258862568
20
5.08416056736263
30
0
41
1
10
134.002168314654
20
5.08359948931775
30
0
41
1
10
133.987077507486
20
5.08307585072779
30
0
41
1
10
133.956851343165
20
5.08210737330424
30
0
41
1
10
133.94171591964
20
5.08166294349576
30
0
41
1
10
133.926581974371
20
5.0812588796957
30
0
0
SPLINE
5
225
100
AcDbEntity
8
1
62
256
6
ByLayer
370
-1
48
1
60
0
100
AcDbSpline
70
4
71
3
72
11
73
7
40
0
40
0
40
0
40
0
40
0.0814967294346514
40
0.520021388628442
40
0.958546047822233
40
1
40
1
40
1
40
1
41
1
10
142.048031540496
20
15.4632894344159
30
0
41
1
10
142.048095937318
20
15.4609299824441
30
0
41
1
10
142.048504737648
20
15.4458764528647
30
0
41
1
10
142.049257403046
20
15.4181300003817
30
0
41
1
10
142.049982704283
20
15.3915387506436
30
0
41
1
10
142.050357070114
20
15.377647212109
30
0
41
1
10
142.050389319876
20
15.3764475394254
30
0
0
SPLINE
5
226
100
AcDbEntity
8
1
62
256
6
ByLayer
370
-1
48
1
60
0
100
AcDbSpline
70
4
71
3
72
13
73
9
40
0
40
0
40
0
40
0
40
0.0688517852168384
40
0.178433579648093
40
0.616760757373114
40
0.835924346235624
40
0.945506140666879
40
1
40
1
40
1
40
1
41
1
10
133.672759048799
20
6.44760186336842
30
0
41
1
10
133.668815599132
20
6.44746258117442
30
0
41
1
10
133.658591381043
20
6.44710154729762
30
0
41
1
10
133.623145307092
20
6.44585187648974
30
0
41
1
10
133.57876159664
20
6.44429356564078
30
0
41
1
10
133.534204920888
20
6.44273707381544
30
0
41
1
10
133.511925385247
20
6.44196069510875
30
0
41
1
10
133.502385787958
20
6.44162871817633
30
0
41
1
10
133.499217379226
20
6.44151848213497
30
0
0
SPLINE
5
227
100
AcDbEntity
8
1
62
256
6
ByLayer
370
-1
48
1
60
0
100
AcDbSpline
70
4
71
3
72
12
73
8
40
0
40
0
40
0
40
0
40
0.484768844990457
40
0.727153267485685
40
0.848345478733299
40
0.969537689980914
40
1
40
1
40
1
40
1
41
1
10
143.647941537088
20
6.7973575483386
30
0
41
1
10
143.597745454269
20
6.79558438624073
30
0
41
1
10
143.522451332711
20
6.79292464318826
30
0
41
1
10
143.434608191737
20
6.78982160965683
30
0
41
1
10
143.384409661792
20
6.78804840906551
30
0
41
1
10
143.356158459746
20
6.78705042193891
30
0
41
1
10
143.340457832071
20
6.78649574976421
30
0
41
1
10
143.337302746143
20
6.78638431195807
30
0
0
SPLINE
5
228
100
AcDbEntity
8
1
62
256
6
ByLayer
370
-1
48
1
60
0
100
AcDbSpline
70
4
71
3
72
44
73
40
40
0
40
0
40
0
40
0
40
0.0005100809524634
40
0.0008224215521658
40
0.0055075305477011
40
0.0105049801429388
40
0.0204998793334142
40
0.0404896777143649
40
0.0804692744762664
40
0.120448871238168
40
0.140438669619119
40
0.160428468000069
40
0.18041826638102
40
0.200408064761971
40
0.220397863142922
40
0.240387661523872
40
0.260377459904823
40
0.280367258285774
40
0.300357056666724
40
0.320346855047675
40
0.340336653428626
40
0.350331552619101
40
0.360326451809577
40
0.380316250190527
40
0.400306048571478
40
0.440285645333379
40
0.480265242095281
40
0.520244838857182
40
0.560224435619084
40
0.580214234000035
40
0.600204032380985
40
0.640183629142887
40
0.680163225904788
40
0.700153024285739
40
0.72014282266669
40
0.760122419428591
40
0.840081612952394
40
0.920040806476197
40
1
40
1
40
1
40
1
41
1
10
133.201749869393
20
5.91447782981544
30
0
41
1
10
133.201767825685
20
5.91416426234508
30
0
41
1
10
133.201802143095
20
5.91365923997046
30
0
41
1
10
133.202090497948
20
5.91028337931272
30
0
41
1
10
133.20257520263
20
5.90414506432288
30
0
41
1
10
133.203420517822
20
5.89203959565702
30
0
41
1
10
133.204692952184
20
5.8705295671939
30
0
41
1
10
133.206416639388
20
5.82744610315063
30
0
41
1
10
133.207559744354
20
5.76587178706802
30
0
41
1
10
133.209062603437
20
5.70429939560034
30
0
41
1
10
133.211836799576
20
5.65510309833871
30
0
41
1
10
133.215145549488
20
5.61829351884779
30
0
41
1
10
133.220212534773
20
5.58167731453952
30
0
41
1
10
133.227776671307
20
5.54548122756987
30
0
41
1
10
133.238690240377
20
5.51014444672819
30
0
41
1
10
133.25294568594
20
5.47602961717641
30
0
41
1
10
133.270412003508
20
5.44345759002113
30
0
41
1
10
133.290763654961
20
5.41262583989098
30
0
41
1
10
133.313556537532
20
5.38357673178479
30
0
41
1
10
133.338285929477
20
5.35617832732231
30
0
41
1
10
133.36011888428
20
5.33452456869753
30
0
41
1
10
133.37806338422
20
5.31770701234001
30
0
41
1
10
133.396293131726
20
5.30119846606249
30
0
41
1
10
133.419603824758
20
5.28113855215435
30
0
41
1
10
133.458271531242
20
5.25072254681348
30
0
41
1
10
133.509559975149
20
5.2166117333891
30
0
41
1
10
133.576088530106
20
5.18432023613184
30
0
41
1
10
133.64662121074
20
5.1621538037993
30
0
41
1
10
133.70736220666
20
5.15217745896996
30
0
41
1
10
133.756371603077
20
5.14860933985764
30
0
41
1
10
133.805475719561
20
5.1471254315633
30
0
41
1
10
133.866861467336
20
5.14805254699624
30
0
41
1
10
133.928160847649
20
5.15056919138945
30
0
41
1
10
133.977176031526
20
5.15263005652977
30
0
41
1
10
134.026181231226
20
5.15457916072097
30
0
41
1
10
134.111916634552
20
5.15780097945552
30
0
41
1
10
134.234357727003
20
5.16199826520986
30
0
41
1
10
134.381313701424
20
5.166816114471
30
0
41
1
10
134.479356157615
20
5.17012883216375
30
0
41
1
10
134.528407167475
20
5.17187321632747
30
0
0
SPLINE
5
229
100
AcDbEntity
8
1
62
256
6
ByLayer
370
-1
48
1
60
0
100
AcDbSpline
70
4
71
2
72
9
73
6
40
0
40
0
40
0
40
0.25
40
0.5
40
0.75
40
1
40
1
40
1
41
1
10
142.332646005782
20
6.60190468888632
30
0
41
1
10
142.362322784239
20
6.60306717600466
30
0
41
1
10
142.415937371901
20
6.62732833736482
30
0
41
1
10
142.456657285068
20
6.67080349095011
30
0
41
1
10
142.477703669007
20
6.72661165802148
30
0
41
1
10
142.476769178225
20
6.75704823744456
30
0
0
SPLINE
5
22A
100
AcDbEntity
8
1
62
256
6
ByLayer
370
-1
48
1
60
0
100
AcDbSpline
70
4
71
3
72
44
73
40
40
0
40
0
40
0
40
0
40
0.0005100809524552
40
0.0008224215521576
40
0.0055075305476929
40
0.0105049801429306
40
0.0204998793334061
40
0.040489677714357
40
0.0804692744762588
40
0.120448871238161
40
0.140438669619112
40
0.160428468000062
40
0.180418266381013
40
0.200408064761964
40
0.220397863142915
40
0.240387661523866
40
0.260377459904817
40
0.280367258285768
40
0.300357056666719
40
0.32034685504767
40
0.34033665342862
40
0.350331552619096
40
0.360326451809571
40
0.380316250190522
40
0.400306048571473
40
0.440285645333375
40
0.480265242095277
40
0.520244838857178
40
0.56022443561908
40
0.580214234000031
40
0.600204032380982
40
0.640183629142884
40
0.680163225904786
40
0.700153024285737
40
0.720142822666687
40
0.760122419428589
40
0.840081612952393
40
0.920040806476196
40
1
40
1
40
1
40
1
41
1
10
133.648886964603
20
15.657967530499
30
0
41
1
10
133.64857453586
20
15.6579494509177
30
0
41
1
10
133.648071305477
20
15.6579148721535
30
0
41
1
10
133.644706961135
20
15.6576240808994
30
0
41
1
10
133.638589810415
20
15.6571353224726
30
0
41
1
10
133.626526664954
20
15.6562830222622
30
0
41
1
10
133.605092994689
20
15.6550002124672
30
0
41
1
10
133.562167214323
20
15.6532636552276
30
0
41
1
10
133.500828375934
20
15.6521173570825
30
0
41
1
10
133.439499276643
20
15.6506177823032
30
0
41
1
10
133.39049914361
20
15.6478419808668
30
0
41
1
10
133.353836418452
20
15.6445274007462
30
0
41
1
10
133.317365456868
20
15.6394469899762
30
0
41
1
10
133.281310830024
20
15.6318576969772
30
0
41
1
10
133.246108656277
20
15.6209025803568
30
0
41
1
10
133.212121281554
20
15.6065903098864
30
0
41
1
10
133.17966968119
20
15.5890537407718
30
0
41
1
10
133.148952340895
20
15.5686214239031
30
0
41
1
10
133.120013446617
20
15.5457411481767
30
0
41
1
10
133.092723667641
20
15.5209216769354
30
0
41
1
10
133.071161530337
20
15.4990145812514
30
0
41
1
10
133.054419929779
20
15.4810135418425
30
0
41
1
10
133.037989373891
20
15.4627293879979
30
0
41
1
10
133.018030819499
20
15.4393547729868
30
0
41
1
10
132.987781126612
20
15.4005901256861
30
0
41
1
10
132.953879008895
20
15.3491849633816
30
0
41
1
10
132.921815001446
20
15.2825072906609
30
0
41
1
10
132.899832523702
20
15.2118051717407
30
0
41
1
10
132.889964055146
20
15.1509023354101
30
0
41
1
10
132.886454910225
20
15.1017513008882
30
0
41
1
10
132.885013376085
20
15.0524964823859
30
0
41
1
10
132.885964323828
20
14.9909037158026
30
0
41
1
10
132.888469142082
20
14.9293679236752
30
0
41
1
10
132.890499399156
20
14.8801426569431
30
0
41
1
10
132.892404772893
20
14.8309138131059
30
0
41
1
10
132.895523102506
20
14.7447593368593
30
0
41
1
10
132.899528782979
20
14.6216742350926
30
0
41
1
10
132.90413438045
20
14.4739622535672
30
0
41
1
10
132.907370357717
20
14.3754809116031
30
0
41
1
10
132.909108294095
20
14.3262427257028
30
0
0
SPLINE
5
22B
100
AcDbEntity
8
1
62
256
6
ByLayer
370
-1
48
1
60
0
100
AcDbSpline
70
4
71
3
72
18
73
14
40
0
40
0
40
0
40
0
40
0.0041315572796272
40
0.0497906845581626
40
0.0954498118366981
40
0.186768066393769
40
0.369404575507911
40
0.552041084622052
40
0.734677593736194
40
0.825995848293265
40
0.917314102850336
40
0.962973230128871
40
1
40
1
40
1
40
1
41
1
10
134.18592345359
20
14.7118215058645
30
0
41
1
10
134.185935638568
20
14.7122951693952
30
0
41
1
10
134.186082152125
20
14.7180055092824
30
0
41
1
10
134.186354604813
20
14.7290050011801
30
0
41
1
10
134.186813265868
20
14.7504296921947
30
0
41
1
10
134.187470594619
20
14.7887589226337
30
0
41
1
10
134.187982335568
20
14.8457696575447
30
0
41
1
10
134.187911853351
20
14.9171394498074
30
0
41
1
10
134.187280179817
20
14.9785478261042
30
0
41
1
10
134.186435522096
20
15.0284938395633
30
0
41
1
10
134.185768258481
20
15.0599795233003
30
0
41
1
10
134.185181186694
20
15.0840903616133
30
0
41
1
10
134.184875681519
20
15.0955779529972
30
0
41
1
10
134.184737352649
20
15.1007237077519
30
0
0
SPLINE
5
22C
100
AcDbEntity
8
1
62
256
6
ByLayer
370
-1
48
1
60
0
100
AcDbSpline
70
4
71
3
72
11
73
7
40
0
40
0
40
0
40
0
40
0.0814967294344849
40
0.52002138862836
40
0.958546047822235
40
1
40
1
40
1
40
1
41
1
10
133.398084429549
20
14.3432993432946
30
0
41
1
10
133.400417219571
20
14.3433817371727
30
0
41
1
10
133.415298585796
20
14.3439074180073
30
0
41
1
10
133.442726879642
20
14.3448763454751
30
0
41
1
10
133.469017189538
20
14.3458049323743
30
0
41
1
10
133.482746975156
20
14.3462900355875
30
0
41
1
10
133.483932598409
20
14.3463319290806
30
0
0
SPLINE
5
22D
100
AcDbEntity
8
1
62
256
6
ByLayer
370
-1
48
1
60
0
100
AcDbSpline
70
4
71
3
72
10
73
6
40
0
40
0
40
0
40
0
40
0.499225645850167
40
0.499225645850167
40
1
40
1
40
1
40
1
41
1
10
143.735852141586
20
6.28372298018499
30
0
41
1
10
143.73639647471
20
6.26858945448612
30
0
41
1
10
143.736904888809
20
6.25345428531804
30
0
41
1
10
143.737848361252
20
6.22313406302874
30
0
41
1
10
143.738283101576
20
6.20794885349201
30
0
41
1
10
143.738680213515
20
6.1927625339695
30
0
0
SPLINE
5
22E
100
AcDbEntity
8
1
62
256
6
ByLayer
370
-1
48
1
60
0
100
AcDbSpline
70
4
71
3
72
14
73
10
40
0
40
0
40
0
40
0
40
0.0881951882034722
40
0.185164860420335
40
0.37910420485406
40
0.766982893721511
40
0.960922238155236
40
0.985164656209452
40
1
40
1
40
1
40
1
41
1
10
142.676819353906
20
6.76368756564216
30
0
41
1
10
142.671788379439
20
6.76352130782223
30
0
41
1
10
142.661258231442
20
6.76317354730256
30
0
41
1
10
142.639698337403
20
6.76246152241953
30
0
41
1
10
142.601066541536
20
6.76118548870451
30
0
41
1
10
142.55691409966
20
6.75972708677725
30
0
41
1
10
142.522449233949
20
6.75858889245168
30
0
41
1
10
142.509172749748
20
6.75815025119491
30
0
41
1
10
142.506959436607
20
6.75807722560785
30
0
41
1
10
142.506111612448
20
6.758049196249
30
0
0
SPLINE
5
22F
100
AcDbEntity
8
1
62
256
6
ByLayer
370
-1
48
1
60
0
100
AcDbSpline
70
4
71
3
72
8
73
4
40
0
40
0
40
0
40
0
40
1
40
1
40
1
40
1
41
1
10
142.051575161116
20
14.9875469553997
30
0
41
1
10
142.054578701328
20
15.1018524830952
30
0
41
1
10
142.054165651952
20
15.2374361719542
30
0
41
1
10
142.050390396944
20
15.3764464588073
30
0
0
SPLINE
5
230
100
AcDbEntity
8
1
62
256
6
ByLayer
370
-1
48
1
60
0
100
AcDbSpline
70
4
71
3
72
8
73
4
40
0
40
0
40
0
40
0
40
1
40
1
40
1
40
1
41
1
10
133.718359954849
20
5.07901594822204
30
0
41
1
10
133.680654696933
20
5.07904710155009
30
0
41
1
10
133.643087799654
20
5.08337346065881
30
0
41
1
10
133.606347046597
20
5.09190811774536
30
0
0
SPLINE
5
231
100
AcDbEntity
8
1
62
256
6
ByLayer
370
-1
48
1
60
0
100
AcDbSpline
70
4
71
3
72
10
73
6
40
0
40
0
40
0
40
0
40
0.28385328248332
40
0.28385328248332
40
1
40
1
40
1
40
1
41
1
10
142.680200532831
20
16.043386492605
30
0
41
1
10
142.695285214541
20
16.043630186344
30
0
41
1
10
142.710372458612
20
16.0438352822511
30
0
41
1
10
142.763528864479
20
16.0444269943749
30
0
41
1
10
142.801606705569
20
16.0446157632962
30
0
41
1
10
142.83968410247
20
16.0445843257882
30
0
0
SPLINE
5
232
100
AcDbEntity
8
1
62
256
6
ByLayer
370
-1
48
1
60
0
100
AcDbSpline
70
4
71
3
72
10
73
6
40
0
40
0
40
0
40
0
40
0.5
40
0.5
40
1
40
1
40
1
40
1
41
1
10
135.68774032751
20
7.97174738745164
30
0
41
1
10
135.682428943545
20
8.00217036436271
30
0
41
1
10
135.675047383655
20
8.03413863271223
30
0
41
1
10
135.65621330531
20
8.10106035195906
30
0
41
1
10
135.644624274554
20
8.1361123081731
30
0
41
1
10
135.632044665193
20
8.17009400429137
30
0
0
SPLINE
5
233
100
AcDbEntity
8
1
62
256
6
ByLayer
370
-1
48
1
60
0
100
AcDbSpline
70
4
71
3
72
11
73
7
40
0
40
0
40
0
40
0
40
0.0414539424594916
40
0.479978610899396
40
0.918503279339301
40
1
40
1
40
1
40
1
41
1
10
133.75860721766
20
6.45063444916562
30
0
41
1
10
133.75742159468
20
6.45059255568199
30
0
41
1
10
133.743691808987
20
6.45010745246438
30
0
41
1
10
133.717401499056
20
6.44917886556047
30
0
41
1
10
133.689973205003
20
6.44820993808182
30
0
41
1
10
133.675091838586
20
6.44768425723854
30
0
41
1
10
133.672759048801
20
6.4476018633685
30
0
0
SPLINE
5
234
100
AcDbEntity
8
1
62
256
6
ByLayer
370
-1
48
1
60
0
100
AcDbSpline
70
4
71
1
72
4
73
2
40
0
40
0
40
1
40
1
41
1
10
143.425271676948
20
15.2115569337382
30
0
41
1
10
143.355313995142
20
15.2091232651875
30
0
0
SPLINE
5
235
100
AcDbEntity
8
1
62
256
6
ByLayer
370
-1
48
1
60
0
100
AcDbSpline
70
4
71
3
72
10
73
6
40
0
40
0
40
0
40
0
40
0.28385328248337
40
0.28385328248337
40
1
40
1
40
1
40
1
41
1
10
133.877768991352
20
5.08021378143633
30
0
41
1
10
133.862683147093
20
5.07997008769732
30
0
41
1
10
133.84759850625
20
5.07976499179023
30
0
41
1
10
133.794459899027
20
5.07917327966641
30
0
41
1
10
133.756409160011
20
5.07898451074519
30
0
41
1
10
133.718359954847
20
5.0790159482531
30
0
0
SPLINE
5
236
100
AcDbEntity
8
1
62
256
6
ByLayer
370
-1
48
1
60
0
100
AcDbSpline
70
4
71
3
72
10
73
6
40
0
40
0
40
0
40
0
40
0.0607450479738163
40
0.373830031982544
40
1
40
1
40
1
40
1
41
1
10
142.506111612448
20
6.758049196249
30
0
41
1
10
142.505574008134
20
6.75803142286512
30
0
41
1
10
142.502246815953
20
6.7579212863655
30
0
41
1
10
142.492793521937
20
6.75760429334932
30
0
41
1
10
142.483116245667
20
6.75727072856876
30
0
41
1
10
142.476769178225
20
6.75704823744456
30
0
0
SPLINE
5
237
100
AcDbEntity
8
1
62
256
6
ByLayer
370
-1
48
1
60
0
100
AcDbSpline
70
4
71
3
72
8
73
4
40
0
40
0
40
0
40
0
40
1
40
1
40
1
40
1
41
1
10
142.839684102467
20
16.0445843258193
30
0
41
1
10
142.877417297281
20
16.0445531724912
30
0
41
1
10
142.915009631988
20
16.0402268133825
30
0
41
1
10
142.951766241874
20
16.031692156296
30
0
0
SPLINE
5
238
100
AcDbEntity
8
1
62
256
6
ByLayer
370
-1
48
1
60
0
100
AcDbSpline
70
4
71
3
72
14
73
10
40
0
40
0
40
0
40
0
40
0.0148352406566464
40
0.0390776615035256
40
0.233017028278559
40
0.620895761828627
40
0.814835128603661
40
0.911804811991177
40
1
40
1
40
1
40
1
41
1
10
142.33443095399
20
6.57324097911194
30
0
41
1
10
142.334507098774
20
6.57243832969019
30
0
41
1
10
142.334709937476
20
6.57034715488049
30
0
41
1
10
142.335910155034
20
6.55778606239099
30
0
41
1
10
142.339039283978
20
6.52519251710484
30
0
41
1
10
142.343040336596
20
6.48342930690239
30
0
41
1
10
142.346541533877
20
6.44688848888063
30
0
41
1
10
142.348498607349
20
6.42649876452396
30
0
41
1
10
142.349454484476
20
6.41653970796199
30
0
41
1
10
142.349908205547
20
6.41177876817682
30
0
0
SPLINE
5
239
100
AcDbEntity
8
1
62
256
6
ByLayer
370
-1
48
1
60
0
100
AcDbSpline
70
4
71
3
72
14
73
10
40
0
40
0
40
0
40
0
40
0.0148352406566171
40
0.0390776615034945
40
0.233017028278514
40
0.620895761828552
40
0.814835128603571
40
0.911804811991081
40
1
40
1
40
1
40
1
41
1
10
134.284674020771
20
6.46985359796219
30
0
41
1
10
134.283922647981
20
6.46982556882674
30
0
41
1
10
134.281969521874
20
6.46975254339324
30
0
41
1
10
134.270219471847
20
6.46931390037787
30
0
41
1
10
134.239745223265
20
6.46817570869601
30
0
41
1
10
134.200689133533
20
6.46671730525929
30
0
41
1
10
134.166517383846
20
6.46544127177614
30
0
41
1
10
134.147453006624
20
6.46472924691187
30
0
41
1
10
134.138141269887
20
6.46438146899331
30
0
41
1
10
134.133686544959
20
6.46421521331251
30
0
0
SPLINE
5
23A
100
AcDbEntity
8
1
62
256
6
ByLayer
370
-1
48
1
60
0
100
AcDbSpline
70
4
71
1
72
4
73
2
40
0
40
0
40
1
40
1
41
1
10
142.911119712542
20
5.39592739892029
30
0
41
1
10
142.90816357619
20
5.46561854794416
30
0
0
SPLINE
5
23B
100
AcDbEntity
8
1
62
256
6
ByLayer
370
-1
48
1
60
0
100
AcDbSpline
70
4
71
3
72
16
73
12
40
0
40
0
40
0
40
0
40
0.572471985996865
40
0.858707978995298
40
0.930266977244906
40
0.96604647636971
40
0.983936225932113
40
0.992881100713313
40
0.997353538103914
40
0.999589756799214
40
1
40
1
40
1
40
1
41
1
10
134.162990696406
20
15.6760032260386
30
0
41
1
10
134.064887310116
20
15.672564294119
30
0
41
1
10
133.917732165075
20
15.667406332918
30
0
41
1
10
133.758314309729
20
15.6618170860136
30
0
41
1
10
133.69086808618
20
15.6594537754843
30
0
41
1
10
133.669408125727
20
15.6587004857155
30
0
41
1
10
133.658677834935
20
15.6583258876549
30
0
41
1
10
133.653313175196
20
15.6581355474469
30
0
41
1
10
133.65063018915
20
15.6580452577177
30
0
41
1
10
133.649410077007
20
15.6579966996232
30
0
41
1
10
133.648957158189
20
15.6579715924512
30
0
41
1
10
133.648886964603
20
15.657967530499
30
0
0
SPLINE
5
23C
100
AcDbEntity
8
1
62
256
6
ByLayer
370
-1
48
1
60
0
100
AcDbSpline
70
4
71
3
72
11
73
7
40
0
40
0
40
0
40
0
40
0.0414539424597823
40
0.479978610899548
40
0.918503279339314
40
1
40
1
40
1
40
1
41
1
10
134.184737352649
20
15.1007237077519
30
0
41
1
10
134.184705102894
20
15.10192338016
30
0
41
1
10
134.184330737058
20
15.1158149187678
30
0
41
1
10
134.183605435818
20
15.1424061685434
30
0
41
1
10
134.182852770411
20
15.1701526212355
30
0
41
1
10
134.182443970073
20
15.1852061510092
30
0
41
1
10
134.182379573257
20
15.1875656027409
30
0
0
SPLINE
5
23D
100
AcDbEntity
8
1
62
256
6
ByLayer
370
-1
48
1
60
0
100
AcDbSpline
70
4
71
3
72
11
73
7
40
0
40
0
40
0
40
0
40
0.0814967294348283
40
0.520021388628565
40
0.958546047822302
40
1
40
1
40
1
40
1
41
1
10
143.163759731186
20
6.78030093074679
30
0
41
1
10
143.161391574119
20
6.78021853686866
30
0
41
1
10
143.146280447634
20
6.7796928560341
30
0
41
1
10
143.118427003771
20
6.77872392856628
30
0
41
1
10
143.091737189659
20
6.77779534166709
30
0
41
1
10
143.077789621203
20
6.77731023845382
30
0
41
1
10
143.076585029323
20
6.77726834496073
30
0
0
SPLINE
5
23E
100
AcDbEntity
8
1
62
256
6
ByLayer
370
-1
48
1
60
0
100
AcDbSpline
70
4
71
3
72
14
73
10
40
0
40
0
40
0
40
0
40
0.0881951882035349
40
0.185164860420397
40
0.37910420485412
40
0.766982893721566
40
0.96092223815529
40
0.985164656209505
40
1
40
1
40
1
40
1
41
1
10
133.859012414842
20
14.3599127083992
30
0
41
1
10
133.863467208408
20
14.3600789662191
30
0
41
1
10
133.872778386504
20
14.3604267267388
30
0
41
1
10
133.891842764315
20
14.3611387516218
30
0
41
1
10
133.926014520355
20
14.3624147853368
30
0
41
1
10
133.965070569888
20
14.3638731872641
30
0
41
1
10
133.995544889314
20
14.3650113815896
30
0
41
1
10
134.007294892368
20
14.3654500228464
30
0
41
1
10
134.009248022523
20
14.3655230484335
30
0
41
1
10
134.009999401315
20
14.3655510777923
30
0
0
SPLINE
5
23F
100
AcDbEntity
8
1
62
256
6
ByLayer
370
-1
48
1
60
0
100
AcDbSpline
70
4
71
3
72
10
73
6
40
0
40
0
40
0
40
0
40
0.283856160922843
40
0.283856160922843
40
1
40
1
40
1
40
1
41
1
10
133.348493737652
20
15.7118226012017
30
0
41
1
10
133.363536608309
20
15.7128933315833
30
0
41
1
10
133.378584699532
20
15.7139247334497
30
0
41
1
10
133.431611710797
20
15.7174240529068
30
0
41
1
10
133.469613777312
20
15.7196880341719
30
0
41
1
10
133.507629234216
20
15.7217278715403
30
0
0
SPLINE
5
240
100
AcDbEntity
8
1
62
256
6
ByLayer
370
-1
48
1
60
0
100
AcDbSpline
70
4
71
3
72
9
73
5
40
0
40
0
40
0
40
0
40
0.339285714285583
40
1
40
1
40
1
40
1
41
1
10
134.531363303672
20
5.1021820672982
30
0
41
1
10
134.531028978727
20
5.11006380439017
30
0
41
1
10
134.530043599943
20
5.13329418739812
30
0
41
1
10
134.529058221159
20
5.15652457040608
30
0
41
1
10
134.52840716732
20
5.17187321632204
30
0
0
SPLINE
5
241
100
AcDbEntity
8
1
62
256
6
ByLayer
370
-1
48
1
60
0
100
AcDbSpline
70
4
71
3
72
14
73
10
40
0
40
0
40
0
40
0
40
0.25
40
0.25
40
0.5
40
0.5
40
0.75
40
0.75
40
1
40
1
40
1
40
1
41
1
10
143.728134072974
20
5.871241547837
30
0
41
1
10
143.716289700664
20
5.81980350228977
30
0
41
1
10
143.697759207968
20
5.77033086058628
30
0
41
1
10
143.64888016642
20
5.67817149716899
30
0
41
1
10
143.618012729917
20
5.63478821591016
30
0
41
1
10
143.547058635721
20
5.55849899965722
30
0
41
1
10
143.506066278932
20
5.52462456423561
30
0
41
1
10
143.417913880274
20
5.46945278069998
30
0
41
1
10
143.370786804224
20
5.44784761143779
30
0
41
1
10
143.320492182744
20
5.43242932677973
30
0
0
SPLINE
5
242
100
AcDbEntity
8
1
62
256
6
ByLayer
370
-1
48
1
60
0
100
AcDbSpline
70
4
71
3
72
8
73
4
40
0
40
0
40
0
40
0
40
1
40
1
40
1
40
1
41
1
10
134.513812971617
20
5.66031119809193
30
0
41
1
10
134.516269843639
20
5.60239024523648
30
0
41
1
10
134.518300182701
20
5.54402685129927
30
0
41
1
10
134.519873205621
20
5.48610589844384
30
0
0
SPLINE
5
243
100
AcDbEntity
8
1
62
256
6
ByLayer
370
-1
48
1
60
0
100
AcDbSpline
70
4
71
3
72
10
73
6
40
0
40
0
40
0
40
0
40
0.0607450479740384
40
0.373830031982692
40
1
40
1
40
1
40
1
41
1
10
134.468778986823
20
6.29751714725577
30
0
41
1
10
134.468730703125
20
6.2980261103805
30
0
41
1
10
134.46843568873
20
6.30118000709331
30
0
41
1
10
134.467709557691
20
6.31025749943046
30
0
41
1
10
134.467215683115
20
6.31980954500824
30
0
41
1
10
134.466994038637
20
6.32618085721651
30
0
0
SPLINE
5
244
100
AcDbEntity
8
1
62
256
6
ByLayer
370
-1
48
1
60
0
100
AcDbSpline
70
4
71
3
72
8
73
4
40
0
40
0
40
0
40
0
40
1
40
1
40
1
40
1
41
1
10
133.859010110666
20
14.3599126366482
30
0
41
1
10
133.752119537825
20
14.3559209996639
30
0
41
1
10
133.621355406293
20
14.3511863129184
30
0
41
1
10
133.483934714473
20
14.3463319667342
30
0
0
SPLINE
5
245
100
AcDbEntity
8
1
62
256
6
ByLayer
370
-1
48
1
60
0
100
AcDbSpline
70
4
71
3
72
10
73
6
40
0
40
0
40
0
40
0
40
0.499245058431814
40
0.499245058431814
40
1
40
1
40
1
40
1
41
1
10
143.421707081728
20
15.3024930121685
30
0
41
1
10
143.422367821446
20
15.2873626347948
30
0
41
1
10
143.422994436954
20
15.2722307261935
30
0
41
1
10
143.424182404141
20
15.241918606241
30
0
41
1
10
143.424743548999
20
15.2267383091793
30
0
41
1
10
143.425271676948
20
15.2115569337382
30
0
0
SPLINE
5
246
100
AcDbEntity
8
1
62
256
6
ByLayer
370
-1
48
1
60
0
100
AcDbSpline
70
4
71
3
72
16
73
12
40
0
40
0
40
0
40
0
40
0.0879840035943698
40
0.0879840035943698
40
0.263952205556009
40
0.263952205556009
40
0.439920047076063
40
0.439920047076063
40
0.615888399375273
40
0.615888399375273
40
1
40
1
40
1
40
1
41
1
10
134.531363303672
20
5.1021820672982
30
0
41
1
10
134.516285322218
20
5.10165352130636
30
0
41
1
10
134.501209127453
20
5.10112931353513
30
0
41
1
10
134.455984683302
20
5.09956629713207
30
0
41
1
10
134.425840546959
20
5.09853713369765
30
0
41
1
10
134.365555435755
20
5.09648559717024
30
0
41
1
10
134.33541439395
20
5.09546321974941
30
0
41
1
10
134.275126350513
20
5.09340503141198
30
0
41
1
10
134.24497918226
20
5.09236906646888
30
0
41
1
10
134.149004725808
20
5.08901882354729
30
0
41
1
10
134.083137922644
20
5.08661000083819
30
0
41
1
10
134.017258862572
20
5.08416056729635
30
0
0
SPLINE
5
247
100
AcDbEntity
8
1
62
256
6
ByLayer
370
-1
48
1
60
0
100
AcDbSpline
70
4
71
3
72
8
73
4
40
0
40
0
40
0
40
0
40
1
40
1
40
1
40
1
41
1
10
132.817101488996
20
15.139883199042
30
0
41
1
10
132.817146492225
20
15.1777465067241
30
0
41
1
10
132.821469106945
20
15.2154696707448
30
0
41
1
10
132.829979215499
20
15.2523587262095
30
0
0
SPLINE
5
248
100
AcDbEntity
8
1
62
256
6
ByLayer
370
-1
48
1
60
0
100
AcDbSpline
70
4
71
3
72
8
73
4
40
0
40
0
40
0
40
0
40
1
40
1
40
1
40
1
41
1
10
143.163759737838
20
6.78030091832241
30
0
41
1
10
143.221902208532
20
6.78232356256581
30
0
41
1
10
143.280043512135
20
6.78436165719225
30
0
41
1
10
143.337302133727
20
6.78638430143567
30
0
0
SPLINE
5
249
100
AcDbEntity
8
1
62
256
6
ByLayer
370
-1
48
1
60
0
100
AcDbSpline
70
4
71
3
72
8
73
4
40
0
40
0
40
0
40
0
40
1
40
1
40
1
40
1
41
1
10
143.740942568321
20
5.98371707499942
30
0
41
1
10
143.740925501989
20
5.94585376731726
30
0
41
1
10
143.736628324697
20
5.90813060329654
30
0
41
1
10
143.728134072972
20
5.87124154783191
30
0
0
SPLINE
5
24A
100
AcDbEntity
8
1
62
256
6
ByLayer
370
-1
48
1
60
0
100
AcDbSpline
70
4
71
3
72
12
73
8
40
0
40
0
40
0
40
0
40
0.0304623077133171
40
0.151654519249152
40
0.272846730784988
40
0.515231153856659
40
1
40
1
40
1
40
1
41
1
10
143.062628126891
20
14.6820817919064
30
0
41
1
10
143.065783212682
20
14.6821932297081
30
0
41
1
10
143.0814838409
20
14.6827479019039
30
0
41
1
10
143.109735042678
20
14.6837458890248
30
0
41
1
10
143.159933572495
20
14.685519089618
30
0
41
1
10
143.247776713435
20
14.6886221231596
30
0
41
1
10
143.323070835016
20
14.6912818662227
30
0
41
1
10
143.373266917835
20
14.6930550283271
30
0
0
SPLINE
5
24B
100
AcDbEntity
8
1
62
256
6
ByLayer
370
-1
48
1
60
0
100
AcDbSpline
70
4
71
3
72
8
73
4
40
0
40
0
40
0
40
0
40
1
40
1
40
1
40
1
41
1
10
143.419331170832
20
15.3514354302935
30
0
41
1
10
143.420202734683
20
15.3351253656509
30
0
41
1
10
143.420994487201
20
15.3188108205485
30
0
41
1
10
143.421707081728
20
15.3024930121685
30
0
0
SPLINE
5
24C
100
AcDbEntity
8
1
62
256
6
ByLayer
370
-1
48
1
60
0
100
AcDbSpline
70
4
71
3
72
14
73
10
40
0
40
0
40
0
40
0
40
0.25
40
0.25
40
0.5
40
0.5
40
0.75
40
0.75
40
1
40
1
40
1
40
1
41
1
10
133.606347046602
20
5.09190811774371
30
0
41
1
10
133.555115793718
20
5.10380883123182
30
0
41
1
10
133.505835603908
20
5.12241431697294
30
0
41
1
10
133.414025779262
20
5.17147890867648
30
0
41
1
10
133.370802179231
20
5.20245882786861
30
0
41
1
10
133.294785720257
20
5.27366634193322
30
0
41
1
10
133.261028936029
20
5.31480398862723
30
0
41
1
10
133.206068657334
20
5.40329468063189
30
0
41
1
10
133.184555828199
20
5.45061193907125
30
0
41
1
10
133.169204638528
20
5.50110713377117
30
0
0
SPLINE
5
24D
100
AcDbEntity
8
1
62
256
6
ByLayer
370
-1
48
1
60
0
100
AcDbSpline
70
4
71
3
72
44
73
40
40
0
40
0
40
0
40
0
40
0.0005100809524647
40
0.0008224215521671
40
0.0055075305477024
40
0.0105049801429401
40
0.0204998793334154
40
0.0404896777143661
40
0.0804692744762675
40
0.120448871238169
40
0.14043866961912
40
0.16042846800007
40
0.180418266381021
40
0.200408064761972
40
0.220397863142923
40
0.240387661523873
40
0.260377459904824
40
0.280367258285775
40
0.300357056666725
40
0.320346855047676
40
0.340336653428627
40
0.350331552619102
40
0.360326451809578
40
0.380316250190528
40
0.400306048571479
40
0.44028564533338
40
0.480265242095282
40
0.520244838857183
40
0.560224435619085
40
0.580214234000035
40
0.600204032380986
40
0.640183629142887
40
0.680163225904789
40
0.700153024285739
40
0.72014282266669
40
0.760122419428592
40
0.840081612952394
40
0.920040806476197
40
1
40
1
40
1
40
1
41
1
10
143.355299745336
20
15.2091224442259
30
0
41
1
10
143.355281680061
20
15.2094360116963
30
0
41
1
10
143.355247103108
20
15.2099410340709
30
0
41
1
10
143.35495608855
20
15.2133168947286
30
0
41
1
10
143.354466996125
20
15.2194552097185
30
0
41
1
10
143.353614197416
20
15.2315606783843
30
0
41
1
10
143.352330775144
20
15.2530707068475
30
0
41
1
10
143.350594564118
20
15.2961541708907
30
0
41
1
10
143.349453796816
20
15.3577284869733
30
0
41
1
10
143.347968919009
20
15.419300878441
30
0
41
1
10
143.3452126378
20
15.4684971757026
30
0
41
1
10
143.341917453428
20
15.5053067551936
30
0
41
1
10
143.336862282166
20
15.5419229595019
30
0
41
1
10
143.329305591805
20
15.5781190464715
30
0
41
1
10
143.318392302686
20
15.6134558273132
30
0
41
1
10
143.304132132328
20
15.647570656865
30
0
41
1
10
143.286658775547
20
15.6801426840202
30
0
41
1
10
143.266301295531
20
15.7109744341504
30
0
41
1
10
143.243507759364
20
15.7400235422566
30
0
41
1
10
143.218787099988
20
15.7674219467191
30
0
41
1
10
143.196972589649
20
15.7890757053438
30
0
41
1
10
143.17905200955
20
15.8058932617014
30
0
41
1
10
143.160852602819
20
15.8224018079789
30
0
41
1
10
143.137591960762
20
15.842461721887
30
0
41
1
10
143.099025395018
20
15.8728777272279
30
0
41
1
10
143.04789473864
20
15.9069885406522
30
0
41
1
10
142.981575405507
20
15.9392800379095
30
0
41
1
10
142.911241934116
20
15.961446470242
30
0
41
1
10
142.850640764734
20
15.9714228150714
30
0
41
1
10
142.801722161158
20
15.9749909341837
30
0
41
1
10
142.752691499546
20
15.976474842478
30
0
41
1
10
142.691360472299
20
15.9755477270451
30
0
41
1
10
142.630056592892
20
15.9730310826519
30
0
41
1
10
142.580995877308
20
15.9709702175116
30
0
41
1
10
142.53191805056
20
15.9690211133204
30
0
41
1
10
142.446000188978
20
15.9657992945858
30
0
41
1
10
142.323207829842
20
15.9616020088315
30
0
41
1
10
142.175864018582
20
15.9567841595703
30
0
41
1
10
142.077693293322
20
15.9534714418776
30
0
41
1
10
142.028642663707
20
15.9517270577139
30
0
0
SPLINE
5
24E
100
AcDbEntity
8
1
62
256
6
ByLayer
370
-1
48
1
60
0
100
AcDbSpline
70
4
71
3
72
8
73
4
40
0
40
0
40
0
40
0
40
1
40
1
40
1
40
1
41
1
10
133.398085150406
20
14.3432993557189
30
0
41
1
10
133.340826528814
20
14.3412767114756
30
0
41
1
10
133.282685225211
20
14.3392386168491
30
0
41
1
10
133.224542754517
20
14.3372159726057
30
0
0
SPLINE
5
24F
100
AcDbEntity
8
1
62
256
6
ByLayer
370
-1
48
1
60
0
100
AcDbSpline
70
4
71
3
72
16
73
12
40
0
40
0
40
0
40
0
40
0.572471985996888
40
0.858707978995332
40
0.930266977244943
40
0.966046476369748
40
0.983936225932151
40
0.992881100713352
40
0.997353538103953
40
0.999589756799253
40
1
40
1
40
1
40
1
41
1
10
142.394059134776
20
5.44759704800273
30
0
41
1
10
142.492162521067
20
5.45103597992238
30
0
41
1
10
142.639317672657
20
5.45619394112333
30
0
41
1
10
142.798735513268
20
5.46178318802771
30
0
41
1
10
142.866181751142
20
5.464146498557
30
0
41
1
10
142.887641696247
20
5.46489978832588
30
0
41
1
10
142.898372010062
20
5.4652743863864
30
0
41
1
10
142.9037366357
20
5.46546472659449
30
0
41
1
10
142.906419677881
20
5.46555501632363
30
0
41
1
10
142.907639703233
20
5.46560357441814
30
0
41
1
10
142.908092481026
20
5.46562868159012
30
0
41
1
10
142.908162650126
20
5.46563274354239
30
0
0
SPLINE
5
250
100
AcDbEntity
8
1
62
256
6
ByLayer
370
-1
48
1
60
0
100
AcDbSpline
70
4
71
3
72
10
73
6
40
0
40
0
40
0
40
0
40
0.626169544094127
40
0.93925431614119
40
1
40
1
40
1
40
1
41
1
10
134.31244085812
20
6.47085455676398
30
0
41
1
10
134.306093790678
20
6.47063206563902
30
0
41
1
10
134.296739634237
20
6.47029849944749
30
0
41
1
10
134.288107072517
20
6.46998150803978
30
0
41
1
10
134.285150474061
20
6.46987137152809
30
0
41
1
10
134.284674020771
20
6.46985359796219
30
0
0
SPLINE
5
251
100
AcDbEntity
8
1
62
256
6
ByLayer
370
-1
48
1
60
0
100
AcDbSpline
70
4
71
3
72
14
73
10
40
0
40
0
40
0
40
0
40
0.25
40
0.25
40
0.5
40
0.5
40
0.75
40
0.75
40
1
40
1
40
1
40
1
41
1
10
142.951766241869
20
16.0316921562976
30
0
41
1
10
143.003019605494
20
16.0197914428095
30
0
41
1
10
143.052308182415
20
16.0011859570684
30
0
41
1
10
143.144115696201
20
15.9521213653649
30
0
41
1
10
143.187328485721
20
15.9211414461728
30
0
41
1
10
143.263309852253
20
15.8499339321082
30
0
41
1
10
143.29704413396
20
15.8087962854142
30
0
41
1
10
143.352007531751
20
15.7203055934095
30
0
41
1
10
143.373540612756
20
15.6729883349701
30
0
41
1
10
143.388908649945
20
15.6224931402702
30
0
0
SPLINE
5
252
100
AcDbEntity
8
1
62
256
6
ByLayer
370
-1
48
1
60
0
100
AcDbSpline
70
4
71
3
72
18
73
14
40
0
40
0
40
0
40
0
40
0.0041315572796611
40
0.0497906845581977
40
0.0954498118367342
40
0.186768066393807
40
0.369404575507954
40
0.5520410846221
40
0.734677593736246
40
0.825995848293319
40
0.917314102850392
40
0.962973230128929
40
1
40
1
40
1
40
1
41
1
10
142.402145114178
20
14.6593850607288
30
0
41
1
10
142.402645638007
20
14.6594016014238
30
0
41
1
10
142.408679412534
20
14.6596010108867
30
0
41
1
10
142.420292149796
20
14.6599851216078
30
0
41
1
10
142.442839294144
20
14.6607332883042
30
0
41
1
10
142.483013391917
20
14.6620717745251
30
0
41
1
10
142.542302207632
20
14.6640626332575
30
0
41
1
10
142.615812738227
20
14.6665549213217
30
0
41
1
10
142.678492031137
20
14.6686993490753
30
0
41
1
10
142.729140843408
20
14.6704435022983
30
0
41
1
10
142.760934771356
20
14.6715430066024
30
0
41
1
10
142.785205553943
20
14.6723849756293
30
0
41
1
10
142.796743555411
20
14.6727861311601
30
0
41
1
10
142.801910410073
20
14.6729658248757
30
0
0
SPLINE
5
253
100
AcDbEntity
8
1
62
256
6
ByLayer
370
-1
48
1
60
0
100
AcDbSpline
70
4
71
3
72
14
73
10
40
0
40
0
40
0
40
0
40
0.0148352406566489
40
0.0390776615035285
40
0.233017028278565
40
0.620895761828638
40
0.814835128603674
40
0.911804811991192
40
1
40
1
40
1
40
1
41
1
10
134.18168005982
20
14.5503592949294
30
0
41
1
10
134.181700359652
20
14.5511619443512
30
0
41
1
10
134.181757703254
20
14.5532531191608
30
0
41
1
10
134.18208397312
20
14.5658142116504
30
0
41
1
10
134.182945381026
20
14.5984077569365
30
0
41
1
10
134.184040726102
20
14.640170967139
30
0
41
1
10
134.184999567801
20
14.6767117851607
30
0
41
1
10
134.185538010484
20
14.6971015095174
30
0
41
1
10
134.185800978574
20
14.7070605660794
30
0
41
1
10
134.18592345359
20
14.7118215058645
30
0
0
SPLINE
5
254
100
AcDbEntity
8
1
62
256
6
ByLayer
370
-1
48
1
60
0
100
AcDbSpline
70
4
71
3
72
8
73
4
40
0
40
0
40
0
40
0
40
1
40
1
40
1
40
1
41
1
10
142.631406166217
20
16.0423413943457
30
0
41
1
10
142.647666083879
20
16.0427758315218
30
0
41
1
10
142.663931636433
20
16.0431236678224
30
0
41
1
10
142.680200532831
20
16.0433864926052
30
0
0
SPLINE
5
255
100
AcDbEntity
8
1
62
256
6
ByLayer
370
-1
48
1
60
0
100
AcDbSpline
70
4
71
3
72
14
73
10
40
0
40
0
40
0
40
0
40
0.0148352406566039
40
0.0390776615034835
40
0.23301702827852
40
0.620895761828594
40
0.814835128603631
40
0.911804811991149
40
1
40
1
40
1
40
1
41
1
10
142.231436993039
20
14.6537466760791
30
0
41
1
10
142.232284810446
20
14.6537747052146
30
0
41
1
10
142.234498118855
20
14.6538477306481
30
0
41
1
10
142.247774656308
20
14.6542863736635
30
0
41
1
10
142.282239441739
20
14.6554245653453
30
0
41
1
10
142.326391929165
20
14.656882968782
30
0
41
1
10
142.365023717832
20
14.6581590022652
30
0
41
1
10
142.386583611209
20
14.6588710271295
30
0
41
1
10
142.397114193163
20
14.659218805048
30
0
41
1
10
142.402145114178
20
14.6593850607288
30
0
0
SPLINE
5
256
100
AcDbEntity
8
1
62
256
6
ByLayer
370
-1
48
1
60
0
100
AcDbSpline
70
4
71
3
72
8
73
4
40
0
40
0
40
0
40
0
40
1
40
1
40
1
40
1
41
1
10
143.320492182737
20
5.43242932684203
30
0
41
1
10
143.284426029407
20
5.42137291161831
30
0
41
1
10
143.24723716228
20
5.4144543636381
30
0
41
1
10
143.209599767858
20
5.41177767283941
30
0
0
SPLINE
5
257
100
AcDbEntity
8
1
62
256
6
ByLayer
370
-1
48
1
60
0
100
AcDbSpline
70
4
71
3
72
12
73
8
40
0
40
0
40
0
40
0
40
0.484768844990513
40
0.72715326748577
40
0.848345478733399
40
0.969537689981027
40
1
40
1
40
1
40
1
41
1
10
132.909108294095
20
14.3262427257028
30
0
41
1
10
132.960079208049
20
14.3280158878006
30
0
41
1
10
133.036535576267
20
14.3306756308531
30
0
41
1
10
133.125734671665
20
14.3337786643845
30
0
41
1
10
133.17670533472
20
14.3355518649759
30
0
41
1
10
133.205393856649
20
14.3365498521025
30
0
41
1
10
133.22133981006
20
14.3371045242771
30
0
41
1
10
133.224542759975
20
14.3372159620833
30
0
0
SPLINE
5
258
100
AcDbEntity
8
1
62
256
6
ByLayer
370
-1
48
1
60
0
100
AcDbSpline
70
4
71
3
72
10
73
6
40
0
40
0
40
0
40
0
40
0.283853282483268
40
0.283853282483268
40
1
40
1
40
1
40
1
41
1
10
132.818257497526
20
14.9798278369981
30
0
41
1
10
132.818014149841
20
14.994970723236
30
0
41
1
10
132.817811136
20
15.0101142915423
30
0
41
1
10
132.817230574841
20
15.063464812928
30
0
41
1
10
132.81705607528
20
15.1016745023853
30
0
41
1
10
132.817101489027
20
15.1398831990443
30
0
0
SPLINE
5
259
100
AcDbEntity
8
1
62
256
6
ByLayer
370
-1
48
1
60
0
100
AcDbSpline
70
4
71
1
72
4
73
2
40
0
40
0
40
1
40
1
41
1
10
133.132841611523
20
5.91204334030317
30
0
41
1
10
133.20173583604
20
5.91447700885385
30
0
0
SPLINE
5
25A
100
AcDbEntity
8
1
62
256
6
ByLayer
370
-1
48
1
60
0
100
AcDbSpline
70
4
71
3
72
10
73
6
40
0
40
0
40
0
40
0
40
0.283856160922809
40
0.283856160922809
40
1
40
1
40
1
40
1
41
1
10
133.148621678885
20
5.61241321040086
30
0
41
1
10
133.147548599312
20
5.62751999056178
30
0
41
1
10
133.146516956477
20
5.64262974472419
30
0
41
1
10
133.14302221763
20
5.69586807928229
30
0
41
1
10
133.140771181942
20
5.73401096053095
30
0
41
1
10
133.138745867502
20
5.77216484374802
30
0
0
SPLINE
5
25B
100
AcDbEntity
8
1
62
256
6
ByLayer
370
-1
48
1
60
0
100
AcDbSpline
70
4
71
2
72
9
73
6
40
0
40
0
40
0
40
0.25
40
0.5
40
0.75
40
1
40
1
40
1
41
1
10
134.181889411315
20
14.521695585155
30
0
41
1
10
134.152212632859
20
14.5205330980367
30
0
41
1
10
134.098598045197
20
14.4962719366765
30
0
41
1
10
134.05787813203
20
14.4527967830912
30
0
41
1
10
134.03683174809
20
14.3969886160199
30
0
41
1
10
134.037766238873
20
14.3665520365968
30
0
0
SPLINE
5
25C
100
AcDbEntity
8
1
62
256
6
ByLayer
370
-1
48
1
60
0
100
AcDbSpline
70
4
71
3
72
10
73
6
40
0
40
0
40
0
40
0
40
0.62616954409425
40
0.939254316141375
40
1
40
1
40
1
40
1
41
1
10
134.181889411315
20
14.521695585155
30
0
41
1
10
134.181667766836
20
14.5280668973632
30
0
41
1
10
134.1814970509
20
14.5376189833101
30
0
41
1
10
134.181591607837
20
14.5466964295504
30
0
41
1
10
134.181667187485
20
14.5498503265941
30
0
41
1
10
134.18168005982
20
14.5503592949294
30
0
0
SPLINE
5
25D
100
AcDbEntity
8
1
62
256
6
ByLayer
370
-1
48
1
60
0
100
AcDbSpline
70
4
71
3
72
8
73
4
40
0
40
0
40
0
40
0
40
1
40
1
40
1
40
1
41
1
10
143.388908649882
20
15.6224931402642
30
0
41
1
10
143.399929032766
20
15.5862831563562
30
0
41
1
10
143.406821379745
20
15.5489521071536
30
0
41
1
10
143.409471826626
20
15.5111870636394
30
0
0
SPLINE
5
25E
100
AcDbEntity
8
1
62
256
6
ByLayer
370
-1
48
1
60
0
100
AcDbSpline
70
4
71
3
72
10
73
6
40
0
40
0
40
0
40
0
40
0.626169544094068
40
0.939254316141102
40
1
40
1
40
1
40
1
41
1
10
142.202094558978
20
14.6527457172774
30
0
41
1
10
142.20844162642
20
14.6529682084023
30
0
41
1
10
142.218118944731
20
14.6533017745938
30
0
41
1
10
142.227572190645
20
14.6536187660016
30
0
41
1
10
142.230899383215
20
14.6537289025133
30
0
41
1
10
142.231436993039
20
14.6537466760791
30
0
0
SPLINE
5
25F
100
AcDbEntity
8
1
62
256
6
ByLayer
370
-1
48
1
60
0
100
AcDbSpline
70
4
71
3
72
16
73
12
40
0
40
0
40
0
40
0
40
0.572471985996885
40
0.858707978995327
40
0.930266977244938
40
0.966046476369743
40
0.983936225932146
40
0.992881100713347
40
0.997353538103948
40
0.999589756799248
40
1
40
1
40
1
40
1
41
1
10
143.373266917835
20
14.6930550283271
30
0
41
1
10
143.36984107209
20
14.7915331536157
30
0
41
1
10
143.364702741763
20
14.9392504106914
30
0
41
1
10
143.359134756263
20
15.0992772089507
30
0
41
1
10
143.356780446007
20
15.1669810733061
30
0
41
1
10
143.356030015059
20
15.1885229996187
30
0
41
1
10
143.355656853968
20
15.199294289934
30
0
41
1
10
143.355467221011
20
15.2046794246858
30
0
41
1
10
143.355377302929
20
15.2073726874772
30
0
41
1
10
143.355328886218
20
15.2085974166895
30
0
41
1
10
143.355303804074
20
15.2090519948015
30
0
41
1
10
143.355299745336
20
15.2091224442259
30
0
0
SPLINE
5
260
100
AcDbEntity
8
1
62
256
6
ByLayer
370
-1
48
1
60
0
100
AcDbSpline
70
4
71
3
72
8
73
4
40
0
40
0
40
0
40
0
40
1
40
1
40
1
40
1
41
1
10
133.169204638589
20
5.50110713377714
30
0
41
1
10
133.158196337021
20
5.53731711768521
30
0
41
1
10
133.151304242367
20
5.57464816688778
30
0
41
1
10
133.148621678885
20
5.61241321040194
30
0
0
SPLINE
5
261
100
AcDbEntity
8
1
62
256
6
ByLayer
370
-1
48
1
60
0
100
AcDbSpline
70
4
71
3
72
10
73
6
40
0
40
0
40
0
40
0
40
0.499225645850189
40
0.499225645850189
40
1
40
1
40
1
40
1
41
1
10
142.540854425903
20
16.0394397066787
30
0
41
1
10
142.555915754118
20
16.0400007847236
30
0
41
1
10
142.57098009751
20
16.0405244233135
30
0
41
1
10
142.601163622567
20
16.0414929007371
30
0
41
1
10
142.616283049502
20
16.0419373305456
30
0
41
1
10
142.631406166217
20
16.0423413943457
30
0
0
SPLINE
5
262
100
AcDbEntity
8
1
62
256
6
ByLayer
370
-1
48
1
60
0
100
AcDbSpline
70
4
71
3
72
10
73
6
40
0
40
0
40
0
40
0
40
0.62616954409424
40
0.939254316141361
40
1
40
1
40
1
40
1
41
1
10
142.332646005782
20
6.60190468888632
30
0
41
1
10
142.332867650261
20
6.59553337667811
30
0
41
1
10
142.333361528068
20
6.58598129073127
30
0
41
1
10
142.334087655325
20
6.57690384449094
30
0
41
1
10
142.334382669791
20
6.5737499474472
30
0
41
1
10
142.33443095399
20
6.57324097911194
30
0
0
SPLINE
5
263
100
AcDbEntity
8
1
62
256
6
ByLayer
370
-1
48
1
60
0
100
AcDbSpline
70
4
71
3
72
12
73
8
40
0
40
0
40
0
40
0
40
0.484768844990489
40
0.727153267485734
40
0.848345478733356
40
0.969537689980979
40
1
40
1
40
1
40
1
41
1
10
142.028642663707
20
15.9517270577139
30
0
41
1
10
142.030796493955
20
15.9009503385812
30
0
41
1
10
142.034027239213
20
15.8247852625842
30
0
41
1
10
142.037796441977
20
15.7359260081072
30
0
41
1
10
142.03994896156
20
15.6851481866664
30
0
41
1
10
142.041161810985
20
15.6565695744316
30
0
41
1
10
142.041837035333
20
15.6406858414894
30
0
41
1
10
142.041971981078
20
15.6374946802355
30
0
0
SPLINE
5
264
100
AcDbEntity
8
1
62
256
6
ByLayer
370
-1
48
1
60
0
100
AcDbSpline
70
4
71
3
72
8
73
4
40
0
40
0
40
0
40
0
40
1
40
1
40
1
40
1
41
1
10
142.676821141797
20
6.76368763739319
30
0
41
1
10
142.797671690262
20
6.76767927437746
30
0
41
1
10
142.937043062708
20
6.77241396112296
30
0
41
1
10
143.076584992374
20
6.77726830730714
30
0
0
SPLINE
5
265
100
AcDbEntity
8
1
62
256
6
ByLayer
370
-1
48
1
60
0
100
AcDbSpline
70
4
71
3
72
10
73
6
40
0
40
0
40
0
40
0
40
0.499245058431585
40
0.499245058431585
40
1
40
1
40
1
40
1
41
1
10
133.556394004173
20
15.7241042326989
30
0
41
1
10
133.571469257684
20
15.7247650351785
30
0
41
1
10
133.586545942033
20
15.7253916780237
30
0
41
1
10
133.616746254625
20
15.7265806301242
30
0
41
1
10
133.631869970206
20
15.7271427298087
30
0
41
1
10
133.64699357593
20
15.727672875121
30
0
0
SPLINE
5
266
100
AcDbEntity
8
1
62
256
6
ByLayer
370
-1
48
1
60
0
100
AcDbSpline
70
4
71
3
72
9
73
5
40
0
40
0
40
0
40
0
40
0.339285714285548
40
1
40
1
40
1
40
1
41
1
10
132.840214069572
20
14.3238090573079
30
0
41
1
10
132.848005678298
20
14.3240842936321
30
0
41
1
10
132.870970419803
20
14.3248955164823
30
0
41
1
10
132.893935161309
20
14.3257067393326
30
0
41
1
10
132.909108294089
20
14.3262427258586
30
0
0
SPLINE
5
267
100
AcDbEntity
8
1
62
256
6
ByLayer
370
-1
48
1
60
0
100
AcDbSpline
70
4
71
2
72
9
73
6
40
0
40
0
40
0
40
0.25
40
0.5
40
0.75
40
1
40
1
40
1
41
1
10
142.202094558978
20
14.6527457172774
30
0
41
1
10
142.200936495474
20
14.6825358562066
30
0
41
1
10
142.176767655158
20
14.7363552428829
30
0
41
1
10
142.133457937657
20
14.7772306995029
30
0
41
1
10
142.07786213751
20
14.7983574772104
30
0
41
1
10
142.047541378461
20
14.7974194168248
30
0
0
SPLINE
5
268
100
AcDbEntity
8
1
62
256
6
ByLayer
370
-1
48
1
60
0
100
AcDbSpline
70
4
71
3
72
8
73
4
40
0
40
0
40
0
40
0
40
1
40
1
40
1
40
1
41
1
10
133.926581974371
20
5.08125887969564
30
0
41
1
10
133.910310414177
20
5.08082444251957
30
0
41
1
10
133.894039141564
20
5.08047660621889
30
0
41
1
10
133.877768991352
20
5.08021378143619
30
0
0
SPLINE
5
269
100
AcDbEntity
8
1
62
256
6
ByLayer
370
-1
48
1
60
0
100
AcDbSpline
70
4
71
3
72
11
73
7
40
0
40
0
40
0
40
0
40
0.0814967294346268
40
0.520021388628411
40
0.958546047822194
40
1
40
1
40
1
40
1
41
1
10
134.513812620239
20
5.6603108396254
30
0
41
1
10
134.513712856373
20
5.66267029159727
30
0
41
1
10
134.513074295782
20
5.6777238211767
30
0
41
1
10
134.511896480367
20
5.7054702736597
30
0
41
1
10
134.510771674914
20
5.7320615233977
30
0
41
1
10
134.510179526246
20
5.74595306193234
30
0
41
1
10
134.510128307856
20
5.74715273461595
30
0
0
SPLINE
5
26A
100
AcDbEntity
8
1
62
256
6
ByLayer
370
-1
48
1
60
0
100
AcDbSpline
70
4
71
3
72
44
73
40
40
0
40
0
40
0
40
0
40
0.0005100809524661
40
0.0008224215521685
40
0.0055075305477038
40
0.0105049801429415
40
0.0204998793334168
40
0.0404896777143675
40
0.0804692744762688
40
0.12044887123817
40
0.140438669619121
40
0.160428468000071
40
0.180418266381022
40
0.200408064761973
40
0.220397863142924
40
0.240387661523874
40
0.260377459904825
40
0.280367258285776
40
0.300357056666726
40
0.320346855047677
40
0.340336653428628
40
0.350331552619103
40
0.360326451809578
40
0.380316250190529
40
0.40030604857148
40
0.440285645333381
40
0.480265242095282
40
0.520244838857184
40
0.560224435619085
40
0.580214234000036
40
0.600204032380986
40
0.640183629142888
40
0.680163225904789
40
0.70015302428574
40
0.720142822666691
40
0.760122419428592
40
0.840081612952395
40
0.920040806476197
40
1
40
1
40
1
40
1
41
1
10
142.908162650126
20
5.46563274354239
30
0
41
1
10
142.908474969886
20
5.46565082312367
30
0
41
1
10
142.908977940727
20
5.46568540188781
30
0
41
1
10
142.912339625362
20
5.46597619314193
30
0
41
1
10
142.918452388339
20
5.46646495156881
30
0
41
1
10
142.930508050283
20
5.46731725177909
30
0
41
1
10
142.951930732639
20
5.46860006157411
30
0
41
1
10
142.994843989184
20
5.47033661881378
30
0
41
1
10
143.056185165236
20
5.47148291695885
30
0
41
1
10
143.117532245802
20
5.47298249173821
30
0
41
1
10
143.166550293765
20
5.47575829317461
30
0
41
1
10
143.203226584463
20
5.47907287329517
30
0
41
1
10
143.239709360071
20
5.48415328406514
30
0
41
1
10
143.275771433088
20
5.49174257706412
30
0
41
1
10
143.310973886786
20
5.50269769368455
30
0
41
1
10
143.344956536714
20
5.51700996415499
30
0
41
1
10
143.377401097866
20
5.53454653326955
30
0
41
1
10
143.408112609597
20
5.55497885013824
30
0
41
1
10
143.437050850279
20
5.57785912586465
30
0
41
1
10
143.464349361825
20
5.60267859710601
30
0
41
1
10
143.485929943593
20
5.62458569278994
30
0
41
1
10
143.502695463991
20
5.64258673219888
30
0
41
1
10
143.519156360654
20
5.66087088604343
30
0
41
1
10
143.53916496602
20
5.68424550105465
30
0
41
1
10
143.569515799648
20
5.72301014835529
30
0
41
1
10
143.603575704894
20
5.77441531065975
30
0
41
1
10
143.635848934167
20
5.84109298338043
30
0
41
1
10
143.658030621154
20
5.91179510230066
30
0
41
1
10
143.668038916248
20
5.97269793863131
30
0
41
1
10
143.67163885401
20
6.02184897315317
30
0
41
1
10
143.673153843022
20
6.0711037916555
30
0
41
1
10
143.672257615806
20
6.13269655823882
30
0
41
1
10
143.669748298458
20
6.19423235036612
30
0
41
1
10
143.667672509679
20
6.24345761709824
30
0
41
1
10
143.665694508893
20
6.29268646093541
30
0
41
1
10
143.662393721024
20
6.3788409371821
30
0
41
1
10
143.658036773866
20
6.50192603894877
30
0
41
1
10
143.653043339557
20
6.64963802047416
30
0
41
1
10
143.649679093221
20
6.7481193624383
30
0
41
1
10
143.647941537088
20
6.7973575483386
30
0
0
SPLINE
5
26B
100
AcDbEntity
8
1
62
256
6
ByLayer
370
-1
48
1
60
0
100
AcDbSpline
70
4
71
3
72
18
73
14
40
0
40
0
40
0
40
0
40
0.0041315572795782
40
0.049790684558113
40
0.0954498118366478
40
0.186768066393717
40
0.369404575507856
40
0.552041084621996
40
0.734677593736135
40
0.825995848293204
40
0.917314102850274
40
0.962973230128809
40
1
40
1
40
1
40
1
41
1
10
134.133686544959
20
6.46421521331251
30
0
41
1
10
134.133243346592
20
6.46419867261756
30
0
41
1
10
134.127899900479
20
6.46399926315462
30
0
41
1
10
134.11759736672
20
6.46361515243353
30
0
41
1
10
134.097458183874
20
6.46286698573718
30
0
41
1
10
134.061265529357
20
6.46152849951625
30
0
41
1
10
134.006966761367
20
6.45953764078388
30
0
41
1
10
133.93828087465
20
6.4570453527196
30
0
41
1
10
133.878610769789
20
6.45490092496607
30
0
41
1
10
133.829747674462
20
6.45315677174304
30
0
41
1
10
133.798809860002
20
6.45205726743899
30
0
41
1
10
133.775042464001
20
6.451215298412
30
0
41
1
10
133.763692710208
20
6.45081414288128
30
0
41
1
10
133.75860721766
20
6.45063444916562
30
0
0
SPLINE
5
26C
100
AcDbEntity
8
1
62
256
6
ByLayer
370
-1
48
1
60
0
100
AcDbSpline
70
4
71
3
72
8
73
4
40
0
40
0
40
0
40
0
40
1
40
1
40
1
40
1
41
1
10
143.050447804119
20
5.40187240250091
30
0
41
1
10
143.034202694282
20
5.40100041054274
30
0
41
1
10
143.017953289164
20
5.40020870355647
30
0
41
1
10
143.00170021918
20
5.39949604134242
30
0
0
SPLINE
5
26D
100
AcDbEntity
8
1
62
256
6
ByLayer
370
-1
48
1
60
0
100
AcDbSpline
70
4
71
3
72
10
73
6
40
0
40
0
40
0
40
0
40
0.0607450479739754
40
0.37383003198265
40
1
40
1
40
1
40
1
41
1
10
142.04733202694
20
14.8260831267856
30
0
41
1
10
142.047319154743
20
14.8255741636608
30
0
41
1
10
142.047243575142
20
14.822420266948
30
0
41
1
10
142.047149017627
20
14.8133427746109
30
0
41
1
10
142.047319733983
20
14.8037907290331
30
0
41
1
10
142.047541378461
20
14.7974194168248
30
0
0
SPLINE
5
26E
100
AcDbEntity
8
1
62
256
6
ByLayer
370
-1
48
1
60
0
100
AcDbSpline
70
4
71
3
72
9
73
5
40
0
40
0
40
0
40
0
40
0.339285714283387
40
1
40
1
40
1
40
1
41
1
10
143.717899218899
20
6.79979121673344
30
0
41
1
10
143.709987338219
20
6.79951598040927
30
0
41
1
10
143.68666811095
20
6.79870475755902
30
0
41
1
10
143.663348883681
20
6.79789353470881
30
0
41
1
10
143.647941537093
20
6.79735754818276
30
0
0
SPLINE
5
26F
100
AcDbEntity
8
1
62
256
6
ByLayer
370
-1
48
1
60
0
100
AcDbSpline
70
4
71
3
72
8
73
4
40
0
40
0
40
0
40
0
40
1
40
1
40
1
40
1
41
1
10
134.484256091347
20
6.13605331864167
30
0
41
1
10
134.495212526759
20
6.02174779094611
30
0
41
1
10
134.504232817049
20
5.88616410208712
30
0
41
1
10
134.510129309904
20
5.74715381523407
30
0
0
SPLINE
5
270
100
AcDbEntity
8
1
62
256
6
ByLayer
370
-1
48
1
60
0
100
AcDbSpline
70
4
71
3
72
8
73
4
40
0
40
0
40
0
40
0
40
1
40
1
40
1
40
1
41
1
10
133.138745867502
20
5.7721648437479
30
0
41
1
10
133.137880083822
20
5.7884749083905
30
0
41
1
10
133.137094447735
20
5.80478945349282
30
0
41
1
10
133.136387141624
20
5.82110726187287
30
0
0
SPLINE
5
271
100
AcDbEntity
8
1
62
256
6
ByLayer
370
-1
48
1
60
0
100
AcDbSpline
70
4
71
3
72
12
73
8
40
0
40
0
40
0
40
0
40
0.484768844990487
40
0.72715326748573
40
0.848345478733352
40
0.969537689980974
40
1
40
1
40
1
40
1
41
1
10
134.528407167475
20
5.17187321632747
30
0
41
1
10
134.527028168362
20
5.22264993546017
30
0
41
1
10
134.524959669765
20
5.29881501145718
30
0
41
1
10
134.522546421426
20
5.38767426593409
30
0
41
1
10
134.521166034953
20
5.43845208737497
30
0
41
1
10
134.52039050541
20
5.46703069960975
30
0
41
1
10
134.519960606798
20
5.48291443255198
30
0
41
1
10
134.51987352504
20
5.48610559380586
30
0
0
SPLINE
5
272
100
AcDbEntity
8
1
62
256
6
ByLayer
370
-1
48
1
60
0
100
AcDbSpline
70
4
71
3
72
13
73
9
40
0
40
0
40
0
40
0
40
0.0688517852168604
40
0.178433579648123
40
0.616760757373174
40
0.835924346235699
40
0.945506140666962
40
1
40
1
40
1
40
1
41
1
10
142.379464587478
20
5.93603467129822
30
0
41
1
10
142.379633232656
20
5.93204615111267
30
0
41
1
10
142.380067990428
20
5.92170749357322
30
0
41
1
10
142.38151654557
20
5.88592160379864
30
0
41
1
10
142.383139591795
20
5.84129741963378
30
0
41
1
10
142.384535968816
20
5.79672532549057
30
0
41
1
10
142.385177833145
20
5.77449274820205
30
0
41
1
10
142.385439349646
20
5.76498617268149
30
0
41
1
10
142.3855254923
20
5.76182942548024
30
0
0
SPLINE
5
273
100
AcDbEntity
8
1
62
256
6
ByLayer
370
-1
48
1
60
0
100
AcDbSpline
70
4
71
3
72
8
73
4
40
0
40
0
40
0
40
0
40
1
40
1
40
1
40
1
41
1
10
133.237621105734
20
15.6911709471993
30
0
41
1
10
133.273699340379
20
15.7022273624231
30
0
41
1
10
133.310888459832
20
15.7091459104033
30
0
41
1
10
133.348493737654
20
15.711822601202
30
0
0
SPLINE
5
274
100
AcDbEntity
8
1
62
256
6
ByLayer
370
-1
48
1
60
0
100
AcDbSpline
70
4
71
3
72
12
73
8
40
0
40
0
40
0
40
0
40
0.0304623077133677
40
0.151654519249197
40
0.272846730785026
40
0.515231153856684
40
1
40
1
40
1
40
1
41
1
10
134.176320013816
20
15.3617708485611
30
0
41
1
10
134.176185068077
20
15.3649620096768
30
0
41
1
10
134.175509843705
20
15.3808457431666
30
0
41
1
10
134.174296994286
20
15.4094243551319
30
0
41
1
10
134.172144474703
20
15.4602021764422
30
0
41
1
10
134.168375271929
20
15.5490614308847
30
0
41
1
10
134.165144526661
20
15.6252265069061
30
0
41
1
10
134.162990696406
20
15.6760032260386
30
0
0
SPLINE
5
275
100
AcDbEntity
8
1
62
256
6
ByLayer
370
-1
48
1
60
0
100
AcDbSpline
70
4
71
3
72
8
73
4
40
0
40
0
40
0
40
0
40
1
40
1
40
1
40
1
41
1
10
132.819307927074
20
14.9308377400719
30
0
41
1
10
132.818869321797
20
14.9471656114799
30
0
41
1
10
132.818519949088
20
14.9634961667565
30
0
41
1
10
132.818257497526
20
14.9798278369981
30
0
0
SPLINE
5
276
100
AcDbEntity
8
1
62
256
6
ByLayer
370
-1
48
1
60
0
100
AcDbSpline
70
4
71
3
72
14
73
10
40
0
40
0
40
0
40
0
40
0.0881951882033873
40
0.185164860420262
40
0.379104204854011
40
0.766982893721509
40
0.960922238155258
40
0.985164656209476
40
1
40
1
40
1
40
1
41
1
10
142.051575490737
20
14.9875449015507
30
0
41
1
10
142.051453025445
20
14.9827839004879
30
0
41
1
10
142.051189977681
20
14.97282534212
30
0
41
1
10
142.05065153498
20
14.9524356171354
30
0
41
1
10
142.049692693088
20
14.9158947923117
30
0
41
1
10
142.048597349184
20
14.8741316251478
30
0
41
1
10
142.047735939194
20
14.8415380040105
30
0
41
1
10
142.047409670715
20
14.8289769618249
30
0
41
1
10
142.047352326925
20
14.8268857826083
30
0
41
1
10
142.04733202694
20
14.8260831267856
30
0
0
SPLINE
5
277
100
AcDbEntity
8
1
62
256
6
ByLayer
370
-1
48
1
60
0
100
AcDbSpline
70
4
71
3
72
11
73
7
40
0
40
0
40
0
40
0
40
0.0414539424597908
40
0.479978610899548
40
0.918503279339305
40
1
40
1
40
1
40
1
41
1
10
142.375780275085
20
6.02287656628945
30
0
41
1
10
142.375831493462
20
6.02167689388139
30
0
41
1
10
142.376423642133
20
6.00778535527351
30
0
41
1
10
142.377548447594
20
5.98119410549796
30
0
41
1
10
142.378726263021
20
5.95344765280583
30
0
41
1
10
142.379364823621
20
5.93839412303214
30
0
41
1
10
142.379464587478
20
5.93603467130049
30
0
0
SPLINE
5
278
100
AcDbEntity
8
1
62
256
6
ByLayer
370
-1
48
1
60
0
100
AcDbSpline
70
4
71
3
72
16
73
12
40
0
40
0
40
0
40
0
40
0.572471985996882
40
0.858707978995324
40
0.930266977244934
40
0.966046476369739
40
0.983936225932141
40
0.992881100713343
40
0.997353538103943
40
0.999589756799244
40
1
40
1
40
1
40
1
41
1
10
133.183782913347
20
6.43054524571431
30
0
41
1
10
133.187208759093
20
6.33206712042568
30
0
41
1
10
133.192347095968
20
6.18434986334998
30
0
41
1
10
133.197915066733
20
6.02432306509064
30
0
41
1
10
133.200269391315
20
5.95661920073525
30
0
41
1
10
133.201019806915
20
5.9350772744227
30
0
41
1
10
133.201392991028
20
5.92430598410738
30
0
41
1
10
133.201582589884
20
5.91892084935552
30
0
41
1
10
133.201672564101
20
5.91622758656422
30
0
41
1
10
133.201720894022
20
5.91500285735185
30
0
41
1
10
133.201745835141
20
5.91454827923991
30
0
41
1
10
133.201749869393
20
5.91447782981544
30
0
0
SPLINE
5
279
100
AcDbEntity
8
1
62
256
6
ByLayer
370
-1
48
1
60
0
100
AcDbSpline
70
4
71
3
72
13
73
9
40
0
40
0
40
0
40
0
40
0.06885178521686
40
0.178433579648122
40
0.616760757373171
40
0.835924346235695
40
0.945506140666957
40
1
40
1
40
1
40
1
41
1
10
134.182379573257
20
15.1875656027431
30
0
41
1
10
134.182270714069
20
15.1915541229287
30
0
41
1
10
134.181986151773
20
15.2018927804681
30
0
41
1
10
134.180944876048
20
15.2376786702427
30
0
41
1
10
134.179463160261
20
15.2823028544076
30
0
41
1
10
134.177758399474
20
15.3268749485508
30
0
41
1
10
134.176853415101
20
15.3491075258393
30
0
41
1
10
134.176453504283
20
15.3586141013598
30
0
41
1
10
134.176320013816
20
15.3617708485611
30
0
0
SPLINE
5
27A
100
AcDbEntity
8
1
62
256
6
ByLayer
370
-1
48
1
60
0
100
AcDbSpline
70
4
71
3
72
14
73
10
40
0
40
0
40
0
40
0
40
0.0881951882033893
40
0.185164860420265
40
0.379104204854015
40
0.766982893721517
40
0.960922238155267
40
0.985164656209486
40
1
40
1
40
1
40
1
41
1
10
134.484256278011
20
6.13605537249069
30
0
41
1
10
134.483802562402
20
6.14081637355346
30
0
41
1
10
134.482846640266
20
6.15077493192132
30
0
41
1
10
134.480889566738
20
6.17116465690597
30
0
41
1
10
134.477388368803
20
6.20770548172968
30
0
41
1
10
134.473387320364
20
6.2494686488935
30
0
41
1
10
134.470258184069
20
6.28206227003079
30
0
41
1
10
134.469057971401
20
6.29462331221643
30
0
41
1
10
134.468855132205
20
6.29671449143308
30
0
41
1
10
134.468778986823
20
6.29751714725577
30
0
0
SPLINE
5
27B
100
AcDbEntity
8
1
62
256
6
ByLayer
370
-1
48
1
60
0
100
AcDbSpline
70
4
71
3
72
9
73
5
40
0
40
0
40
0
40
0
40
0.339285714285112
40
1
40
1
40
1
40
1
41
1
10
142.0267499848
20
16.0214182067431
30
0
41
1
10
142.026964037789
20
16.0135364696511
30
0
41
1
10
142.02759493081
20
15.9903060866432
30
0
41
1
10
142.028225823831
20
15.9670757036353
30
0
41
1
10
142.028642663862
20
15.9517270577193
30
0
0
SPLINE
5
27C
100
AcDbEntity
8
1
62
256
6
ByLayer
370
-1
48
1
60
0
100
AcDbSpline
70
4
71
3
72
18
73
14
40
0
40
0
40
0
40
0
40
0.0041315572796252
40
0.0497906845581608
40
0.0954498118366964
40
0.186768066393768
40
0.36940457550791
40
0.552041084622052
40
0.734677593736195
40
0.825995848293266
40
0.917314102850337
40
0.962973230128873
40
1
40
1
40
1
40
1
41
1
10
142.349908205547
20
6.41177876817682
30
0
41
1
10
142.349953346031
20
6.41130510464612
30
0
41
1
10
142.350497160887
20
6.40559476475897
30
0
41
1
10
142.351534911703
20
6.39459527286124
30
0
41
1
10
142.35348421215
20
6.37317058184664
30
0
41
1
10
142.356808326655
20
6.33484135140768
30
0
41
1
10
142.361286633431
20
6.27783061649669
30
0
41
1
10
142.366181759526
20
6.20646082423397
30
0
41
1
10
142.369822621109
20
6.14505244793716
30
0
41
1
10
142.372452995774
20
6.09510643447805
30
0
41
1
10
142.373976372877
20
6.06362075074108
30
0
41
1
10
142.37506683125
20
6.03950991242806
30
0
41
1
10
142.375560584101
20
6.02802232104415
30
0
41
1
10
142.375780275085
20
6.02287656628945
30
0
0
SPLINE
5
27D
100
AcDbEntity
8
1
62
256
6
ByLayer
370
-1
48
1
60
0
100
AcDbSpline
70
4
71
3
72
14
73
10
40
0
40
0
40
0
40
0
40
0.25
40
0.25
40
0.5
40
0.5
40
0.75
40
0.75
40
1
40
1
40
1
40
1
41
1
10
132.829979215498
20
15.2523587262044
30
0
41
1
10
132.841845698548
20
15.3037967717516
30
0
41
1
10
132.860384578354
20
15.3532694134551
30
0
41
1
10
132.909261309044
20
15.4454287768723
30
0
41
1
10
132.940117935035
20
15.4888120581312
30
0
41
1
10
133.011036936789
20
15.5651012743842
30
0
41
1
10
133.052006791057
20
15.5989757098058
30
0
41
1
10
133.140162308811
20
15.6541474933414
30
0
41
1
10
133.187309636731
20
15.6757526626036
30
0
41
1
10
133.23762110573
20
15.6911709472616
30
0
0
SPLINE
5
27E
100
AcDbEntity
8
1
62
256
6
ByLayer
370
-1
48
1
60
0
100
AcDbSpline
70
4
71
3
72
10
73
6
40
0
40
0
40
0
40
0
40
0.499245058431811
40
0.499245058431811
40
1
40
1
40
1
40
1
41
1
10
133.136387141624
20
5.82110726187284
30
0
41
1
10
133.135731305489
20
5.8362376392466
30
0
41
1
10
133.135109404437
20
5.8513695478479
30
0
41
1
10
133.133928516066
20
5.88168166780039
30
0
41
1
10
133.133369739473
20
5.89686196486204
30
0
41
1
10
133.132841611523
20
5.91204334030317
30
0
0
SPLINE
5
27F
100
AcDbEntity
8
1
62
256
6
ByLayer
370
-1
48
1
60
0
100
AcDbSpline
70
4
71
2
72
9
73
6
40
0
40
0
40
0
40
0.25
40
0.5
40
0.75
40
1
40
1
40
1
41
1
10
134.31244085812
20
6.47085455676398
30
0
41
1
10
134.313598921624
20
6.44106441783478
30
0
41
1
10
134.33776776194
20
6.38724503115844
30
0
41
1
10
134.381077479441
20
6.34636957453841
30
0
41
1
10
134.436673279587
20
6.32524279683096
30
0
41
1
10
134.466994038637
20
6.32618085721651
30
0
0
SPLINE
5
280
100
AcDbEntity
8
1
62
256
6
ByLayer
370
-1
48
1
60
0
100
AcDbSpline
70
4
71
3
72
8
73
4
40
0
40
0
40
0
40
0
40
1
40
1
40
1
40
1
41
1
10
143.738680213515
20
6.1927625339695
30
0
41
1
10
143.73910717626
20
6.17643466256146
30
0
41
1
10
143.739450828909
20
6.16010410728489
30
0
41
1
10
143.739712026657
20
6.14377243704325
30
0
0
SPLINE
5
281
100
AcDbEntity
8
1
62
256
6
ByLayer
370
-1
48
1
60
0
100
AcDbSpline
70
4
71
3
72
10
73
6
40
0
40
0
40
0
40
0
40
0.283856160922734
40
0.283856160922734
40
1
40
1
40
1
40
1
41
1
10
143.209599767859
20
5.41177767283972
30
0
41
1
10
143.194544049913
20
5.41070694245809
30
0
41
1
10
143.179487627163
20
5.40967554059168
30
0
41
1
10
143.126443145184
20
5.40617622113459
30
0
41
1
10
143.088449739559
20
5.40391223986941
30
0
41
1
10
143.050447804119
20
5.40187240250106
30
0
0
SPLINE
5
282
100
AcDbEntity
8
1
62
256
6
ByLayer
370
-1
48
1
60
0
100
AcDbSpline
70
4
71
3
72
16
73
12
40
0
40
0
40
0
40
0
40
0.0879840035944078
40
0.0879840035944078
40
0.263952205556033
40
0.263952205556033
40
0.439920047076045
40
0.439920047076045
40
0.615888399375314
40
0.615888399375314
40
1
40
1
40
1
40
1
41
1
10
142.0267499848
20
16.0214182067432
30
0
41
1
10
142.041827966254
20
16.021946752735
30
0
41
1
10
142.056908053989
20
16.0224709605062
30
0
41
1
10
142.102152792106
20
16.0240339769093
30
0
41
1
10
142.132321980225
20
16.0250631403437
30
0
41
1
10
142.192663276752
20
16.0271146768711
30
0
41
1
10
142.222835450302
20
16.0281370542919
30
0
41
1
10
142.283173716106
20
16.0301952426294
30
0
41
1
10
142.313339840058
20
16.0312312075725
30
0
41
1
10
142.409327099331
20
16.034581450494
30
0
41
1
10
142.475102926893
20
16.0369902732031
30
0
41
1
10
142.540854425901
20
16.039439706745
30
0
0
SPLINE
5
283
100
AcDbEntity
8
1
62
256
6
ByLayer
370
-1
48
1
60
0
100
AcDbSpline
70
4
71
3
72
16
73
12
40
0
40
0
40
0
40
0
40
0.0879840035943915
40
0.0879840035943915
40
0.263952205556022
40
0.263952205556022
40
0.43992004707607
40
0.43992004707607
40
0.615888399375296
40
0.615888399375296
40
1
40
1
40
1
40
1
41
1
10
132.840214069572
20
14.3238090573079
30
0
41
1
10
132.839687534857
20
14.3389446342016
30
0
41
1
10
132.83916726834
20
14.3540803715017
30
0
41
1
10
132.83762034667
20
14.3994877514249
30
0
41
1
10
132.8366076254
20
14.4297596072066
30
0
41
1
10
132.834591988251
20
14.4903031977127
30
0
41
1
10
132.833589067157
20
14.5205749987321
30
0
41
1
10
132.831563822031
20
14.5811185398053
30
0
41
1
10
132.830541277097
20
14.6113903793967
30
0
41
1
10
132.827210184272
20
14.7077378685435
30
0
41
1
10
132.824765040059
20
14.7738106106384
30
0
41
1
10
132.822261146819
20
14.8398772938541
30
0
0
SPLINE
5
284
100
AcDbEntity
8
1
62
256
6
ByLayer
370
-1
48
1
60
0
100
AcDbSpline
70
4
71
3
72
10
73
6
40
0
40
0
40
0
40
0
40
0.499245058431769
40
0.499245058431769
40
1
40
1
40
1
40
1
41
1
10
143.00170021918
20
5.39949604134245
30
0
41
1
10
142.986629869251
20
5.39883523886289
30
0
41
1
10
142.971557899359
20
5.39820859601767
30
0
41
1
10
142.941364665582
20
5.39701964391716
30
0
41
1
10
142.926243318266
20
5.39645754423265
30
0
41
1
10
142.911119712542
20
5.39592739892029
30
0
0
SPLINE
5
285
100
AcDbEntity
8
1
62
256
6
ByLayer
370
-1
48
1
60
0
100
AcDbSpline
70
4
71
1
72
4
73
2
40
0
40
0
40
1
40
1
41
1
10
133.64699357593
20
15.727672875121
30
0
41
1
10
133.648886254992
20
15.6579817260972
30
0
0
SPLINE
5
286
100
AcDbEntity
8
1
62
256
6
ByLayer
370
-1
48
1
60
0
100
AcDbSpline
70
4
71
3
72
12
73
8
40
0
40
0
40
0
40
0
40
0.030462307713366
40
0.151654519249195
40
0.272846730785025
40
0.515231153856683
40
1
40
1
40
1
40
1
41
1
10
142.3855254923
20
5.76182942548022
30
0
41
1
10
142.385612574055
20
5.75863826436458
30
0
41
1
10
142.386042472685
20
5.74275453087475
30
0
41
1
10
142.386818002223
20
5.71417591890946
30
0
41
1
10
142.388198388699
20
5.66339809759916
30
0
41
1
10
142.390611637049
20
5.57453884315666
30
0
41
1
10
142.392680135656
20
5.49837376713521
30
0
41
1
10
142.394059134776
20
5.44759704800273
30
0
0
SPLINE
5
287
100
AcDbEntity
8
1
62
256
6
ByLayer
370
-1
48
1
60
0
100
AcDbSpline
70
4
71
3
72
10
73
6
40
0
40
0
40
0
40
0
40
0.283853282483269
40
0.283853282483269
40
1
40
1
40
1
40
1
41
1
10
143.739712026657
20
6.14377243704325
30
0
41
1
10
143.739954211793
20
6.12862955080536
30
0
41
1
10
143.740159828862
20
6.11348598249913
30
0
41
1
10
143.740758188664
20
6.06013546111333
30
0
41
1
10
143.7409597903
20
6.02192577165604
30
0
41
1
10
143.74094256829
20
5.98371707499712
30
0
0
SPLINE
5
288
100
AcDbEntity
8
1
62
256
6
ByLayer
370
-1
48
1
60
0
100
AcDbSpline
70
4
71
3
72
8
73
4
40
0
40
0
40
0
40
0
40
1
40
1
40
1
40
1
41
1
10
133.507629234216
20
15.7217278715404
30
0
41
1
10
133.523880124224
20
15.7225998634986
30
0
41
1
10
133.540135645772
20
15.7233915704849
30
0
41
1
10
133.556394004173
20
15.724104232699
30
0
0
SPLINE
5
289
100
AcDbEntity
8
1
62
256
6
ByLayer
370
-1
48
1
60
0
100
AcDbSpline
70
4
71
3
72
10
73
6
40
0
40
0
40
0
40
0
40
0.283856160922811
40
0.283856160922811
40
1
40
1
40
1
40
1
41
1
10
143.409471826626
20
15.5111870636405
30
0
41
1
10
143.410532058911
20
15.4960802834796
30
0
41
1
10
143.411555370218
20
15.4809705293172
30
0
41
1
10
143.415032638351
20
15.4277321947591
30
0
41
1
10
143.417292334929
20
15.3895893135104
30
0
41
1
10
143.419331170832
20
15.3514354302933
30
0
0
SPLINE
5
28A
100
AcDbEntity
8
1
62
256
6
ByLayer
370
-1
48
1
60
0
100
AcDbSpline
70
4
71
3
72
12
73
8
40
0
40
0
40
0
40
0
40
0.0304623077132645
40
0.151654519249107
40
0.272846730784948
40
0.515231153856632
40
1
40
1
40
1
40
1
41
1
10
133.499217379226
20
6.44151848213497
30
0
41
1
10
133.49601442945
20
6.44140704433323
30
0
41
1
10
133.48006847549
20
6.44085237213739
30
0
41
1
10
133.451379953831
20
6.43985438501656
30
0
41
1
10
133.400409290908
20
6.43808118442331
30
0
41
1
10
133.311210195544
20
6.43497815088173
30
0
41
1
10
133.234753827301
20
6.43231840781866
30
0
41
1
10
133.183782913347
20
6.43054524571431
30
0
0
SPLINE
5
28B
100
AcDbEntity
8
SK1
62
256
6
ByLayer
370
-1
48
1
60
0
100
AcDbSpline
70
4
71
3
72
30
73
26
40
0
40
0
40
0
40
0
40
0.045044595497009
40
0.0902490540946133
40
0.135453512692218
40
0.180657971289822
40
0.225862429887426
40
0.271066888485031
40
0.316271347082635
40
0.361475805680239
40
0.406680264277843
40
0.451884722875448
40
0.497089181473052
40
0.542293640070657
40
0.587498098668261
40
0.632702557265865
40
0.677907015863469
40
0.723111474461074
40
0.768315933058678
40
0.813520391656282
40
0.858724850253887
40
0.903929308851491
40
0.949133767449095
40
0.9943382260467
40
1
40
1
40
1
40
1
41
1
10
-0.399999999999977
20
17.3251498299763
30
0
41
1
10
-0.399999999999977
20
17.3250962942756
30
0
41
1
10
-0.399999999999977
20
17.3111377078
30
0
41
1
10
-0.399999999999977
20
17.2422674474922
30
0
41
1
10
-0.399999999999977
20
17.1193484069474
30
0
41
1
10
-0.399999999999977
20
16.9372587367204
30
0
41
1
10
-0.400000000000006
20
16.6917602356259
30
0
41
1
10
-0.400000000000006
20
16.3798174953022
30
0
41
1
10
-0.400000000000006
20
15.9997825770269
30
0
41
1
10
-0.400000000000006
20
15.5515337348698
30
0
41
1
10
-0.400000000000006
20
15.0365499649754
30
0
41
1
10
-0.400000000000006
20
14.4579280405673
30
0
41
1
10
-0.400000000000006
20
13.8203335391023
30
0
41
1
10
-0.400000000000006
20
13.1298914527523
30
0
41
1
10
-0.400000000000006
20
12.39401945775
30
0
41
1
10
-0.400000000000034
20
11.6212068879994
30
0
41
1
10
-0.400000000000034
20
10.8207542384819
30
0
41
1
10
-0.400000000000034
20
10.00247262006
30
0
41
1
10
-0.400000000000034
20
9.17636811026827
30
0
41
1
10
-0.400000000000034
20
8.35230629219913
30
0
41
1
10
-0.400000000000034
20
7.53968883941312
30
0
41
1
10
-0.400000000000034
20
6.74713346409783
30
0
41
1
10
-0.400000000000034
20
5.98219169787032
30
0
41
1
10
-0.400000000000034
20
5.46426940201667
30
0
41
1
10
-0.400000000000034
20
5.19818241873483
30
0
41
1
10
-0.400000000000034
20
5.16866682996368
30
0
0
SPLINE
5
28C
100
AcDbEntity
8
SK1
62
256
6
ByLayer
370
-1
48
1
60
0
100
AcDbSpline
70
4
71
3
72
73
73
69
40
0
40
0
40
0
40
0
40
0.0018466559817005
40
0.0173088923891521
40
0.0327711287966038
40
0.0482333652040555
40
0.0636956016115072
40
0.0791578380189589
40
0.0946200744264107
40
0.110082310833862
40
0.125544547241314
40
0.141006783648766
40
0.156469020056217
40
0.171931256463669
40
0.187393492871121
40
0.202855729278573
40
0.218317965686024
40
0.233780202093476
40
0.249242438500928
40
0.264704674908379
40
0.280166911315831
40
0.295629147723283
40
0.311091384130734
40
0.326553620538186
40
0.342015856945638
40
0.357478093353089
40
0.372940329760541
40
0.388402566167993
40
0.403864802575444
40
0.419327038982896
40
0.434789275390348
40
0.450251511797799
40
0.465713748205251
40
0.481175984612703
40
0.496638221020155
40
0.512100457427606
40
0.527562693835058
40
0.54302493024251
40
0.558487166649961
40
0.573949403057413
40
0.589411639464865
40
0.604873875872317
40
0.620336112279768
40
0.63579834868722
40
0.651260585094672
40
0.666722821502123
40
0.682185057909575
40
0.697647294317027
40
0.713109530724478
40
0.72857176713193
40
0.744034003539382
40
0.759496239946833
40
0.774958476354285
40
0.790420712761737
40
0.805882949169189
40
0.82134518557664
40
0.836807421984092
40
0.852269658391544
40
0.867731894798995
40
0.883194131206447
40
0.898656367613899
40
0.91411860402135
40
0.929580840428802
40
0.945043076836254
40
0.960505313243706
40
0.975967549651157
40
0.991429786058609
40
1
40
1
40
1
40
1
41
1
10
-28.5004731679065
20
16.5843275758357
30
0
41
1
10
-28.5004731679065
20
16.5890126485511
30
0
41
1
10
-28.5004731679065
20
16.6325284265659
30
0
41
1
10
-28.5004731679065
20
16.7076779742402
30
0
41
1
10
-28.5004731679065
20
16.7910009100058
30
0
41
1
10
-28.5004731679065
20
16.8457973580111
30
0
41
1
10
-28.5004731679065
20
16.8661113679711
30
0
41
1
10
-28.5004731679065
20
16.8457932960415
30
0
41
1
10
-28.5004731679065
20
16.7787920295583
30
0
41
1
10
-28.5004731679065
20
16.6594441325878
30
0
41
1
10
-28.5004731679065
20
16.4827618905288
30
0
41
1
10
-28.5004731679065
20
16.2446845781523
30
0
41
1
10
-28.5004731679065
20
15.9423067030317
30
0
41
1
10
-28.5004731679065
20
15.5740550609709
30
0
41
1
10
-28.5004731679065
20
15.1398218356871
30
0
41
1
10
-28.5004731679065
20
14.6410360299331
30
0
41
1
10
-28.5004731679065
20
14.0806798361698
30
0
41
1
10
-28.5004731679065
20
13.4632415716312
30
0
41
1
10
-28.5004731679065
20
12.7946107775085
30
0
41
1
10
-28.5004731679065
20
12.0819181856553
30
0
41
1
10
-28.5004731679065
20
11.3333237326369
30
0
41
1
10
-28.5004731679065
20
10.557766572068
30
0
41
1
10
-28.5004731679065
20
9.76467681695502
30
0
41
1
10
-28.5004731679065
20
8.96367263859335
30
0
41
1
10
-28.5004731679065
20
8.16423852984713
30
0
41
1
10
-28.5004731679065
20
7.37541494914311
30
0
41
1
10
-28.5004731679065
20
6.60549138939066
30
0
41
1
10
-28.5004731679065
20
5.8617355376129
30
0
41
1
10
-28.5004731679065
20
5.15014758540386
30
0
41
1
10
-28.5004731679065
20
4.47527023543961
30
0
41
1
10
-28.5004731679065
20
3.84004176429181
30
0
41
1
10
-28.5004731679065
20
3.24571625932083
30
0
41
1
10
-28.5004731679065
20
2.69183828529168
30
0
41
1
10
-28.5004731679065
20
2.1762862832866
30
0
41
1
10
-28.5004731679065
20
1.69537351492639
30
0
41
1
10
-28.5004731679065
20
1.24400909015813
30
0
41
1
10
-28.5004731679065
20
0.815910920503427
30
0
41
1
10
-28.5004731679065
20
0.403861164287036
30
0
41
1
10
-28.5004731679065
20
8.53071356E-08
30
0
41
1
10
-28.5004731679065
20
-0.403861505515493
30
0
41
1
10
-28.5004731679065
20
-0.815910763441764
30
0
41
1
10
-28.5004731679065
20
-1.24400937717618
30
0
41
1
10
-28.5004731679065
20
-1.69537339652359
30
0
41
1
10
-28.5004731679065
20
-2.17628646987959
30
0
41
1
10
-28.5004731679065
20
-2.69183822496618
30
0
41
1
10
-28.5004731679065
20
-3.24571631402978
30
0
41
1
10
-28.5004731679065
20
-3.84004177292724
30
0
41
1
10
-28.5004731679065
20
-4.47527014618882
30
0
41
1
10
-28.5004731679065
20
-5.15014766379645
30
0
41
1
10
-28.5004731679065
20
-5.86173531329328
30
0
41
1
10
-28.5004731679065
20
-6.60549152820971
30
0
41
1
10
-28.5004731679065
20
-7.37541461818645
30
0
41
1
10
-28.5004731679065
20
-8.16423871111448
30
0
41
1
10
-28.5004731679065
20
-8.96367224448034
30
0
41
1
10
-28.5004731679065
20
-9.7646770167907
30
0
41
1
10
-28.5004731679065
20
-10.5577661668381
30
0
41
1
10
-28.5004731679065
20
-11.3333239249002
30
0
41
1
10
-28.5004731679065
20
-12.0819178218314
30
0
41
1
10
-28.5004731679065
20
-12.7946109377403
30
0
41
1
10
-28.5004731679065
20
-13.4632412945279
30
0
41
1
10
-28.5004731679065
20
-14.0806799452205
30
0
41
1
10
-28.5004731679065
20
-14.6410358708332
30
0
41
1
10
-28.5004731679065
20
-15.1398218825485
30
0
41
1
10
-28.5004731679065
20
-15.5740550326248
30
0
41
1
10
-28.5004731679065
20
-15.942306686368
30
0
41
1
10
-28.5004731679065
20
-16.2446846731531
30
0
41
1
10
-28.5004731679065
20
-16.4473889055971
30
0
41
1
10
-28.5004731679065
20
-16.5460151011626
30
0
41
1
10
-28.5004731679065
20
-16.5781578674542
30
0
0
SPLINE
5
28D
100
AcDbEntity
8
SK1
62
256
6
ByLayer
370
-1
48
1
60
0
100
AcDbSpline
70
4
71
3
72
41
73
37
40
0
40
0
40
0
40
0
40
0.0035862615420455
40
0.0346121196537849
40
0.0656379777655244
40
0.0966638358772639
40
0.127689693989003
40
0.158715552100743
40
0.189741410212482
40
0.220767268324222
40
0.251793126435961
40
0.282818984547701
40
0.31384484265944
40
0.34487070077118
40
0.375896558882919
40
0.406922416994659
40
0.437948275106398
40
0.468974133218138
40
0.499999991329877
40
0.531025849441616
40
0.562051707553356
40
0.593077565665095
40
0.624103423776835
40
0.655129281888574
40
0.686155140000314
40
0.717180998112053
40
0.748206856223793
40
0.779232714335532
40
0.810258572447272
40
0.841284430559011
40
0.872310288670751
40
0.90333614678249
40
0.93436200489423
40
0.965387863005969
40
0.996413721117709
40
1
40
1
40
1
40
1
41
1
10
-2.20000000000005
20
-10.2416915120173
30
0
41
1
10
-2.20000000000005
20
-10.2098170446237
30
0
41
1
10
-2.20000000000005
20
-9.90198508684045
30
0
41
1
10
-2.20000000000005
20
-9.3149808480191
30
0
41
1
10
-2.20000000000005
20
-8.48421552667966
30
0
41
1
10
-2.20000000000005
20
-7.66447545612931
30
0
41
1
10
-2.20000000000005
20
-6.86437716583347
30
0
41
1
10
-2.20000000000005
20
-6.09147129549578
30
0
41
1
10
-2.20000000000005
20
-5.35199475664402
30
0
41
1
10
-2.20000000000005
20
-4.6506671110304
30
0
41
1
10
-2.20000000000005
20
-3.99054255831777
30
0
41
1
10
-2.20000000000005
20
-3.37292400688881
30
0
41
1
10
-2.20000000000005
20
-2.79733805829036
30
0
41
1
10
-2.20000000000005
20
-2.26158054799637
30
0
41
1
10
-2.20000000000005
20
-1.76181929549949
30
0
41
1
10
-2.20000000000005
20
-1.29276519791185
30
0
41
1
10
-2.20000000000005
20
-0.847888335032877
30
0
41
1
10
-2.20000000000005
20
-0.419689842123091
30
0
41
1
10
-2.20000000000005
20
8.86504949E-08
30
0
41
1
10
-2.20000000000005
20
0.419689487520998
30
0
41
1
10
-2.20000000000005
20
0.847888498250114
30
0
41
1
10
-2.20000000000005
20
1.29276489964477
30
0
41
1
10
-2.20000000000005
20
1.7618194185427
30
0
41
1
10
-2.20000000000005
20
2.26158035409029
30
0
41
1
10
-2.20000000000005
20
2.79733812098013
30
0
41
1
10
-2.20000000000005
20
3.37292395003561
30
0
41
1
10
-2.20000000000005
20
3.99054254934384
30
0
41
1
10
-2.20000000000005
20
4.65066720377908
30
0
41
1
10
-2.20000000000005
20
5.35199467517899
30
0
41
1
10
-2.20000000000005
20
6.091471528607
30
0
41
1
10
-2.20000000000005
20
6.86437702157369
30
0
41
1
10
-2.20000000000005
20
7.66447580005692
30
0
41
1
10
-2.20000000000005
20
8.48421533830793
30
0
41
1
10
-2.20000000000005
20
9.31498125757835
30
0
41
1
10
-2.20000000000005
20
9.90198521620806
30
0
41
1
10
-2.20000000000005
20
10.2098173562835
30
0
41
1
10
-2.20000000000005
20
10.2416919827236
30
0
0
SPLINE
5
28E
100
AcDbEntity
8
SK1
62
256
6
ByLayer
370
-1
48
1
60
0
100
AcDbSpline
70
4
71
3
72
28
73
24
40
0
40
0
40
0
40
0
40
0.0624999999999978
40
0.0624999999999978
40
0.0937499999999973
40
0.0937499999999973
40
0.124999999999997
40
0.124999999999997
40
0.156249999999996
40
0.156249999999996
40
0.187499999999996
40
0.187499999999996
40
0.249999999999995
40
0.249999999999995
40
0.312499999999995
40
0.312499999999995
40
0.374999999999994
40
0.374999999999994
40
0.499999999999996
40
0.499999999999996
40
0.749999999999998
40
0.749999999999998
40
1
40
1
40
1
40
1
41
1
10
-0.400000000000034
20
-5.16866679574528
30
0
41
1
10
-0.429667984858526
20
-5.19709542919747
30
0
41
1
10
-0.463222617053248
20
-5.22280908416965
30
0
41
1
10
-0.52069073499743
20
-5.2493656202553
30
0
41
1
10
-0.541319982680051
20
-5.25622806296627
30
0
41
1
10
-0.584167147180267
20
-5.26367853666855
30
0
41
1
10
-0.606263827599633
20
-5.26419006417308
30
0
41
1
10
-0.649499715320417
20
-5.25856600648308
30
0
41
1
10
-0.670470103516493
20
-5.25251038934852
30
0
41
1
10
-0.709851682998163
20
-5.23586408036579
30
0
41
1
10
-0.728052830987394
20
-5.22546765124821
30
0
41
1
10
-0.779626594601126
20
-5.19004145070292
30
0
41
1
10
-0.809163918582101
20
-5.16149505705718
30
0
41
1
10
-0.862207736531758
20
-5.10093998422238
30
0
41
1
10
-0.886005967364127
20
-5.06835849703066
30
0
41
1
10
-0.929332938802958
20
-5.00192246546092
30
0
41
1
10
-0.948980336228743
20
-4.96788084943088
30
0
41
1
10
-1.00396571473226
20
-4.86405782935998
30
0
41
1
10
-1.03542015821515
20
-4.79260544067262
30
0
41
1
10
-1.12107140298599
20
-4.57404740423686
30
0
41
1
10
-1.16650547510207
20
-4.42291937415831
30
0
41
1
10
-1.24510539876221
20
-4.11730652712239
30
0
41
1
10
-1.27812387419789
20
-3.96207335277512
30
0
41
1
10
-1.30710678118655
20
-3.80474664113271
30
0
0
SPLINE
5
28F
100
AcDbEntity
8
SK1
62
256
6
ByLayer
370
-1
48
1
60
0
100
AcDbSpline
70
4
71
3
72
14
73
10
40
0
40
0
40
0
40
0
40
0.134730002442921
40
0.287068852256708
40
0.439407702070496
40
0.591746551884283
40
0.74408540169807
40
0.896424251511857
40
1
40
1
40
1
40
1
41
1
10
-2.20000000000005
20
10.2416919827236
30
0
41
1
10
-2.20000000000005
20
10.4855732776028
30
0
41
1
10
-2.20000000000005
20
11.0026050713461
30
0
41
1
10
-2.20000000000005
20
11.777504870163
30
0
41
1
10
-2.20000000000002
20
12.5554386011843
30
0
41
1
10
-2.20000000000002
20
13.2960633878308
30
0
41
1
10
-2.20000000000002
20
13.9908994853336
30
0
41
1
10
-2.20000000000002
20
14.5640747934518
30
0
41
1
10
-2.20000000000002
20
14.8954704523347
30
0
41
1
10
-2.20000000000002
20
15.0247809138928
30
0
0
SPLINE
5
290
100
AcDbEntity
8
SK1
62
256
6
ByLayer
370
-1
48
1
60
0
100
AcDbSpline
70
4
71
3
72
30
73
26
40
0
40
0
40
0
40
0
40
0.0056618334352368
40
0.0508667589107938
40
0.0960716843863508
40
0.141276609861908
40
0.186481535337465
40
0.231686460813022
40
0.276891386288579
40
0.322096311764136
40
0.367301237239693
40
0.41250616271525
40
0.457711088190807
40
0.502916013666364
40
0.548120939141921
40
0.593325864617478
40
0.638530790093035
40
0.683735715568592
40
0.728940641044149
40
0.774145566519706
40
0.819350491995263
40
0.86455541747082
40
0.909760342946377
40
0.954965268421934
40
1
40
1
40
1
40
1
41
1
10
-0.400000000000034
20
-5.16866679574528
30
0
41
1
10
-0.400000000000034
20
-5.1981823917107
30
0
41
1
10
-0.400000000000034
20
-5.46426938707833
30
0
41
1
10
-0.400000000000034
20
-5.98219146197602
30
0
41
1
10
-0.400000000000034
20
-6.74713361247495
30
0
41
1
10
-0.400000000000034
20
-7.53968849279408
30
0
41
1
10
-0.400000000000034
20
-8.35230648563555
30
0
41
1
10
-0.400000000000034
20
-9.17636769820604
30
0
41
1
10
-0.400000000000034
20
-10.0024728331477
30
0
41
1
10
-0.400000000000034
20
-10.8207538150476
30
0
41
1
10
-0.400000000000034
20
-11.6212070931939
30
0
41
1
10
-0.400000000000063
20
-12.3940190774915
30
0
41
1
10
-0.400000000000063
20
-13.1298916243886
30
0
41
1
10
-0.400000000000063
20
-13.8203332490725
30
0
41
1
10
-0.400000000000063
20
-14.4579281585871
30
0
41
1
10
-0.400000000000063
20
-15.0365497976464
30
0
41
1
10
-0.400000000000063
20
-15.5515337877379
30
0
41
1
10
-0.400000000000063
20
-15.9997825456108
30
0
41
1
10
-0.400000000000063
20
-16.379817481596
30
0
41
1
10
-0.400000000000063
20
-16.6917603323907
30
0
41
1
10
-0.400000000000034
20
-16.9372586651848
30
0
41
1
10
-0.400000000000034
20
-17.1193485969266
30
0
41
1
10
-0.400000000000034
20
-17.2422669751987
30
0
41
1
10
-0.400000000000006
20
-17.3111334390323
30
0
41
1
10
-0.400000000000034
20
-17.3250933672964
30
0
41
1
10
-0.400000000000006
20
-17.32514979575
30
0
0
SPLINE
5
291
100
AcDbEntity
8
SK1
62
256
6
ByLayer
370
-1
48
1
60
0
100
AcDbSpline
70
4
71
3
72
24
73
20
40
0
40
0
40
0
40
0
40
0.250000000000001
40
0.250000000000001
40
0.500000000000002
40
0.500000000000002
40
0.625000000000002
40
0.625000000000002
40
0.750000000000003
40
0.750000000000003
40
0.812500000000003
40
0.812500000000003
40
0.875000000000004
40
0.875000000000004
40
0.906250000000003
40
0.906250000000003
40
0.937500000000002
40
0.937500000000002
40
1
40
1
40
1
40
1
41
1
10
-0.200000000000046
20
-5.88142397393344
30
0
41
1
10
-0.200000000000046
20
-5.81371009654848
30
0
41
1
10
-0.201340439454953
20
-5.74574546022151
30
0
41
1
10
-0.207833121644739
20
-5.60923509045296
30
0
41
1
10
-0.212902754690077
20
-5.54059458280554
30
0
41
1
10
-0.225634072984661
20
-5.4374091810827
30
0
41
1
10
-0.230734364014495
20
-5.40303508817371
30
0
41
1
10
-0.243774490552681
20
-5.33441922744203
30
0
41
1
10
-0.251620111359472
20
-5.30011582455157
30
0
41
1
10
-0.267750793190515
20
-5.24965195775641
30
0
41
1
10
-0.273885609564587
20
-5.23293996762811
30
0
41
1
10
-0.288755383055644
20
-5.20074556117078
30
0
41
1
10
-0.297542372526635
20
-5.18480467715821
30
0
41
1
10
-0.315067245397358
20
-5.16447225710797
30
0
41
1
10
-0.321786064568897
20
-5.15820797099255
30
0
41
1
10
-0.33727307780353
20
-5.14902898284879
30
0
41
1
10
-0.346051494737054
20
-5.14633288727399
30
0
41
1
10
-0.372567411829238
20
-5.14665884649861
30
0
41
1
10
-0.387659424580988
20
-5.15684173594229
30
0
41
1
10
-0.400000000000063
20
-5.16866679574503
30
0
0
SPLINE
5
292
100
AcDbEntity
8
SK1
62
256
6
ByLayer
370
-1
48
1
60
0
100
AcDbSpline
70
4
71
3
72
55
73
51
40
0
40
0
40
0
40
0
40
0.0062775166665559
40
0.0126613242512419
40
0.0191232850025591
40
0.0256662944768873
40
0.0322931419903773
40
0.039006512359221
40
0.0458089879532824
40
0.0527030510123682
40
0.0799450048390487
40
0.107583252370328
40
0.135758366450904
40
0.164603071837759
40
0.202129424547299
40
0.239329546923638
40
0.276480878941029
40
0.305761022024263
40
0.334078193462548
40
0.361588646546038
40
0.388462709706557
40
0.407109189363945
40
0.424749148979747
40
0.441462480980741
40
0.457343069055439
40
0.472500278835462
40
0.487059786338379
40
0.501163255019306
40
0.526004671025942
40
0.552561582886583
40
0.581450213472854
40
0.613151099547903
40
0.630954150874593
40
0.649012734490495
40
0.667378049069714
40
0.686098776851623
40
0.705220885769953
40
0.72478751506562
40
0.75260818029488
40
0.780406233147078
40
0.808298402796578
40
0.836400245617776
40
0.865167193223248
40
0.893276379389797
40
0.920859942104947
40
0.948057681530877
40
0.961722894848601
40
0.975026987921666
40
0.987991266047049
40
1
40
1
40
1
40
1
41
1
10
-30
20
-15.9412563546922
30
0
41
1
10
-30
20
-15.9413511315182
30
0
41
1
10
-30
20
-15.9388916064523
30
0
41
1
10
-30
20
-15.9273804000157
30
0
41
1
10
-30
20
-15.9079788422216
30
0
41
1
10
-30
20
-15.8807063718935
30
0
41
1
10
-30
20
-15.8455619478377
30
0
41
1
10
-30
20
-15.8025510336339
30
0
41
1
10
-30
20
-15.751654237556
30
0
41
1
10
-30
20
-15.6354614488172
30
0
41
1
10
-30
20
-15.4072734112923
30
0
41
1
10
-30
20
-14.9910393954625
30
0
41
1
10
-30
20
-14.4612492653321
30
0
41
1
10
-30
20
-13.75980362743
30
0
41
1
10
-30
20
-12.8634986274155
30
0
41
1
10
-30
20
-11.739852996921
30
0
41
1
10
-30
20
-10.5610442122656
30
0
41
1
10
-30
20
-9.38065337957798
30
0
41
1
10
-30
20
-8.23841077858418
30
0
41
1
10
-30
20
-7.04971673261991
30
0
41
1
10
-30
20
-5.93280908256415
30
0
41
1
10
-30
20
-4.92269022344595
30
0
41
1
10
-30
20
-4.04473490583857
30
0
41
1
10
-30
20
-3.18409230622029
30
0
41
1
10
-30
20
-2.34074423568492
30
0
41
1
10
-30
20
-1.51461138812482
30
0
41
1
10
-30
20
-0.705662651942646
30
0
41
1
10
-30
20
0.291624376544149
30
0
41
1
10
-30
20
1.51125027171196
30
0
41
1
10
-30
20
2.95678912159335
30
0
41
1
10
-30
20
4.44757052085859
30
0
41
1
10
-30
20
5.71060973941567
30
0
41
1
10
-30
20
6.74763296214297
30
0
41
1
10
-30
20
7.54747447616455
30
0
41
1
10
-30
20
8.32687796284489
30
0
41
1
10
-30
20
9.08577238570726
30
0
41
1
10
-30
20
9.82413283315879
30
0
41
1
10
-30
20
10.6371602934683
30
0
41
1
10
-30
20
11.4981281374076
30
0
41
1
10
-30
20
12.3723486056914
30
0
41
1
10
-30
20
13.1641616656871
30
0
41
1
10
-30
20
13.876053967975
30
0
41
1
10
-30
20
14.499744874278
30
0
41
1
10
-30
20
15.0213498104851
30
0
41
1
10
-30
20
15.4299810664198
30
0
41
1
10
-30
20
15.6772442440077
30
0
41
1
10
-30
20
15.8176211683846
30
0
41
1
10
-30
20
15.8924972054746
30
0
41
1
10
-30
20
15.9350483196276
30
0
41
1
10
-30
20
15.9432323673422
30
0
41
1
10
-30
20
15.9423143994038
30
0
0
SPLINE
5
293
100
AcDbEntity
8
SK1
62
256
6
ByLayer
370
-1
48
1
60
0
100
AcDbSpline
70
4
71
3
72
26
73
22
40
0
40
0
40
0
40
0
40
0.0312500000000011
40
0.0312500000000011
40
0.0625000000000023
40
0.0625000000000023
40
0.0937500000000034
40
0.0937500000000034
40
0.125000000000004
40
0.125000000000004
40
0.187500000000004
40
0.187500000000004
40
0.250000000000004
40
0.250000000000004
40
0.375000000000003
40
0.375000000000003
40
0.500000000000003
40
0.500000000000003
40
0.750000000000001
40
0.750000000000001
40
1
40
1
40
1
40
1
41
1
10
-0.400000000000034
20
5.16866682996297
30
0
41
1
10
-0.39379156107097
20
5.16271774597109
30
0
41
1
10
-0.387065759690273
20
5.15737775419609
30
0
41
1
10
-0.371847789302336
20
5.14918868455118
30
0
41
1
10
-0.363364114486188
20
5.14648591129571
30
0
41
1
10
-0.345795239221502
20
5.14639178859295
30
0
41
1
10
-0.336814123758302
20
5.14920763371799
30
0
41
1
10
-0.321282558839755
20
5.15860582383482
30
0
41
1
10
-0.314550028521779
20
5.16497907632953
30
0
41
1
10
-0.296944139903985
20
5.18569897355047
30
0
41
1
10
-0.288179942609275
20
5.20182093101977
30
0
41
1
10
-0.273356478254499
20
5.23426931143496
30
0
41
1
10
-0.267307193501125
20
5.25091131490998
30
0
41
1
10
-0.251274285749361
20
5.30146995854872
30
0
41
1
10
-0.243428614732437
20
5.33601274127312
30
0
41
1
10
-0.230497441696428
20
5.40451867267049
30
0
41
1
10
-0.225449336351801
20
5.43874947226385
30
0
41
1
10
-0.212850463115558
20
5.54134062553351
30
0
41
1
10
-0.207811804454735
20
5.60959926072471
30
0
41
1
10
-0.201341575126975
20
5.74580650530868
30
0
41
1
10
-0.200000000000046
20
5.81380202900655
30
0
41
1
10
-0.200000000000046
20
5.88142452370542
30
0
0
SPLINE
5
294
100
AcDbEntity
8
SK1
62
256
6
ByLayer
370
-1
48
1
60
0
100
AcDbSpline
70
4
71
3
72
24
73
20
40
0
40
0
40
0
40
0
40
0.250000000000001
40
0.250000000000001
40
0.375000000000001
40
0.375000000000001
40
0.437500000000001
40
0.437500000000001
40
0.500000000000001
40
0.500000000000001
40
0.625000000000001
40
0.625000000000001
40
0.750000000000001
40
0.750000000000001
40
0.812500000000001
40
0.812500000000001
40
0.875
40
0.875
40
1
40
1
40
1
40
1
41
1
10
-1.30710678118655
20
3.80474436172742
30
0
41
1
10
-1.41816180194488
20
3.20191082262588
30
0
41
1
10
-1.51742460563804
20
2.58660830647122
30
0
41
1
10
-1.62712751713187
20
1.6369256404862
30
0
41
1
10
-1.6570129896302
20
1.31584300840137
30
0
41
1
10
-1.68795529356487
20
0.825841257997496
30
0
41
1
10
-1.69596975522452
20
0.660458756170897
30
0
41
1
10
-1.70663247810879
20
0.331065538121066
30
0
41
1
10
-1.70932931448368
20
0.166863930724105
30
0
41
1
10
-1.70943014065867
20
-0.324256820765584
30
0
41
1
10
-1.69876152571632
20
-0.649683250610991
30
0
41
1
10
-1.6585118317669
20
-1.29689910929389
30
0
41
1
10
-1.62900241775955
20
-1.61869699531221
30
0
41
1
10
-1.57385204849132
20
-2.09905529777984
30
0
41
1
10
-1.55367435654514
20
-2.25852307528237
30
0
41
1
10
-1.51060288083744
20
-2.57419592633738
30
0
41
1
10
-1.48766444543867
20
-2.73071961056408
30
0
41
1
10
-1.41544165724093
20
-3.1967524121109
30
0
41
1
10
-1.3627454758165
20
-3.50272542326081
30
0
41
1
10
-1.30710678118663
20
-3.80474664113297
30
0
0
SPLINE
5
295
100
AcDbEntity
8
SK1
62
256
6
ByLayer
370
-1
48
1
60
0
100
AcDbSpline
70
4
71
3
72
16
73
12
40
0
40
0
40
0
40
0
40
0.210347437753915
40
0.210347437753915
40
0.42069487550783
40
0.42069487550783
40
0.631042313261744
40
0.631042313261744
40
0.841389751015659
40
0.841389751015659
40
1
40
1
40
1
40
1
41
1
10
-2.19999999999999
20
15.0247809138928
30
0
41
1
10
-2.19999999999999
20
15.3464281768119
30
0
41
1
10
-2.19999985369779
20
15.6408309205943
30
0
41
1
10
-2.19999861013468
20
16.1716311372165
30
0
41
1
10
-2.19999751318201
20
16.4085994471238
30
0
41
1
10
-2.19999332922319
20
16.81967937675
30
0
41
1
10
-2.19999025395853
20
16.9939820524753
30
0
41
1
10
-2.19998056068692
20
17.2730608970185
30
0
41
1
10
-2.19997397016539
20
17.377934512455
30
0
41
1
10
-2.19995735784332
20
17.4923830898394
30
0
41
1
10
-2.19994857701471
20
17.5191239928768
30
0
41
1
10
-2.19993753438064
20
17.5200999009198
30
0
0
SPLINE
5
296
100
AcDbEntity
8
SK1
62
256
6
ByLayer
370
-1
48
1
60
0
100
AcDbSpline
70
4
71
3
72
14
73
10
40
0
40
0
40
0
40
0
40
0.158270924000636
40
0.158270924000636
40
0.368703193000477
40
0.368703193000477
40
0.579135462000318
40
0.579135462000318
40
1
40
1
40
1
40
1
41
1
10
-2.19993758664137
20
-17.5200998464826
30
0
41
1
10
-2.19994859701327
20
-17.5190519405008
30
0
41
1
10
-2.19995735146554
20
-17.4923612868417
30
0
41
1
10
-2.19997395241097
20
-17.37814676901
30
0
41
1
10
-2.19998054803548
20
-17.2733105000759
30
0
41
1
10
-2.19999024684913
20
-16.994301647152
30
0
41
1
10
-2.19999332411427
20
-16.820033747135
30
0
41
1
10
-2.19999960456138
20
-16.2034150671494
30
0
41
1
10
-2.20000000000005
20
-15.6672998594695
30
0
41
1
10
-2.20000000000005
20
-15.0247808645597
30
0
0
SPLINE
5
297
100
AcDbEntity
8
SK1
62
256
6
ByLayer
370
-1
48
1
60
0
100
AcDbSpline
70
4
71
3
72
14
73
10
40
0
40
0
40
0
40
0
40
0.103575740797296
40
0.255914577449049
40
0.408253414100803
40
0.560592250752556
40
0.71293108740431
40
0.865269924056063
40
1
40
1
40
1
40
1
41
1
10
-2.20000000000007
20
-15.0247808645595
30
0
41
1
10
-2.20000000000007
20
-14.8954704309983
30
0
41
1
10
-2.20000000000007
20
-14.5640748657259
30
0
41
1
10
-2.20000000000007
20
-13.9908991973699
30
0
41
1
10
-2.20000000000007
20
-13.2960635543425
30
0
41
1
10
-2.20000000000007
20
-12.5554382231013
30
0
41
1
10
-2.20000000000005
20
-11.7775050699617
30
0
41
1
10
-2.20000000000005
20
-11.0026045240097
30
0
41
1
10
-2.20000000000005
20
-10.4855729233141
30
0
41
1
10
-2.20000000000005
20
-10.2416915120173
30
0
0
SPLINE
5
298
100
AcDbEntity
8
SK1
62
256
6
ByLayer
370
-1
48
1
60
0
100
AcDbSpline
70
4
71
3
72
79
73
75
40
0
40
0
40
0
40
0
40
0.0067087494008483
40
0.0208027852630921
40
0.0348968211253358
40
0.0489908569875795
40
0.0630848928498232
40
0.0771789287120669
40
0.0912729645743107
40
0.105367000436554
40
0.119461036298798
40
0.133555072161042
40
0.147649108023286
40
0.161743143885529
40
0.175837179747773
40
0.189931215610017
40
0.20402525147226
40
0.218119287334504
40
0.232213323196748
40
0.246307359058992
40
0.260401394921235
40
0.274495430783479
40
0.288589466645723
40
0.302683502507966
40
0.31677753837021
40
0.330871574232454
40
0.344965610094698
40
0.359059645956941
40
0.373153681819185
40
0.387247717681429
40
0.401341753543672
40
0.415435789405916
40
0.42952982526816
40
0.443623861130404
40
0.457717896992647
40
0.471811932854891
40
0.485905968717135
40
0.500000004579379
40
0.514094040441622
40
0.528188076303866
40
0.54228211216611
40
0.556376148028353
40
0.570470183890597
40
0.584564219752841
40
0.598658255615084
40
0.612752291477328
40
0.626846327339572
40
0.640940363201816
40
0.655034399064059
40
0.669128434926303
40
0.683222470788547
40
0.697316506650791
40
0.711410542513034
40
0.725504578375278
40
0.739598614237522
40
0.753692650099765
40
0.767786685962009
40
0.781880721824253
40
0.795974757686497
40
0.81006879354874
40
0.824162829410984
40
0.838256865273228
40
0.852350901135472
40
0.866444936997715
40
0.880538972859959
40
0.894633008722203
40
0.908727044584446
40
0.92282108044669
40
0.936915116308934
40
0.951009152171177
40
0.965103188033421
40
0.979197223895665
40
0.993291259757909
40
1
40
1
40
1
40
1
41
1
10
-3
20
-17.2891030023932
30
0
41
1
10
-3
20
-17.3064425246363
30
0
41
1
10
-3
20
-17.357682467641
30
0
41
1
10
-3
20
-17.4290648746259
30
0
41
1
10
-3
20
-17.4859427971309
30
0
41
1
10
-3
20
-17.5070292572437
30
0
41
1
10
-3
20
-17.4859401738945
30
0
41
1
10
-3.00000000000003
20
-17.4163913620312
30
0
41
1
10
-3.00000000000003
20
-17.2925088911448
30
0
41
1
10
-3.00000000000003
20
-17.1091123896189
30
0
41
1
10
-3.00000000000003
20
-16.8619882313057
30
0
41
1
10
-3.00000000000003
20
-16.5481197778907
30
0
41
1
10
-3.00000000000003
20
-16.1658744357057
30
0
41
1
10
-3.00000000000003
20
-15.7151402778227
30
0
41
1
10
-3.00000000000003
20
-15.1974002275414
30
0
41
1
10
-3.00000000000003
20
-14.6157505856349
30
0
41
1
10
-3.00000000000003
20
-13.9748490556261
30
0
41
1
10
-3.00000000000003
20
-13.2808105172309
30
0
41
1
10
-3.00000000000003
20
-12.5410348198394
30
0
41
1
10
-3
20
-11.763994099502
30
0
41
1
10
-3
20
-10.9589648821141
30
0
41
1
10
-3
20
-10.1357380738661
30
0
41
1
10
-3
20
-9.30429484700929
30
0
41
1
10
-3
20
-8.47448256671282
30
0
41
1
10
-3
20
-7.6556828892094
30
0
41
1
10
-3
20
-6.85650245921596
30
0
41
1
10
-3
20
-6.08448325445985
30
0
41
1
10
-3
20
-5.34585503158101
30
0
41
1
10
-3
20
-4.64533193812392
30
0
41
1
10
-3
20
-3.9859646700211
30
0
41
1
10
-3
20
-3.36905464097902
30
0
41
1
10
-3
20
-2.79412899561987
30
0
41
1
10
-3
20
-2.25898609800083
30
0
41
1
10
-3
20
-1.75979816383233
30
0
41
1
10
-3
20
-1.29128215780307
30
0
41
1
10
-3
20
-0.846915650735156
30
0
41
1
10
-3
20
-0.41920838047011
30
0
41
1
10
-3
20
8.85488021E-08
30
0
41
1
10
-3
20
0.419208026274788
30
0
41
1
10
-3
20
0.84691581376515
30
0
41
1
10
-3
20
1.29128185987813
30
0
41
1
10
-3
20
1.75979828673439
30
0
41
1
10
-3
20
2.25898590431717
30
0
41
1
10
-3
20
2.79412905823773
30
0
41
1
10
-3
20
3.36905458419105
30
0
41
1
10
-3
20
3.98596466105747
30
0
41
1
10
-3
20
4.64533203076618
30
0
41
1
10
-3
20
5.34585495020943
30
0
41
1
10
-3
20
6.08448348730366
30
0
41
1
10
-3
20
6.85650231512167
30
0
41
1
10
-3
20
7.65568323274246
30
0
41
1
10
-3
20
8.47448237855718
30
0
41
1
10
-3
20
9.30429525609867
30
0
41
1
10
-3
20
10.1357378664365
30
0
41
1
10
-3
20
10.9589653027428
30
0
41
1
10
-3
20
11.7639938999324
30
0
41
1
10
-2.99999999999997
20
12.5410351974886
30
0
41
1
10
-2.99999999999997
20
13.2808103509102
30
0
41
1
10
-2.99999999999997
20
13.9748493432595
30
0
41
1
10
-2.99999999999997
20
14.6157504724401
30
0
41
1
10
-2.99999999999997
20
15.197400392687
30
0
41
1
10
-2.99999999999997
20
15.7151402291805
30
0
41
1
10
-2.99999999999997
20
16.1658744651289
30
0
41
1
10
-2.99999999999997
20
16.5481197951877
30
0
41
1
10
-2.99999999999997
20
16.8619881326948
30
0
41
1
10
-2.99999999999997
20
17.1091124641426
30
0
41
1
10
-2.99999999999997
20
17.2925086916609
30
0
41
1
10
-2.99999999999997
20
17.4163918494222
30
0
41
1
10
-2.99999999999997
20
17.4859391868839
30
0
41
1
10
-2.99999999999994
20
17.5070293524766
30
0
41
1
10
-2.99999999999994
20
17.4859434032096
30
0
41
1
10
-2.99999999999994
20
17.4290646714908
30
0
41
1
10
-2.99999999999994
20
17.357682264862
30
0
41
1
10
-2.99999999999997
20
17.3064424605186
30
0
41
1
10
-2.99999999999994
20
17.2891029972045
30
0
0
SPLINE
5
299
100
AcDbEntity
8
SK1
62
256
6
ByLayer
370
-1
48
1
60
0
100
AcDbSpline
70
4
71
3
72
24
73
20
40
0
40
0
40
0
40
0
40
0.249999999999999
40
0.249999999999999
40
0.499999999999999
40
0.499999999999999
40
0.624999999999999
40
0.624999999999999
40
0.749999999999999
40
0.749999999999999
40
0.812499999999999
40
0.812499999999999
40
0.874999999999999
40
0.874999999999999
40
0.906249999999999
40
0.906249999999999
40
0.937499999999999
40
0.937499999999999
40
1
40
1
40
1
40
1
41
1
10
-1.30710678118655
20
3.80474436172742
30
0
41
1
10
-1.27820587151987
20
3.96162549630972
30
0
41
1
10
-1.24528283058905
20
4.11647986205287
30
0
41
1
10
-1.16690330055033
20
4.42150599832851
30
0
41
1
10
-1.1216394818185
20
4.57210526807785
30
0
41
1
10
-1.03683410576141
20
4.78923689203188
30
0
41
1
10
-1.00570960409644
20
4.86025318303473
30
0
41
1
10
-0.93330125313895
20
4.99796819311584
30
0
41
1
10
-0.892788793638914
20
5.06495158421586
30
0
41
1
10
-0.812720410511901
20
5.15791908023726
30
0
41
1
10
-0.783582064742575
20
5.18655692653388
30
0
41
1
10
-0.715621550866786
20
5.23468180965574
30
0
41
1
10
-0.675209143574591
20
5.2544383674574
30
0
41
1
10
-0.609749014159945
20
5.26408079733798
30
0
41
1
10
-0.587593321752848
20
5.26395175835981
30
0
41
1
10
-0.543797506156182
20
5.25694068357137
30
0
41
1
10
-0.522881824241551
20
5.25022122084911
30
0
41
1
10
-0.463662442339768
20
5.22330778036215
30
0
41
1
10
-0.430108854220066
20
5.19751789940321
30
0
41
1
10
-0.400000000000006
20
5.16866682996363
30
0
0
SPLINE
5
29A
100
AcDbEntity
8
SK1
62
256
6
ByLayer
370
-1
48
1
60
0
100
AcDbSpline
70
4
71
3
72
79
73
75
40
0
40
0
40
0
40
0
40
0.0074030717813795
40
0.021477270807217
40
0.0355514698330546
40
0.0496256688588921
40
0.0636998678847296
40
0.0777740669105672
40
0.0918482659364047
40
0.105922464962242
40
0.11999666398808
40
0.134070863013917
40
0.148145062039755
40
0.162219261065592
40
0.17629346009143
40
0.190367659117267
40
0.204441858143105
40
0.218516057168942
40
0.23259025619478
40
0.246664455220617
40
0.260738654246455
40
0.274812853272292
40
0.28888705229813
40
0.302961251323968
40
0.317035450349805
40
0.331109649375643
40
0.34518384840148
40
0.359258047427318
40
0.373332246453155
40
0.387406445478993
40
0.40148064450483
40
0.415554843530668
40
0.429629042556505
40
0.443703241582343
40
0.45777744060818
40
0.471851639634018
40
0.485925838659855
40
0.500000037685693
40
0.51407423671153
40
0.528148435737368
40
0.542222634763206
40
0.556296833789043
40
0.570371032814881
40
0.584445231840718
40
0.598519430866556
40
0.612593629892393
40
0.626667828918231
40
0.640742027944068
40
0.654816226969906
40
0.668890425995743
40
0.682964625021581
40
0.697038824047418
40
0.711113023073256
40
0.725187222099093
40
0.739261421124931
40
0.753335620150768
40
0.767409819176606
40
0.781484018202443
40
0.795558217228281
40
0.809632416254118
40
0.823706615279956
40
0.837780814305793
40
0.851855013331631
40
0.865929212357469
40
0.880003411383306
40
0.894077610409144
40
0.908151809434981
40
0.922226008460819
40
0.936300207486656
40
0.950374406512494
40
0.964448605538331
40
0.978522804564169
40
0.992597003590006
40
1
40
1
40
1
40
1
41
1
10
-1.99999999999997
20
17.1116144556829
30
0
41
1
10
-1.99999999999997
20
17.1306737744497
30
0
41
1
10
-1.99999999999997
20
17.1831798977702
30
0
41
1
10
-1.99999999999997
20
17.2550395308993
30
0
41
1
10
-1.99999999999997
20
17.3112459497451
30
0
41
1
10
-1.99999999999997
20
17.3321089735132
30
0
41
1
10
-1.99999999999997
20
17.3112189889209
30
0
41
1
10
-1.99999999999997
20
17.2422674474922
30
0
41
1
10
-1.99999999999997
20
17.1193484069474
30
0
41
1
10
-1.99999999999997
20
16.9372587367204
30
0
41
1
10
-1.99999999999997
20
16.6917602356259
30
0
41
1
10
-1.99999999999997
20
16.3798174953022
30
0
41
1
10
-1.99999999999997
20
15.9997825770269
30
0
41
1
10
-1.99999999999997
20
15.5515337348698
30
0
41
1
10
-1.99999999999997
20
15.0365499649754
30
0
41
1
10
-1.99999999999997
20
14.4579280405673
30
0
41
1
10
-1.99999999999997
20
13.8203335391023
30
0
41
1
10
-2
20
13.1298914527523
30
0
41
1
10
-2
20
12.39401945775
30
0
41
1
10
-2.00000000000003
20
11.6212068879994
30
0
41
1
10
-2.00000000000003
20
10.8207542384819
30
0
41
1
10
-2.00000000000003
20
10.00247262006
30
0
41
1
10
-2.00000000000003
20
9.17636811026827
30
0
41
1
10
-2.00000000000003
20
8.35230629219913
30
0
41
1
10
-2.00000000000003
20
7.53968883941312
30
0
41
1
10
-2.00000000000003
20
6.74713346409783
30
0
41
1
10
-2.00000000000003
20
5.98219169787032
30
0
41
1
10
-2.00000000000003
20
5.25109264883253
30
0
41
1
10
-2.00000000000003
20
4.55854550233684
30
0
41
1
10
-2.00000000000003
20
3.90758262960779
30
0
41
1
10
-2.00000000000003
20
3.29948777527221
30
0
41
1
10
-2.00000000000003
20
2.73375387844547
30
0
41
1
10
-2.00000000000003
20
2.20813463136872
30
0
41
1
10
-2.00000000000003
20
1.71876156390923
30
0
41
1
10
-2.00000000000003
20
1.26029526086333
30
0
41
1
10
-2.00000000000003
20
0.826158476850765
30
0
41
1
10
-2.00000000000003
20
0.408799134273892
30
0
41
1
10
-2.00000000000003
20
2.402494488E-07
30
0
41
1
10
-2.00000000000003
20
-0.408799553455736
30
0
41
1
10
-2.00000000000003
20
-0.82615842677356
30
0
41
1
10
-2.00000000000003
20
-1.26029551010325
30
0
41
1
10
-2.00000000000003
20
-1.71876142586774
30
0
41
1
10
-2.00000000000003
20
-2.20813448047156
30
0
41
1
10
-2.00000000000003
20
-2.7337537633878
30
0
41
1
10
-2.00000000000003
20
-3.29948825001514
30
0
41
1
10
-2.00000000000003
20
-3.9075826619212
30
0
41
1
10
-2.00000000000003
20
-4.55854530449344
30
0
41
1
10
-2.00000000000003
20
-5.25109273249788
30
0
41
1
10
-2.00000000000003
20
-5.98219146197602
30
0
41
1
10
-2.00000000000003
20
-6.74713361247495
30
0
41
1
10
-2.00000000000003
20
-7.53968849279406
30
0
41
1
10
-2.00000000000003
20
-8.35230648563555
30
0
41
1
10
-2.00000000000003
20
-9.17636769820604
30
0
41
1
10
-2.00000000000003
20
-10.0024728331477
30
0
41
1
10
-2.00000000000003
20
-10.8207538150476
30
0
41
1
10
-2.00000000000003
20
-11.6212070931939
30
0
41
1
10
-2.00000000000006
20
-12.3940190774915
30
0
41
1
10
-2.00000000000006
20
-13.1298916243886
30
0
41
1
10
-2.00000000000003
20
-13.8203332490725
30
0
41
1
10
-2.00000000000003
20
-14.4579281585871
30
0
41
1
10
-2.00000000000003
20
-15.0365497976464
30
0
41
1
10
-2.00000000000003
20
-15.5515337877379
30
0
41
1
10
-2.00000000000003
20
-15.9997825456108
30
0
41
1
10
-2.00000000000003
20
-16.379817481596
30
0
41
1
10
-2.00000000000003
20
-16.6917603323907
30
0
41
1
10
-2.00000000000003
20
-16.9372586651848
30
0
41
1
10
-2.00000000000003
20
-17.1193485969266
30
0
41
1
10
-2.00000000000003
20
-17.2422669751987
30
0
41
1
10
-2.00000000000003
20
-17.3112199736996
30
0
41
1
10
-2.00000000000003
20
-17.3321088799281
30
0
41
1
10
-2.00000000000003
20
-17.3112453434672
30
0
41
1
10
-2.00000000000003
20
-17.2550397180126
30
0
41
1
10
-2.00000000000003
20
-17.1831802763315
30
0
41
1
10
-2.00000000000003
20
-17.1306742499329
30
0
41
1
10
-2.00000000000003
20
-17.11161510894
30
0
0
LINE
5
45
100
AcDbEntity
8
80
62
256
6
ByLayer
370
-1
48
1
60
0
100
AcDbLine
10
0
20
0
30
0
11
-7
21
0
31
0
39
0
210
0
220
0
230
1
0
LINE
5
46
100
AcDbEntity
8
81
62
256
6
ByLayer
370
-1
48
1
60
0
100
AcDbLine
10
144
20
0
30
0
11
151
21
0
31
0
39
0
210
0
220
0
230
1
0
LINE
5
47
100
AcDbEntity
8
1
62
256
6
ByLayer
370
-1
48
1
60
0
100
AcDbLine
10
19.7
20
-25
30
0
11
20
21
-24.7
31
0
39
0
210
0
220
0
230
1
0
LINE
5
49
100
AcDbEntity
8
1
62
256
6
ByLayer
370
-1
48
1
60
0
100
AcDbLine
10
20
20
24.7
30
0
11
19.7
21
25
31
0
39
0
210
0
220
0
230
1
0
LINE
5
4A
100
AcDbEntity
8
1
62
256
6
ByLayer
370
-1
48
1
60
0
100
AcDbLine
10
19.7
20
25
30
0
11
0.3
21
25
31
0
39
0
210
0
220
0
230
1
0
LINE
5
4B
100
AcDbEntity
8
1
62
256
6
ByLayer
370
-1
48
1
60
0
100
AcDbLine
10
0.3
20
-25
30
0
11
19.7
21
-25
31
0
39
0
210
0
220
0
230
1
0
LINE
5
4C
100
AcDbEntity
8
1
62
256
6
ByLayer
370
-1
48
1
60
0
100
AcDbLine
10
0.3
20
25
30
0
11
0
21
24.7
31
0
39
0
210
0
220
0
230
1
0
LINE
5
4D
100
AcDbEntity
8
1
62
256
6
ByLayer
370
-1
48
1
60
0
100
AcDbLine
10
0
20
-24.7
30
0
11
0.3
21
-25
31
0
39
0
210
0
220
0
230
1
0
LINE
5
4E
100
AcDbEntity
8
1
62
256
6
ByLayer
370
-1
48
1
60
0
100
AcDbLine
10
24.9
20
24.75
30
0
11
20.1
21
24.75
31
0
39
0
210
0
220
0
230
1
0
LINE
5
4F
100
AcDbEntity
8
1
62
256
6
ByLayer
370
-1
48
1
60
0
100
AcDbLine
10
20.1
20
-24.75
30
0
11
24.9
21
-24.75
31
0
39
0
210
0
220
0
230
1
0
LINE
5
50
100
AcDbEntity
8
1
62
256
6
ByLayer
370
-1
48
1
60
0
100
AcDbLine
10
24.9
20
-24.75
30
0
11
25.025882
21
-24.653407
31
0
39
0
210
0
220
0
230
1
0
LINE
5
51
100
AcDbEntity
8
1
62
256
6
ByLayer
370
-1
48
1
60
0
100
AcDbLine
10
25.025882
20
24.653407
30
0
11
24.9
21
24.75
31
0
39
0
210
0
220
0
230
1
0
LINE
5
52
100
AcDbEntity
8
1
62
256
6
ByLayer
370
-1
48
1
60
0
100
AcDbLine
10
20.1
20
24.75
30
0
11
20
21
24.65
31
0
39
0
210
0
220
0
230
1
0
LINE
5
53
100
AcDbEntity
8
1
62
256
6
ByLayer
370
-1
48
1
60
0
100
AcDbLine
10
20
20
-24.65
30
0
11
20.1
21
-24.75
31
0
39
0
210
0
220
0
230
1
0
LINE
5
54
100
AcDbEntity
8
1
62
256
6
ByLayer
370
-1
48
1
60
0
100
AcDbLine
10
25.025882
20
-24.653407
30
0
11
25.243045
21
-23.842945
31
0
39
0
210
0
220
0
230
1
0
LINE
5
55
100
AcDbEntity
8
1
62
256
6
ByLayer
370
-1
48
1
60
0
100
AcDbLine
10
25.243045
20
23.842945
30
0
11
25.025882
21
24.653407
31
0
39
0
210
0
220
0
230
1
0
LINE
5
56
100
AcDbEntity
8
1
62
256
6
ByLayer
370
-1
48
1
60
0
100
AcDbLine
10
26.015785
20
-23.25
30
0
11
26.5
21
-23.25
31
0
39
0
210
0
220
0
230
1
0
LINE
5
57
100
AcDbEntity
8
1
62
256
6
ByLayer
370
-1
48
1
60
0
100
AcDbLine
10
26.5
20
23.25
30
0
11
26.015785
21
23.25
31
0
39
0
210
0
220
0
230
1
0
LINE
5
58
100
AcDbEntity
8
1
62
256
6
ByLayer
370
-1
48
1
60
0
100
AcDbLine
10
77.869658
20
15.4
30
0
11
44
21
15.4
31
0
39
0
210
0
220
0
230
1
0
LINE
5
59
100
AcDbEntity
8
1
62
256
6
ByLayer
370
-1
48
1
60
0
100
AcDbLine
10
44
20
-15.4
30
0
11
72.483938
21
-15.4
31
0
39
0
210
0
220
0
230
1
0
LINE
5
5A
100
AcDbEntity
8
SK4
62
256
6
ByLayer
370
-1
48
0.05
60
0
100
AcDbLine
10
144
20
0
30
0
11
-30
21
0
31
0
39
0
210
0
220
0
230
1
0
LINE
5
5C
100
AcDbEntity
8
4
62
256
6
ByLayer
370
-1
48
0.05
60
0
100
AcDbLine
10
144
20
0
30
0
11
0
21
0
31
0
39
0
210
0
220
0
230
1
0
LINE
5
5E
100
AcDbEntity
8
1
62
256
6
ByLayer
370
-1
48
1
60
0
100
AcDbLine
10
142.286077
20
1.298891
30
0
11
142.488158
21
5.381069
31
0
39
0
210
0
220
0
230
1
0
LINE
5
5F
100
AcDbEntity
8
1
62
256
6
ByLayer
370
-1
48
1
60
0
100
AcDbLine
10
142.20281
20
1.297253
30
0
11
142.284511
21
1.294405
31
0
39
0
210
0
220
0
230
1
0
LINE
5
60
100
AcDbEntity
8
1
62
256
6
ByLayer
370
-1
48
1
60
0
100
AcDbLine
10
25.025882
20
24.653407
30
0
11
25.025882
21
-24.653407
31
0
39
0
210
0
220
0
230
1
0
LINE
5
61
100
AcDbEntity
8
1
62
256
6
ByLayer
370
-1
48
1
60
0
100
AcDbLine
10
132.309817
20
9.305889
30
0
11
132.579999
21
9.305889
31
0
39
0
210
0
220
0
230
1
0
LINE
5
62
100
AcDbEntity
8
1
62
256
6
ByLayer
370
-1
48
1
60
0
100
AcDbLine
10
127.363855
20
5.901388
30
0
11
127.325409
21
5.901388
31
0
39
0
210
0
220
0
230
1
0
LINE
5
63
100
AcDbEntity
8
1
62
256
6
ByLayer
370
-1
48
1
60
0
100
AcDbLine
10
44
20
-15.4
30
0
11
44
21
-11.279931
31
0
39
0
210
0
220
0
230
1
0
LINE
5
64
100
AcDbEntity
8
1
62
256
6
ByLayer
370
-1
48
1
60
0
100
AcDbLine
10
26.015785
20
23.25
30
0
11
26.015785
21
11.931208
31
0
39
0
210
0
220
0
230
1
0
LINE
5
65
100
AcDbEntity
8
1
62
256
6
ByLayer
370
-1
48
1
60
0
100
AcDbLine
10
142.284511
20
1.294405
30
0
11
142.286077
21
1.298891
31
0
39
0
210
0
220
0
230
1
0
LINE
5
66
100
AcDbEntity
8
1
62
256
6
ByLayer
370
-1
48
1
60
0
100
AcDbLine
10
8.538675
20
-23.83913
30
0
11
8.538675
21
-7.529667
31
0
39
0
210
0
220
0
230
1
0
LINE
5
67
100
AcDbEntity
8
1
62
256
6
ByLayer
370
-1
48
1
60
0
100
AcDbLine
10
132.579999
20
9.305889
30
0
11
132.675608
21
6.557565
31
0
39
0
210
0
220
0
230
1
0
LINE
5
68
100
AcDbEntity
8
1
62
256
6
ByLayer
370
-1
48
1
60
0
100
AcDbLine
10
142.420969
20
-15.387892
30
0
11
143.004364
21
-8.810503
31
0
39
0
210
0
220
0
230
1
0
LINE
5
69
100
AcDbEntity
8
1
62
256
6
ByLayer
370
-1
48
1
60
0
100
AcDbLine
10
26.5
20
6.461574
30
0
11
26.5
21
-23.25
31
0
39
0
210
0
220
0
230
1
0
LINE
5
6A
100
AcDbEntity
8
1
62
256
6
ByLayer
370
-1
48
1
60
0
100
AcDbLine
10
140.705414
20
1.673587
30
0
11
142.047658
21
5.189315
31
0
39
0
210
0
220
0
230
1
0
LINE
5
6B
100
AcDbEntity
8
1
62
256
6
ByLayer
370
-1
48
1
60
0
100
AcDbLine
10
142.177801
20
0.578493
30
0
11
142.182964
21
0.481712
31
0
39
0
210
0
220
0
230
1
0
LINE
5
6C
100
AcDbEntity
8
1
62
256
6
ByLayer
370
-1
48
1
60
0
100
AcDbLine
10
132.405425
20
6.557565
30
0
11
132.675608
21
6.557565
31
0
39
0
210
0
220
0
230
1
0
LINE
5
6D
100
AcDbEntity
8
1
62
256
6
ByLayer
370
-1
48
1
60
0
100
AcDbLine
10
132.761172
20
10.683734
30
0
11
132.780264
21
10.683734
31
0
39
0
210
0
220
0
230
1
0
LINE
5
6E
100
AcDbEntity
8
1
62
256
6
ByLayer
370
-1
48
1
60
0
100
AcDbLine
10
142.087525
20
5.195255
30
0
11
142.255882
21
5.186398
31
0
39
0
210
0
220
0
230
1
0
LINE
5
6F
100
AcDbEntity
8
1
62
256
6
ByLayer
370
-1
48
1
60
0
100
AcDbLine
10
8.105662
20
-23.666502
30
0
11
8.105662
21
-8.055848
31
0
39
0
210
0
220
0
230
1
0
LINE
5
70
100
AcDbEntity
8
1
62
256
6
ByLayer
370
-1
48
1
60
0
100
AcDbLine
10
132.590986
20
4.431212
30
0
11
132.732868
21
4.919315
31
0
39
0
210
0
220
0
230
1
0
LINE
5
71
100
AcDbEntity
8
1
62
256
6
ByLayer
370
-1
48
1
60
0
100
AcDbLine
10
24.9
20
24.75
30
0
11
24.9
21
-24.75
31
0
39
0
210
0
220
0
230
1
0
LINE
5
72
100
AcDbEntity
8
1
62
256
6
ByLayer
370
-1
48
1
60
0
100
AcDbLine
10
0.3
20
-25
30
0
11
0.3
21
25
31
0
39
0
210
0
220
0
230
1
0
LINE
5
73
100
AcDbEntity
8
1
62
256
6
ByLayer
370
-1
48
1
60
0
100
AcDbLine
10
126.325398
20
2.918525
30
0
11
126.102175
21
2.150591
31
0
39
0
210
0
220
0
230
1
0
LINE
5
74
100
AcDbEntity
8
1
62
256
6
ByLayer
370
-1
48
1
60
0
100
AcDbLine
10
142.047658
20
5.189315
30
0
11
141.93798
21
5.195254
31
0
39
0
210
0
220
0
230
1
0
LINE
5
75
100
AcDbEntity
8
1
62
256
6
ByLayer
370
-1
48
1
60
0
100
AcDbLine
10
141.93798
20
5.195254
30
0
11
142.087452
21
5.195254
31
0
39
0
210
0
220
0
230
1
0
LINE
5
76
100
AcDbEntity
8
1
62
256
6
ByLayer
370
-1
48
1
60
0
100
AcDbLine
10
142.255882
20
5.186398
30
0
11
142.047658
21
5.189315
31
0
39
0
210
0
220
0
230
1
0
LINE
5
77
100
AcDbEntity
8
1
62
256
6
ByLayer
370
-1
48
1
60
0
100
AcDbLine
10
132.930268
20
10.815836
30
0
11
132.96225
21
10.815836
31
0
39
0
210
0
220
0
230
1
0
LINE
5
78
100
AcDbEntity
8
1
62
256
6
ByLayer
370
-1
48
1
60
0
100
AcDbLine
10
132.309817
20
9.305889
30
0
11
132.405425
21
6.557565
31
0
39
0
210
0
220
0
230
1
0
LINE
5
79
100
AcDbEntity
8
1
62
256
6
ByLayer
370
-1
48
1
60
0
100
AcDbLine
10
20
20
-24.7
30
0
11
20
21
24.7
31
0
39
0
210
0
220
0
230
1
0
LINE
5
7A
100
AcDbEntity
8
1
62
256
6
ByLayer
370
-1
48
1
60
0
100
AcDbLine
10
126.686138
20
2.807428
30
0
11
129.007753
21
2.406963
31
0
39
0
210
0
220
0
230
1
0
LINE
5
7B
100
AcDbEntity
8
1
62
256
6
ByLayer
370
-1
48
1
60
0
100
AcDbLine
10
8.538675
20
23.83913
30
0
11
11.461325
21
23.83913
31
0
39
0
210
0
220
0
230
1
0
LINE
5
7C
100
AcDbEntity
8
1
62
256
6
ByLayer
370
-1
48
1
60
0
100
AcDbLine
10
142.613419
20
-8.763279
30
0
11
143.004364
21
-8.810503
31
0
39
0
210
0
220
0
230
1
0
LINE
5
7D
100
AcDbEntity
8
1
62
256
6
ByLayer
370
-1
48
1
60
0
100
AcDbLine
10
25.243045
20
-23.842945
30
0
11
25.243045
21
23.842945
31
0
39
0
210
0
220
0
230
1
0
LINE
5
7E
100
AcDbEntity
8
1
62
256
6
ByLayer
370
-1
48
1
60
0
100
AcDbLine
10
8.538675
20
7.529667
30
0
11
8.538675
21
23.83913
31
0
39
0
210
0
220
0
230
1
0
LINE
5
7F
100
AcDbEntity
8
1
62
256
6
ByLayer
370
-1
48
1
60
0
100
AcDbLine
10
19.7
20
-25
30
0
11
19.7
21
25
31
0
39
0
210
0
220
0
230
1
0
LINE
5
80
100
AcDbEntity
8
1
62
256
6
ByLayer
370
-1
48
1
60
0
100
AcDbLine
10
132.041464
20
-15.387892
30
0
11
142.420969
21
-15.387892
31
0
39
0
210
0
220
0
230
1
0
LINE
5
81
100
AcDbEntity
8
1
62
256
6
ByLayer
370
-1
48
1
60
0
100
AcDbLine
10
20.1
20
24.75
30
0
11
20.1
21
-24.75
31
0
39
0
210
0
220
0
230
1
0
LINE
5
82
100
AcDbEntity
8
1
62
256
6
ByLayer
370
-1
48
1
60
0
100
AcDbLine
10
130.366045
20
10.572153
30
0
11
130.366045
21
15.397615
31
0
39
0
210
0
220
0
230
1
0
LINE
5
83
100
AcDbEntity
8
1
62
256
6
ByLayer
370
-1
48
1
60
0
100
AcDbLine
10
0
20
-24.7
30
0
11
0
21
24.7
31
0
39
0
210
0
220
0
230
1
0
LINE
5
84
100
AcDbEntity
8
1
62
256
6
ByLayer
370
-1
48
1
60
0
100
AcDbLine
10
8.538675
20
-7.529667
30
0
11
11.461325
21
-7.529667
31
0
39
0
210
0
220
0
230
1
0
LINE
5
85
100
AcDbEntity
8
1
62
256
6
ByLayer
370
-1
48
1
60
0
100
AcDbLine
10
11.894338
20
8.055848
30
0
11
11.894338
21
23.666502
31
0
39
0
210
0
220
0
230
1
0
LINE
5
86
100
AcDbEntity
8
1
62
256
6
ByLayer
370
-1
48
1
60
0
100
AcDbLine
10
126.282935
20
6.361963
30
0
11
127.363855
21
5.901388
31
0
39
0
210
0
220
0
230
1
0
LINE
5
87
100
AcDbEntity
8
1
62
256
6
ByLayer
370
-1
48
1
60
0
100
AcDbLine
10
132.629966
20
15.397216
30
0
11
132.780264
21
10.683734
31
0
39
0
210
0
220
0
230
1
0
LINE
5
88
100
AcDbEntity
8
1
62
256
6
ByLayer
370
-1
48
1
60
0
100
AcDbLine
10
142.233645
20
1.326702
30
0
11
142.286077
21
1.298891
31
0
39
0
210
0
220
0
230
1
0
LINE
5
89
100
AcDbEntity
8
1
62
256
6
ByLayer
370
-1
48
1
60
0
100
AcDbLine
10
11.894338
20
-23.666502
30
0
11
11.894338
21
-8.055848
31
0
39
0
210
0
220
0
230
1
0
LINE
5
8A
100
AcDbEntity
8
1
62
256
6
ByLayer
370
-1
48
1
60
0
100
AcDbLine
10
11.461325
20
7.529667
30
0
11
8.538675
21
7.529667
31
0
39
0
210
0
220
0
230
1
0
LINE
5
8B
100
AcDbEntity
8
1
62
256
6
ByLayer
370
-1
48
1
60
0
100
AcDbLine
10
131.632222
20
1.132865
30
0
11
132.066703
21
2.627568
31
0
39
0
210
0
220
0
230
1
0
LINE
5
8C
100
AcDbEntity
8
1
62
256
6
ByLayer
370
-1
48
1
60
0
100
AcDbLine
10
44
20
15.4
30
0
11
44
21
9.041983
31
0
39
0
210
0
220
0
230
1
0
LINE
5
8D
100
AcDbEntity
8
1
62
256
6
ByLayer
370
-1
48
1
60
0
100
AcDbLine
10
11.461325
20
-23.83913
30
0
11
11.461325
21
-7.529667
31
0
39
0
210
0
220
0
230
1
0
LINE
5
8E
100
AcDbEntity
8
1
62
256
6
ByLayer
370
-1
48
1
60
0
100
AcDbLine
10
133.148789
20
4.933895
30
0
11
133.194077
21
4.933895
31
0
39
0
210
0
220
0
230
1
0
LINE
5
8F
100
AcDbEntity
8
1
62
256
6
ByLayer
370
-1
48
1
60
0
100
AcDbLine
10
135.652326
20
4.974916
30
0
11
141.93798
21
5.195254
31
0
39
0
210
0
220
0
230
1
0
LINE
5
90
100
AcDbEntity
8
1
62
256
6
ByLayer
370
-1
48
1
60
0
100
AcDbLine
10
133.148789
20
4.933895
30
0
11
132.732868
21
4.919315
31
0
39
0
210
0
220
0
230
1
0
LINE
5
91
100
AcDbEntity
8
1
62
256
6
ByLayer
370
-1
48
1
60
0
100
AcDbLine
10
129.007753
20
2.406963
30
0
11
128.293057
21
2.406963
31
0
39
0
210
0
220
0
230
1
0
LINE
5
92
100
AcDbEntity
8
1
62
256
6
ByLayer
370
-1
48
1
60
0
100
AcDbLine
10
11.461325
20
-23.83913
30
0
11
8.538675
21
-23.83913
31
0
39
0
210
0
220
0
230
1
0
LINE
5
93
100
AcDbEntity
8
1
62
256
6
ByLayer
370
-1
48
1
60
0
100
AcDbLine
10
130.366045
20
10.572153
30
0
11
117.373896
21
12.813224
31
0
39
0
210
0
220
0
230
1
0
LINE
5
94
100
AcDbEntity
8
1
62
256
6
ByLayer
370
-1
48
1
60
0
100
AcDbLine
10
127.744975
20
6.637792
30
0
11
125.686965
21
7.514702
31
0
39
0
210
0
220
0
230
1
0
LINE
5
95
100
AcDbEntity
8
1
62
256
6
ByLayer
370
-1
48
1
60
0
100
AcDbLine
10
142.182964
20
0.481712
30
0
11
140.732554
21
1.127975
31
0
39
0
210
0
220
0
230
1
0
LINE
5
96
100
AcDbEntity
8
1
62
256
6
ByLayer
370
-1
48
1
60
0
100
AcDbLine
10
26.5
20
23.25
30
0
11
26.5
21
13.005781
31
0
39
0
210
0
220
0
230
1
0
LINE
5
97
100
AcDbEntity
8
1
62
256
6
ByLayer
370
-1
48
1
60
0
100
AcDbLine
10
26.015785
20
7.760712
30
0
11
26.015785
21
-23.25
31
0
39
0
210
0
220
0
230
1
0
LINE
5
98
100
AcDbEntity
8
1
62
256
6
ByLayer
370
-1
48
1
60
0
100
AcDbLine
10
142.221949
20
1.32711
30
0
11
142.233645
21
1.326702
31
0
39
0
210
0
220
0
230
1
0
LINE
5
99
100
AcDbEntity
8
1
62
256
6
ByLayer
370
-1
48
1
60
0
100
AcDbLine
10
142.610025
20
-7.651906
30
0
11
142.164471
21
-7.453379
31
0
39
0
210
0
220
0
230
1
0
LINE
5
9A
100
AcDbEntity
8
1
62
256
6
ByLayer
370
-1
48
1
60
0
100
AcDbLine
10
142.610025
20
-7.651906
30
0
11
142.590411
21
-7.873045
31
0
39
0
210
0
220
0
230
1
0
LINE
5
9B
100
AcDbEntity
8
1
62
256
6
ByLayer
370
-1
48
1
60
0
100
AcDbLine
10
132.761172
20
10.683734
30
0
11
132.610791
21
15.399819
31
0
39
0
210
0
220
0
230
1
0
LINE
5
9C
100
AcDbEntity
8
1
62
256
6
ByLayer
370
-1
48
1
60
0
100
AcDbLine
10
142.182964
20
0.481712
30
0
11
142.610025
21
-7.651906
31
0
39
0
210
0
220
0
230
1
0
LINE
5
9D
100
AcDbEntity
8
1
62
256
6
ByLayer
370
-1
48
1
60
0
100
AcDbLine
10
11.461325
20
7.529667
30
0
11
11.461325
21
23.83913
31
0
39
0
210
0
220
0
230
1
0
LINE
5
9E
100
AcDbEntity
8
1
62
256
6
ByLayer
370
-1
48
1
60
0
100
AcDbLine
10
141.801033
20
-7.291441
30
0
11
141.430276
21
-7.126241
31
0
39
0
210
0
220
0
230
1
0
LINE
5
9F
100
AcDbEntity
8
1
62
256
6
ByLayer
370
-1
48
1
60
0
100
AcDbLine
10
8.105662
20
8.055848
30
0
11
8.105662
21
23.666502
31
0
39
0
210
0
220
0
230
1
0
LINE
5
A0
100
AcDbEntity
8
1
62
256
6
ByLayer
370
-1
48
1
60
0
100
AcDbLine
10
142.596145
20
-7.387581
30
0
11
142.83455
21
-7.220003
31
0
39
0
210
0
220
0
230
1
0
LINE
5
A1
100
AcDbEntity
8
1
62
256
6
ByLayer
370
-1
48
1
60
0
100
AcDbLine
10
142.292322
20
1.408409
30
0
11
142.29147
21
1.407836
31
0
39
0
210
0
220
0
230
1
0
LINE
5
A2
100
AcDbEntity
8
1
62
256
6
ByLayer
370
-1
48
1
60
0
100
AcDbLine
10
143.209603
20
-0.88254
30
0
11
143.356415
21
-3.678663
31
0
39
0
210
0
220
0
230
1
0
LINE
5
A3
100
AcDbEntity
8
1
62
256
6
ByLayer
370
-1
48
1
60
0
100
AcDbLine
10
143.40567
20
-0.549713
30
0
11
142.835198
21
1.014722
31
0
39
0
210
0
220
0
230
1
0
LINE
5
A4
100
AcDbEntity
8
1
62
256
6
ByLayer
370
-1
48
1
60
0
100
AcDbLine
10
143.423667
20
-8.204897
30
0
11
142.83455
21
-7.220003
31
0
39
0
210
0
220
0
230
1
0
LINE
5
A5
100
AcDbEntity
8
1
62
256
6
ByLayer
370
-1
48
1
60
0
100
AcDbLine
10
143.922856
20
-7.785909
30
0
11
143.8212
21
-7.660396
31
0
39
0
210
0
220
0
230
1
0
LINE
5
A6
100
AcDbEntity
8
1
62
256
6
ByLayer
370
-1
48
1
60
0
100
AcDbLine
10
143.03562
20
-0.107619
30
0
11
142.757623
21
0.955597
31
0
39
0
210
0
220
0
230
1
0
LINE
5
A7
100
AcDbEntity
8
1
62
256
6
ByLayer
370
-1
48
1
60
0
100
AcDbLine
10
143.999634
20
-5.59135
30
0
11
143.758391
21
-5.462922
31
0
39
0
210
0
220
0
230
1
0
LINE
5
A8
100
AcDbEntity
8
1
62
256
6
ByLayer
370
-1
48
1
60
0
100
AcDbLine
10
143.375663
20
-8.253318
30
0
11
142.563852
21
-8.408678
31
0
39
0
210
0
220
0
230
1
0
LINE
5
A9
100
AcDbEntity
8
1
62
256
6
ByLayer
370
-1
48
1
60
0
100
AcDbLine
10
143.597475
20
-3.786072
30
0
11
143.435138
21
-0.694285
31
0
39
0
210
0
220
0
230
1
0
LINE
5
AA
100
AcDbEntity
8
1
62
256
6
ByLayer
370
-1
48
1
60
0
100
AcDbLine
10
143.700814
20
-6.607935
30
0
11
143.741035
21
-5.458307
31
0
39
0
210
0
220
0
230
1
0
LINE
5
AB
100
AcDbEntity
8
1
62
256
6
ByLayer
370
-1
48
1
60
0
100
AcDbLine
10
142.564078
20
-8.3694
30
0
11
143.423667
21
-8.204897
31
0
39
0
210
0
220
0
230
1
0
LINE
5
AC
100
AcDbEntity
8
1
62
256
6
ByLayer
370
-1
48
1
60
0
100
AcDbLine
10
143.01442
20
-6.512684
30
0
11
143.054641
21
-5.363056
31
0
39
0
210
0
220
0
230
1
0
LINE
5
AD
100
AcDbEntity
8
1
62
256
6
ByLayer
370
-1
48
1
60
0
100
AcDbLine
10
142.543834
20
-0.365173
30
0
11
142.202
21
0.119326
31
0
39
0
210
0
220
0
230
1
0
LINE
5
AE
100
AcDbEntity
8
1
62
256
6
ByLayer
370
-1
48
1
60
0
100
AcDbLine
10
143.03562
20
-0.107619
30
0
11
142.543834
21
-0.365173
31
0
39
0
210
0
220
0
230
1
0
LINE
5
AF
100
AcDbEntity
8
1
62
256
6
ByLayer
370
-1
48
1
60
0
100
AcDbLine
10
143.339072
20
-3.67556
30
0
11
143.192259
21
-0.879437
31
0
39
0
210
0
220
0
230
1
0
LINE
5
B0
100
AcDbEntity
8
1
62
256
6
ByLayer
370
-1
48
1
60
0
100
AcDbLine
10
143.758391
20
-5.462922
30
0
11
143.71817
21
-6.61255
31
0
39
0
210
0
220
0
230
1
0
LINE
5
B1
100
AcDbEntity
8
1
62
256
6
ByLayer
370
-1
48
1
60
0
100
AcDbLine
10
143.339072
20
-3.67556
30
0
11
142.852927
21
-3.629664
31
0
39
0
210
0
220
0
230
1
0
LINE
5
B2
100
AcDbEntity
8
1
62
256
6
ByLayer
370
-1
48
1
60
0
100
AcDbLine
10
143.741035
20
-5.458307
30
0
11
143.25452
21
-5.370023
31
0
39
0
210
0
220
0
230
1
0
LINE
5
B3
100
AcDbEntity
8
1
62
256
6
ByLayer
370
-1
48
1
60
0
100
AcDbLine
10
142.802117
20
0.903672
30
0
11
143.080114
21
-0.159544
31
0
39
0
210
0
220
0
230
1
0
LINE
5
B4
100
AcDbEntity
8
1
62
256
6
ByLayer
370
-1
48
1
60
0
100
AcDbLine
10
142.583777
20
-7.152114
30
0
11
142.719394
21
-7.056787
31
0
39
0
210
0
220
0
230
1
0
LINE
5
B5
100
AcDbEntity
8
1
62
256
6
ByLayer
370
-1
48
1
60
0
100
AcDbLine
10
142.380313
20
-0.480114
30
0
11
142.221657
21
-0.255242
31
0
39
0
210
0
220
0
230
1
0
LINE
5
B6
100
AcDbEntity
8
1
62
256
6
ByLayer
370
-1
48
1
60
0
100
AcDbLine
10
143.597475
20
-3.786072
30
0
11
143.356415
21
-3.678663
31
0
39
0
210
0
220
0
230
1
0
LINE
5
B7
100
AcDbEntity
8
1
62
256
6
ByLayer
370
-1
48
1
60
0
100
AcDbLine
10
142.757623
20
0.955597
30
0
11
142.174369
21
0.65014
31
0
39
0
210
0
220
0
230
1
0
LINE
5
B8
100
AcDbEntity
8
1
62
256
6
ByLayer
370
-1
48
1
60
0
100
AcDbLine
10
143.435138
20
-0.694285
30
0
11
143.208049
21
-0.626444
31
0
39
0
210
0
220
0
230
1
0
LINE
5
B9
100
AcDbEntity
8
1
62
256
6
ByLayer
370
-1
48
1
60
0
100
AcDbLine
10
143.584685
20
-4.675537
30
0
11
143.141882
21
-4.806098
31
0
39
0
210
0
220
0
230
1
0
LINE
5
BA
100
AcDbEntity
8
1
62
256
6
ByLayer
370
-1
48
1
60
0
100
AcDbLine
10
143.40567
20
-0.549713
30
0
11
143.181788
21
-0.482831
31
0
39
0
210
0
220
0
230
1
0
LINE
5
BB
100
AcDbEntity
8
1
62
256
6
ByLayer
370
-1
48
1
60
0
100
AcDbLine
10
142.653201
20
-3.640112
30
0
11
142.506389
21
-0.843989
31
0
39
0
210
0
220
0
230
1
0
LINE
5
BC
100
AcDbEntity
8
1
62
256
6
ByLayer
370
-1
48
1
60
0
100
AcDbLine
10
143.192259
20
-0.879437
30
0
11
142.706115
21
-0.833541
31
0
39
0
210
0
220
0
230
1
0
LINE
5
BD
100
AcDbEntity
8
1
62
256
6
ByLayer
370
-1
48
1
60
0
100
AcDbLine
10
143.528433
20
-8.327772
30
0
11
143.456472
21
-8.238922
31
0
39
0
210
0
220
0
230
1
0
LINE
5
BE
100
AcDbEntity
8
1
62
256
6
ByLayer
370
-1
48
1
60
0
100
AcDbLine
10
142.292322
20
1.408409
30
0
11
142.291497
21
1.408438
31
0
39
0
210
0
220
0
230
1
0
LINE
5
BF
100
AcDbEntity
8
1
62
256
6
ByLayer
370
-1
48
1
60
0
100
AcDbLine
10
142.577683
20
-8.673171
30
0
11
143.528433
21
-8.327772
31
0
39
0
210
0
220
0
230
1
0
LINE
5
C0
100
AcDbEntity
8
1
62
256
6
ByLayer
370
-1
48
1
60
0
100
AcDbLine
10
143.922856
20
-7.785909
30
0
11
143.999634
21
-5.59135
31
0
39
0
210
0
220
0
230
1
0
LINE
5
C1
100
AcDbEntity
8
1
62
256
6
ByLayer
370
-1
48
1
60
0
100
AcDbLine
10
143.214299
20
-6.519651
30
0
11
143.25452
21
-5.370023
31
0
39
0
210
0
220
0
230
1
0
LINE
5
C2
100
AcDbEntity
8
1
62
256
6
ByLayer
370
-1
48
1
60
0
100
AcDbLine
10
143.820051
20
-4.692257
30
0
11
143.600483
21
-4.672345
31
0
39
0
210
0
220
0
230
1
0
LINE
5
C3
100
AcDbEntity
8
1
62
256
6
ByLayer
370
-1
48
1
60
0
100
AcDbLine
10
142.852927
20
-3.629664
30
0
11
142.706115
21
-0.833541
31
0
39
0
210
0
220
0
230
1
0
LINE
5
C4
100
AcDbEntity
8
1
62
256
6
ByLayer
370
-1
48
1
60
0
100
AcDbLine
10
142.835198
20
1.014722
30
0
11
142.782915
21
0.97956
31
0
39
0
210
0
220
0
230
1
0
LINE
5
C5
100
AcDbEntity
8
1
62
256
6
ByLayer
370
-1
48
1
60
0
100
AcDbLine
10
143.700814
20
-6.607935
30
0
11
143.214299
21
-6.519651
31
0
39
0
210
0
220
0
230
1
0
LINE
5
C6
100
AcDbEntity
8
1
62
256
6
ByLayer
370
-1
48
1
60
0
100
AcDbLine
10
142.334431
20
6.573243
30
0
11
134.468779
21
6.29752
31
0
39
0
210
0
220
0
230
1
0
LINE
5
C7
100
AcDbEntity
8
1
62
256
6
ByLayer
370
-1
48
1
60
0
100
AcDbLine
10
142.048032
20
15.463289
30
0
11
134.18238
21
15.187565
31
0
39
0
210
0
220
0
230
1
0
LINE
5
C8
100
AcDbEntity
8
1
62
256
6
ByLayer
370
-1
48
1
60
0
100
AcDbLine
10
133.85901
20
14.359913
30
0
11
134.133685
21
6.464215
31
0
39
0
210
0
220
0
230
1
0
LINE
5
C9
100
AcDbEntity
8
1
62
256
6
ByLayer
370
-1
48
1
60
0
100
AcDbLine
10
142.047332
20
14.826081
30
0
11
134.18168
21
14.550357
31
0
39
0
210
0
220
0
230
1
0
LINE
5
CA
100
AcDbEntity
8
1
62
256
6
ByLayer
370
-1
48
1
60
0
100
AcDbLine
10
132.840214
20
14.323809
30
0
11
133.132842
21
5.912043
31
0
39
0
210
0
220
0
230
1
0
LINE
5
CB
100
AcDbEntity
8
1
62
256
6
ByLayer
370
-1
48
1
60
0
100
AcDbLine
10
143.337302
20
6.786384
30
0
11
143.062628
21
14.682082
31
0
39
0
210
0
220
0
230
1
0
LINE
5
CC
100
AcDbEntity
8
1
62
256
6
ByLayer
370
-1
48
1
60
0
100
AcDbLine
10
134.531363
20
5.102182
30
0
11
142.91112
21
5.395927
31
0
39
0
210
0
220
0
230
1
0
LINE
5
CD
100
AcDbEntity
8
1
62
256
6
ByLayer
370
-1
48
1
60
0
100
AcDbLine
10
143.717899
20
6.799791
30
0
11
143.425272
21
15.211557
31
0
39
0
210
0
220
0
230
1
0
LINE
5
CE
100
AcDbEntity
8
1
62
256
6
ByLayer
370
-1
48
1
60
0
100
AcDbLine
10
143.076585
20
6.777268
30
0
11
142.80191
21
14.672966
31
0
39
0
210
0
220
0
230
1
0
LINE
5
CF
100
AcDbEntity
8
1
62
256
6
ByLayer
370
-1
48
1
60
0
100
AcDbLine
10
134.010002
20
14.365551
30
0
11
134.284677
21
6.469854
31
0
39
0
210
0
220
0
230
1
0
LINE
5
D0
100
AcDbEntity
8
1
62
256
6
ByLayer
370
-1
48
1
60
0
100
AcDbLine
10
139.108716
20
6.838722
30
0
11
141.697245
21
6.92946
31
0
39
0
210
0
220
0
230
1
0
LINE
5
D1
100
AcDbEntity
8
1
62
256
6
ByLayer
370
-1
48
1
60
0
100
AcDbLine
10
133.224543
20
14.337216
30
0
11
133.499217
21
6.441518
31
0
39
0
210
0
220
0
230
1
0
LINE
5
D2
100
AcDbEntity
8
1
62
256
6
ByLayer
370
-1
48
1
60
0
100
AcDbLine
10
142.05039
20
15.376446
30
0
11
134.184738
21
15.100723
31
0
39
0
210
0
220
0
230
1
0
LINE
5
D3
100
AcDbEntity
8
1
62
256
6
ByLayer
370
-1
48
1
60
0
100
AcDbLine
10
141.894625
20
9.964479
30
0
11
141.985019
21
7.366063
31
0
39
0
210
0
220
0
230
1
0
LINE
5
D4
100
AcDbEntity
8
1
62
256
6
ByLayer
370
-1
48
1
60
0
100
AcDbLine
10
133.483935
20
14.346332
30
0
11
133.758609
21
6.450634
31
0
39
0
210
0
220
0
230
1
0
LINE
5
D5
100
AcDbEntity
8
1
62
256
6
ByLayer
370
-1
48
1
60
0
100
AcDbLine
10
135.01477
20
13.85282
30
0
11
135.107211
21
13.510497
31
0
39
0
210
0
220
0
230
1
0
LINE
5
D6
100
AcDbEntity
8
1
62
256
6
ByLayer
370
-1
48
1
60
0
100
AcDbLine
10
141.844266
20
11.41209
30
0
11
141.753873
21
14.010506
31
0
39
0
210
0
220
0
230
1
0
LINE
5
D7
100
AcDbEntity
8
1
62
256
6
ByLayer
370
-1
48
1
60
0
100
AcDbLine
10
142.02675
20
16.021418
30
0
11
133.646994
21
15.727673
31
0
39
0
210
0
220
0
230
1
0
LINE
5
D8
100
AcDbEntity
8
1
62
256
6
ByLayer
370
-1
48
1
60
0
100
AcDbLine
10
134.603553
20
13.270949
30
0
11
135.404981
21
12.520751
31
0
39
0
210
0
220
0
230
1
0
LINE
5
D9
100
AcDbEntity
8
1
62
256
6
ByLayer
370
-1
48
1
60
0
100
AcDbLine
10
135.525419
20
13.337793
30
0
11
135.866975
21
13.018071
31
0
39
0
210
0
220
0
230
1
0
LINE
5
DA
100
AcDbEntity
8
1
62
256
6
ByLayer
370
-1
48
1
60
0
100
AcDbLine
10
135.608489
20
7.886436
30
0
11
135.68774
21
7.971747
31
0
39
0
210
0
220
0
230
1
0
LINE
5
DB
100
AcDbEntity
8
1
62
256
6
ByLayer
370
-1
48
1
60
0
100
AcDbLine
10
135.216453
20
7.992284
30
0
11
135.216697
21
7.992056
31
0
39
0
210
0
220
0
230
1
0
LINE
5
DC
100
AcDbEntity
8
1
62
256
6
ByLayer
370
-1
48
1
60
0
100
AcDbLine
10
142.394059
20
5.447597
30
0
11
134.528407
21
5.171873
31
0
39
0
210
0
220
0
230
1
0
LINE
5
DD
100
AcDbEntity
8
1
62
256
6
ByLayer
370
-1
48
1
60
0
100
AcDbLine
10
141.696773
20
7.055776
30
0
11
139.108244
21
6.965037
31
0
39
0
210
0
220
0
230
1
0
LINE
5
DE
100
AcDbEntity
8
1
62
256
6
ByLayer
370
-1
48
1
60
0
100
AcDbLine
10
142.051575
20
14.987547
30
0
11
134.185923
21
14.711823
31
0
39
0
210
0
220
0
230
1
0
LINE
5
DF
100
AcDbEntity
8
1
62
256
6
ByLayer
370
-1
48
1
60
0
100
AcDbLine
10
143.16376
20
6.780301
30
0
11
142.889085
21
14.675998
31
0
39
0
210
0
220
0
230
1
0
LINE
5
E0
100
AcDbEntity
8
1
62
256
6
ByLayer
370
-1
48
1
60
0
100
AcDbLine
10
142.332646
20
6.601905
30
0
11
134.466994
21
6.326181
31
0
39
0
210
0
220
0
230
1
0
LINE
5
E1
100
AcDbEntity
8
1
62
256
6
ByLayer
370
-1
48
1
60
0
100
AcDbLine
10
141.43645
20
14.426169
30
0
11
138.847922
21
14.33543
31
0
39
0
210
0
220
0
230
1
0
LINE
5
E2
100
AcDbEntity
8
1
62
256
6
ByLayer
370
-1
48
1
60
0
100
AcDbLine
10
135.232761
20
7.745909
30
0
11
135.451333
21
7.541309
31
0
39
0
210
0
220
0
230
1
0
LINE
5
E3
100
AcDbEntity
8
1
62
256
6
ByLayer
370
-1
48
1
60
0
100
AcDbLine
10
135.608489
20
7.886436
30
0
11
135.695918
21
7.804597
31
0
39
0
210
0
220
0
230
1
0
LINE
5
E4
100
AcDbEntity
8
1
62
256
6
ByLayer
370
-1
48
1
60
0
100
AcDbLine
10
141.966179
20
11.416501
30
0
11
141.875785
21
14.014917
31
0
39
0
210
0
220
0
230
1
0
LINE
5
E5
100
AcDbEntity
8
1
62
256
6
ByLayer
370
-1
48
1
60
0
100
AcDbLine
10
142.028643
20
15.951727
30
0
11
134.162991
21
15.676003
31
0
39
0
210
0
220
0
230
1
0
LINE
5
E6
100
AcDbEntity
8
1
62
256
6
ByLayer
370
-1
48
1
60
0
100
AcDbLine
10
142.379465
20
5.936035
30
0
11
134.513813
21
5.660311
31
0
39
0
210
0
220
0
230
1
0
LINE
5
E7
100
AcDbEntity
8
1
62
256
6
ByLayer
370
-1
48
1
60
0
100
AcDbLine
10
135.525419
20
13.337793
30
0
11
135.528915
21
13.324848
31
0
39
0
210
0
220
0
230
1
0
LINE
5
E8
100
AcDbEntity
8
1
62
256
6
ByLayer
370
-1
48
1
60
0
100
AcDbLine
10
135.360806
20
7.862038
30
0
11
135.352808
21
7.869524
31
0
39
0
210
0
220
0
230
1
0
LINE
5
E9
100
AcDbEntity
8
1
62
256
6
ByLayer
370
-1
48
1
60
0
100
AcDbLine
10
133.398085
20
14.343299
30
0
11
133.67276
21
6.447602
31
0
39
0
210
0
220
0
230
1
0
LINE
5
EA
100
AcDbEntity
8
1
62
256
6
ByLayer
370
-1
48
1
60
0
100
AcDbLine
10
135.30801
20
13.10376
30
0
11
135.321119
21
13.101163
31
0
39
0
210
0
220
0
230
1
0
LINE
5
EB
100
AcDbEntity
8
1
62
256
6
ByLayer
370
-1
48
1
60
0
100
AcDbLine
10
142.349908
20
6.411777
30
0
11
134.484256
21
6.136053
31
0
39
0
210
0
220
0
230
1
0
LINE
5
EC
100
AcDbEntity
8
1
62
256
6
ByLayer
370
-1
48
1
60
0
100
AcDbLine
10
143.647942
20
6.797358
30
0
11
143.373267
21
14.693055
31
0
39
0
210
0
220
0
230
1
0
LINE
5
ED
100
AcDbEntity
8
1
62
256
6
ByLayer
370
-1
48
1
60
0
100
AcDbLine
10
142.041972
20
15.637494
30
0
11
134.17632
21
15.361771
31
0
39
0
210
0
220
0
230
1
0
LINE
5
EE
100
AcDbEntity
8
1
62
256
6
ByLayer
370
-1
48
1
60
0
100
AcDbLine
10
142.50611
20
6.758049
30
0
11
142.231435
21
14.653747
31
0
39
0
210
0
220
0
230
1
0
LINE
5
EF
100
AcDbEntity
8
1
62
256
6
ByLayer
370
-1
48
1
60
0
100
AcDbLine
10
135.310132
20
14.031557
30
0
11
136.11156
21
13.281358
31
0
39
0
210
0
220
0
230
1
0
LINE
5
F0
100
AcDbEntity
8
1
62
256
6
ByLayer
370
-1
48
1
60
0
100
AcDbLine
10
132.909108
20
14.326243
30
0
11
133.183783
21
6.430545
31
0
39
0
210
0
220
0
230
1
0
LINE
5
F1
100
AcDbEntity
8
1
62
256
6
ByLayer
370
-1
48
1
60
0
100
AcDbLine
10
142.385525
20
5.76183
30
0
11
134.519873
21
5.486106
31
0
39
0
210
0
220
0
230
1
0
LINE
5
F2
100
AcDbEntity
8
1
62
256
6
ByLayer
370
-1
48
1
60
0
100
AcDbLine
10
135.30801
20
13.10376
30
0
11
135.649566
21
12.784038
31
0
39
0
210
0
220
0
230
1
0
LINE
5
F3
100
AcDbEntity
8
1
62
256
6
ByLayer
370
-1
48
1
60
0
100
AcDbLine
10
142.106931
20
7.370474
30
0
11
142.016538
21
9.96889
31
0
39
0
210
0
220
0
230
1
0
LINE
5
F4
100
AcDbEntity
8
1
62
256
6
ByLayer
370
-1
48
1
60
0
100
AcDbLine
10
142.375781
20
6.022878
30
0
11
134.510129
21
5.747154
31
0
39
0
210
0
220
0
230
1
0
LINE
5
F5
100
AcDbEntity
8
1
62
256
6
ByLayer
370
-1
48
1
60
0
100
AcDbLine
10
134.312441
20
6.470855
30
0
11
134.037766
21
14.366552
31
0
39
0
210
0
220
0
230
1
0
LINE
5
F6
100
AcDbEntity
8
1
62
256
6
ByLayer
370
-1
48
1
60
0
100
AcDbLine
10
141.444766
20
14.299854
30
0
11
138.856238
21
14.209115
31
0
39
0
210
0
220
0
230
1
0
LINE
5
F7
100
AcDbEntity
8
1
62
256
6
ByLayer
370
-1
48
1
60
0
100
AcDbLine
10
135.216453
20
7.992284
30
0
11
135.495673
21
8.292854
31
0
39
0
210
0
220
0
230
1
0
LINE
5
F8
100
AcDbEntity
8
1
62
256
6
ByLayer
370
-1
48
1
60
0
100
AcDbLine
10
142.202095
20
14.652746
30
0
11
142.476769
21
6.757048
31
0
39
0
210
0
220
0
230
1
0
LINE
5
F9
100
AcDbEntity
8
1
62
256
6
ByLayer
370
-1
48
1
60
0
100
AcDbLine
10
134.760572
20
13.579185
30
0
11
135.107211
21
13.510497
31
0
39
0
210
0
220
0
230
1
0
LINE
5
FA
100
AcDbEntity
8
1
62
256
6
ByLayer
370
-1
48
1
60
0
100
AcDbLine
10
134.181889
20
14.521696
30
0
11
142.047541
21
14.797419
31
0
39
0
210
0
220
0
230
1
0
LINE
5
FB
100
AcDbEntity
8
1
62
256
6
ByLayer
370
-1
48
1
60
0
100
AcDbLine
10
142.676821
20
6.763688
30
0
11
142.402147
21
14.659385
31
0
39
0
210
0
220
0
230
1
0
LINE
5
FC
100
AcDbEntity
8
SK1
62
256
6
ByLayer
370
-1
48
1
60
0
100
AcDbLine
10
-0.2
20
-5.881424
30
0
11
-0.2
21
-17.833485
31
0
39
0
210
0
220
0
230
1
0
LINE
5
FE
100
AcDbEntity
8
SK1
62
256
6
ByLayer
370
-1
48
1
60
0
100
AcDbLine
10
-1.307107
20
3.804744
30
0
11
-1.307107
21
-3.804747
31
0
39
0
210
0
220
0
230
1
0
LINE
5
FF
100
AcDbEntity
8
SK1
62
256
6
ByLayer
370
-1
48
1
60
0
100
AcDbLine
10
-0.2
20
17.833485
30
0
11
-0.2
21
5.881425
31
0
39
0
210
0
220
0
230
1
0
MTEXT
5
29B
100
AcDbEntity
8
SK6
62
256
6
ByLayer
370
-1
48
1
60
0
100
AcDbMText
10
0.79375
20
-80.79375
30
0
210
0
220
0
230
1
1
\W00.727;\fsimplex.shx,bigfont.shx;880-D3200C5-03 
40
3.175
41
0
44
1.084337
50
0
71
7
72
5
7
DEFAULT
0
DIMENSION
5
2CB
100
AcDbEntity
8
SK2
62
256
6
ByLayer
370
-3
48
1
60
0
100
AcDbDimension
2
DimnDraft3D1
10
144
20
-63.81875
30
0
11
57
21
-63.81875
31
0
70
32
71
5
72
1
41
1
210
0
220
0
230
1
3
Standard
100
AcDbAlignedDimension
13
-30
23
-4.0875
33
0
14
144
24
-17.5875
34
0
50
0
100
AcDbRotatedDimension
1001
ACAD
1000
DSTYLE
1002
{
1070
   279
1070
     0
1070
   172
1070
     1
1070
   173
1070
     1
1070
   340
1005
29C
1070
   271
1070
     1
1070
   272
1070
     2
1070
    77
1070
     1
1070
    73
1070
     0
1070
   171
1070
     3
1070
   274
1070
     4
1070
   177
1070
   150
1070
   176
1070
     9
1070
   178
1070
    43
1070
    78
1070
     8
1070
    48
1040
-0.005
1070
    41
1041
4.175
1070
   147
1041
2.25
1070
    42
1041
1.5875
1070
    44
1041
3.175
1070
   140
1041
4.5
1070
   343
1005
0
1070
   344
1005
0
1002
}
0
DIMENSION
5
2D5
100
AcDbEntity
8
SK2
62
256
6
ByLayer
370
-3
48
1
60
0
100
AcDbDimension
2
DimnDraft3D2
10
0
20
-51.85
30
0
11
-15
21
-51.85
31
0
70
32
71
5
72
1
41
1
210
0
220
0
230
1
3
Standard
100
AcDbAlignedDimension
13
-30
23
-4.0875
33
0
14
0
24
-26.5875
34
0
50
0
100
AcDbRotatedDimension
1001
ACAD
1000
DSTYLE
1002
{
1070
   279
1070
     0
1070
   172
1070
     1
1070
   173
1070
     1
1070
   340
1005
29C
1070
   271
1070
     1
1070
   272
1070
     2
1070
    77
1070
     1
1070
    73
1070
     0
1070
   171
1070
     3
1070
   274
1070
     4
1070
   177
1070
   150
1070
   176
1070
     9
1070
   178
1070
    43
1070
    78
1070
     8
1070
    48
1040
-0.005
1070
    41
1041
4.175
1070
   147
1041
2.25
1070
    42
1041
1.5875
1070
    44
1041
3.175
1070
   140
1041
4.5
1070
   343
1005
0
1070
   344
1005
0
1002
}
0
DIMENSION
5
2E0
100
AcDbEntity
8
2
62
256
6
ByLayer
370
-3
48
1
60
0
100
AcDbDimension
2
DimnDraft3D3
10
144
20
-51.85
30
0
11
72
21
-51.85
31
0
70
32
71
5
72
1
41
1
210
0
220
0
230
1
3
Standard
100
AcDbAlignedDimension
13
0
23
-26.5875
33
0
14
144
24
-17.5875
34
0
50
0
100
AcDbRotatedDimension
1001
ACAD
1000
DSTYLE
1002
{
1070
   279
1070
     0
1070
   172
1070
     1
1070
   173
1070
     1
1070
   340
1005
29C
1070
   271
1070
     1
1070
   272
1070
     2
1070
    77
1070
     1
1070
    73
1070
     0
1070
   171
1070
     3
1070
   274
1070
     4
1070
   177
1070
   150
1070
   176
1070
     9
1070
   178
1070
    43
1070
    78
1070
     8
1070
    48
1040
-0.005
1070
    41
1041
4.175
1070
   147
1041
2.25
1070
    42
1041
1.5875
1070
    44
1041
3.175
1070
   140
1041
4.5
1070
   343
1005
0
1070
   344
1005
0
1002
}
0
DIMENSION
5
2EA
100
AcDbEntity
8
SK2
62
256
6
ByLayer
370
-3
48
1
60
0
100
AcDbDimension
2
DimnDraft3D4
10
144
20
-41.85
30
0
11
94
21
-41.85
31
0
70
32
71
5
72
1
41
1
210
0
220
0
230
1
3
Standard
100
AcDbAlignedDimension
13
44
23
-11.5875
33
0
14
144
24
-17.5875
34
0
50
0
100
AcDbRotatedDimension
1001
ACAD
1000
DSTYLE
1002
{
1070
   279
1070
     0
1070
   172
1070
     1
1070
   173
1070
     1
1070
   340
1005
29C
1070
   271
1070
     1
1070
   272
1070
     2
1070
    77
1070
     1
1070
    73
1070
     0
1070
   171
1070
     3
1070
   274
1070
     4
1070
   177
1070
   150
1070
   176
1070
     9
1070
   178
1070
    43
1070
    78
1070
     8
1070
    48
1040
-0.005
1070
    41
1041
4.175
1070
   147
1041
2.25
1070
    42
1041
1.5875
1070
    44
1041
3.175
1070
   140
1041
4.5
1070
   343
1005
0
1070
   344
1005
0
1002
}
0
DIMENSION
5
2F5
100
AcDbEntity
8
SK2
62
256
6
ByLayer
370
-3
48
1
60
0
100
AcDbDimension
2
DimnDraft3D5
10
-52.084264
20
25
30
0
11
-52.284264
21
4.121053
31
0
70
33
71
5
72
1
41
1
210
0
220
0
230
1
3
Standard
100
AcDbAlignedDimension
13
-1.5875
23
-25
33
0
14
-1.5875
24
25
34
0
1001
ACAD
1000
DSTYLE
1002
{
1070
   279
1070
     0
1070
    74
1070
     0
1070
   173
1070
     1
1070
   340
1005
29C
1070
   271
1070
     1
1070
   272
1070
     2
1070
    77
1070
     1
1070
    73
1070
     0
1070
   171
1070
     3
1070
   274
1070
     4
1070
   177
1070
   150
1070
   176
1070
     9
1070
   178
1070
    43
1070
    78
1070
     8
1070
    48
1040
-0.005
1070
    41
1041
4.175
1070
   147
1041
2.25
1070
    42
1041
1.5875
1070
    44
1041
3.175
1070
   140
1041
4.5
1070
   343
1005
0
1070
   344
1005
0
1002
}
0
DIMENSION
5
300
100
AcDbEntity
8
2
62
256
6
ByLayer
370
-3
48
1
60
0
100
AcDbDimension
2
DimnDraft3D6
10
174.15
20
-16
30
0
11
167.6
21
4.121053
31
0
70
33
71
5
72
1
41
1
210
0
220
0
230
1
3
Standard
100
AcDbAlignedDimension
13
145.5875
23
16
33
0
14
145.5875
24
-16
34
0
1001
ACAD
1000
DSTYLE
1002
{
1070
   279
1070
     0
1070
    74
1070
     0
1070
   173
1070
     1
1070
   340
1005
29C
1070
   271
1070
     2
1070
   272
1070
     2
1070
    77
1070
     1
1070
    73
1070
     0
1070
   171
1070
     3
1070
   274
1070
     4
1070
   177
1070
   150
1070
   176
1070
     9
1070
   178
1070
    43
1070
    78
1070
     8
1070
    48
1040
-0.005
1070
    41
1041
4.175
1070
   147
1041
2.25
1070
    42
1041
1.5875
1070
    44
1041
3.175
1070
   140
1041
4.5
1070
   343
1005
0
1070
   344
1005
0
1002
}
0
ENDSEC
0
SECTION
2
OBJECTS
0
DICTIONARY
5
331
330
0
100
AcDbDictionary
280
0
281
1
3
ACAD_GROUP
350
332
3
ACAD_MLINESTYLE
350
333
0
DICTIONARY
5
332
330
0
100
AcDbDictionary
280
0
281
1
0
DICTIONARY
5
333
330
0
100
AcDbDictionary
280
0
281
1
3
Standard
350
18
0
MLINESTYLE
5
18
330
333
100
AcDbMlineStyle
2
Standard
70
0
3

62
256
51
90
52
90
71
2
49
-0.5
62
256
6
ByLayer
49
0.5
62
256
6
ByLayer
0
RASTERVARIABLES
5
31f
330

100
AcDbRasterVariables
90
0
70
1
71
1
72
1
0
ENDSEC
0
EOF
