0
SECTION
2
HEADER
9
$ACADVER
1
AC1015
9
$DWGCODEPAGE
3
ANSI_1252
9
$HANDSEED
5
2be
9
$ANGBASE
50
0
9
$ANGDIR
70
0
9
$ATTMODE
70
1
9
$AUNITS
70
0
9
$AUPREC
70
0
9
$CECOLOR
62
256
9
$CELTSCALE
40
1
9
$CELTYPE
6
ByLayer
9
$CELWEIGHT
370
-1
9
$CLAYER
8
0
9
$CMLJUST
70
0
9
$CMLSCALE
40
1
9
$CMLSTYLE
2
Standard
9
$DIMSTYLE
2
Standard
9
$TEXTSIZE
40
0.2
9
$TEXTSTYLE
7
Standard
9
$LUNITS
70
2
9
$LUPREC
70
4
9
$EXTNAMES
290
1
9
$INSUNITS
70
4
9
$LTSCALE
40
1
9
$LWDISPLAY
290
0
9
$PDMODE
70
0
9
$PDSIZE
40
0
9
$PLINEGEN
70
0
0
ENDSEC
0
SECTION
2
CLASSES
0
CLASS
1
RASTERVARIABLES
2
AcDbRasterVariables
3
ISM
90
0
280
0
281
0
0
ENDSEC
0
SECTION
2
TABLES
0
TABLE
2
VPORT
5
2b4
100
AcDbSymbolTable
0
VPORT
5
1
100
AcDbSymbolTableRecord
100
AcDbViewportTableRecord
2
*Active
70
0
10
0
20
0
11
1
21
1
12
-1
22
1
13
0
23
0
14
0.5
24
0.5
15
10
25
10
16
0
26
0
36
1
17
0
27
0
37
0
0
ENDTAB
0
TABLE
2
LTYPE
5
2b5
100
AcDbSymbolTable
0
LTYPE
5
14
100
AcDbSymbolTableRecord
100
AcDbLinetypeTableRecord
70
0
2
ByBlock
3

72
65
73
0
40
0
0
LTYPE
5
15
100
AcDbSymbolTableRecord
100
AcDbLinetypeTableRecord
70
0
2
ByLayer
3

72
65
73
0
40
0
0
LTYPE
5
16
100
AcDbSymbolTableRecord
100
AcDbLinetypeTableRecord
70
0
2
CONTINUOUS
3
Solid line
72
65
73
0
40
0
0
LTYPE
5
3B
100
AcDbSymbolTableRecord
100
AcDbLinetypeTableRecord
70
0
2
DASHED
3
__ __ __ __ __ __ __ __ __
72
65
73
2
40
25.72
49
12.86
74
0
49
-12.86
74
0
0
LTYPE
5
3C
100
AcDbSymbolTableRecord
100
AcDbLinetypeTableRecord
70
0
2
HIDDEN
3
_ _ _ _ _ _ _ _ _ _ _ _ _ _ _
72
65
73
2
40
0.5
49
0.25
74
0
49
-0.25
74
0
0
LTYPE
5
3D
100
AcDbSymbolTableRecord
100
AcDbLinetypeTableRecord
70
0
2
PHANTOM
3
____ _ _ ____ _ _ _____ _ _ ____
72
65
73
6
40
50.5
49
18
74
0
49
-6.5
74
0
49
6.5
74
0
49
-6.5
74
0
49
6.5
74
0
49
-6.5
74
0
0
LTYPE
5
3E
100
AcDbSymbolTableRecord
100
AcDbLinetypeTableRecord
70
0
2
CENTER
3
____ _ ____ _ ____ _ ____
72
65
73
4
40
47.5
49
22
74
0
49
-8.5
74
0
49
8.5
74
0
49
-8.5
74
0
0
LTYPE
5
3F
100
AcDbSymbolTableRecord
100
AcDbLinetypeTableRecord
70
0
2
DOT
3
.........................
72
65
73
2
40
10
49
0
74
0
49
-10
74
0
0
LTYPE
5
40
100
AcDbSymbolTableRecord
100
AcDbLinetypeTableRecord
70
0
2
DASHDOT
3
_._._._._._._._._._._._._._._._.
72
65
73
4
40
70
49
31
74
0
49
-13
74
0
49
13
74
0
49
-13
74
0
0
ENDTAB
0
TABLE
2
LAYER
5
2b6
100
AcDbSymbolTable
0
LAYER
5
10
100
AcDbSymbolTableRecord
100
AcDbLayerTableRecord
2
0
70
0
62
7
6
CONTINUOUS
290
1
370
-3
390
0
0
LAYER
5
42
100
AcDbSymbolTableRecord
100
AcDbLayerTableRecord
2
81
70
0
62
-3
6
CONTINUOUS
290
1
370
-3
390
0
0
LAYER
5
44
100
AcDbSymbolTableRecord
100
AcDbLayerTableRecord
2
80
70
0
62
-6
6
CONTINUOUS
290
1
370
-3
390
0
0
LAYER
5
48
100
AcDbSymbolTableRecord
100
AcDbLayerTableRecord
2
1
70
0
62
4
6
CONTINUOUS
290
1
370
-3
390
0
0
LAYER
5
61
100
AcDbSymbolTableRecord
100
AcDbLayerTableRecord
2
4
70
0
62
-2
6
CENTER
290
1
370
-3
390
0
0
LAYER
5
24D
100
AcDbSymbolTableRecord
100
AcDbLayerTableRecord
2
2
70
0
62
7
6
CONTINUOUS
290
1
370
-3
390
0
0
LAYER
5
2a0
100
AcDbSymbolTableRecord
100
AcDbLayerTableRecord
2
SK1
70
0
62
4
6
CONTINUOUS
290
1
370
-3
390
0
0
LAYER
5
2a1
100
AcDbSymbolTableRecord
100
AcDbLayerTableRecord
2
SK4
70
0
62
2
6
CENTER
290
1
370
-3
390
0
0
LAYER
5
2a2
100
AcDbSymbolTableRecord
100
AcDbLayerTableRecord
2
SK6
70
0
62
5
6
CONTINUOUS
290
1
370
-3
390
0
0
LAYER
5
2a3
100
AcDbSymbolTableRecord
100
AcDbLayerTableRecord
2
SK2
70
0
62
7
6
CONTINUOUS
290
1
370
-3
390
0
0
ENDTAB
0
TABLE
2
STYLE
5
2b7
100
AcDbSymbolTable
0
STYLE
5
11
100
AcDbSymbolTableRecord
100
AcDbTextStyleTableRecord
2
Standard
3
txt
70
0
71
0
40
0
41
1
42
0
50
0
0
STYLE
5
211
100
AcDbSymbolTableRecord
100
AcDbTextStyleTableRecord
2
DEFAULT
3
simplex.shx
70
0
71
0
40
0
41
1
42
0
50
0
0
STYLE
5
234
100
AcDbSymbolTableRecord
100
AcDbTextStyleTableRecord
2
DWGDirectTextStyle
3
SIMPLEX
70
0
71
0
40
0
41
1
42
0
50
0
0
ENDTAB
0
TABLE
2
DIMSTYLE
5
2b8
100
AcDbSymbolTable
100
AcDbDimStyleTable
0
DIMSTYLE
105
27
100
AcDbSymbolTableRecord
100
AcDbDimStyleTableRecord
2
Standard
70
0
3
<>
41
0.18
42
0.0625
44
0.18
140
0.18
147
0.09
73
0
74
0
77
1
271
2
275
0
278
52
280
0
340
11
0
ENDTAB
0
TABLE
2
VIEW
5
2b9
100
AcDbSymbolTable
0
ENDTAB
0
TABLE
2
UCS
5
2ba
100
AcDbSymbolTable
0
ENDTAB
0
TABLE
2
APPID
5
2bb
100
AcDbSymbolTable
0
APPID
5
12
100
AcDbSymbolTableRecord
100
AcDbRegAppTableRecord
2
ACAD
70
0
0
ENDTAB
0
TABLE
2
BLOCK_RECORD
5
2bc
100
AcDbSymbolTable
0
BLOCK_RECORD
5
1F
100
AcDbSymbolTableRecord
100
AcDbBlockTableRecord
2
*Model_Space
340
0
70
0
0
BLOCK_RECORD
5
1B
100
AcDbSymbolTableRecord
100
AcDbBlockTableRecord
2
*Paper_Space
340
0
70
0
0
BLOCK_RECORD
5
23
100
AcDbSymbolTableRecord
100
AcDbBlockTableRecord
2
*Paper_Space0
340
0
70
0
0
BLOCK_RECORD
5
236
100
AcDbSymbolTableRecord
100
AcDbBlockTableRecord
2
DimnDraft3D1
340
0
70
0
0
BLOCK_RECORD
5
241
100
AcDbSymbolTableRecord
100
AcDbBlockTableRecord
2
DimnDraft3D2
340
0
70
0
0
BLOCK_RECORD
5
24B
100
AcDbSymbolTableRecord
100
AcDbBlockTableRecord
2
DimnDraft3D3
340
0
70
0
0
BLOCK_RECORD
5
256
100
AcDbSymbolTableRecord
100
AcDbBlockTableRecord
2
DimnDraft3D4
340
0
70
0
0
BLOCK_RECORD
5
260
100
AcDbSymbolTableRecord
100
AcDbBlockTableRecord
2
DimnDraft3D5
340
0
70
0
0
BLOCK_RECORD
5
26B
100
AcDbSymbolTableRecord
100
AcDbBlockTableRecord
2
DimnDraft3D6
340
0
70
0
0
BLOCK_RECORD
5
276
100
AcDbSymbolTableRecord
100
AcDbBlockTableRecord
2
DimnDraft3D7
340
0
70
0
0
ENDTAB
0
ENDSEC
0
SECTION
2
BLOCKS
0
BLOCK
5
20
100
AcDbEntity
8
0
100
AcDbBlockBegin
2
*Model_Space
70
0
10
0
20
0
30
0
3
*Model_Space
0
ENDBLK
5
21
100
AcDbEntity
8
0
100
AcDbBlockEnd
0
BLOCK
5
1C
100
AcDbEntity
8
0
100
AcDbBlockBegin
2
*Paper_Space
70
0
10
0
20
0
30
0
3
*Paper_Space
0
ENDBLK
5
1D
100
AcDbEntity
8
0
100
AcDbBlockEnd
0
BLOCK
5
24
100
AcDbEntity
8
0
100
AcDbBlockBegin
2
*Paper_Space0
70
0
10
0
20
0
30
0
3
*Paper_Space0
0
ENDBLK
5
25
100
AcDbEntity
8
0
100
AcDbBlockEnd
0
BLOCK
5
23E
100
AcDbEntity
8
0
100
AcDbBlockBegin
2
DimnDraft3D1
70
0
10
0
20
0
30
0
3
DimnDraft3D1
0
MTEXT
5
237
100
AcDbEntity
8
SK2
62
256
6
ByLayer
370
-1
48
1
60
0
100
AcDbMText
10
14.906579
20
-51.7758
30
0
210
0
220
0
230
1
1
\W01.000;\fsimplex.shx,bigfont.shx;(156) 
40
4.5
41
0
44
1.084337
50
0
71
7
72
5
7
DEFAULT
0
LINE
5
239
100
AcDbEntity
8
SK2
62
256
6
ByLayer
370
-1
48
1
60
0
100
AcDbLine
10
-56
20
-14.0875
30
0
11
-56
21
-58.04455
31
0
39
0
210
0
220
0
230
1
0
LINE
5
23A
100
AcDbEntity
8
SK2
62
256
6
ByLayer
370
-1
48
1
60
0
100
AcDbLine
10
100
20
-14.3375
30
0
11
100
21
-58.04455
31
0
39
0
210
0
220
0
230
1
0
LINE
5
23B
100
AcDbEntity
8
SK2
62
256
6
ByLayer
370
-1
48
1
60
0
100
AcDbLine
10
-56
20
-54.86955
30
0
11
100
21
-54.86955
31
0
39
0
210
0
220
0
230
1
0
SOLID
5
23C
100
AcDbEntity
8
SK2
62
256
6
ByLayer
370
-1
48
1
60
0
100
AcDbTrace
10
-56
20
-54.86955
30
0
11
-51.825003
21
-53.943975
31
0
12
-51.824997
22
-55.795125
32
0
13
-56
23
-54.86955
33
0
39
0
210
0
220
0
230
1
0
SOLID
5
23D
100
AcDbEntity
8
SK2
62
256
6
ByLayer
370
-1
48
1
60
0
100
AcDbTrace
10
100
20
-54.86955
30
0
11
95.825003
21
-55.795125
31
0
12
95.824997
22
-53.943975
32
0
13
100
23
-54.86955
33
0
39
0
210
0
220
0
230
1
0
ENDBLK
5
23F
100
AcDbEntity
8
0
100
AcDbBlockEnd
0
BLOCK
5
248
100
AcDbEntity
8
0
100
AcDbBlockBegin
2
DimnDraft3D2
70
0
10
0
20
0
30
0
3
DimnDraft3D2
0
MTEXT
5
242
100
AcDbEntity
8
SK2
62
256
6
ByLayer
370
-1
48
1
60
0
100
AcDbMText
10
-29.503947
20
-41.7758
30
0
210
0
220
0
230
1
1
\W01.000;\fsimplex.shx,bigfont.shx;56 
40
4.5
41
0
44
1.084337
50
0
71
7
72
5
7
DEFAULT
0
LINE
5
243
100
AcDbEntity
8
SK2
62
256
6
ByLayer
370
-1
48
1
60
0
100
AcDbLine
10
-56
20
-14.0875
30
0
11
-56
21
-46.0758
31
0
39
0
210
0
220
0
230
1
0
LINE
5
244
100
AcDbEntity
8
SK2
62
256
6
ByLayer
370
-1
48
1
60
0
100
AcDbLine
10
0
20
-17.5875
30
0
11
0
21
-46.0758
31
0
39
0
210
0
220
0
230
1
0
LINE
5
245
100
AcDbEntity
8
SK2
62
256
6
ByLayer
370
-1
48
1
60
0
100
AcDbLine
10
-56
20
-42.9008
30
0
11
0
21
-42.9008
31
0
39
0
210
0
220
0
230
1
0
SOLID
5
246
100
AcDbEntity
8
SK2
62
256
6
ByLayer
370
-1
48
1
60
0
100
AcDbTrace
10
-56
20
-42.9008
30
0
11
-51.825003
21
-41.975225
31
0
12
-51.824997
22
-43.826375
32
0
13
-56
23
-42.9008
33
0
39
0
210
0
220
0
230
1
0
SOLID
5
247
100
AcDbEntity
8
SK2
62
256
6
ByLayer
370
-1
48
1
60
0
100
AcDbTrace
10
0
20
-42.9008
30
0
11
-4.174997
21
-43.826375
31
0
12
-4.175003
22
-41.975225
32
0
13
0
23
-42.9008
33
0
39
0
210
0
220
0
230
1
0
ENDBLK
5
249
100
AcDbEntity
8
0
100
AcDbBlockEnd
0
BLOCK
5
253
100
AcDbEntity
8
0
100
AcDbBlockBegin
2
DimnDraft3D3
70
0
10
0
20
0
30
0
3
DimnDraft3D3
0
MTEXT
5
24C
100
AcDbEntity
8
2
62
256
6
ByLayer
370
-1
48
1
60
0
100
AcDbMText
10
47.406579
20
-41.7758
30
0
210
0
220
0
230
1
1
\W01.000;\fsimplex.shx,bigfont.shx;100 
40
4.5
41
0
44
1.084337
50
0
71
7
72
5
7
DEFAULT
0
LINE
5
24E
100
AcDbEntity
8
2
62
256
6
ByLayer
370
-1
48
1
60
0
100
AcDbLine
10
0
20
-17.5875
30
0
11
0
21
-46.0758
31
0
39
0
210
0
220
0
230
1
0
LINE
5
24F
100
AcDbEntity
8
2
62
256
6
ByLayer
370
-1
48
1
60
0
100
AcDbLine
10
100
20
-14.3375
30
0
11
100
21
-46.0758
31
0
39
0
210
0
220
0
230
1
0
LINE
5
250
100
AcDbEntity
8
2
62
256
6
ByLayer
370
-1
48
1
60
0
100
AcDbLine
10
0
20
-42.9008
30
0
11
100
21
-42.9008
31
0
39
0
210
0
220
0
230
1
0
SOLID
5
251
100
AcDbEntity
8
2
62
256
6
ByLayer
370
-1
48
1
60
0
100
AcDbTrace
10
0
20
-42.9008
30
0
11
4.174997
21
-41.975225
31
0
12
4.175003
22
-43.826375
32
0
13
0
23
-42.9008
33
0
39
0
210
0
220
0
230
1
0
SOLID
5
252
100
AcDbEntity
8
2
62
256
6
ByLayer
370
-1
48
1
60
0
100
AcDbTrace
10
100
20
-42.9008
30
0
11
95.825003
21
-43.826375
31
0
12
95.824997
22
-41.975225
32
0
13
100
23
-42.9008
33
0
39
0
210
0
220
0
230
1
0
ENDBLK
5
254
100
AcDbEntity
8
0
100
AcDbBlockEnd
0
BLOCK
5
25D
100
AcDbEntity
8
0
100
AcDbBlockBegin
2
DimnDraft3D4
70
0
10
0
20
0
30
0
3
DimnDraft3D4
0
MTEXT
5
257
100
AcDbEntity
8
SK2
62
256
6
ByLayer
370
-1
48
1
60
0
100
AcDbMText
10
58.496053
20
-31.7758
30
0
210
0
220
0
230
1
1
\W01.000;\fsimplex.shx,bigfont.shx;80 
40
4.5
41
0
44
1.084337
50
0
71
7
72
5
7
DEFAULT
0
LINE
5
258
100
AcDbEntity
8
SK2
62
256
6
ByLayer
370
-1
48
1
60
0
100
AcDbLine
10
20
20
-11.5875
30
0
11
20
21
-36.0758
31
0
39
0
210
0
220
0
230
1
0
LINE
5
259
100
AcDbEntity
8
SK2
62
256
6
ByLayer
370
-1
48
1
60
0
100
AcDbLine
10
100
20
-14.3375
30
0
11
100
21
-36.0758
31
0
39
0
210
0
220
0
230
1
0
LINE
5
25A
100
AcDbEntity
8
SK2
62
256
6
ByLayer
370
-1
48
1
60
0
100
AcDbLine
10
20
20
-32.9008
30
0
11
100
21
-32.9008
31
0
39
0
210
0
220
0
230
1
0
SOLID
5
25B
100
AcDbEntity
8
SK2
62
256
6
ByLayer
370
-1
48
1
60
0
100
AcDbTrace
10
20
20
-32.9008
30
0
11
24.174997
21
-31.975225
31
0
12
24.175003
22
-33.826375
32
0
13
20
23
-32.9008
33
0
39
0
210
0
220
0
230
1
0
SOLID
5
25C
100
AcDbEntity
8
SK2
62
256
6
ByLayer
370
-1
48
1
60
0
100
AcDbTrace
10
100
20
-32.9008
30
0
11
95.825003
21
-33.826375
31
0
12
95.824997
22
-31.975225
32
0
13
100
23
-32.9008
33
0
39
0
210
0
220
0
230
1
0
ENDBLK
5
25E
100
AcDbEntity
8
0
100
AcDbBlockEnd
0
BLOCK
5
268
100
AcDbEntity
8
0
100
AcDbBlockBegin
2
DimnDraft3D5
70
0
10
0
20
0
30
0
3
DimnDraft3D5
0
MTEXT
5
261
100
AcDbEntity
8
SK2
62
256
6
ByLayer
370
-1
48
1
60
0
100
AcDbMText
10
-66.975
20
5.246053
30
0
210
0
220
0
230
1
1
\W01.000;\fsimplex.shx,bigfont.shx;25 
40
4.5
41
0
44
1.084337
50
90
71
7
72
5
7
DEFAULT
0
MTEXT
5
262
100
AcDbEntity
8
SK2
62
256
6
ByLayer
370
-1
48
1
60
0
100
AcDbMText
10
-66.975
20
-8.253947
30
0
210
0
220
0
230
1
1
\W01.000;\fsimplex.shx,bigfont.shx;%%c 
40
4.5
41
0
44
1.084337
50
90
71
7
72
5
7
DEFAULT
0
LINE
5
263
100
AcDbEntity
8
SK2
62
256
6
ByLayer
370
-1
48
1
60
0
100
AcDbLine
10
-57.5875
20
12.5
30
0
11
-67.9
21
12.5
31
0
39
0
210
0
220
0
230
1
0
LINE
5
264
100
AcDbEntity
8
SK2
62
256
6
ByLayer
370
-1
48
1
60
0
100
AcDbLine
10
-57.5875
20
-12.5
30
0
11
-67.9
21
-12.5
31
0
39
0
210
0
220
0
230
1
0
LINE
5
265
100
AcDbEntity
8
SK2
62
256
6
ByLayer
370
-1
48
1
60
0
100
AcDbLine
10
-64.725
20
23.75
30
0
11
-64.725
21
-23.75
31
0
39
0
210
0
220
0
230
1
0
SOLID
5
266
100
AcDbEntity
8
SK2
62
256
6
ByLayer
370
-1
48
1
60
0
100
AcDbTrace
10
-64.725
20
12.5
30
0
11
-65.650575
21
16.674997
31
0
12
-63.799425
22
16.675003
32
0
13
-64.725
23
12.5
33
0
39
0
210
0
220
0
230
1
0
SOLID
5
267
100
AcDbEntity
8
SK2
62
256
6
ByLayer
370
-1
48
1
60
0
100
AcDbTrace
10
-64.725
20
-12.5
30
0
11
-63.799425
21
-16.674997
31
0
12
-65.650575
22
-16.675003
32
0
13
-64.725
23
-12.5
33
0
39
0
210
0
220
0
230
1
0
ENDBLK
5
269
100
AcDbEntity
8
0
100
AcDbBlockEnd
0
BLOCK
5
273
100
AcDbEntity
8
0
100
AcDbBlockBegin
2
DimnDraft3D6
70
0
10
0
20
0
30
0
3
DimnDraft3D6
0
MTEXT
5
26C
100
AcDbEntity
8
SK2
62
256
6
ByLayer
370
-1
48
1
60
0
100
AcDbMText
10
-76.975
20
5.246053
30
0
210
0
220
0
230
1
1
\W01.000;\fsimplex.shx,bigfont.shx;32 
40
4.5
41
0
44
1.084337
50
90
71
7
72
5
7
DEFAULT
0
MTEXT
5
26D
100
AcDbEntity
8
SK2
62
256
6
ByLayer
370
-1
48
1
60
0
100
AcDbMText
10
-76.975
20
-8.253947
30
0
210
0
220
0
230
1
1
\W01.000;\fsimplex.shx,bigfont.shx;%%c 
40
4.5
41
0
44
1.084337
50
90
71
7
72
5
7
DEFAULT
0
LINE
5
26E
100
AcDbEntity
8
SK2
62
256
6
ByLayer
370
-1
48
1
60
0
100
AcDbLine
10
-1.5875
20
-16
30
0
11
-77.9
21
-16
31
0
39
0
210
0
220
0
230
1
0
LINE
5
26F
100
AcDbEntity
8
SK2
62
256
6
ByLayer
370
-1
48
1
60
0
100
AcDbLine
10
-1.5875
20
16
30
0
11
-77.9
21
16
31
0
39
0
210
0
220
0
230
1
0
LINE
5
270
100
AcDbEntity
8
SK2
62
256
6
ByLayer
370
-1
48
1
60
0
100
AcDbLine
10
-74.725
20
-16
30
0
11
-74.725
21
16
31
0
39
0
210
0
220
0
230
1
0
SOLID
5
271
100
AcDbEntity
8
SK2
62
256
6
ByLayer
370
-1
48
1
60
0
100
AcDbTrace
10
-74.725
20
-16
30
0
11
-75.650575
21
-11.825003
31
0
12
-73.799425
22
-11.824997
32
0
13
-74.725
23
-16
33
0
39
0
210
0
220
0
230
1
0
SOLID
5
272
100
AcDbEntity
8
SK2
62
256
6
ByLayer
370
-1
48
1
60
0
100
AcDbTrace
10
-74.725
20
16
30
0
11
-73.799425
21
11.825003
31
0
12
-75.650575
22
11.824997
32
0
13
-74.725
23
16
33
0
39
0
210
0
220
0
230
1
0
ENDBLK
5
274
100
AcDbEntity
8
0
100
AcDbBlockEnd
0
BLOCK
5
27E
100
AcDbEntity
8
0
100
AcDbBlockBegin
2
DimnDraft3D7
70
0
10
0
20
0
30
0
3
DimnDraft3D7
0
MTEXT
5
277
100
AcDbEntity
8
2
62
256
6
ByLayer
370
-1
48
1
60
0
100
AcDbMText
10
124.725
20
-34.063816
30
0
210
0
220
0
230
1
1
\W01.000;\fsimplex.shx,bigfont.shx;25.5 
40
4.5
41
0
44
1.084337
50
90
71
7
72
5
7
DEFAULT
0
MTEXT
5
278
100
AcDbEntity
8
2
62
256
6
ByLayer
370
-1
48
1
60
0
100
AcDbMText
10
124.725
20
-47.563816
30
0
210
0
220
0
230
1
1
\W01.000;\fsimplex.shx,bigfont.shx;%%c 
40
4.5
41
0
44
1.084337
50
90
71
7
72
5
7
DEFAULT
0
LINE
5
279
100
AcDbEntity
8
2
62
256
6
ByLayer
370
-1
48
1
60
0
100
AcDbLine
10
101.5875
20
12.75
30
0
11
130.15
21
12.75
31
0
39
0
210
0
220
0
230
1
0
LINE
5
27A
100
AcDbEntity
8
2
62
256
6
ByLayer
370
-1
48
1
60
0
100
AcDbLine
10
101.5875
20
-12.75
30
0
11
130.15
21
-12.75
31
0
39
0
210
0
220
0
230
1
0
LINE
5
27B
100
AcDbEntity
8
2
62
256
6
ByLayer
370
-1
48
1
60
0
100
AcDbLine
10
126.975
20
12.75
30
0
11
126.975
21
-48.688816
31
0
39
0
210
0
220
0
230
1
0
SOLID
5
27C
100
AcDbEntity
8
2
62
256
6
ByLayer
370
-1
48
1
60
0
100
AcDbTrace
10
126.975
20
12.75
30
0
11
127.900575
21
8.575003
31
0
12
126.049425
22
8.574997
32
0
13
126.975
23
12.75
33
0
39
0
210
0
220
0
230
1
0
SOLID
5
27D
100
AcDbEntity
8
2
62
256
6
ByLayer
370
-1
48
1
60
0
100
AcDbTrace
10
126.975
20
-12.75
30
0
11
126.049425
21
-8.575003
31
0
12
127.900575
22
-8.574997
32
0
13
126.975
23
-12.75
33
0
39
0
210
0
220
0
230
1
0
ENDBLK
5
27F
100
AcDbEntity
8
0
100
AcDbBlockEnd
0
ENDSEC
0
SECTION
2
ENTITIES
0
ARC
5
F9
100
AcDbEntity
8
SK1
62
256
6
ByLayer
370
-1
48
1
60
0
100
AcDbCircle
39
0
10
1.382165
20
12.65
30
0
40
0.4
210
0
220
0
230
-1
100
AcDbArc
50
270
51
295
0
ARC
5
FA
100
AcDbEntity
8
SK1
62
256
6
ByLayer
370
-1
48
1
60
0
100
AcDbCircle
39
0
10
1.382165
20
-12.65
30
0
40
0.4
210
0
220
0
230
-1
100
AcDbArc
50
65
51
90
0
ARC
5
FB
100
AcDbEntity
8
SK1
62
256
6
ByLayer
370
-1
48
1
60
0
100
AcDbCircle
39
0
10
0.15
20
12.65
30
0
40
0.4
210
0
220
0
230
-1
100
AcDbArc
50
247.975687
51
270
0
ARC
5
FC
100
AcDbEntity
8
SK1
62
256
6
ByLayer
370
-1
48
1
60
0
100
AcDbCircle
39
0
10
0.15
20
-12.65
30
0
40
0.4
210
0
220
0
230
-1
100
AcDbArc
50
90
51
112.024313
0
ARC
5
FD
100
AcDbEntity
8
SK1
62
256
6
ByLayer
370
-1
48
1
60
0
100
AcDbCircle
39
0
10
53.894506
20
12.89675
30
0
40
0.8
210
0
220
0
230
-1
100
AcDbArc
50
250.982048
51
321
0
ARC
5
FE
100
AcDbEntity
8
SK1
62
256
6
ByLayer
370
-1
48
1
60
0
100
AcDbCircle
39
0
10
53.894506
20
-12.89675
30
0
40
0.8
210
0
220
0
230
-1
100
AcDbArc
50
39
51
109.017952
0
ELLIPSE
5
FF
100
AcDbEntity
8
1
62
256
6
ByLayer
370
-1
48
1
60
0
100
AcDbEllipse
10
88.836802
20
9.539685
30
0
11
6.09155738004463E-15
21
5.2
31
0
210
0
220
0
230
1
40
0.996195
41
2.7401669256311
42
-3.10668606854991
0
ELLIPSE
5
100
100
AcDbEntity
8
1
62
256
6
ByLayer
370
-1
48
1
60
0
100
AcDbEllipse
10
91.737942
20
7.314329
30
0
11
1.93289801482185E-15
21
1.65
31
0
210
0
220
0
230
1
40
0.996195
41
0.817034606722765
42
1.60279402974813
0
ELLIPSE
5
101
100
AcDbEntity
8
1
62
256
6
ByLayer
370
-1
48
1
60
0
100
AcDbEllipse
10
61.410567
20
9.884137
30
0
11
-26.8389284662172
21
2.94814255949633
31
0
210
0
220
0
230
-1
40
0.199988
41
3.1196283240944
42
-2.74902911779487
0
ELLIPSE
5
102
100
AcDbEntity
8
1
62
256
6
ByLayer
370
-1
48
1
60
0
100
AcDbEllipse
10
87.37891
20
6.980569
30
0
11
-0.600044648271303
21
-5.36655815398296
31
0
210
0
220
0
230
1
40
0.283389
41
0.236408601125911
42
0.91218833568193
0
ELLIPSE
5
103
100
AcDbEntity
8
1
62
256
6
ByLayer
370
-1
48
1
60
0
100
AcDbEllipse
10
92.058467
20
4.915558
30
0
11
-1.76858446507625E-15
21
-1.65
31
0
210
0
220
0
230
1
40
0.996195
41
-1.53879862384166
42
-0.14591971909318
0
ELLIPSE
5
104
100
AcDbEntity
8
1
62
256
6
ByLayer
370
-1
48
1
60
0
100
AcDbEllipse
10
92.961658
20
3.985515
30
0
11
-5.52920625589332
21
0.307050688604668
31
0
210
0
220
0
230
-1
40
0.000471
41
-3.13439007001125
42
-3.1331202174587
0
ELLIPSE
5
105
100
AcDbEntity
8
1
62
256
6
ByLayer
370
-1
48
1
60
0
100
AcDbEllipse
10
95.285542
20
-2.71418
30
0
11
-1.5
21
1.51595858262354E-15
31
0
210
0
220
0
230
1
40
0.998135
41
-3.05588636642759
42
-0.0858049843653129
0
ELLIPSE
5
106
100
AcDbEntity
8
1
62
256
6
ByLayer
370
-1
48
1
60
0
100
AcDbEllipse
10
91.981978
20
7.314329
30
0
11
-1.76858446507625E-15
21
-1.65
31
0
210
0
220
0
230
1
40
0.996195
41
-2.3061906707637
42
-1.53879862384166
0
ELLIPSE
5
107
100
AcDbEntity
8
1
62
256
6
ByLayer
370
-1
48
1
60
0
100
AcDbEllipse
10
100.067609
20
0
30
0
11
-1.01147138724904
21
-12.2993356999117
31
0
210
0
220
0
230
-1
40
0.126383
41
0.0238609011410334
42
1.07140309538677
0
ELLIPSE
5
108
100
AcDbEntity
8
1
62
256
6
ByLayer
370
-1
48
1
60
0
100
AcDbEllipse
10
95.285542
20
-2.457776
30
0
11
1.6
21
0
31
0
210
0
220
0
230
1
40
0.998135
41
0.0626355211410557
42
3.14159238863093
0
ELLIPSE
5
109
100
AcDbEntity
8
1
62
256
6
ByLayer
370
-1
48
1
60
0
100
AcDbEllipse
10
98.597356
20
-7.339866
30
0
11
-0.121275560650186
21
-1.50221571289892
31
0
210
0
220
0
230
-1
40
0.125223
41
-2.63382114004841
42
2.72196465865655
0
ELLIPSE
5
10A
100
AcDbEntity
8
1
62
256
6
ByLayer
370
-1
48
1
60
0
100
AcDbEllipse
10
92.113934
20
4.915558
30
0
11
-1.43971234163555
21
-1.28202564687823
31
0
210
0
220
0
230
-1
40
0.721468
41
-1.21041155897034
42
-0.0275737404712449
0
ELLIPSE
5
10B
100
AcDbEntity
8
1
62
256
6
ByLayer
370
-1
48
1
60
0
100
AcDbEllipse
10
98.786097
20
-7.37391
30
0
11
-0.0923359427562881
21
1.54026486705806
31
0
210
0
220
0
230
-1
40
0.115168
41
-0.403953160731309
42
0.523446347739768
0
ELLIPSE
5
10C
100
AcDbEntity
8
1
62
256
6
ByLayer
370
-1
48
1
60
0
100
AcDbEllipse
10
80.300465
20
8.28
30
0
11
9.49070522532342E-16
21
0.810165021729143
31
0
210
0
220
0
230
1
40
0.958524
41
-2.10246933523257
42
-1.5707963267949
0
ELLIPSE
5
10D
100
AcDbEntity
8
1
62
256
6
ByLayer
370
-1
48
1
60
0
100
AcDbEllipse
10
91.012998
20
4.881966
30
0
11
-0.599695201525335
21
-0.0191223760942034
31
0
210
0
220
0
230
1
40
0.002788
41
0.0872220186670827
42
1.35797147229628
0
ELLIPSE
5
10E
100
AcDbEntity
8
1
62
256
6
ByLayer
370
-1
48
1
60
0
100
AcDbEllipse
10
88.767077
20
9.539685
30
0
11
-6.43121623664089E-15
21
-6
31
0
210
0
220
0
230
1
40
0.996195
41
-0.360413627163514
42
-5.12662578359465E-06
0
ELLIPSE
5
10F
100
AcDbEntity
8
1
62
256
6
ByLayer
370
-1
48
1
60
0
100
AcDbEllipse
10
95.296061
20
7.984643
30
0
11
2.05004334905348E-15
21
1.75
31
0
210
0
220
0
230
1
40
0.996195
41
-1.42274887684816
42
0
0
ELLIPSE
5
110
100
AcDbEntity
8
1
62
256
6
ByLayer
370
-1
48
1
60
0
100
AcDbEllipse
10
95.296061
20
7.984643
30
0
11
2.05004334905348E-15
21
1.75
31
0
210
0
220
0
230
1
40
0.996195
41
0
42
0.324565673105946
0
ELLIPSE
5
111
100
AcDbEntity
8
1
62
256
6
ByLayer
370
-1
48
1
60
0
100
AcDbEllipse
10
75.841138
20
8.252086
30
0
11
-12.7249253538054
21
6.71208024317
31
0
210
0
220
0
230
-1
40
0.104269
41
-2.49830763927253
42
-1.35112871509539
0
ELLIPSE
5
112
100
AcDbEntity
8
1
62
256
6
ByLayer
370
-1
48
1
60
0
100
AcDbEllipse
10
90.794125
20
2E-06
30
0
11
-0.362027987547825
21
12.2999577549313
31
0
210
0
220
0
230
-1
40
0.087414
41
-0.00409538702154128
42
0.0212282782101993
0
ELLIPSE
5
113
100
AcDbEntity
8
1
62
256
6
ByLayer
370
-1
48
1
60
0
100
AcDbEllipse
10
98.81561
20
4.261327
30
0
11
-0.0426341605515527
21
0.603226337072403
31
0
210
0
220
0
230
-1
40
0.116967
41
2.20556331492124
42
-3.13160570108527
0
ELLIPSE
5
114
100
AcDbEntity
8
1
62
256
6
ByLayer
370
-1
48
1
60
0
100
AcDbEllipse
10
98.845579
20
0.548935
30
0
11
-0.043146639406076
21
0.601820614424658
31
0
210
0
220
0
230
-1
40
0.117962
41
-1.49714735071787
42
0.0736489760789505
0
ELLIPSE
5
115
100
AcDbEntity
8
1
62
256
6
ByLayer
370
-1
48
1
60
0
100
AcDbEllipse
10
95.426794
20
7.984643
30
0
11
2.05004334905348E-15
21
1.75
31
0
210
0
220
0
230
1
40
0.996195
41
0.0349503812769658
42
0.696942829586612
0
ELLIPSE
5
116
100
AcDbEntity
8
1
62
256
6
ByLayer
370
-1
48
1
60
0
100
AcDbEllipse
10
88.528665
20
0
30
0
11
-54.5186411697764
21
0.790996477947402
31
0
210
0
220
0
230
-1
40
0.225144
41
-1.60089535623945
42
-1.51492719571498
0
ELLIPSE
5
117
100
AcDbEntity
8
1
62
256
6
ByLayer
370
-1
48
1
60
0
100
AcDbEllipse
10
73.00033
20
8.588265
30
0
11
-0.600044648271303
21
-5.36655815398296
31
0
210
0
220
0
230
1
40
0.283389
41
1.36708221259981
42
1.55956191058412
0
ELLIPSE
5
118
100
AcDbEntity
8
1
62
256
6
ByLayer
370
-1
48
1
60
0
100
AcDbEllipse
10
22.209513
20
0
30
0
11
-218.751032847646
21
-11.894845708822
31
0
210
0
220
0
230
-1
40
0.014313
41
-1.92205320592248
42
-1.8761060799627
0
ELLIPSE
5
119
100
AcDbEntity
8
1
62
256
6
ByLayer
370
-1
48
1
60
0
100
AcDbEllipse
10
91.814431
20
4.915558
30
0
11
1.93289801482185E-15
21
1.65
31
0
210
0
220
0
230
1
40
0.996195
41
1.60279402974813
42
1.89731825499789
0
ELLIPSE
5
11A
100
AcDbEntity
8
1
62
256
6
ByLayer
370
-1
48
1
60
0
100
AcDbEllipse
10
88.619127
20
0
30
0
11
-41.3661753022918
21
-4.68720004307313E-14
31
0
210
0
220
0
230
-1
40
0.297344
41
1.38744545550183
42
1.56201714680476
0
ELLIPSE
5
11B
100
AcDbEntity
8
1
62
256
6
ByLayer
370
-1
48
1
60
0
100
AcDbEllipse
10
11.1
20
3.508921
30
0
11
-5.49999999999999
21
5.55851480295299E-15
31
0
210
0
220
0
230
1
40
0.606318
41
-1.78956602649784
42
-0.581034539280471
0
ELLIPSE
5
11C
100
AcDbEntity
8
1
62
256
6
ByLayer
370
-1
48
1
60
0
100
AcDbEllipse
10
88.947864
20
4.342853
30
0
11
0.0280261150489236
21
-0.799508934831416
31
0
210
0
220
0
230
1
40
0.087103
41
0.0630727813209288
42
1.56774302595898
0
ELLIPSE
5
11D
100
AcDbEntity
8
1
62
256
6
ByLayer
370
-1
48
1
60
0
100
AcDbEllipse
10
90.936509
20
7.280737
30
0
11
-0.599695201525335
21
-0.0191223760942034
31
0
210
0
220
0
230
1
40
0.002788
41
0.0872220186670827
42
1.3460933075179
0
ELLIPSE
5
11E
100
AcDbEntity
8
1
62
256
6
ByLayer
370
-1
48
1
60
0
100
AcDbEllipse
10
96.408543
20
0
30
0
11
-29.3713011234723
21
11.9125010610677
31
0
210
0
220
0
230
-1
40
0.104287
41
-1.23180847398392
42
-0.272079169374197
0
ELLIPSE
5
11F
100
AcDbEntity
8
1
62
256
6
ByLayer
370
-1
48
1
60
0
100
AcDbEllipse
10
86.96495
20
3.545261
30
0
11
-6.30558032379187
21
-0.198370075867459
31
0
210
0
220
0
230
-1
40
0.010628
41
-1.89660195718945
42
-1.887427780746
0
ELLIPSE
5
120
100
AcDbEntity
8
1
62
256
6
ByLayer
370
-1
48
1
60
0
100
AcDbEllipse
10
99.170872
20
0
30
0
11
-0.746342969228743
21
12.299678846254
31
0
210
0
220
0
230
-1
40
0.119092
41
-2.05257005851024
42
-1.48059647851132
0
ELLIPSE
5
121
100
AcDbEntity
8
1
62
256
6
ByLayer
370
-1
48
1
60
0
100
AcDbEllipse
10
72.831521
20
9.930255
30
0
11
-5.36237535419761
21
2.5368103102939
31
0
210
0
220
0
230
-1
40
0.250843
41
-1.31022415119677
42
-1.19574236626878
0
ELLIPSE
5
122
100
AcDbEntity
8
1
62
256
6
ByLayer
370
-1
48
1
60
0
100
AcDbEllipse
10
91.146802
20
9.060771
30
0
11
-0.581773174108997
21
-0.616643799639988
31
0
210
0
220
0
230
-1
40
0.044907
41
-0.78901356405984
42
-0.141858732215419
0
ELLIPSE
5
123
100
AcDbEntity
8
1
62
256
6
ByLayer
370
-1
48
1
60
0
100
AcDbEllipse
10
95.285542
20
-2.457776
30
0
11
-1.5
21
1.51595858262354E-15
31
0
210
0
220
0
230
1
40
0.998135
41
-3.14159250110337
42
-2.9661265583651E-16
0
ELLIPSE
5
124
100
AcDbEntity
8
1
62
256
6
ByLayer
370
-1
48
1
60
0
100
AcDbEllipse
10
95.285542
20
-2.457776
30
0
11
-1.5
21
1.51595858262354E-15
31
0
210
0
220
0
230
1
40
0.998135
41
0
42
0.46996278136288
0
ELLIPSE
5
125
100
AcDbEntity
8
1
62
256
6
ByLayer
370
-1
48
1
60
0
100
AcDbEllipse
10
95.285542
20
-2.457776
30
0
11
-1.5
21
1.51595858262354E-15
31
0
210
0
220
0
230
1
40
0.998135
41
2.59132334918457
42
-3.14159250110337
0
ELLIPSE
5
126
100
AcDbEntity
8
1
62
256
6
ByLayer
370
-1
48
1
60
0
100
AcDbEllipse
10
99.174601
20
-7E-05
30
0
11
-0.876125647138896
21
12.2999624309285
31
0
210
0
220
0
230
-1
40
0.118366
41
-1.47938877800348
42
-1.46848413174785
0
ELLIPSE
5
127
100
AcDbEntity
8
1
62
256
6
ByLayer
370
-1
48
1
60
0
100
AcDbEllipse
10
86.743007
20
4.75306
30
0
11
-0.313595748497239
21
-0.735973984950866
31
0
210
0
220
0
230
1
40
0.080227
41
0.159507748808073
42
1.60496756452653
0
ELLIPSE
5
128
100
AcDbEntity
8
1
62
256
6
ByLayer
370
-1
48
1
60
0
100
AcDbEllipse
10
99.190629
20
-6.337861
30
0
11
-0.0581290992931467
21
-0.658564973948942
31
0
210
0
220
0
230
-1
40
0.115224
41
0.00370845515632575
42
1.57450478194942
0
ELLIPSE
5
129
100
AcDbEntity
8
1
62
256
6
ByLayer
370
-1
48
1
60
0
100
AcDbEllipse
10
92.335802
20
7.08
30
0
11
-7.73832733441373
21
-4.74462468625764
31
0
210
0
220
0
230
-1
40
0.359486
41
-1.06402016376949
42
-0.882121047419935
0
ELLIPSE
5
12A
100
AcDbEntity
8
1
62
256
6
ByLayer
370
-1
48
1
60
0
100
AcDbEllipse
10
89.490217
20
-3E-06
30
0
11
-140.589660567977
21
-1.59302100872098E-13
31
0
210
0
220
0
230
-1
40
0.087489
41
1.56201714788161
42
1.57746457272003
0
ELLIPSE
5
12B
100
AcDbEntity
8
1
62
256
6
ByLayer
370
-1
48
1
60
0
100
AcDbEllipse
10
95.426794
20
7.984643
30
0
11
1.75718001347441E-15
21
1.5
31
0
210
0
220
0
230
1
40
0.996195
41
-1.91156087121061
42
0
0
ELLIPSE
5
12C
100
AcDbEntity
8
1
62
256
6
ByLayer
370
-1
48
1
60
0
100
AcDbEllipse
10
95.426794
20
7.984643
30
0
11
1.75718001347441E-15
21
1.5
31
0
210
0
220
0
230
1
40
0.996195
41
0
42
1.57079658615061
0
ELLIPSE
5
12D
100
AcDbEntity
8
1
62
256
6
ByLayer
370
-1
48
1
60
0
100
AcDbEllipse
10
95.426794
20
7.984643
30
0
11
1.75718001347441E-15
21
1.5
31
0
210
0
220
0
230
1
40
0.996195
41
1.57079621539443
42
1.85569969050121
0
ELLIPSE
5
12E
100
AcDbEntity
8
1
62
256
6
ByLayer
370
-1
48
1
60
0
100
AcDbEllipse
10
95.67083
20
7.984643
30
0
11
1.75718001347441E-15
21
1.5
31
0
210
0
220
0
230
1
40
0.996195
41
0.0817794639907322
42
1.57079621539443
0
ELLIPSE
5
12F
100
AcDbEntity
8
1
62
256
6
ByLayer
370
-1
48
1
60
0
100
AcDbEllipse
10
95.67083
20
7.984643
30
0
11
1.75718001347441E-15
21
1.5
31
0
210
0
220
0
230
1
40
0.996195
41
1.57079621539443
42
2.56854670135029
0
ELLIPSE
5
130
100
AcDbEntity
8
1
62
256
6
ByLayer
370
-1
48
1
60
0
100
AcDbEllipse
10
98.710103
20
13.88702
30
0
11
1.16328437305553E-14
21
9.93026637113358
31
0
210
0
220
0
230
1
40
0.996195
41
-3.1066860685499
42
-3.09758543963172
0
ELLIPSE
5
131
100
AcDbEntity
8
1
62
256
6
ByLayer
370
-1
48
1
60
0
100
AcDbEllipse
10
95.62323
20
11.98703
30
0
11
-5.35934686386741E-15
21
-5
31
0
210
0
220
0
230
1
40
0.996195
41
-1.55479036376001
42
-1.54499037067319
0
ELLIPSE
5
132
100
AcDbEntity
8
1
62
256
6
ByLayer
370
-1
48
1
60
0
100
AcDbEllipse
10
89.809755
20
4.305535
30
0
11
-1.07186937277348E-14
21
-10
31
0
210
0
220
0
230
1
40
0.996195
41
1.5966022829166
42
1.60570291183479
0
ELLIPSE
5
133
100
AcDbEntity
8
1
62
256
6
ByLayer
370
-1
48
1
60
0
100
AcDbEllipse
10
89.550989
20
11.728662
30
0
11
1.16328437305553E-14
21
9.93026637113358
31
0
210
0
220
0
230
1
40
0.996195
41
-1.53588974175501
42
-1.52678911283683
0
ELLIPSE
5
134
100
AcDbEntity
8
1
62
256
6
ByLayer
370
-1
48
1
60
0
100
AcDbEllipse
10
91.408846
20
4.123697
30
0
11
5.04036978550844E-16
21
0.43026637113368
31
0
210
0
220
0
230
1
40
0.996195
41
1.86750229963396
42
2.91469985083054
0
ELLIPSE
5
135
100
AcDbEntity
8
1
62
256
6
ByLayer
370
-1
48
1
60
0
100
AcDbEllipse
10
99.047211
20
12.492758
30
0
11
2.69746310087587E-16
21
0.230266371133678
31
0
210
0
220
0
230
1
40
0.996195
41
-0.22689280275933
42
0
0
ELLIPSE
5
136
100
AcDbEntity
8
1
62
256
6
ByLayer
370
-1
48
1
60
0
100
AcDbEllipse
10
91.409377
20
4.123697
30
0
11
-5.35934686386744E-16
21
-0.500000000000003
31
0
210
0
220
0
230
1
40
0.996195
41
-1.27409035395583
42
-0.226892802759225
0
ELLIPSE
5
137
100
AcDbEntity
8
1
62
256
6
ByLayer
370
-1
48
1
60
0
100
AcDbEllipse
10
99.047742
20
12.492758
30
0
11
-3.21560811832042E-16
21
-0.299999999999998
31
0
210
0
220
0
230
1
40
0.996195
41
2.91469985083057
42
3.14159265358979
0
ELLIPSE
5
138
100
AcDbEntity
8
1
62
256
6
ByLayer
370
-1
48
1
60
0
100
AcDbEllipse
10
99.096545
20
2.793782
30
0
11
-1.07186937277348E-14
21
-10
31
0
210
0
220
0
230
1
40
0.996195
41
-3.11578669746809
42
-3.1066860685499
0
ELLIPSE
5
139
100
AcDbEntity
8
1
62
256
6
ByLayer
370
-1
48
1
60
0
100
AcDbEllipse
10
91.218313
20
4.065223
30
0
11
2.69746310087587E-16
21
0.230266371133678
31
0
210
0
220
0
230
1
40
0.996195
41
1.64060949687465
42
1.86750229963388
0
ELLIPSE
5
13A
100
AcDbEntity
8
1
62
256
6
ByLayer
370
-1
48
1
60
0
100
AcDbEllipse
10
100.86078
20
4.69292
30
0
11
-1.07186937277348E-14
21
-9.99999999999999
31
0
210
0
220
0
230
1
40
0.996195
41
-1.53588974175501
42
-1.52678911283683
0
ELLIPSE
5
13B
100
AcDbEntity
8
1
62
256
6
ByLayer
370
-1
48
1
60
0
100
AcDbEllipse
10
98.967489
20
7.792117
30
0
11
5.77557701897398E-15
21
4.93026637113359
31
0
210
0
220
0
230
1
40
0.996195
41
0.0160059630348889
42
0.0258059561217096
0
ELLIPSE
5
13C
100
AcDbEntity
8
1
62
256
6
ByLayer
370
-1
48
1
60
0
100
AcDbEllipse
10
98.66188
20
13.884625
30
0
11
-1.07186937277347E-14
21
-9.99999999999992
31
0
210
0
220
0
230
1
40
0.996195
41
0.0538072070448933
42
0.069813170079783
0
ELLIPSE
5
13D
100
AcDbEntity
8
1
62
256
6
ByLayer
370
-1
48
1
60
0
100
AcDbEllipse
10
91.364558
20
13.628823
30
0
11
-1.07186937277347E-14
21
-9.99999999999992
31
0
210
0
220
0
230
1
40
0.996195
41
0
42
0.0160059630348861
0
ELLIPSE
5
13E
100
AcDbEntity
8
1
62
256
6
ByLayer
370
-1
48
1
60
0
100
AcDbEllipse
10
98.661348
20
13.884625
30
0
11
1.16328437305554E-14
21
9.93026637113359
31
0
210
0
220
0
230
1
40
0.996195
41
-3.0877854465449
42
-3.07177948351001
0
ELLIPSE
5
13F
100
AcDbEntity
8
1
62
256
6
ByLayer
370
-1
48
1
60
0
100
AcDbEllipse
10
99.096013
20
2.793782
30
0
11
1.16328437305554E-14
21
9.93026637113359
31
0
210
0
220
0
230
1
40
0.996195
41
0.0258059561217081
42
0.0349065850398912
0
ELLIPSE
5
140
100
AcDbEntity
8
1
62
256
6
ByLayer
370
-1
48
1
60
0
100
AcDbEllipse
10
89.808735
20
4.354524
30
0
11
-1.07186937277347E-14
21
-9.99999999999992
31
0
210
0
220
0
230
1
40
0.996195
41
1.57079632679489
42
1.58680228982978
0
ELLIPSE
5
141
100
AcDbEntity
8
1
62
256
6
ByLayer
370
-1
48
1
60
0
100
AcDbEllipse
10
95.622699
20
11.98703
30
0
11
5.77557701897398E-15
21
4.93026637113359
31
0
210
0
220
0
230
1
40
0.996195
41
1.58680228982978
42
1.59660228291661
0
ELLIPSE
5
142
100
AcDbEntity
8
1
62
256
6
ByLayer
370
-1
48
1
60
0
100
AcDbEllipse
10
91.443749
20
8.629464
30
0
11
5.77557701897398E-15
21
4.93026637113359
31
0
210
0
220
0
230
1
40
0.996195
41
-3.12558669055491
42
-3.11578669746809
0
ELLIPSE
5
143
100
AcDbEntity
8
1
62
256
6
ByLayer
370
-1
48
1
60
0
100
AcDbEllipse
10
99.471292
20
4.354524
30
0
11
2.69746310087587E-16
21
0.230266371133678
31
0
210
0
220
0
230
1
40
0.996195
41
-1.79768912955418
42
-1.5707963267949
0
ELLIPSE
5
144
100
AcDbEntity
8
1
62
256
6
ByLayer
370
-1
48
1
60
0
100
AcDbEllipse
10
91.482538
20
7.52972
30
0
11
-5.35934686386741E-15
21
-5
31
0
210
0
220
0
230
1
40
0.996195
41
-3.09758543963172
42
-3.08778544654489
0
ELLIPSE
5
145
100
AcDbEntity
8
1
62
256
6
ByLayer
370
-1
48
1
60
0
100
AcDbEllipse
10
95.450187
20
8.210791
30
0
11
1.87432534770601E-15
21
1.59999999999997
31
0
210
0
220
0
230
1
40
0.996195
41
0
42
1.57079662781731
0
ELLIPSE
5
146
100
AcDbEntity
8
1
62
256
6
ByLayer
370
-1
48
1
60
0
100
AcDbEllipse
10
95.450187
20
8.210791
30
0
11
1.87432534770601E-15
21
1.59999999999997
31
0
210
0
220
0
230
1
40
0.996195
41
1.57079604872767
42
-3.14159263054693
0
ELLIPSE
5
147
100
AcDbEntity
8
1
62
256
6
ByLayer
370
-1
48
1
60
0
100
AcDbEllipse
10
99.277691
20
4.399514
30
0
11
-5.35934686386744E-16
21
-0.500000000000003
31
0
210
0
220
0
230
1
40
0.996195
41
0.296705972839047
42
1.34390352403562
0
ELLIPSE
5
148
100
AcDbEntity
8
1
62
256
6
ByLayer
370
-1
48
1
60
0
100
AcDbEllipse
10
90.939946
20
12.067057
30
0
11
2.69746310087587E-16
21
0.230266371133678
31
0
210
0
220
0
230
1
40
0.996195
41
1.34390352403561
42
1.5707963267949
0
ELLIPSE
5
149
100
AcDbEntity
8
1
62
256
6
ByLayer
370
-1
48
1
60
0
100
AcDbEllipse
10
91.364027
20
3.928823
30
0
11
2.69746310087587E-16
21
0.230266371133678
31
0
210
0
220
0
230
1
40
0.996195
41
2.91469985083055
42
3.14159265358973
0
ELLIPSE
5
14A
100
AcDbEntity
8
1
62
256
6
ByLayer
370
-1
48
1
60
0
100
AcDbEllipse
10
91.075826
20
12.213328
30
0
11
2.69746310087587E-16
21
0.230266371133678
31
0
210
0
220
0
230
1
40
0.996195
41
0.0698131700797728
42
0.296705972838969
0
ELLIPSE
5
14B
100
AcDbEntity
8
1
62
256
6
ByLayer
370
-1
48
1
60
0
100
AcDbEllipse
10
100.858394
20
4.741861
30
0
11
-1.07186937277347E-14
21
-9.99999999999992
31
0
210
0
220
0
230
1
40
0.996195
41
-1.51698911975
42
-1.50098315671511
0
ELLIPSE
5
14C
100
AcDbEntity
8
1
62
256
6
ByLayer
370
-1
48
1
60
0
100
AcDbEllipse
10
89.553375
20
11.67972
30
0
11
1.16328437305554E-14
21
9.93026637113359
31
0
210
0
220
0
230
1
40
0.996195
41
-1.51698911975
42
-1.50098315671511
0
ELLIPSE
5
14D
100
AcDbEntity
8
1
62
256
6
ByLayer
370
-1
48
1
60
0
100
AcDbEllipse
10
91.315224
20
13.627799
30
0
11
1.16328437305554E-14
21
9.93026637113359
31
0
210
0
220
0
230
1
40
0.996195
41
-3.11578669746809
42
-3.1066860685499
0
ELLIPSE
5
14E
100
AcDbEntity
8
1
62
256
6
ByLayer
370
-1
48
1
60
0
100
AcDbEllipse
10
95.410061
20
8.210791
30
0
11
-1.7149909964375E-15
21
-1.59999999999993
31
0
210
0
220
0
230
1
40
0.996195
41
-3.12568836512776
42
0
0
ELLIPSE
5
14F
100
AcDbEntity
8
1
62
256
6
ByLayer
370
-1
48
1
60
0
100
AcDbEllipse
10
95.410061
20
8.210791
30
0
11
-1.7149909964375E-15
21
-1.59999999999993
31
0
210
0
220
0
230
1
40
0.996195
41
0
42
0.0349504427429441
0
ELLIPSE
5
150
100
AcDbEntity
8
1
62
256
6
ByLayer
370
-1
48
1
60
0
100
AcDbEllipse
10
98.929231
20
8.891861
30
0
11
5.77557701897398E-15
21
4.93026637113359
31
0
210
0
220
0
230
1
40
0.996195
41
-3.09758543963173
42
-3.0877854465449
0
ELLIPSE
5
151
100
AcDbEntity
8
1
62
256
6
ByLayer
370
-1
48
1
60
0
100
AcDbEllipse
10
94.52714
20
11.948627
30
0
11
5.77557701897398E-15
21
4.93026637113359
31
0
210
0
220
0
230
1
40
0.996195
41
-1.52678911283683
42
-1.51698911975
0
ELLIPSE
5
152
100
AcDbEntity
8
1
62
256
6
ByLayer
370
-1
48
1
60
0
100
AcDbEllipse
10
95.884629
20
4.472955
30
0
11
-5.35934686386741E-15
21
-5
31
0
210
0
220
0
230
1
40
0.996195
41
-1.52678911283682
42
-1.51698911975
0
ELLIPSE
5
153
100
AcDbEntity
8
1
62
256
6
ByLayer
370
-1
48
1
60
0
100
AcDbEllipse
10
89.55152
20
11.728662
30
0
11
-1.07186937277348E-14
21
-9.99999999999999
31
0
210
0
220
0
230
1
40
0.996195
41
1.60570291183479
42
1.61480354075297
0
ELLIPSE
5
154
100
AcDbEntity
8
1
62
256
6
ByLayer
370
-1
48
1
60
0
100
AcDbEllipse
10
98.929763
20
8.891861
30
0
11
-5.35934686386741E-15
21
-5
31
0
210
0
220
0
230
1
40
0.996195
41
0.0440072139580725
42
0.053807207044893
0
ELLIPSE
5
155
100
AcDbEntity
8
1
62
256
6
ByLayer
370
-1
48
1
60
0
100
AcDbEllipse
10
95.217632
20
8.210791
30
0
11
-2.58509861521156E-15
21
-2.41176647162011
31
0
210
0
220
0
230
1
40
0.996195
41
2.21551017276079
42
0
0
ELLIPSE
5
156
100
AcDbEntity
8
1
62
256
6
ByLayer
370
-1
48
1
60
0
100
AcDbEllipse
10
95.217632
20
8.210791
30
0
11
-2.58509861521156E-15
21
-2.41176647162011
31
0
210
0
220
0
230
1
40
0.996195
41
0
42
0.926082778547564
0
ELLIPSE
5
157
100
AcDbEntity
8
1
62
256
6
ByLayer
370
-1
48
1
60
0
100
AcDbEllipse
10
94.788539
20
4.434551
30
0
11
5.77557701897398E-15
21
4.93026637113359
31
0
210
0
220
0
230
1
40
0.996195
41
-1.55479036376001
42
-1.54499037067319
0
ELLIPSE
5
158
100
AcDbEntity
8
1
62
256
6
ByLayer
370
-1
48
1
60
0
100
AcDbEllipse
10
99.193457
20
12.356358
30
0
11
-3.21560811832042E-16
21
-0.299999999999998
31
0
210
0
220
0
230
1
40
0.996195
41
1.64060949687468
42
1.86750229963391
0
ELLIPSE
5
159
100
AcDbEntity
8
1
62
256
6
ByLayer
370
-1
48
1
60
0
100
AcDbEllipse
10
91.44428
20
8.629464
30
0
11
-5.35934686386741E-15
21
-5
31
0
210
0
220
0
230
1
40
0.996195
41
0.0160059630348847
42
0.0258059561217064
0
ELLIPSE
5
15A
100
AcDbEntity
8
1
62
256
6
ByLayer
370
-1
48
1
60
0
100
AcDbEllipse
10
98.710635
20
13.88702
30
0
11
-1.07186937277348E-14
21
-9.99999999999999
31
0
210
0
220
0
230
1
40
0.996195
41
0.0349065850398912
42
0.044007213958074
0
ELLIPSE
5
15B
100
AcDbEntity
8
1
62
256
6
ByLayer
370
-1
48
1
60
0
100
AcDbEllipse
10
95.884098
20
4.472955
30
0
11
5.77557701897398E-15
21
4.93026637113359
31
0
210
0
220
0
230
1
40
0.996195
41
1.61480354075297
42
1.62460353383979
0
ELLIPSE
5
15C
100
AcDbEntity
8
1
62
256
6
ByLayer
370
-1
48
1
60
0
100
AcDbEllipse
10
91.076358
20
12.213328
30
0
11
-3.21560811832042E-16
21
-0.299999999999998
31
0
210
0
220
0
230
1
40
0.996195
41
-3.07177948350999
42
-2.84488668075069
0
ELLIPSE
5
15D
100
AcDbEntity
8
1
62
256
6
ByLayer
370
-1
48
1
60
0
100
AcDbEllipse
10
99.002392
20
12.297884
30
0
11
5.04036978550844E-16
21
0.43026637113368
31
0
210
0
220
0
230
1
40
0.996195
41
-1.27409035395583
42
-0.226892802759253
0
ELLIPSE
5
15E
100
AcDbEntity
8
1
62
256
6
ByLayer
370
-1
48
1
60
0
100
AcDbEllipse
10
91.315756
20
13.627799
30
0
11
-1.07186937277348E-14
21
-10
31
0
210
0
220
0
230
1
40
0.996195
41
0.0258059561217066
42
0.0349065850398895
0
ELLIPSE
5
15F
100
AcDbEntity
8
1
62
256
6
ByLayer
370
-1
48
1
60
0
100
AcDbEllipse
10
90.940477
20
12.067057
30
0
11
-3.21560811832042E-16
21
-0.299999999999998
31
0
210
0
220
0
230
1
40
0.996195
41
-1.79768912955412
42
-1.5707963267949
0
ELLIPSE
5
160
100
AcDbEntity
8
1
62
256
6
ByLayer
370
-1
48
1
60
0
100
AcDbEllipse
10
99.277159
20
4.399514
30
0
11
5.04036978550844E-16
21
0.43026637113368
31
0
210
0
220
0
230
1
40
0.996195
41
-2.84488668075074
42
-1.79768912955418
0
ELLIPSE
5
161
100
AcDbEntity
8
1
62
256
6
ByLayer
370
-1
48
1
60
0
100
AcDbEllipse
10
89.553907
20
11.67972
30
0
11
-1.07186937277347E-14
21
-9.99999999999992
31
0
210
0
220
0
230
1
40
0.996195
41
1.62460353383979
42
1.64060949687468
0
ELLIPSE
5
162
100
AcDbEntity
8
1
62
256
6
ByLayer
370
-1
48
1
60
0
100
AcDbEllipse
10
91.482006
20
7.52972
30
0
11
5.77557701897398E-15
21
4.93026637113359
31
0
210
0
220
0
230
1
40
0.996195
41
0.0440072139580683
42
0.0538072070448912
0
ELLIPSE
5
163
100
AcDbEntity
8
1
62
256
6
ByLayer
370
-1
48
1
60
0
100
AcDbEllipse
10
99.002923
20
12.297884
30
0
11
-5.35934686386744E-16
21
-0.500000000000003
31
0
210
0
220
0
230
1
40
0.996195
41
1.86750229963393
42
2.91469985083054
0
ELLIPSE
5
164
100
AcDbEntity
8
1
62
256
6
ByLayer
370
-1
48
1
60
0
100
AcDbEllipse
10
100.603034
20
12.067057
30
0
11
1.16328437305554E-14
21
9.93026637113359
31
0
210
0
220
0
230
1
40
0.996195
41
1.57079632679489
42
1.58680228982978
0
ELLIPSE
5
165
100
AcDbEntity
8
1
62
256
6
ByLayer
370
-1
48
1
60
0
100
AcDbEllipse
10
100.857862
20
4.741861
30
0
11
1.16328437305554E-14
21
9.93026637113359
31
0
210
0
220
0
230
1
40
0.996195
41
1.62460353383979
42
1.64060949687468
0
ELLIPSE
5
166
100
AcDbEntity
8
1
62
256
6
ByLayer
370
-1
48
1
60
0
100
AcDbEllipse
10
99.047742
20
2.792758
30
0
11
-1.07186937277347E-14
21
-9.99999999999992
31
0
210
0
220
0
230
1
40
0.996195
41
3.14159265358979
42
-3.12558669055491
0
ELLIPSE
5
167
100
AcDbEntity
8
1
62
256
6
ByLayer
370
-1
48
1
60
0
100
AcDbEllipse
10
91.750421
20
2.536956
30
0
11
-1.07186937277347E-14
21
-9.99999999999992
31
0
210
0
220
0
230
1
40
0.996195
41
-3.0877854465449
42
-3.07177948351001
0
ELLIPSE
5
168
100
AcDbEntity
8
1
62
256
6
ByLayer
370
-1
48
1
60
0
100
AcDbEllipse
10
99.335411
20
4.208254
30
0
11
2.69746310087587E-16
21
0.230266371133678
31
0
210
0
220
0
230
1
40
0.996195
41
-3.07177948351002
42
-2.84488668075082
0
ELLIPSE
5
169
100
AcDbEntity
8
1
62
256
6
ByLayer
370
-1
48
1
60
0
100
AcDbEllipse
10
89.808203
20
4.354524
30
0
11
1.16328437305554E-14
21
9.93026637113359
31
0
210
0
220
0
230
1
40
0.996195
41
-1.5707963267949
42
-1.55479036376001
0
ELLIPSE
5
16A
100
AcDbEntity
8
1
62
256
6
ByLayer
370
-1
48
1
60
0
100
AcDbEllipse
10
99.047211
20
2.792758
30
0
11
1.16328437305554E-14
21
9.93026637113359
31
0
210
0
220
0
230
1
40
0.996195
41
0
42
0.0160059630348853
0
ELLIPSE
5
16B
100
AcDbEntity
8
1
62
256
6
ByLayer
370
-1
48
1
60
0
100
AcDbEllipse
10
94.527672
20
11.948627
30
0
11
-5.35934686386741E-15
21
-5
31
0
210
0
220
0
230
1
40
0.996195
41
1.61480354075297
42
1.62460353383979
0
ELLIPSE
5
16C
100
AcDbEntity
8
1
62
256
6
ByLayer
370
-1
48
1
60
0
100
AcDbEllipse
10
91.134078
20
12.022067
30
0
11
5.04036978550844E-16
21
0.43026637113368
31
0
210
0
220
0
230
1
40
0.996195
41
0.296705972839089
42
1.34390352403565
0
ELLIPSE
5
16D
100
AcDbEntity
8
1
62
256
6
ByLayer
370
-1
48
1
60
0
100
AcDbEllipse
10
100.602546
20
12.116046
30
0
11
-1.07186937277348E-14
21
-10
31
0
210
0
220
0
230
1
40
0.996195
41
-1.54499037067319
42
-1.53588974175501
0
ELLIPSE
5
16E
100
AcDbEntity
8
1
62
256
6
ByLayer
370
-1
48
1
60
0
100
AcDbEllipse
10
91.218844
20
4.065223
30
0
11
-3.21560811832042E-16
21
-0.299999999999998
31
0
210
0
220
0
230
1
40
0.996195
41
-1.50098315671512
42
-1.27409035395589
0
ELLIPSE
5
16F
100
AcDbEntity
8
1
62
256
6
ByLayer
370
-1
48
1
60
0
100
AcDbEllipse
10
100.602014
20
12.116046
30
0
11
1.16328437305554E-14
21
9.93026637113359
31
0
210
0
220
0
230
1
40
0.996195
41
1.5966022829166
42
1.60570291183479
0
ELLIPSE
5
170
100
AcDbEntity
8
1
62
256
6
ByLayer
370
-1
48
1
60
0
100
AcDbEllipse
10
95.242516
20
8.210791
30
0
11
-2.46191653535247E-15
21
-2.29684381127732
31
0
210
0
220
0
230
1
40
0.996195
41
0
42
6.28318530717959
0
ELLIPSE
5
171
100
AcDbEntity
8
1
62
256
6
ByLayer
370
-1
48
1
60
0
100
AcDbEllipse
10
99.471823
20
4.354524
30
0
11
-3.21560811832042E-16
21
-0.299999999999998
31
0
210
0
220
0
230
1
40
0.996195
41
1.34390352403567
42
1.5707963267949
0
ELLIPSE
5
172
100
AcDbEntity
8
1
62
256
6
ByLayer
370
-1
48
1
60
0
100
AcDbEllipse
10
99.335943
20
4.208254
30
0
11
-3.21560811832042E-16
21
-0.299999999999998
31
0
210
0
220
0
230
1
40
0.996195
41
0.0698131700797079
42
0.296705972839007
0
ELLIPSE
5
173
100
AcDbEntity
8
1
62
256
6
ByLayer
370
-1
48
1
60
0
100
AcDbEllipse
10
100.603566
20
12.067057
30
0
11
-1.07186937277347E-14
21
-9.99999999999992
31
0
210
0
220
0
230
1
40
0.996195
41
-1.5707963267949
42
-1.55479036376001
0
ELLIPSE
5
174
100
AcDbEntity
8
1
62
256
6
ByLayer
370
-1
48
1
60
0
100
AcDbEllipse
10
91.701666
20
2.534561
30
0
11
-1.07186937277348E-14
21
-9.99999999999999
31
0
210
0
220
0
230
1
40
0.996195
41
-3.1066860685499
42
-3.09758543963172
0
ELLIPSE
5
175
100
AcDbEntity
8
1
62
256
6
ByLayer
370
-1
48
1
60
0
100
AcDbEllipse
10
95.184361
20
8.210791
30
0
11
2.85654182022187E-15
21
2.43845974656893
31
0
210
0
220
0
230
1
40
0.996195
41
0
42
6.28318530717959
0
ELLIPSE
5
176
100
AcDbEntity
8
1
62
256
6
ByLayer
370
-1
48
1
60
0
100
AcDbEllipse
10
91.364027
20
13.628823
30
0
11
1.16328437305554E-14
21
9.93026637113359
31
0
210
0
220
0
230
1
40
0.996195
41
3.14159265358979
42
-3.12558669055491
0
ELLIPSE
5
177
100
AcDbEntity
8
1
62
256
6
ByLayer
370
-1
48
1
60
0
100
AcDbEllipse
10
91.13461
20
12.022067
30
0
11
-5.35934686386744E-16
21
-0.500000000000003
31
0
210
0
220
0
230
1
40
0.996195
41
-2.84488668075075
42
-1.79768912955417
0
ELLIPSE
5
178
100
AcDbEntity
8
1
62
256
6
ByLayer
370
-1
48
1
60
0
100
AcDbEllipse
10
91.364558
20
3.928823
30
0
11
-3.21560811832042E-16
21
-0.299999999999998
31
0
210
0
220
0
230
1
40
0.996195
41
-0.226892802759264
42
0
0
ELLIPSE
5
179
100
AcDbEntity
8
1
62
256
6
ByLayer
370
-1
48
1
60
0
100
AcDbEllipse
10
94.78907
20
4.434551
30
0
11
-5.35934686386741E-15
21
-5
31
0
210
0
220
0
230
1
40
0.996195
41
1.58680228982978
42
1.59660228291661
0
ELLIPSE
5
17A
100
AcDbEntity
8
1
62
256
6
ByLayer
370
-1
48
1
60
0
100
AcDbEllipse
10
91.701134
20
2.534561
30
0
11
1.16328437305553E-14
21
9.93026637113358
31
0
210
0
220
0
230
1
40
0.996195
41
0.0349065850398898
42
0.0440072139580705
0
ELLIPSE
5
17B
100
AcDbEntity
8
1
62
256
6
ByLayer
370
-1
48
1
60
0
100
AcDbEllipse
10
89.809224
20
4.305535
30
0
11
1.16328437305554E-14
21
9.93026637113359
31
0
210
0
220
0
230
1
40
0.996195
41
-1.54499037067319
42
-1.53588974175501
0
ELLIPSE
5
17C
100
AcDbEntity
8
1
62
256
6
ByLayer
370
-1
48
1
60
0
100
AcDbEllipse
10
98.968021
20
7.792117
30
0
11
-5.35934686386741E-15
21
-5
31
0
210
0
220
0
230
1
40
0.996195
41
-3.12558669055491
42
-3.11578669746809
0
ELLIPSE
5
17D
100
AcDbEntity
8
1
62
256
6
ByLayer
370
-1
48
1
60
0
100
AcDbEllipse
10
91.749889
20
2.536956
30
0
11
1.16328437305554E-14
21
9.93026637113359
31
0
210
0
220
0
230
1
40
0.996195
41
0.0538072070448921
42
0.0698131700797837
0
ELLIPSE
5
17E
100
AcDbEntity
8
1
62
256
6
ByLayer
370
-1
48
1
60
0
100
AcDbEllipse
10
100.860249
20
4.69292
30
0
11
1.16328437305553E-14
21
9.93026637113358
31
0
210
0
220
0
230
1
40
0.996195
41
1.60570291183479
42
1.61480354075297
0
ELLIPSE
5
17F
100
AcDbEntity
8
1
62
256
6
ByLayer
370
-1
48
1
60
0
100
AcDbEllipse
10
99.192925
20
12.356358
30
0
11
2.69746310087587E-16
21
0.230266371133678
31
0
210
0
220
0
230
1
40
0.996195
41
-1.50098315671514
42
-1.27409035395591
0
ELLIPSE
5
180
100
AcDbEntity
8
1
62
256
6
ByLayer
370
-1
48
1
60
0
100
AcDbEllipse
10
95.476809
20
-3.049849
30
0
11
1.59999999999993
21
0
31
0
210
0
220
0
230
1
40
0.998135
41
0.897612222206555
42
3.09574505906761
0
ELLIPSE
5
181
100
AcDbEntity
8
1
62
256
6
ByLayer
370
-1
48
1
60
0
100
AcDbEllipse
10
98.818134
20
-3.881989
30
0
11
-0.485063016993205
21
4.90223629149413E-16
31
0
210
0
220
0
230
1
40
0.998135
41
3.10668606442663
42
-2.67245197825928
0
ELLIPSE
5
182
100
AcDbEntity
8
1
62
256
6
ByLayer
370
-1
48
1
60
0
100
AcDbEllipse
10
95.476809
20
-3.021743
30
0
11
1.59999999999997
21
0
31
0
210
0
220
0
230
1
40
0.998135
41
0.945815682262001
42
3.11174736318323
0
ELLIPSE
5
183
100
AcDbEntity
8
1
62
256
6
ByLayer
370
-1
48
1
60
0
100
AcDbEllipse
10
98.381185
20
-0.752739
30
0
11
-0.485063016993195
21
4.90223629149403E-16
31
0
210
0
220
0
230
1
40
0.998135
41
-3.08923278015312
42
-2.77261465029999
0
ELLIPSE
5
184
100
AcDbEntity
8
1
62
256
6
ByLayer
370
-1
48
1
60
0
100
AcDbEllipse
10
99.423221
20
-6.230176
30
0
11
0.499999999999965
21
0
31
0
210
0
220
0
230
1
40
0.998135
41
-1.22173047639601
42
-0.0349065850398111
0
ELLIPSE
5
185
100
AcDbEntity
8
1
62
256
6
ByLayer
370
-1
48
1
60
0
100
AcDbEllipse
10
98.774047
20
-5.13601
30
0
11
0.311857936236306
21
0
31
0
210
0
220
0
230
1
40
0.998135
41
-0.241836267641143
42
-0.0349065914529186
0
ELLIPSE
5
186
100
AcDbEntity
8
1
62
256
6
ByLayer
370
-1
48
1
60
0
100
AcDbEllipse
10
99.052642
20
-0.737245
30
0
11
0.499999999999999
21
0
31
0
210
0
220
0
230
1
40
0.998135
41
0.0523598775598506
42
0.349065850398872
0
ELLIPSE
5
187
100
AcDbEntity
8
1
62
256
6
ByLayer
370
-1
48
1
60
0
100
AcDbEllipse
10
101.655121
20
-2.501588
30
0
11
2.24556912180584
21
0
31
0
210
0
220
0
230
1
40
0.998135
41
-3.08923277573889
42
-2.67245197324542
0
ELLIPSE
5
188
100
AcDbEntity
8
1
62
256
6
ByLayer
370
-1
48
1
60
0
100
AcDbEllipse
10
98.774047
20
-5.142115
30
0
11
-0.485063016993194
21
4.90223629149402E-16
31
0
210
0
220
0
230
1
40
0.998135
41
2.28676983792908
42
3.1066860644268
0
ELLIPSE
5
189
100
AcDbEntity
8
1
62
256
6
ByLayer
370
-1
48
1
60
0
100
AcDbEllipse
10
99.258815
20
-5.146802
30
0
11
-0.199877710054841
21
0.00699292665720209
31
0
210
0
220
0
230
1
40
0.061011
41
0.525733317016737
42
1.57293086821329
0
ELLIPSE
5
18A
100
AcDbEntity
8
1
62
256
6
ByLayer
370
-1
48
1
60
0
100
AcDbEllipse
10
98.381185
20
-0.752739
30
0
11
-0.585063016993195
21
5.91287534657639E-16
31
0
210
0
220
0
230
1
40
0.998135
41
-3.08923277944838
42
-2.49060495440881
0
ELLIPSE
5
18B
100
AcDbEntity
8
1
62
256
6
ByLayer
370
-1
48
1
60
0
100
AcDbEllipse
10
99.250789
20
-3.650882
30
0
11
-0.178323259633013
21
-0.0905583517620391
31
0
210
0
220
0
230
1
40
0.054453
41
0.495952978574634
42
1.54315052977256
0
ELLIPSE
5
18C
100
AcDbEntity
8
1
62
256
6
ByLayer
370
-1
48
1
60
0
100
AcDbEllipse
10
98.513866
20
0.740268
30
0
11
0.499999999999965
21
0
31
0
210
0
220
0
230
1
40
0.998135
41
0.349065850398867
42
0.877721328342332
0
ELLIPSE
5
18D
100
AcDbEntity
8
1
62
256
6
ByLayer
370
-1
48
1
60
0
100
AcDbEllipse
10
101.655121
20
-2.446644
30
0
11
2.59556912180584
21
0
31
0
210
0
220
0
230
1
40
0.998135
41
-3.08923277577814
42
-2.67245197336552
0
ELLIPSE
5
18E
100
AcDbEntity
8
1
62
256
6
ByLayer
370
-1
48
1
60
0
100
AcDbEllipse
10
99.000305
20
-4.0182
30
0
11
0.999999999999942
21
0
31
0
210
0
220
0
230
1
40
0.998135
41
-0.0349065850397857
42
0.484433451429335
0
ELLIPSE
5
18F
100
AcDbEntity
8
1
62
256
6
ByLayer
370
-1
48
1
60
0
100
AcDbEllipse
10
98.818134
20
-3.881989
30
0
11
-0.585063016993205
21
5.91287534657649E-16
31
0
210
0
220
0
230
1
40
0.998135
41
3.10668606513139
42
-2.6724519775545
0
ELLIPSE
5
190
100
AcDbEntity
8
1
62
256
6
ByLayer
370
-1
48
1
60
0
100
AcDbEllipse
10
101.655121
20
-2.446644
30
0
11
2.69556912180584
21
0
31
0
210
0
220
0
230
1
40
0.998135
41
-3.08923277578748
42
-2.6724519733941
0
ELLIPSE
5
191
100
AcDbEntity
8
1
62
256
6
ByLayer
370
-1
48
1
60
0
100
AcDbEllipse
10
98.865583
20
-0.71519
30
0
11
-0.199724883720219
21
-0.0104866974279341
31
0
210
0
220
0
230
1
40
0.060965
41
1.44670832171472
42
1.56759533351589
0
ELLIPSE
5
192
100
AcDbEntity
8
1
62
256
6
ByLayer
370
-1
48
1
60
0
100
AcDbEllipse
10
101.655121
20
-2.623685
30
0
11
2.00000000000003
21
0
31
0
210
0
220
0
230
1
40
0.998135
41
-3.08923277570319
42
-2.65715920216041
0
ELLIPSE
5
193
100
AcDbEntity
8
1
62
256
6
ByLayer
370
-1
48
1
60
0
100
AcDbEllipse
10
95.476809
20
-3.021743
30
0
11
1.69999999999997
21
0
31
0
210
0
220
0
230
1
40
0.998135
41
1.23160257064669
42
2.95476640619256
0
ELLIPSE
5
194
100
AcDbEntity
8
1
62
256
6
ByLayer
370
-1
48
1
60
0
100
AcDbEllipse
10
99.302901
20
-3.886677
30
0
11
-0.199877710054841
21
0.00699292665720209
31
0
210
0
220
0
230
1
40
0.061011
41
0.525733317016737
42
1.57293086821329
0
ELLIPSE
5
195
100
AcDbEntity
8
1
62
256
6
ByLayer
370
-1
48
1
60
0
100
AcDbEllipse
10
98.774047
20
-5.142115
30
0
11
-0.585063016993194
21
5.91287534657638E-16
31
0
210
0
220
0
230
1
40
0.998135
41
2.22178402597591
42
3.10668606513153
0
ELLIPSE
5
196
100
AcDbEntity
8
1
62
256
6
ByLayer
370
-1
48
1
60
0
100
AcDbEllipse
10
98.818134
20
-3.875884
30
0
11
0.311857936236317
21
0
31
0
210
0
220
0
230
1
40
0.998135
41
-0.0349065914531895
42
0.469140673040506
0
ELLIPSE
5
197
100
AcDbEntity
8
1
62
256
6
ByLayer
370
-1
48
1
60
0
100
AcDbEllipse
10
101.655121
20
-2.440539
30
0
11
-2.86877420256273
21
2.89929524932266E-15
31
0
210
0
220
0
230
1
40
0.998135
41
0.375821002308129
42
0.469140680150902
0
ELLIPSE
5
198
100
AcDbEntity
8
1
62
256
6
ByLayer
370
-1
48
1
60
0
100
AcDbEllipse
10
98.963246
20
-2.575247
30
0
11
-0.199724883720219
21
-0.0104866974279341
31
0
210
0
220
0
230
1
40
0.060965
41
1.44670832171472
42
1.56759533351589
0
POINT
5
41
100
AcDbEntity
8
81
62
256
6
ByLayer
370
-1
48
1
60
0
100
AcDbPoint
10
100
20
0
30
0
39
0
210
0
220
0
230
1
50
360
0
POINT
5
43
100
AcDbEntity
8
80
62
256
6
ByLayer
370
-1
48
1
60
0
100
AcDbPoint
10
0
20
0
30
0
39
0
210
0
220
0
230
1
50
360
0
SPLINE
5
199
100
AcDbEntity
8
1
62
256
6
ByLayer
370
-1
48
1
60
0
100
AcDbSpline
70
4
71
3
72
14
73
10
40
0
40
0
40
0
40
0
40
0.105772694987275
40
0.269669306292045
40
0.433225182563378
40
0.596273619427844
40
0.758764931668306
40
0.920770704367247
40
1
40
1
40
1
40
1
41
1
10
93.8847128601009
20
-2.92618858834587
30
0
41
1
10
93.8895998410983
20
-2.84559419397934
30
0
41
1
10
93.9181495311066
20
-2.64389632903209
30
0
41
1
10
94.0332211484671
20
-2.33065559844769
30
0
41
1
10
94.2408204629866
20
-2.016145911537
30
0
41
1
10
94.5170012857296
20
-1.75828327253319
30
0
41
1
10
94.8451470550228
20
-1.57168693305815
30
0
41
1
10
95.147082942991
20
-1.48402160632816
30
0
41
1
10
95.3314073626663
20
-1.46387520121957
30
0
41
1
10
95.3927792469005
20
-1.46062557142582
30
0
0
SPLINE
5
19A
100
AcDbEntity
8
1
62
256
6
ByLayer
370
-1
48
1
60
0
100
AcDbSpline
70
4
71
3
72
11
73
7
40
0
40
0
40
0
40
0
40
0.106176828717902
40
0.445677782820972
40
0.786041083823579
40
1
40
1
40
1
40
1
41
1
10
95.3927792469005
20
-1.46062557142582
30
0
41
1
10
95.4317222142363
20
-1.45859684240432
30
0
41
1
10
95.5945692198557
20
-1.45595610839322
30
0
41
1
10
95.8827684888759
20
-1.49541836345293
30
0
41
1
10
96.1899359001474
20
-1.61430661574684
30
0
41
1
10
96.3620254571681
20
-1.72194914972155
30
0
41
1
10
96.4250332219714
20
-1.7680530765665
30
0
0
SPLINE
5
19B
100
AcDbEntity
8
1
62
256
6
ByLayer
370
-1
48
1
60
0
100
AcDbSpline
70
4
71
3
72
16
73
12
40
0
40
0
40
0
40
0
40
0.0935415395291224
40
0.187511644398812
40
0.281029622445951
40
0.374621760951107
40
0.468007100919583
40
0.561204276574588
40
0.70735881405641
40
0.853461378918063
40
1
40
1
40
1
40
1
41
1
10
20
20
12.3
30
0
41
1
10
19.5080560691324
20
12.3007367055165
30
0
41
1
10
18.541652519418
20
12.3906178664116
30
0
41
1
10
17.1199871274918
20
12.7807075920263
30
0
41
1
10
15.8223956496673
20
13.4568601930716
30
0
41
1
10
14.4907807196945
20
14.0488813325897
30
0
41
1
10
13.1323022687258
20
14.5733702926136
30
0
41
1
10
11.4871580951972
20
15.1062887541687
30
0
41
1
10
9.54037077677111
20
15.5852366194937
30
0
41
1
10
7.28120778529001
20
15.9232684526671
30
0
41
1
10
5.76393472363876
20
15.9988017314085
30
0
41
1
10
5.00000000000003
20
16
30
0
0
SPLINE
5
19C
100
AcDbEntity
8
1
62
256
6
ByLayer
370
-1
48
1
60
0
100
AcDbSpline
70
4
71
3
72
14
73
10
40
0
40
0
40
0
40
0
40
0.186409175751222
40
0.372347946630229
40
0.55866329611187
40
0.668841046418643
40
0.7791794184082
40
0.889692942879629
40
1
40
1
40
1
40
1
41
1
10
4.99999999999997
20
-16
30
0
41
1
10
5.97349730102519
20
-15.9973731220764
30
0
41
1
10
7.90105981577017
20
-15.8754525704635
30
0
41
1
10
10.7623365239821
20
-15.3350218392402
30
0
41
1
10
13.1545524964198
20
-14.5800048797724
30
0
41
1
10
15.1211849015648
20
-13.798727811981
30
0
41
1
10
16.6393144908153
20
-12.9918273792224
30
0
41
1
10
18.2791755864694
20
-12.4185308325722
30
0
41
1
10
19.417313816456
20
-12.3014210589604
30
0
41
1
10
20
20
-12.3
30
0
0
SPLINE
5
19D
100
AcDbEntity
8
1
62
256
6
ByLayer
370
-1
48
1
60
0
100
AcDbSpline
70
4
71
3
72
21
73
17
40
0
40
0
40
0
40
0
40
0.0597762690613274
40
0.135790322145459
40
0.211530993727908
40
0.286818424735321
40
0.361585740511622
40
0.435882531329698
40
0.509850872570412
40
0.583689381760906
40
0.657577651506212
40
0.731688480482391
40
0.80619084672115
40
0.881182870506936
40
0.956664962366417
40
1
40
1
40
1
40
1
41
1
10
95.385037098256
20
9.80320921726045
30
0
41
1
10
95.4837610991337
20
9.80815612042292
30
0
41
1
10
95.7036474090041
20
9.79731479308805
30
0
41
1
10
96.03804416824
20
9.6949281033427
30
0
41
1
10
96.3626009762681
20
9.50710108250507
30
0
41
1
10
96.6348653714425
20
9.24704813519622
30
0
41
1
10
96.8394707989506
20
8.93091009422815
30
0
41
1
10
96.9656282048033
20
8.57604926856877
30
0
41
1
10
97.0069466211327
20
8.20211291580287
30
0
41
1
10
96.9617160664218
20
7.82936357096989
30
0
41
1
10
96.8328011351406
20
7.47778233738154
30
0
41
1
10
96.6274086748065
20
7.16598970946484
30
0
41
1
10
96.3563716363751
20
6.91038179338619
30
0
41
1
10
96.0342090613721
20
6.72459945526242
30
0
41
1
10
95.7277207761713
20
6.63398904081012
30
0
41
1
10
95.5358959266384
20
6.61428494795035
30
0
41
1
10
95.4648895501244
20
6.61175127755359
30
0
0
SPLINE
5
19E
100
AcDbEntity
8
1
62
256
6
ByLayer
370
-1
48
1
60
0
100
AcDbSpline
70
4
71
3
72
8
73
4
40
0
40
0
40
0
40
0
40
1
40
1
40
1
40
1
41
1
10
19.2063539916759
20
-5.89117153449382
30
0
41
1
10
19.2034996676876
20
-5.89006474137798
30
0
41
1
10
19.2006459987692
20
-5.88895572089959
30
0
41
1
10
19.1977929904646
20
-5.88784447640521
30
0
0
SPLINE
5
19F
100
AcDbEntity
8
1
62
256
6
ByLayer
370
-1
48
1
60
0
100
AcDbSpline
70
4
71
3
72
8
73
4
40
0
40
0
40
0
40
0
40
1
40
1
40
1
40
1
41
1
10
85.6029331231767
20
2.08569423225316
30
0
41
1
10
85.6519895216431
20
2.0679436156519
30
0
41
1
10
85.7008197657394
20
2.05065860611239
30
0
41
1
10
85.7494248662462
20
2.03383712263724
30
0
0
SPLINE
5
1A0
100
AcDbEntity
8
1
62
256
6
ByLayer
370
-1
48
1
60
0
100
AcDbSpline
70
4
71
3
72
44
73
40
40
0
40
0
40
0
40
0
40
0.0625
40
0.0625
40
0.125
40
0.125
40
0.15625
40
0.15625
40
0.1875
40
0.1875
40
0.21875
40
0.21875
40
0.25
40
0.25
40
0.3125
40
0.3125
40
0.34375
40
0.34375
40
0.375
40
0.375
40
0.5
40
0.5
40
0.53125
40
0.53125
40
0.5625
40
0.5625
40
0.625
40
0.625
40
0.687499999999999
40
0.687499999999999
40
0.749999999999999
40
0.749999999999999
40
0.874999999999999
40
0.874999999999999
40
0.906249999999999
40
0.906249999999999
40
0.937499999999999
40
0.937499999999999
40
1
40
1
40
1
40
1
41
1
10
21.5936584621587
20
7.36779968564102
30
0
41
1
10
22.9242986127644
20
6.93730110603587
30
0
41
1
10
24.2527364556165
20
6.48658378515614
30
0
41
1
10
26.9080665526871
20
5.55092949993966
30
0
41
1
10
28.2350253647164
20
5.06611849406272
30
0
41
1
10
30.2271341434294
20
4.31961379356761
30
0
41
1
10
30.8912600844416
20
4.06713003553065
30
0
41
1
10
32.2201987646295
20
3.55599048863812
30
0
41
1
10
32.8857054137685
20
3.29800079950766
30
0
41
1
10
34.2156586303997
20
2.77694194480489
30
0
41
1
10
34.8799705213017
20
2.51408131016663
30
0
41
1
10
36.2082981488079
20
1.98624094187926
30
0
41
1
10
36.8722547796243
20
1.72111752767125
30
0
41
1
10
38.8637866883882
20
0.922848595428917
30
0
41
1
10
40.1909049663968
20
0.38650607544858
30
0
41
1
10
42.1832272227163
20
-0.41804642216519
30
0
41
1
10
42.8476168652837
20
-0.686216233369692
30
0
41
1
10
44.1773128349291
20
-1.22164917663437
30
0
41
1
10
44.84288217052
20
-1.48902509425005
30
0
41
1
10
48.1667824221963
20
-2.81831279211943
30
0
41
1
10
50.8182513687219
20
-3.85896153118068
30
0
41
1
10
54.1391300726052
20
-5.09277180129033
30
0
41
1
10
54.8035699740094
20
-5.33633438953078
30
0
41
1
10
56.1335118704989
20
-5.81581703410143
30
0
41
1
10
56.7987394500244
20
-6.05160613077661
30
0
41
1
10
58.7920971052453
20
-6.74478503831534
30
0
41
1
10
60.119024606457
20
-7.18892497045238
30
0
41
1
10
62.7740084908988
20
-8.03114821268551
30
0
41
1
10
64.1019079547339
20
-8.42964234828796
30
0
41
1
10
66.7605167612147
20
-9.17778583252164
30
0
41
1
10
68.0925634370466
20
-9.52778656814672
30
0
41
1
10
72.0743424947701
20
-10.4913870794653
30
0
41
1
10
74.7161713209819
20
-11.0195780480274
30
0
41
1
10
78.0210487895999
20
-11.5162371388318
30
0
41
1
10
78.6818137161072
20
-11.6077227646595
30
0
41
1
10
80.0046497932112
20
-11.7735567227191
30
0
41
1
10
80.6662711450207
20
-11.8482984149245
30
0
41
1
10
82.6519416207419
20
-12.0476315112877
30
0
41
1
10
83.9774389867798
20
-12.1468496664827
30
0
41
1
10
85.3065297813351
20
-12.2112187442616
30
0
0
SPLINE
5
1A1
100
AcDbEntity
8
1
62
256
6
ByLayer
370
-1
48
1
60
0
100
AcDbSpline
70
4
71
3
72
26
73
22
40
0
40
0
40
0
40
0
40
0.103817680594243
40
0.103817680594243
40
0.207635361188487
40
0.207635361188487
40
0.31145304178273
40
0.31145304178273
40
0.415270722376974
40
0.415270722376974
40
0.519088402971217
40
0.519088402971217
40
0.62290608356546
40
0.62290608356546
40
0.726723764159704
40
0.726723764159704
40
0.830541444753947
40
0.830541444753947
40
0.934359125348191
40
0.934359125348191
40
1
40
1
40
1
40
1
41
1
10
21.5936584621613
20
2.90048169277665
30
0
41
1
10
21.4639377749629
20
2.73164553031822
30
0
41
1
10
21.3265470288212
20
2.53460199831537
30
0
41
1
10
21.0416774424491
20
2.09163256074257
30
0
41
1
10
20.8942056076153
20
1.8457175484964
30
0
41
1
10
20.5948252473279
20
1.31442750832221
30
0
41
1
10
20.4429240841139
20
1.02906554566221
30
0
41
1
10
20.1405065037619
20
0.429816241489021
30
0
41
1
10
19.9899975235536
20
0.115943636470377
30
0
41
1
10
19.696132676433
20
-0.528299099356104
30
0
41
1
10
19.5527840361253
20
-0.858653387209301
30
0
41
1
10
19.2787340977007
20
-1.52319937890096
30
0
41
1
10
19.1480395389081
20
-1.8573747404954
30
0
41
1
10
18.9043072914028
20
-2.51675570344182
30
0
41
1
10
18.7912755964541
20
-2.84194508956605
30
0
41
1
10
18.5872019166844
20
-3.47089068545958
30
0
41
1
10
18.4961649503601
20
-3.77463142845525
30
0
41
1
10
18.3395708268228
20
-4.34903773425515
30
0
41
1
10
18.2740175205087
20
-4.61968917149372
30
0
41
1
10
18.1898631933093
20
-5.02600482115005
30
0
41
1
10
18.1628618903316
20
-5.17470409833629
30
0
41
1
10
18.1416384552281
20
-5.31361605901137
30
0
0
SPLINE
5
1A2
100
AcDbEntity
8
1
62
256
6
ByLayer
370
-1
48
1
60
0
100
AcDbSpline
70
4
71
3
72
8
73
4
40
0
40
0
40
0
40
0
40
1
40
1
40
1
40
1
41
1
10
88.4949472129256
20
1.85873070999139
30
0
41
1
10
88.5780912027371
20
1.87691909299403
30
0
41
1
10
88.6581113506138
20
1.89629426999394
30
0
41
1
10
88.7348747073631
20
1.91690675036619
30
0
0
SPLINE
5
1A3
100
AcDbEntity
8
1
62
256
6
ByLayer
370
-1
48
1
60
0
100
AcDbSpline
70
4
71
3
72
8
73
4
40
0
40
0
40
0
40
0
40
1
40
1
40
1
40
1
41
1
10
20
20
-7.26809317726801
30
0
41
1
10
19.6143015585161
20
-7.14198535913815
30
0
41
1
10
19.2241680559441
20
-7.04429331159676
30
0
41
1
10
18.8304121818352
20
-6.97644802911543
30
0
0
SPLINE
5
1A4
100
AcDbEntity
8
1
62
256
6
ByLayer
370
-1
48
1
60
0
100
AcDbSpline
70
4
71
3
72
22
73
18
40
0
40
0
40
0
40
0
40
0.125
40
0.125
40
0.25
40
0.25
40
0.3125
40
0.3125
40
0.375
40
0.375
40
0.5
40
0.5
40
0.624999999999999
40
0.624999999999999
40
0.749999999999999
40
0.749999999999999
40
1
40
1
40
1
40
1
41
1
10
8.05508131366551
20
-0.719504675482142
30
0
41
1
10
7.86667852355768
20
-0.463176589792141
30
0
41
1
10
7.70385829835257
20
-0.193914320256795
30
0
41
1
10
7.41621067463902
20
0.363987274970242
30
0
41
1
10
7.2915198464641
20
0.652694622855876
30
0
41
1
10
7.12710365060175
20
1.09741831089227
30
0
41
1
10
7.07598914454141
20
1.24796018527044
30
0
41
1
10
6.98106698400167
20
1.55102041451144
30
0
41
1
10
6.93746347784554
20
1.7028086020768
30
0
41
1
10
6.81658142263313
20
2.15868117947255
30
0
41
1
10
6.74916647941313
20
2.46326451134627
30
0
41
1
10
6.63411616052045
20
3.07265926422753
30
0
41
1
10
6.58651384302601
20
3.37747552580808
30
0
41
1
10
6.50635170755274
20
3.9864817160944
30
0
41
1
10
6.47375941412645
20
4.29123617231443
30
0
41
1
10
6.39328569905067
20
5.19981613816808
30
0
41
1
10
6.36286997352417
20
5.78956019698649
30
0
41
1
10
6.34313219222264
20
6.36382092239623
30
0
0
SPLINE
5
1A5
100
AcDbEntity
8
1
62
256
6
ByLayer
370
-1
48
1
60
0
100
AcDbSpline
70
4
71
3
72
8
73
4
40
0
40
0
40
0
40
0
40
1
40
1
40
1
40
1
41
1
10
80.2647700018156
20
12.0335242893337
30
0
41
1
10
80.5457620453092
20
12.0505594324896
30
0
41
1
10
80.8163152247008
20
12.0712561050233
30
0
41
1
10
81.0770273492449
20
12.0938306643307
30
0
0
SPLINE
5
1A6
100
AcDbEntity
8
1
62
256
6
ByLayer
370
-1
48
1
60
0
100
AcDbSpline
70
4
71
3
72
14
73
10
40
0
40
0
40
0
40
0
40
0.25
40
0.25
40
0.5
40
0.5
40
0.75
40
0.75
40
1
40
1
40
1
40
1
41
1
10
90.4550008446244
20
12.2978597109064
30
0
41
1
10
90.4591968859905
20
12.296970414458
30
0
41
1
10
90.468939012127
20
12.2958316542264
30
0
41
1
10
90.4991070053516
20
12.2931492259939
30
0
41
1
10
90.5198333804195
20
12.2915907553174
30
0
41
1
10
90.5701243537509
20
12.2883663436975
30
0
41
1
10
90.6001199942048
20
12.2866696963681
30
0
41
1
10
90.6683643953778
20
12.2833894667371
30
0
41
1
10
90.705978252181
20
12.2818332131211
30
0
41
1
10
90.7471317975737
20
12.2804570822995
30
0
0
SPLINE
5
1A7
100
AcDbEntity
8
1
62
256
6
ByLayer
370
-1
48
1
60
0
100
AcDbSpline
70
4
71
3
72
24
73
20
40
0
40
0
40
0
40
0
40
0.125000000000007
40
0.125000000000007
40
0.187500000000011
40
0.187500000000011
40
0.250000000000015
40
0.250000000000015
40
0.375000000000013
40
0.375000000000013
40
0.50000000000001
40
0.50000000000001
40
0.625000000000008
40
0.625000000000008
40
0.750000000000005
40
0.750000000000005
40
0.875000000000003
40
0.875000000000003
40
1
40
1
40
1
40
1
41
1
10
90.7455573907462
20
3.60538196240014
30
0
41
1
10
90.7506254881003
20
3.60538196240014
30
0
41
1
10
90.7476276294906
20
3.61135574038946
30
0
41
1
10
90.7335394733735
20
3.62822956933454
30
0
41
1
10
90.7271867539064
20
3.63524865988049
30
0
41
1
10
90.7121460514134
20
3.65144706945969
30
0
41
1
10
90.7034439380866
20
3.66064932270419
30
0
41
1
10
90.6745870579835
20
3.69135804598463
30
0
41
1
10
90.6515467649006
20
3.71615274058777
30
0
41
1
10
90.6027771991135
20
3.77186699421048
30
0
41
1
10
90.5768681453889
20
3.80294102802165
30
0
41
1
10
90.5236648414353
20
3.87184750627179
30
0
41
1
10
90.4962170272133
20
3.90993981643393
30
0
41
1
10
90.4428111005715
20
3.99099135394297
30
0
41
1
10
90.416626113379
20
4.03419863451853
30
0
41
1
10
90.3660000310513
20
4.12672466579789
30
0
41
1
10
90.341437618055
20
4.17642146242409
30
0
41
1
10
90.2966049762783
20
4.27857347736233
30
0
41
1
10
90.2760702068981
20
4.33144381039497
30
0
41
1
10
90.2575577886456
20
4.38631904398039
30
0
0
SPLINE
5
1A8
100
AcDbEntity
8
1
62
256
6
ByLayer
370
-1
48
1
60
0
100
AcDbSpline
70
4
71
3
72
14
73
10
40
0
40
0
40
0
40
0
40
0.2519525351786
40
0.2519525351786
40
0.625976267589299
40
0.625976267589299
40
0.81298813379465
40
0.81298813379465
40
1
40
1
40
1
40
1
41
1
10
51.8111384701289
20
12.2999665289856
30
0
41
1
10
53.1485298112101
20
12.29991196883
30
0
41
1
10
54.4848396326239
20
12.2642451996811
30
0
41
1
10
57.8067230149537
20
12.0880874171417
30
0
41
1
10
59.7932261111044
20
11.9054467961157
30
0
41
1
10
62.7820570308467
20
11.5185131601371
30
0
41
1
10
63.7797994605608
20
11.3706490588794
30
0
41
1
10
65.7796536308985
20
11.0379924402602
30
0
41
1
10
66.782601422866
20
10.8529994514329
30
0
41
1
10
67.7838316990424
20
10.6511408602696
30
0
0
SPLINE
5
1A9
100
AcDbEntity
8
1
62
256
6
ByLayer
370
-1
48
1
60
0
100
AcDbSpline
70
4
71
3
72
10
73
6
40
0
40
0
40
0
40
0
40
0.5
40
0.5
40
1
40
1
40
1
40
1
41
1
10
69.4783401962103
20
10.0533791675867
30
0
41
1
10
69.199388369119
20
10.1472590992559
30
0
41
1
10
68.9185593934737
20
10.2441982370156
30
0
41
1
10
68.3534684278143
20
10.4436713273113
30
0
41
1
10
68.0688692882655
20
10.5463316619305
30
0
41
1
10
67.7838316990423
20
10.6511408602695
30
0
0
SPLINE
5
1AA
100
AcDbEntity
8
1
62
256
6
ByLayer
370
-1
48
1
60
0
100
AcDbSpline
70
4
71
3
72
8
73
4
40
0
40
0
40
0
40
0
40
1
40
1
40
1
40
1
41
1
10
86.4427701317102
20
4.02243273968432
30
0
41
1
10
86.5127439308089
20
3.9864606209332
30
0
41
1
10
86.584986047897
20
3.95427462586059
30
0
41
1
10
86.6591609396332
20
3.92517905489797
30
0
0
SPLINE
5
1AB
100
AcDbEntity
8
1
62
256
6
ByLayer
370
-1
48
1
60
0
100
AcDbSpline
70
4
71
3
72
88
73
84
40
-0.0312500000000031
40
-0.0312500000000031
40
0
40
0
40
0.0312499999999967
40
0.0312499999999967
40
0.0468749999999948
40
0.0468749999999948
40
0.0624999999999929
40
0.0624999999999929
40
0.0937499999999903
40
0.0937499999999903
40
0.124999999999988
40
0.124999999999988
40
0.156249999999985
40
0.156249999999985
40
0.171874999999984
40
0.171874999999984
40
0.187499999999983
40
0.203124999999981
40
0.203124999999981
40
0.21874999999998
40
0.21874999999998
40
0.249999999999978
40
0.249999999999978
40
0.281249999999975
40
0.281249999999975
40
0.312499999999973
40
0.312499999999973
40
0.328124999999973
40
0.328124999999973
40
0.343749999999974
40
0.343749999999974
40
0.374999999999975
40
0.374999999999975
40
0.406249999999976
40
0.406249999999976
40
0.437499999999978
40
0.437499999999978
40
0.468749999999979
40
0.468749999999979
40
0.48437499999998
40
0.48437499999998
40
0.49999999999998
40
0.49999999999998
40
0.531249999999981
40
0.531249999999981
40
0.562499999999982
40
0.562499999999982
40
0.578124999999982
40
0.578124999999982
40
0.593749999999981
40
0.593749999999981
40
0.624999999999981
40
0.624999999999981
40
0.656249999999981
40
0.656249999999981
40
0.687499999999981
40
0.687499999999981
40
0.718749999999981
40
0.718749999999981
40
0.749999999999981
40
0.749999999999981
40
0.765624999999983
40
0.765624999999983
40
0.781249999999985
40
0.796874999999987
40
0.796874999999987
40
0.812499999999989
40
0.812499999999989
40
0.843749999999993
40
0.843749999999993
40
0.859374999999993
40
0.859374999999993
40
0.874999999999993
40
0.874999999999993
40
0.906249999999994
40
0.906249999999994
40
0.937499999999995
40
0.937499999999995
40
0.953124999999996
40
0.953124999999996
40
0.968749999999997
40
0.968749999999997
40
1
40
1
40
1.03125
40
1.03125
41
1
10
93.6931790003154
20
-2.45515653135524
30
0
41
1
10
93.6822896918424
20
-2.24448000220338
30
0
41
1
10
93.6869526037201
20
-2.14004323537276
30
0
41
1
10
93.7087981335147
20
-1.9847281668888
30
0
41
1
10
93.7185723017587
20
-1.9331817350897
30
0
41
1
10
93.7432643393409
20
-1.8305611162487
30
0
41
1
10
93.7582752098269
20
-1.77928576325223
30
0
41
1
10
93.810248351743
20
-1.6294203851198
30
0
41
1
10
93.8542240641593
20
-1.533836556213
30
0
41
1
10
93.9608811108096
20
-1.35142774119666
30
0
41
1
10
94.0243253083912
20
-1.26400501040791
30
0
41
1
10
94.1652107078163
20
-1.10579268481388
30
0
41
1
10
94.2429992009157
20
-1.0340681863413
30
0
41
1
10
94.3709676773133
20
-0.937879551919337
30
0
41
1
10
94.4156453161967
20
-0.907690666271805
30
0
41
1
10
94.5068125355716
20
-0.852544722823552
30
0
41
1
10
94.6002486879148
20
-0.802249420876564
30
0
41
1
10
94.6981457194776
20
-0.761502197086344
30
0
41
1
10
94.7983012917186
20
-0.725594063796848
30
0
41
1
10
94.8497766832899
20
-0.709996859779807
30
0
41
1
10
95.005727378379
20
-0.671258636389382
30
0
41
1
10
95.1107506148475
20
-0.656198723458544
30
0
41
1
10
95.3228512458618
20
-0.647031048535695
30
0
41
1
10
95.4310463302992
20
-0.653231161468767
30
0
41
1
10
95.6410807706221
20
-0.68670214485897
30
0
41
1
10
95.7435802704547
20
-0.713719105732565
30
0
41
1
10
95.8935102164949
20
-0.76982323963685
30
0
41
1
10
95.9430389403752
20
-0.791261986103819
30
0
41
1
10
96.0386852833673
20
-0.838515439654117
30
0
41
1
10
96.0850362032804
20
-0.864394076961588
30
0
41
1
10
96.2197641568608
20
-0.94863520639683
30
0
41
1
10
96.3042145597658
20
-1.01387933420537
30
0
41
1
10
96.4596169366865
20
-1.16116055763501
30
0
41
1
10
96.5287462168612
20
-1.2413331711017
30
0
41
1
10
96.6505396789334
20
-1.41414065372513
30
0
41
1
10
96.7035780177062
20
-1.50788527915222
30
0
41
1
10
96.7890865618038
20
-1.70115615239339
30
0
41
1
10
96.8220219842067
20
-1.80092455167298
30
0
41
1
10
96.8568932177338
20
-1.95515896409319
30
0
41
1
10
96.8660982030757
20
-2.00760798070905
30
0
41
1
10
96.8792691891467
20
-2.11215095114088
30
0
41
1
10
96.8832900044281
20
-2.16436055907835
30
0
41
1
10
96.887903499188
20
-2.32080368128817
30
0
41
1
10
96.8811161076089
20
-2.42485149229998
30
0
41
1
10
96.8474251311942
20
-2.63245160531162
30
0
41
1
10
96.8209944744865
20
-2.73300009273908
30
0
41
1
10
96.7677414675292
20
-2.87880571715587
30
0
41
1
10
96.7477014444484
20
-2.92659040651347
30
0
41
1
10
96.702956218681
20
-3.02050962384587
30
0
41
1
10
96.6781060953497
20
-3.06686109930377
30
0
41
1
10
96.5977366596965
20
-3.20095111152418
30
0
41
1
10
96.5363474765517
20
-3.28424541020951
30
0
41
1
10
96.3979280418985
20
-3.43882250845783
30
0
41
1
10
96.3198805706448
20
-3.5107654518053
30
0
41
1
10
96.1528347769685
20
-3.63676267170024
30
0
41
1
10
96.063783120412
20
-3.6912618478415
30
0
41
1
10
95.8741647451901
20
-3.7827921433917
30
0
41
1
10
95.7728836663127
20
-3.81974092571053
30
0
41
1
10
95.5680005936548
20
-3.87165949005458
30
0
41
1
10
95.4633097415816
20
-3.88730582663089
30
0
41
1
10
95.3027251928851
20
-3.8945712868983
30
0
41
1
10
95.2488770749793
20
-3.89422346867133
30
0
41
1
10
95.1426262834946
20
-3.88811566199806
30
0
41
1
10
95.0372119362354
20
-3.87663186179219
30
0
41
1
10
94.9334419166634
20
-3.85456418568725
30
0
41
1
10
94.8305032244883
20
-3.82713067412036
30
0
41
1
10
94.7793595570823
20
-3.81066035268734
30
0
41
1
10
94.6306615164726
20
-3.75436313961421
30
0
41
1
10
94.5365996735172
20
-3.70745892396599
30
0
41
1
10
94.4028144110284
20
-3.62343549619644
30
0
41
1
10
94.359263261584
20
-3.59296918965876
30
0
41
1
10
94.2762239069371
20
-3.52858487284843
30
0
41
1
10
94.2365784856528
20
-3.49459673259241
30
0
41
1
10
94.1230513785306
20
-3.38740595857465
30
0
41
1
10
94.054287021689
20
-3.30868968492436
30
0
41
1
10
93.9322865802933
20
-3.13844222273593
30
0
41
1
10
93.8803118007504
20
-3.04881209222475
30
0
41
1
10
93.815288563348
20
-2.90778486091281
30
0
41
1
10
93.7957872798395
20
-2.85967085649852
30
0
41
1
10
93.7612275069827
20
-2.7611678347551
30
0
41
1
10
93.746179360096
20
-2.71071375259001
30
0
41
1
10
93.7085858840145
20
-2.55854658976821
30
0
41
1
10
93.6931790003154
20
-2.45515653135524
30
0
41
1
10
93.6822896918424
20
-2.24448000220338
30
0
0
SPLINE
5
1AC
100
AcDbEntity
8
1
62
256
6
ByLayer
370
-1
48
1
60
0
100
AcDbSpline
70
4
71
3
72
10
73
6
40
0
40
0
40
0
40
0
40
0.5
40
0.5
40
1
40
1
40
1
40
1
41
1
10
16.8550813136657
20
-4.33030637373662
30
0
41
1
10
17.1374068578498
20
-4.59340032928023
30
0
41
1
10
17.4447558479487
20
-4.83658156251133
30
0
41
1
10
18.1039538341474
20
-5.29535265408737
30
0
41
1
10
18.4557315819094
20
-5.51095866349803
30
0
41
1
10
18.8304121819026
20
-5.71370848231345
30
0
0
SPLINE
5
1AD
100
AcDbEntity
8
1
62
256
6
ByLayer
370
-1
48
1
60
0
100
AcDbSpline
70
4
71
3
72
8
73
4
40
0
40
0
40
0
40
0
40
1
40
1
40
1
40
1
41
1
10
69.4783401962104
20
10.0533791675867
30
0
41
1
10
69.4923311341372
20
10.0454477891784
30
0
41
1
10
69.5063270026988
20
10.0375170891753
30
0
41
1
10
69.520327796881
20
10.0295870668876
30
0
0
SPLINE
5
1AE
100
AcDbEntity
8
1
62
256
6
ByLayer
370
-1
48
1
60
0
100
AcDbSpline
70
4
71
3
72
28
73
24
40
0
40
0
40
0
40
0
40
0.25
40
0.25
40
0.375
40
0.375
40
0.4375
40
0.4375
40
0.5
40
0.5
40
0.625
40
0.625
40
0.6875
40
0.6875
40
0.75
40
0.75
40
0.875
40
0.875
40
0.9375
40
0.9375
40
0.96875
40
0.96875
40
1
40
1
40
1
40
1
41
1
10
8.05508131366545
20
-0.719504675482085
30
0
41
1
10
8.73264988896386
20
-1.39749321987998
30
0
41
1
10
9.42097217138436
20
-2.03112971305563
30
0
41
1
10
10.4780911992929
20
-2.90955904021192
30
0
41
1
10
10.8345978190513
20
-3.19029076407739
30
0
41
1
10
11.3769635735987
20
-3.59185355177939
30
0
41
1
10
11.559022681175
20
-3.72244655871958
30
0
41
1
10
11.9259572514548
20
-3.97680085361543
30
0
41
1
10
12.1112059290228
20
-4.10079698058303
30
0
41
1
10
12.6682828584837
20
-4.45986127068625
30
0
41
1
10
13.0414155782803
20
-4.68211165398409
30
0
41
1
10
13.6051606031038
20
-4.98872012346854
30
0
41
1
10
13.7937511923785
20
-5.08645526985938
30
0
41
1
10
14.1725415260725
20
-5.27272672554412
30
0
41
1
10
14.3629926869872
20
-5.3613710340035
30
0
41
1
10
14.9352491063929
20
-5.61218699421451
30
0
41
1
10
15.3172284238539
20
-5.75901649045829
30
0
41
1
10
15.8923903473398
20
-5.94764903902004
30
0
41
1
10
16.0844770174183
20
-6.00525028334366
30
0
41
1
10
16.3733503553406
20
-6.08353299786464
30
0
41
1
10
16.4697765595765
20
-6.10818387379464
30
0
41
1
10
16.6624940722437
20
-6.16396039323644
30
0
41
1
10
16.7588191993077
20
-6.19408855397222
30
0
41
1
10
16.8550813136656
20
-6.22629838157022
30
0
0
SPLINE
5
1AF
100
AcDbEntity
8
1
62
256
6
ByLayer
370
-1
48
1
60
0
100
AcDbSpline
70
4
71
3
72
8
73
4
40
0
40
0
40
0
40
0
40
1
40
1
40
1
40
1
41
1
10
20
20
7.98569840929957
30
0
41
1
10
20.5347993239711
20
7.79051812703236
30
0
41
1
10
21.0657609611224
20
7.58442551927092
30
0
41
1
10
21.5936584621584
20
7.36779968564113
30
0
0
SPLINE
5
1B0
100
AcDbEntity
8
1
62
256
6
ByLayer
370
-1
48
1
60
0
100
AcDbSpline
70
4
71
3
72
10
73
6
40
0
40
0
40
0
40
0
40
0.5
40
0.5
40
1
40
1
40
1
40
1
41
1
10
8.05508131366545
20
2.0087153352452
30
0
41
1
10
8.34335201844388
20
1.70073803912234
30
0
41
1
10
8.64183706666569
20
1.40878058335099
30
0
41
1
10
9.25860774095858
20
0.855052937305658
30
0
41
1
10
9.57688917498064
20
0.593284137857665
30
0
41
1
10
9.90634153783648
20
0.347927389418913
30
0
0
SPLINE
5
1B1
100
AcDbEntity
8
1
62
256
6
ByLayer
370
-1
48
1
60
0
100
AcDbSpline
70
4
71
3
72
8
73
4
40
0
40
0
40
0
40
0
40
1
40
1
40
1
40
1
41
1
10
19.1977930038691
20
-5.88784443381536
30
0
41
1
10
19.0754840732999
20
-5.82956618238666
30
0
41
1
10
18.9530206914497
20
-5.77152435079171
30
0
41
1
10
18.8304121818353
20
-5.71370848227724
30
0
0
SPLINE
5
1B2
100
AcDbEntity
8
1
62
256
6
ByLayer
370
-1
48
1
60
0
100
AcDbSpline
70
4
71
3
72
26
73
22
40
0
40
0
40
0
40
0
40
0.0625000000000015
40
0.0625000000000015
40
0.125000000000003
40
0.125000000000003
40
0.187500000000005
40
0.187500000000005
40
0.250000000000006
40
0.250000000000006
40
0.312500000000008
40
0.312500000000008
40
0.375000000000009
40
0.375000000000009
40
0.500000000000004
40
0.500000000000004
40
0.624999999999999
40
0.624999999999999
40
0.749999999999994
40
0.749999999999994
40
1
40
1
40
1
40
1
41
1
10
85.9823419656435
20
5.10688578358497
30
0
41
1
10
85.9471718390851
20
5.09442313042271
30
0
41
1
10
85.9130693528933
20
5.07993769557038
30
0
41
1
10
85.8479336616288
20
5.0451515802221
30
0
41
1
10
85.8164488660821
20
5.0245530535575
30
0
41
1
10
85.7604666493267
20
4.9755060434002
30
0
41
1
10
85.7362498267143
20
4.94695569548833
30
0
41
1
10
85.7014242346064
20
4.8849729657488
30
0
41
1
10
85.6907347807127
20
4.85125331700121
30
0
41
1
10
85.6827664052977
20
4.78469719342218
30
0
41
1
10
85.6851841272863
20
4.75145083773248
30
0
41
1
10
85.6982846438847
20
4.68868524959208
30
0
41
1
10
85.7090054371611
20
4.6584170847469
30
0
41
1
10
85.7489080806066
20
4.57185616821869
30
0
41
1
10
85.7849526931365
20
4.52028648996566
30
0
41
1
10
85.8667102114957
20
4.42345731310712
30
0
41
1
10
85.9122887270327
20
4.37889727568867
30
0
41
1
10
86.0078440296605
20
4.29595138735286
30
0
41
1
10
86.0581556445927
20
4.25732055693743
30
0
41
1
10
86.2146129750111
20
4.14752306976177
30
0
41
1
10
86.3262011782746
20
4.08235848745966
30
0
41
1
10
86.4427701317103
20
4.02243273968421
30
0
0
SPLINE
5
1B3
100
AcDbEntity
8
1
62
256
6
ByLayer
370
-1
48
1
60
0
100
AcDbSpline
70
4
71
3
72
10
73
6
40
0
40
0
40
0
40
0
40
0.5
40
0.5
40
1
40
1
40
1
40
1
41
1
10
9.9063415378414
20
0.347927389415332
30
0
41
1
10
11.0851582413242
20
-0.40173790323027
30
0
41
1
10
12.2542744318137
20
-1.16477852996073
30
0
41
1
10
14.5609380885587
20
-2.71716584309786
30
0
41
1
10
15.698394772021
20
-3.50626525725224
30
0
41
1
10
16.8176587802668
20
-4.30360167638301
30
0
0
SPLINE
5
1B4
100
AcDbEntity
8
1
62
256
6
ByLayer
370
-1
48
1
60
0
100
AcDbSpline
70
4
71
3
72
10
73
6
40
0
40
0
40
0
40
0
40
0.5
40
0.5
40
1
40
1
40
1
40
1
41
1
10
86.6591609396332
20
3.92517905489797
30
0
41
1
10
86.9016813399069
20
3.83004889223946
30
0
41
1
10
87.1516682776941
20
3.75171953178167
30
0
41
1
10
87.6691726229907
20
3.62969661925445
30
0
41
1
10
87.936702660866
20
3.58598865788801
30
0
41
1
10
88.2144071728149
20
3.56166685617907
30
0
0
SPLINE
5
1B5
100
AcDbEntity
8
1
62
256
6
ByLayer
370
-1
48
1
60
0
100
AcDbSpline
70
4
71
4
72
16
73
11
40
0
40
0
40
0
40
0
40
0
40
0.531431797020565
40
0.531431797020565
40
0.531431797020565
40
0.797147695530849
40
0.797147695530849
40
0.797147695530849
40
1
40
1
40
1
40
1
40
1
41
1
10
21.5936584621613
20
2.90048169277665
30
0
41
1
10
21.5936584621613
20
2.15370856214227
30
0
41
0.974581796258695
10
21.5029332447557
20
0.934674677028561
30
0
41
0.974581796258695
10
21.2683372080377
20
-0.635662513420233
30
0
41
0.987290898129347
10
20.8432862104305
20
-2.8309445312981
30
0
41
0.993645449064674
10
20.6923619287353
20
-3.52247432880878
30
0
41
1
10
20.5406739988383
20
-4.13921850201646
30
0
41
1
10
20.2926069346926
20
-5.05126362489287
30
0
41
0.99629652279138
10
20.1790593796846
20
-5.43441178095533
30
0
41
0.991716869602743
10
20.0642983863398
20
-5.7795144587795
30
0
41
0.987649399863409
10
19.9527396922704
20
-6.07000345152858
30
0
0
SPLINE
5
1B6
100
AcDbEntity
8
1
62
256
6
ByLayer
370
-1
48
1
60
0
100
AcDbSpline
70
4
71
3
72
14
73
10
40
0
40
0
40
0
40
0
40
0.132030479736045
40
0.132030479736045
40
0.421353653157363
40
0.421353653157363
40
0.710676826578682
40
0.710676826578682
40
1
40
1
40
1
40
1
41
1
10
98.5227328532768
20
3.86866967108617
30
0
41
1
10
98.5218693445877
20
3.8529691769636
30
0
41
1
10
98.520869667082
20
3.83809546181709
30
0
41
1
10
98.5173735134066
20
3.79322697683293
30
0
41
1
10
98.514454036834
20
3.76629533434937
30
0
41
1
10
98.5082039131739
20
3.72323981492153
30
0
41
1
10
98.504809639738
20
3.70656963730579
30
0
41
1
10
98.497807009474
20
3.68414610108371
30
0
41
1
10
98.4942590544455
20
3.67848760761112
30
0
41
1
10
98.490719442385
20
3.67845307618086
30
0
0
SPLINE
5
1B7
100
AcDbEntity
8
1
62
256
6
ByLayer
370
-1
48
1
60
0
100
AcDbSpline
70
4
71
3
72
16
73
12
40
0
40
0
40
0
40
0
40
0.249999999999997
40
0.249999999999997
40
0.374999999999996
40
0.374999999999996
40
0.437499999999996
40
0.437499999999996
40
0.499999999999996
40
0.499999999999996
40
1
40
1
40
1
40
1
41
1
10
20
20
7.98569840929957
30
0
41
1
10
19.3373133088798
20
8.2275524461879
30
0
41
1
10
18.6800596364592
20
8.49897004664379
30
0
41
1
10
17.7117237796401
20
8.96806786584847
30
0
41
1
10
17.3918957577969
20
9.13483758922604
30
0
41
1
10
16.9180534581013
20
9.40361934079036
30
0
41
1
10
16.7610917172838
20
9.4963242355177
30
0
41
1
10
16.449420396944
20
9.68855425728006
30
0
41
1
10
16.2950864281764
20
9.78899420869692
30
0
41
1
10
14.897754813233
20
10.6728997457678
30
0
41
1
10
13.6217673516053
20
11.390701735168
30
0
41
1
10
12.2936584621592
20
12.0101496497249
30
0
0
SPLINE
5
1B8
100
AcDbEntity
8
1
62
256
6
ByLayer
370
-1
48
1
60
0
100
AcDbSpline
70
4
71
3
72
16
73
12
40
0
40
0
40
0
40
0
40
0.250000000000003
40
0.250000000000003
40
0.500000000000006
40
0.500000000000006
40
0.625000000000002
40
0.625000000000002
40
0.749999999999997
40
0.749999999999997
40
1
40
1
40
1
40
1
41
1
10
88.4949472129256
20
1.85873070999139
30
0
41
1
10
88.2824629324759
20
1.81224815023427
30
0
41
1
10
88.0624043135654
20
1.7799012617169
30
0
41
1
10
87.6126015653979
20
1.74502177691824
30
0
41
1
10
87.3827800920557
20
1.7424746143146
30
0
41
1
10
87.0327644501639
20
1.76279149266856
30
0
41
1
10
86.9148439890417
20
1.77364427317974
30
0
41
1
10
86.6792496082489
20
1.80358876866867
30
0
41
1
10
86.56182617451
20
1.82261981940022
30
0
41
1
10
86.2109622949876
20
1.89194129179151
30
0
41
1
10
85.9789314225731
20
1.95440840621782
30
0
41
1
10
85.7494248662461
20
2.03383712263732
30
0
0
SPLINE
5
1B9
100
AcDbEntity
8
1
62
256
6
ByLayer
370
-1
48
1
60
0
100
AcDbSpline
70
4
71
3
72
12
73
8
40
0
40
0
40
0
40
0
40
0.499999999999999
40
0.499999999999999
40
0.749999999999999
40
0.749999999999999
40
1
40
1
40
1
40
1
41
1
10
16.8550813136657
20
-6.22629838157022
30
0
41
1
10
17.1360045661184
20
-6.40087649294213
30
0
41
1
10
17.4422289678821
20
-6.54170843537904
30
0
41
1
10
17.936970659476
20
-6.72373668689968
30
0
41
1
10
18.1078231559452
20
-6.7794275054907
30
0
41
1
10
18.4614418088563
20
-6.88334980329572
30
0
41
1
10
18.6441629897751
20
-6.93152606650307
30
0
41
1
10
18.8304121819026
20
-6.97644802913126
30
0
0
SPLINE
5
1BA
100
AcDbEntity
8
1
62
256
6
ByLayer
370
-1
48
1
60
0
100
AcDbSpline
70
4
71
3
72
18
73
14
40
0
40
0
40
0
40
0
40
0.25
40
0.25
40
0.5
40
0.5
40
0.625
40
0.625
40
0.75
40
0.75
40
0.875
40
0.875
40
1
40
1
40
1
40
1
41
1
10
8.05508131366551
20
2.00871533524511
30
0
41
1
10
7.81472642451138
20
2.33484791345208
30
0
41
1
10
7.60381161236052
20
2.67576556280335
30
0
41
1
10
7.22866162188592
20
3.37961243008596
30
0
41
1
10
7.06454368128144
20
3.74263882643055
30
0
41
1
10
6.85006664759004
20
4.30035867482215
30
0
41
1
10
6.78374333331809
20
4.48902386095486
30
0
41
1
10
6.66291124324795
20
4.86663019758365
30
0
41
1
10
6.60830752568944
20
5.05570572534356
30
0
41
1
10
6.5108790247096
20
5.4333043140191
30
0
41
1
10
6.46803947348403
20
5.62183425199413
30
0
41
1
10
6.39514672460172
20
5.99685797578874
30
0
41
1
10
6.36512655900432
20
6.18366875746779
30
0
41
1
10
6.34313219222233
20
6.36382092240521
30
0
0
SPLINE
5
1BB
100
AcDbEntity
8
1
62
256
6
ByLayer
370
-1
48
1
60
0
100
AcDbSpline
70
4
71
4
72
10
73
5
40
0
40
0
40
0
40
0
40
0
40
1
40
1
40
1
40
1
40
1
41
0.998082898318577
10
80.231245064319
20
7.12927386037864
30
0
41
0.998793163299335
10
80.2482797782781
20
7.41835633944094
30
0
41
0.999493521970801
10
80.2594244514945
20
7.70874749498154
30
0
41
1
10
80.2647700018156
20
7.99711743830176
30
0
41
1
10
80.2647700018156
20
8.27999999999986
30
0
0
SPLINE
5
1BC
100
AcDbEntity
8
1
62
256
6
ByLayer
370
-1
48
1
60
0
100
AcDbSpline
70
4
71
3
72
11
73
7
40
0
40
0
40
0
40
0
40
0.406158008962007
40
0.60923701344301
40
0.812316017924014
40
1
40
1
40
1
40
1
41
1
10
80.2647700018157
20
8.27999999999989
30
0
41
1
10
79.9608233275667
20
8.25457536038383
30
0
41
1
10
79.5050536861991
20
8.21424298795682
30
0
41
1
10
78.8974890994992
20
8.15651094252834
30
0
41
1
10
78.4531944847279
20
8.11249500725859
30
0
41
1
10
78.1607527566014
20
8.08245325358615
30
0
41
1
10
78.0202741822958
20
8.06777945479124
30
0
0
SPLINE
5
1BD
100
AcDbEntity
8
1
62
256
6
ByLayer
370
-1
48
1
60
0
100
AcDbSpline
70
4
71
3
72
29
73
25
40
0
40
0
40
0
40
0
40
0.124999999999997
40
0.124999999999997
40
0.187499999999998
40
0.187499999999998
40
0.249999999999998
40
0.249999999999998
40
0.312499999999999
40
0.312499999999999
40
0.374999999999999
40
0.374999999999999
40
0.5
40
0.5
40
0.5625
40
0.5625
40
0.625
40
0.6875
40
0.6875
40
0.75
40
0.75
40
0.875
40
0.875
40
1
40
1
40
1
40
1
41
1
10
90.0711721505777
20
2.34495785346849
30
0
41
1
10
90.2186556131553
20
2.39930300608231
30
0
41
1
10
90.3444289210801
20
2.45625518179978
30
0
41
1
10
90.4997523956764
20
2.5456865947755
30
0
41
1
10
90.5455929379738
20
2.57603807170784
30
0
41
1
10
90.6237628295621
20
2.6365627091981
30
0
41
1
10
90.6564121261885
20
2.66691312967032
30
0
41
1
10
90.7089359852739
20
2.72778885214024
30
0
41
1
10
90.7288115254235
20
2.75831414075367
30
0
41
1
10
90.7553846611457
20
2.81954511931175
30
0
41
1
10
90.7619126329227
20
2.85004733005184
30
0
41
1
10
90.7613374261991
20
2.93957131537408
30
0
41
1
10
90.7346528534085
20
2.99729839348276
30
0
41
1
10
90.6542248733597
20
3.08088504619471
30
0
41
1
10
90.6208031496639
20
3.10797529260552
30
0
41
1
10
90.542066824338
20
3.1598805486654
30
0
41
1
10
90.4512024061259
20
3.20976172727288
30
0
41
1
10
90.3362683619663
20
3.25562588625289
30
0
41
1
10
90.2089293508408
20
3.2994197598081
30
0
41
1
10
90.1397942463748
20
3.32000675086678
30
0
41
1
10
89.9186269502973
20
3.37735207961248
30
0
41
1
10
89.7521841853721
20
3.41003258076674
30
0
41
1
10
89.3804917730805
20
3.46405721197755
30
0
41
1
10
89.1815147941441
20
3.4844510938459
30
0
41
1
10
88.9715746552579
20
3.49842857425477
30
0
0
SPLINE
5
1BE
100
AcDbEntity
8
1
62
256
6
ByLayer
370
-1
48
1
60
0
100
AcDbSpline
70
4
71
3
72
18
73
14
40
0
40
0
40
0
40
0
40
0.499999999999989
40
0.499999999999989
40
0.624999999999994
40
0.624999999999994
40
0.75
40
0.75
40
0.875000000000005
40
0.875000000000005
40
0.937500000000003
40
0.937500000000003
40
1
40
1
40
1
40
1
41
1
10
74.5143159669223
20
8.35794046748759
30
0
41
1
10
75.1047854828132
20
8.39098500410353
30
0
41
1
10
75.6931533480941
20
8.38963940281448
30
0
41
1
10
76.4272811993901
20
8.34480163662482
30
0
41
1
10
76.5740376207519
20
8.33377055851719
30
0
41
1
10
76.8674083641415
20
8.3071117712189
30
0
41
1
10
77.0140658631692
20
8.29142661095969
30
0
41
1
10
77.3069483979686
20
8.2519210369594
30
0
41
1
10
77.4525659375613
20
8.22836784795697
30
0
41
1
10
77.6684060323818
20
8.18131649022993
30
0
41
1
10
77.7399198012793
20
8.1636713869726
30
0
41
1
10
77.8815163873464
20
8.12200152043192
30
0
41
1
10
77.9516592204073
20
8.09823244324409
30
0
41
1
10
78.0202741822953
20
8.06777945479118
30
0
0
SPLINE
5
1BF
100
AcDbEntity
8
1
62
256
6
ByLayer
370
-1
48
1
60
0
100
AcDbSpline
70
4
71
3
72
38
73
34
40
0
40
0
40
0
40
0
40
0.0271603784650791
40
0.0812070241059072
40
0.135253669746737
40
0.189300315387566
40
0.243346961028395
40
0.297393606669224
40
0.324416929489638
40
0.351440252310053
40
0.364951913720259
40
0.378463575130467
40
0.391975236540673
40
0.405486897950882
40
0.412242728655984
40
0.432510220771296
40
0.446021882181503
40
0.459533543591711
40
0.486556866412125
40
0.500068527822332
40
0.51358018923254
40
0.540603512052953
40
0.554115173463161
40
0.567626834873369
40
0.621673480514198
40
0.675720126155026
40
0.729766771795855
40
0.783813417436684
40
0.837860063077513
40
0.864883385897928
40
0.891906708718342
40
0.945953354359171
40
1
40
1
40
1
40
1
41
1
10
40.2831298645901
20
0.349040114838488
30
0
41
1
10
40.1139062895815
20
0.374285222016368
30
0
41
1
10
39.6079604299725
20
0.449714086077734
30
0
41
1
10
38.7653827173559
20
0.575017142571113
30
0
41
1
10
37.7555215554025
20
0.724329207042786
30
0
41
1
10
36.7457216677455
20
0.872782431242285
30
0
41
1
10
35.7356419213583
20
1.02054052474648
30
0
41
1
10
34.8936469144241
20
1.14325565947183
30
0
41
1
10
34.2203582357731
20
1.24092516130634
30
0
41
1
10
33.7998734061184
20
1.30150905800363
30
0
41
1
10
33.4636389671323
20
1.3496180325179
30
0
41
1
10
33.2114123862473
20
1.38554622391317
30
0
41
1
10
32.9588963761028
20
1.42139558506994
30
0
41
1
10
32.7480999427423
20
1.45129599176255
30
0
41
1
10
32.4949348698343
20
1.48721726585265
30
0
41
1
10
32.2419949862641
20
1.52308344231986
30
0
41
1
10
31.9472140003162
20
1.56477345504356
30
0
41
1
10
31.6106544883871
20
1.61218276365213
30
0
41
1
10
31.2743003021287
20
1.65928158501188
30
0
41
1
10
30.938008688594
20
1.70606395359087
30
0
41
1
10
30.6017909831289
20
1.75257536791924
30
0
41
1
10
30.2654110166416
20
1.79878910684417
30
0
41
1
10
29.9287113241843
20
1.84479861018178
30
0
41
1
10
29.4232616232713
20
1.91355610157282
30
0
41
1
10
28.6649541517666
20
2.01589589452175
30
0
41
1
10
27.6542867151102
20
2.1503232887224
30
0
41
1
10
26.6439338728132
20
2.28238155480381
30
0
41
1
10
25.6339790990899
20
2.41178734288081
30
0
41
1
10
24.7925206171329
20
2.5173318287508
30
0
41
1
10
24.1193362021281
20
2.60032862380717
30
0
41
1
10
23.4461564510212
20
2.6822374700686
30
0
41
1
10
22.6044289910006
20
2.78282120146662
30
0
41
1
10
21.930650460717
20
2.86156910811752
30
0
41
1
10
21.5936584621613
20
2.90048169277665
30
0
0
SPLINE
5
1C0
100
AcDbEntity
8
1
62
256
6
ByLayer
370
-1
48
1
60
0
100
AcDbSpline
70
4
71
3
72
52
73
48
40
0
40
0
40
0
40
0
40
0.0625000000000008
40
0.0625000000000008
40
0.125000000000002
40
0.125000000000002
40
0.156250000000002
40
0.156250000000002
40
0.187500000000002
40
0.187500000000002
40
0.250000000000002
40
0.250000000000002
40
0.281250000000002
40
0.281250000000002
40
0.312500000000002
40
0.312500000000002
40
0.375000000000001
40
0.375000000000001
40
0.406250000000001
40
0.406250000000001
40
0.437500000000001
40
0.437500000000001
40
0.500000000000001
40
0.500000000000001
40
0.562500000000001
40
0.562500000000001
40
0.593750000000001
40
0.593750000000001
40
0.625000000000001
40
0.625000000000001
40
0.6875
40
0.6875
40
0.71875
40
0.71875
40
0.75
40
0.75
40
0.8125
40
0.8125
40
0.84375
40
0.84375
40
0.875
40
0.875
40
0.9375
40
0.9375
40
0.96875
40
0.96875
40
1
40
1
40
1
40
1
41
1
10
12.2936584621585
20
12.0101496497233
30
0
41
1
10
12.0351042295348
20
12.1092088434956
30
0
41
1
10
11.7746090742485
20
12.1938169587286
30
0
41
1
10
11.2499007236382
20
12.3349508351592
30
0
41
1
10
10.9856875637494
20
12.3914795960617
30
0
41
1
10
10.5864641616146
20
12.4543272838783
30
0
41
1
10
10.4523422834096
20
12.4716505253686
30
0
41
1
10
10.1862426000596
20
12.4983047600063
30
0
41
1
10
10.0543765255417
20
12.507665011194
30
0
41
1
10
9.66226987395558
20
12.5239582624835
30
0
41
1
10
9.40550298677397
20
12.5191749233504
30
0
41
1
10
9.02739169103987
20
12.4877149089223
30
0
41
1
10
8.90253212594007
20
12.4731634749751
30
0
41
1
10
8.65523962905391
20
12.4355631127255
30
0
41
1
10
8.5325903229282
20
12.4124199551479
30
0
41
1
10
8.17505168412035
20
12.331187368432
30
0
41
1
10
7.94828486360552
20
12.2611085083129
30
0
41
1
10
7.62531649450548
20
12.1317961211524
30
0
41
1
10
7.5205358739253
20
12.0846424752644
30
0
41
1
10
7.31683753104409
20
11.9819671568859
30
0
41
1
10
7.21772315567324
20
11.9263226314539
30
0
41
1
10
6.93076065949541
20
11.7469785664643
30
0
41
1
10
6.75706203927462
20
11.6134342506041
30
0
41
1
10
6.44333541271575
20
11.3188210017976
30
0
41
1
10
6.30331208392118
20
11.1577528252263
30
0
41
1
10
6.11908394848069
20
10.8944308238009
30
0
41
1
10
6.06237505103573
20
10.803490735653
30
0
41
1
10
5.95936469460719
20
10.6174832489862
30
0
41
1
10
5.91284237988603
20
10.5221062987936
30
0
41
1
10
5.78778361514171
20
10.2289386764535
30
0
41
1
10
5.72368404897011
20
10.0241451761373
30
0
41
1
10
5.65607005853633
20
9.70262817641438
30
0
41
1
10
5.63836913595691
20
9.59309653899621
30
0
41
1
10
5.61286893619965
20
9.37280959094187
30
0
41
1
10
5.60496513733395
20
9.26161313527669
30
0
41
1
10
5.59520409066769
20
8.92490620822744
30
0
41
1
10
5.60723302290347
20
8.6962899042467
30
0
41
1
10
5.65203655564059
20
8.34708470451199
30
0
41
1
10
5.67154260254625
20
8.22924292577108
30
0
41
1
10
5.71887586559157
20
7.99432503589924
30
0
41
1
10
5.74669774714084
20
7.87705270432957
30
0
41
1
10
5.84205882635828
20
7.52572909042803
30
0
41
1
10
5.92143964371891
20
7.29216584294062
30
0
41
1
10
6.06305435523203
20
6.94264384749445
30
0
41
1
10
6.11403060697001
20
6.82627505452334
30
0
41
1
10
6.22349193551389
20
6.59380470681324
30
0
41
1
10
6.28182667941027
20
6.47806866534719
30
0
41
1
10
6.34313219222233
20
6.36382092240521
30
0
0
SPLINE
5
1C1
100
AcDbEntity
8
1
62
256
6
ByLayer
370
-1
48
1
60
0
100
AcDbSpline
70
4
71
3
72
36
73
32
40
0
40
0
40
0
40
0
40
0.0511387674172656
40
0.0511387674172656
40
0.118914569744604
40
0.118914569744604
40
0.186690372071942
40
0.186690372071942
40
0.25446617439928
40
0.25446617439928
40
0.322241976726618
40
0.322241976726618
40
0.390017779053957
40
0.390017779053957
40
0.457793581381295
40
0.457793581381295
40
0.593345186035971
40
0.593345186035971
40
0.661120988363309
40
0.661120988363309
40
0.728896790690647
40
0.728896790690647
40
0.762784691854316
40
0.762784691854316
40
0.796672593017985
40
0.796672593017985
40
0.864448395345324
40
0.864448395345324
40
0.932224197672662
40
0.932224197672662
40
1
40
1
40
1
40
1
41
1
10
67.9577865549812
20
-9.48176651939553
30
0
41
1
10
67.126505973243
20
-9.64992418084142
30
0
41
1
10
66.2947205319723
20
-9.80759961622533
30
0
41
1
10
64.3613831698611
20
-10.1483951659472
30
0
41
1
10
63.260182068623
20
-10.3232041340577
30
0
41
1
10
61.0576289182892
20
-10.6327578082235
30
0
41
1
10
59.956354787594
20
-10.7674314201807
30
0
41
1
10
57.7530985036241
20
-10.9936905796703
30
0
41
1
10
56.6502622826019
20
-11.0854823906503
30
0
41
1
10
54.4461576072707
20
-11.2255118946671
30
0
41
1
10
53.3451014082319
20
-11.273926047659
30
0
41
1
10
51.1435091221524
20
-11.3263517587772
30
0
41
1
10
50.0430965013267
20
-11.329816321455
30
0
41
1
10
47.8408771190692
20
-11.2921619440148
30
0
41
1
10
46.7382855438338
20
-11.2509861238632
30
0
41
1
10
43.4320822759172
20
-11.0615178762984
30
0
41
1
10
41.2319525430403
20
-10.8471098176758
30
0
41
1
10
37.9287033705478
20
-10.4012521363692
30
0
41
1
10
36.8264172623809
20
-10.231892647187
30
0
41
1
10
34.6227950848674
20
-9.8524897485604
30
0
41
1
10
33.5219361200755
20
-9.64273042378247
30
0
41
1
10
31.8704072176701
20
-9.30194511734547
30
0
41
1
10
31.3199249621039
20
-9.18372348135873
30
0
41
1
10
30.2190145832035
20
-8.93729978096647
30
0
41
1
10
29.6683581934429
20
-8.81028810417388
30
0
41
1
10
28.0160365872561
20
-8.41558009880393
30
0
41
1
10
26.9139042086096
20
-8.13378634499472
30
0
41
1
10
24.7116794457015
20
-7.54191725097698
30
0
41
1
10
23.611093795527
20
-7.23087953786879
30
0
41
1
10
21.4094957321729
20
-6.58096978159372
30
0
41
1
10
20.3085314969857
20
-6.24179584250831
30
0
41
1
10
19.2063539916732
20
-5.891171534493
30
0
0
SPLINE
5
1C2
100
AcDbEntity
8
1
62
256
6
ByLayer
370
-1
48
1
60
0
100
AcDbSpline
70
4
71
3
72
8
73
4
40
0
40
0
40
0
40
0
40
1
40
1
40
1
40
1
41
1
10
69.5203277931019
20
10.0295870624189
30
0
41
1
10
69.7700941522941
20
9.88812037075263
30
0
41
1
10
70.0217393458687
20
9.74760435545048
30
0
41
1
10
70.2750532502827
20
9.60793268922183
30
0
0
SPLINE
5
1C3
100
AcDbEntity
8
1
62
256
6
ByLayer
370
-1
48
1
60
0
100
AcDbSpline
70
4
71
3
72
8
73
4
40
0
40
0
40
0
40
0
40
1
40
1
40
1
40
1
41
1
10
88.5121147980917
20
3.54332372814329
30
0
41
1
10
88.6664703334635
20
3.52339431091218
30
0
41
1
10
88.8196991078714
20
3.50854020654881
30
0
41
1
10
88.9715746552579
20
3.49842857425477
30
0
0
SPLINE
5
1C4
100
AcDbEntity
8
1
62
256
6
ByLayer
370
-1
48
1
60
0
100
AcDbSpline
70
4
71
2
72
6
73
3
40
0
40
0
40
0
40
1
40
1
40
1
41
1
10
18.8304121818353
20
-5.7137084823033
30
0
41
1
10
18.8304121818352
20
-6.3450782557122
30
0
41
1
10
18.8304121818352
20
-6.97644802912112
30
0
0
SPLINE
5
1C5
100
AcDbEntity
8
1
62
256
6
ByLayer
370
-1
48
1
60
0
100
AcDbSpline
70
4
71
3
72
14
73
10
40
0
40
0
40
0
40
0
40
0.5
40
0.5
40
0.625
40
0.625
40
0.75
40
0.75
40
1
40
1
40
1
40
1
41
1
10
88.1259577470998
20
0.589329946809016
30
0
41
1
10
87.6692364856896
20
0.562428392137946
30
0
41
1
10
87.2183581366307
20
0.589531378261142
30
0
41
1
10
86.6619533438313
20
0.689820945217633
30
0
41
1
10
86.5510371280531
20
0.713245243677648
30
0
41
1
10
86.3299523291137
20
0.766987606061321
30
0
41
1
10
86.2195202940728
20
0.797395069700258
30
0
41
1
10
85.8921023132345
20
0.898439201922571
30
0
41
1
10
85.6786132994122
20
0.978873803950449
30
0
41
1
10
85.4699986360231
20
1.07255257998935
30
0
0
SPLINE
5
1C6
100
AcDbEntity
8
1
62
256
6
ByLayer
370
-1
48
1
60
0
100
AcDbSpline
70
4
71
3
72
18
73
14
40
0
40
0
40
0
40
0
40
0.0624999999999946
40
0.0624999999999946
40
0.124999999999989
40
0.124999999999989
40
0.249999999999978
40
0.249999999999978
40
0.499999999999986
40
0.499999999999986
40
0.749999999999993
40
0.749999999999993
40
1
40
1
40
1
40
1
41
1
10
80.2312450643192
20
7.12927386038126
30
0
41
1
10
80.2532335205831
20
7.13157937231031
30
0
41
1
10
80.2754034265743
20
7.13620156268803
30
0
41
1
10
80.3180967315696
20
7.14893487220186
30
0
41
1
10
80.3388836459886
20
7.15705479669921
30
0
41
1
10
80.3998824745699
20
7.18561912023958
30
0
41
1
10
80.4383900840421
20
7.21011335794182
30
0
41
1
10
80.5461914716522
20
7.29121111683338
30
0
41
1
10
80.6103502109634
20
7.35673892543659
30
0
41
1
10
80.7270813615632
20
7.49376822309722
30
0
41
1
10
80.7800521665023
20
7.56602344175806
30
0
41
1
10
80.8794887841848
20
7.71474424497148
30
0
41
1
10
80.9258637668387
20
7.79127853390301
30
0
41
1
10
80.9698307216774
20
7.86926568351288
30
0
0
SPLINE
5
1C7
100
AcDbEntity
8
1
62
256
6
ByLayer
370
-1
48
1
60
0
100
AcDbSpline
70
4
71
3
72
8
73
4
40
0
40
0
40
0
40
0
40
1
40
1
40
1
40
1
41
1
10
12.2936584621607
20
6.76418399692008
30
0
41
1
10
15.4069242892613
20
5.47739609620004
30
0
41
1
10
18.5014970131188
20
4.18319566381865
30
0
41
1
10
21.5936584621583
20
2.90048169277725
30
0
0
SPLINE
5
1C8
100
AcDbEntity
8
1
62
256
6
ByLayer
370
-1
48
1
60
0
100
AcDbSpline
70
4
71
3
72
18
73
14
40
0
40
0
40
0
40
0
40
0.0392314792269141
40
0.0392314792269141
40
0.359487652817943
40
0.359487652817943
40
0.519615739613457
40
0.519615739613457
40
0.679743826408971
40
0.679743826408971
40
0.839871913204486
40
0.839871913204486
40
1
40
1
40
1
40
1
41
1
10
68.888523695454
20
10.2744714003783
30
0
41
1
10
69.0367547558376
20
10.3073874965412
30
0
41
1
10
69.1849897082052
20
10.3399368843577
30
0
41
1
10
70.543364966893
20
10.6347950876843
30
0
41
1
10
71.7538095044188
20
10.8729834486665
30
0
41
1
10
73.5715580965922
20
11.1912991742974
30
0
41
1
10
74.1777614537895
20
11.2909617877377
30
0
41
1
10
75.3917262003824
20
11.4763815636572
30
0
41
1
10
75.999628630881
20
11.5620530228444
30
0
41
1
10
77.215841980596
20
11.7205341567611
30
0
41
1
10
77.8243057122498
20
11.7931514080443
30
0
41
1
10
79.0432953836843
20
11.9239469179906
30
0
41
1
10
79.6534246114344
20
11.9824116331917
30
0
41
1
10
80.2647700018471
20
12.0335242893356
30
0
0
SPLINE
5
1C9
100
AcDbEntity
8
1
62
256
6
ByLayer
370
-1
48
1
60
0
100
AcDbSpline
70
4
71
3
72
16
73
12
40
0
40
0
40
0
40
0
40
0.41880438636484
40
0.41880438636484
40
0.523505482956046
40
0.523505482956046
40
0.628206579547253
40
0.628206579547253
40
0.837608772729666
40
0.837608772729666
40
1
40
1
40
1
40
1
41
1
10
94.2594605125659
20
7.92880349014888
30
0
41
1
10
94.2799736429618
20
7.74030389773989
30
0
41
1
10
94.3319881341185
20
7.55304530633128
30
0
41
1
10
94.4433306621831
20
7.32297008413988
30
0
41
1
10
94.4680589710476
20
7.27707480292915
30
0
41
1
10
94.521696334822
20
7.18744870020598
30
0
41
1
10
94.5506866906242
20
7.1435238224924
30
0
41
1
10
94.6444281699883
20
7.01463926809632
30
0
41
1
10
94.7158670097211
20
6.93252545193099
30
0
41
1
10
94.8612003641689
20
6.79529821154858
30
0
41
1
10
94.9296221995554
20
6.73956912815001
30
0
41
1
10
95.0029434503721
20
6.68876139516948
30
0
0
SPLINE
5
1CA
100
AcDbEntity
8
1
62
256
6
ByLayer
370
-1
48
1
60
0
100
AcDbSpline
70
4
71
3
72
12
73
8
40
0
40
0
40
0
40
0
40
0.0053050219690293
40
0.0053050219690293
40
0.33687001464602
40
0.33687001464602
40
1
40
1
40
1
40
1
41
1
10
94.3813530708347
20
8.73582223161583
30
0
41
1
10
94.380765585416
20
8.73450362691514
30
0
41
1
10
94.3801802348296
20
8.73318454269747
30
0
41
1
10
94.343146041999
20
8.64939269872758
30
0
41
1
10
94.3146202257686
20
8.56456258782552
30
0
41
1
10
94.2513855622743
20
8.30292198513314
30
0
41
1
10
94.23894738217
20
8.1173030825579
30
0
41
1
10
94.2594605125659
20
7.92880349014888
30
0
0
SPLINE
5
1CB
100
AcDbEntity
8
1
62
256
6
ByLayer
370
-1
48
1
60
0
100
AcDbSpline
70
4
71
3
72
46
73
42
40
0
40
0
40
0
40
0
40
0.0374307514963634
40
0.0748615029927268
40
0.0935768787409085
40
0.11229225448909
40
0.149723005985453
40
0.168438381733636
40
0.187153757481817
40
0.22458450897818
40
0.243299884726362
40
0.262015260474544
40
0.299446011970907
40
0.318161387719089
40
0.336876763467271
40
0.374307514963634
40
0.393022890711816
40
0.411738266459998
40
0.449169017956361
40
0.467884393704543
40
0.486599769452724
40
0.524030520949087
40
0.542745896697269
40
0.561461272445451
40
0.598892023941814
40
0.617607399689996
40
0.636322775438178
40
0.673753526934541
40
0.692468902682723
40
0.711184278430905
40
0.748615029927268
40
0.76733040567545
40
0.786045781423631
40
0.823476532919994
40
0.842191908668177
40
0.860907284416358
40
0.898338035912721
40
0.917053411660903
40
0.935768787409085
40
0.973199538905448
40
1
40
1
40
1
40
1
41
1
10
12.2936584621607
20
6.76418399692008
30
0
41
1
10
12.264420911643
20
6.70825823949212
30
0
41
1
10
12.2046296635727
20
6.59325568767858
30
0
41
1
10
12.1266993989275
20
6.44173277932029
30
0
41
1
10
12.0624999622952
20
6.31591734576054
30
0
41
1
10
11.9970956835468
20
6.18708492005573
30
0
41
1
10
11.929932103366
20
6.05379862478895
30
0
41
1
10
11.8611051452365
20
5.91620169727128
30
0
41
1
10
11.7912138618844
20
5.77580707308803
30
0
41
1
10
11.7197929808129
20
5.63132999115888
30
0
41
1
10
11.6469762822516
20
5.48299862598884
30
0
41
1
10
11.5732856898589
20
5.33220212097461
30
0
41
1
10
11.4983692334615
20
5.17786447966864
30
0
41
1
10
11.4223968665445
20
5.02029884902009
30
0
41
1
10
11.3457877404519
20
4.86071187328474
30
0
41
1
10
11.2683242473521
20
4.69828885163167
30
0
41
1
10
11.1902079307574
20
4.53342172748575
30
0
41
1
10
11.1117314425914
20
4.36707746042748
30
0
41
1
10
11.0328272632064
20
4.19874586712507
30
0
41
1
10
10.9537205248782
20
4.02888372382719
30
0
41
1
10
10.8745581566419
20
3.85816838978042
30
0
41
1
10
10.7954314576244
20
3.68642403348235
30
0
41
1
10
10.7165786559876
20
3.51415218267718
30
0
41
1
10
10.6379881024723
20
3.34170229309822
30
0
41
1
10
10.5599103959408
20
3.16924578170489
30
0
41
1
10
10.4825844859961
20
2.99730352118996
30
0
41
1
10
10.4058353972374
20
2.82587496464529
30
0
41
1
10
10.3300649754504
20
2.65547326913287
30
0
41
1
10
10.2555000910199
20
2.48661104480655
30
0
41
1
10
10.1818065725911
20
2.31893428346513
30
0
41
1
10
10.1095216148111
20
2.15327443989224
30
0
41
1
10
10.0388482409719
20
1.9901089606704
30
0
41
1
10
9.96930574661684
20
1.82874595835338
30
0
41
1
10
9.90154430677327
20
1.67029602239984
30
0
41
1
10
9.83573339201175
20
1.51517785482227
30
0
41
1
10
9.77126602513064
20
1.36239510866002
30
0
41
1
10
9.7088787768088
20
1.21328685836787
30
0
41
1
10
9.64870124052339
20
1.06819583143985
30
0
41
1
10
9.59002572965196
20
0.925868342224561
30
0
41
1
10
9.52755760274485
20
0.772904320703475
30
0
41
1
10
9.48152332012617
20
0.658899824930046
30
0
41
1
10
9.46272817250923
20
0.61212594001185
30
0
0
SPLINE
5
1CC
100
AcDbEntity
8
1
62
256
6
ByLayer
370
-1
48
1
60
0
100
AcDbSpline
70
4
71
3
72
28
73
24
40
0
40
0
40
0
40
0
40
0.130815143866112
40
0.130815143866112
40
0.261630287732224
40
0.261630287732224
40
0.392445431598336
40
0.392445431598336
40
0.457853003531392
40
0.457853003531392
40
0.49055678949792
40
0.49055678949792
40
0.523260575464448
40
0.523260575464448
40
0.65407571933056
40
0.65407571933056
40
0.784890863196673
40
0.784890863196673
40
0.915706007062785
40
0.915706007062785
40
0.981113578995841
40
0.981113578995841
40
1
40
1
40
1
40
1
41
1
10
19.9999999999999
20
-7.26809317726799
30
0
41
1
10
22.1379445348502
20
-7.96711472253372
30
0
41
1
10
24.2638582031944
20
-8.60873569779406
30
0
41
1
10
28.505834455363
20
-9.75318057284878
30
0
41
1
10
30.6219879023189
20
-10.255975932984
30
0
41
1
10
34.8571765019081
20
-11.105772055796
30
0
41
1
10
36.9759966799999
20
-11.4529743809199
30
0
41
1
10
40.1661131345954
20
-11.8458357066355
30
0
41
1
10
41.2314672929127
20
-11.9555015586009
30
0
41
1
10
42.8336572661478
20
-12.0869694810988
30
0
41
1
10
43.3687803990352
20
-12.125304157407
30
0
41
1
10
44.4369916010876
20
-12.1906136541403
30
0
41
1
10
44.9704356956462
20
-12.2176256129781
30
0
41
1
10
47.6347840291889
20
-12.3245359907353
30
0
41
1
10
49.756750482361
20
-12.319870999183
30
0
41
1
10
53.9949028086212
20
-12.1325251184056
30
0
41
1
10
56.1113551329462
20
-11.9499226879057
30
0
41
1
10
60.3522434066923
20
-11.4147090145815
30
0
41
1
10
62.4764997398973
20
-11.0621177016042
30
0
41
1
10
65.6771754928575
20
-10.4122109505769
30
0
41
1
10
66.7475658360253
20
-10.1751825374905
30
0
41
1
10
68.1245491921915
20
-9.846675184498
30
0
41
1
10
68.4329946040423
20
-9.77156746275432
30
0
41
1
10
68.7413875253112
20
-9.69499037999671
30
0
0
SPLINE
5
1CD
100
AcDbEntity
8
1
62
256
6
ByLayer
370
-1
48
1
60
0
100
AcDbSpline
70
4
71
3
72
18
73
14
40
0
40
0
40
0
40
0
40
0.0634578169622191
40
0.0634578169622191
40
0.375638544641513
40
0.375638544641513
40
0.531728908481135
40
0.531728908481135
40
0.687819272320756
40
0.687819272320756
40
0.843909636160378
40
0.843909636160378
40
1
40
1
40
1
40
1
41
1
10
92.9589128885746
20
3.67217078592995
30
0
41
1
10
92.9511613918443
20
3.66585474585642
30
0
41
1
10
92.9434137841944
20
3.65966421131637
30
0
41
1
10
92.8975994003358
20
3.62374456087753
30
0
41
1
10
92.8593858672454
20
3.59666395206526
30
0
41
1
10
92.8050320049064
20
3.561396541775
30
0
41
1
10
92.7875033141443
20
3.55058499164159
30
0
41
1
10
92.7542966304916
20
3.53103367470132
30
0
41
1
10
92.738568173492
20
3.52227470100775
30
0
41
1
10
92.7110732349646
20
3.50775920440722
30
0
41
1
10
92.6991696667133
20
3.50191594697165
30
0
41
1
10
92.6807359570209
20
3.49373150665198
30
0
41
1
10
92.6743996790456
20
3.49149060003646
30
0
41
1
10
92.6718961671496
20
3.49149060003646
30
0
0
SPLINE
5
1CE
100
AcDbEntity
8
1
62
256
6
ByLayer
370
-1
48
1
60
0
100
AcDbSpline
70
4
71
4
72
10
73
5
40
0
40
0
40
0
40
0
40
0
40
1
40
1
40
1
40
1
40
1
41
1
10
80.2647700018156
20
8.27999999999986
30
0
41
1
10
80.2647700018271
20
9.21838107233381
30
0
41
1
10
80.2647700018358
20
10.1567621446677
30
0
41
1
10
80.2647700018422
20
11.0951432170017
30
0
41
1
10
80.2647700018471
20
12.0335242893356
30
0
0
SPLINE
5
1CF
100
AcDbEntity
8
1
62
256
6
ByLayer
370
-1
48
1
60
0
100
AcDbSpline
70
4
71
3
72
10
73
6
40
0
40
0
40
0
40
0
40
0.5
40
0.5
40
1
40
1
40
1
40
1
41
1
10
78.0202741822953
20
8.06777945479118
30
0
41
1
10
78.3882974206291
20
7.90442766572571
30
0
41
1
10
78.7581511785502
20
7.74882648933584
30
0
41
1
10
79.4977387037245
20
7.44230916768606
30
0
41
1
10
79.8677561713656
20
7.29191512450564
30
0
41
1
10
80.2312450643191
20
7.12927386037947
30
0
0
SPLINE
5
1D0
100
AcDbEntity
8
1
62
256
6
ByLayer
370
-1
48
1
60
0
100
AcDbSpline
70
4
71
3
72
8
73
4
40
0
40
0
40
0
40
0
40
1
40
1
40
1
40
1
41
1
10
16.8550813136656
20
-4.32172095035398
30
0
41
1
10
16.8550813136656
20
-4.95658009409271
30
0
41
1
10
16.8550813136656
20
-5.59143923783148
30
0
41
1
10
16.8550813136656
20
-6.22629838157022
30
0
0
SPLINE
5
1D1
100
AcDbEntity
8
1
62
256
6
ByLayer
370
-1
48
1
60
0
100
AcDbSpline
70
4
71
3
72
8
73
4
40
0
40
0
40
0
40
0
40
1
40
1
40
1
40
1
41
1
10
88.2144071728149
20
3.56166685617907
30
0
41
1
10
88.3135356369562
20
3.55298502803149
30
0
41
1
10
88.4128383111195
20
3.54686326632478
30
0
41
1
10
88.5121147980917
20
3.54332372814326
30
0
0
SPLINE
5
1D2
100
AcDbEntity
8
1
62
256
6
ByLayer
370
-1
48
1
60
0
100
AcDbSpline
70
4
71
3
72
8
73
4
40
0
40
0
40
0
40
0
40
1
40
1
40
1
40
1
41
1
10
88.5121147980917
20
3.54332372814326
30
0
41
1
10
88.6518558649854
20
3.5384554491539
30
0
41
1
10
88.7912504004226
20
3.53848094237054
30
0
41
1
10
88.9303046284866
20
3.54334029336405
30
0
0
SPLINE
5
1D3
100
AcDbEntity
8
1
62
256
6
ByLayer
370
-1
48
1
60
0
100
AcDbSpline
70
4
71
3
72
8
73
4
40
0
40
0
40
0
40
0
40
1
40
1
40
1
40
1
41
1
10
90.5667225614808
20
8.44356659390598
30
0
41
1
10
90.5684629921772
20
8.44356659390598
30
0
41
1
10
90.5711559137532
20
8.44459706550063
30
0
41
1
10
90.5747878282374
20
8.44662783628456
30
0
0
SPLINE
5
1D4
100
AcDbEntity
8
1
62
256
6
ByLayer
370
-1
48
1
60
0
100
AcDbSpline
70
4
71
3
72
20
73
16
40
0
40
0
40
0
40
0
40
0.130319215971812
40
0.130319215971812
40
0.275266013309843
40
0.275266013309843
40
0.420212810647875
40
0.420212810647875
40
0.565159607985906
40
0.565159607985906
40
0.710106405323937
40
0.710106405323937
40
0.855053202661969
40
0.855053202661969
40
1
40
1
40
1
40
1
41
1
10
73.6805938664067
20
7.70869312003776
30
0
41
1
10
73.6959921569395
20
7.7550249097084
30
0
41
1
10
73.7153617719262
20
7.80067753150033
30
0
41
1
10
73.7633723989131
20
7.89322316126368
30
0
41
1
10
73.792553921459
20
7.93940729134019
30
0
41
1
10
73.858414313135
20
8.02688005225249
30
0
41
1
10
73.8954589063604
20
8.06843298455752
30
0
41
1
10
73.9746364001831
20
8.14358184498707
30
0
41
1
10
74.0169480159965
20
8.17752528948066
30
0
41
1
10
74.1072169897482
20
8.23789416677789
30
0
41
1
10
74.1554503959964
20
8.26431079476495
30
0
41
1
10
74.2537688452489
20
8.30701057251582
30
0
41
1
10
74.3043171096653
20
8.32362801863977
30
0
41
1
10
74.4081500047656
20
8.34763904837257
30
0
41
1
10
74.4612789792469
20
8.35497235036371
30
0
41
1
10
74.5143159669223
20
8.35794046748757
30
0
0
SPLINE
5
1D5
100
AcDbEntity
8
1
62
256
6
ByLayer
370
-1
48
1
60
0
100
AcDbSpline
70
4
71
1
72
4
73
2
40
0
40
0
40
1
40
1
41
1
10
21.5936584621583
20
2.90048169277725
30
0
41
1
10
21.5936584621584
20
7.36779968564116
30
0
0
SPLINE
5
1D6
100
AcDbEntity
8
1
62
256
6
ByLayer
370
-1
48
1
60
0
100
AcDbSpline
70
4
71
3
72
8
73
4
40
0
40
0
40
0
40
0
40
1
40
1
40
1
40
1
41
1
10
12.2936584621585
20
6.76418399691426
30
0
41
1
10
12.2936584621585
20
8.51283921451727
30
0
41
1
10
12.2936584621585
20
10.2614944321203
30
0
41
1
10
12.2936584621585
20
12.0101496497233
30
0
0
SPLINE
5
1D7
100
AcDbEntity
8
1
62
256
6
ByLayer
370
-1
48
1
60
0
100
AcDbSpline
70
4
71
2
72
6
73
3
40
0
40
0
40
0
40
1
40
1
40
1
41
1
10
8.0550813136654
20
2.00871533524528
30
0
41
1
10
8.05508131366545
20
0.644605329881585
30
0
41
1
10
8.05508131366551
20
-0.719504675482114
30
0
0
SPLINE
5
1D8
100
AcDbEntity
8
1
62
256
6
ByLayer
370
-1
48
1
60
0
100
AcDbSpline
70
4
71
3
72
33
73
29
40
0
40
0
40
0
40
0
40
0.125
40
0.15625
40
0.1875
40
0.25
40
0.3125
40
0.34375
40
0.375
40
0.40625
40
0.421875
40
0.4375
40
0.5
40
0.5625
40
0.625
40
0.6875
40
0.75
40
0.765625
40
0.78125
40
0.8125
40
0.875
40
0.9375
40
0.953125
40
0.96875
40
0.97265625
40
0.9765625
40
0.984375
40
1
40
1
40
1
40
1
41
1
10
95.0533313276903
20
12.5883886074347
30
0
41
1
10
95.0556518190022
20
12.5421315790898
30
0
41
1
10
95.0585601511734
20
12.4842592786396
30
0
41
1
10
95.0620254520786
20
12.4149757661602
30
0
41
1
10
95.0641649053202
20
12.3683770969988
30
0
41
1
10
95.0665628199266
20
12.3096783759848
30
0
41
1
10
95.0685689515428
20
12.2508214910516
30
0
41
1
10
95.0699019113682
20
12.204100351197
30
0
41
1
10
95.0708430389336
20
12.1689877451365
30
0
41
1
10
95.0716404284338
20
12.1397416277894
30
0
41
1
10
95.0722740136515
20
12.1163573673599
30
0
41
1
10
95.0732369888559
20
12.0813521260636
30
0
41
1
10
95.0743949076326
20
12.0294280762575
30
0
41
1
10
95.0752918632928
20
11.9606614637517
30
0
41
1
10
95.0755224777146
20
11.8938498524229
30
0
41
1
10
95.075073592168
20
11.829990926509
30
0
41
1
10
95.0742515586962
20
11.7849966465299
30
0
41
1
10
95.0734959966013
20
11.7563734323406
30
0
41
1
10
95.0729907738693
20
11.7371021772205
30
0
41
1
10
95.0721059791276
20
11.7034540630593
30
0
41
1
10
95.0708422962709
20
11.6553491244043
30
0
41
1
10
95.0697048849025
20
11.612065997802
30
0
41
1
10
95.0689466246855
20
11.5832089397501
30
0
41
1
10
95.0686647509078
20
11.5723606091751
30
0
41
1
10
95.0684702382461
20
11.5652002122732
30
0
41
1
10
95.0683597018111
20
11.5603333567079
30
0
41
1
10
95.0683013743347
20
11.5509496836304
30
0
41
1
10
95.0684741395908
20
11.542046799007
30
0
41
1
10
95.0686752296963
20
11.5362663354015
30
0
0
SPLINE
5
1D9
100
AcDbEntity
8
1
62
256
6
ByLayer
370
-1
48
1
60
0
100
AcDbSpline
70
4
71
1
72
4
73
2
40
0
40
0
40
1
40
1
41
1
10
91.6683326608173
20
12.4697303186462
30
0
41
1
10
95.0533313276903
20
12.5883886074347
30
0
0
SPLINE
5
1DA
100
AcDbEntity
8
1
62
256
6
ByLayer
370
-1
48
1
60
0
100
AcDbSpline
70
4
71
3
72
12
73
8
40
0
40
0
40
0
40
0
40
0.021928365468426
40
0.141059655408459
40
0.379322235288524
40
0.855847395048655
40
1
40
1
40
1
40
1
41
1
10
98.7429040093346
20
3.95187002615668
30
0
41
1
10
98.7434119501631
20
3.95188983238927
30
0
41
1
10
98.7466793447334
20
3.95201849821675
30
0
41
1
10
98.755464436241
20
3.95238967698543
30
0
41
1
10
98.7747658134556
20
3.95344992651567
30
0
41
1
10
98.7946063390172
20
3.95525903952478
30
0
41
1
10
98.8088999178263
20
3.95691179652988
30
0
41
1
10
98.812218115157
20
3.95730762747729
30
0
0
SPLINE
5
1DB
100
AcDbEntity
8
1
62
256
6
ByLayer
370
-1
48
1
60
0
100
AcDbSpline
70
4
71
3
72
12
73
8
40
0
40
0
40
0
40
0
40
0.144152604951339
40
0.620677764711228
40
0.858940344591173
40
0.978071634531118
40
1
40
1
40
1
40
1
41
1
10
90.727059730414
20
11.5256395830955
30
0
41
1
10
90.7268978320229
20
11.5222892128565
30
0
41
1
10
90.7262524446248
20
11.5078606958382
30
0
41
1
10
90.7258386110761
20
11.4878667004859
30
0
41
1
10
90.7261313650149
20
11.4684648326603
30
0
41
1
10
90.7263753164307
20
11.4596417731943
30
0
41
1
10
90.72647537437
20
11.456360912045
30
0
41
1
10
90.7264911237305
20
11.4558508913968
30
0
0
SPLINE
5
1DC
100
AcDbEntity
8
1
62
256
6
ByLayer
370
-1
48
1
60
0
100
AcDbSpline
70
4
71
3
72
33
73
29
40
0
40
0
40
0
40
0
40
0.015625
40
0.0234375
40
0.02734375
40
0.03125
40
0.046875
40
0.0625
40
0.125
40
0.1875
40
0.21875
40
0.234375
40
0.25
40
0.3125
40
0.375
40
0.4375
40
0.5
40
0.5625
40
0.578125
40
0.59375
40
0.625
40
0.65625
40
0.6875
40
0.75
40
0.8125
40
0.84375
40
0.875
40
1
40
1
40
1
40
1
41
1
10
95.3000477690573
20
4.88531481704561
30
0
41
1
10
95.3002488591629
20
4.87953435344014
30
0
41
1
10
95.3006955189673
20
4.8706314688167
30
0
41
1
10
95.3014067227313
20
4.86124779573919
30
0
41
1
10
95.3018558743938
20
4.85638094017392
30
0
41
1
10
95.3025485771896
20
4.849220543272
30
0
41
1
10
95.3035852319293
20
4.83837221269701
30
0
41
1
10
95.3063512442045
20
4.80951515464514
30
0
41
1
10
95.3105001124708
20
4.76623202804279
30
0
41
1
10
95.3151107335157
20
4.71812708938779
30
0
41
1
10
95.3183366217376
20
4.68447897522657
30
0
41
1
10
95.3201826568996
20
4.66520772010657
30
0
41
1
10
95.3229297011857
20
4.63658450591717
30
0
41
1
10
95.3268822463705
20
4.59159022593815
30
0
41
1
10
95.3317741659127
20
4.52773130002419
30
0
41
1
10
95.3361920208503
20
4.46091968869544
30
0
41
1
10
95.3400795552634
20
4.39215307618966
30
0
41
1
10
95.3425342922771
20
4.34022902638347
30
0
41
1
10
95.3440068337194
20
4.30522378508718
30
0
41
1
10
95.3450002264467
20
4.28183952465767
30
0
41
1
10
95.3462376581051
20
4.25259340731065
30
0
41
1
10
95.3477395171726
20
4.21748080125008
30
0
41
1
10
95.3496572166672
20
4.17075966139552
30
0
41
1
10
95.3517460981896
20
4.11190277646227
30
0
41
1
10
95.3534321923452
20
4.05320405544836
30
0
41
1
10
95.3545348774306
20
4.00660538628696
30
0
41
1
10
95.3558900303129
20
3.93732187380752
30
0
41
1
10
95.3570082080559
20
3.87944957335736
30
0
41
1
10
95.357906085148
20
3.83319254501242
30
0
0
SPLINE
5
1DD
100
AcDbEntity
8
1
62
256
6
ByLayer
370
-1
48
1
60
0
100
AcDbSpline
70
4
71
3
72
87
73
83
40
0
40
0
40
0
40
0
40
0.125
40
0.25
40
0.375
40
0.390625
40
0.39453125
40
0.396484375
40
0.3984375
40
0.3994140625
40
0.400390625
40
0.40234375
40
0.40625
40
0.408203125
40
0.41015625
40
0.412109375
40
0.4140625
40
0.421875
40
0.4375
40
0.453125
40
0.46826171875
40
0.46875
40
0.4697265625
40
0.47021484375
40
0.470703125
40
0.4716796875
40
0.47216796875
40
0.47265625
40
0.474609375
40
0.4765625
40
0.478515625
40
0.47998046875
40
0.48046875
40
0.4814453125
40
0.482421875
40
0.4833984375
40
0.484375
40
0.48828125
40
0.4921875
40
0.49609375
40
0.5
40
0.50390625
40
0.5078125
40
0.51171875
40
0.515625
40
0.5166015625
40
0.517578125
40
0.5185546875
40
0.51953125
40
0.52001953125
40
0.521484375
40
0.5234375
40
0.525390625
40
0.52685546875
40
0.52734375
40
0.5283203125
40
0.52880859375
40
0.529296875
40
0.5302734375
40
0.53125
40
0.5625
40
0.578125
40
0.58203125
40
0.5859375
40
0.587890625
40
0.5888671875
40
0.58984375
40
0.591796875
40
0.59375
40
0.59765625
40
0.599609375
40
0.6005859375
40
0.6015625
40
0.603515625
40
0.60546875
40
0.609375
40
0.6171875
40
0.625
40
0.6875
40
0.75
40
0.875
40
1
40
1
40
1
40
1
41
1
10
95.3000477690573
20
4.88531481704561
30
0
41
1
10
95.0266500129758
20
4.87573108804366
30
0
41
1
10
94.4798545008127
20
4.85656363003977
30
0
41
1
10
93.6596542254401
20
4.82780382554773
30
0
41
1
10
93.0787078180022
20
4.80746770087174
30
0
41
1
10
92.7625688612132
20
4.79635847275921
30
0
41
1
10
92.715575729213
20
4.79470771187732
30
0
41
1
10
92.6984874054477
20
4.79410754325838
30
0
41
1
10
92.6878072467249
20
4.79373249152911
30
0
41
1
10
92.6792631501355
20
4.79343248751843
30
0
41
1
10
92.6707190752089
20
4.79313251014898
30
0
41
1
10
92.6557670046362
20
4.7926076242166
30
0
41
1
10
92.6386790792216
20
4.79200794549615
30
0
41
1
10
92.6215913427311
20
4.79140849911789
30
0
41
1
10
92.6087756432464
20
4.79095904086165
30
0
41
1
10
92.5959600550659
20
4.79050971948931
30
0
41
1
10
92.5703291181557
20
4.78961137122519
30
0
41
1
10
92.51479680977
20
4.78766665728364
30
0
41
1
10
92.429368962408
20
4.78468275057244
30
0
41
1
10
92.3279379096341
20
4.7811572133397
30
0
41
1
10
92.2595818762526
20
4.77875317123082
30
0
41
1
10
92.2232527143054
20
4.77745755297443
30
0
41
1
10
92.2189785265155
20
4.77730491978122
30
0
41
1
10
92.2147044050322
20
4.77715236813296
30
0
41
1
10
92.2104304061012
20
4.77699996720162
30
0
41
1
10
92.2061567085206
20
4.77684793687615
30
0
41
1
10
92.2018835473341
20
4.77669656621748
30
0
41
1
10
92.1954744594706
20
4.77647031442672
30
0
41
1
10
92.1858637205679
20
4.77613449446946
30
0
41
1
10
92.1730593342363
20
4.7756989493229
30
0
41
1
10
92.1613345319298
20
4.77531513606209
30
0
41
1
10
92.1527858385183
20
4.77500947880071
30
0
41
1
10
92.1463555776936
20
4.77475718813923
30
0
41
1
10
92.1409833350998
20
4.77453010737972
30
0
41
1
10
92.1347304122183
20
4.77433363494751
30
0
41
1
10
92.12888693285
20
4.77431615314032
30
0
41
1
10
92.1171944907724
20
4.77472631337503
30
0
41
1
10
92.0987239369533
20
4.77723668183302
30
0
41
1
10
92.0740581614392
20
4.7849400597438
30
0
41
1
10
92.0503563512127
20
4.7973640883591
30
0
41
1
10
92.0288634926679
20
4.81400746402488
30
0
41
1
10
92.010824572199
20
4.83436888308722
30
0
41
1
10
91.9968246152052
20
4.85723661699018
30
0
41
1
10
91.9874486470858
20
4.88139893717781
30
0
41
1
10
91.9836654824966
20
4.89971976585241
30
0
41
1
10
91.9824422548444
20
4.91139966882901
30
0
41
1
10
91.9820520071902
20
4.91725240001315
30
0
41
1
10
91.9818110733589
20
4.92352762327934
30
0
41
1
10
91.9816619902557
20
4.9289230908189
30
0
41
1
10
91.9814641563259
20
4.93537978947683
30
0
41
1
10
91.9811715820292
20
4.94396155534864
30
0
41
1
10
91.9807351225083
20
4.95572924782712
30
0
41
1
10
91.9803131276733
20
4.96751058618287
30
0
41
1
10
91.9800128990777
20
4.97608513104589
30
0
41
1
10
91.9797897764996
20
4.98251797258061
30
0
41
1
10
91.9796419171167
20
4.98680737228204
30
0
41
1
10
91.9794946758726
20
4.99109735513107
30
0
41
1
10
91.9793477564331
20
4.99538764156819
30
0
41
1
10
91.9791645412275
20
5.00075090913552
30
0
41
1
10
91.9766745464256
20
5.07369298200058
30
0
41
1
10
91.9729812147547
20
5.17871650438832
30
0
41
1
10
91.969089230121
20
5.29019595276441
30
0
41
1
10
91.9672966593854
20
5.34165152458769
30
0
41
1
10
91.9665503118601
20
5.3630918716012
30
0
41
1
10
91.9660281270246
20
5.37810035831365
30
0
41
1
10
91.9657298046756
20
5.38667670151546
30
0
41
1
10
91.9654315266994
20
5.39525308657838
30
0
41
1
10
91.9650587593959
20
5.40597364353567
30
0
41
1
10
91.9644624897932
20
5.4231266838016
30
0
41
1
10
91.9638664379061
20
5.44027992945874
30
0
41
1
10
91.9633450490404
20
5.45528916708324
30
0
41
1
10
91.9630471524179
20
5.46386591191239
30
0
41
1
10
91.9627492807596
20
5.47244268029252
30
0
41
1
10
91.9623769849616
20
5.48316368206466
30
0
41
1
10
91.9617813921324
20
5.50031736079364
30
0
41
1
10
91.9607392818904
20
5.5303364657471
30
0
41
1
10
91.9592508651961
20
5.57322119594377
30
0
41
1
10
91.9532967933294
20
5.74475973457172
30
0
41
1
10
91.9431559345843
20
6.03635738561789
30
0
41
1
10
91.9240433804013
20
6.5852245545295
30
0
41
1
10
91.9001819595102
20
7.2713361305035
30
0
41
1
10
91.8810874394708
20
7.82022031269244
30
0
41
1
10
91.8715401794511
20
8.09466240378688
30
0
0
SPLINE
5
1DE
100
AcDbEntity
8
1
62
256
6
ByLayer
370
-1
48
1
60
0
100
AcDbSpline
70
4
71
1
72
4
73
2
40
0
40
0
40
1
40
1
41
1
10
99.4483518973128
20
11.7615884798639
30
0
41
1
10
99.5665586554885
20
8.363659667999
30
0
0
SPLINE
5
1DF
100
AcDbEntity
8
1
62
256
6
ByLayer
370
-1
48
1
60
0
100
AcDbSpline
70
4
71
3
72
20
73
16
40
0
40
0
40
0
40
0
40
0.0120730283552409
40
0.0426388731030017
40
0.0579217954768821
40
0.0732047178507625
40
0.103770562598523
40
0.164902252094045
40
0.226033941589567
40
0.470560699571653
40
0.959614215535827
40
0.974897137909707
40
0.990180060283587
40
0.997821521470528
40
1
40
1
40
1
40
1
41
1
10
99.4429158683839
20
11.8311666087867
30
0
41
1
10
99.4426584336548
20
11.8333411675417
30
0
41
1
10
99.4417312785085
20
11.8410189046946
30
0
41
1
10
99.4404169043727
20
11.8514417554053
30
0
41
1
10
99.4390572250944
20
11.8624460355919
30
0
41
1
10
99.4377105382799
20
11.873452125346
30
0
41
1
10
99.4353738614508
20
11.8927155997061
30
0
41
1
10
99.4320125084191
20
11.9202318534834
30
0
41
1
10
99.4239122928971
20
11.9862824551118
30
0
41
1
10
99.4064075533833
20
12.1295695967558
30
0
41
1
10
99.3900339682073
20
12.263270711281
30
0
41
1
10
99.3784736517155
20
12.3578657141776
30
0
41
1
10
99.3776354450694
20
12.3646902874632
30
0
41
1
10
99.377096811473
20
12.3690411012779
30
0
41
1
10
99.3768843256063
20
12.3707262833073
30
0
41
1
10
99.3768370463333
20
12.3710993780797
30
0
0
SPLINE
5
1E0
100
AcDbEntity
8
1
62
256
6
ByLayer
370
-1
48
1
60
0
100
AcDbSpline
70
4
71
3
72
20
73
16
40
0
40
0
40
0
40
0
40
0.0120730283552529
40
0.0426388731030133
40
0.0579217954768935
40
0.0732047178507737
40
0.103770562598534
40
0.164902252094055
40
0.226033941589576
40
0.470560699571659
40
0.959614215535825
40
0.974897137909706
40
0.990180060283586
40
0.997821521470526
40
1
40
1
40
1
40
1
41
1
10
91.5990192976814
20
12.4642735249698
30
0
41
1
10
91.5968530137789
20
12.4640151068819
30
0
41
1
10
91.5892044927338
20
12.4630844101536
30
0
41
1
10
91.5788213041168
20
12.4617650153222
30
0
41
1
10
91.5678588985386
20
12.4604001422899
30
0
41
1
10
91.5568946902789
20
12.4590483113506
30
0
41
1
10
91.5377045192545
20
12.4567027087956
30
0
41
1
10
91.5102929731303
20
12.4533285159413
30
0
41
1
10
91.4444937139822
20
12.445197358912
30
0
41
1
10
91.3017518231717
20
12.427625754137
30
0
41
1
10
91.1685594817528
20
12.4111896245256
30
0
41
1
10
91.0743244414012
20
12.3995851495028
30
0
41
1
10
91.0675258376774
20
12.3987437410435
30
0
41
1
10
91.0631915800228
20
12.3982030499543
30
0
41
1
10
91.0615128106198
20
12.3979897524262
30
0
41
1
10
91.0611411355857
20
12.3979422925539
30
0
0
SPLINE
5
1E1
100
AcDbEntity
8
1
62
256
6
ByLayer
370
-1
48
1
60
0
100
AcDbSpline
70
4
71
3
72
12
73
8
40
0
40
0
40
0
40
0
40
0.0219283654687574
40
0.141059655408752
40
0.379322235288739
40
0.855847395048716
40
1
40
1
40
1
40
1
41
1
10
91.6683334035038
20
12.4697111262904
30
0
41
1
10
91.6678254626752
20
12.4696913200578
30
0
41
1
10
91.664558068105
20
12.4695626542303
30
0
41
1
10
91.6557729765972
20
12.4691914754617
30
0
41
1
10
91.6364715993827
20
12.4681312259314
30
0
41
1
10
91.6166310738212
20
12.4663221129223
30
0
41
1
10
91.602337495012
20
12.4646693559172
30
0
41
1
10
91.5990192976814
20
12.4642735249698
30
0
0
SPLINE
5
1E2
100
AcDbEntity
8
1
62
256
6
ByLayer
370
-1
48
1
60
0
100
AcDbSpline
70
4
71
3
72
20
73
16
40
0
40
0
40
0
40
0
40
0.0120730283552446
40
0.0426388731030061
40
0.0579217954768868
40
0.0732047178507675
40
0.103770562598529
40
0.164902252094052
40
0.226033941589575
40
0.470560699571667
40
0.95961421553585
40
0.974897137909731
40
0.990180060283612
40
0.997821521470552
40
1
40
1
40
1
40
1
41
1
10
98.812218115157
20
3.95730762747729
30
0
41
1
10
98.8143843990594
20
3.95756604556519
30
0
41
1
10
98.8220329201044
20
3.95849674229348
30
0
41
1
10
98.8324161087214
20
3.95981613712496
30
0
41
1
10
98.8433785142997
20
3.96118101015719
30
0
41
1
10
98.8543427225594
20
3.96253284109653
30
0
41
1
10
98.8735328935838
20
3.96487844365157
30
0
41
1
10
98.900944439708
20
3.96825263650581
30
0
41
1
10
98.9667436988561
20
3.97638379353512
30
0
41
1
10
99.1094855896666
20
3.99395539831011
30
0
41
1
10
99.2426779310855
20
4.01039152792146
30
0
41
1
10
99.3369129714371
20
4.02199600294429
30
0
41
1
10
99.343711575161
20
4.02283741140357
30
0
41
1
10
99.3480458328155
20
4.02337810249276
30
0
41
1
10
99.3497246022185
20
4.02359140002093
30
0
41
1
10
99.3500962772526
20
4.02363885989314
30
0
0
SPLINE
5
1E3
100
AcDbEntity
8
1
62
256
6
ByLayer
370
-1
48
1
60
0
100
AcDbSpline
70
4
71
3
72
12
73
8
40
0
40
0
40
0
40
0
40
0.144152604951392
40
0.620677764711297
40
0.858940344591249
40
0.978071634531198
40
1
40
1
40
1
40
1
41
1
10
91.9033837007987
20
3.71512423250175
30
0
41
1
10
91.9067213218673
20
3.71496171568515
30
0
41
1
10
91.9210949340224
20
3.71431386301205
30
0
41
1
10
91.9410128461859
20
3.71389844868636
30
0
41
1
10
91.9603408840469
20
3.71419232089764
30
0
41
1
10
91.9691303691079
20
3.71443720416826
30
0
41
1
10
91.97239874559
20
3.71453764431254
30
0
41
1
10
91.9729068254557
20
3.7145534538331
30
0
0
SPLINE
5
1E4
100
AcDbEntity
8
1
62
256
6
ByLayer
370
-1
48
1
60
0
100
AcDbSpline
70
4
71
3
72
39
73
35
40
0
40
0
40
0
40
0
40
0.0060880048235861
40
0.0231194529331195
40
0.0316351769878862
40
0.0571823491521862
40
0.091245245371253
40
0.12530814159032
40
0.15085531375462
40
0.159371037809386
40
0.17640248591892
40
0.193433934028453
40
0.210465382137986
40
0.22749683024752
40
0.295622622685653
40
0.363748415123787
40
0.43187420756192
40
0.500000000000055
40
0.568125792438184
40
0.636251584876322
40
0.704377377314455
40
0.772503169752589
40
0.789534617862122
40
0.806566065971655
40
0.823597514081189
40
0.840628962190722
40
0.849144686245489
40
0.874691858409789
40
0.908754754628855
40
0.942817650847918
40
0.976880547066989
40
0.985396271121752
40
0.993911995176518
40
1
40
1
40
1
40
1
41
1
10
91.0611411355699
20
12.397942292552
30
0
41
1
10
91.0602090840365
20
12.3978232771686
30
0
41
1
10
91.0566874214542
20
12.3973679333583
30
0
41
1
10
91.051937435555
20
12.3967106473363
30
0
41
1
10
91.0442692850274
20
12.3955047490151
30
0
41
1
10
91.034048083482
20
12.3936411008732
30
0
41
1
10
91.0199765052138
20
12.3904686188454
30
0
41
1
10
91.0058474603175
20
12.3866074348803
30
0
41
1
10
90.9955722649203
20
12.3833540210102
30
0
41
1
10
90.9878779781235
20
12.3807208714004
30
0
41
1
10
90.9814761216317
20
12.3784054295361
30
0
41
1
10
90.9738179103646
20
12.3754315552034
30
0
41
1
10
90.9661916534687
20
12.3722608335163
30
0
41
1
10
90.9510189241155
20
12.3655226889155
30
0
41
1
10
90.9286185555898
20
12.3539165679731
30
0
41
1
10
90.8999815062244
20
12.3353616650612
30
0
41
1
10
90.8730393931218
20
12.3138442741268
30
0
41
1
10
90.8482096500317
20
12.289661593443
30
0
41
1
10
90.8259097107036
20
12.2631108212832
30
0
41
1
10
90.8064058025701
20
12.2346306966977
30
0
41
1
10
90.7899641530637
20
12.204659958737
30
0
41
1
10
90.7799929319784
20
12.1814191969776
30
0
41
1
10
90.7743551754711
20
12.1657555822436
30
0
41
1
10
90.7717361944538
20
12.1578976640615
30
0
41
1
10
90.769315063066
20
12.1500214789616
30
0
41
1
10
90.7674606219282
20
12.1434493055278
30
0
41
1
10
90.7653806083747
20
12.1355607630647
30
0
41
1
10
90.7628642311196
20
12.1250444968806
30
0
41
1
10
90.7600127023333
20
12.1106266878633
30
0
41
1
10
90.7576441996098
20
12.0950133547964
30
0
41
1
10
90.7564334891181
20
12.0833594581094
30
0
41
1
10
90.7558657825975
20
12.075600950664
30
0
41
1
10
90.7556410189883
20
12.0720734003213
30
0
41
1
10
90.7555103609376
20
12.0698257709968
30
0
41
1
10
90.7554571038843
20
12.0688841361878
30
0
0
SPLINE
5
1E5
100
AcDbEntity
8
1
62
256
6
ByLayer
370
-1
48
1
60
0
100
AcDbSpline
70
4
71
3
72
20
73
16
40
0
40
0
40
0
40
0
40
0.0120730283552375
40
0.0426388731029987
40
0.0579217954768793
40
0.0732047178507599
40
0.103770562598521
40
0.164902252094043
40
0.226033941589566
40
0.470560699571656
40
0.959614215535835
40
0.974897137909715
40
0.990180060283596
40
0.997821521470536
40
1
40
1
40
1
40
1
41
1
10
90.9683215444545
20
4.59041454366044
30
0
41
1
10
90.9685789791835
20
4.58823998490544
30
0
41
1
10
90.9695061343298
20
4.58056224775251
30
0
41
1
10
90.9708205084656
20
4.57013939704183
30
0
41
1
10
90.9721801877439
20
4.5591351168552
30
0
41
1
10
90.9735268745584
20
4.54812902710108
30
0
41
1
10
90.9758635513875
20
4.528865552741
30
0
41
1
10
90.9792249044193
20
4.50134929896376
30
0
41
1
10
90.9873251199412
20
4.4352986973353
30
0
41
1
10
91.004829859455
20
4.29201155569129
30
0
41
1
10
91.021203444631
20
4.15831044116609
30
0
41
1
10
91.0327637611229
20
4.0637154382695
30
0
41
1
10
91.033601967769
20
4.05689086498387
30
0
41
1
10
91.0341406013653
20
4.05254005116925
30
0
41
1
10
91.034353087232
20
4.05085486913978
30
0
41
1
10
91.0344003665051
20
4.05048177436743
30
0
0
SPLINE
5
1E6
100
AcDbEntity
8
1
62
256
6
ByLayer
370
-1
48
1
60
0
100
AcDbSpline
70
4
71
3
72
87
73
83
40
0
40
0
40
0
40
0
40
0.125
40
0.25
40
0.375
40
0.390625
40
0.39453125
40
0.396484375
40
0.3984375
40
0.3994140625
40
0.400390625
40
0.40234375
40
0.40625
40
0.408203125
40
0.41015625
40
0.412109375
40
0.4140625
40
0.421875
40
0.4375
40
0.453125
40
0.46826171875
40
0.46875
40
0.4697265625
40
0.47021484375
40
0.470703125
40
0.4716796875
40
0.47216796875
40
0.47265625
40
0.474609375
40
0.4765625
40
0.478515625
40
0.47998046875
40
0.48046875
40
0.4814453125
40
0.482421875
40
0.4833984375
40
0.484375
40
0.48828125
40
0.4921875
40
0.49609375
40
0.5
40
0.50390625
40
0.5078125
40
0.51171875
40
0.515625
40
0.5166015625
40
0.517578125
40
0.5185546875
40
0.51953125
40
0.52001953125
40
0.521484375
40
0.5234375
40
0.525390625
40
0.52685546875
40
0.52734375
40
0.5283203125
40
0.52880859375
40
0.529296875
40
0.5302734375
40
0.53125
40
0.5625
40
0.578125
40
0.58203125
40
0.5859375
40
0.587890625
40
0.5888671875
40
0.58984375
40
0.591796875
40
0.59375
40
0.59765625
40
0.599609375
40
0.6005859375
40
0.6015625
40
0.603515625
40
0.60546875
40
0.609375
40
0.6171875
40
0.625
40
0.6875
40
0.75
40
0.875
40
1
40
1
40
1
40
1
41
1
10
95.0686752296963
20
11.5362663354015
30
0
41
1
10
95.3420729857779
20
11.5458500644034
30
0
41
1
10
95.8888684979409
20
11.5650175224074
30
0
41
1
10
96.7090687733135
20
11.5937773268994
30
0
41
1
10
97.2900151807514
20
11.6141134515754
30
0
41
1
10
97.6061541375404
20
11.6252226796879
30
0
41
1
10
97.6531472695406
20
11.6268734405698
30
0
41
1
10
97.670235593306
20
11.6274736091887
30
0
41
1
10
97.6809157520287
20
11.627848660918
30
0
41
1
10
97.6894598486181
20
11.6281486649287
30
0
41
1
10
97.6980039235448
20
11.6284486422981
30
0
41
1
10
97.7129559941174
20
11.6289735282305
30
0
41
1
10
97.730043919532
20
11.629573206951
30
0
41
1
10
97.7471316560225
20
11.6301726533292
30
0
41
1
10
97.7599473555072
20
11.6306221115855
30
0
41
1
10
97.7727629436877
20
11.6310714329578
30
0
41
1
10
97.7983938805979
20
11.6319697812219
30
0
41
1
10
97.8539261889837
20
11.6339144951635
30
0
41
1
10
97.9393540363455
20
11.6368984018747
30
0
41
1
10
98.0407850891195
20
11.6404239391074
30
0
41
1
10
98.109141122501
20
11.6428279812163
30
0
41
1
10
98.1454702844482
20
11.6441235994727
30
0
41
1
10
98.1497444722381
20
11.6442762326659
30
0
41
1
10
98.1540185937214
20
11.6444287843142
30
0
41
1
10
98.1582925926524
20
11.6445811852455
30
0
41
1
10
98.162566290233
20
11.644733215571
30
0
41
1
10
98.1668394514195
20
11.6448845862296
30
0
41
1
10
98.173248539283
20
11.6451108380204
30
0
41
1
10
98.1828592781857
20
11.6454466579776
30
0
41
1
10
98.1956636645173
20
11.6458822031242
30
0
41
1
10
98.2073884668238
20
11.646266016385
30
0
41
1
10
98.2159371602353
20
11.6465716736464
30
0
41
1
10
98.22236742106
20
11.6468239643079
30
0
41
1
10
98.2277396636538
20
11.6470510450674
30
0
41
1
10
98.2339925865352
20
11.6472475174996
30
0
41
1
10
98.2398360659035
20
11.6472649993068
30
0
41
1
10
98.2515285079812
20
11.6468548390721
30
0
41
1
10
98.2699990618004
20
11.6443444706141
30
0
41
1
10
98.2946648373144
20
11.6366410927033
30
0
41
1
10
98.3183666475409
20
11.624217064088
30
0
41
1
10
98.3398595060857
20
11.6075736884222
30
0
41
1
10
98.3578984265546
20
11.5872122693599
30
0
41
1
10
98.3718983835484
20
11.5643445354569
30
0
41
1
10
98.3812743516678
20
11.5401822152693
30
0
41
1
10
98.385057516257
20
11.5218613865947
30
0
41
1
10
98.3862807439093
20
11.5101814836181
30
0
41
1
10
98.3866709915634
20
11.5043287524339
30
0
41
1
10
98.3869119253948
20
11.4980535291678
30
0
41
1
10
98.3870610084979
20
11.4926580616282
30
0
41
1
10
98.3872588424277
20
11.4862013629703
30
0
41
1
10
98.3875514167244
20
11.4776195970985
30
0
41
1
10
98.3879878762452
20
11.46585190462
30
0
41
1
10
98.3884098710803
20
11.4540705662642
30
0
41
1
10
98.3887100996759
20
11.4454960214012
30
0
41
1
10
98.388933222254
20
11.4390631798665
30
0
41
1
10
98.389081081637
20
11.4347737801651
30
0
41
1
10
98.3892283228811
20
11.430483797316
30
0
41
1
10
98.3893752423206
20
11.4261935108789
30
0
41
1
10
98.3895584575261
20
11.4208302433116
30
0
41
1
10
98.392048452328
20
11.3478881704465
30
0
41
1
10
98.395741783999
20
11.2428646480588
30
0
41
1
10
98.3996337686327
20
11.1313851996827
30
0
41
1
10
98.4014263393682
20
11.0799296278594
30
0
41
1
10
98.4021726868934
20
11.0584892808459
30
0
41
1
10
98.402694871729
20
11.0434807941335
30
0
41
1
10
98.4029931940781
20
11.0349044509317
30
0
41
1
10
98.4032914720542
20
11.0263280658687
30
0
41
1
10
98.4036642393577
20
11.0156075089114
30
0
41
1
10
98.4042605089604
20
10.9984544686455
30
0
41
1
10
98.4048565608476
20
10.9813012229884
30
0
41
1
10
98.4053779497132
20
10.9662919853639
30
0
41
1
10
98.4056758463357
20
10.9577152405347
30
0
41
1
10
98.405973717994
20
10.9491384721546
30
0
41
1
10
98.406346013792
20
10.9384174703825
30
0
41
1
10
98.4069416066212
20
10.9212637916535
30
0
41
1
10
98.4079837168633
20
10.8912446867
30
0
41
1
10
98.4094721335575
20
10.8483599565033
30
0
41
1
10
98.4154262054242
20
10.6768214178754
30
0
41
1
10
98.4255670641693
20
10.3852237668292
30
0
41
1
10
98.4446796183523
20
9.83635659791759
30
0
41
1
10
98.4685410392435
20
9.15024502194362
30
0
41
1
10
98.4876355592828
20
8.60136083975468
30
0
41
1
10
98.4971828193025
20
8.32691874866021
30
0
0
SPLINE
5
1E7
100
AcDbEntity
8
1
62
256
6
ByLayer
370
-1
48
1
60
0
100
AcDbSpline
70
4
71
3
72
12
73
8
40
0
40
0
40
0
40
0
40
0.144152604951319
40
0.620677764711231
40
0.858940344591186
40
0.978071634531137
40
1
40
1
40
1
40
1
41
1
10
99.6841776824243
20
4.89594156935163
30
0
41
1
10
99.6843395808154
20
4.8992919395906
30
0
41
1
10
99.6849849682134
20
4.91372045660896
30
0
41
1
10
99.6853988017622
20
4.93371445196118
30
0
41
1
10
99.6851060478234
20
4.9531163197868
30
0
41
1
10
99.6848620964075
20
4.96193937925281
30
0
41
1
10
99.6847620384684
20
4.96522024040215
30
0
41
1
10
99.6847462891078
20
4.96573026105034
30
0
0
SPLINE
5
1E8
100
AcDbEntity
8
1
62
256
6
ByLayer
370
-1
48
1
60
0
100
AcDbSpline
70
4
71
1
72
4
73
2
40
0
40
0
40
1
40
1
41
1
10
95.0533313276903
20
12.5883886074347
30
0
41
1
10
98.4383299945633
20
12.7070468962232
30
0
0
SPLINE
5
1E9
100
AcDbEntity
8
1
62
256
6
ByLayer
370
-1
48
1
60
0
100
AcDbSpline
70
4
71
3
72
39
73
35
40
0
40
0
40
0
40
0
40
0.0060880048236075
40
0.023119452933141
40
0.0316351769879077
40
0.057182349152208
40
0.0912452453712751
40
0.125308141590342
40
0.150855313754642
40
0.159371037809409
40
0.176402485918943
40
0.193433934028476
40
0.21046538213801
40
0.227496830247543
40
0.295622622685677
40
0.363748415123811
40
0.431874207561945
40
0.500000000000079
40
0.568125792438212
40
0.636251584876348
40
0.704377377314482
40
0.772503169752616
40
0.789534617862149
40
0.806566065971683
40
0.823597514081216
40
0.84062896219075
40
0.849144686245517
40
0.874691858409819
40
0.908754754628884
40
0.942817650847949
40
0.976880547067018
40
0.985396271121783
40
0.993911995176547
40
1
40
1
40
1
40
1
41
1
10
91.034400366507
20
4.05048177435165
30
0
41
1
10
91.034518929001
20
4.04954616253275
30
0
41
1
10
91.0349725400906
20
4.04601104777154
30
0
41
1
10
91.0356273249408
20
4.04124291769782
30
0
41
1
10
91.0368286344549
20
4.03354547608103
30
0
41
1
10
91.0386851908529
20
4.02328523120624
30
0
41
1
10
91.0418456006288
20
4.00915990179502
30
0
41
1
10
91.0456920916232
20
3.99497688624257
30
0
41
1
10
91.0489331252713
20
3.98466244126817
30
0
41
1
10
91.0515562549518
20
3.97693876354589
30
0
41
1
10
91.0538628858608
20
3.97051245300222
30
0
41
1
10
91.0568254437038
20
3.96282498861226
30
0
41
1
10
91.0599840998377
20
3.95516960065404
30
0
41
1
10
91.0666966037639
20
3.93993891393959
30
0
41
1
10
91.0782585599122
20
3.91745297964511
30
0
41
1
10
91.0967428558166
20
3.88870654140342
30
0
41
1
10
91.1181783665822
20
3.86166151380578
30
0
41
1
10
91.142269024865
20
3.83673692513082
30
0
41
1
10
91.1687187633209
20
3.8143518036573
30
0
41
1
10
91.1970905124339
20
3.79477339376325
30
0
41
1
10
91.2269472026883
20
3.77826893982675
30
0
41
1
10
91.2500995263326
20
3.76825963029685
30
0
41
1
10
91.2657035362837
20
3.76260033847555
30
0
41
1
10
91.2735315527146
20
3.75997135337622
30
0
41
1
10
91.2813777665523
20
3.75754097365979
30
0
41
1
10
91.287924930882
20
3.75567944885816
30
0
41
1
10
91.2957834550595
20
3.75359148999078
30
0
41
1
10
91.3062597036758
20
3.75106550058339
30
0
41
1
10
91.3206226485769
20
3.74820307942039
30
0
41
1
10
91.3361765681976
20
3.74582552940129
30
0
41
1
10
91.3477861182894
20
3.74461019419215
30
0
41
1
10
91.3555151022716
20
3.74404031912488
30
0
41
1
10
91.3590292292203
20
3.74381469695518
30
0
41
1
10
91.3612683056366
20
3.743683539812
30
0
41
1
10
91.3622063572408
20
3.74363007932538
30
0
0
SPLINE
5
1EA
100
AcDbEntity
8
1
62
256
6
ByLayer
370
-1
48
1
60
0
100
AcDbSpline
70
4
71
3
72
20
73
16
40
0
40
0
40
0
40
0
40
0.0098199397468626
40
0.017461400933556
40
0.025102862120245
40
0.0403857844936258
40
0.0480272456803165
40
0.284912542467735
40
0.529439300441836
40
0.773966058415942
40
0.896229437402994
40
0.926795282149757
40
0.957361126896521
40
0.987926971643285
40
1
40
1
40
1
40
1
41
1
10
99.0490310555974
20
12.6779510731217
30
0
41
1
10
99.0473448686071
20
12.6780471705823
30
0
41
1
10
99.0443199889486
20
12.678211058619
30
0
41
1
10
99.03987000762
20
12.678448814028
30
0
41
1
10
99.0343714072359
20
12.6787399943271
30
0
41
1
10
99.0287942369158
20
12.6790327939311
30
0
41
1
10
98.981429773889
20
12.6815199502303
30
0
41
1
10
98.8930885816294
20
12.6861693354298
30
0
41
1
10
98.7627544422723
20
12.6930319908189
30
0
41
1
10
98.6522811748562
20
12.6988270642765
30
0
41
1
10
98.5805774763097
20
12.7026287654726
30
0
41
1
10
98.5474807510501
20
12.7043364284583
30
0
41
1
10
98.5309339916809
20
12.705213401833
30
0
41
1
10
98.5177272414278
20
12.7059579631739
30
0
41
1
10
98.5100326767216
20
12.7063508209017
30
0
41
1
10
98.5078537120386
20
12.7064569199454
30
0
0
SPLINE
5
1EB
100
AcDbEntity
8
1
62
256
6
ByLayer
370
-1
48
1
60
0
100
AcDbSpline
70
4
71
3
72
20
73
16
40
0
40
0
40
0
40
0
40
0.0098199397469157
40
0.0174614009336091
40
0.0251028621202982
40
0.040385784493679
40
0.0480272456803699
40
0.28491254246779
40
0.529439300441893
40
0.773966058416
40
0.896229437403053
40
0.926795282149817
40
0.95736112689658
40
0.987926971643345
40
1
40
1
40
1
40
1
41
1
10
99.655780308954
20
4.3526970162593
30
0
41
1
10
99.6558760407347
20
4.35438964421002
30
0
41
1
10
99.656039305128
20
4.35742607841735
30
0
41
1
10
99.6562761558059
20
4.36189305795168
30
0
41
1
10
99.656566228076
20
4.367412662096
30
0
41
1
10
99.6568579134891
20
4.37301113630076
30
0
41
1
10
99.6593356054077
20
4.42055652388166
30
0
41
1
10
99.6639672982928
20
4.50923516514402
30
0
41
1
10
99.6708038392063
20
4.64006715973983
30
0
41
1
10
99.6765768606598
20
4.75096241709034
30
0
41
1
10
99.6803640952351
20
4.8229400121165
30
0
41
1
10
99.6820652600476
20
4.85616316148983
30
0
41
1
10
99.6829388962738
20
4.87277312679171
30
0
41
1
10
99.683680624334
20
4.88603032468524
30
0
41
1
10
99.6840719871195
20
4.89375428137856
30
0
41
1
10
99.6841776824243
20
4.89594156935263
30
0
0
SPLINE
5
1EC
100
AcDbEntity
8
1
62
256
6
ByLayer
370
-1
48
1
60
0
100
AcDbSpline
70
4
71
3
72
39
73
35
40
0
40
0
40
0
40
0
40
0.0060880048236032
40
0.0231194529331354
40
0.0316351769879016
40
0.0571823491521999
40
0.0912452453712645
40
0.125308141590329
40
0.150855313754627
40
0.159371037809393
40
0.176402485918926
40
0.193433934028458
40
0.21046538213799
40
0.227496830247523
40
0.295622622685652
40
0.363748415123781
40
0.43187420756191
40
0.500000000000039
40
0.568125792438166
40
0.636251584876297
40
0.704377377314426
40
0.772503169752555
40
0.789534617862087
40
0.80656606597162
40
0.823597514081152
40
0.840628962190684
40
0.84914468624545
40
0.874691858409751
40
0.908754754628813
40
0.942817650847876
40
0.976880547066942
40
0.985396271121706
40
0.993911995176471
40
1
40
1
40
1
40
1
41
1
10
99.3768370463313
20
12.3710993780955
30
0
41
1
10
99.3767184838374
20
12.3720349899144
30
0
41
1
10
99.3762648727478
20
12.3755701046756
30
0
41
1
10
99.3756100878975
20
12.3803382347493
30
0
41
1
10
99.3744087783834
20
12.3880356763661
30
0
41
1
10
99.3725522219854
20
12.3982959212409
30
0
41
1
10
99.3693918122095
20
12.4124212506521
30
0
41
1
10
99.3655453212151
20
12.4266042662045
30
0
41
1
10
99.362304287567
20
12.436918711179
30
0
41
1
10
99.3596811578865
20
12.4446423889012
30
0
41
1
10
99.3573745269775
20
12.4510686994449
30
0
41
1
10
99.3544119691345
20
12.4587561638348
30
0
41
1
10
99.3512533130007
20
12.4664115517931
30
0
41
1
10
99.3445408090744
20
12.4816422385075
30
0
41
1
10
99.3329788529261
20
12.504128172802
30
0
41
1
10
99.3144945570217
20
12.5328746110437
30
0
41
1
10
99.2930590462561
20
12.5599196386413
30
0
41
1
10
99.2689683879732
20
12.5848442273163
30
0
41
1
10
99.2425186495174
20
12.6072293487898
30
0
41
1
10
99.2141469004044
20
12.6268077586839
30
0
41
1
10
99.18429021015
20
12.6433122126204
30
0
41
1
10
99.1611378865056
20
12.6533215221503
30
0
41
1
10
99.1455338765546
20
12.6589808139716
30
0
41
1
10
99.1377058601237
20
12.6616097990709
30
0
41
1
10
99.1298596462859
20
12.6640401787873
30
0
41
1
10
99.1233124819563
20
12.665901703589
30
0
41
1
10
99.1154539577788
20
12.6679896624563
30
0
41
1
10
99.1049777091625
20
12.6705156518637
30
0
41
1
10
99.0906147642614
20
12.6733780730267
30
0
41
1
10
99.0750608446407
20
12.6757556230458
30
0
41
1
10
99.0634512945489
20
12.676970958255
30
0
41
1
10
99.0557223105666
20
12.6775408333222
30
0
41
1
10
99.0522081836181
20
12.6777664554919
30
0
41
1
10
99.0499691072017
20
12.6778976126351
30
0
41
1
10
99.0490310555974
20
12.6779510731217
30
0
0
SPLINE
5
1ED
100
AcDbEntity
8
1
62
256
6
ByLayer
370
-1
48
1
60
0
100
AcDbSpline
70
4
71
3
72
20
73
16
40
0
40
0
40
0
40
0
40
0.0098199397469148
40
0.0174614009336083
40
0.0251028621202975
40
0.0403857844936784
40
0.0480272456803693
40
0.28491254246779
40
0.529439300441895
40
0.773966058416004
40
0.896229437403058
40
0.926795282149822
40
0.957361126896585
40
0.98792697164335
40
1
40
1
40
1
40
1
41
1
10
90.7554571038843
20
12.0688841361878
30
0
41
1
10
90.7553613721036
20
12.0671915082371
30
0
41
1
10
90.7551981077103
20
12.0641550740297
30
0
41
1
10
90.7549612570324
20
12.0596880944954
30
0
41
1
10
90.7546711847623
20
12.0541684903511
30
0
41
1
10
90.7543794993492
20
12.0485700161463
30
0
41
1
10
90.7519018074306
20
12.0010246285655
30
0
41
1
10
90.7472701145455
20
11.9123459873031
30
0
41
1
10
90.7404335736321
20
11.7815139927073
30
0
41
1
10
90.7346605521785
20
11.6706187353568
30
0
41
1
10
90.7308733176033
20
11.5986411403306
30
0
41
1
10
90.7291721527907
20
11.5654179909573
30
0
41
1
10
90.7282985165645
20
11.5488080256554
30
0
41
1
10
90.7275567885042
20
11.5355508277619
30
0
41
1
10
90.7271654257188
20
11.5278268710686
30
0
41
1
10
90.7270597304139
20
11.5256395830945
30
0
0
SPLINE
5
1EE
100
AcDbEntity
8
1
62
256
6
ByLayer
370
-1
48
1
60
0
100
AcDbSpline
70
4
71
3
72
87
73
83
40
0
40
0
40
0
40
0
40
0.125
40
0.25
40
0.375
40
0.390625
40
0.39453125
40
0.396484375
40
0.3984375
40
0.3994140625
40
0.400390625
40
0.40234375
40
0.40625
40
0.408203125
40
0.41015625
40
0.412109375
40
0.4140625
40
0.421875
40
0.4375
40
0.453125
40
0.46826171875
40
0.46875
40
0.4697265625
40
0.47021484375
40
0.470703125
40
0.4716796875
40
0.47216796875
40
0.47265625
40
0.474609375
40
0.4765625
40
0.478515625
40
0.47998046875
40
0.48046875
40
0.4814453125
40
0.482421875
40
0.4833984375
40
0.484375
40
0.48828125
40
0.4921875
40
0.49609375
40
0.5
40
0.50390625
40
0.5078125
40
0.51171875
40
0.515625
40
0.5166015625
40
0.517578125
40
0.5185546875
40
0.51953125
40
0.52001953125
40
0.521484375
40
0.5234375
40
0.525390625
40
0.52685546875
40
0.52734375
40
0.5283203125
40
0.52880859375
40
0.529296875
40
0.5302734375
40
0.53125
40
0.5625
40
0.578125
40
0.58203125
40
0.5859375
40
0.587890625
40
0.5888671875
40
0.58984375
40
0.591796875
40
0.59375
40
0.59765625
40
0.599609375
40
0.6005859375
40
0.6015625
40
0.603515625
40
0.60546875
40
0.609375
40
0.6171875
40
0.625
40
0.6875
40
0.75
40
0.875
40
1
40
1
40
1
40
1
41
1
10
91.8715401794511
20
8.09466240378688
30
0
41
1
10
91.8619929194314
20
8.36910449488136
30
0
41
1
10
91.8428983993921
20
8.9179886770703
30
0
41
1
10
91.8142480346389
20
9.74132198424783
30
0
41
1
10
91.793989295057
20
10.3244875125836
30
0
41
1
10
91.7829223409113
20
10.6418340688286
30
0
41
1
10
91.7812778616731
20
10.6890067069587
30
0
41
1
10
91.7806799768769
20
10.7061603053447
30
0
41
1
10
91.7803063523327
20
10.7168812605388
30
0
41
1
10
91.7800074899278
20
10.7254579941891
30
0
41
1
10
91.7797086540628
20
10.7340347060939
30
0
41
1
10
91.7791857654799
20
10.749043891147
30
0
41
1
10
91.778588368718
20
10.7661970896607
30
0
41
1
10
91.7779912034142
20
10.7833500985286
30
0
41
1
10
91.7775434554823
20
10.7962147519033
30
0
41
1
10
91.7770958439135
20
10.8090792935487
30
0
41
1
10
91.7762009141357
20
10.8348081364739
30
0
41
1
10
91.7742636004178
20
10.8905525692562
30
0
41
1
10
91.7712910483725
20
10.9763067371167
30
0
41
1
10
91.7677789268733
20
11.0781252400341
30
0
41
1
10
91.7653840328705
20
11.1467423823582
30
0
41
1
10
91.7640933448327
20
11.1832103158021
30
0
41
1
10
91.7639412924549
20
11.187500830295
30
0
41
1
10
91.7637893213117
20
11.191791278228
30
0
41
1
10
91.7636375003119
20
11.1960816031406
30
0
41
1
10
91.7634860485077
20
11.2003716255517
30
0
41
1
10
91.7633352538601
20
11.2046611095196
30
0
41
1
10
91.7631098630258
20
11.2110946790576
30
0
41
1
10
91.7627753209648
20
11.2207421294216
30
0
41
1
10
91.762341433199
20
11.2335954264289
30
0
41
1
10
91.7619590804636
20
11.2453650155754
30
0
41
1
10
91.7616545863203
20
11.2539463636069
30
0
41
1
10
91.761403255701
20
11.2604011869833
30
0
41
1
10
91.7611770390523
20
11.2657939506711
30
0
41
1
10
91.760981314257
20
11.2720707587021
30
0
41
1
10
91.7609638989734
20
11.2779365592123
30
0
41
1
10
91.7613724984246
20
11.2896736645191
30
0
41
1
10
91.7638733141727
20
11.3082147728532
30
0
41
1
10
91.7715473784048
20
11.3329747676226
30
0
41
1
10
91.7839241298403
20
11.3567671149136
30
0
41
1
10
91.8005041724369
20
11.3783420726864
30
0
41
1
10
91.8207881101524
20
11.396449898901
30
0
41
1
10
91.8435688254239
20
11.4105033334561
30
0
41
1
10
91.8676392006885
20
11.4199151162505
30
0
41
1
10
91.8858903130787
20
11.4237127319138
30
0
41
1
10
91.8975257704982
20
11.424940632097
30
0
41
1
10
91.9033562302733
20
11.4253323704339
30
0
41
1
10
91.9096075744204
20
11.4255742245932
30
0
41
1
10
91.914982510577
20
11.4257238771696
30
0
41
1
10
91.9214146395472
20
11.4259224667929
30
0
41
1
10
91.9299637492089
20
11.4262161586759
30
0
41
1
10
91.9416866620648
20
11.4266542854012
30
0
41
1
10
91.9534231688712
20
11.427077892188
30
0
41
1
10
91.9619650850024
20
11.427379267608
30
0
41
1
10
91.9683734476329
20
11.4276032424781
30
0
41
1
10
91.9726465248734
20
11.4277516666599
30
0
41
1
10
91.9769201830425
20
11.4278994703417
30
0
41
1
10
91.9811941436445
20
11.4280469509896
30
0
41
1
10
91.9865370023595
20
11.4282308660474
30
0
41
1
10
92.0592015086155
20
11.430730372225
30
0
41
1
10
92.1638253847931
20
11.4344378118229
30
0
41
1
10
92.2748806202115
20
11.4383446632056
30
0
41
1
10
92.3261403880492
20
11.4401440812701
30
0
41
1
10
92.3474991480693
20
11.4408932797217
30
0
41
1
10
92.3624505229586
20
11.4414174592185
30
0
41
1
10
92.3709942305853
20
11.4417169211105
30
0
41
1
10
92.3795379799138
20
11.44201633846
30
0
41
1
10
92.3902177419152
20
11.442390529674
30
0
41
1
10
92.4073055096843
20
11.4429890769298
30
0
41
1
10
92.424393482063
20
11.4435874056383
30
0
41
1
10
92.4393456050069
20
11.4441107861247
30
0
41
1
10
92.4478897127326
20
11.4444098206639
30
0
41
1
10
92.4564338439196
20
11.4447088301436
30
0
41
1
10
92.4671140490433
20
11.445082548051
30
0
41
1
10
92.4842024528459
20
11.4456804159481
30
0
41
1
10
92.5141073260419
20
11.4467265068819
30
0
41
1
10
92.5568288668929
20
11.4482206090861
30
0
41
1
10
92.7277146495925
20
11.4541974245401
30
0
41
1
10
93.0182026835407
20
11.4643770197182
30
0
41
1
10
93.5649812471671
20
11.4835625807532
30
0
41
1
10
94.2484819614518
20
11.5075151483957
30
0
41
1
10
94.7952774736148
20
11.5266826063996
30
0
41
1
10
95.0686752296963
20
11.5362663354015
30
0
0
SPLINE
5
1EF
100
AcDbEntity
8
1
62
256
6
ByLayer
370
-1
48
1
60
0
100
AcDbSpline
70
4
71
1
72
4
73
2
40
0
40
0
40
1
40
1
41
1
10
95.357906085148
20
3.83319254501242
30
0
41
1
10
91.9729074182749
20
3.71453425622391
30
0
0
SPLINE
5
1F0
100
AcDbEntity
8
1
62
256
6
ByLayer
370
-1
48
1
60
0
100
AcDbSpline
70
4
71
1
72
4
73
2
40
0
40
0
40
1
40
1
41
1
10
99.5665586554885
20
8.36365966799903
30
0
41
1
10
99.6847654136643
20
4.96573085613409
30
0
0
SPLINE
5
1F1
100
AcDbEntity
8
1
62
256
6
ByLayer
370
-1
48
1
60
0
100
AcDbSpline
70
4
71
3
72
87
73
83
40
0
40
0
40
0
40
0
40
0.125
40
0.25
40
0.375
40
0.390625
40
0.39453125
40
0.396484375
40
0.3984375
40
0.3994140625
40
0.400390625
40
0.40234375
40
0.40625
40
0.408203125
40
0.41015625
40
0.412109375
40
0.4140625
40
0.421875
40
0.4375
40
0.453125
40
0.46826171875
40
0.46875
40
0.4697265625
40
0.47021484375
40
0.470703125
40
0.4716796875
40
0.47216796875
40
0.47265625
40
0.474609375
40
0.4765625
40
0.478515625
40
0.47998046875
40
0.48046875
40
0.4814453125
40
0.482421875
40
0.4833984375
40
0.484375
40
0.48828125
40
0.4921875
40
0.49609375
40
0.5
40
0.50390625
40
0.5078125
40
0.51171875
40
0.515625
40
0.5166015625
40
0.517578125
40
0.5185546875
40
0.51953125
40
0.52001953125
40
0.521484375
40
0.5234375
40
0.525390625
40
0.52685546875
40
0.52734375
40
0.5283203125
40
0.52880859375
40
0.529296875
40
0.5302734375
40
0.53125
40
0.5625
40
0.578125
40
0.58203125
40
0.5859375
40
0.587890625
40
0.5888671875
40
0.58984375
40
0.591796875
40
0.59375
40
0.59765625
40
0.599609375
40
0.6005859375
40
0.6015625
40
0.603515625
40
0.60546875
40
0.609375
40
0.6171875
40
0.625
40
0.6875
40
0.75
40
0.875
40
1
40
1
40
1
40
1
41
1
10
98.4971828193025
20
8.32691874866021
30
0
41
1
10
98.5067300793222
20
8.05247665756573
30
0
41
1
10
98.5258245993616
20
7.50359247537682
30
0
41
1
10
98.5544749641147
20
6.68025916819929
30
0
41
1
10
98.5747337036967
20
6.09709363986354
30
0
41
1
10
98.5858006578422
20
5.77974708361847
30
0
41
1
10
98.5874451370806
20
5.73257444548844
30
0
41
1
10
98.5880430218767
20
5.71542084710242
30
0
41
1
10
98.588416646421
20
5.70469989190835
30
0
41
1
10
98.5887155088258
20
5.69612315825805
30
0
41
1
10
98.5890143446908
20
5.68754644635322
30
0
41
1
10
98.5895372332737
20
5.67253726130008
30
0
41
1
10
98.5901346300356
20
5.65538406278637
30
0
41
1
10
98.5907317953394
20
5.6382310539185
30
0
41
1
10
98.5911795432713
20
5.62536640054375
30
0
41
1
10
98.5916271548401
20
5.61250185889844
30
0
41
1
10
98.5925220846179
20
5.58677301597317
30
0
41
1
10
98.5944593983358
20
5.53102858319096
30
0
41
1
10
98.5974319503811
20
5.44527441533043
30
0
41
1
10
98.6009440718803
20
5.34345591241305
30
0
41
1
10
98.6033389658832
20
5.27483877008893
30
0
41
1
10
98.6046296539209
20
5.238370836645
30
0
41
1
10
98.6047817062987
20
5.23408032215215
30
0
41
1
10
98.6049336774419
20
5.22978987421911
30
0
41
1
10
98.6050854984417
20
5.22549954930653
30
0
41
1
10
98.6052369502459
20
5.22120952689545
30
0
41
1
10
98.6053877448935
20
5.21692004292748
30
0
41
1
10
98.6056131357279
20
5.21048647338952
30
0
41
1
10
98.6059476777888
20
5.20083902302554
30
0
41
1
10
98.6063815655546
20
5.18798572601824
30
0
41
1
10
98.6067639182901
20
5.17621613687177
30
0
41
1
10
98.6070684124333
20
5.16763478884019
30
0
41
1
10
98.6073197430526
20
5.16117996546384
30
0
41
1
10
98.6075459597013
20
5.15578720177601
30
0
41
1
10
98.6077416844966
20
5.149510393745
30
0
41
1
10
98.6077590997803
20
5.14364459323485
30
0
41
1
10
98.6073505003291
20
5.13190748792798
30
0
41
1
10
98.6048496845809
20
5.11336637959391
30
0
41
1
10
98.5971756203488
20
5.08860638482449
30
0
41
1
10
98.5847988689133
20
5.06481403753344
30
0
41
1
10
98.5682188263167
20
5.0432390797607
30
0
41
1
10
98.5479348886012
20
5.02513125354611
30
0
41
1
10
98.5251541733297
20
5.011077818991
30
0
41
1
10
98.5010837980652
20
5.00166603619658
30
0
41
1
10
98.4828326856749
20
4.99786842053328
30
0
41
1
10
98.4711972282554
20
4.9966405203501
30
0
41
1
10
98.4653667684804
20
4.99624878201323
30
0
41
1
10
98.4591154243333
20
4.99600692785387
30
0
41
1
10
98.4537404881767
20
4.99585727527747
30
0
41
1
10
98.4473083592064
20
4.99565868565418
30
0
41
1
10
98.4387592495447
20
4.9953649937712
30
0
41
1
10
98.4270363366888
20
4.9949268670459
30
0
41
1
10
98.4152998298824
20
4.99450326025908
30
0
41
1
10
98.4067579137513
20
4.99420188483904
30
0
41
1
10
98.4003495511208
20
4.99397790996898
30
0
41
1
10
98.3960764738802
20
4.99382948578722
30
0
41
1
10
98.3918028157111
20
4.99368168210543
30
0
41
1
10
98.3875288551092
20
4.99353420145755
30
0
41
1
10
98.3821859963941
20
4.99335028639973
30
0
41
1
10
98.3095214901381
20
4.99085078022213
30
0
41
1
10
98.2048976139606
20
4.98714334062421
30
0
41
1
10
98.0938423785421
20
4.98323648924151
30
0
41
1
10
98.0425826107045
20
4.981437071177
30
0
41
1
10
98.0212238506844
20
4.98068787272544
30
0
41
1
10
98.006272475795
20
4.98016369322863
30
0
41
1
10
97.9977287681684
20
4.97986423133665
30
0
41
1
10
97.9891850188399
20
4.97956481398711
30
0
41
1
10
97.9785052568384
20
4.97919062277307
30
0
41
1
10
97.9614174890694
20
4.97859207551735
30
0
41
1
10
97.9443295166906
20
4.97799374680883
30
0
41
1
10
97.9293773937467
20
4.97747036632239
30
0
41
1
10
97.920833286021
20
4.97717133178324
30
0
41
1
10
97.912289154834
20
4.97687232230354
30
0
41
1
10
97.9016089497104
20
4.97649860439614
30
0
41
1
10
97.8845205459078
20
4.97590073649906
30
0
41
1
10
97.8546156727117
20
4.97485464556516
30
0
41
1
10
97.8118941318606
20
4.97336054336097
30
0
41
1
10
97.6410083491611
20
4.96738372790702
30
0
41
1
10
97.3505203152129
20
4.95720413272892
30
0
41
1
10
96.8037417515865
20
4.93801857169396
30
0
41
1
10
96.1202410373019
20
4.91406600405145
30
0
41
1
10
95.5734455251388
20
4.89489854604756
30
0
41
1
10
95.3000477690573
20
4.88531481704561
30
0
0
SPLINE
5
1F2
100
AcDbEntity
8
1
62
256
6
ByLayer
370
-1
48
1
60
0
100
AcDbSpline
70
4
71
3
72
39
73
35
40
0
40
0
40
0
40
0
40
0.0060880048236131
40
0.0231194529331461
40
0.0316351769879126
40
0.0571823491522121
40
0.091245245371278
40
0.125308141590344
40
0.150855313754644
40
0.15937103780941
40
0.176402485918943
40
0.193433934028476
40
0.210465382138009
40
0.227496830247542
40
0.295622622685674
40
0.363748415123806
40
0.431874207561938
40
0.50000000000007
40
0.5681257924382
40
0.636251584876334
40
0.704377377314466
40
0.772503169752598
40
0.789534617862131
40
0.806566065971664
40
0.823597514081197
40
0.840628962190729
40
0.849144686245496
40
0.874691858409797
40
0.908754754628861
40
0.942817650847925
40
0.976880547066993
40
0.985396271121758
40
0.993911995176523
40
1
40
1
40
1
40
1
41
1
10
99.3500962772683
20
4.02363885989516
30
0
41
1
10
99.3510283288018
20
4.02375787527856
30
0
41
1
10
99.3545499913841
20
4.02421321908881
30
0
41
1
10
99.3592999772833
20
4.02487050511081
30
0
41
1
10
99.3669681278109
20
4.02607640343203
30
0
41
1
10
99.3771893293563
20
4.02794005157392
30
0
41
1
10
99.3912609076245
20
4.03111253360174
30
0
41
1
10
99.4053899525208
20
4.03497371756683
30
0
41
1
10
99.415665147918
20
4.03822713143691
30
0
41
1
10
99.4233594347148
20
4.04086028104666
30
0
41
1
10
99.4297612912067
20
4.043175722911
30
0
41
1
10
99.4374195024737
20
4.04614959724373
30
0
41
1
10
99.4450457593695
20
4.04932031893085
30
0
41
1
10
99.4602184887228
20
4.05605846353163
30
0
41
1
10
99.4826188572486
20
4.06766458447404
30
0
41
1
10
99.5112559066139
20
4.0862194873859
30
0
41
1
10
99.5381980197164
20
4.10773687832034
30
0
41
1
10
99.5630277628066
20
4.13191955900407
30
0
41
1
10
99.5853277021347
20
4.1584703311639
30
0
41
1
10
99.6048316102682
20
4.18695045574938
30
0
41
1
10
99.6212732597746
20
4.21692119371008
30
0
41
1
10
99.6312444808598
20
4.24016195546955
30
0
41
1
10
99.6368822373672
20
4.25582557020357
30
0
41
1
10
99.6395012183845
20
4.26368348838562
30
0
41
1
10
99.6419223497724
20
4.27155967348551
30
0
41
1
10
99.6437767909101
20
4.27813184691931
30
0
41
1
10
99.6458568044636
20
4.28602038938246
30
0
41
1
10
99.6483731817187
20
4.29653665556648
30
0
41
1
10
99.651224710505
20
4.31095446458377
30
0
41
1
10
99.6535932132285
20
4.32656779765068
30
0
41
1
10
99.6548039237202
20
4.33822169433776
30
0
41
1
10
99.6553716302408
20
4.34598020178316
30
0
41
1
10
99.65559639385
20
4.34950775212579
30
0
41
1
10
99.6557270519007
20
4.35175538145032
30
0
41
1
10
99.655780308954
20
4.3526970162593
30
0
0
SPLINE
5
1F3
100
AcDbEntity
8
1
62
256
6
ByLayer
370
-1
48
1
60
0
100
AcDbSpline
70
4
71
3
72
33
73
29
40
0
40
0
40
0
40
0
40
0.015625
40
0.0234375
40
0.02734375
40
0.03125
40
0.046875
40
0.0625
40
0.125
40
0.1875
40
0.21875
40
0.234375
40
0.25
40
0.3125
40
0.375
40
0.4375
40
0.5
40
0.5625
40
0.578125
40
0.59375
40
0.625
40
0.65625
40
0.6875
40
0.75
40
0.8125
40
0.84375
40
0.875
40
1
40
1
40
1
40
1
41
1
10
91.8715401794511
20
8.09466240378688
30
0
41
1
10
91.8657817122548
20
8.09446054554977
30
0
41
1
10
91.8570496530695
20
8.09414964996802
30
0
41
1
10
91.8480864533211
20
8.09382196488352
30
0
41
1
10
91.8435179616594
20
8.09365201054217
30
0
41
1
10
91.8368284199583
20
8.09340196397247
30
0
41
1
10
91.826680634815
20
8.09302313192109
30
0
41
1
10
91.7996955228273
20
8.09201542124865
30
0
41
1
10
91.7592202414065
20
8.0905039411617
30
0
41
1
10
91.7142355085172
20
8.0888240796875
30
0
41
1
10
91.6827707770708
20
8.08764906164905
30
0
41
1
10
91.6647484838417
20
8.08697609459119
30
0
41
1
10
91.6379854928144
20
8.08597654992639
30
0
41
1
10
91.5955497189831
20
8.08440531504678
30
0
41
1
10
91.5346041981063
20
8.08217531221496
30
0
41
1
10
91.4701404453874
20
8.07984219933635
30
0
41
1
10
91.4031307999799
20
8.07744081631233
30
0
41
1
10
91.352052745978
20
8.07562758853797
30
0
41
1
10
91.3174354933122
20
8.07440517857566
30
0
41
1
10
91.2943201208083
20
8.07358858220746
30
0
41
1
10
91.2654053148465
20
8.07256728528506
30
0
41
1
10
91.2307066886038
20
8.07134112606255
30
0
41
1
10
91.1844557066265
20
8.06970958790731
30
0
41
1
10
91.1258641648629
20
8.06765426019555
30
0
41
1
10
91.0670328999787
20
8.06560445568957
30
0
41
1
10
91.0200931687439
20
8.06397719430515
30
0
41
1
10
90.9500182269353
20
8.06155776073629
30
0
41
1
10
90.8914710708464
20
8.05953681547231
30
0
41
1
10
90.8446787573498
20
8.05792148444809
30
0
0
SPLINE
5
1F4
100
AcDbEntity
8
1
62
256
6
ByLayer
370
-1
48
1
60
0
100
AcDbSpline
70
4
71
3
72
12
73
8
40
0
40
0
40
0
40
0
40
0.0219283654688616
40
0.141059655408833
40
0.379322235288776
40
0.855847395048662
40
1
40
1
40
1
40
1
41
1
10
99.4483327779898
20
11.7615877343406
30
0
41
1
10
99.4483130471259
20
11.7620976154205
30
0
41
1
10
99.4481848709107
20
11.7653774909073
30
0
41
1
10
99.4478151045893
20
11.7741961400373
30
0
41
1
10
99.4467588896286
20
11.7935712453772
30
0
41
1
10
99.4449566608407
20
11.8134875585232
30
0
41
1
10
99.443310193075
20
11.8278357364813
30
0
41
1
10
99.4429158683839
20
11.8311666087867
30
0
0
SPLINE
5
1F5
100
AcDbEntity
8
1
62
256
6
ByLayer
370
-1
48
1
60
0
100
AcDbSpline
70
4
71
3
72
12
73
8
40
0
40
0
40
0
40
0
40
0.0219283654688222
40
0.1410596554088
40
0.379322235288756
40
0.855847395048667
40
1
40
1
40
1
40
1
41
1
10
90.9629046348485
20
4.65999341810655
30
0
41
1
10
90.9629243657125
20
4.6594835370266
30
0
41
1
10
90.9630525419276
20
4.65620366153985
30
0
41
1
10
90.963422308249
20
4.64738501240979
30
0
41
1
10
90.9644785232097
20
4.62800990706987
30
0
41
1
10
90.9662807519976
20
4.60809359392394
30
0
41
1
10
90.9679272197633
20
4.59374541596586
30
0
41
1
10
90.9683215444545
20
4.59041454366044
30
0
0
SPLINE
5
1F6
100
AcDbEntity
8
1
62
256
6
ByLayer
370
-1
48
1
60
0
100
AcDbSpline
70
4
71
3
72
20
73
16
40
0
40
0
40
0
40
0
40
0.009819939746907
40
0.0174614009336005
40
0.0251028621202897
40
0.0403857844936706
40
0.0480272456803615
40
0.284912542467783
40
0.529439300441888
40
0.773966058415997
40
0.896229437403051
40
0.926795282149815
40
0.957361126896578
40
0.987926971643343
40
1
40
1
40
1
40
1
41
1
10
91.3622063572409
20
3.74363007932538
30
0
41
1
10
91.3638925442312
20
3.7435339818648
30
0
41
1
10
91.3669174238896
20
3.74337009382808
30
0
41
1
10
91.3713674052182
20
3.74313233841909
30
0
41
1
10
91.3768660056024
20
3.74284115812006
30
0
41
1
10
91.3824431759226
20
3.74254835851599
30
0
41
1
10
91.4298076389493
20
3.74006120221685
30
0
41
1
10
91.5181488312089
20
3.73541181701728
30
0
41
1
10
91.648482970566
20
3.72854916162825
30
0
41
1
10
91.7589562379821
20
3.72275408817058
30
0
41
1
10
91.8306599365286
20
3.71895238697454
30
0
41
1
10
91.8637566617882
20
3.71724472398878
30
0
41
1
10
91.8803034211574
20
3.71636775061413
30
0
41
1
10
91.8935101714105
20
3.71562318927317
30
0
41
1
10
91.9012047361167
20
3.71523033154546
30
0
41
1
10
91.9033837007996
20
3.71512423250172
30
0
0
SPLINE
5
1F7
100
AcDbEntity
8
1
62
256
6
ByLayer
370
-1
48
1
60
0
100
AcDbSpline
70
4
71
1
72
4
73
2
40
0
40
0
40
1
40
1
41
1
10
90.8446787573498
20
8.05792148444809
30
0
41
1
10
90.726471999174
20
11.455850296313
30
0
0
SPLINE
5
1F8
100
AcDbEntity
8
1
62
256
6
ByLayer
370
-1
48
1
60
0
100
AcDbSpline
70
4
71
3
72
12
73
8
40
0
40
0
40
0
40
0
40
0.144152604950902
40
0.620677764711136
40
0.858940344591253
40
0.978071634531285
40
1
40
1
40
1
40
1
41
1
10
98.5078537120396
20
12.7064569199454
30
0
41
1
10
98.5045160909709
20
12.706619436762
30
0
41
1
10
98.4901424788159
20
12.7072672894351
30
0
41
1
10
98.4702245666524
20
12.7076827037607
30
0
41
1
10
98.4508965287914
20
12.7073888315495
30
0
41
1
10
98.4421070437304
20
12.7071439482788
30
0
41
1
10
98.4388386672483
20
12.7070435081346
30
0
41
1
10
98.4383305873827
20
12.707027698614
30
0
0
SPLINE
5
1F9
100
AcDbEntity
8
1
62
256
6
ByLayer
370
-1
48
1
60
0
100
AcDbSpline
70
4
71
3
72
33
73
29
40
0
40
0
40
0
40
0
40
0.015625
40
0.0234375
40
0.02734375
40
0.03125
40
0.046875
40
0.0625
40
0.125
40
0.1875
40
0.21875
40
0.234375
40
0.25
40
0.3125
40
0.375
40
0.4375
40
0.5
40
0.5625
40
0.578125
40
0.59375
40
0.625
40
0.65625
40
0.6875
40
0.75
40
0.8125
40
0.84375
40
0.875
40
1
40
1
40
1
40
1
41
1
10
98.4971828193025
20
8.32691874866021
30
0
41
1
10
98.5029412864988
20
8.32712060689735
30
0
41
1
10
98.5119472402326
20
8.32743150247907
30
0
41
1
10
98.5216799712212
20
8.3277591875636
30
0
41
1
10
98.5268081509805
20
8.32792914190495
30
0
41
1
10
98.5343849081391
20
8.32817918847465
30
0
41
1
10
98.5458512217998
20
8.328558020526
30
0
41
1
10
98.5763606062797
20
8.32956573119844
30
0
41
1
10
98.6221221673351
20
8.33107721128542
30
0
41
1
10
98.6729812041261
20
8.33275707275959
30
0
41
1
10
98.708556618536
20
8.33393209079807
30
0
41
1
10
98.7289301696592
20
8.33460505785592
30
0
41
1
10
98.7591957670675
20
8.33560460252073
30
0
41
1
10
98.8064061195554
20
8.33717583740034
30
0
41
1
10
98.8726924455211
20
8.33940584023216
30
0
41
1
10
98.9413434387556
20
8.34173895311076
30
0
41
1
10
99.0113436629161
20
8.34414033613479
30
0
41
1
10
99.0637185351549
20
8.34595356390915
30
0
41
1
10
99.0988453540587
20
8.34717597387146
30
0
41
1
10
99.1223205340722
20
8.34799257023965
30
0
41
1
10
99.1516753821921
20
8.34901386716206
30
0
41
1
10
99.1869347399369
20
8.35024002638457
30
0
41
1
10
99.2337704615834
20
8.35187156453981
30
0
41
1
10
99.2924447532532
20
8.35392689225156
30
0
41
1
10
99.3505641976867
20
8.35597669675755
30
0
41
1
10
99.3964671607653
20
8.35760395814197
30
0
41
1
10
99.464431954551
20
8.36002339171083
30
0
41
1
10
99.5211889562117
20
8.3620443369748
30
0
41
1
10
99.5665586554885
20
8.36365966799903
30
0
0
SPLINE
5
1FA
100
AcDbEntity
8
1
62
256
6
ByLayer
370
-1
48
1
60
0
100
AcDbSpline
70
4
71
1
72
4
73
2
40
0
40
0
40
1
40
1
41
1
10
98.742904752021
20
3.95185083380096
30
0
41
1
10
95.357906085148
20
3.83319254501242
30
0
0
SPLINE
5
1FB
100
AcDbEntity
8
1
62
256
6
ByLayer
370
-1
48
1
60
0
100
AcDbSpline
70
4
71
1
72
4
73
2
40
0
40
0
40
1
40
1
41
1
10
90.9628855155255
20
4.65999267258317
30
0
41
1
10
90.8446787573498
20
8.05792148444809
30
0
0
SPLINE
5
1FC
100
AcDbEntity
8
1
62
256
6
ByLayer
370
-1
48
1
60
0
100
AcDbSpline
70
4
71
3
72
8
73
4
40
0
40
0
40
0
40
0
40
1
40
1
40
1
40
1
41
1
10
99.7526272735673
20
-3.96950537994073
30
0
41
1
10
99.7531826265574
20
-3.95363181332337
30
0
41
1
10
99.7539203497129
20
-3.93801285325111
30
0
41
1
10
99.7548254559098
20
-3.92267592811956
30
0
0
SPLINE
5
1FD
100
AcDbEntity
8
1
62
256
6
ByLayer
370
-1
48
1
60
0
100
AcDbSpline
70
4
71
3
72
12
73
8
40
0
40
0
40
0
40
0
40
0.25
40
0.25
40
0.5
40
0.5
40
1
40
1
40
1
40
1
41
1
10
99.6682941466303
20
-3.54542806395088
30
0
41
1
10
99.6839535409574
20
-3.57386057067268
30
0
41
1
10
99.6979524411456
20
-3.60389948584785
30
0
41
1
10
99.7215409661001
20
-3.66550988110319
30
0
41
1
10
99.731087465305
20
-3.69684149425856
30
0
41
1
10
99.7530585350009
20
-3.79239936202296
30
0
41
1
10
99.758604967331
20
-3.85863252204968
30
0
41
1
10
99.7548254559097
20
-3.9226759281195
30
0
0
SPLINE
5
1FE
100
AcDbEntity
8
1
62
256
6
ByLayer
370
-1
48
1
60
0
100
AcDbSpline
70
4
71
3
72
12
73
8
40
0
40
0
40
0
40
0
40
0.25
40
0.25
40
0.500000000000001
40
0.500000000000001
40
1
40
1
40
1
40
1
41
1
10
99.2866694369035
20
-0.496105628666243
30
0
41
1
10
99.2757981781785
20
-0.466759572489252
30
0
41
1
10
99.2655172567528
20
-0.437254933420462
30
0
41
1
10
99.2471955304412
20
-0.38147533511966
30
0
41
1
10
99.2390843926237
20
-0.355053690097975
30
0
41
1
10
99.21769829384
20
-0.281593215975562
30
0
41
1
10
99.2069885294331
20
-0.239419847987136
30
0
41
1
10
99.197961291944
20
-0.201047304348521
30
0
0
SPLINE
5
1FF
100
AcDbEntity
8
1
62
256
6
ByLayer
370
-1
48
1
60
0
100
AcDbSpline
70
4
71
3
72
20
73
16
40
0
40
0
40
0
40
0
40
0.25
40
0.25
40
0.500000000000001
40
0.500000000000001
40
0.625000000000001
40
0.625000000000001
40
0.750000000000001
40
0.750000000000001
40
0.8125
40
0.8125
40
0.874999999999999
40
0.874999999999999
40
1
40
1
40
1
40
1
41
1
10
99.8062706359468
20
-6.10357183241538
30
0
41
1
10
99.795521185487
20
-6.04832109598399
30
0
41
1
10
99.7849007877031
20
-5.99170434052448
30
0
41
1
10
99.76413972129
20
-5.87369521025954
30
0
41
1
10
99.753990024883
20
-5.81246537193564
30
0
41
1
10
99.7395591155122
20
-5.71345186013903
30
0
41
1
10
99.7348921917541
20
-5.67928653440424
30
0
41
1
10
99.7260360670997
20
-5.60708816381322
30
0
41
1
10
99.7218389651833
20
-5.56908141538077
30
0
41
1
10
99.7163125732188
20
-5.50764134552728
30
0
41
1
10
99.7145976384908
20
-5.48638587053821
30
0
41
1
10
99.7115479736085
20
-5.44155699818538
30
0
41
1
10
99.7102029186504
20
-5.41777615555691
30
0
41
1
10
99.7071778784206
20
-5.34298844414039
30
0
41
1
10
99.7065408273817
20
-5.28678694046735
30
0
41
1
10
99.7085404895307
20
-5.22963091376562
30
0
0
SPLINE
5
200
100
AcDbEntity
8
1
62
256
6
ByLayer
370
-1
48
1
60
0
100
AcDbSpline
70
4
71
3
72
14
73
10
40
0
40
0
40
0
40
0
40
0.25
40
0.25
40
0.5
40
0.5
40
0.75
40
0.75
40
1
40
1
40
1
40
1
41
1
10
98.8431555125784
20
1.06044532172083
30
0
41
1
10
98.856867185642
20
1.04720627326327
30
0
41
1
10
98.870447791668
20
1.03184297532559
30
0
41
1
10
98.8942142837556
20
0.999558298992582
30
0
41
1
10
98.9043191670013
20
0.982794358409791
30
0
41
1
10
98.920283298645
20
0.951537752982546
30
0
41
1
10
98.9264546869065
20
0.936619857187111
30
0
41
1
10
98.9362118992801
20
0.908931276217544
30
0
41
1
10
98.9398940937994
20
0.895932238704034
30
0
41
1
10
98.9428277384269
20
0.88346204425045
30
0
0
SPLINE
5
201
100
AcDbEntity
8
1
62
256
6
ByLayer
370
-1
48
1
60
0
100
AcDbSpline
70
4
71
3
72
16
73
12
40
0
40
0
40
0
40
0
40
0.249999999999997
40
0.249999999999997
40
0.499999999999995
40
0.499999999999995
40
0.749999999999992
40
0.749999999999992
40
0.874999999999996
40
0.874999999999996
40
1
40
1
40
1
40
1
41
1
10
99.8062706359468
20
-6.10357183241521
30
0
41
1
10
99.8120609229345
20
-6.13333313243814
30
0
41
1
10
99.8163754918813
20
-6.1641072979844
30
0
41
1
10
99.8207236247829
20
-6.22840851122999
30
0
41
1
10
99.8207931329403
20
-6.26194449653264
30
0
41
1
10
99.8139331411344
20
-6.33237678772909
30
0
41
1
10
99.8071715762473
20
-6.36961257576814
30
0
41
1
10
99.7863058904064
20
-6.42926746046999
30
0
41
1
10
99.7775216712682
20
-6.44981348869465
30
0
41
1
10
99.753918717318
20
-6.49224332703778
30
0
41
1
10
99.7395062738804
20
-6.51357786252498
30
0
41
1
10
99.7201676678445
20
-6.53506657218594
30
0
0
SPLINE
5
202
100
AcDbEntity
8
1
62
256
6
ByLayer
370
-1
48
1
60
0
100
AcDbSpline
70
4
71
3
72
8
73
4
40
0
40
0
40
0
40
0
40
1
40
1
40
1
40
1
41
1
10
99.2866694369035
20
-0.496105628666243
30
0
41
1
10
99.3046383858219
20
-0.544611307515652
30
0
41
1
10
99.3125168265441
20
-0.594401021368043
30
0
41
1
10
99.3122144416827
20
-0.639505468961488
30
0
0
SPLINE
5
203
100
AcDbEntity
8
1
62
256
6
ByLayer
370
-1
48
1
60
0
100
AcDbSpline
70
4
71
3
72
10
73
6
40
0
40
0
40
0
40
0
40
0.380837242210244
40
0.380837242210244
40
1
40
1
40
1
40
1
41
1
10
98.7459571340368
20
1.12991741436161
30
0
41
1
10
98.7576886159032
20
1.12383976288692
30
0
41
1
10
98.7697064950281
20
1.1169333476214
30
0
41
1
10
98.8020649524462
20
1.09594274101031
30
0
41
1
10
98.8223825096011
20
1.08050230501286
30
0
41
1
10
98.8431555150569
20
1.06044531932787
30
0
0
SPLINE
5
204
100
AcDbEntity
8
1
62
256
6
ByLayer
370
-1
48
1
60
0
100
AcDbSpline
70
4
71
3
72
8
73
4
40
0
40
0
40
0
40
0
40
1
40
1
40
1
40
1
41
1
10
99.3149661596398
20
-0.758836260712457
30
0
41
1
10
99.3127428016192
20
-0.716491192876902
30
0
41
1
10
99.3119673565175
20
-0.676361281878428
30
0
41
1
10
99.3122144416827
20
-0.639505468961517
30
0
0
SPLINE
5
205
100
AcDbEntity
8
1
62
256
6
ByLayer
370
-1
48
1
60
0
100
AcDbSpline
70
4
71
3
72
8
73
4
40
0
40
0
40
0
40
0
40
1
40
1
40
1
40
1
41
1
10
99.6682941466303
20
-3.54542806395091
30
0
41
1
10
99.6627266724868
20
-3.53531929200841
30
0
41
1
10
99.6573513144924
20
-3.52516368398457
30
0
41
1
10
99.6521700009117
20
-3.51496088430488
30
0
0
SPLINE
5
206
100
AcDbEntity
8
1
62
256
6
ByLayer
370
-1
48
1
60
0
100
AcDbSpline
70
4
71
3
72
14
73
10
40
0
40
0
40
0
40
0
40
0.25
40
0.25
40
0.5
40
0.5
40
0.75
40
0.75
40
1
40
1
40
1
40
1
41
1
10
99.7201676701518
20
-6.53506656962216
30
0
41
1
10
99.7074028037842
20
-6.54925065879036
30
0
41
1
10
99.692267397427
20
-6.5630620564128
30
0
41
1
10
99.6598016956116
20
-6.58666374879772
30
0
41
1
10
99.6426345464632
20
-6.59637859602731
30
0
41
1
10
99.6102283527939
20
-6.61122380718905
30
0
41
1
10
99.5945615691334
20
-6.61666401841191
30
0
41
1
10
99.5652482865308
20
-6.6248330051657
30
0
41
1
10
99.551362235018
20
-6.6276472179357
30
0
41
1
10
99.5379583126133
20
-6.62966666379077
30
0
0
SPLINE
5
207
100
AcDbEntity
8
SK1
62
256
6
ByLayer
370
-1
48
1
60
0
100
AcDbSpline
70
4
71
3
72
8
73
4
40
0
40
0
40
0
40
0
40
1
40
1
40
1
40
1
41
1
10
-55
20
-6.99849805315392
30
0
41
1
10
-55.3648529633576
20
-6.34700451336727
30
0
41
1
10
-55.7026345426883
20
-5.68249326840734
30
0
41
1
10
-56
20
-4.99854728896301
30
0
0
SPLINE
5
208
100
AcDbEntity
8
SK1
62
256
6
ByLayer
370
-1
48
1
60
0
100
AcDbSpline
70
4
71
3
72
20
73
16
40
0
40
0
40
0
40
0
40
0.125000000000007
40
0.125000000000007
40
0.250000000000015
40
0.250000000000015
40
0.312500000000018
40
0.312500000000018
40
0.375000000000022
40
0.375000000000022
40
0.500000000000012
40
0.500000000000012
40
0.750000000000006
40
0.750000000000006
40
1
40
1
40
1
40
1
41
1
10
-53.6338144512145
20
-6.34034179467375
30
0
41
1
10
-53.6736405326374
20
-6.31405714368671
30
0
41
1
10
-53.7174596238936
20
-6.2918915268643
30
0
41
1
10
-53.8100286430816
20
-6.26230917234659
30
0
41
1
10
-53.858409060093
20
-6.25510537770515
30
0
41
1
10
-53.930507607687
20
-6.25719119578449
30
0
41
1
10
-53.9548847131617
20
-6.26004287846277
30
0
41
1
10
-54.0024268232708
20
-6.26975628298462
30
0
41
1
10
-54.025531470073
20
-6.27654559824734
30
0
41
1
10
-54.0930893921825
20
-6.30200607369946
30
0
41
1
10
-54.136092797726
20
-6.32609087475549
30
0
41
1
10
-54.2534188607808
20
-6.41013429612562
30
0
41
1
10
-54.3194596979378
20
-6.48308041368765
30
0
41
1
10
-54.4306544823114
20
-6.63915672058906
30
0
41
1
10
-54.4771151388184
20
-6.72418194167685
30
0
41
1
10
-54.5162227297291
20
-6.81204395564961
30
0
0
SPLINE
5
209
100
AcDbEntity
8
SK1
62
256
6
ByLayer
370
-1
48
1
60
0
100
AcDbSpline
70
4
71
3
72
20
73
16
40
0
40
0
40
0
40
0
40
0.25
40
0.25
40
0.375
40
0.375
40
0.5
40
0.5
40
0.625
40
0.625
40
0.75
40
0.75
40
0.875
40
0.875
40
1
40
1
40
1
40
1
41
1
10
-54.5162227297291
20
6.81204395564973
30
0
41
1
10
-54.4772709483907
20
6.72453199501689
30
0
41
1
10
-54.4306845518237
20
6.63914767831511
30
0
41
1
10
-54.3469265709005
20
6.52165950363116
30
0
41
1
10
-54.3163253277688
20
6.4838456686486
30
0
41
1
10
-54.2501041764424
20
6.41421731653315
30
0
41
1
10
-54.2145625265326
20
6.38236090680323
30
0
41
1
10
-54.1369222939179
20
6.32662557921188
30
0
41
1
10
-54.0940013611407
20
6.30244517653043
30
0
41
1
10
-54.0037548865671
20
6.26824500575401
30
0
41
1
10
-53.9556146989167
20
6.25796898452336
30
0
41
1
10
-53.8582046255659
20
6.25504848254033
30
0
41
1
10
-53.8099490429817
20
6.26234710426348
30
0
41
1
10
-53.7177558858445
20
6.29178438547694
30
0
41
1
10
-53.6739857261288
20
6.31382932086129
30
0
41
1
10
-53.6338144512151
20
6.3403417946746
30
0
0
SPLINE
5
20A
100
AcDbEntity
8
SK1
62
256
6
ByLayer
370
-1
48
1
60
0
100
AcDbSpline
70
4
71
3
72
8
73
4
40
0
40
0
40
0
40
0
40
1
40
1
40
1
40
1
41
1
10
-54.6
20
6.99849805315404
30
0
41
1
10
-54.5718676648179
20
6.93646419260517
30
0
41
1
10
-54.5439393896427
20
6.87431425928909
30
0
41
1
10
-54.516222729729
20
6.81204395564973
30
0
0
SPLINE
5
20B
100
AcDbEntity
8
SK1
62
256
6
ByLayer
370
-1
48
1
60
0
100
AcDbSpline
70
4
71
3
72
8
73
4
40
0
40
0
40
0
40
0
40
1
40
1
40
1
40
1
41
1
10
-53.6338144512151
20
6.34034179467457
30
0
41
1
10
-53.292222119692
20
6.56578790669803
30
0
41
1
10
-52.9473802440142
20
6.78469639798695
30
0
41
1
10
-52.6000000000004
20
6.99849805315478
30
0
0
SPLINE
5
20C
100
AcDbEntity
8
SK1
62
256
6
ByLayer
370
-1
48
1
60
0
100
AcDbSpline
70
4
71
3
72
68
73
64
40
0
40
0
40
0
40
0
40
0.015625
40
0.015625
40
0.0312499999999999
40
0.0312499999999999
40
0.0468749999999999
40
0.0468749999999999
40
0.0624999999999998
40
0.0624999999999998
40
0.0781249999999998
40
0.0781249999999998
40
0.0937499999999997
40
0.0937499999999997
40
0.125
40
0.125
40
0.15625
40
0.15625
40
0.1875
40
0.1875
40
0.25
40
0.25
40
0.28125
40
0.28125
40
0.3125
40
0.3125
40
0.375
40
0.375
40
0.4375
40
0.4375
40
0.46875
40
0.46875
40
0.5
40
0.5
40
0.5625
40
0.5625
40
0.625
40
0.625
40
0.6875
40
0.6875
40
0.75
40
0.75
40
0.8125
40
0.8125
40
0.84375
40
0.84375
40
0.859375
40
0.859375
40
0.875
40
0.875
40
0.90625
40
0.90625
40
0.921875
40
0.921875
40
0.9375
40
0.9375
40
0.953125
40
0.953125
40
0.96875
40
0.96875
40
0.984375
40
0.984375
40
1
40
1
40
1
40
1
41
1
10
-6.5
20
-6.99849805315398
30
0
41
1
10
-6.4096424095903
20
-6.99849805315398
30
0
41
1
10
-6.31887533751086
20
-6.9924669932976
30
0
41
1
10
-6.13726564177031
20
-6.96792032412691
30
0
41
1
10
-6.04880117468585
20
-6.94974705973743
30
0
41
1
10
-5.87614107362342
20
-6.90252164638767
30
0
41
1
10
-5.79194795071362
20
-6.87346297167917
30
0
41
1
10
-5.62761370230606
20
-6.80484072991021
30
0
41
1
10
-5.54890965383427
20
-6.76585529638666
30
0
41
1
10
-5.39867973784189
20
-6.68016521734489
30
0
41
1
10
-5.32694157755157
20
-6.63336290342139
30
0
41
1
10
-5.18947718430641
20
-6.53250060019133
30
0
41
1
10
-5.12348684568531
20
-6.47818603126365
30
0
41
1
10
-4.93566988154686
20
-6.30674027670506
30
0
41
1
10
-4.82518003213681
20
-6.18267595320251
30
0
41
1
10
-4.62603001440084
20
-5.91868980815966
30
0
41
1
10
-4.53721391214785
20
-5.77825879287735
30
0
41
1
10
-4.37814656673874
20
-5.48542007115435
30
0
41
1
10
-4.30877871567313
20
-5.33483042069352
30
0
41
1
10
-4.12354082750574
20
-4.87237000918773
30
0
41
1
10
-4.03020120532329
20
-4.54989217457512
30
0
41
1
10
-3.91807144557504
20
-4.04887624586692
30
0
41
1
10
-3.88552668802802
20
-3.87909831441809
30
0
41
1
10
-3.82866773565829
20
-3.53847076026688
30
0
41
1
10
-3.80422767364425
20
-3.36705941807358
30
0
41
1
10
-3.74020579920568
20
-2.84975913582008
30
0
41
1
10
-3.70977205452269
20
-2.5008195214777
30
0
41
1
10
-3.66416163751657
20
-1.79552608157809
30
0
41
1
10
-3.64903771748126
20
-1.43916908464092
30
0
41
1
10
-3.63426182330713
20
-0.899256752194447
30
0
41
1
10
-3.63068669313998
20
-0.718167674817778
30
0
41
1
10
-3.62598899859142
20
-0.357375695924361
30
0
41
1
10
-3.62485343662013
20
-0.177302953433326
30
0
41
1
10
-3.62488496014578
20
0.361962578325034
30
0
41
1
10
-3.62938260517049
20
0.720207066315254
30
0
41
1
10
-3.64887950283875
20
1.43414621185846
30
0
41
1
10
-3.66385562324439
20
1.78984138878459
30
0
41
1
10
-3.70956223321124
20
2.49851694715909
30
0
41
1
10
-3.74045671775656
20
2.85271919963691
30
0
41
1
10
-3.82645737175278
20
3.54573152185978
30
0
41
1
10
-3.88145968550236
20
3.88575414429386
30
0
41
1
10
-4.03051920995767
20
4.55084385300148
30
0
41
1
10
-4.12523349261875
20
4.87761469840365
30
0
41
1
10
-4.31105593218689
20
5.33999328729007
30
0
41
1
10
-4.38041029850672
20
5.4899128326384
30
0
41
1
10
-4.49888437250004
20
5.70752713951083
30
0
41
1
10
-4.54079549132547
20
5.77885043055693
30
0
41
1
10
-4.63023926406612
20
5.91883578995851
30
0
41
1
10
-4.67776791395602
20
5.98743717509882
30
0
41
1
10
-4.82792587490127
20
6.18597359029033
30
0
41
1
10
-4.93858588995937
20
6.30966494075429
30
0
41
1
10
-5.12522766477915
20
6.47964028567972
30
0
41
1
10
-5.19131964832849
20
6.53397024553271
30
0
41
1
10
-5.32929892448178
20
6.63497116118225
30
0
41
1
10
-5.40112275258878
20
6.68167605293547
30
0
41
1
10
-5.55102867370906
20
6.76694298534821
30
0
41
1
10
-5.62910582891868
20
6.80551115138627
30
0
41
1
10
-5.79238720600742
20
6.87359848794483
30
0
41
1
10
-5.87738605118548
20
6.90291103819595
30
0
41
1
10
-6.04966564042599
20
6.94993403370722
30
0
41
1
10
-6.13756051826556
20
6.96792637087054
30
0
41
1
10
-6.31709499624006
20
6.99225989008042
30
0
41
1
10
-6.40924253974518
20
6.99849805315398
30
0
41
1
10
-6.5
20
6.99849805315398
30
0
0
SPLINE
5
20D
100
AcDbEntity
8
SK1
62
256
6
ByLayer
370
-1
48
1
60
0
100
AcDbSpline
70
4
71
3
72
8
73
4
40
0
40
0
40
0
40
0
40
1
40
1
40
1
40
1
41
1
10
-54.516222729729
20
-6.81204395564961
30
0
41
1
10
-54.5439393896427
20
-6.87431425928901
30
0
41
1
10
-54.5718676648179
20
-6.93646419260506
30
0
41
1
10
-54.6
20
-6.99849805315392
30
0
0
SPLINE
5
20E
100
AcDbEntity
8
SK1
62
256
6
ByLayer
370
-1
48
1
60
0
100
AcDbSpline
70
4
71
3
72
8
73
4
40
0
40
0
40
0
40
0
40
1
40
1
40
1
40
1
41
1
10
-56.0000000000001
20
4.99854728896315
30
0
41
1
10
-55.7019755215914
20
5.68400902895925
30
0
41
1
10
-55.3641473109836
20
6.34826454962635
30
0
41
1
10
-55
20
6.99849805315404
30
0
0
SPLINE
5
20F
100
AcDbEntity
8
SK1
62
256
6
ByLayer
370
-1
48
1
60
0
100
AcDbSpline
70
4
71
3
72
8
73
4
40
0
40
0
40
0
40
0
40
1
40
1
40
1
40
1
41
1
10
-52.6000000000004
20
-6.99849805315466
30
0
41
1
10
-52.9473802440142
20
-6.78469639798683
30
0
41
1
10
-53.292222119692
20
-6.56578790669792
30
0
41
1
10
-53.6338144512151
20
-6.34034179467449
30
0
0
LINE
5
45
100
AcDbEntity
8
80
62
256
6
ByLayer
370
-1
48
1
60
0
100
AcDbLine
10
0
20
0
30
0
11
-7
21
0
31
0
39
0
210
0
220
0
230
1
0
LINE
5
46
100
AcDbEntity
8
81
62
256
6
ByLayer
370
-1
48
1
60
0
100
AcDbLine
10
100
20
0
30
0
11
107
21
0
31
0
39
0
210
0
220
0
230
1
0
LINE
5
47
100
AcDbEntity
8
1
62
256
6
ByLayer
370
-1
48
1
60
0
100
AcDbLine
10
0.2
20
16
30
0
11
0
21
15.8
31
0
39
0
210
0
220
0
230
1
0
LINE
5
49
100
AcDbEntity
8
1
62
256
6
ByLayer
370
-1
48
1
60
0
100
AcDbLine
10
0
20
-15.8
30
0
11
0.2
21
-16
31
0
39
0
210
0
220
0
230
1
0
LINE
5
4A
100
AcDbEntity
8
1
62
256
6
ByLayer
370
-1
48
1
60
0
100
AcDbLine
10
5
20
16
30
0
11
0.2
21
16
31
0
39
0
210
0
220
0
230
1
0
LINE
5
4B
100
AcDbEntity
8
1
62
256
6
ByLayer
370
-1
48
1
60
0
100
AcDbLine
10
0.2
20
-16
30
0
11
5
21
-16
31
0
39
0
210
0
220
0
230
1
0
LINE
5
4C
100
AcDbEntity
8
1
62
256
6
ByLayer
370
-1
48
1
60
0
100
AcDbLine
10
51.80928
20
12.3
30
0
11
20
21
12.3
31
0
39
0
210
0
220
0
230
1
0
LINE
5
4D
100
AcDbEntity
8
1
62
256
6
ByLayer
370
-1
48
1
60
0
100
AcDbLine
10
90.434864
20
12.3
30
0
11
89.490217
21
12.3
31
0
39
0
210
0
220
0
230
1
0
LINE
5
4E
100
AcDbEntity
8
1
62
256
6
ByLayer
370
-1
48
1
60
0
100
AcDbLine
10
20
20
-12.3
30
0
11
48.53683
21
-12.3
31
0
39
0
210
0
220
0
230
1
0
LINE
5
4F
100
AcDbEntity
8
SK1
62
256
6
ByLayer
370
-1
48
1
60
0
100
AcDbLine
10
-2
20
-12.49675
30
0
11
-1.551212
21
-12.287477
31
0
39
0
210
0
220
0
230
1
0
LINE
5
51
100
AcDbEntity
8
SK1
62
256
6
ByLayer
370
-1
48
1
60
0
100
AcDbLine
10
-1.551212
20
12.287477
30
0
11
-2
21
12.49675
31
0
39
0
210
0
220
0
230
1
0
LINE
5
52
100
AcDbEntity
8
SK1
62
256
6
ByLayer
370
-1
48
1
60
0
100
AcDbLine
10
-2
20
12.49675
30
0
11
-52.6
21
12.49675
31
0
39
0
210
0
220
0
230
1
0
LINE
5
53
100
AcDbEntity
8
SK1
62
256
6
ByLayer
370
-1
48
1
60
0
100
AcDbLine
10
-52.6
20
-12.49675
30
0
11
-2
21
-12.49675
31
0
39
0
210
0
220
0
230
1
0
LINE
5
54
100
AcDbEntity
8
SK1
62
256
6
ByLayer
370
-1
48
1
60
0
100
AcDbLine
10
-0.15
20
12.25
30
0
11
-1.382165
21
12.25
31
0
39
0
210
0
220
0
230
1
0
LINE
5
55
100
AcDbEntity
8
SK1
62
256
6
ByLayer
370
-1
48
1
60
0
100
AcDbLine
10
-1.382165
20
-12.25
30
0
11
-0.15
21
-12.25
31
0
39
0
210
0
220
0
230
1
0
LINE
5
56
100
AcDbEntity
8
SK1
62
256
6
ByLayer
370
-1
48
1
60
0
100
AcDbLine
10
-54.6
20
-12.49675
30
0
11
-54.516223
21
-12.393294
31
0
39
0
210
0
220
0
230
1
0
LINE
5
57
100
AcDbEntity
8
SK1
62
256
6
ByLayer
370
-1
48
1
60
0
100
AcDbLine
10
-54.516223
20
12.393294
30
0
11
-54.6
21
12.49675
31
0
39
0
210
0
220
0
230
1
0
LINE
5
58
100
AcDbEntity
8
SK1
62
256
6
ByLayer
370
-1
48
1
60
0
100
AcDbLine
10
-52.6
20
12.49675
30
0
11
-53.633814
21
12.140417
31
0
39
0
210
0
220
0
230
1
0
LINE
5
59
100
AcDbEntity
8
SK1
62
256
6
ByLayer
370
-1
48
1
60
0
100
AcDbLine
10
-53.633814
20
-12.140417
30
0
11
-52.6
21
-12.49675
31
0
39
0
210
0
220
0
230
1
0
LINE
5
5A
100
AcDbEntity
8
SK1
62
256
6
ByLayer
370
-1
48
1
60
0
100
AcDbLine
10
-55
20
12.49675
30
0
11
-56
21
11.49675
31
0
39
0
210
0
220
0
230
1
0
LINE
5
5B
100
AcDbEntity
8
SK1
62
256
6
ByLayer
370
-1
48
1
60
0
100
AcDbLine
10
-56
20
-11.49675
30
0
11
-55
21
-12.49675
31
0
39
0
210
0
220
0
230
1
0
LINE
5
5C
100
AcDbEntity
8
SK1
62
256
6
ByLayer
370
-1
48
1
60
0
100
AcDbLine
10
-54.6
20
12.49675
30
0
11
-55
21
12.49675
31
0
39
0
210
0
220
0
230
1
0
LINE
5
5D
100
AcDbEntity
8
SK1
62
256
6
ByLayer
370
-1
48
1
60
0
100
AcDbLine
10
-55
20
-12.49675
30
0
11
-54.6
21
-12.49675
31
0
39
0
210
0
220
0
230
1
0
LINE
5
5E
100
AcDbEntity
8
SK4
62
256
6
ByLayer
370
-1
48
0.05
60
0
100
AcDbLine
10
100
20
0
30
0
11
-56
21
0
31
0
39
0
210
0
220
0
230
1
0
LINE
5
60
100
AcDbEntity
8
4
62
256
6
ByLayer
370
-1
48
0.05
60
0
100
AcDbLine
10
100
20
0
30
0
11
0
21
0
31
0
39
0
210
0
220
0
230
1
0
LINE
5
62
100
AcDbEntity
8
1
62
256
6
ByLayer
370
-1
48
1
60
0
100
AcDbLine
10
86.812731
20
4.75306
30
0
11
85.982342
21
5.106886
31
0
39
0
210
0
220
0
230
1
0
LINE
5
63
100
AcDbEntity
8
1
62
256
6
ByLayer
370
-1
48
1
60
0
100
AcDbLine
10
90.539472
20
8.443567
30
0
11
90.427696
21
12.299727
31
0
39
0
210
0
220
0
230
1
0
LINE
5
64
100
AcDbEntity
8
1
62
256
6
ByLayer
370
-1
48
1
60
0
100
AcDbLine
10
88.255971
20
7.054589
30
0
11
80.969831
21
7.869266
31
0
39
0
210
0
220
0
230
1
0
LINE
5
65
100
AcDbEntity
8
1
62
256
6
ByLayer
370
-1
48
1
60
0
100
AcDbLine
10
80.26477
20
8.28
30
0
11
81.077027
21
8.28
31
0
39
0
210
0
220
0
230
1
0
LINE
5
66
100
AcDbEntity
8
1
62
256
6
ByLayer
370
-1
48
1
60
0
100
AcDbLine
10
88.255971
20
7.054589
30
0
11
88.255971
21
12.299526
31
0
39
0
210
0
220
0
230
1
0
LINE
5
67
100
AcDbEntity
8
1
62
256
6
ByLayer
370
-1
48
1
60
0
100
AcDbLine
10
98.784458
20
1.125892
30
0
11
98.857089
21
1.12336
31
0
39
0
210
0
220
0
230
1
0
LINE
5
68
100
AcDbEntity
8
1
62
256
6
ByLayer
370
-1
48
1
60
0
100
AcDbLine
10
98.566705
20
3.662333
30
0
11
98.285004
21
3.678453
31
0
39
0
210
0
220
0
230
1
0
LINE
5
69
100
AcDbEntity
8
1
62
256
6
ByLayer
370
-1
48
1
60
0
100
AcDbLine
10
98.285004
20
3.678453
30
0
11
98.490664
21
3.678453
31
0
39
0
210
0
220
0
230
1
0
LINE
5
6A
100
AcDbEntity
8
1
62
256
6
ByLayer
370
-1
48
1
60
0
100
AcDbLine
10
88.125958
20
0.58933
30
0
11
88.494947
21
1.858731
31
0
39
0
210
0
220
0
230
1
0
LINE
5
6B
100
AcDbEntity
8
1
62
256
6
ByLayer
370
-1
48
1
60
0
100
AcDbLine
10
98.799031
20
1.149803
30
0
11
98.807773
21
1.149499
31
0
39
0
210
0
220
0
230
1
0
LINE
5
6C
100
AcDbEntity
8
1
62
256
6
ByLayer
370
-1
48
1
60
0
100
AcDbLine
10
90.455001
20
12.29786
30
0
11
90.566723
21
8.443567
31
0
39
0
210
0
220
0
230
1
0
LINE
5
6D
100
AcDbEntity
8
1
62
256
6
ByLayer
370
-1
48
1
60
0
100
AcDbLine
10
98.771605
20
0.588142
30
0
11
98.776191
21
0.515288
31
0
39
0
210
0
220
0
230
1
0
LINE
5
6E
100
AcDbEntity
8
1
62
256
6
ByLayer
370
-1
48
1
60
0
100
AcDbLine
10
85.749425
20
2.033837
30
0
11
85.469999
21
1.072553
31
0
39
0
210
0
220
0
230
1
0
LINE
5
6F
100
AcDbEntity
8
1
62
256
6
ByLayer
370
-1
48
1
60
0
100
AcDbLine
10
89.991368
20
-12.292785
30
0
11
99.019339
21
-12.292785
31
0
39
0
210
0
220
0
230
1
0
LINE
5
70
100
AcDbEntity
8
1
62
256
6
ByLayer
370
-1
48
1
60
0
100
AcDbLine
10
98.776191
20
0.515288
30
0
11
97.644804
21
1.019403
31
0
39
0
210
0
220
0
230
1
0
LINE
5
71
100
AcDbEntity
8
1
62
256
6
ByLayer
370
-1
48
1
60
0
100
AcDbLine
10
98.857537
20
3.658081
30
0
11
98.566705
21
3.662333
31
0
39
0
210
0
220
0
230
1
0
LINE
5
72
100
AcDbEntity
8
1
62
256
6
ByLayer
370
-1
48
1
60
0
100
AcDbLine
10
20
20
-12.3
30
0
11
20
21
-7.268093
31
0
39
0
210
0
220
0
230
1
0
LINE
5
73
100
AcDbEntity
8
1
62
256
6
ByLayer
370
-1
48
1
60
0
100
AcDbLine
10
0.2
20
16
30
0
11
0.2
21
-16
31
0
39
0
210
0
220
0
230
1
0
LINE
5
74
100
AcDbEntity
8
1
62
256
6
ByLayer
370
-1
48
1
60
0
100
AcDbLine
10
90.70027
20
3.605382
30
0
11
90.745557
21
3.605382
31
0
39
0
210
0
220
0
230
1
0
LINE
5
75
100
AcDbEntity
8
1
62
256
6
ByLayer
370
-1
48
1
60
0
100
AcDbLine
10
90.539472
20
8.443567
30
0
11
90.566723
21
8.443567
31
0
39
0
210
0
220
0
230
1
0
LINE
5
76
100
AcDbEntity
8
1
62
256
6
ByLayer
370
-1
48
1
60
0
100
AcDbLine
10
99.48533
20
-7.03905
30
0
11
99.132219
21
-6.996396
31
0
39
0
210
0
220
0
230
1
0
LINE
5
77
100
AcDbEntity
8
1
62
256
6
ByLayer
370
-1
48
1
60
0
100
AcDbLine
10
98.490719
20
3.678453
30
0
11
98.857537
21
3.658081
31
0
39
0
210
0
220
0
230
1
0
LINE
5
78
100
AcDbEntity
8
1
62
256
6
ByLayer
370
-1
48
1
60
0
100
AcDbLine
10
5
20
16
30
0
11
5
21
-16
31
0
39
0
210
0
220
0
230
1
0
LINE
5
79
100
AcDbEntity
8
1
62
256
6
ByLayer
370
-1
48
1
60
0
100
AcDbLine
10
98.631469
20
-5.961795
30
0
11
98.218628
21
-5.777844
31
0
39
0
210
0
220
0
230
1
0
LINE
5
7A
100
AcDbEntity
8
1
62
256
6
ByLayer
370
-1
48
1
60
0
100
AcDbLine
10
98.776191
20
0.515288
30
0
11
99.127888
21
-6.182986
31
0
39
0
210
0
220
0
230
1
0
LINE
5
7B
100
AcDbEntity
8
1
62
256
6
ByLayer
370
-1
48
1
60
0
100
AcDbLine
10
90.095062
20
7.261542
30
0
11
90.339098
21
7.261542
31
0
39
0
210
0
220
0
230
1
0
LINE
5
7C
100
AcDbEntity
8
1
62
256
6
ByLayer
370
-1
48
1
60
0
100
AcDbLine
10
88.971575
20
3.498429
30
0
11
88.985188
21
3.545261
31
0
39
0
210
0
220
0
230
1
0
LINE
5
7D
100
AcDbEntity
8
1
62
256
6
ByLayer
370
-1
48
1
60
0
100
AcDbLine
10
98.86902
20
1.128054
30
0
11
99.005096
21
3.891236
31
0
39
0
210
0
220
0
230
1
0
LINE
5
7E
100
AcDbEntity
8
1
62
256
6
ByLayer
370
-1
48
1
60
0
100
AcDbLine
10
90.70027
20
3.605382
30
0
11
88.985188
21
3.545261
31
0
39
0
210
0
220
0
230
1
0
LINE
5
7F
100
AcDbEntity
8
1
62
256
6
ByLayer
370
-1
48
1
60
0
100
AcDbLine
10
99.127888
20
-6.182986
30
0
11
99.114962
21
-6.32872
31
0
39
0
210
0
220
0
230
1
0
LINE
5
80
100
AcDbEntity
8
1
62
256
6
ByLayer
370
-1
48
1
60
0
100
AcDbLine
10
70.835134
20
9.284114
30
0
11
72.385268
21
8.419756
31
0
39
0
210
0
220
0
230
1
0
LINE
5
81
100
AcDbEntity
8
1
62
256
6
ByLayer
370
-1
48
1
60
0
100
AcDbLine
10
20
20
12.3
30
0
11
20
21
7.985698
31
0
39
0
210
0
220
0
230
1
0
LINE
5
82
100
AcDbEntity
8
1
62
256
6
ByLayer
370
-1
48
1
60
0
100
AcDbLine
10
98.807773
20
1.149499
30
0
11
98.857089
21
1.12336
31
0
39
0
210
0
220
0
230
1
0
LINE
5
83
100
AcDbEntity
8
1
62
256
6
ByLayer
370
-1
48
1
60
0
100
AcDbLine
10
99.019339
20
-12.292785
30
0
11
99.48533
21
-7.03905
31
0
39
0
210
0
220
0
230
1
0
LINE
5
84
100
AcDbEntity
8
1
62
256
6
ByLayer
370
-1
48
1
60
0
100
AcDbLine
10
90.095062
20
7.261542
30
0
11
90.171551
21
4.86277
31
0
39
0
210
0
220
0
230
1
0
LINE
5
85
100
AcDbEntity
8
1
62
256
6
ByLayer
370
-1
48
1
60
0
100
AcDbLine
10
92.471765
20
3.491491
30
0
11
98.285004
21
3.678453
31
0
39
0
210
0
220
0
230
1
0
LINE
5
86
100
AcDbEntity
8
1
62
256
6
ByLayer
370
-1
48
1
60
0
100
AcDbLine
10
81.077027
20
12.093831
30
0
11
81.077027
21
8.28
31
0
39
0
210
0
220
0
230
1
0
LINE
5
87
100
AcDbEntity
8
1
62
256
6
ByLayer
370
-1
48
1
60
0
100
AcDbLine
10
99.127888
20
-6.182986
30
0
11
98.794796
21
-6.034569
31
0
39
0
210
0
220
0
230
1
0
LINE
5
88
100
AcDbEntity
8
1
62
256
6
ByLayer
370
-1
48
1
60
0
100
AcDbLine
10
90.574788
20
8.446628
30
0
11
90.762178
21
8.446628
31
0
39
0
210
0
220
0
230
1
0
LINE
5
89
100
AcDbEntity
8
1
62
256
6
ByLayer
370
-1
48
1
60
0
100
AcDbLine
10
97.63683
20
1.15301
30
0
11
98.566705
21
3.662333
31
0
39
0
210
0
220
0
230
1
0
LINE
5
8A
100
AcDbEntity
8
1
62
256
6
ByLayer
370
-1
48
1
60
0
100
AcDbLine
10
98.857089
20
1.12336
30
0
11
98.86902
21
1.128054
31
0
39
0
210
0
220
0
230
1
0
LINE
5
8B
100
AcDbEntity
8
1
62
256
6
ByLayer
370
-1
48
1
60
0
100
AcDbLine
10
90.171551
20
4.86277
30
0
11
90.415587
21
4.86277
31
0
39
0
210
0
220
0
230
1
0
LINE
5
8C
100
AcDbEntity
8
1
62
256
6
ByLayer
370
-1
48
1
60
0
100
AcDbLine
10
90.339098
20
7.261542
30
0
11
90.415587
21
4.86277
31
0
39
0
210
0
220
0
230
1
0
LINE
5
8D
100
AcDbEntity
8
1
62
256
6
ByLayer
370
-1
48
1
60
0
100
AcDbLine
10
90.257558
20
4.386319
30
0
11
89.017588
21
4.342853
31
0
39
0
210
0
220
0
230
1
0
LINE
5
8E
100
AcDbEntity
8
1
62
256
6
ByLayer
370
-1
48
1
60
0
100
AcDbLine
10
0
20
15.8
30
0
11
0
21
-15.8
31
0
39
0
210
0
220
0
230
1
0
LINE
5
8F
100
AcDbEntity
8
1
62
256
6
ByLayer
370
-1
48
1
60
0
100
AcDbLine
10
91.355892
20
12.458778
30
0
11
91.668333
21
12.46973
31
0
39
0
210
0
220
0
230
1
0
LINE
5
90
100
AcDbEntity
8
1
62
256
6
ByLayer
370
-1
48
1
60
0
100
AcDbLine
10
99.148891
20
3.896702
30
0
11
99.145303
21
3.966368
31
0
39
0
210
0
220
0
230
1
0
LINE
5
91
100
AcDbEntity
8
1
62
256
6
ByLayer
370
-1
48
1
60
0
100
AcDbLine
10
90.920714
20
4.044296
30
0
11
90.989481
21
4.04916
31
0
39
0
210
0
220
0
230
1
0
LINE
5
92
100
AcDbEntity
8
1
62
256
6
ByLayer
370
-1
48
1
60
0
100
AcDbLine
10
91.663423
20
3.633891
30
0
11
99.058302
21
3.893112
31
0
39
0
210
0
220
0
230
1
0
LINE
5
93
100
AcDbEntity
8
1
62
256
6
ByLayer
370
-1
48
1
60
0
100
AcDbLine
10
99.684765
20
4.965731
30
0
11
99.695676
21
4.652097
31
0
39
0
210
0
220
0
230
1
0
LINE
5
94
100
AcDbEntity
8
1
62
256
6
ByLayer
370
-1
48
1
60
0
100
AcDbLine
10
99.768385
20
4.563566
30
0
11
99.698409
21
4.561767
31
0
39
0
210
0
220
0
230
1
0
LINE
5
95
100
AcDbEntity
8
1
62
256
6
ByLayer
370
-1
48
1
60
0
100
AcDbLine
10
99.047742
20
12.792758
30
0
11
99.047211
21
12.723024
31
0
39
0
210
0
220
0
230
1
0
LINE
5
96
100
AcDbEntity
8
1
62
256
6
ByLayer
370
-1
48
1
60
0
100
AcDbLine
10
99.197646
20
3.899097
30
0
11
99.193378
21
3.96873
31
0
39
0
210
0
220
0
230
1
0
LINE
5
97
100
AcDbEntity
8
1
62
256
6
ByLayer
370
-1
48
1
60
0
100
AcDbLine
10
90.973796
20
4.346358
30
0
11
90.962886
21
4.659993
31
0
39
0
210
0
220
0
230
1
0
LINE
5
98
100
AcDbEntity
8
1
62
256
6
ByLayer
370
-1
48
1
60
0
100
AcDbLine
10
90.933045
20
3.977511
30
0
11
90.998946
21
3.9979
31
0
39
0
210
0
220
0
230
1
0
LINE
5
99
100
AcDbEntity
8
1
62
256
6
ByLayer
370
-1
48
1
60
0
100
AcDbLine
10
90.904902
20
4.343925
30
0
11
90.973796
21
4.346358
31
0
39
0
210
0
220
0
230
1
0
LINE
5
9A
100
AcDbEntity
8
1
62
256
6
ByLayer
370
-1
48
1
60
0
100
AcDbLine
10
91.353999
20
12.528469
30
0
11
91.355892
21
12.458778
31
0
39
0
210
0
220
0
230
1
0
LINE
5
9B
100
AcDbEntity
8
1
62
256
6
ByLayer
370
-1
48
1
60
0
100
AcDbLine
10
90.98898
20
12.500219
30
0
11
91.008759
21
12.433532
31
0
39
0
210
0
220
0
230
1
0
LINE
5
9C
100
AcDbEntity
8
1
62
256
6
ByLayer
370
-1
48
1
60
0
100
AcDbLine
10
98.43833
20
12.707047
30
0
11
98.750771
21
12.717999
31
0
39
0
210
0
220
0
230
1
0
LINE
5
9D
100
AcDbEntity
8
1
62
256
6
ByLayer
370
-1
48
1
60
0
100
AcDbLine
10
99.765634
20
4.65453
30
0
11
99.507399
21
12.077656
31
0
39
0
210
0
220
0
230
1
0
LINE
5
9E
100
AcDbEntity
8
1
62
256
6
ByLayer
370
-1
48
1
60
0
100
AcDbLine
10
90.643915
20
11.858015
30
0
11
90.712829
21
11.859814
31
0
39
0
210
0
220
0
230
1
0
LINE
5
9F
100
AcDbEntity
8
1
62
256
6
ByLayer
370
-1
48
1
60
0
100
AcDbLine
10
91.663423
20
3.633891
30
0
11
91.660467
21
3.703582
31
0
39
0
210
0
220
0
230
1
0
LINE
5
A0
100
AcDbEntity
8
1
62
256
6
ByLayer
370
-1
48
1
60
0
100
AcDbLine
10
90.646667
20
11.767051
30
0
11
90.904902
21
4.343925
31
0
39
0
210
0
220
0
230
1
0
LINE
5
A1
100
AcDbEntity
8
1
62
256
6
ByLayer
370
-1
48
1
60
0
100
AcDbLine
10
91.364558
20
3.628823
30
0
11
91.364027
21
3.698557
31
0
39
0
210
0
220
0
230
1
0
LINE
5
A2
100
AcDbEntity
8
1
62
256
6
ByLayer
370
-1
48
1
60
0
100
AcDbLine
10
90.642895
20
11.907004
30
0
11
90.711823
21
11.90812
31
0
39
0
210
0
220
0
230
1
0
LINE
5
A3
100
AcDbEntity
8
1
62
256
6
ByLayer
370
-1
48
1
60
0
100
AcDbLine
10
91.524002
20
3.630104
30
0
11
91.522359
21
3.699829
31
0
39
0
210
0
220
0
230
1
0
LINE
5
A4
100
AcDbEntity
8
1
62
256
6
ByLayer
370
-1
48
1
60
0
100
AcDbLine
10
98.748878
20
12.78769
30
0
11
91.353999
21
12.528469
31
0
39
0
210
0
220
0
230
1
0
LINE
5
A5
100
AcDbEntity
8
1
62
256
6
ByLayer
370
-1
48
1
60
0
100
AcDbLine
10
98.748878
20
12.78769
30
0
11
98.750771
21
12.717999
31
0
39
0
210
0
220
0
230
1
0
LINE
5
A6
100
AcDbEntity
8
1
62
256
6
ByLayer
370
-1
48
1
60
0
100
AcDbLine
10
91.26341
20
12.524879
30
0
11
91.265934
21
12.455213
31
0
39
0
210
0
220
0
230
1
0
LINE
5
A7
100
AcDbEntity
8
1
62
256
6
ByLayer
370
-1
48
1
60
0
100
AcDbLine
10
91.972907
20
3.714534
30
0
11
91.660467
21
3.703582
31
0
39
0
210
0
220
0
230
1
0
LINE
5
A8
100
AcDbEntity
8
1
62
256
6
ByLayer
370
-1
48
1
60
0
100
AcDbLine
10
99.507399
20
12.077656
30
0
11
99.437441
21
12.075223
31
0
39
0
210
0
220
0
230
1
0
LINE
5
A9
100
AcDbEntity
8
1
62
256
6
ByLayer
370
-1
48
1
60
0
100
AcDbLine
10
99.763022
20
4.287039
30
0
11
99.694803
21
4.302726
31
0
39
0
210
0
220
0
230
1
0
LINE
5
AA
100
AcDbEntity
8
1
62
256
6
ByLayer
370
-1
48
1
60
0
100
AcDbLine
10
90.649279
20
12.134542
30
0
11
90.716435
21
12.118856
31
0
39
0
210
0
220
0
230
1
0
LINE
5
AB
100
AcDbEntity
8
1
62
256
6
ByLayer
370
-1
48
1
60
0
100
AcDbLine
10
91.214655
20
12.522484
30
0
11
91.217859
21
12.452851
31
0
39
0
210
0
220
0
230
1
0
LINE
5
AC
100
AcDbEntity
8
1
62
256
6
ByLayer
370
-1
48
1
60
0
100
AcDbLine
10
90.726472
20
11.45585
30
0
11
90.715561
21
11.769485
31
0
39
0
210
0
220
0
230
1
0
LINE
5
AD
100
AcDbEntity
8
1
62
256
6
ByLayer
370
-1
48
1
60
0
100
AcDbLine
10
99.503823
20
12.168592
30
0
11
99.43389
21
12.165524
31
0
39
0
210
0
220
0
230
1
0
LINE
5
AE
100
AcDbEntity
8
1
62
256
6
ByLayer
370
-1
48
1
60
0
100
AcDbLine
10
99.055346
20
3.962803
30
0
11
98.742905
21
3.951851
31
0
39
0
210
0
220
0
230
1
0
LINE
5
AF
100
AcDbEntity
8
1
62
256
6
ByLayer
370
-1
48
1
60
0
100
AcDbLine
10
91.572805
20
3.631129
30
0
11
91.570481
21
3.700839
31
0
39
0
210
0
220
0
230
1
0
LINE
5
B0
100
AcDbEntity
8
1
62
256
6
ByLayer
370
-1
48
1
60
0
100
AcDbLine
10
90.910865
20
4.204048
30
0
11
90.979701
21
4.207799
31
0
39
0
210
0
220
0
230
1
0
LINE
5
B1
100
AcDbEntity
8
1
62
256
6
ByLayer
370
-1
48
1
60
0
100
AcDbLine
10
99.058302
20
3.893112
30
0
11
99.055346
21
3.962803
31
0
39
0
210
0
220
0
230
1
0
LINE
5
B2
100
AcDbEntity
8
1
62
256
6
ByLayer
370
-1
48
1
60
0
100
AcDbLine
10
90.908478
20
4.25299
30
0
11
90.977347
21
4.256057
31
0
39
0
210
0
220
0
230
1
0
LINE
5
B3
100
AcDbEntity
8
1
62
256
6
ByLayer
370
-1
48
1
60
0
100
AcDbLine
10
99.770682
20
4.354524
30
0
11
99.700682
21
4.354524
31
0
39
0
210
0
220
0
230
1
0
LINE
5
B4
100
AcDbEntity
8
1
62
256
6
ByLayer
370
-1
48
1
60
0
100
AcDbLine
10
99.491587
20
12.377285
30
0
11
99.421756
21
12.372421
31
0
39
0
210
0
220
0
230
1
0
LINE
5
B5
100
AcDbEntity
8
1
62
256
6
ByLayer
370
-1
48
1
60
0
100
AcDbLine
10
99.501436
20
12.217533
30
0
11
99.431537
21
12.213782
31
0
39
0
210
0
220
0
230
1
0
LINE
5
B6
100
AcDbEntity
8
1
62
256
6
ByLayer
370
-1
48
1
60
0
100
AcDbLine
10
90.641619
20
12.067057
30
0
11
90.710556
21
12.067057
31
0
39
0
210
0
220
0
230
1
0
LINE
5
B7
100
AcDbEntity
8
1
62
256
6
ByLayer
370
-1
48
1
60
0
100
AcDbLine
10
91.29733
20
3.636512
30
0
11
91.312425
21
3.704459
31
0
39
0
210
0
220
0
230
1
0
LINE
5
B8
100
AcDbEntity
8
1
62
256
6
ByLayer
370
-1
48
1
60
0
100
AcDbLine
10
91.055511
20
12.512597
30
0
11
91.059825
21
12.443033
31
0
39
0
210
0
220
0
230
1
0
LINE
5
B9
100
AcDbEntity
8
1
62
256
6
ByLayer
370
-1
48
1
60
0
100
AcDbLine
10
99.114971
20
12.785069
30
0
11
99.098812
21
12.717122
31
0
39
0
210
0
220
0
230
1
0
LINE
5
BA
100
AcDbEntity
8
1
62
256
6
ByLayer
370
-1
48
1
60
0
100
AcDbLine
10
98.839496
20
12.790453
30
0
11
98.840757
21
12.720742
31
0
39
0
210
0
220
0
230
1
0
LINE
5
BB
100
AcDbEntity
8
1
62
256
6
ByLayer
370
-1
48
1
60
0
100
AcDbLine
10
99.423321
20
3.921362
30
0
11
99.402478
21
3.988049
31
0
39
0
210
0
220
0
230
1
0
LINE
5
BC
100
AcDbEntity
8
1
62
256
6
ByLayer
370
-1
48
1
60
0
100
AcDbLine
10
99.765634
20
4.65453
30
0
11
99.695676
21
4.652097
31
0
39
0
210
0
220
0
230
1
0
LINE
5
BD
100
AcDbEntity
8
1
62
256
6
ByLayer
370
-1
48
1
60
0
100
AcDbLine
10
99.479256
20
12.44407
30
0
11
99.412292
21
12.423682
31
0
39
0
210
0
220
0
230
1
0
LINE
5
BE
100
AcDbEntity
8
1
62
256
6
ByLayer
370
-1
48
1
60
0
100
AcDbLine
10
99.35679
20
3.908984
30
0
11
99.351413
21
3.978548
31
0
39
0
210
0
220
0
230
1
0
LINE
5
BF
100
AcDbEntity
8
1
62
256
6
ByLayer
370
-1
48
1
60
0
100
AcDbLine
10
90.646667
20
11.767051
30
0
11
90.715561
21
11.769485
31
0
39
0
210
0
220
0
230
1
0
LINE
5
C0
100
AcDbEntity
8
1
62
256
6
ByLayer
370
-1
48
1
60
0
100
AcDbLine
10
99.437441
20
12.075223
30
0
11
99.448352
21
11.761588
31
0
39
0
210
0
220
0
230
1
0
LINE
5
C1
100
AcDbEntity
8
1
62
256
6
ByLayer
370
-1
48
1
60
0
100
AcDbLine
10
99.769406
20
4.514577
30
0
11
99.699415
21
4.513461
31
0
39
0
210
0
220
0
230
1
0
LINE
5
C2
100
AcDbEntity
8
1
62
256
6
ByLayer
370
-1
48
1
60
0
100
AcDbLine
10
98.888299
20
12.791477
30
0
11
98.888879
21
12.721752
31
0
39
0
210
0
220
0
230
1
0
LINE
5
C3
100
AcDbEntity
8
1
62
256
6
ByLayer
370
-1
48
1
60
0
100
AcDbLine
10
99.922917
20
-6.247594
30
0
11
99.999695
21
-4.053035
31
0
39
0
210
0
220
0
230
1
0
LINE
5
C4
100
AcDbEntity
8
1
62
256
6
ByLayer
370
-1
48
1
60
0
100
AcDbLine
10
99.258815
20
-5.159012
30
0
11
99.302901
21
-3.898886
31
0
39
0
210
0
220
0
230
1
0
LINE
5
C5
100
AcDbEntity
8
1
62
256
6
ByLayer
370
-1
48
1
60
0
100
AcDbLine
10
98.843156
20
1.060445
30
0
11
98.767704
21
1.017966
31
0
39
0
210
0
220
0
230
1
0
LINE
5
C6
100
AcDbEntity
8
1
62
256
6
ByLayer
370
-1
48
1
60
0
100
AcDbLine
10
99.099889
20
-6.878737
30
0
11
99.594231
21
-6.699146
31
0
39
0
210
0
220
0
230
1
0
LINE
5
C7
100
AcDbEntity
8
1
62
256
6
ByLayer
370
-1
48
1
60
0
100
AcDbLine
10
99.70854
20
-5.229631
30
0
11
99.752627
21
-3.969505
31
0
39
0
210
0
220
0
230
1
0
LINE
5
C8
100
AcDbEntity
8
1
62
256
6
ByLayer
370
-1
48
1
60
0
100
AcDbLine
10
98.983712
20
0.910959
30
0
11
98.942828
21
0.883462
31
0
39
0
210
0
220
0
230
1
0
LINE
5
C9
100
AcDbEntity
8
1
62
256
6
ByLayer
370
-1
48
1
60
0
100
AcDbLine
10
99.314966
20
-0.758836
30
0
11
98.965446
21
-0.722176
31
0
39
0
210
0
220
0
230
1
0
LINE
5
CA
100
AcDbEntity
8
1
62
256
6
ByLayer
370
-1
48
1
60
0
100
AcDbLine
10
99.657862
20
-2.728162
30
0
11
99.41263
21
-2.618893
31
0
39
0
210
0
220
0
230
1
0
LINE
5
CB
100
AcDbEntity
8
1
62
256
6
ByLayer
370
-1
48
1
60
0
100
AcDbLine
10
99.522488
20
-0.566554
30
0
11
98.983712
21
0.910959
31
0
39
0
210
0
220
0
230
1
0
LINE
5
CC
100
AcDbEntity
8
1
62
256
6
ByLayer
370
-1
48
1
60
0
100
AcDbLine
10
99.358754
20
-5.162495
30
0
11
99.40284
21
-3.90237
31
0
39
0
210
0
220
0
230
1
0
LINE
5
CD
100
AcDbEntity
8
1
62
256
6
ByLayer
370
-1
48
1
60
0
100
AcDbLine
10
99.063109
20
-2.582232
30
0
11
98.963246
21
-2.587456
31
0
39
0
210
0
220
0
230
1
0
LINE
5
CE
100
AcDbEntity
8
1
62
256
6
ByLayer
370
-1
48
1
60
0
100
AcDbLine
10
99.129802
20
-3.886748
30
0
11
99.085715
21
-5.146873
31
0
39
0
210
0
220
0
230
1
0
LINE
5
CF
100
AcDbEntity
8
1
62
256
6
ByLayer
370
-1
48
1
60
0
100
AcDbLine
10
99.41263
20
-2.618893
30
0
11
99.314966
21
-0.758836
31
0
39
0
210
0
220
0
230
1
0
LINE
5
D0
100
AcDbEntity
8
1
62
256
6
ByLayer
370
-1
48
1
60
0
100
AcDbLine
10
99.65217
20
-3.514961
30
0
11
99.339985
21
-3.617964
31
0
39
0
210
0
220
0
230
1
0
LINE
5
D1
100
AcDbEntity
8
1
62
256
6
ByLayer
370
-1
48
1
60
0
100
AcDbLine
10
99.70854
20
-5.229631
30
0
11
99.358754
21
-5.162495
31
0
39
0
210
0
220
0
230
1
0
LINE
5
D2
100
AcDbEntity
8
1
62
256
6
ByLayer
370
-1
48
1
60
0
100
AcDbLine
10
99.657862
20
-2.728162
30
0
11
99.551956
21
-0.711126
31
0
39
0
210
0
220
0
230
1
0
LINE
5
D3
100
AcDbEntity
8
1
62
256
6
ByLayer
370
-1
48
1
60
0
100
AcDbLine
10
99.197961
20
-0.201047
30
0
11
98.846594
21
-0.398868
31
0
39
0
210
0
220
0
230
1
0
LINE
5
D4
100
AcDbEntity
8
1
62
256
6
ByLayer
370
-1
48
1
60
0
100
AcDbLine
10
98.846594
20
-0.398868
30
0
11
98.822522
21
-0.367327
31
0
39
0
210
0
220
0
230
1
0
LINE
5
D5
100
AcDbEntity
8
1
62
256
6
ByLayer
370
-1
48
1
60
0
100
AcDbLine
10
99.594231
20
-6.699146
30
0
11
99.537958
21
-6.629667
31
0
39
0
210
0
220
0
230
1
0
LINE
5
D6
100
AcDbEntity
8
1
62
256
6
ByLayer
370
-1
48
1
60
0
100
AcDbLine
10
99.999695
20
-4.053035
30
0
11
99.754825
21
-3.922676
31
0
39
0
210
0
220
0
230
1
0
LINE
5
D7
100
AcDbEntity
8
1
62
256
6
ByLayer
370
-1
48
1
60
0
100
AcDbLine
10
99.720168
20
-6.535067
30
0
11
99.128579
21
-5.606656
31
0
39
0
210
0
220
0
230
1
0
LINE
5
D8
100
AcDbEntity
8
1
62
256
6
ByLayer
370
-1
48
1
60
0
100
AcDbLine
10
99.41263
20
-2.618893
30
0
11
99.063109
21
-2.582232
31
0
39
0
210
0
220
0
230
1
0
LINE
5
D9
100
AcDbEntity
8
1
62
256
6
ByLayer
370
-1
48
1
60
0
100
AcDbLine
10
99.885244
20
-3.553362
30
0
11
99.668294
21
-3.545428
31
0
39
0
210
0
220
0
230
1
0
LINE
5
DA
100
AcDbEntity
8
1
62
256
6
ByLayer
370
-1
48
1
60
0
100
AcDbLine
10
99.098803
20
-5.629296
30
0
11
99.128579
21
-5.606656
31
0
39
0
210
0
220
0
230
1
0
LINE
5
DB
100
AcDbEntity
8
1
62
256
6
ByLayer
370
-1
48
1
60
0
100
AcDbLine
10
99.551956
20
-0.711126
30
0
11
99.312214
21
-0.639505
31
0
39
0
210
0
220
0
230
1
0
LINE
5
DC
100
AcDbEntity
8
1
62
256
6
ByLayer
370
-1
48
1
60
0
100
AcDbLine
10
99.522488
20
-0.566554
30
0
11
99.286669
21
-0.496106
31
0
39
0
210
0
220
0
230
1
0
LINE
5
DD
100
AcDbEntity
8
1
62
256
6
ByLayer
370
-1
48
1
60
0
100
AcDbLine
10
99.752627
20
-3.969505
30
0
11
99.40284
21
-3.90237
31
0
39
0
210
0
220
0
230
1
0
LINE
5
DE
100
AcDbEntity
8
1
62
256
6
ByLayer
370
-1
48
1
60
0
100
AcDbLine
10
99.063109
20
-2.582232
30
0
11
98.965446
21
-0.722176
31
0
39
0
210
0
220
0
230
1
0
LINE
5
DF
100
AcDbEntity
8
1
62
256
6
ByLayer
370
-1
48
1
60
0
100
AcDbLine
10
99.922917
20
-6.247594
30
0
11
99.806271
21
-6.103572
31
0
39
0
210
0
220
0
230
1
0
LINE
5
E0
100
AcDbEntity
8
1
62
256
6
ByLayer
370
-1
48
1
60
0
100
AcDbLine
10
99.197961
20
-0.201047
30
0
11
98.942828
21
0.883462
31
0
39
0
210
0
220
0
230
1
0
LINE
5
E1
100
AcDbEntity
8
1
62
256
6
ByLayer
370
-1
48
1
60
0
100
AcDbLine
10
98.963246
20
-2.587456
30
0
11
98.865583
21
-0.7274
31
0
39
0
210
0
220
0
230
1
0
LINE
5
E2
100
AcDbEntity
8
1
62
256
6
ByLayer
370
-1
48
1
60
0
100
AcDbLine
10
99.09526
20
-6.696364
30
0
11
99.537958
21
-6.629667
31
0
39
0
210
0
220
0
230
1
0
LINE
5
E3
100
AcDbEntity
8
SK1
62
256
6
ByLayer
370
-1
48
1
60
0
100
AcDbLine
10
-52.6
20
6.998498
30
0
11
-52.6
21
12.49675
31
0
39
0
210
0
220
0
230
1
0
LINE
5
E4
100
AcDbEntity
8
SK1
62
256
6
ByLayer
370
-1
48
1
60
0
100
AcDbLine
10
-52.6
20
-12.49675
30
0
11
-52.6
21
-6.998498
31
0
39
0
210
0
220
0
230
1
0
LINE
5
E5
100
AcDbEntity
8
SK1
62
256
6
ByLayer
370
-1
48
1
60
0
100
AcDbLine
10
-56
20
4.998547
30
0
11
-56
21
-4.998547
31
0
39
0
210
0
220
0
230
1
0
LINE
5
E6
100
AcDbEntity
8
SK1
62
256
6
ByLayer
370
-1
48
1
60
0
100
AcDbLine
10
-56
20
-4.998547
30
0
11
-56
21
-11.49675
31
0
39
0
210
0
220
0
230
1
0
LINE
5
E7
100
AcDbEntity
8
SK1
62
256
6
ByLayer
370
-1
48
1
60
0
100
AcDbLine
10
-56
20
11.49675
30
0
11
-56
21
4.998547
31
0
39
0
210
0
220
0
230
1
0
LINE
5
E8
100
AcDbEntity
8
SK1
62
256
6
ByLayer
370
-1
48
1
60
0
100
AcDbLine
10
-0.15
20
12.25
30
0
11
-0.15
21
-12.25
31
0
39
0
210
0
220
0
230
1
0
LINE
5
E9
100
AcDbEntity
8
SK1
62
256
6
ByLayer
370
-1
48
1
60
0
100
AcDbLine
10
-6.5
20
6.998498
30
0
11
-6.5
21
-6.998498
31
0
39
0
210
0
220
0
230
1
0
LINE
5
EA
100
AcDbEntity
8
SK1
62
256
6
ByLayer
370
-1
48
1
60
0
100
AcDbLine
10
-1.551212
20
12.287477
30
0
11
-1.551212
21
-12.287477
31
0
39
0
210
0
220
0
230
1
0
LINE
5
EB
100
AcDbEntity
8
SK1
62
256
6
ByLayer
370
-1
48
1
60
0
100
AcDbLine
10
-6.5
20
-6.998498
30
0
11
-52.6
21
-6.998498
31
0
39
0
210
0
220
0
230
1
0
LINE
5
EC
100
AcDbEntity
8
SK1
62
256
6
ByLayer
370
-1
48
1
60
0
100
AcDbLine
10
-2
20
-12.49675
30
0
11
-2
21
12.49675
31
0
39
0
210
0
220
0
230
1
0
LINE
5
ED
100
AcDbEntity
8
SK1
62
256
6
ByLayer
370
-1
48
1
60
0
100
AcDbLine
10
-53.633814
20
-6.340342
30
0
11
-53.633814
21
-12.140417
31
0
39
0
210
0
220
0
230
1
0
LINE
5
EE
100
AcDbEntity
8
SK1
62
256
6
ByLayer
370
-1
48
1
60
0
100
AcDbLine
10
-53.633814
20
12.140417
30
0
11
-53.633814
21
6.340342
31
0
39
0
210
0
220
0
230
1
0
LINE
5
EF
100
AcDbEntity
8
SK1
62
256
6
ByLayer
370
-1
48
1
60
0
100
AcDbLine
10
-52.6
20
6.998498
30
0
11
-6.5
21
6.998498
31
0
39
0
210
0
220
0
230
1
0
LINE
5
F0
100
AcDbEntity
8
SK1
62
256
6
ByLayer
370
-1
48
1
60
0
100
AcDbLine
10
-55
20
6.998498
30
0
11
-54.6
21
6.998498
31
0
39
0
210
0
220
0
230
1
0
LINE
5
F1
100
AcDbEntity
8
SK1
62
256
6
ByLayer
370
-1
48
1
60
0
100
AcDbLine
10
-54.6
20
-6.998498
30
0
11
-55
21
-6.998498
31
0
39
0
210
0
220
0
230
1
0
LINE
5
F2
100
AcDbEntity
8
SK1
62
256
6
ByLayer
370
-1
48
1
60
0
100
AcDbLine
10
-54.6
20
-12.49675
30
0
11
-54.6
21
-6.998498
31
0
39
0
210
0
220
0
230
1
0
LINE
5
F3
100
AcDbEntity
8
SK1
62
256
6
ByLayer
370
-1
48
1
60
0
100
AcDbLine
10
-54.6
20
6.998498
30
0
11
-54.6
21
12.49675
31
0
39
0
210
0
220
0
230
1
0
LINE
5
F4
100
AcDbEntity
8
SK1
62
256
6
ByLayer
370
-1
48
1
60
0
100
AcDbLine
10
-54.516223
20
-6.812044
30
0
11
-54.516223
21
-12.393294
31
0
39
0
210
0
220
0
230
1
0
LINE
5
F5
100
AcDbEntity
8
SK1
62
256
6
ByLayer
370
-1
48
1
60
0
100
AcDbLine
10
-54.516223
20
12.393294
30
0
11
-54.516223
21
6.812044
31
0
39
0
210
0
220
0
230
1
0
LINE
5
F6
100
AcDbEntity
8
SK1
62
256
6
ByLayer
370
-1
48
1
60
0
100
AcDbLine
10
-1.382165
20
12.25
30
0
11
-1.382165
21
-12.25
31
0
39
0
210
0
220
0
230
1
0
LINE
5
F7
100
AcDbEntity
8
SK1
62
256
6
ByLayer
370
-1
48
1
60
0
100
AcDbLine
10
-55
20
-6.998498
30
0
11
-55
21
-12.49675
31
0
39
0
210
0
220
0
230
1
0
LINE
5
F8
100
AcDbEntity
8
SK1
62
256
6
ByLayer
370
-1
48
1
60
0
100
AcDbLine
10
-55
20
12.49675
30
0
11
-55
21
6.998498
31
0
39
0
210
0
220
0
230
1
0
MTEXT
5
210
100
AcDbEntity
8
SK6
62
256
6
ByLayer
370
-1
48
1
60
0
100
AcDbMText
10
0.79375
20
-80.79375
30
0
210
0
220
0
230
1
1
\W00.740;\fsimplex.shx,bigfont.shx;880-D2550L25-03 
40
3.175
41
0
44
1.084337
50
0
71
7
72
5
7
DEFAULT
0
DIMENSION
5
240
100
AcDbEntity
8
SK2
62
256
6
ByLayer
370
-3
48
1
60
0
100
AcDbDimension
2
DimnDraft3D1
10
100
20
-54.86955
30
0
11
22
21
-54.86955
31
0
70
32
71
5
72
1
41
1
210
0
220
0
230
1
3
Standard
100
AcDbAlignedDimension
13
-56
23
-14.0875
33
0
14
100
24
-14.3375
34
0
50
0
100
AcDbRotatedDimension
1001
ACAD
1000
DSTYLE
1002
{
1070
   279
1070
     0
1070
   172
1070
     1
1070
   173
1070
     1
1070
   340
1005
211
1070
   271
1070
     1
1070
   272
1070
     2
1070
    77
1070
     1
1070
    73
1070
     0
1070
   171
1070
     3
1070
   274
1070
     4
1070
   177
1070
   150
1070
   176
1070
     9
1070
   178
1070
    43
1070
    78
1070
     8
1070
    48
1040
-0.005
1070
    41
1041
4.175
1070
   147
1041
2.25
1070
    42
1041
1.5875
1070
    44
1041
3.175
1070
   140
1041
4.5
1070
   343
1005
0
1070
   344
1005
0
1002
}
0
DIMENSION
5
24A
100
AcDbEntity
8
SK2
62
256
6
ByLayer
370
-3
48
1
60
0
100
AcDbDimension
2
DimnDraft3D2
10
0
20
-42.9008
30
0
11
-28
21
-42.9008
31
0
70
32
71
5
72
1
41
1
210
0
220
0
230
1
3
Standard
100
AcDbAlignedDimension
13
-56
23
-14.0875
33
0
14
0
24
-17.5875
34
0
50
0
100
AcDbRotatedDimension
1001
ACAD
1000
DSTYLE
1002
{
1070
   279
1070
     0
1070
   172
1070
     1
1070
   173
1070
     1
1070
   340
1005
211
1070
   271
1070
     1
1070
   272
1070
     2
1070
    77
1070
     1
1070
    73
1070
     0
1070
   171
1070
     3
1070
   274
1070
     4
1070
   177
1070
   150
1070
   176
1070
     9
1070
   178
1070
    43
1070
    78
1070
     8
1070
    48
1040
-0.005
1070
    41
1041
4.175
1070
   147
1041
2.25
1070
    42
1041
1.5875
1070
    44
1041
3.175
1070
   140
1041
4.5
1070
   343
1005
0
1070
   344
1005
0
1002
}
0
DIMENSION
5
255
100
AcDbEntity
8
2
62
256
6
ByLayer
370
-3
48
1
60
0
100
AcDbDimension
2
DimnDraft3D3
10
100
20
-42.9008
30
0
11
50
21
-42.9008
31
0
70
32
71
5
72
1
41
1
210
0
220
0
230
1
3
Standard
100
AcDbAlignedDimension
13
0
23
-17.5875
33
0
14
100
24
-14.3375
34
0
50
0
100
AcDbRotatedDimension
1001
ACAD
1000
DSTYLE
1002
{
1070
   279
1070
     0
1070
   172
1070
     1
1070
   173
1070
     1
1070
   340
1005
211
1070
   271
1070
     1
1070
   272
1070
     2
1070
    77
1070
     1
1070
    73
1070
     0
1070
   171
1070
     3
1070
   274
1070
     4
1070
   177
1070
   150
1070
   176
1070
     9
1070
   178
1070
    43
1070
    78
1070
     8
1070
    48
1040
-0.005
1070
    41
1041
4.175
1070
   147
1041
2.25
1070
    42
1041
1.5875
1070
    44
1041
3.175
1070
   140
1041
4.5
1070
   343
1005
0
1070
   344
1005
0
1002
}
0
DIMENSION
5
25F
100
AcDbEntity
8
SK2
62
256
6
ByLayer
370
-3
48
1
60
0
100
AcDbDimension
2
DimnDraft3D4
10
100
20
-32.9008
30
0
11
60
21
-32.9008
31
0
70
32
71
5
72
1
41
1
210
0
220
0
230
1
3
Standard
100
AcDbAlignedDimension
13
20
23
-11.5875
33
0
14
100
24
-14.3375
34
0
50
0
100
AcDbRotatedDimension
1001
ACAD
1000
DSTYLE
1002
{
1070
   279
1070
     0
1070
   172
1070
     1
1070
   173
1070
     1
1070
   340
1005
211
1070
   271
1070
     1
1070
   272
1070
     2
1070
    77
1070
     1
1070
    73
1070
     0
1070
   171
1070
     3
1070
   274
1070
     4
1070
   177
1070
   150
1070
   176
1070
     9
1070
   178
1070
    43
1070
    78
1070
     8
1070
    48
1040
-0.005
1070
    41
1041
4.175
1070
   147
1041
2.25
1070
    42
1041
1.5875
1070
    44
1041
3.175
1070
   140
1041
4.5
1070
   343
1005
0
1070
   344
1005
0
1002
}
0
DIMENSION
5
26A
100
AcDbEntity
8
SK2
62
256
6
ByLayer
370
-3
48
1
60
0
100
AcDbDimension
2
DimnDraft3D5
10
-67.9
20
-12.5
30
0
11
-68.1
21
4.121053
31
0
70
33
71
5
72
1
41
1
210
0
220
0
230
1
3
Standard
100
AcDbAlignedDimension
13
-57.5875
23
12.5
33
0
14
-57.5875
24
-12.5
34
0
1001
ACAD
1000
DSTYLE
1002
{
1070
   279
1070
     0
1070
    74
1070
     0
1070
   173
1070
     1
1070
   340
1005
211
1070
   271
1070
     2
1070
   272
1070
     2
1070
    77
1070
     1
1070
    73
1070
     0
1070
   171
1070
     3
1070
   274
1070
     4
1070
   177
1070
   150
1070
   176
1070
     9
1070
   178
1070
    43
1070
    78
1070
     8
1070
    48
1040
-0.005
1070
    41
1041
4.175
1070
   147
1041
2.25
1070
    42
1041
1.5875
1070
    44
1041
3.175
1070
   140
1041
4.5
1070
   343
1005
0
1070
   344
1005
0
1002
}
0
DIMENSION
5
275
100
AcDbEntity
8
SK2
62
256
6
ByLayer
370
-3
48
1
60
0
100
AcDbDimension
2
DimnDraft3D6
10
-77.9
20
16
30
0
11
-78.1
21
4.121053
31
0
70
33
71
5
72
1
41
1
210
0
220
0
230
1
3
Standard
100
AcDbAlignedDimension
13
-1.5875
23
-16
33
0
14
-1.5875
24
16
34
0
1001
ACAD
1000
DSTYLE
1002
{
1070
   279
1070
     0
1070
    74
1070
     0
1070
   173
1070
     1
1070
   340
1005
211
1070
   271
1070
     1
1070
   272
1070
     2
1070
    77
1070
     1
1070
    73
1070
     0
1070
   171
1070
     3
1070
   274
1070
     4
1070
   177
1070
   150
1070
   176
1070
     9
1070
   178
1070
    43
1070
    78
1070
     8
1070
    48
1040
-0.005
1070
    41
1041
4.175
1070
   147
1041
2.25
1070
    42
1041
1.5875
1070
    44
1041
3.175
1070
   140
1041
4.5
1070
   343
1005
0
1070
   344
1005
0
1002
}
0
DIMENSION
5
280
100
AcDbEntity
8
2
62
256
6
ByLayer
370
-3
48
1
60
0
100
AcDbDimension
2
DimnDraft3D7
10
130.15
20
-12.75
30
0
11
123.6
21
-35.188816
31
0
70
33
71
5
72
1
41
1
210
0
220
0
230
1
3
Standard
100
AcDbAlignedDimension
13
101.5875
23
12.75
33
0
14
101.5875
24
-12.75
34
0
1001
ACAD
1000
DSTYLE
1002
{
1070
   279
1070
     0
1070
    74
1070
     0
1070
   173
1070
     1
1070
   340
1005
211
1070
   271
1070
     2
1070
   272
1070
     2
1070
    77
1070
     1
1070
    73
1070
     0
1070
   171
1070
     3
1070
   274
1070
     4
1070
   177
1070
   150
1070
   176
1070
     9
1070
   178
1070
    43
1070
    78
1070
     8
1070
    48
1040
-0.005
1070
    41
1041
4.175
1070
   147
1041
2.25
1070
    42
1041
1.5875
1070
    44
1041
3.175
1070
   140
1041
4.5
1070
   343
1005
0
1070
   344
1005
0
1002
}
0
ENDSEC
0
SECTION
2
OBJECTS
0
DICTIONARY
5
2b1
330
0
100
AcDbDictionary
280
0
281
1
3
ACAD_GROUP
350
2b2
3
ACAD_MLINESTYLE
350
2b3
0
DICTIONARY
5
2b2
330
0
100
AcDbDictionary
280
0
281
1
0
DICTIONARY
5
2b3
330
0
100
AcDbDictionary
280
0
281
1
3
Standard
350
18
0
MLINESTYLE
5
18
330
2b3
100
AcDbMlineStyle
2
Standard
70
0
3

62
256
51
90
52
90
71
2
49
-0.5
62
256
6
ByLayer
49
0.5
62
256
6
ByLayer
0
RASTERVARIABLES
5
29f
330

100
AcDbRasterVariables
90
0
70
1
71
1
72
1
0
ENDSEC
0
EOF
