0
SECTION
2
HEADER
9
$ACADVER
1
AC1015
9
$DWGCODEPAGE
3
ANSI_1252
9
$HANDSEED
5
2db
9
$ANGBASE
50
0
9
$ANGDIR
70
0
9
$ATTMODE
70
1
9
$AUNITS
70
0
9
$AUPREC
70
0
9
$CECOLOR
62
256
9
$CELTSCALE
40
1
9
$CELTYPE
6
ByLayer
9
$CELWEIGHT
370
-1
9
$CLAYER
8
0
9
$CMLJUST
70
0
9
$CMLSCALE
40
1
9
$CMLSTYLE
2
Standard
9
$DIMSTYLE
2
Standard
9
$TEXTSIZE
40
0.2
9
$TEXTSTYLE
7
Standard
9
$LUNITS
70
2
9
$LUPREC
70
4
9
$EXTNAMES
290
1
9
$INSUNITS
70
4
9
$LTSCALE
40
1
9
$LWDISPLAY
290
0
9
$PDMODE
70
0
9
$PDSIZE
40
0
9
$PLINEGEN
70
0
0
ENDSEC
0
SECTION
2
CLASSES
0
CLASS
1
RASTERVARIABLES
2
AcDbRasterVariables
3
ISM
90
0
280
0
281
0
0
ENDSEC
0
SECTION
2
TABLES
0
TABLE
2
VPORT
5
2d1
100
AcDbSymbolTable
0
VPORT
5
1
100
AcDbSymbolTableRecord
100
AcDbViewportTableRecord
2
*Active
70
0
10
0
20
0
11
1
21
1
12
-1
22
1
13
0
23
0
14
0.5
24
0.5
15
10
25
10
16
0
26
0
36
1
17
0
27
0
37
0
0
ENDTAB
0
TABLE
2
LTYPE
5
2d2
100
AcDbSymbolTable
0
LTYPE
5
14
100
AcDbSymbolTableRecord
100
AcDbLinetypeTableRecord
70
0
2
ByBlock
3

72
65
73
0
40
0
0
LTYPE
5
15
100
AcDbSymbolTableRecord
100
AcDbLinetypeTableRecord
70
0
2
ByLayer
3

72
65
73
0
40
0
0
LTYPE
5
16
100
AcDbSymbolTableRecord
100
AcDbLinetypeTableRecord
70
0
2
CONTINUOUS
3
Solid line
72
65
73
0
40
0
0
LTYPE
5
3B
100
AcDbSymbolTableRecord
100
AcDbLinetypeTableRecord
70
0
2
DASHED
3
__ __ __ __ __ __ __ __ __
72
65
73
2
40
25.72
49
12.86
74
0
49
-12.86
74
0
0
LTYPE
5
3C
100
AcDbSymbolTableRecord
100
AcDbLinetypeTableRecord
70
0
2
HIDDEN
3
_ _ _ _ _ _ _ _ _ _ _ _ _ _ _
72
65
73
2
40
0.5
49
0.25
74
0
49
-0.25
74
0
0
LTYPE
5
3D
100
AcDbSymbolTableRecord
100
AcDbLinetypeTableRecord
70
0
2
PHANTOM
3
____ _ _ ____ _ _ _____ _ _ ____
72
65
73
6
40
50.5
49
18
74
0
49
-6.5
74
0
49
6.5
74
0
49
-6.5
74
0
49
6.5
74
0
49
-6.5
74
0
0
LTYPE
5
3E
100
AcDbSymbolTableRecord
100
AcDbLinetypeTableRecord
70
0
2
CENTER
3
____ _ ____ _ ____ _ ____
72
65
73
4
40
47.5
49
22
74
0
49
-8.5
74
0
49
8.5
74
0
49
-8.5
74
0
0
LTYPE
5
3F
100
AcDbSymbolTableRecord
100
AcDbLinetypeTableRecord
70
0
2
DOT
3
.........................
72
65
73
2
40
10
49
0
74
0
49
-10
74
0
0
LTYPE
5
40
100
AcDbSymbolTableRecord
100
AcDbLinetypeTableRecord
70
0
2
DASHDOT
3
_._._._._._._._._._._._._._._._.
72
65
73
4
40
70
49
31
74
0
49
-13
74
0
49
13
74
0
49
-13
74
0
0
ENDTAB
0
TABLE
2
LAYER
5
2d3
100
AcDbSymbolTable
0
LAYER
5
10
100
AcDbSymbolTableRecord
100
AcDbLayerTableRecord
2
0
70
0
62
7
6
CONTINUOUS
290
1
370
-3
390
0
0
LAYER
5
42
100
AcDbSymbolTableRecord
100
AcDbLayerTableRecord
2
81
70
0
62
-3
6
CONTINUOUS
290
1
370
-3
390
0
0
LAYER
5
44
100
AcDbSymbolTableRecord
100
AcDbLayerTableRecord
2
80
70
0
62
-6
6
CONTINUOUS
290
1
370
-3
390
0
0
LAYER
5
48
100
AcDbSymbolTableRecord
100
AcDbLayerTableRecord
2
1
70
0
62
4
6
CONTINUOUS
290
1
370
-3
390
0
0
LAYER
5
60
100
AcDbSymbolTableRecord
100
AcDbLayerTableRecord
2
4
70
0
62
-2
6
CENTER
290
1
370
-3
390
0
0
LAYER
5
275
100
AcDbSymbolTableRecord
100
AcDbLayerTableRecord
2
2
70
0
62
7
6
CONTINUOUS
290
1
370
-3
390
0
0
LAYER
5
2bd
100
AcDbSymbolTableRecord
100
AcDbLayerTableRecord
2
SK4
70
0
62
2
6
CENTER
290
1
370
-3
390
0
0
LAYER
5
2be
100
AcDbSymbolTableRecord
100
AcDbLayerTableRecord
2
SK1
70
0
62
4
6
CONTINUOUS
290
1
370
-3
390
0
0
LAYER
5
2bf
100
AcDbSymbolTableRecord
100
AcDbLayerTableRecord
2
SK6
70
0
62
5
6
CONTINUOUS
290
1
370
-3
390
0
0
LAYER
5
2c0
100
AcDbSymbolTableRecord
100
AcDbLayerTableRecord
2
SK2
70
0
62
7
6
CONTINUOUS
290
1
370
-3
390
0
0
ENDTAB
0
TABLE
2
STYLE
5
2d4
100
AcDbSymbolTable
0
STYLE
5
11
100
AcDbSymbolTableRecord
100
AcDbTextStyleTableRecord
2
Standard
3
txt
70
0
71
0
40
0
41
1
42
0
50
0
0
STYLE
5
239
100
AcDbSymbolTableRecord
100
AcDbTextStyleTableRecord
2
DEFAULT
3
simplex.shx
70
0
71
0
40
0
41
1
42
0
50
0
0
STYLE
5
25C
100
AcDbSymbolTableRecord
100
AcDbTextStyleTableRecord
2
DWGDirectTextStyle
3
SIMPLEX
70
0
71
0
40
0
41
1
42
0
50
0
0
ENDTAB
0
TABLE
2
DIMSTYLE
5
2d5
100
AcDbSymbolTable
100
AcDbDimStyleTable
0
DIMSTYLE
105
27
100
AcDbSymbolTableRecord
100
AcDbDimStyleTableRecord
2
Standard
70
0
3
<>
41
0.18
42
0.0625
44
0.18
140
0.18
147
0.09
73
0
74
0
77
1
271
2
275
0
278
52
280
0
340
11
0
ENDTAB
0
TABLE
2
VIEW
5
2d6
100
AcDbSymbolTable
0
ENDTAB
0
TABLE
2
UCS
5
2d7
100
AcDbSymbolTable
0
ENDTAB
0
TABLE
2
APPID
5
2d8
100
AcDbSymbolTable
0
APPID
5
12
100
AcDbSymbolTableRecord
100
AcDbRegAppTableRecord
2
ACAD
70
0
0
ENDTAB
0
TABLE
2
BLOCK_RECORD
5
2d9
100
AcDbSymbolTable
0
BLOCK_RECORD
5
1F
100
AcDbSymbolTableRecord
100
AcDbBlockTableRecord
2
*Model_Space
340
0
70
0
0
BLOCK_RECORD
5
1B
100
AcDbSymbolTableRecord
100
AcDbBlockTableRecord
2
*Paper_Space
340
0
70
0
0
BLOCK_RECORD
5
23
100
AcDbSymbolTableRecord
100
AcDbBlockTableRecord
2
*Paper_Space0
340
0
70
0
0
BLOCK_RECORD
5
25E
100
AcDbSymbolTableRecord
100
AcDbBlockTableRecord
2
DimnDraft3D1
340
0
70
0
0
BLOCK_RECORD
5
269
100
AcDbSymbolTableRecord
100
AcDbBlockTableRecord
2
DimnDraft3D2
340
0
70
0
0
BLOCK_RECORD
5
273
100
AcDbSymbolTableRecord
100
AcDbBlockTableRecord
2
DimnDraft3D3
340
0
70
0
0
BLOCK_RECORD
5
27E
100
AcDbSymbolTableRecord
100
AcDbBlockTableRecord
2
DimnDraft3D4
340
0
70
0
0
BLOCK_RECORD
5
288
100
AcDbSymbolTableRecord
100
AcDbBlockTableRecord
2
DimnDraft3D5
340
0
70
0
0
BLOCK_RECORD
5
293
100
AcDbSymbolTableRecord
100
AcDbBlockTableRecord
2
DimnDraft3D6
340
0
70
0
0
ENDTAB
0
ENDSEC
0
SECTION
2
BLOCKS
0
BLOCK
5
20
100
AcDbEntity
8
0
100
AcDbBlockBegin
2
*Model_Space
70
0
10
0
20
0
30
0
3
*Model_Space
0
ENDBLK
5
21
100
AcDbEntity
8
0
100
AcDbBlockEnd
0
BLOCK
5
1C
100
AcDbEntity
8
0
100
AcDbBlockBegin
2
*Paper_Space
70
0
10
0
20
0
30
0
3
*Paper_Space
0
ENDBLK
5
1D
100
AcDbEntity
8
0
100
AcDbBlockEnd
0
BLOCK
5
24
100
AcDbEntity
8
0
100
AcDbBlockBegin
2
*Paper_Space0
70
0
10
0
20
0
30
0
3
*Paper_Space0
0
ENDBLK
5
25
100
AcDbEntity
8
0
100
AcDbBlockEnd
0
BLOCK
5
266
100
AcDbEntity
8
0
100
AcDbBlockBegin
2
DimnDraft3D1
70
0
10
0
20
0
30
0
3
DimnDraft3D1
0
MTEXT
5
25F
100
AcDbEntity
8
SK2
62
256
6
ByLayer
370
-1
48
1
60
0
100
AcDbMText
10
37.169737
20
-60.725
30
0
210
0
220
0
230
1
1
\W01.000;\fsimplex.shx,bigfont.shx;(149) 
40
4.5
41
0
44
1.084337
50
0
71
7
72
5
7
DEFAULT
0
LINE
5
261
100
AcDbEntity
8
SK2
62
256
6
ByLayer
370
-1
48
1
60
0
100
AcDbLine
10
-30
20
-4.0875
30
0
11
-30
21
-66.99375
31
0
39
0
210
0
220
0
230
1
0
LINE
5
262
100
AcDbEntity
8
SK2
62
256
6
ByLayer
370
-1
48
1
60
0
100
AcDbLine
10
119
20
-14.0875
30
0
11
119
21
-66.99375
31
0
39
0
210
0
220
0
230
1
0
LINE
5
263
100
AcDbEntity
8
SK2
62
256
6
ByLayer
370
-1
48
1
60
0
100
AcDbLine
10
-30
20
-63.81875
30
0
11
119
21
-63.81875
31
0
39
0
210
0
220
0
230
1
0
SOLID
5
264
100
AcDbEntity
8
SK2
62
256
6
ByLayer
370
-1
48
1
60
0
100
AcDbTrace
10
-30
20
-63.81875
30
0
11
-25.825003
21
-62.893175
31
0
12
-25.824997
22
-64.744325
32
0
13
-30
23
-63.81875
33
0
39
0
210
0
220
0
230
1
0
SOLID
5
265
100
AcDbEntity
8
SK2
62
256
6
ByLayer
370
-1
48
1
60
0
100
AcDbTrace
10
119
20
-63.81875
30
0
11
114.825003
21
-64.744325
31
0
12
114.824997
22
-62.893175
32
0
13
119
23
-63.81875
33
0
39
0
210
0
220
0
230
1
0
ENDBLK
5
267
100
AcDbEntity
8
0
100
AcDbBlockEnd
0
BLOCK
5
270
100
AcDbEntity
8
0
100
AcDbBlockBegin
2
DimnDraft3D2
70
0
10
0
20
0
30
0
3
DimnDraft3D2
0
MTEXT
5
26A
100
AcDbEntity
8
SK2
62
256
6
ByLayer
370
-1
48
1
60
0
100
AcDbMText
10
-16.503947
20
-50.725
30
0
210
0
220
0
230
1
1
\W01.000;\fsimplex.shx,bigfont.shx;30 
40
4.5
41
0
44
1.084337
50
0
71
7
72
5
7
DEFAULT
0
LINE
5
26B
100
AcDbEntity
8
SK2
62
256
6
ByLayer
370
-1
48
1
60
0
100
AcDbLine
10
-30
20
-4.0875
30
0
11
-30
21
-55.025
31
0
39
0
210
0
220
0
230
1
0
LINE
5
26C
100
AcDbEntity
8
SK2
62
256
6
ByLayer
370
-1
48
1
60
0
100
AcDbLine
10
0
20
-26.5875
30
0
11
0
21
-55.025
31
0
39
0
210
0
220
0
230
1
0
LINE
5
26D
100
AcDbEntity
8
SK2
62
256
6
ByLayer
370
-1
48
1
60
0
100
AcDbLine
10
-30
20
-51.85
30
0
11
0
21
-51.85
31
0
39
0
210
0
220
0
230
1
0
SOLID
5
26E
100
AcDbEntity
8
SK2
62
256
6
ByLayer
370
-1
48
1
60
0
100
AcDbTrace
10
-30
20
-51.85
30
0
11
-25.825003
21
-50.924425
31
0
12
-25.824997
22
-52.775575
32
0
13
-30
23
-51.85
33
0
39
0
210
0
220
0
230
1
0
SOLID
5
26F
100
AcDbEntity
8
SK2
62
256
6
ByLayer
370
-1
48
1
60
0
100
AcDbTrace
10
0
20
-51.85
30
0
11
-4.174997
21
-52.775575
31
0
12
-4.175003
22
-50.924425
32
0
13
0
23
-51.85
33
0
39
0
210
0
220
0
230
1
0
ENDBLK
5
271
100
AcDbEntity
8
0
100
AcDbBlockEnd
0
BLOCK
5
27B
100
AcDbEntity
8
0
100
AcDbBlockBegin
2
DimnDraft3D3
70
0
10
0
20
0
30
0
3
DimnDraft3D3
0
MTEXT
5
274
100
AcDbEntity
8
2
62
256
6
ByLayer
370
-1
48
1
60
0
100
AcDbMText
10
57.469079
20
-50.725
30
0
210
0
220
0
230
1
1
\W01.000;\fsimplex.shx,bigfont.shx;119 
40
4.5
41
0
44
1.084337
50
0
71
7
72
5
7
DEFAULT
0
LINE
5
276
100
AcDbEntity
8
2
62
256
6
ByLayer
370
-1
48
1
60
0
100
AcDbLine
10
0
20
-26.5875
30
0
11
0
21
-55.025
31
0
39
0
210
0
220
0
230
1
0
LINE
5
277
100
AcDbEntity
8
2
62
256
6
ByLayer
370
-1
48
1
60
0
100
AcDbLine
10
119
20
-14.0875
30
0
11
119
21
-55.025
31
0
39
0
210
0
220
0
230
1
0
LINE
5
278
100
AcDbEntity
8
2
62
256
6
ByLayer
370
-1
48
1
60
0
100
AcDbLine
10
0
20
-51.85
30
0
11
119
21
-51.85
31
0
39
0
210
0
220
0
230
1
0
SOLID
5
279
100
AcDbEntity
8
2
62
256
6
ByLayer
370
-1
48
1
60
0
100
AcDbTrace
10
0
20
-51.85
30
0
11
4.174997
21
-50.924425
31
0
12
4.175003
22
-52.775575
32
0
13
0
23
-51.85
33
0
39
0
210
0
220
0
230
1
0
SOLID
5
27A
100
AcDbEntity
8
2
62
256
6
ByLayer
370
-1
48
1
60
0
100
AcDbTrace
10
119
20
-51.85
30
0
11
114.825003
21
-52.775575
31
0
12
114.824997
22
-50.924425
32
0
13
119
23
-51.85
33
0
39
0
210
0
220
0
230
1
0
ENDBLK
5
27C
100
AcDbEntity
8
0
100
AcDbBlockEnd
0
BLOCK
5
285
100
AcDbEntity
8
0
100
AcDbBlockBegin
2
DimnDraft3D4
70
0
10
0
20
0
30
0
3
DimnDraft3D4
0
MTEXT
5
27F
100
AcDbEntity
8
SK2
62
256
6
ByLayer
370
-1
48
1
60
0
100
AcDbMText
10
77.996053
20
-40.725
30
0
210
0
220
0
230
1
1
\W01.000;\fsimplex.shx,bigfont.shx;79 
40
4.5
41
0
44
1.084337
50
0
71
7
72
5
7
DEFAULT
0
LINE
5
280
100
AcDbEntity
8
SK2
62
256
6
ByLayer
370
-1
48
1
60
0
100
AcDbLine
10
40
20
-11.5875
30
0
11
40
21
-45.025
31
0
39
0
210
0
220
0
230
1
0
LINE
5
281
100
AcDbEntity
8
SK2
62
256
6
ByLayer
370
-1
48
1
60
0
100
AcDbLine
10
119
20
-14.0875
30
0
11
119
21
-45.025
31
0
39
0
210
0
220
0
230
1
0
LINE
5
282
100
AcDbEntity
8
SK2
62
256
6
ByLayer
370
-1
48
1
60
0
100
AcDbLine
10
40
20
-41.85
30
0
11
119
21
-41.85
31
0
39
0
210
0
220
0
230
1
0
SOLID
5
283
100
AcDbEntity
8
SK2
62
256
6
ByLayer
370
-1
48
1
60
0
100
AcDbTrace
10
40
20
-41.85
30
0
11
44.174997
21
-40.924425
31
0
12
44.175003
22
-42.775575
32
0
13
40
23
-41.85
33
0
39
0
210
0
220
0
230
1
0
SOLID
5
284
100
AcDbEntity
8
SK2
62
256
6
ByLayer
370
-1
48
1
60
0
100
AcDbTrace
10
119
20
-41.85
30
0
11
114.825003
21
-42.775575
31
0
12
114.824997
22
-40.924425
32
0
13
119
23
-41.85
33
0
39
0
210
0
220
0
230
1
0
ENDBLK
5
286
100
AcDbEntity
8
0
100
AcDbBlockEnd
0
BLOCK
5
290
100
AcDbEntity
8
0
100
AcDbBlockBegin
2
DimnDraft3D5
70
0
10
0
20
0
30
0
3
DimnDraft3D5
0
MTEXT
5
289
100
AcDbEntity
8
SK2
62
256
6
ByLayer
370
-1
48
1
60
0
100
AcDbMText
10
-51.159264
20
5.246053
30
0
210
0
220
0
230
1
1
\W01.000;\fsimplex.shx,bigfont.shx;50 
40
4.5
41
0
44
1.084337
50
90
71
7
72
5
7
DEFAULT
0
MTEXT
5
28A
100
AcDbEntity
8
SK2
62
256
6
ByLayer
370
-1
48
1
60
0
100
AcDbMText
10
-51.159264
20
-8.253947
30
0
210
0
220
0
230
1
1
\W01.000;\fsimplex.shx,bigfont.shx;%%c 
40
4.5
41
0
44
1.084337
50
90
71
7
72
5
7
DEFAULT
0
LINE
5
28B
100
AcDbEntity
8
SK2
62
256
6
ByLayer
370
-1
48
1
60
0
100
AcDbLine
10
-1.5875
20
-25
30
0
11
-52.084264
21
-25
31
0
39
0
210
0
220
0
230
1
0
LINE
5
28C
100
AcDbEntity
8
SK2
62
256
6
ByLayer
370
-1
48
1
60
0
100
AcDbLine
10
-1.5875
20
25
30
0
11
-52.084264
21
25
31
0
39
0
210
0
220
0
230
1
0
LINE
5
28D
100
AcDbEntity
8
SK2
62
256
6
ByLayer
370
-1
48
1
60
0
100
AcDbLine
10
-48.909264
20
-25
30
0
11
-48.909264
21
25
31
0
39
0
210
0
220
0
230
1
0
SOLID
5
28E
100
AcDbEntity
8
SK2
62
256
6
ByLayer
370
-1
48
1
60
0
100
AcDbTrace
10
-48.909264
20
-25
30
0
11
-49.834839
21
-20.825003
31
0
12
-47.983689
22
-20.824997
32
0
13
-48.909264
23
-25
33
0
39
0
210
0
220
0
230
1
0
SOLID
5
28F
100
AcDbEntity
8
SK2
62
256
6
ByLayer
370
-1
48
1
60
0
100
AcDbTrace
10
-48.909264
20
25
30
0
11
-47.983689
21
20.825003
31
0
12
-49.834839
22
20.824997
32
0
13
-48.909264
23
25
33
0
39
0
210
0
220
0
230
1
0
ENDBLK
5
291
100
AcDbEntity
8
0
100
AcDbBlockEnd
0
BLOCK
5
29B
100
AcDbEntity
8
0
100
AcDbBlockBegin
2
DimnDraft3D6
70
0
10
0
20
0
30
0
3
DimnDraft3D6
0
MTEXT
5
294
100
AcDbEntity
8
2
62
256
6
ByLayer
370
-1
48
1
60
0
100
AcDbMText
10
143.725
20
5.246053
30
0
210
0
220
0
230
1
1
\W01.000;\fsimplex.shx,bigfont.shx;25 
40
4.5
41
0
44
1.084337
50
90
71
7
72
5
7
DEFAULT
0
MTEXT
5
295
100
AcDbEntity
8
2
62
256
6
ByLayer
370
-1
48
1
60
0
100
AcDbMText
10
143.725
20
-8.253947
30
0
210
0
220
0
230
1
1
\W01.000;\fsimplex.shx,bigfont.shx;%%c 
40
4.5
41
0
44
1.084337
50
90
71
7
72
5
7
DEFAULT
0
LINE
5
296
100
AcDbEntity
8
2
62
256
6
ByLayer
370
-1
48
1
60
0
100
AcDbLine
10
120.5875
20
12.5
30
0
11
149.15
21
12.5
31
0
39
0
210
0
220
0
230
1
0
LINE
5
297
100
AcDbEntity
8
2
62
256
6
ByLayer
370
-1
48
1
60
0
100
AcDbLine
10
120.5875
20
-12.5
30
0
11
149.15
21
-12.5
31
0
39
0
210
0
220
0
230
1
0
LINE
5
298
100
AcDbEntity
8
2
62
256
6
ByLayer
370
-1
48
1
60
0
100
AcDbLine
10
145.975
20
23.75
30
0
11
145.975
21
-23.75
31
0
39
0
210
0
220
0
230
1
0
SOLID
5
299
100
AcDbEntity
8
2
62
256
6
ByLayer
370
-1
48
1
60
0
100
AcDbTrace
10
145.975
20
12.5
30
0
11
145.049425
21
16.674997
31
0
12
146.900575
22
16.675003
32
0
13
145.975
23
12.5
33
0
39
0
210
0
220
0
230
1
0
SOLID
5
29A
100
AcDbEntity
8
2
62
256
6
ByLayer
370
-1
48
1
60
0
100
AcDbTrace
10
145.975
20
-12.5
30
0
11
146.900575
21
-16.674997
31
0
12
145.049425
22
-16.675003
32
0
13
145.975
23
-12.5
33
0
39
0
210
0
220
0
230
1
0
ENDBLK
5
29C
100
AcDbEntity
8
0
100
AcDbBlockEnd
0
ENDSEC
0
SECTION
2
ENTITIES
0
ARC
5
FE
100
AcDbEntity
8
1
62
256
6
ByLayer
370
-1
48
1
60
0
100
AcDbCircle
39
0
10
-26.015785
20
15.3
30
0
40
0.8
210
0
220
0
230
-1
100
AcDbArc
50
270
51
345
0
ARC
5
FF
100
AcDbEntity
8
1
62
256
6
ByLayer
370
-1
48
1
60
0
100
AcDbCircle
39
0
10
-26.015785
20
-15.3
30
0
40
0.8
210
0
220
0
230
-1
100
AcDbArc
50
15
51
90
0
ARC
5
100
100
AcDbEntity
8
SK1
62
256
6
ByLayer
370
-1
48
1
60
0
100
AcDbCircle
39
0
10
0.6
20
18.75
30
0
40
1
210
0
220
0
230
-1
100
AcDbArc
50
233.130102
51
246.421822
0
ARC
5
101
100
AcDbEntity
8
SK1
62
256
6
ByLayer
370
-1
48
1
60
0
100
AcDbCircle
39
0
10
0.6
20
-18.75
30
0
40
1
210
0
220
0
230
-1
100
AcDbArc
50
113.578178
51
126.869898
0
ELLIPSE
5
102
100
AcDbEntity
8
1
62
256
6
ByLayer
370
-1
48
1
60
0
100
AcDbEllipse
10
105.747657
20
4.502916
30
0
11
-0.313595748497239
21
-0.735973984950866
31
0
210
0
220
0
230
1
40
0.080227
41
0.176094084019371
42
1.60496756452651
0
ELLIPSE
5
103
100
AcDbEntity
8
1
62
256
6
ByLayer
370
-1
48
1
60
0
100
AcDbEllipse
10
114.67548
20
7.734498
30
0
11
1.75718001347441E-15
21
1.5
31
0
210
0
220
0
230
1
40
0.996195
41
0.0817794639907316
42
1.57079621539443
0
ELLIPSE
5
104
100
AcDbEntity
8
1
62
256
6
ByLayer
370
-1
48
1
60
0
100
AcDbEllipse
10
114.67548
20
7.734498
30
0
11
1.75718001347441E-15
21
1.5
31
0
210
0
220
0
230
1
40
0.996195
41
1.57079621539443
42
2.56854670135029
0
ELLIPSE
5
105
100
AcDbEntity
8
1
62
256
6
ByLayer
370
-1
48
1
60
0
100
AcDbEllipse
10
114.431444
20
7.734498
30
0
11
1.75718001347441E-15
21
1.5
31
0
210
0
220
0
230
1
40
0.996195
41
-1.91156087121061
42
0
0
ELLIPSE
5
106
100
AcDbEntity
8
1
62
256
6
ByLayer
370
-1
48
1
60
0
100
AcDbEllipse
10
114.431444
20
7.734498
30
0
11
1.75718001347441E-15
21
1.5
31
0
210
0
220
0
230
1
40
0.996195
41
0
42
1.57079658615061
0
ELLIPSE
5
107
100
AcDbEntity
8
1
62
256
6
ByLayer
370
-1
48
1
60
0
100
AcDbEllipse
10
114.431444
20
7.734498
30
0
11
1.75718001347441E-15
21
1.5
31
0
210
0
220
0
230
1
40
0.996195
41
1.57079621539443
42
1.85569969050121
0
ELLIPSE
5
108
100
AcDbEntity
8
1
62
256
6
ByLayer
370
-1
48
1
60
0
100
AcDbEllipse
10
99.290811
20
8.03
30
0
11
9.49070522532362E-16
21
0.81016502172916
31
0
210
0
220
0
230
1
40
0.95905
41
-2.10246933523254
42
-1.5707963267949
0
ELLIPSE
5
109
100
AcDbEntity
8
1
62
256
6
ByLayer
370
-1
48
1
60
0
100
AcDbEllipse
10
107.675869
20
0
30
0
11
-40.8016636083637
21
-4.62323524050777E-14
31
0
210
0
220
0
230
-1
40
0.295331
41
1.38323384951028
42
1.56234689370364
0
ELLIPSE
5
10A
100
AcDbEntity
8
1
62
256
6
ByLayer
370
-1
48
1
60
0
100
AcDbEllipse
10
105.968967
20
3.295117
30
0
11
-6.30668182822756
21
-0.198398346529311
31
0
210
0
220
0
230
-1
40
0.01063
41
-1.89664874657354
42
-1.88747602717083
0
ELLIPSE
5
10B
100
AcDbEntity
8
1
62
256
6
ByLayer
370
-1
48
1
60
0
100
AcDbEllipse
10
21.056258
20
0
30
0
11
-11.709272349727
21
24.6771864409371
31
0
210
0
220
0
230
-1
40
0.341999
41
-1.08183270048929
42
-0.16721307190898
0
ELLIPSE
5
10C
100
AcDbEntity
8
1
62
256
6
ByLayer
370
-1
48
1
60
0
100
AcDbEllipse
10
94.841717
20
8.001956
30
0
11
-12.7412285263948
21
6.71295567046514
31
0
210
0
220
0
230
-1
40
0.10411
41
-2.49786222558582
42
-1.35099220333719
0
ELLIPSE
5
10D
100
AcDbEntity
8
1
62
256
6
ByLayer
370
-1
48
1
60
0
100
AcDbEllipse
10
117.596845
20
-7.239146
30
0
11
-0.121264545020641
21
-1.49997177069637
31
0
210
0
220
0
230
-1
40
0.125399
41
-2.67311322810257
42
2.76134837572118
0
ELLIPSE
5
10E
100
AcDbEntity
8
1
62
256
6
ByLayer
370
-1
48
1
60
0
100
AcDbEllipse
10
107.841452
20
9.289541
30
0
11
6.09155738004463E-15
21
5.2
31
0
210
0
220
0
230
1
40
0.996195
41
2.7401669256311
42
-3.10668606854991
0
ELLIPSE
5
10F
100
AcDbEntity
8
1
62
256
6
ByLayer
370
-1
48
1
60
0
100
AcDbEllipse
10
114.285542
20
-2.589413
30
0
11
-1.5
21
1.51595858262354E-15
31
0
210
0
220
0
230
1
40
0.998135
41
-3.05588636642759
42
-0.0858049843653129
0
ELLIPSE
5
110
100
AcDbEntity
8
1
62
256
6
ByLayer
370
-1
48
1
60
0
100
AcDbEllipse
10
118.177423
20
0
30
0
11
-0.731173396683957
21
12.0496853737816
31
0
210
0
220
0
230
-1
40
0.119092
41
-2.05298907903355
42
-1.48320843750701
0
ELLIPSE
5
111
100
AcDbEntity
8
1
62
256
6
ByLayer
370
-1
48
1
60
0
100
AcDbEllipse
10
107.952514
20
4.092709
30
0
11
0.0280261150489236
21
-0.799508934831416
31
0
210
0
220
0
230
1
40
0.087103
41
0.0630727813209288
42
1.56774302595898
0
ELLIPSE
5
112
100
AcDbEntity
8
1
62
256
6
ByLayer
370
-1
48
1
60
0
100
AcDbEllipse
10
111.063117
20
4.665413
30
0
11
-1.76858446507625E-15
21
-1.65
31
0
210
0
220
0
230
1
40
0.996195
41
-1.53879862384166
42
-0.14591971909318
0
ELLIPSE
5
113
100
AcDbEntity
8
1
62
256
6
ByLayer
370
-1
48
1
60
0
100
AcDbEllipse
10
114.285542
20
-2.333009
30
0
11
1.6
21
0
31
0
210
0
220
0
230
1
40
0.998135
41
0.0624389058475996
42
3.14159238863093
0
ELLIPSE
5
114
100
AcDbEntity
8
1
62
256
6
ByLayer
370
-1
48
1
60
0
100
AcDbEllipse
10
107.478074
20
0
30
0
11
-53.9966774754356
21
0.774027097125978
31
0
210
0
220
0
230
-1
40
0.222701
41
-1.6013779883354
42
-1.51757181129715
0
ELLIPSE
5
115
100
AcDbEntity
8
1
62
256
6
ByLayer
370
-1
48
1
60
0
100
AcDbEllipse
10
114.300711
20
7.734498
30
0
11
2.05004334905348E-15
21
1.75
31
0
210
0
220
0
230
1
40
0.996195
41
-1.42274887684816
42
0
0
ELLIPSE
5
116
100
AcDbEntity
8
1
62
256
6
ByLayer
370
-1
48
1
60
0
100
AcDbEllipse
10
114.300711
20
7.734498
30
0
11
2.05004334905348E-15
21
1.75
31
0
210
0
220
0
230
1
40
0.996195
41
0
42
0.324565673105946
0
ELLIPSE
5
117
100
AcDbEntity
8
1
62
256
6
ByLayer
370
-1
48
1
60
0
100
AcDbEllipse
10
114.300711
20
7.734498
30
0
11
2.05004334905348E-15
21
1.75
31
0
210
0
220
0
230
1
40
0.996195
41
1.57079612015634
42
-1.57079639567441
0
ELLIPSE
5
118
100
AcDbEntity
8
1
62
256
6
ByLayer
370
-1
48
1
60
0
100
AcDbEllipse
10
107.771727
20
9.289541
30
0
11
-6.43121623664089E-15
21
-6
31
0
210
0
220
0
230
1
40
0.996195
41
-0.354877531988774
42
-3.5057547433529E-06
0
ELLIPSE
5
119
100
AcDbEntity
8
1
62
256
6
ByLayer
370
-1
48
1
60
0
100
AcDbEllipse
10
117.824715
20
4.010936
30
0
11
-0.0454510785249631
21
0.603378219777104
31
0
210
0
220
0
230
-1
40
0.116612
41
2.20606669668733
42
-3.13110231932086
0
ELLIPSE
5
11A
100
AcDbEntity
8
1
62
256
6
ByLayer
370
-1
48
1
60
0
100
AcDbEllipse
10
119.056543
20
0
30
0
11
-0.99091302571769
21
-12.0493492019337
31
0
210
0
220
0
230
-1
40
0.126383
41
0.0233040726881192
42
1.07098407486372
0
ELLIPSE
5
11B
100
AcDbEntity
8
1
62
256
6
ByLayer
370
-1
48
1
60
0
100
AcDbEllipse
10
-1.056258
20
0
30
0
11
-11.7092723497287
21
24.6771864409392
31
0
210
0
220
0
230
-1
40
0.341999
41
2.05975995310057
42
2.97437958168083
0
ELLIPSE
5
11C
100
AcDbEntity
8
1
62
256
6
ByLayer
370
-1
48
1
60
0
100
AcDbEllipse
10
114.84098
20
0
30
0
11
-28.7743234583448
21
11.6703770557563
31
0
210
0
220
0
230
-1
40
0.104287
41
-1.24554812490538
42
-0.268857014404418
0
ELLIPSE
5
11D
100
AcDbEntity
8
1
62
256
6
ByLayer
370
-1
48
1
60
0
100
AcDbEllipse
10
111.118584
20
4.665413
30
0
11
-1.43971234163554
21
-1.28202564687794
31
0
210
0
220
0
230
-1
40
0.721468
41
-1.21041155897049
42
-0.027573740471322
0
ELLIPSE
5
11E
100
AcDbEntity
8
1
62
256
6
ByLayer
370
-1
48
1
60
0
100
AcDbEllipse
10
110.986628
20
7.064185
30
0
11
-1.76858446507625E-15
21
-1.65
31
0
210
0
220
0
230
1
40
0.996195
41
-2.30619067076369
42
-1.53879862384166
0
ELLIPSE
5
11F
100
AcDbEntity
8
1
62
256
6
ByLayer
370
-1
48
1
60
0
100
AcDbEllipse
10
117.788495
20
-7.270418
30
0
11
-0.0916544298683644
21
1.53427858254032
31
0
210
0
220
0
230
-1
40
0.115618
41
-0.364412987777957
42
0.484310715581444
0
ELLIPSE
5
120
100
AcDbEntity
8
1
62
256
6
ByLayer
370
-1
48
1
60
0
100
AcDbEllipse
10
109.941159
20
7.030593
30
0
11
-0.599695201525335
21
-0.0191223760942029
31
0
210
0
220
0
230
1
40
0.002788
41
0.0872220186686819
42
1.34609330751804
0
ELLIPSE
5
121
100
AcDbEntity
8
1
62
256
6
ByLayer
370
-1
48
1
60
0
100
AcDbEllipse
10
31.4
20
3.766623
30
0
11
-5.50000000000001
21
5.55851480295301E-15
31
0
210
0
220
0
230
1
40
0.602229
41
-1.79348443869124
42
-0.484765623893858
0
ELLIPSE
5
122
100
AcDbEntity
8
1
62
256
6
ByLayer
370
-1
48
1
60
0
100
AcDbEllipse
10
109.791469
20
-1E-06
30
0
11
-0.354669769563251
21
12.0499611960316
31
0
210
0
220
0
230
-1
40
0.087414
41
-0.00423370489095635
42
0.0216153850938345
0
ELLIPSE
5
123
100
AcDbEntity
8
1
62
256
6
ByLayer
370
-1
48
1
60
0
100
AcDbEllipse
10
45.515468
20
0
30
0
11
-214.304876185362
21
-11.653080670951
31
0
210
0
220
0
230
-1
40
0.014313
41
-1.90853625211613
42
-1.86173799969042
0
ELLIPSE
5
124
100
AcDbEntity
8
1
62
256
6
ByLayer
370
-1
48
1
60
0
100
AcDbEllipse
10
114.431444
20
7.734498
30
0
11
2.05004334905348E-15
21
1.75
31
0
210
0
220
0
230
1
40
0.996195
41
0.0349503812769628
42
0.696942829586611
0
ELLIPSE
5
125
100
AcDbEntity
8
1
62
256
6
ByLayer
370
-1
48
1
60
0
100
AcDbEllipse
10
114.431444
20
7.734498
30
0
11
2.05004334905348E-15
21
1.75
31
0
210
0
220
0
230
1
40
0.996195
41
1.57079612015634
42
-1.57079639567441
0
ELLIPSE
5
126
100
AcDbEntity
8
1
62
256
6
ByLayer
370
-1
48
1
60
0
100
AcDbEllipse
10
118.190629
20
-6.213094
30
0
11
-0.0581290992930885
21
-0.658564973948924
31
0
210
0
220
0
230
-1
40
0.115224
41
0.00370845515597614
42
1.57450478194946
0
ELLIPSE
5
127
100
AcDbEntity
8
1
62
256
6
ByLayer
370
-1
48
1
60
0
100
AcDbEllipse
10
91.828761
20
9.680033
30
0
11
-5.36237534501109
21
2.53681030761605
31
0
210
0
220
0
230
-1
40
0.250843
41
-1.31207491556804
42
-1.20530939152727
0
ELLIPSE
5
128
100
AcDbEntity
8
1
62
256
6
ByLayer
370
-1
48
1
60
0
100
AcDbEllipse
10
114.285542
20
-2.333009
30
0
11
-1.5
21
1.51595858262354E-15
31
0
210
0
220
0
230
1
40
0.998135
41
-3.14159250110337
42
-2.9661265583651E-16
0
ELLIPSE
5
129
100
AcDbEntity
8
1
62
256
6
ByLayer
370
-1
48
1
60
0
100
AcDbEllipse
10
114.285542
20
-2.333009
30
0
11
-1.5
21
1.51595858262354E-15
31
0
210
0
220
0
230
1
40
0.998135
41
0
42
0.716479258988022
0
ELLIPSE
5
12A
100
AcDbEntity
8
1
62
256
6
ByLayer
370
-1
48
1
60
0
100
AcDbEllipse
10
114.285542
20
-2.333009
30
0
11
-1.5
21
1.51595858262354E-15
31
0
210
0
220
0
230
1
40
0.998135
41
2.56530666876793
42
-3.14159250110336
0
ELLIPSE
5
12B
100
AcDbEntity
8
1
62
256
6
ByLayer
370
-1
48
1
60
0
100
AcDbEllipse
10
106.383566
20
6.730569
30
0
11
-0.599719702633019
21
-5.36659447678635
31
0
210
0
220
0
230
1
40
0.281624
41
0.238018037891301
42
0.912125336107244
0
ELLIPSE
5
12C
100
AcDbEntity
8
1
62
256
6
ByLayer
370
-1
48
1
60
0
100
AcDbEllipse
10
111.304732
20
6.83
30
0
11
-7.70812427085251
21
-4.74132647810055
31
0
210
0
220
0
230
-1
40
0.361624
41
-1.06709773219061
42
-0.88578602946047
0
ELLIPSE
5
12D
100
AcDbEntity
8
1
62
256
6
ByLayer
370
-1
48
1
60
0
100
AcDbEllipse
10
21.056258
20
0
30
0
11
-11.7092723497269
21
-24.677186440937
31
0
210
0
220
0
230
-1
40
0.341999
41
0.167213071908981
42
1.08183270048929
0
ELLIPSE
5
12E
100
AcDbEntity
8
1
62
256
6
ByLayer
370
-1
48
1
60
0
100
AcDbEllipse
10
108.494867
20
6E-06
30
0
11
-137.732093252157
21
-1.56064192231061E-13
31
0
210
0
220
0
230
-1
40
0.087489
41
1.56234689143403
42
1.57760289366932
0
ELLIPSE
5
12F
100
AcDbEntity
8
1
62
256
6
ByLayer
370
-1
48
1
60
0
100
AcDbEllipse
10
110.819081
20
4.665413
30
0
11
1.93289801482185E-15
21
1.65
31
0
210
0
220
0
230
1
40
0.996195
41
1.60279402974813
42
1.89731825499789
0
ELLIPSE
5
130
100
AcDbEntity
8
1
62
256
6
ByLayer
370
-1
48
1
60
0
100
AcDbEllipse
10
108.781115
20
3.912264
30
0
11
-8.7143992301614
21
0.483944104412327
31
0
210
0
220
0
230
-1
40
0.000375
41
-3.13585542763753
42
-3.13484393306028
0
ELLIPSE
5
131
100
AcDbEntity
8
1
62
256
6
ByLayer
370
-1
48
1
60
0
100
AcDbEllipse
10
117.845269
20
0.673713
30
0
11
-0.0459809243091235
21
0.601915403139078
31
0
210
0
220
0
230
-1
40
0.117611
41
-1.4966289288246
42
0.0741673979772521
0
ELLIPSE
5
132
100
AcDbEntity
8
1
62
256
6
ByLayer
370
-1
48
1
60
0
100
AcDbEllipse
10
-1.056258
20
0
30
0
11
-11.7092723497289
21
-24.6771864409394
31
0
210
0
220
0
230
-1
40
0.341999
41
-2.97437958168083
42
-2.05975995310058
0
ELLIPSE
5
133
100
AcDbEntity
8
1
62
256
6
ByLayer
370
-1
48
1
60
0
100
AcDbEllipse
10
80.240539
20
9.652066
30
0
11
-27.0841712606719
21
2.97394310711438
31
0
210
0
220
0
230
-1
40
0.198178
41
3.11983536986921
42
-2.74709604729363
0
ELLIPSE
5
134
100
AcDbEntity
8
1
62
256
6
ByLayer
370
-1
48
1
60
0
100
AcDbEllipse
10
110.151452
20
8.810627
30
0
11
-0.581773174103488
21
-0.616643799633679
31
0
210
0
220
0
230
-1
40
0.044907
41
-0.789013564063692
42
-0.141858732214803
0
ELLIPSE
5
135
100
AcDbEntity
8
1
62
256
6
ByLayer
370
-1
48
1
60
0
100
AcDbEllipse
10
110.742592
20
7.064185
30
0
11
1.93289801482185E-15
21
1.65
31
0
210
0
220
0
230
1
40
0.996195
41
0.817034606722763
42
1.60279402974813
0
ELLIPSE
5
136
100
AcDbEntity
8
1
62
256
6
ByLayer
370
-1
48
1
60
0
100
AcDbEllipse
10
110.017648
20
4.631821
30
0
11
-0.599695201525335
21
-0.0191223760942029
31
0
210
0
220
0
230
1
40
0.002788
41
0.0872220186681488
42
1.35797147229635
0
ELLIPSE
5
137
100
AcDbEntity
8
1
62
256
6
ByLayer
370
-1
48
1
60
0
100
AcDbEllipse
10
91.997099
20
8.338265
30
0
11
-0.599719702633019
21
-5.36659447678635
31
0
210
0
220
0
230
1
40
0.281624
41
1.36814808871484
42
1.56102687808882
0
ELLIPSE
5
138
100
AcDbEntity
8
1
62
256
6
ByLayer
370
-1
48
1
60
0
100
AcDbEllipse
10
120.655121
20
-2.315773
30
0
11
-2.86877420256273
21
2.89929524932266E-15
31
0
210
0
220
0
230
1
40
0.998135
41
0.375821002308129
42
0.469140680150902
0
ELLIPSE
5
139
100
AcDbEntity
8
1
62
256
6
ByLayer
370
-1
48
1
60
0
100
AcDbEllipse
10
117.818134
20
-3.751118
30
0
11
0.311857936236317
21
0
31
0
210
0
220
0
230
1
40
0.998135
41
-0.0349065914531995
42
0.469140673040495
0
ELLIPSE
5
13A
100
AcDbEntity
8
1
62
256
6
ByLayer
370
-1
48
1
60
0
100
AcDbEllipse
10
118.423221
20
-6.10541
30
0
11
0.499999999999965
21
0
31
0
210
0
220
0
230
1
40
0.998135
41
-1.22173047639604
42
-0.0349065850398076
0
ELLIPSE
5
13B
100
AcDbEntity
8
1
62
256
6
ByLayer
370
-1
48
1
60
0
100
AcDbEllipse
10
120.655121
20
-2.376821
30
0
11
2.24556912180584
21
0
31
0
210
0
220
0
230
1
40
0.998135
41
-3.08923277573889
42
-2.67245197324543
0
ELLIPSE
5
13C
100
AcDbEntity
8
1
62
256
6
ByLayer
370
-1
48
1
60
0
100
AcDbEllipse
10
117.381185
20
-0.627972
30
0
11
-0.485063016993195
21
4.90223629149403E-16
31
0
210
0
220
0
230
1
40
0.998135
41
-3.08923278015312
42
-2.77261465029999
0
ELLIPSE
5
13D
100
AcDbEntity
8
1
62
256
6
ByLayer
370
-1
48
1
60
0
100
AcDbEllipse
10
118.000305
20
-3.893433
30
0
11
0.999999999999942
21
0
31
0
210
0
220
0
230
1
40
0.998135
41
-0.0349065850397875
42
0.484433451429335
0
ELLIPSE
5
13E
100
AcDbEntity
8
1
62
256
6
ByLayer
370
-1
48
1
60
0
100
AcDbEllipse
10
117.381185
20
-0.627972
30
0
11
-0.585063016993195
21
5.91287534657639E-16
31
0
210
0
220
0
230
1
40
0.998135
41
-3.08923277944837
42
-2.49060495440881
0
ELLIPSE
5
13F
100
AcDbEntity
8
1
62
256
6
ByLayer
370
-1
48
1
60
0
100
AcDbEllipse
10
120.655121
20
-2.321877
30
0
11
2.69556912180584
21
0
31
0
210
0
220
0
230
1
40
0.998135
41
-3.08923277578748
42
-2.6724519733941
0
ELLIPSE
5
140
100
AcDbEntity
8
1
62
256
6
ByLayer
370
-1
48
1
60
0
100
AcDbEllipse
10
114.476809
20
-2.896976
30
0
11
1.59999999999997
21
0
31
0
210
0
220
0
230
1
40
0.998135
41
0.945815682262
42
3.11174736318323
0
ELLIPSE
5
141
100
AcDbEntity
8
1
62
256
6
ByLayer
370
-1
48
1
60
0
100
AcDbEllipse
10
117.865583
20
-0.590423
30
0
11
-0.199724883720219
21
-0.0104866974279341
31
0
210
0
220
0
230
1
40
0.060965
41
1.44670832171472
42
1.56759533351589
0
ELLIPSE
5
142
100
AcDbEntity
8
1
62
256
6
ByLayer
370
-1
48
1
60
0
100
AcDbEllipse
10
114.476809
20
-2.896976
30
0
11
1.69999999999997
21
0
31
0
210
0
220
0
230
1
40
0.998135
41
1.23160257064669
42
2.95476640619256
0
ELLIPSE
5
143
100
AcDbEntity
8
1
62
256
6
ByLayer
370
-1
48
1
60
0
100
AcDbEllipse
10
118.052642
20
-0.612478
30
0
11
0.499999999999999
21
0
31
0
210
0
220
0
230
1
40
0.998135
41
0.0523598775598506
42
0.349065850398883
0
ELLIPSE
5
144
100
AcDbEntity
8
1
62
256
6
ByLayer
370
-1
48
1
60
0
100
AcDbEllipse
10
114.476809
20
-2.925083
30
0
11
1.59999999999993
21
0
31
0
210
0
220
0
230
1
40
0.998135
41
0.897612222206565
42
3.09574505906762
0
ELLIPSE
5
145
100
AcDbEntity
8
1
62
256
6
ByLayer
370
-1
48
1
60
0
100
AcDbEllipse
10
118.250789
20
-3.526115
30
0
11
-0.178323259633013
21
-0.0905583517620391
31
0
210
0
220
0
230
1
40
0.054453
41
0.4959529785752
42
1.54315052977256
0
ELLIPSE
5
146
100
AcDbEntity
8
1
62
256
6
ByLayer
370
-1
48
1
60
0
100
AcDbEllipse
10
117.774047
20
-5.011243
30
0
11
0.311857936236306
21
0
31
0
210
0
220
0
230
1
40
0.998135
41
-0.241836267641135
42
-0.0349065914529157
0
ELLIPSE
5
147
100
AcDbEntity
8
1
62
256
6
ByLayer
370
-1
48
1
60
0
100
AcDbEllipse
10
118.258815
20
-5.022035
30
0
11
-0.199877710054841
21
0.00699292665720209
31
0
210
0
220
0
230
1
40
0.061011
41
0.525733317016673
42
1.57293086821329
0
ELLIPSE
5
148
100
AcDbEntity
8
1
62
256
6
ByLayer
370
-1
48
1
60
0
100
AcDbEllipse
10
117.818134
20
-3.757222
30
0
11
-0.485063016993205
21
4.90223629149413E-16
31
0
210
0
220
0
230
1
40
0.998135
41
3.10668606442663
42
-2.67245197825928
0
ELLIPSE
5
149
100
AcDbEntity
8
1
62
256
6
ByLayer
370
-1
48
1
60
0
100
AcDbEllipse
10
117.963246
20
-2.45048
30
0
11
-0.199724883720219
21
-0.0104866974279341
31
0
210
0
220
0
230
1
40
0.060965
41
1.44670832171472
42
1.56759533351589
0
ELLIPSE
5
14A
100
AcDbEntity
8
1
62
256
6
ByLayer
370
-1
48
1
60
0
100
AcDbEllipse
10
117.513866
20
0.865034
30
0
11
0.499999999999965
21
0
31
0
210
0
220
0
230
1
40
0.998135
41
0.349065850398868
42
0.877721328342332
0
ELLIPSE
5
14B
100
AcDbEntity
8
1
62
256
6
ByLayer
370
-1
48
1
60
0
100
AcDbEllipse
10
117.774047
20
-5.017348
30
0
11
-0.485063016993194
21
4.90223629149402E-16
31
0
210
0
220
0
230
1
40
0.998135
41
2.28676983792909
42
3.10668606442681
0
ELLIPSE
5
14C
100
AcDbEntity
8
1
62
256
6
ByLayer
370
-1
48
1
60
0
100
AcDbEllipse
10
117.774047
20
-5.017348
30
0
11
-0.585063016993194
21
5.91287534657638E-16
31
0
210
0
220
0
230
1
40
0.998135
41
2.22178402597591
42
3.10668606513153
0
ELLIPSE
5
14D
100
AcDbEntity
8
1
62
256
6
ByLayer
370
-1
48
1
60
0
100
AcDbEllipse
10
118.302901
20
-3.76191
30
0
11
-0.199877710054841
21
0.00699292665720209
31
0
210
0
220
0
230
1
40
0.061011
41
0.525733317016673
42
1.57293086821329
0
ELLIPSE
5
14E
100
AcDbEntity
8
1
62
256
6
ByLayer
370
-1
48
1
60
0
100
AcDbEllipse
10
120.655121
20
-2.321877
30
0
11
2.59556912180584
21
0
31
0
210
0
220
0
230
1
40
0.998135
41
-3.08923277577814
42
-2.67245197336552
0
ELLIPSE
5
14F
100
AcDbEntity
8
1
62
256
6
ByLayer
370
-1
48
1
60
0
100
AcDbEllipse
10
120.655121
20
-2.498918
30
0
11
2.00000000000003
21
0
31
0
210
0
220
0
230
1
40
0.998135
41
-3.08923277570319
42
-2.65715920216041
0
ELLIPSE
5
150
100
AcDbEntity
8
1
62
256
6
ByLayer
370
-1
48
1
60
0
100
AcDbEllipse
10
117.818134
20
-3.757222
30
0
11
-0.585063016993205
21
5.91287534657649E-16
31
0
210
0
220
0
230
1
40
0.998135
41
3.10668606513139
42
-2.67245197755452
0
ELLIPSE
5
151
100
AcDbEntity
8
1
62
256
6
ByLayer
370
-1
48
1
60
0
100
AcDbEllipse
10
118.052392
20
2.542613
30
0
11
-1.07186937277347E-14
21
-9.99999999999992
31
0
210
0
220
0
230
1
40
0.996195
41
3.14159265358979
42
-3.12558669055491
0
ELLIPSE
5
152
100
AcDbEntity
8
1
62
256
6
ByLayer
370
-1
48
1
60
0
100
AcDbEllipse
10
118.101195
20
2.543638
30
0
11
-1.07186937277348E-14
21
-10
31
0
210
0
220
0
230
1
40
0.996195
41
-3.11578669746809
42
-3.10668606854991
0
ELLIPSE
5
153
100
AcDbEntity
8
1
62
256
6
ByLayer
370
-1
48
1
60
0
100
AcDbEllipse
10
110.13926
20
11.771922
30
0
11
-5.35934686386744E-16
21
-0.500000000000003
31
0
210
0
220
0
230
1
40
0.996195
41
-2.84488668075075
42
-1.79768912955417
0
ELLIPSE
5
154
100
AcDbEntity
8
1
62
256
6
ByLayer
370
-1
48
1
60
0
100
AcDbEllipse
10
110.44893
20
8.379319
30
0
11
-5.35934686386741E-15
21
-5
31
0
210
0
220
0
230
1
40
0.996195
41
0.0160059630348847
42
0.0258059561217064
0
ELLIPSE
5
155
100
AcDbEntity
8
1
62
256
6
ByLayer
370
-1
48
1
60
0
100
AcDbEllipse
10
110.368677
20
13.378679
30
0
11
1.16328437305554E-14
21
9.93026637113359
31
0
210
0
220
0
230
1
40
0.996195
41
3.14159265358979
42
-3.12558669055491
0
ELLIPSE
5
156
100
AcDbEntity
8
1
62
256
6
ByLayer
370
-1
48
1
60
0
100
AcDbEllipse
10
117.715285
20
13.636876
30
0
11
-1.07186937277348E-14
21
-9.99999999999999
31
0
210
0
220
0
230
1
40
0.996195
41
0.0349065850398881
42
0.0440072139580725
0
ELLIPSE
5
157
100
AcDbEntity
8
1
62
256
6
ByLayer
370
-1
48
1
60
0
100
AcDbEllipse
10
114.189011
20
7.960646
30
0
11
2.85654182022187E-15
21
2.43845974656893
31
0
210
0
220
0
230
1
40
0.996195
41
0
42
6.28318530717959
0
ELLIPSE
5
158
100
AcDbEntity
8
1
62
256
6
ByLayer
370
-1
48
1
60
0
100
AcDbEllipse
10
118.340061
20
3.958109
30
0
11
2.69746310087587E-16
21
0.230266371133678
31
0
210
0
220
0
230
1
40
0.996195
41
-3.07177948351002
42
-2.84488668075078
0
ELLIPSE
5
159
100
AcDbEntity
8
1
62
256
6
ByLayer
370
-1
48
1
60
0
100
AcDbEllipse
10
117.66653
20
13.634481
30
0
11
-1.07186937277347E-14
21
-9.99999999999992
31
0
210
0
220
0
230
1
40
0.996195
41
0.0538072070448933
42
0.0698131700797815
0
ELLIPSE
5
15A
100
AcDbEntity
8
1
62
256
6
ByLayer
370
-1
48
1
60
0
100
AcDbEllipse
10
118.475942
20
4.10438
30
0
11
2.69746310087587E-16
21
0.230266371133678
31
0
210
0
220
0
230
1
40
0.996195
41
-1.79768912955418
42
-1.5707963267949
0
ELLIPSE
5
15B
100
AcDbEntity
8
1
62
256
6
ByLayer
370
-1
48
1
60
0
100
AcDbEllipse
10
117.665998
20
13.634481
30
0
11
1.16328437305554E-14
21
9.93026637113359
31
0
210
0
220
0
230
1
40
0.996195
41
-3.0877854465449
42
-3.07177948351001
0
ELLIPSE
5
15C
100
AcDbEntity
8
1
62
256
6
ByLayer
370
-1
48
1
60
0
100
AcDbEllipse
10
118.197575
20
12.106214
30
0
11
2.69746310087587E-16
21
0.230266371133678
31
0
210
0
220
0
230
1
40
0.996195
41
-1.50098315671514
42
-1.27409035395591
0
ELLIPSE
5
15D
100
AcDbEntity
8
1
62
256
6
ByLayer
370
-1
48
1
60
0
100
AcDbEllipse
10
108.812853
20
4.10438
30
0
11
1.16328437305554E-14
21
9.93026637113359
31
0
210
0
220
0
230
1
40
0.996195
41
-1.5707963267949
42
-1.55479036376001
0
ELLIPSE
5
15E
100
AcDbEntity
8
1
62
256
6
ByLayer
370
-1
48
1
60
0
100
AcDbEllipse
10
118.340593
20
3.958109
30
0
11
-3.21560811832042E-16
21
-0.299999999999998
31
0
210
0
220
0
230
1
40
0.996195
41
0.0698131700798027
42
0.29670597283904
0
ELLIPSE
5
15F
100
AcDbEntity
8
1
62
256
6
ByLayer
370
-1
48
1
60
0
100
AcDbEllipse
10
110.081008
20
11.963183
30
0
11
-3.21560811832042E-16
21
-0.299999999999998
31
0
210
0
220
0
230
1
40
0.996195
41
-3.07177948351004
42
-2.84488668075075
0
ELLIPSE
5
160
100
AcDbEntity
8
1
62
256
6
ByLayer
370
-1
48
1
60
0
100
AcDbEllipse
10
110.705784
20
2.284417
30
0
11
1.16328437305553E-14
21
9.93026637113358
31
0
210
0
220
0
230
1
40
0.996195
41
0.0349065850398883
42
0.0440072139580705
0
ELLIPSE
5
161
100
AcDbEntity
8
1
62
256
6
ByLayer
370
-1
48
1
60
0
100
AcDbEllipse
10
118.476473
20
4.10438
30
0
11
-3.21560811832042E-16
21
-0.299999999999998
31
0
210
0
220
0
230
1
40
0.996195
41
1.34390352403562
42
1.5707963267949
0
ELLIPSE
5
162
100
AcDbEntity
8
1
62
256
6
ByLayer
370
-1
48
1
60
0
100
AcDbEllipse
10
113.79372
20
4.184406
30
0
11
-5.35934686386741E-15
21
-5
31
0
210
0
220
0
230
1
40
0.996195
41
1.58680228982978
42
1.5966022829166
0
ELLIPSE
5
163
100
AcDbEntity
8
1
62
256
6
ByLayer
370
-1
48
1
60
0
100
AcDbEllipse
10
119.864899
20
4.442775
30
0
11
1.16328437305553E-14
21
9.93026637113358
31
0
210
0
220
0
230
1
40
0.996195
41
1.60570291183479
42
1.61480354075297
0
ELLIPSE
5
164
100
AcDbEntity
8
1
62
256
6
ByLayer
370
-1
48
1
60
0
100
AcDbEllipse
10
110.414027
20
3.873553
30
0
11
-5.35934686386744E-16
21
-0.500000000000003
31
0
210
0
220
0
230
1
40
0.996195
41
-1.27409035395586
42
-0.226892802759289
0
ELLIPSE
5
165
100
AcDbEntity
8
1
62
256
6
ByLayer
370
-1
48
1
60
0
100
AcDbEllipse
10
118.052392
20
12.242613
30
0
11
-3.21560811832042E-16
21
-0.299999999999998
31
0
210
0
220
0
230
1
40
0.996195
41
2.91469985083052
42
3.14159265358979
0
ELLIPSE
5
166
100
AcDbEntity
8
1
62
256
6
ByLayer
370
-1
48
1
60
0
100
AcDbEllipse
10
118.100663
20
2.543638
30
0
11
1.16328437305554E-14
21
9.93026637113359
31
0
210
0
220
0
230
1
40
0.996195
41
0.0258059561217052
42
0.0349065850398883
0
ELLIPSE
5
167
100
AcDbEntity
8
1
62
256
6
ByLayer
370
-1
48
1
60
0
100
AcDbEllipse
10
110.413496
20
3.873553
30
0
11
5.04036978550844E-16
21
0.43026637113368
31
0
210
0
220
0
230
1
40
0.996195
41
1.86750229963396
42
2.91469985083057
0
ELLIPSE
5
168
100
AcDbEntity
8
1
62
256
6
ByLayer
370
-1
48
1
60
0
100
AcDbEllipse
10
110.755071
20
2.286812
30
0
11
-1.07186937277347E-14
21
-9.99999999999992
31
0
210
0
220
0
230
1
40
0.996195
41
-3.0877854465449
42
-3.07177948351001
0
ELLIPSE
5
169
100
AcDbEntity
8
1
62
256
6
ByLayer
370
-1
48
1
60
0
100
AcDbEllipse
10
114.414711
20
7.960646
30
0
11
-1.7149909964375E-15
21
-1.59999999999993
31
0
210
0
220
0
230
1
40
0.996195
41
-3.12568836512776
42
0
0
ELLIPSE
5
16A
100
AcDbEntity
8
1
62
256
6
ByLayer
370
-1
48
1
60
0
100
AcDbEllipse
10
114.414711
20
7.960646
30
0
11
-1.7149909964375E-15
21
-1.59999999999993
31
0
210
0
220
0
230
1
40
0.996195
41
0
42
0.0349504427429435
0
ELLIPSE
5
16B
100
AcDbEntity
8
1
62
256
6
ByLayer
370
-1
48
1
60
0
100
AcDbEllipse
10
119.606664
20
11.865902
30
0
11
1.16328437305554E-14
21
9.93026637113359
31
0
210
0
220
0
230
1
40
0.996195
41
1.5966022829166
42
1.60570291183479
0
ELLIPSE
5
16C
100
AcDbEntity
8
1
62
256
6
ByLayer
370
-1
48
1
60
0
100
AcDbEllipse
10
117.714753
20
13.636876
30
0
11
1.16328437305553E-14
21
9.93026637113358
31
0
210
0
220
0
230
1
40
0.996195
41
-3.10668606854991
42
-3.09758543963172
0
ELLIPSE
5
16D
100
AcDbEntity
8
1
62
256
6
ByLayer
370
-1
48
1
60
0
100
AcDbEllipse
10
110.487188
20
7.279576
30
0
11
-5.35934686386741E-15
21
-5
31
0
210
0
220
0
230
1
40
0.996195
41
-3.09758543963172
42
-3.0877854465449
0
ELLIPSE
5
16E
100
AcDbEntity
8
1
62
256
6
ByLayer
370
-1
48
1
60
0
100
AcDbEllipse
10
119.863044
20
4.491716
30
0
11
-1.07186937277347E-14
21
-9.99999999999992
31
0
210
0
220
0
230
1
40
0.996195
41
-1.51698911975
42
-1.50098315671512
0
ELLIPSE
5
16F
100
AcDbEntity
8
1
62
256
6
ByLayer
370
-1
48
1
60
0
100
AcDbEllipse
10
108.55617
20
11.478517
30
0
11
-1.07186937277348E-14
21
-9.99999999999999
31
0
210
0
220
0
230
1
40
0.996195
41
1.60570291183478
42
1.61480354075297
0
ELLIPSE
5
170
100
AcDbEntity
8
1
62
256
6
ByLayer
370
-1
48
1
60
0
100
AcDbEllipse
10
109.945127
20
11.816913
30
0
11
-3.21560811832042E-16
21
-0.299999999999998
31
0
210
0
220
0
230
1
40
0.996195
41
-1.79768912955412
42
-1.5707963267949
0
ELLIPSE
5
171
100
AcDbEntity
8
1
62
256
6
ByLayer
370
-1
48
1
60
0
100
AcDbEllipse
10
117.934413
20
8.641717
30
0
11
-5.35934686386741E-15
21
-5
31
0
210
0
220
0
230
1
40
0.996195
41
0.0440072139580725
42
0.053807207044893
0
ELLIPSE
5
172
100
AcDbEntity
8
1
62
256
6
ByLayer
370
-1
48
1
60
0
100
AcDbEllipse
10
119.607684
20
11.816913
30
0
11
1.16328437305554E-14
21
9.93026637113359
31
0
210
0
220
0
230
1
40
0.996195
41
1.57079632679489
42
1.58680228982978
0
ELLIPSE
5
173
100
AcDbEntity
8
1
62
256
6
ByLayer
370
-1
48
1
60
0
100
AcDbEllipse
10
114.247166
20
7.960646
30
0
11
-2.46191653535247E-15
21
-2.29684381127732
31
0
210
0
220
0
230
1
40
0.996195
41
0
42
6.28318530717959
0
ELLIPSE
5
174
100
AcDbEntity
8
1
62
256
6
ByLayer
370
-1
48
1
60
0
100
AcDbEllipse
10
117.972671
20
7.541973
30
0
11
-5.35934686386741E-15
21
-5
31
0
210
0
220
0
230
1
40
0.996195
41
-3.12558669055491
42
-3.11578669746809
0
ELLIPSE
5
175
100
AcDbEntity
8
1
62
256
6
ByLayer
370
-1
48
1
60
0
100
AcDbEllipse
10
110.223494
20
3.815079
30
0
11
-3.21560811832042E-16
21
-0.299999999999998
31
0
210
0
220
0
230
1
40
0.996195
41
-1.50098315671512
42
-1.27409035395593
0
ELLIPSE
5
176
100
AcDbEntity
8
1
62
256
6
ByLayer
370
-1
48
1
60
0
100
AcDbEllipse
10
114.222282
20
7.960646
30
0
11
-2.58509861521156E-15
21
-2.41176647162011
31
0
210
0
220
0
230
1
40
0.996195
41
2.21551017276079
42
-3.69675446301887E-16
0
ELLIPSE
5
177
100
AcDbEntity
8
1
62
256
6
ByLayer
370
-1
48
1
60
0
100
AcDbEllipse
10
114.222282
20
7.960646
30
0
11
-2.58509861521156E-15
21
-2.41176647162011
31
0
210
0
220
0
230
1
40
0.996195
41
0
42
0.926082778547564
0
ELLIPSE
5
178
100
AcDbEntity
8
1
62
256
6
ByLayer
370
-1
48
1
60
0
100
AcDbEllipse
10
110.448399
20
8.379319
30
0
11
5.77557701897398E-15
21
4.93026637113359
31
0
210
0
220
0
230
1
40
0.996195
41
-3.12558669055491
42
-3.11578669746808
0
ELLIPSE
5
179
100
AcDbEntity
8
1
62
256
6
ByLayer
370
-1
48
1
60
0
100
AcDbEllipse
10
108.555639
20
11.478517
30
0
11
1.16328437305553E-14
21
9.93026637113358
31
0
210
0
220
0
230
1
40
0.996195
41
-1.53588974175501
42
-1.52678911283683
0
ELLIPSE
5
17A
100
AcDbEntity
8
1
62
256
6
ByLayer
370
-1
48
1
60
0
100
AcDbEllipse
10
109.944596
20
11.816913
30
0
11
2.69746310087587E-16
21
0.230266371133678
31
0
210
0
220
0
230
1
40
0.996195
41
1.34390352403561
42
1.5707963267949
0
ELLIPSE
5
17B
100
AcDbEntity
8
1
62
256
6
ByLayer
370
-1
48
1
60
0
100
AcDbEllipse
10
119.862512
20
4.491716
30
0
11
1.16328437305554E-14
21
9.93026637113359
31
0
210
0
220
0
230
1
40
0.996195
41
1.62460353383979
42
1.64060949687468
0
ELLIPSE
5
17C
100
AcDbEntity
8
1
62
256
6
ByLayer
370
-1
48
1
60
0
100
AcDbEllipse
10
108.558025
20
11.429576
30
0
11
1.16328437305554E-14
21
9.93026637113359
31
0
210
0
220
0
230
1
40
0.996195
41
-1.51698911975
42
-1.50098315671512
0
ELLIPSE
5
17D
100
AcDbEntity
8
1
62
256
6
ByLayer
370
-1
48
1
60
0
100
AcDbEllipse
10
114.454837
20
7.960646
30
0
11
1.87432534770601E-15
21
1.59999999999997
31
0
210
0
220
0
230
1
40
0.996195
41
0
42
1.57079662781731
0
ELLIPSE
5
17E
100
AcDbEntity
8
1
62
256
6
ByLayer
370
-1
48
1
60
0
100
AcDbEllipse
10
114.454837
20
7.960646
30
0
11
1.87432534770601E-15
21
1.59999999999997
31
0
210
0
220
0
230
1
40
0.996195
41
1.57079604872767
42
-3.14159263054693
0
ELLIPSE
5
17F
100
AcDbEntity
8
1
62
256
6
ByLayer
370
-1
48
1
60
0
100
AcDbEllipse
10
117.933881
20
8.641717
30
0
11
5.77557701897398E-15
21
4.93026637113359
31
0
210
0
220
0
230
1
40
0.996195
41
-3.09758543963173
42
-3.0877854465449
0
ELLIPSE
5
180
100
AcDbEntity
8
1
62
256
6
ByLayer
370
-1
48
1
60
0
100
AcDbEllipse
10
110.319874
20
13.377655
30
0
11
1.16328437305554E-14
21
9.93026637113359
31
0
210
0
220
0
230
1
40
0.996195
41
-3.11578669746809
42
-3.10668606854991
0
ELLIPSE
5
181
100
AcDbEntity
8
1
62
256
6
ByLayer
370
-1
48
1
60
0
100
AcDbEllipse
10
110.368677
20
3.678679
30
0
11
2.69746310087587E-16
21
0.230266371133678
31
0
210
0
220
0
230
1
40
0.996195
41
2.91469985083055
42
3.14159265358979
0
ELLIPSE
5
182
100
AcDbEntity
8
1
62
256
6
ByLayer
370
-1
48
1
60
0
100
AcDbEllipse
10
110.369208
20
13.378679
30
0
11
-1.07186937277347E-14
21
-9.99999999999992
31
0
210
0
220
0
230
1
40
0.996195
41
0
42
0.0160059630348875
0
ELLIPSE
5
183
100
AcDbEntity
8
1
62
256
6
ByLayer
370
-1
48
1
60
0
100
AcDbEllipse
10
119.607196
20
11.865902
30
0
11
-1.07186937277348E-14
21
-10
31
0
210
0
220
0
230
1
40
0.996195
41
-1.54499037067319
42
-1.53588974175501
0
ELLIPSE
5
184
100
AcDbEntity
8
1
62
256
6
ByLayer
370
-1
48
1
60
0
100
AcDbEllipse
10
113.532322
20
11.698482
30
0
11
-5.35934686386741E-15
21
-5
31
0
210
0
220
0
230
1
40
0.996195
41
1.61480354075297
42
1.62460353383979
0
ELLIPSE
5
185
100
AcDbEntity
8
1
62
256
6
ByLayer
370
-1
48
1
60
0
100
AcDbEllipse
10
110.222963
20
3.815079
30
0
11
2.69746310087587E-16
21
0.230266371133678
31
0
210
0
220
0
230
1
40
0.996195
41
1.64060949687465
42
1.86750229963388
0
ELLIPSE
5
186
100
AcDbEntity
8
1
62
256
6
ByLayer
370
-1
48
1
60
0
100
AcDbEllipse
10
108.814405
20
4.055391
30
0
11
-1.07186937277348E-14
21
-10
31
0
210
0
220
0
230
1
40
0.996195
41
1.5966022829166
42
1.60570291183478
0
ELLIPSE
5
187
100
AcDbEntity
8
1
62
256
6
ByLayer
370
-1
48
1
60
0
100
AcDbEllipse
10
110.706316
20
2.284417
30
0
11
-1.07186937277348E-14
21
-9.99999999999999
31
0
210
0
220
0
230
1
40
0.996195
41
-3.10668606854991
42
-3.09758543963172
0
ELLIPSE
5
188
100
AcDbEntity
8
1
62
256
6
ByLayer
370
-1
48
1
60
0
100
AcDbEllipse
10
118.007042
20
12.047739
30
0
11
5.04036978550844E-16
21
0.43026637113368
31
0
210
0
220
0
230
1
40
0.996195
41
-1.27409035395583
42
-0.226892802759253
0
ELLIPSE
5
189
100
AcDbEntity
8
1
62
256
6
ByLayer
370
-1
48
1
60
0
100
AcDbEllipse
10
117.972139
20
7.541973
30
0
11
5.77557701897398E-15
21
4.93026637113359
31
0
210
0
220
0
230
1
40
0.996195
41
0.0160059630348889
42
0.0258059561217096
0
ELLIPSE
5
18A
100
AcDbEntity
8
1
62
256
6
ByLayer
370
-1
48
1
60
0
100
AcDbEllipse
10
113.53179
20
11.698482
30
0
11
5.77557701897398E-15
21
4.93026637113359
31
0
210
0
220
0
230
1
40
0.996195
41
-1.52678911283683
42
-1.51698911975
0
ELLIPSE
5
18B
100
AcDbEntity
8
1
62
256
6
ByLayer
370
-1
48
1
60
0
100
AcDbEllipse
10
108.813385
20
4.10438
30
0
11
-1.07186937277347E-14
21
-9.99999999999992
31
0
210
0
220
0
230
1
40
0.996195
41
1.57079632679489
42
1.58680228982978
0
ELLIPSE
5
18C
100
AcDbEntity
8
1
62
256
6
ByLayer
370
-1
48
1
60
0
100
AcDbEllipse
10
110.138728
20
11.771922
30
0
11
5.04036978550844E-16
21
0.43026637113368
31
0
210
0
220
0
230
1
40
0.996195
41
0.296705972839089
42
1.34390352403565
0
ELLIPSE
5
18D
100
AcDbEntity
8
1
62
256
6
ByLayer
370
-1
48
1
60
0
100
AcDbEllipse
10
110.486656
20
7.279576
30
0
11
5.77557701897398E-15
21
4.93026637113359
31
0
210
0
220
0
230
1
40
0.996195
41
0.0440072139580683
42
0.0538072070448912
0
ELLIPSE
5
18E
100
AcDbEntity
8
1
62
256
6
ByLayer
370
-1
48
1
60
0
100
AcDbEllipse
10
118.007573
20
12.047739
30
0
11
-5.35934686386744E-16
21
-0.500000000000003
31
0
210
0
220
0
230
1
40
0.996195
41
1.86750229963396
42
2.9146998508305
0
ELLIPSE
5
18F
100
AcDbEntity
8
1
62
256
6
ByLayer
370
-1
48
1
60
0
100
AcDbEllipse
10
114.62788
20
11.736886
30
0
11
-5.35934686386741E-15
21
-5
31
0
210
0
220
0
230
1
40
0.996195
41
-1.55479036376001
42
-1.54499037067319
0
ELLIPSE
5
190
100
AcDbEntity
8
1
62
256
6
ByLayer
370
-1
48
1
60
0
100
AcDbEllipse
10
114.889279
20
4.22281
30
0
11
-5.35934686386741E-15
21
-5
31
0
210
0
220
0
230
1
40
0.996195
41
-1.52678911283683
42
-1.51698911975001
0
ELLIPSE
5
191
100
AcDbEntity
8
1
62
256
6
ByLayer
370
-1
48
1
60
0
100
AcDbEllipse
10
114.627349
20
11.736886
30
0
11
5.77557701897398E-15
21
4.93026637113359
31
0
210
0
220
0
230
1
40
0.996195
41
1.58680228982978
42
1.5966022829166
0
ELLIPSE
5
192
100
AcDbEntity
8
1
62
256
6
ByLayer
370
-1
48
1
60
0
100
AcDbEllipse
10
110.754539
20
2.286812
30
0
11
1.16328437305554E-14
21
9.93026637113359
31
0
210
0
220
0
230
1
40
0.996195
41
0.0538072070448921
42
0.0698131700797822
0
ELLIPSE
5
193
100
AcDbEntity
8
1
62
256
6
ByLayer
370
-1
48
1
60
0
100
AcDbEllipse
10
110.320406
20
13.377655
30
0
11
-1.07186937277348E-14
21
-10
31
0
210
0
220
0
230
1
40
0.996195
41
0.025805956121705
42
0.0349065850398883
0
ELLIPSE
5
194
100
AcDbEntity
8
1
62
256
6
ByLayer
370
-1
48
1
60
0
100
AcDbEllipse
10
119.86543
20
4.442775
30
0
11
-1.07186937277348E-14
21
-9.99999999999999
31
0
210
0
220
0
230
1
40
0.996195
41
-1.53588974175501
42
-1.52678911283683
0
ELLIPSE
5
195
100
AcDbEntity
8
1
62
256
6
ByLayer
370
-1
48
1
60
0
100
AcDbEllipse
10
118.051861
20
2.542613
30
0
11
1.16328437305554E-14
21
9.93026637113359
31
0
210
0
220
0
230
1
40
0.996195
41
0
42
0.0160059630348853
0
ELLIPSE
5
196
100
AcDbEntity
8
1
62
256
6
ByLayer
370
-1
48
1
60
0
100
AcDbEllipse
10
110.080476
20
11.963183
30
0
11
2.69746310087587E-16
21
0.230266371133678
31
0
210
0
220
0
230
1
40
0.996195
41
0.069813170079711
42
0.296705972839021
0
ELLIPSE
5
197
100
AcDbEntity
8
1
62
256
6
ByLayer
370
-1
48
1
60
0
100
AcDbEllipse
10
118.051861
20
12.242613
30
0
11
2.69746310087587E-16
21
0.230266371133678
31
0
210
0
220
0
230
1
40
0.996195
41
-0.22689280275933
42
0
0
ELLIPSE
5
198
100
AcDbEntity
8
1
62
256
6
ByLayer
370
-1
48
1
60
0
100
AcDbEllipse
10
110.369208
20
3.678679
30
0
11
-3.21560811832042E-16
21
-0.299999999999998
31
0
210
0
220
0
230
1
40
0.996195
41
-0.226892802759267
42
0
0
ELLIPSE
5
199
100
AcDbEntity
8
1
62
256
6
ByLayer
370
-1
48
1
60
0
100
AcDbEllipse
10
118.282341
20
4.14937
30
0
11
-5.35934686386744E-16
21
-0.500000000000003
31
0
210
0
220
0
230
1
40
0.996195
41
0.296705972839007
42
1.34390352403562
0
ELLIPSE
5
19A
100
AcDbEntity
8
1
62
256
6
ByLayer
370
-1
48
1
60
0
100
AcDbEllipse
10
119.608216
20
11.816913
30
0
11
-1.07186937277347E-14
21
-9.99999999999992
31
0
210
0
220
0
230
1
40
0.996195
41
-1.5707963267949
42
-1.55479036376001
0
ELLIPSE
5
19B
100
AcDbEntity
8
1
62
256
6
ByLayer
370
-1
48
1
60
0
100
AcDbEllipse
10
118.281809
20
4.14937
30
0
11
5.04036978550844E-16
21
0.43026637113368
31
0
210
0
220
0
230
1
40
0.996195
41
-2.84488668075079
42
-1.79768912955418
0
ELLIPSE
5
19C
100
AcDbEntity
8
1
62
256
6
ByLayer
370
-1
48
1
60
0
100
AcDbEllipse
10
113.793189
20
4.184406
30
0
11
5.77557701897398E-15
21
4.93026637113359
31
0
210
0
220
0
230
1
40
0.996195
41
-1.55479036376001
42
-1.54499037067319
0
ELLIPSE
5
19D
100
AcDbEntity
8
1
62
256
6
ByLayer
370
-1
48
1
60
0
100
AcDbEllipse
10
114.888748
20
4.22281
30
0
11
5.77557701897398E-15
21
4.93026637113359
31
0
210
0
220
0
230
1
40
0.996195
41
1.61480354075297
42
1.62460353383979
0
ELLIPSE
5
19E
100
AcDbEntity
8
1
62
256
6
ByLayer
370
-1
48
1
60
0
100
AcDbEllipse
10
108.813874
20
4.055391
30
0
11
1.16328437305554E-14
21
9.93026637113359
31
0
210
0
220
0
230
1
40
0.996195
41
-1.54499037067319
42
-1.53588974175501
0
ELLIPSE
5
19F
100
AcDbEntity
8
1
62
256
6
ByLayer
370
-1
48
1
60
0
100
AcDbEllipse
10
108.558557
20
11.429576
30
0
11
-1.07186937277347E-14
21
-9.99999999999992
31
0
210
0
220
0
230
1
40
0.996195
41
1.62460353383979
42
1.64060949687468
0
ELLIPSE
5
1A0
100
AcDbEntity
8
1
62
256
6
ByLayer
370
-1
48
1
60
0
100
AcDbEllipse
10
118.198107
20
12.106214
30
0
11
-3.21560811832042E-16
21
-0.299999999999998
31
0
210
0
220
0
230
1
40
0.996195
41
1.64060949687468
42
1.86750229963386
0
POINT
5
41
100
AcDbEntity
8
81
62
256
6
ByLayer
370
-1
48
1
60
0
100
AcDbPoint
10
119
20
0
30
0
39
0
210
0
220
0
230
1
50
360
0
POINT
5
43
100
AcDbEntity
8
80
62
256
6
ByLayer
370
-1
48
1
60
0
100
AcDbPoint
10
0
20
0
30
0
39
0
210
0
220
0
230
1
50
360
0
SPLINE
5
1A1
100
AcDbEntity
8
1
62
256
6
ByLayer
370
-1
48
1
60
0
100
AcDbSpline
70
4
71
3
72
14
73
10
40
0
40
0
40
0
40
0
40
0.185607828640448
40
0.37134294407703
40
0.558086904948109
40
0.668553138686317
40
0.779143476793088
40
0.889600293452816
40
1
40
1
40
1
40
1
41
1
10
26.5
20
-14.5
30
0
41
1
10
27.3545833250754
20
-14.4918872742996
30
0
41
1
10
29.0549590115445
20
-14.3970361793913
30
0
41
1
10
31.5868483025886
20
-13.9818548872718
30
0
41
1
10
33.7453673337442
20
-13.4802648924605
30
0
41
1
10
35.5529740276095
20
-12.9946275308447
30
0
41
1
10
37.017150344497
20
-12.5894191099226
30
0
41
1
10
38.4775853159532
20
-12.1401711554576
30
0
41
1
10
39.4885442769168
20
-12.0576081184656
30
0
41
1
10
40
20
-12.0500000000001
30
0
0
SPLINE
5
1A2
100
AcDbEntity
8
1
62
256
6
ByLayer
370
-1
48
1
60
0
100
AcDbSpline
70
4
71
3
72
15
73
11
40
0
40
0
40
0
40
0
40
0.112394680484158
40
0.224858108670751
40
0.337450224866892
40
0.449903251689573
40
0.562052473808727
40
0.708328451178308
40
0.854098445718386
40
1
40
1
40
1
40
1
41
1
10
40
20
12.0499999999999
30
0
41
1
10
39.4792740583613
20
12.0586138608047
30
0
41
1
10
38.4500001008125
20
12.1441785499403
30
0
41
1
10
36.9642263120921
20
12.6056441852531
30
0
41
1
10
35.4729928164424
20
13.0165723180075
30
0
41
1
10
33.9778728028877
20
13.4166731834627
30
0
41
1
10
32.322664466924
20
13.812586842598
30
0
41
1
10
30.5024203753258
20
14.1712241964896
30
0
41
1
10
28.507575655249
20
14.4359684998917
30
0
41
1
10
27.1711080665365
20
14.4961444405317
30
0
41
1
10
26.5000000000001
20
14.5
30
0
0
SPLINE
5
1A3
100
AcDbEntity
8
1
62
256
6
ByLayer
370
-1
48
1
60
0
100
AcDbSpline
70
4
71
3
72
8
73
4
40
0
40
0
40
0
40
0
40
1
40
1
40
1
40
1
41
1
10
114.323996323435
20
-1.34094748275731
30
0
41
1
10
114.346820991073
20
-1.33877288595286
30
0
41
1
10
114.36974136867
20
-1.33707857296736
30
0
41
1
10
114.392779246901
20
-1.33585872162311
30
0
0
SPLINE
5
1A4
100
AcDbEntity
8
1
62
256
6
ByLayer
370
-1
48
1
60
0
100
AcDbSpline
70
4
71
3
72
11
73
7
40
0
40
0
40
0
40
0
40
0.106176828717514
40
0.445677782819344
40
0.786041083820756
40
1
40
1
40
1
40
1
41
1
10
114.392779246901
20
-1.33585872162311
30
0
41
1
10
114.431722214236
20
-1.33382999260161
30
0
41
1
10
114.594569219856
20
-1.33118925859051
30
0
41
1
10
114.882768488876
20
-1.37065151365022
30
0
41
1
10
115.189935900149
20
-1.48953976594459
30
0
41
1
10
115.36202545717
20
-1.59718229992023
30
0
41
1
10
115.425033221975
20
-1.64328622676618
30
0
0
SPLINE
5
1A5
100
AcDbEntity
8
1
62
256
6
ByLayer
370
-1
48
1
60
0
100
AcDbSpline
70
4
71
3
72
21
73
17
40
0
40
0
40
0
40
0
40
0.0597762690613245
40
0.135790322145464
40
0.211530993727904
40
0.286818424735327
40
0.361585740511622
40
0.435882531329695
40
0.509850872570404
40
0.583689381760917
40
0.657577651506241
40
0.731688480482414
40
0.806190846721164
40
0.881182870506957
40
0.956664962366434
40
1
40
1
40
1
40
1
41
1
10
114.389687098256
20
9.55306489736341
30
0
41
1
10
114.488411099134
20
9.55801180052586
30
0
41
1
10
114.708297409004
20
9.54717047319099
30
0
41
1
10
115.04269416824
20
9.44478378344567
30
0
41
1
10
115.367250976268
20
9.25695676260801
30
0
41
1
10
115.639515371442
20
8.99690381529919
30
0
41
1
10
115.844120798951
20
8.68076577433109
30
0
41
1
10
115.970278204803
20
8.32590494867173
30
0
41
1
10
116.011596621133
20
7.95196859590584
30
0
41
1
10
115.966366066422
20
7.5792192510728
30
0
41
1
10
115.837451135141
20
7.2276380174844
30
0
41
1
10
115.632058674807
20
6.91584538956772
30
0
41
1
10
115.361021636375
20
6.6602374734891
30
0
41
1
10
115.038859061372
20
6.47445513536536
30
0
41
1
10
114.732370776171
20
6.38384472091306
30
0
41
1
10
114.540545926639
20
6.36414062805329
30
0
41
1
10
114.469539550124
20
6.36160695765653
30
0
0
SPLINE
5
1A6
100
AcDbEntity
8
SK1
62
256
6
ByLayer
370
-1
48
1
60
0
100
AcDbSpline
70
4
71
2
72
6
73
3
40
0
40
0
40
0
40
1
40
1
40
1
41
1
10
-2.19492113517944
20
17.5202263833814
30
0
41
1
10
-2.59746056758971
20
17.5101131917171
30
0
41
1
10
-2.99999999999997
20
17.5000000000527
30
0
0
SPLINE
5
1A7
100
AcDbEntity
8
SK1
62
256
6
ByLayer
370
-1
48
1
60
0
100
AcDbSpline
70
4
71
2
72
6
73
3
40
0
40
0
40
0
40
1
40
1
40
1
41
1
10
-3.00000000000003
20
-17.5000000000204
30
0
41
1
10
-2.59746056758976
20
-17.5101131916847
30
0
41
1
10
-2.1949211351795
20
-17.5202263833491
30
0
0
SPLINE
5
1A8
100
AcDbEntity
8
SK1
62
256
6
ByLayer
370
-1
48
1
60
0
100
AcDbSpline
70
4
71
2
72
6
73
3
40
0
40
0
40
0
40
1
40
1
40
1
41
1
10
-2.99999999999997
20
17.5000000000527
30
0
41
1
10
-15.7502365839532
20
17.1796696772131
30
0
41
1
10
-28.5004731679065
20
16.8593393543736
30
0
0
SPLINE
5
1A9
100
AcDbEntity
8
SK1
62
256
6
ByLayer
370
-1
48
1
60
0
100
AcDbSpline
70
4
71
2
72
6
73
3
40
0
40
0
40
0
40
1
40
1
40
1
41
1
10
-28.5004731679065
20
-16.8593393543424
30
0
41
1
10
-15.7502365839533
20
-17.1796696771814
30
0
41
1
10
-3.00000000000003
20
-17.5000000000204
30
0
0
SPLINE
5
1AA
100
AcDbEntity
8
SK1
62
256
6
ByLayer
370
-1
48
1
60
0
100
AcDbSpline
70
4
71
2
72
6
73
3
40
0
40
0
40
0
40
1
40
1
40
1
41
1
10
-0.399999999999977
20
17.3251501409625
30
0
41
1
10
-1.19999999999999
20
17.3251501409625
30
0
41
1
10
-1.99999999999997
20
17.3251501409625
30
0
0
SPLINE
5
1AB
100
AcDbEntity
8
SK1
62
256
6
ByLayer
370
-1
48
1
60
0
100
AcDbSpline
70
4
71
2
72
6
73
3
40
0
40
0
40
0
40
1
40
1
40
1
41
1
10
-2.00000000000003
20
-17.3251501414068
30
0
41
1
10
-1.20000000000005
20
-17.3251501414067
30
0
41
1
10
-0.400000000000034
20
-17.3251501414068
30
0
0
SPLINE
5
1AC
100
AcDbEntity
8
SK1
62
256
6
ByLayer
370
-1
48
1
60
0
100
AcDbSpline
70
4
71
2
72
6
73
3
40
0
40
0
40
0
40
1
40
1
40
1
41
1
10
-28.5003904504266
20
16.8597456617509
30
0
41
1
10
-29.2501952787077
20
16.4010253845911
30
0
41
1
10
-30
20
15.9423013487223
30
0
0
SPLINE
5
1AD
100
AcDbEntity
8
SK1
62
256
6
ByLayer
370
-1
48
1
60
0
100
AcDbSpline
70
4
71
2
72
6
73
3
40
0
40
0
40
0
40
1
40
1
40
1
41
1
10
-30
20
-15.9408160639385
30
0
41
1
10
-29.250201613525
20
-16.3993636736325
30
0
41
1
10
-28.5004032853135
20
-16.8579102610942
30
0
0
SPLINE
5
1AE
100
AcDbEntity
8
SK1
62
256
6
ByLayer
370
-1
48
1
60
0
100
AcDbSpline
70
4
71
3
72
11
73
7
40
0
40
0
40
0
40
0
40
0.245755007744097
40
0.501794198211019
40
0.756953870258405
40
1
40
1
40
1
40
1
41
1
10
-0.199999999999989
20
17.5191731511753
30
0
41
1
10
-0.199994647676362
20
17.493844966999
30
0
41
1
10
-0.209350242264492
20
17.4456228534321
30
0
41
1
10
-0.254178184246626
20
17.3766360753193
30
0
41
1
10
-0.324420736760771
20
17.33275982811
30
0
41
1
10
-0.37399106702361
20
17.3239685556465
30
0
41
1
10
-0.399999999999977
20
17.3241476526065
30
0
0
SPLINE
5
1AF
100
AcDbEntity
8
SK1
62
256
6
ByLayer
370
-1
48
1
60
0
100
AcDbSpline
70
4
71
3
72
11
73
7
40
0
40
0
40
0
40
0
40
0.243046950855008
40
0.498204668192555
40
0.75424246970475
40
1
40
1
40
1
40
1
41
1
10
-0.400000000000034
20
-17.3241468641747
30
0
41
1
10
-0.373991174653838
20
-17.3239674893689
30
0
41
1
10
-0.32442120264767
20
-17.332758304075
30
0
41
1
10
-0.254178044541192
20
-17.3766339294131
30
0
41
1
10
-0.209350044376095
20
-17.4456203921356
30
0
41
1
10
-0.199994500672261
20
-17.4938412312526
30
0
41
1
10
-0.200000000000046
20
-17.5191688355708
30
0
0
SPLINE
5
1B0
100
AcDbEntity
8
1
62
256
6
ByLayer
370
-1
48
1
60
0
100
AcDbSpline
70
4
71
3
72
14
73
10
40
0
40
0
40
0
40
0
40
0.247908884078488
40
0.247908884078488
40
0.623954442039243
40
0.623954442039243
40
0.811977221019621
40
0.811977221019621
40
1
40
1
40
1
40
1
41
1
10
71.2248665082067
20
12.049965274353
30
0
41
1
10
72.5061108045954
20
12.0499159873453
30
0
41
1
10
73.7863644904092
20
12.0165041351922
30
0
41
1
10
77.0103043871158
20
11.8492766873322
30
0
41
1
10
78.9549209038468
20
11.6727487083533
30
0
41
1
10
81.8807452494431
20
11.2974202010751
30
0
41
1
10
82.8574483909898
20
11.1538270064488
30
0
41
1
10
84.8151061572558
20
10.8304767328341
30
0
41
1
10
85.796928394834
20
10.6505164989041
30
0
41
1
10
86.7770793649054
20
10.454018851083
30
0
0
SPLINE
5
1B1
100
AcDbEntity
8
1
62
256
6
ByLayer
370
-1
48
1
60
0
100
AcDbSpline
70
4
71
3
72
10
73
6
40
0
40
0
40
0
40
0
40
0.5
40
0.5
40
1
40
1
40
1
40
1
41
1
10
93.5025320302677
20
8.11694906273314
30
0
41
1
10
93.8528217306393
20
8.13694347869495
30
0
41
1
10
94.2026793663187
20
8.14636810717798
30
0
41
1
10
94.9020066992878
20
8.1439253873227
30
0
41
1
10
95.2514760758785
20
8.1324759620671
30
0
41
1
10
95.6008728086568
20
8.10646126903225
30
0
0
SPLINE
5
1B2
100
AcDbEntity
8
1
62
256
6
ByLayer
370
-1
48
1
60
0
100
AcDbSpline
70
4
71
3
72
8
73
4
40
0
40
0
40
0
40
0
40
1
40
1
40
1
40
1
41
1
10
88.2439025555801
20
9.93163667457583
30
0
41
1
10
88.2974909720012
20
9.90111653194657
30
0
41
1
10
88.3511538647043
20
9.87060647294436
30
0
41
1
10
88.404890817003
20
9.84010644115244
30
0
0
SPLINE
5
1B3
100
AcDbEntity
8
1
62
256
6
ByLayer
370
-1
48
1
60
0
100
AcDbSpline
70
4
71
3
72
12
73
8
40
0
40
0
40
0
40
0
40
0.5
40
0.5
40
0.75
40
0.75
40
1
40
1
40
1
40
1
41
1
10
36.6693743695628
20
-4.01541174905353
30
0
41
1
10
36.9626431072988
20
-4.31406967247378
30
0
41
1
10
37.2877807595077
20
-4.58989153185789
30
0
41
1
10
37.8183369884968
20
-4.98091845855134
30
0
41
1
10
38.002393358832
20
-5.10737119580992
30
0
41
1
10
38.384984199036
20
-5.35314892534251
30
0
41
1
10
38.5836862002094
20
-5.47251072260568
30
0
41
1
10
38.7870832636785
20
-5.58662921052758
30
0
0
SPLINE
5
1B4
100
AcDbEntity
8
1
62
256
6
ByLayer
370
-1
48
1
60
0
100
AcDbSpline
70
4
71
3
72
8
73
4
40
0
40
0
40
0
40
0
40
1
40
1
40
1
40
1
41
1
10
32.6146868415434
20
6.99709262909079
30
0
41
1
10
35.6301608729525
20
5.64692803540305
30
0
41
1
10
38.6243090716061
20
4.2892591200056
30
0
41
1
10
41.6146868415405
20
2.94385342787612
30
0
0
SPLINE
5
1B5
100
AcDbEntity
8
1
62
256
6
ByLayer
370
-1
48
1
60
0
100
AcDbSpline
70
4
71
3
72
16
73
12
40
0
40
0
40
0
40
0
40
0.124999999999996
40
0.124999999999996
40
0.249999999999993
40
0.249999999999993
40
0.499999999999995
40
0.499999999999995
40
0.749999999999997
40
0.749999999999997
40
1
40
1
40
1
40
1
41
1
10
8.53867513459483
20
23.8391299750503
30
0
41
1
10
8.50692224136543
20
23.8391299750503
30
0
41
1
10
8.47600932946901
20
23.8371392949586
30
0
41
1
10
8.41759599948895
20
23.8299833264009
30
0
41
1
10
8.39103491659969
20
23.824989671385
30
0
41
1
10
8.31704385770792
20
23.8070141183761
30
0
41
1
10
8.27807345100132
20
23.7919105160783
30
0
41
1
10
8.2117396173519
20
23.7591079584198
30
0
41
1
10
8.18512193927677
20
23.7416171457992
30
0
41
1
10
8.13975567725328
20
23.7051129235882
30
0
41
1
10
8.1211137629262
20
23.6860331168061
30
0
41
1
10
8.10566243270245
20
23.6665017920809
30
0
0
SPLINE
5
1B6
100
AcDbEntity
8
1
62
256
6
ByLayer
370
-1
48
1
60
0
100
AcDbSpline
70
4
71
3
72
14
73
10
40
0
40
0
40
0
40
0
40
0.25
40
0.25
40
0.5
40
0.5
40
0.75
40
0.75
40
1
40
1
40
1
40
1
41
1
10
109.459647948812
20
12.0478152937731
30
0
41
1
10
109.463844618032
20
12.04690752037
30
0
41
1
10
109.473587726499
20
12.0457450989403
30
0
41
1
10
109.503757884418
20
12.0430069378047
30
0
41
1
10
109.524485403764
20
12.0414160914552
30
0
41
1
10
109.574778390986
20
12.0381246886437
30
0
41
1
10
109.604775032433
20
12.0363927820379
30
0
41
1
10
109.673020710138
20
12.0330443807205
30
0
41
1
10
109.710635146529
20
12.0314557651681
30
0
41
1
10
109.751789385089
20
12.0300510003231
30
0
0
SPLINE
5
1B7
100
AcDbEntity
8
1
62
256
6
ByLayer
370
-1
48
1
60
0
100
AcDbSpline
70
4
71
3
72
16
73
12
40
0
40
0
40
0
40
0
40
0.249999999999999
40
0.249999999999999
40
0.499999999999999
40
0.499999999999999
40
0.749999999999998
40
0.749999999999998
40
0.874999999999999
40
0.874999999999999
40
1
40
1
40
1
40
1
41
1
10
11.8943375672974
20
23.6665017920809
30
0
41
1
10
11.878892303015
20
23.6860254491252
30
0
41
1
10
11.8604037172646
20
23.7049589195931
30
0
41
1
10
11.8151421892069
20
23.7414301198899
30
0
41
1
10
11.7882878950994
20
23.7590955179201
30
0
41
1
10
11.7218733396747
20
23.7919356634173
30
0
41
1
10
11.6822221825146
20
23.8071882416308
30
0
41
1
10
11.6094109295818
20
23.8248834464053
30
0
41
1
10
11.5822992776727
20
23.8299908115613
30
0
41
1
10
11.5243601613892
20
23.8370993498304
30
0
41
1
10
11.4930267682389
20
23.8391299750505
30
0
41
1
10
11.4613248654053
20
23.8391299750505
30
0
0
SPLINE
5
1B8
100
AcDbEntity
8
1
62
256
6
ByLayer
370
-1
48
1
60
0
100
AcDbSpline
70
4
71
3
72
8
73
4
40
0
40
0
40
0
40
0
40
1
40
1
40
1
40
1
41
1
10
28.1693743695626
20
2.56175665413997
30
0
41
1
10
27.8977660545175
20
2.96567724704613
30
0
41
1
10
27.6666771355904
20
3.38798551276588
30
0
41
1
10
27.4674631538031
20
3.8232623512009
30
0
0
SPLINE
5
1B9
100
AcDbEntity
8
1
62
256
6
ByLayer
370
-1
48
1
60
0
100
AcDbSpline
70
4
71
3
72
14
73
10
40
0
40
0
40
0
40
0
40
0.13203047973541
40
0.13203047973541
40
0.42135365315694
40
0.42135365315694
40
0.71067682657847
40
0.71067682657847
40
1
40
1
40
1
40
1
41
1
10
117.527382853277
20
3.61852535118885
30
0
41
1
10
117.526519344588
20
3.60282485706637
30
0
41
1
10
117.525519667082
20
3.58795114191995
30
0
41
1
10
117.522023513407
20
3.54308265693587
30
0
41
1
10
117.519104036834
20
3.5161510144523
30
0
41
1
10
117.512853913174
20
3.47309549502447
30
0
41
1
10
117.509459639738
20
3.45642531740873
30
0
41
1
10
117.502457009474
20
3.43400178118665
30
0
41
1
10
117.498909054445
20
3.42834328771406
30
0
41
1
10
117.495369442385
20
3.42830875628383
30
0
0
SPLINE
5
1BA
100
AcDbEntity
8
1
62
256
6
ByLayer
370
-1
48
1
60
0
100
AcDbSpline
70
4
71
3
72
24
73
20
40
0
40
0
40
0
40
0
40
0.125000000000004
40
0.125000000000004
40
0.187500000000004
40
0.187500000000004
40
0.250000000000003
40
0.250000000000003
40
0.375000000000003
40
0.375000000000003
40
0.500000000000002
40
0.500000000000002
40
0.625000000000002
40
0.625000000000002
40
0.750000000000001
40
0.750000000000001
40
0.875000000000001
40
0.875000000000001
40
1
40
1
40
1
40
1
41
1
10
109.750207390746
20
3.35523764250311
30
0
41
1
10
109.7552754881
20
3.35523764250311
30
0
41
1
10
109.75227762949
20
3.36121142049242
30
0
41
1
10
109.738189473373
20
3.37808524943748
30
0
41
1
10
109.731836753906
20
3.38510433998343
30
0
41
1
10
109.716796051413
20
3.40130274956263
30
0
41
1
10
109.708093938087
20
3.41050500280716
30
0
41
1
10
109.679237057983
20
3.44121372608757
30
0
41
1
10
109.656196764901
20
3.46600842069074
30
0
41
1
10
109.607427199114
20
3.52172267431342
30
0
41
1
10
109.581518145389
20
3.55279670812459
30
0
41
1
10
109.528314841435
20
3.62170318637473
30
0
41
1
10
109.500867027213
20
3.65979549653687
30
0
41
1
10
109.447461100572
20
3.74084703404591
30
0
41
1
10
109.421276113379
20
3.7840543146215
30
0
41
1
10
109.370650031051
20
3.87658034590086
30
0
41
1
10
109.346087618055
20
3.92627714252703
30
0
41
1
10
109.301254976278
20
4.02842915746527
30
0
41
1
10
109.280720206898
20
4.08129949049791
30
0
41
1
10
109.262207788646
20
4.13617472408333
30
0
0
SPLINE
5
1BB
100
AcDbEntity
8
1
62
256
6
ByLayer
370
-1
48
1
60
0
100
AcDbSpline
70
4
71
4
72
10
73
5
40
0
40
0
40
0
40
0
40
0
40
1
40
1
40
1
40
1
40
1
41
1
10
99.2549818824457
20
8.02999999999983
30
0
41
1
10
99.2549818824571
20
8.96681621322091
30
0
41
1
10
99.2549818824657
20
9.90363242644199
30
0
41
1
10
99.2549818824722
20
10.840448639663
30
0
41
1
10
99.254981882477
20
11.7772648528841
30
0
0
SPLINE
5
1BC
100
AcDbEntity
8
1
62
256
6
ByLayer
370
-1
48
1
60
0
100
AcDbSpline
70
4
71
3
72
14
73
10
40
0
40
0
40
0
40
0
40
0.499999999999998
40
0.499999999999998
40
0.624999999999998
40
0.624999999999998
40
0.749999999999999
40
0.749999999999999
40
1
40
1
40
1
40
1
41
1
10
36.6693743695628
20
-5.59086979763131
30
0
41
1
10
36.9506689373122
20
-5.86167596029895
30
0
41
1
10
37.2683377387839
20
-6.07343147119255
30
0
41
1
10
37.7144136700238
20
-6.27030868769975
30
0
41
1
10
37.8062522849491
20
-6.30559964346574
30
0
41
1
10
37.994126644735
20
-6.37337378903445
30
0
41
1
10
38.0900058632328
20
-6.40575813613779
30
0
41
1
10
38.3814076626223
20
-6.49845883412007
30
0
41
1
10
38.5814273496773
20
-6.55462574099997
30
0
41
1
10
38.7870832636785
20
-6.60681890509991
30
0
0
SPLINE
5
1BD
100
AcDbEntity
8
1
62
256
6
ByLayer
370
-1
48
1
60
0
100
AcDbSpline
70
4
71
3
72
8
73
4
40
0
40
0
40
0
40
0
40
1
40
1
40
1
40
1
41
1
10
107.575379875551
20
3.29142398006621
30
0
41
1
10
107.710494787321
20
3.27505130923964
30
0
41
1
10
107.844686472663
20
3.26255504083449
30
0
41
1
10
107.977800311063
20
3.25370483913508
30
0
0
SPLINE
5
1BE
100
AcDbEntity
8
1
62
256
6
ByLayer
370
-1
48
1
60
0
100
AcDbSpline
70
4
71
3
72
16
73
12
40
0
40
0
40
0
40
0
40
0.124999999999996
40
0.124999999999996
40
0.249999999999993
40
0.249999999999993
40
0.499999999999993
40
0.499999999999993
40
0.749999999999997
40
0.749999999999997
40
1
40
1
40
1
40
1
41
1
10
8.5386751345948
20
-7.52966679426498
30
0
41
1
10
8.50692224136537
20
-7.52966679426498
30
0
41
1
10
8.47600932946898
20
-7.5359757629964
30
0
41
1
10
8.41759599948892
20
-7.558573617501
30
0
41
1
10
8.39103491659969
20
-7.57431556968103
30
0
41
1
10
8.31704385770789
20
-7.63070347545334
30
0
41
1
10
8.27807345100129
20
-7.67774765104227
30
0
41
1
10
8.21173961735187
20
-7.7786633825045
30
0
41
1
10
8.18512193927674
20
-7.8319194748604
30
0
41
1
10
8.13975567725325
20
-7.94172327888182
30
0
41
1
10
8.12111376292617
20
-7.99846916820701
30
0
41
1
10
8.10566243270242
20
-8.05584836782768
30
0
0
SPLINE
5
1BF
100
AcDbEntity
8
1
62
256
6
ByLayer
370
-1
48
1
60
0
100
AcDbSpline
70
4
71
3
72
8
73
4
40
0
40
0
40
0
40
0
40
1
40
1
40
1
40
1
41
1
10
107.211694320014
20
3.312293412868
30
0
41
1
10
107.332799849
20
3.30150199676217
30
0
41
1
10
107.454345348185
20
3.2945295716888
30
0
41
1
10
107.575379875551
20
3.29142398006621
30
0
0
SPLINE
5
1C0
100
AcDbEntity
8
1
62
256
6
ByLayer
370
-1
48
1
60
0
100
AcDbSpline
70
4
71
3
72
12
73
8
40
0
40
0
40
0
40
0
40
0.5
40
0.5
40
0.75
40
0.75
40
1
40
1
40
1
40
1
41
1
10
96.3438257013195
20
8.02343589981797
30
0
41
1
10
96.4742794412726
20
8.00281109125774
30
0
41
1
10
96.6038533233
20
7.97850631530233
30
0
41
1
10
96.7957529525409
20
7.93194691379142
30
0
41
1
10
96.8593039739968
20
7.91472217566635
30
0
41
1
10
96.9850619252445
20
7.8748339660886
30
0
41
1
10
97.0473119317233
20
7.85233787700128
30
0
41
1
10
97.1082159703073
20
7.82448069347242
30
0
0
SPLINE
5
1C1
100
AcDbEntity
8
1
62
256
6
ByLayer
370
-1
48
1
60
0
100
AcDbSpline
70
4
71
3
72
36
73
32
40
0
40
0
40
0
40
0
40
0.0369734965229272
40
0.0904749689383197
40
0.143976441353713
40
0.197477913769107
40
0.250979386184499
40
0.304480858599892
40
0.331231594807588
40
0.357982331015285
40
0.371357699119132
40
0.384733067222982
40
0.398108435326828
40
0.411483803430678
40
0.418171487482601
40
0.438234539638374
40
0.451609907742222
40
0.464985275846071
40
0.491736012053767
40
0.505111380157615
40
0.518486748261463
40
0.54523748446916
40
0.558612852573008
40
0.571988220676857
40
0.625489693092249
40
0.678991165507643
40
0.732492637923035
40
0.785994110338428
40
0.839495582753821
40
0.892997055169214
40
1
40
1
40
1
40
1
41
1
10
60.1879406975574
20
0.364402586267658
30
0
41
1
10
59.9590043410991
20
0.3992643649743
30
0
41
1
10
59.3988183410654
20
0.484489174930587
30
0
41
1
10
58.5074925817288
20
0.61967492487895
30
0
41
1
10
57.5140646808765
20
0.76939952448592
30
0
41
1
10
56.5206888592273
20
0.918170644140616
30
0
41
1
10
55.5269613968653
20
1.0662436440042
30
0
41
1
10
54.6985685484576
20
1.18927471425718
30
0
41
1
10
54.0362681916494
20
1.28714853748164
30
0
41
1
10
53.6227250964499
20
1.34780766402065
30
0
41
1
10
53.2920581967328
20
1.39593799110949
30
0
41
1
10
53.0439653845855
20
1.43188029336801
30
0
41
1
10
52.7955360654247
20
1.46775013127407
30
0
41
1
10
52.5880982207391
20
1.49768058786665
30
0
41
1
10
52.3389406911002
20
1.5336494578834
30
0
41
1
10
52.0900341710409
20
1.56956312961478
30
0
41
1
10
51.7999936266045
20
1.61130354213509
30
0
41
1
10
51.4688854883898
20
1.65876126499654
30
0
41
1
10
51.138027258467
20
1.70589251926634
30
0
41
1
10
50.8072758495469
20
1.75267997350795
30
0
41
1
10
50.4766365414288
20
1.79917150725865
30
0
41
1
10
50.145820529959
20
1.8453398404838
30
0
41
1
10
49.8146339286115
20
1.89129533415365
30
0
41
1
10
49.3173967881738
20
1.95996729073667
30
0
41
1
10
48.5713439172208
20
2.06214757899701
30
0
41
1
10
47.5769155146676
20
2.19632623527067
30
0
41
1
10
46.5828119766803
20
2.32811374889107
30
0
41
1
10
45.5891824915247
20
2.4571915476827
30
0
41
1
10
44.5957922977033
20
2.58337317635622
30
0
41
1
10
43.271220671346
20
2.74750084377982
30
0
41
1
10
42.2774723842292
20
2.86642750470315
30
0
41
1
10
41.6146868415435
20
2.94385342787544
30
0
0
SPLINE
5
1C2
100
AcDbEntity
8
1
62
256
6
ByLayer
370
-1
48
1
60
0
100
AcDbSpline
70
4
71
3
72
8
73
4
40
0
40
0
40
0
40
0
40
1
40
1
40
1
40
1
41
1
10
36.5776006277343
20
-3.94581211579251
30
0
41
1
10
36.608207617037
20
-3.9690054936307
30
0
41
1
10
36.6387988822168
20
-3.99220544550539
30
0
41
1
10
36.6693743695628
20
-4.01541174905347
30
0
0
SPLINE
5
1C3
100
AcDbEntity
8
1
62
256
6
ByLayer
370
-1
48
1
60
0
100
AcDbSpline
70
4
71
3
72
26
73
22
40
0
40
0
40
0
40
0
40
0.0625000000000025
40
0.0625000000000025
40
0.125000000000005
40
0.125000000000005
40
0.187500000000008
40
0.187500000000008
40
0.25000000000001
40
0.25000000000001
40
0.312500000000013
40
0.312500000000013
40
0.375000000000015
40
0.375000000000015
40
0.500000000000012
40
0.500000000000012
40
0.625000000000009
40
0.625000000000009
40
0.750000000000006
40
0.750000000000006
40
1
40
1
40
1
40
1
41
1
10
105.017858760186
20
4.84358923856024
30
0
41
1
10
104.983238836929
20
4.83154053827437
30
0
41
1
10
104.949619482828
20
4.81755674479456
30
0
41
1
10
104.885238661124
20
4.78406161177656
30
0
41
1
10
104.854100938333
20
4.76432534493122
30
0
41
1
10
104.79802335627
20
4.71716726242596
30
0
41
1
10
104.773489945699
20
4.68979129101277
30
0
41
1
10
104.737110485066
20
4.62972389351015
30
0
41
1
10
104.725328700254
20
4.59693783101625
30
0
41
1
10
104.715048625122
20
4.53157439379942
30
0
41
1
10
104.716296265007
20
4.49871945765716
30
0
41
1
10
104.727312723603
20
4.43653409583101
30
0
41
1
10
104.737034002906
20
4.40659703387126
30
0
41
1
10
104.774318949077
20
4.32048586593157
30
0
41
1
10
104.808848072436
20
4.26925774793622
30
0
41
1
10
104.887641902583
20
4.17305533478151
30
0
41
1
10
104.931896322516
20
4.12869441839726
30
0
41
1
10
105.024793516304
20
4.04619607684646
30
0
41
1
10
105.073797263502
20
4.00777385254767
30
0
41
1
10
105.226338504563
20
3.89853465861699
30
0
41
1
10
105.335325373337
20
3.83365302673951
30
0
41
1
10
105.449254408855
20
3.77391573303046
30
0
0
SPLINE
5
1C4
100
AcDbEntity
8
1
62
256
6
ByLayer
370
-1
48
1
60
0
100
AcDbSpline
70
4
71
3
72
46
73
42
40
0
40
0
40
0
40
0
40
0.0625000000000002
40
0.0625000000000002
40
0.125
40
0.125
40
0.156250000000001
40
0.156250000000001
40
0.187500000000001
40
0.187500000000001
40
0.218750000000001
40
0.218750000000001
40
0.250000000000001
40
0.250000000000001
40
0.312500000000001
40
0.312500000000001
40
0.343750000000001
40
0.343750000000001
40
0.375
40
0.375
40
0.499999999999999
40
0.499999999999999
40
0.531249999999999
40
0.531249999999999
40
0.562499999999999
40
0.562499999999999
40
0.624999999999999
40
0.624999999999999
40
0.6875
40
0.6875
40
0.75
40
0.75
40
0.8125
40
0.8125
40
0.875
40
0.875
40
0.90625
40
0.90625
40
0.9375
40
0.9375
40
1
40
1
40
1
40
1
41
1
10
41.6146868415414
20
7.3209720607509
30
0
41
1
10
42.9288731921628
20
6.8989684844052
30
0
41
1
10
44.2388433107407
20
6.45761246373391
30
0
41
1
10
46.852745993182
20
5.54188603012773
30
0
41
1
10
48.1567639788228
20
5.06769023668633
30
0
41
1
10
50.1110670402806
20
4.33827224355727
30
0
41
1
10
50.761999685151
20
4.09160763169902
30
0
41
1
10
52.0634093355248
20
3.5925120291682
30
0
41
1
10
52.7142506019772
20
3.34096656851105
30
0
41
1
10
54.0155707966738
20
2.8323480756579
30
0
41
1
10
54.6660938988523
20
2.57537011685437
30
0
41
1
10
55.9679985851887
20
2.05887463900135
30
0
41
1
10
56.6193185177447
20
1.79921073107505
30
0
41
1
10
58.5745737444437
20
1.01646309314023
30
0
41
1
10
59.8796771097808
20
0.489284203135384
30
0
41
1
10
61.8422063908017
20
-0.303283109599221
30
0
41
1
10
62.4972004116902
20
-0.567755987194033
30
0
41
1
10
63.8091713595557
20
-1.09638652515727
30
0
41
1
10
64.4666498804573
20
-1.36075345403751
30
0
41
1
10
67.750037831935
20
-2.67534044126694
30
0
41
1
10
70.3689357018075
20
-3.70524319726692
30
0
41
1
10
73.6488525809409
20
-4.92694054634029
30
0
41
1
10
74.3050895843054
20
-5.16814238363736
30
0
41
1
10
75.6185836817021
20
-5.64307072466116
30
0
41
1
10
76.2756544487073
20
-5.87669389474055
30
0
41
1
10
78.244632813707
20
-6.56317974762584
30
0
41
1
10
79.555802027251
20
-7.00205272441622
30
0
41
1
10
82.1781313834561
20
-7.83646449010496
30
0
41
1
10
83.4891984728548
20
-8.23217053071508
30
0
41
1
10
86.1145322521411
20
-8.97417138502138
30
0
41
1
10
87.4301973811473
20
-9.32062320252467
30
0
41
1
10
90.0525810293277
20
-9.95536778149989
30
0
41
1
10
91.3610251853568
20
-10.2440651581432
30
0
41
1
10
93.9744088104366
20
-10.7616414968972
30
0
41
1
10
95.2798576192403
20
-10.9898479781092
30
0
41
1
10
97.238259696747
20
-11.2841013794815
30
0
41
1
10
97.8908361874989
20
-11.3743896116273
30
0
41
1
10
99.1971900268117
20
-11.53795828485
30
0
41
1
10
99.8505211536203
20
-11.6116233920758
30
0
41
1
10
101.811383972063
20
-11.8077085380818
30
0
41
1
10
103.120444201957
20
-11.904725395649
30
0
41
1
10
104.433351267931
20
-11.9669082220256
30
0
0
SPLINE
5
1C5
100
AcDbEntity
8
1
62
256
6
ByLayer
370
-1
48
1
60
0
100
AcDbSpline
70
4
71
3
72
8
73
4
40
0
40
0
40
0
40
0
40
1
40
1
40
1
40
1
41
1
10
88.4048908176143
20
9.84010644186571
30
0
41
1
10
88.7065830355366
20
9.66887270409632
30
0
41
1
10
89.0110560545666
20
9.4990471638113
30
0
41
1
10
89.3179146090914
20
9.33042965952487
30
0
0
SPLINE
5
1C6
100
AcDbEntity
8
1
62
256
6
ByLayer
370
-1
48
1
60
0
100
AcDbSpline
70
4
71
4
72
13
73
8
40
0
40
0
40
0
40
0
40
0
40
0.803509723549382
40
0.803509723549382
40
0.803509723549382
40
1
40
1
40
1
40
1
40
1
41
1
10
41.6146868415435
20
2.94385342787544
30
0
41
1
10
41.6146868415434
20
1.80966678837476
30
0
41
0.942809041582063
10
41.3999585158755
20
-0.467274229834772
30
0
41
1
10
40.8294566513381
20
-3.08082739402542
30
0
41
1
10
40.2949806658592
20
-4.99805801164538
30
0
41
0.996579991160135
10
40.1842087126503
20
-5.36332819831776
30
0
41
0.992248960476008
10
40.0721130199693
20
-5.69392066509015
30
0
41
0.988288799529368
10
39.9626848242484
20
-5.97492870644349
30
0
0
SPLINE
5
1C7
100
AcDbEntity
8
1
62
256
6
ByLayer
370
-1
48
1
60
0
100
AcDbSpline
70
4
71
3
72
18
73
14
40
0
40
0
40
0
40
0
40
0.250000000000001
40
0.250000000000001
40
0.375000000000002
40
0.375000000000002
40
0.500000000000001
40
0.500000000000001
40
0.625000000000001
40
0.625000000000001
40
0.750000000000001
40
0.750000000000001
40
1
40
1
40
1
40
1
41
1
10
28.1693743695626
20
1.88701394821098
30
0
41
1
10
28.7894041476709
20
1.10611630950598
30
0
41
1
10
29.4359690827301
20
0.362404815614923
30
0
41
1
10
30.4451668610941
20
-0.700871399846818
30
0
41
1
10
30.7881889272181
20
-1.04650119083942
30
0
41
1
10
31.4879417118707
20
-1.72007901191887
30
0
41
1
10
31.845589830053
20
-2.04874065180059
30
0
41
1
10
32.565639072684
20
-2.6799698177515
30
0
41
1
10
32.9290206523262
20
-2.98355222952486
30
0
41
1
10
33.6629699762644
20
-3.56782040731969
30
0
41
1
10
34.0342099237309
20
-3.8489722118664
30
0
41
1
10
35.153785088566
20
-4.6556772118104
30
0
41
1
10
35.9072683663441
20
-5.14422875047617
30
0
41
1
10
36.6693743695628
20
-5.59086979763129
30
0
0
SPLINE
5
1C8
100
AcDbEntity
8
1
62
256
6
ByLayer
370
-1
48
1
60
0
100
AcDbSpline
70
4
71
3
72
16
73
12
40
0
40
0
40
0
40
0
40
0.249999999999994
40
0.249999999999994
40
0.499999999999988
40
0.499999999999988
40
0.624999999999991
40
0.624999999999991
40
0.749999999999994
40
0.749999999999994
40
1
40
1
40
1
40
1
41
1
10
107.49987048528
20
1.6095265040187
30
0
41
1
10
107.287138409174
20
1.56325214807154
30
0
41
1
10
107.066965185727
20
1.53111001439845
30
0
41
1
10
106.617087295213
20
1.49660988143501
30
0
41
1
10
106.387307519382
20
1.49423731959493
30
0
41
1
10
106.037436583047
20
1.51477615313661
30
0
41
1
10
105.919586597318
20
1.52569501355668
30
0
41
1
10
105.68409061511
20
1.55576432025555
30
0
41
1
10
105.566724349669
20
1.57485122332162
30
0
41
1
10
105.216051528626
20
1.64431909341832
30
0
41
1
10
104.984173897076
20
1.70685577361027
30
0
41
1
10
104.754838631908
20
1.78632031599997
30
0
0
SPLINE
5
1C9
100
AcDbEntity
8
1
62
256
6
ByLayer
370
-1
48
1
60
0
100
AcDbSpline
70
4
71
3
72
8
73
4
40
0
40
0
40
0
40
0
40
1
40
1
40
1
40
1
41
1
10
99.2549818824457
20
11.7772648528822
30
0
41
1
10
99.5361336137405
20
11.7945778540303
30
0
41
1
10
99.8068719096158
20
11.8156501299602
30
0
41
1
10
100.067800149289
20
11.8386630658062
30
0
0
SPLINE
5
1CA
100
AcDbEntity
8
1
62
256
6
ByLayer
370
-1
48
1
60
0
100
AcDbSpline
70
4
71
3
72
86
73
82
40
-0.0312499999999971
40
-0.0312499999999971
40
0
40
0
40
0.0312499999999959
40
0.0312499999999959
40
0.0468749999999939
40
0.0468749999999939
40
0.0624999999999919
40
0.0624999999999919
40
0.0937499999999893
40
0.0937499999999893
40
0.124999999999987
40
0.124999999999987
40
0.156249999999984
40
0.156249999999984
40
0.171874999999984
40
0.171874999999984
40
0.187499999999985
40
0.203124999999985
40
0.203124999999985
40
0.218749999999985
40
0.218749999999985
40
0.249999999999986
40
0.249999999999986
40
0.281249999999986
40
0.281249999999986
40
0.312499999999987
40
0.312499999999987
40
0.328124999999987
40
0.328124999999987
40
0.343749999999988
40
0.343749999999988
40
0.374999999999992
40
0.374999999999992
40
0.406249999999996
40
0.406249999999996
40
0.4375
40
0.4375
40
0.468750000000004
40
0.468750000000004
40
0.484375000000006
40
0.484375000000006
40
0.500000000000008
40
0.500000000000008
40
0.531250000000011
40
0.531250000000011
40
0.562500000000015
40
0.562500000000015
40
0.578125000000017
40
0.578125000000017
40
0.593750000000018
40
0.593750000000018
40
0.625000000000018
40
0.625000000000018
40
0.656250000000018
40
0.656250000000018
40
0.687500000000019
40
0.687500000000019
40
0.718750000000019
40
0.718750000000019
40
0.750000000000019
40
0.750000000000019
40
0.765625000000017
40
0.765625000000017
40
0.781250000000015
40
0.796875000000013
40
0.796875000000013
40
0.812500000000011
40
0.812500000000011
40
0.843750000000011
40
0.843750000000011
40
0.859375000000011
40
0.859375000000011
40
0.875000000000011
40
0.875000000000011
40
0.906250000000009
40
0.906250000000009
40
0.937500000000006
40
0.937500000000006
40
0.968750000000003
40
0.968750000000003
40
1
40
1
40
1.03125
40
1.03125
41
1
10
112.693183013482
20
-2.34423181221666
30
0
41
1
10
112.682285678675
20
-2.13347223936725
30
0
41
1
10
112.686959492967
20
-2.02899954426448
30
0
41
1
10
112.708841133982
20
-1.87363836920144
30
0
41
1
10
112.718630683527
20
-1.822077872584
30
0
41
1
10
112.743360343018
20
-1.71943170489578
30
0
41
1
10
112.758392079663
20
-1.66815122891651
30
0
41
1
10
112.810425933244
20
-1.51829517274462
30
0
41
1
10
112.854447834061
20
-1.42272633594831
30
0
41
1
10
112.961206936168
20
-1.24036159010888
30
0
41
1
10
113.024692263287
20
-1.15299344922698
30
0
41
1
10
113.165621627155
20
-0.994918574502208
30
0
41
1
10
113.243430172145
20
-0.923259128700948
30
0
41
1
10
113.371429686072
20
-0.827162838864325
30
0
41
1
10
113.416095110787
20
-0.797020009625385
30
0
41
1
10
113.507227031536
20
-0.741960962938606
30
0
41
1
10
113.600628526555
20
-0.691742710045418
30
0
41
1
10
113.698493937548
20
-0.651055777099714
30
0
41
1
10
113.798620259778
20
-0.615200740941106
30
0
41
1
10
113.850091546852
20
-0.599625022660973
30
0
41
1
10
114.00591380058
20
-0.560966831573609
30
0
41
1
10
114.110863620766
20
-0.545932865465318
30
0
41
1
10
114.322843146309
20
-0.536781966540303
30
0
41
1
10
114.430972773846
20
-0.542973711483398
30
0
41
1
10
114.640853861435
20
-0.576383184570716
30
0
41
1
10
114.743298038201
20
-0.6033519856515
30
0
41
1
10
114.893174307528
20
-0.659372355578512
30
0
41
1
10
114.942681924862
20
-0.680777946808888
30
0
41
1
10
115.03828612558
20
-0.727956436207194
30
0
41
1
10
115.084622215986
20
-0.753796377442114
30
0
41
1
10
115.21932217112
20
-0.837921538546482
30
0
41
1
10
115.303783501178
20
-0.903095474574002
30
0
41
1
10
115.459208294843
20
-1.05022428877982
30
0
41
1
10
115.528366274074
20
-1.1303302188708
30
0
41
1
10
115.650237087634
20
-1.30303733336308
30
0
41
1
10
115.70332564106
20
-1.39675079502268
30
0
41
1
10
115.78892738355
20
-1.58998915955163
30
0
41
1
10
115.821907503264
20
-1.68975709714982
30
0
41
1
10
115.856833394332
20
-1.84401866245511
30
0
41
1
10
115.866054472035
20
-1.89648192322667
30
0
41
1
10
115.879250148002
20
-2.00105301135227
30
0
41
1
10
115.883280061312
20
-2.05327850484099
30
0
41
1
10
115.887910567055
20
-2.20977463357551
30
0
41
1
10
115.881121035336
20
-2.31386488589433
30
0
41
1
10
115.84739129011
20
-2.5215641300837
30
0
41
1
10
115.820936932954
20
-2.62211721599726
30
0
41
1
10
115.767626769119
20
-2.76795916649314
30
0
41
1
10
115.747564897401
20
-2.81575554844483
30
0
41
1
10
115.702769917589
20
-2.90969716511981
30
0
41
1
10
115.677894314903
20
-2.9560530570478
30
0
41
1
10
115.597474576213
20
-3.09010803610897
30
0
41
1
10
115.536049001305
20
-3.17338048629949
30
0
41
1
10
115.397546618239
20
-3.32791427290394
30
0
41
1
10
115.319461186193
20
-3.39982101367207
30
0
41
1
10
115.152438332852
20
-3.52568893729529
30
0
41
1
10
115.063395199439
20
-3.58013785337508
30
0
41
1
10
114.873778367367
20
-3.67158474906375
30
0
41
1
10
114.772561709719
20
-3.70847093834718
30
0
41
1
10
114.567815599042
20
-3.76030816062291
30
0
41
1
10
114.463177745459
20
-3.77593542410335
30
0
41
1
10
114.302643921343
20
-3.78318706669847
30
0
41
1
10
114.248864234095
20
-3.78283717711486
30
0
41
1
10
114.142703375115
20
-3.77673792428004
30
0
41
1
10
114.037364849616
20
-3.76527204346547
30
0
41
1
10
113.933644014184
20
-3.74323339646176
30
0
41
1
10
113.83074155826
20
-3.71583101893168
30
0
41
1
10
113.779630566064
20
-3.69938364262336
30
0
41
1
10
113.631017447024
20
-3.64316457988213
30
0
41
1
10
113.536981301651
20
-3.59631690782257
30
0
41
1
10
113.403199052969
20
-3.51236673045932
30
0
41
1
10
113.359647541063
20
-3.48192581434171
30
0
41
1
10
113.276610970942
20
-3.41759873794342
30
0
41
1
10
113.236961236963
20
-3.38363688212647
30
0
41
1
10
113.123407747145
20
-3.27651507839838
30
0
41
1
10
113.054599089599
20
-3.19781942867044
30
0
41
1
10
112.932530241609
20
-3.02762601978995
30
0
41
1
10
112.880513379763
20
-2.93800783910336
30
0
41
1
10
112.793731941626
20
-2.74995847166696
30
0
41
1
10
112.758785879898
20
-2.65058752263934
30
0
41
1
10
112.708607532703
20
-2.44765129530029
30
0
41
1
10
112.693183013482
20
-2.34423181221666
30
0
41
1
10
112.682285678675
20
-2.13347223936725
30
0
0
SPLINE
5
1CB
100
AcDbEntity
8
1
62
256
6
ByLayer
370
-1
48
1
60
0
100
AcDbSpline
70
4
71
3
72
8
73
4
40
0
40
0
40
0
40
0
40
1
40
1
40
1
40
1
41
1
10
107.49987048528
20
1.6095265040187
30
0
41
1
10
107.58878434662
20
1.62886741275057
30
0
41
1
10
107.674124948458
20
1.64954731061417
30
0
41
1
10
107.755737461066
20
1.67162421615632
30
0
0
SPLINE
5
1CC
100
AcDbEntity
8
1
62
256
6
ByLayer
370
-1
48
1
60
0
100
AcDbSpline
70
4
71
3
72
8
73
4
40
0
40
0
40
0
40
0
40
1
40
1
40
1
40
1
41
1
10
104.613485106161
20
1.83637627079844
30
0
41
1
10
104.660810934457
20
1.81925937971349
30
0
41
1
10
104.707928490854
20
1.8025746538994
30
0
41
1
10
104.754838631908
20
1.78632031599992
30
0
0
SPLINE
5
1CD
100
AcDbEntity
8
1
62
256
6
ByLayer
370
-1
48
1
60
0
100
AcDbSpline
70
4
71
3
72
20
73
16
40
0
40
0
40
0
40
0
40
0.250000000000005
40
0.250000000000005
40
0.281250000000005
40
0.281250000000005
40
0.312500000000005
40
0.312500000000005
40
0.375000000000004
40
0.375000000000004
40
0.500000000000003
40
0.500000000000003
40
0.750000000000002
40
0.750000000000002
40
1
40
1
40
1
40
1
41
1
10
40
20
7.95071561604738
30
0
41
1
10
39.3851945765382
20
8.17479412188166
30
0
41
1
10
38.7711712513378
20
8.42463084707791
30
0
41
1
10
38.0871039369655
20
8.74718983459334
30
0
41
1
10
38.0111917107401
20
8.78361249616032
30
0
41
1
10
37.8595817755228
20
8.85767846764904
30
0
41
1
10
37.7839355848669
20
8.89555902646876
30
0
41
1
10
37.5567994704944
20
9.00854565990346
30
0
41
1
10
37.4051943523228
20
9.08339963801126
30
0
41
1
10
36.9497863493484
20
9.30641436283207
30
0
41
1
10
36.6453501172696
20
9.45305157140547
30
0
41
1
10
35.7288974230768
20
9.8857491842065
30
0
41
1
10
35.1136258019826
20
10.1647026961596
30
0
41
1
10
33.8726169586225
20
10.6955790052617
30
0
41
1
10
33.2470854386163
20
10.9474353809209
30
0
41
1
10
32.6146868415422
20
11.1810987641992
30
0
0
SPLINE
5
1CE
100
AcDbEntity
8
1
62
256
6
ByLayer
370
-1
48
1
60
0
100
AcDbSpline
70
4
71
2
72
6
73
3
40
0
40
0
40
0
40
1
40
1
40
1
41
1
10
28.1693743695625
20
2.56175665414014
30
0
41
1
10
28.1693743695626
20
2.2243853011756
30
0
41
1
10
28.1693743695626
20
1.88701394821106
30
0
0
SPLINE
5
1CF
100
AcDbEntity
8
1
62
256
6
ByLayer
370
-1
48
1
60
0
100
AcDbSpline
70
4
71
3
72
8
73
4
40
0
40
0
40
0
40
0
40
1
40
1
40
1
40
1
41
1
10
96.3438257013196
20
8.02343589981817
30
0
41
1
10
96.0970517336536
20
8.06245100082322
30
0
41
1
10
95.849233966508
20
8.08796928362673
30
0
41
1
10
95.6008728086568
20
8.10646126903222
30
0
0
SPLINE
5
1D0
100
AcDbEntity
8
1
62
256
6
ByLayer
370
-1
48
1
60
0
100
AcDbSpline
70
4
71
3
72
49
73
45
40
0
40
0
40
0
40
0
40
0.0379722806262059
40
0.0759445612524119
40
0.0949307015655148
40
0.113916841878618
40
0.151889122504824
40
0.170875262817927
40
0.18986140313103
40
0.227833683757236
40
0.246819824070339
40
0.265805964383442
40
0.303778245009648
40
0.322764385322751
40
0.341750525635854
40
0.379722806262059
40
0.398708946575162
40
0.417695086888266
40
0.455667367514471
40
0.474653507827575
40
0.493639648140678
40
0.531611928766883
40
0.550598069079986
40
0.569584209393089
40
0.607556490019295
40
0.626542630332398
40
0.645528770645501
40
0.683501051271707
40
0.70248719158481
40
0.721473331897913
40
0.759445612524119
40
0.768938682680671
40
0.778431752837223
40
0.792671358072049
40
0.797417893150325
40
0.806910963306876
40
0.816404033463428
40
0.835390173776531
40
0.873362454402737
40
0.911334735028942
40
0.930320875342045
40
0.949307015655148
40
0.987279296281354
40
1
40
1
40
1
40
1
41
1
10
32.6146868415434
20
6.99709262909079
30
0
41
1
10
32.5810025744445
20
6.93886444047064
30
0
41
1
10
32.5123170114328
20
6.81930171169716
30
0
41
1
10
32.4233732621376
20
6.6623715047665
30
0
41
1
10
32.3504896512854
20
6.53251471136517
30
0
41
1
10
32.2765070249954
20
6.3998672432397
30
0
41
1
10
32.2009559638079
20
6.26316037879872
30
0
41
1
10
32.1239966442416
20
6.12264734958353
30
0
41
1
10
32.046162645504
20
5.97970632310253
30
0
41
1
10
31.9671128676314
20
5.83328746959842
30
0
41
1
10
31.8870397898673
20
5.68371912682224
30
0
41
1
10
31.8063569156797
20
5.53218176047315
30
0
41
1
10
31.7248679521129
20
5.37788681267745
30
0
41
1
10
31.6427901096788
20
5.22122619126057
30
0
41
1
10
31.5603970572486
20
5.0631346928522
30
0
41
1
10
31.477647253697
20
4.90311623709056
30
0
41
1
10
31.3947728267699
20
4.74160954024362
30
0
41
1
10
31.3118938437794
20
4.57926541318031
30
0
41
1
10
31.2291258159743
20
4.41589723655338
30
0
41
1
10
31.1467043219154
20
4.25196920188444
30
0
41
1
10
31.0645895890839
20
4.08782338420511
30
0
41
1
10
30.9830486061881
20
3.92358407553641
30
0
41
1
10
30.9023085894176
20
3.75971764293107
30
0
41
1
10
30.8221718692786
20
3.59624831577108
30
0
41
1
10
30.7430440729089
20
3.4335974288839
30
0
41
1
10
30.6651331579523
20
3.27221054647899
30
0
41
1
10
30.5880939711112
20
3.11180240532258
30
0
41
1
10
30.5124530872033
20
2.95306648342927
30
0
41
1
10
30.4383919277489
20
2.79641099557992
30
0
41
1
10
30.3654279096595
20
2.64124871906145
30
0
41
1
10
30.3030821310179
20
2.50758102706286
30
0
41
1
10
30.2507951889512
20
2.39470744829384
30
0
41
1
10
30.2205731365718
20
2.32928399596415
30
0
41
1
10
30.194977582825
20
2.27368093027178
30
0
41
1
10
30.1696418721724
20
2.2184869061069
30
0
41
1
10
30.1486938054442
20
2.17275372404885
30
0
41
1
10
30.1154228470039
20
2.09990786229085
30
0
41
1
10
30.0575657557389
20
1.97267926602842
30
0
41
1
10
29.9760305065039
20
1.79175785214852
30
0
41
1
10
29.8963353021241
20
1.61265448308072
30
0
41
1
10
29.8338930018177
20
1.47088646269071
30
0
41
1
10
29.7723958516127
20
1.33027385433223
30
0
41
1
10
29.7173682805971
20
1.20305236238184
30
0
41
1
10
29.6783619403807
20
1.11191504864317
30
0
41
1
10
29.6686409594061
20
1.08914009660902
30
0
0
SPLINE
5
1D1
100
AcDbEntity
8
1
62
256
6
ByLayer
370
-1
48
1
60
0
100
AcDbSpline
70
4
71
3
72
28
73
24
40
0
40
0
40
0
40
0
40
0.129389123357656
40
0.129389123357656
40
0.258778246715311
40
0.258778246715311
40
0.388167370072967
40
0.388167370072967
40
0.452861931751795
40
0.452861931751795
40
0.485209212591209
40
0.485209212591209
40
0.517556493430623
40
0.517556493430623
40
0.646945616788278
40
0.646945616788278
40
0.776334740145932
40
0.776334740145932
40
0.905723863503587
40
0.905723863503587
40
0.970418425182414
40
0.970418425182414
40
1
40
1
40
1
40
1
41
1
10
40
20
-6.9108742347247
30
0
41
1
10
42.0938392021133
20
-7.60619061688584
30
0
41
1
10
44.175881370871
20
-8.2468184089438
30
0
41
1
10
48.3303349384617
20
-9.39454226191617
30
0
41
1
10
50.4028359610438
20
-9.90160788889926
30
0
41
1
10
54.550673686496
20
-10.76503466987
30
0
41
1
10
56.6258013910055
20
-11.1215995831661
30
0
41
1
10
59.7501626616077
20
-11.5321031536733
30
0
41
1
10
60.7935614653822
20
-11.6482496530227
30
0
41
1
10
62.3627339790529
20
-11.7903093878274
30
0
41
1
10
62.8868352928407
20
-11.8323231109334
30
0
41
1
10
63.9330573923395
20
-11.9052498478827
30
0
41
1
10
64.4555205572139
20
-11.9362017114371
30
0
41
1
10
67.06501983073
20
-12.0634441585762
30
0
41
1
10
69.1432758215761
20
-12.077090177398
30
0
41
1
10
73.2940917575876
20
-11.9296419559727
30
0
41
1
10
75.3669271887254
20
-11.7686117112823
30
0
41
1
10
79.5204573397189
20
-11.2790173684302
30
0
41
1
10
81.6009804573066
20
-10.9504978842197
30
0
41
1
10
84.7357260153312
20
-10.3379845295516
30
0
41
1
10
85.7840817372745
20
-10.1136388263052
30
0
41
1
10
87.3090486778691
20
-9.7607813493162
30
0
41
1
10
87.7873628320451
20
-9.64631132463569
30
0
41
1
10
88.2655749729377
20
-9.52822229894201
30
0
0
SPLINE
5
1D2
100
AcDbEntity
8
1
62
256
6
ByLayer
370
-1
48
1
60
0
100
AcDbSpline
70
4
71
3
72
16
73
12
40
0
40
0
40
0
40
0
40
0.124999999999997
40
0.124999999999997
40
0.249999999999994
40
0.249999999999994
40
0.499999999999998
40
0.499999999999998
40
0.749999999999999
40
0.749999999999999
40
1
40
1
40
1
40
1
41
1
10
11.4613248654051
20
-23.8391299750503
30
0
41
1
10
11.4930777586346
20
-23.8391299750504
30
0
41
1
10
11.523990670531
20
-23.8371392949586
30
0
41
1
10
11.582404000511
20
-23.829983326401
30
0
41
1
10
11.6089650834003
20
-23.824989671385
30
0
41
1
10
11.6829561422921
20
-23.8070141183761
30
0
41
1
10
11.7219265489987
20
-23.7919105160783
30
0
41
1
10
11.7882603826481
20
-23.7591079584198
30
0
41
1
10
11.8148780607232
20
-23.7416171457992
30
0
41
1
10
11.8602443227467
20
-23.7051129235882
30
0
41
1
10
11.8788862370738
20
-23.6860331168062
30
0
41
1
10
11.8943375672975
20
-23.6665017920809
30
0
0
SPLINE
5
1D3
100
AcDbEntity
8
1
62
256
6
ByLayer
370
-1
48
1
60
0
100
AcDbSpline
70
4
71
3
72
8
73
4
40
0
40
0
40
0
40
0
40
1
40
1
40
1
40
1
41
1
10
26.5
20
9.89528417844176
30
0
41
1
10
26.2747327479757
20
9.56737635894922
30
0
41
1
10
26.1146445993313
20
9.20965721459436
30
0
41
1
10
26.0157853790299
20
8.81906631838936
30
0
0
SPLINE
5
1D4
100
AcDbEntity
8
1
62
256
6
ByLayer
370
-1
48
1
60
0
100
AcDbSpline
70
4
71
3
72
18
73
14
40
0
40
0
40
0
40
0
40
0.0624999999999997
40
0.0624999999999997
40
0.124999999999999
40
0.124999999999999
40
0.249999999999999
40
0.249999999999999
40
0.499999999999999
40
0.499999999999999
40
0.75
40
0.75
40
1
40
1
40
1
40
1
41
1
10
99.2216735759161
20
6.87927386038112
30
0
41
1
10
99.2436734877607
20
6.88157945447208
30
0
41
1
10
99.2658526930097
20
6.88620161623942
30
0
41
1
10
99.308562528143
20
6.89893423945088
30
0
41
1
10
99.3293582857479
20
6.90705408334722
30
0
41
1
10
99.3903847435265
20
6.93562016102373
30
0
41
1
10
99.428901765465
20
6.96011212416954
30
0
41
1
10
99.5367389960898
20
7.04120890174599
30
0
41
1
10
99.600919806789
20
7.10673912009932
30
0
41
1
10
99.7176837728561
20
7.24376076948548
30
0
41
1
10
99.7706733060378
20
7.31601469532893
30
0
41
1
10
99.8701523774597
20
7.46473699944167
30
0
41
1
10
99.9165511224947
20
7.54127407379423
30
0
41
1
10
99.960544713521
20
7.61926568351285
30
0
0
SPLINE
5
1D5
100
AcDbEntity
8
1
62
256
6
ByLayer
370
-1
48
1
60
0
100
AcDbSpline
70
4
71
3
72
8
73
4
40
0
40
0
40
0
40
0
40
1
40
1
40
1
40
1
41
1
10
107.575379875551
20
3.29142398006621
30
0
41
1
10
107.695492465596
20
3.28841398125064
30
0
41
1
10
107.815349473301
20
3.28901628445095
30
0
41
1
10
107.934954628486
20
3.29319597346702
30
0
0
SPLINE
5
1D6
100
AcDbEntity
8
1
62
256
6
ByLayer
370
-1
48
1
60
0
100
AcDbSpline
70
4
71
3
72
28
73
24
40
0
40
0
40
0
40
0
40
0.125
40
0.125
40
0.25
40
0.25
40
0.3125
40
0.3125
40
0.374999999999999
40
0.374999999999999
40
0.5
40
0.5
40
0.562499999999999
40
0.562499999999999
40
0.624999999999999
40
0.624999999999999
40
0.749999999999999
40
0.749999999999999
40
0.8125
40
0.8125
40
0.875
40
0.875
40
1
40
1
40
1
40
1
41
1
10
32.6146868415414
20
11.1810987641969
30
0
41
1
10
32.3204245300877
20
11.2725720256571
30
0
41
1
10
32.0243559137451
20
11.347138892648
30
0
41
1
10
31.4286820456753
20
11.4634028294134
30
0
41
1
10
31.1290767693523
20
11.5051037549839
30
0
41
1
10
30.6767033093848
20
11.54105245639
30
0
41
1
10
30.5264669232295
20
11.5484559623325
30
0
41
1
10
30.2301302307477
20
11.5539247219077
30
0
41
1
10
30.0835488124223
20
11.5520303604521
30
0
41
1
10
29.6484810571161
20
11.5322616768929
30
0
41
1
10
29.364637631961
20
11.5004216947574
30
0
41
1
10
28.9484213936294
20
11.4218618457019
30
0
41
1
10
28.8114968726539
20
11.3904800490863
30
0
41
1
10
28.5464008892591
20
11.3183529080106
30
0
41
1
10
28.4175154489145
20
11.277486919731
30
0
41
1
10
28.0416859027621
20
11.1403267445267
30
0
41
1
10
27.8054906435313
20
11.0295798127174
30
0
41
1
10
27.4734731910559
20
10.8320446868707
30
0
41
1
10
27.3666340517222
20
10.760891791312
30
0
41
1
10
27.1648501554623
20
10.6107824663604
30
0
41
1
10
27.0693064684304
20
10.5314933180154
30
0
41
1
10
26.7983779960223
20
10.280922804957
30
0
41
1
10
26.6385920791331
20
10.0970242274683
30
0
41
1
10
26.5
20
9.89528417844176
30
0
0
SPLINE
5
1D7
100
AcDbEntity
8
1
62
256
6
ByLayer
370
-1
48
1
60
0
100
AcDbSpline
70
4
71
3
72
10
73
6
40
0
40
0
40
0
40
0
40
0.5
40
0.5
40
1
40
1
40
1
40
1
41
1
10
88.2439025555801
20
9.93163667457586
30
0
41
1
10
88.0019095472886
20
10.0144743978063
30
0
41
1
10
87.7585956667321
20
10.0995415524167
30
0
41
1
10
87.2695253227512
20
10.2737985698188
30
0
41
1
10
87.0235224130414
20
10.3630803189723
30
0
41
1
10
86.7770793649051
20
10.4540188510834
30
0
0
SPLINE
5
1D8
100
AcDbEntity
8
1
62
256
6
ByLayer
370
-1
48
1
60
0
100
AcDbSpline
70
4
71
3
72
10
73
6
40
0
40
0
40
0
40
0
40
0.5
40
0.5
40
1
40
1
40
1
40
1
41
1
10
30.1853131584587
20
0.631538041087197
30
0
41
1
10
31.2765039116601
20
-0.108330233590294
30
0
41
1
10
32.3580990593728
20
-0.860428473984683
30
0
41
1
10
34.4914580559883
20
-2.38800982397015
30
0
41
1
10
35.5430963027923
20
-3.16324603601805
30
0
41
1
10
36.5776006277343
20
-3.94581211579251
30
0
0
SPLINE
5
1D9
100
AcDbEntity
8
1
62
256
6
ByLayer
370
-1
48
1
60
0
100
AcDbSpline
70
4
71
3
72
10
73
6
40
0
40
0
40
0
40
0
40
0.5
40
0.5
40
1
40
1
40
1
40
1
41
1
10
28.1693743695626
20
2.56175665414005
30
0
41
1
10
28.4803911862961
20
2.20351679832098
30
0
41
1
10
28.8042081201263
20
1.86437791378614
30
0
41
1
10
29.475905011174
20
1.22099729304696
30
0
41
1
10
29.8237876601529
20
0.916770305978531
30
0
41
1
10
30.185313158454
20
0.631538041090778
30
0
0
SPLINE
5
1DA
100
AcDbEntity
8
1
62
256
6
ByLayer
370
-1
48
1
60
0
100
AcDbSpline
70
4
71
3
72
30
73
26
40
0
40
0
40
0
40
0
40
0.125000000000002
40
0.125000000000002
40
0.187500000000002
40
0.187500000000002
40
0.250000000000001
40
0.312500000000001
40
0.312500000000001
40
0.375
40
0.375
40
0.499999999999999
40
0.499999999999999
40
0.562499999999998
40
0.562499999999998
40
0.624999999999998
40
0.687499999999997
40
0.687499999999997
40
0.749999999999997
40
0.749999999999997
40
0.874999999999995
40
0.874999999999995
40
0.937499999999998
40
0.937499999999998
40
1
40
1
40
1
40
1
41
1
10
109.085897904576
20
2.10026352353381
30
0
41
1
10
109.232964280498
20
2.15473753367351
30
0
41
1
10
109.35813225963
20
2.21174600150681
30
0
41
1
10
109.512465209707
20
2.3011265247082
30
0
41
1
10
109.558139263313
20
2.33155111143526
30
0
41
1
10
109.635849428243
20
2.39214730322757
30
0
41
1
10
109.70063916105
20
2.45287922059308
30
0
41
1
10
109.739866974362
20
2.5138796588673
30
0
41
1
10
109.765953342031
20
2.57501814440067
30
0
41
1
10
109.772291038311
20
2.60558427858044
30
0
41
1
10
109.771084382685
20
2.69515143222654
30
0
41
1
10
109.743982878319
20
2.75282884242577
30
0
41
1
10
109.663215331911
20
2.83624212027732
30
0
41
1
10
109.629567418681
20
2.86339442970484
30
0
41
1
10
109.550497168197
20
2.91530508727314
30
0
41
1
10
109.45935309385
20
2.96515783154152
30
0
41
1
10
109.344330129641
20
3.01094055742965
30
0
41
1
10
109.217046262725
20
3.05463348351324
30
0
41
1
10
109.14761782668
20
3.07527954194359
30
0
41
1
10
108.926091276367
20
3.13262694700873
30
0
41
1
10
108.759598760217
20
3.16525985672399
30
0
41
1
10
108.481262121485
20
3.20569638569515
30
0
41
1
10
108.38435406496
20
3.21762225175371
30
0
41
1
10
108.185498854148
20
3.23809291766619
30
0
41
1
10
108.083113174833
20
3.2467030119989
30
0
41
1
10
107.977800311063
20
3.25370483913508
30
0
0
SPLINE
5
1DB
100
AcDbEntity
8
1
62
256
6
ByLayer
370
-1
48
1
60
0
100
AcDbSpline
70
4
71
3
72
10
73
6
40
0
40
0
40
0
40
0
40
0.5
40
0.5
40
1
40
1
40
1
40
1
41
1
10
97.1082159703073
20
7.82448069347242
30
0
41
1
10
97.4611755707369
20
7.66293766660635
30
0
41
1
10
97.8159967904591
20
7.50878760592823
30
0
41
1
10
98.5225568608335
20
7.19839169715527
30
0
41
1
10
98.8743305263957
20
7.04225987092016
30
0
41
1
10
99.2216735759161
20
6.87927386038103
30
0
0
SPLINE
5
1DC
100
AcDbEntity
8
1
62
256
6
ByLayer
370
-1
48
1
60
0
100
AcDbSpline
70
4
71
3
72
14
73
10
40
0
40
0
40
0
40
0
40
0.041992939226054
40
0.041992939226054
40
0.361328626150702
40
0.361328626150702
40
0.680664313075351
40
0.680664313075351
40
1
40
1
40
1
40
1
41
1
10
88.0433784198352
20
10.0177857718472
30
0
41
1
10
88.199789434152
20
10.0528398933183
30
0
41
1
10
88.3561931326135
20
10.0874978075207
30
0
41
1
10
89.7019113858387
20
10.3822936967096
30
0
41
1
10
90.8904387229294
20
10.6201776000614
30
0
41
1
10
93.2718147478982
20
11.0426635127833
30
0
41
1
10
94.4647309740539
20
11.2274243669943
30
0
41
1
10
96.8553693598283
20
11.5434881312301
30
0
41
1
10
98.0531245879159
20
11.6746306804179
30
0
41
1
10
99.2549818824771
20
11.7772648528842
30
0
0
SPLINE
5
1DD
100
AcDbEntity
8
1
62
256
6
ByLayer
370
-1
48
1
60
0
100
AcDbSpline
70
4
71
3
72
16
73
12
40
0
40
0
40
0
40
0
40
0.250000000000003
40
0.250000000000003
40
0.500000000000005
40
0.500000000000005
40
0.750000000000005
40
0.750000000000005
40
0.875000000000003
40
0.875000000000003
40
1
40
1
40
1
40
1
41
1
10
11.8943375672974
20
-8.05584836782768
30
0
41
1
10
11.878892303015
20
-7.99849169434904
30
0
41
1
10
11.8604037172646
20
-7.94218253951249
30
0
41
1
10
11.8151421892069
20
-7.83248598676798
30
0
41
1
10
11.7882878950994
20
-7.7787017964302
30
0
41
1
10
11.7218733396747
20
-7.67767014498884
30
0
41
1
10
11.6822221825146
20
-7.63015704912686
30
0
41
1
10
11.6094109295817
20
-7.57464889660886
30
0
41
1
10
11.5822992776726
20
-7.55854989603577
30
0
41
1
10
11.5243601613892
20
-7.53610198950833
30
0
41
1
10
11.4930267682388
20
-7.52966679426467
30
0
41
1
10
11.4613248654053
20
-7.52966679426467
30
0
0
SPLINE
5
1DE
100
AcDbEntity
8
1
62
256
6
ByLayer
370
-1
48
1
60
0
100
AcDbSpline
70
4
71
3
72
8
73
4
40
0
40
0
40
0
40
0
40
1
40
1
40
1
40
1
41
1
10
39.1853195558715
20
-5.7809951574223
30
0
41
1
10
39.1831178905389
20
-5.78012110674189
30
0
41
1
10
39.1809166245571
20
-5.77924573178134
30
0
41
1
10
39.1787157604767
20
-5.77836903412339
30
0
0
SPLINE
5
1DF
100
AcDbEntity
8
1
62
256
6
ByLayer
370
-1
48
1
60
0
100
AcDbSpline
70
4
71
3
72
10
73
6
40
0
40
0
40
0
40
0
40
0.5
40
0.5
40
1
40
1
40
1
40
1
41
1
10
28.1693743695627
20
1.88701394821086
30
0
41
1
10
28.0102860511421
20
2.20264128659792
30
0
41
1
10
27.8772830776956
20
2.52328518139961
30
0
41
1
10
27.6474250534704
20
3.16992997716053
30
0
41
1
10
27.5507363732882
20
3.49597646034354
30
0
41
1
10
27.4674631538031
20
3.8232623512009
30
0
0
SPLINE
5
1E0
100
AcDbEntity
8
1
62
256
6
ByLayer
370
-1
48
1
60
0
100
AcDbSpline
70
4
71
3
72
18
73
14
40
0
40
0
40
0
40
0
40
0.0634578169681398
40
0.0634578169681398
40
0.37563854464546
40
0.37563854464546
40
0.531728908484095
40
0.531728908484095
40
0.68781927232273
40
0.68781927232273
40
0.843909636161365
40
0.843909636161365
40
1
40
1
40
1
40
1
41
1
10
111.963562888577
20
3.42202646603476
30
0
41
1
10
111.955811391846
20
3.41571042596058
30
0
41
1
10
111.948063784195
20
3.40951989141993
30
0
41
1
10
111.902249400336
20
3.37360024098047
30
0
41
1
10
111.864035867245
20
3.3465196321682
30
0
41
1
10
111.809682004906
20
3.31125222187797
30
0
41
1
10
111.792153314144
20
3.30044067174452
30
0
41
1
10
111.758946630492
20
3.28088935480429
30
0
41
1
10
111.743218173492
20
3.27213038111069
30
0
41
1
10
111.715723234965
20
3.25761488451019
30
0
41
1
10
111.703819666713
20
3.25177162707459
30
0
41
1
10
111.685385957021
20
3.24358718675492
30
0
41
1
10
111.679049679046
20
3.2413462801394
30
0
41
1
10
111.676546167149
20
3.2413462801394
30
0
0
SPLINE
5
1E1
100
AcDbEntity
8
1
62
256
6
ByLayer
370
-1
48
1
60
0
100
AcDbSpline
70
4
71
3
72
10
73
6
40
0
40
0
40
0
40
0
40
0.5
40
0.5
40
1
40
1
40
1
40
1
41
1
10
26.5
20
5.39238867235639
30
0
41
1
10
26.629631528147
20
5.11661203658977
30
0
41
1
10
26.7759719221575
20
4.84834265124479
30
0
41
1
10
27.0990204598793
20
4.32550017410426
30
0
41
1
10
27.2757429659633
20
4.07093156673585
30
0
41
1
10
27.4674631538031
20
3.8232623512009
30
0
0
SPLINE
5
1E2
100
AcDbEntity
8
1
62
256
6
ByLayer
370
-1
48
1
60
0
100
AcDbSpline
70
4
71
3
72
14
73
10
40
0
40
0
40
0
40
0
40
0.25
40
0.25
40
0.5
40
0.5
40
0.75
40
0.75
40
1
40
1
40
1
40
1
41
1
10
26.0157853790299
20
6.80592823035889
30
0
41
1
10
25.9783253908424
20
6.98093974189783
30
0
41
1
10
25.9499533410624
20
7.15564951014906
30
0
41
1
10
25.9111964246925
20
7.50143986096029
30
0
41
1
10
25.9008309063067
20
7.67252227124223
30
0
41
1
10
25.899264579263
20
8.00985199735047
30
0
41
1
10
25.9081869376649
20
8.1767397720217
30
0
41
1
10
25.9465974957651
20
8.50277411872776
30
0
41
1
10
25.9759930899455
20
8.66184774224379
30
0
41
1
10
26.0157853790278
20
8.81906631838976
30
0
0
SPLINE
5
1E3
100
AcDbEntity
8
1
62
256
6
ByLayer
370
-1
48
1
60
0
100
AcDbSpline
70
4
71
3
72
10
73
6
40
0
40
0
40
0
40
0
40
0.5
40
0.5
40
1
40
1
40
1
40
1
41
1
10
26.0157853790299
20
6.80592823035889
30
0
41
1
10
26.0667026697699
20
6.56804475929937
30
0
41
1
10
26.1332072555075
20
6.3312826134555
30
0
41
1
10
26.2950578488405
20
5.86002321554787
30
0
41
1
10
26.3904118596813
20
5.62552523326104
30
0
41
1
10
26.5
20
5.39238867235639
30
0
0
SPLINE
5
1E4
100
AcDbEntity
8
1
62
256
6
ByLayer
370
-1
48
1
60
0
100
AcDbSpline
70
4
71
3
72
36
73
32
40
0
40
0
40
0
40
0
40
0.0017303245031553
40
0.0017303245031553
40
0.0682816362029443
40
0.0682816362029443
40
0.201384259602523
40
0.201384259602523
40
0.267935571302312
40
0.267935571302312
40
0.334486883002102
40
0.334486883002102
40
0.401038194701891
40
0.401038194701891
40
0.467589506401681
40
0.467589506401681
40
0.60069212980126
40
0.60069212980126
40
0.66724344150105
40
0.66724344150105
40
0.733794753200839
40
0.733794753200839
40
0.767070409050734
40
0.767070409050734
40
0.80034606490063
40
0.80034606490063
40
0.86689737660042
40
0.86689737660042
40
0.93344868830021
40
0.93344868830021
40
1
40
1
40
1
40
1
41
1
10
87.6455640503816
20
-9.38348217671646
30
0
41
1
10
87.6176152452208
20
-9.38936236913096
30
0
41
1
10
87.5896659939507
20
-9.39523033078484
30
0
41
1
10
86.4867213145016
20
-9.62630685898841
30
0
41
1
10
85.4102383123502
20
-9.83356797929159
30
0
41
1
10
82.1835567716593
20
-10.3963178016503
30
0
41
1
10
80.0352800978419
20
-10.6934348356194
30
0
41
1
10
76.8097008368111
20
-11.0126128150763
30
0
41
1
10
75.733186893277
20
-11.0981716229091
30
0
41
1
10
73.5815428361238
20
-11.226314454237
30
0
41
1
10
72.5067839807096
20
-11.2689291459756
30
0
41
1
10
70.3580582596937
20
-11.3094020919686
30
0
41
1
10
69.2841254489312
20
-11.3070252962784
30
0
41
1
10
67.134906871083
20
-11.2581848330745
30
0
41
1
10
66.058965707593
20
-11.211665746917
30
0
41
1
10
62.8313299875475
20
-11.0069677341206
30
0
41
1
10
60.6839296452349
20
-10.7835680660331
30
0
41
1
10
57.4603373843544
20
-10.3259955976911
30
0
41
1
10
56.3850493274705
20
-10.153064300049
30
0
41
1
10
54.2336170156612
20
-9.76667847431676
30
0
41
1
10
53.1589264911635
20
-9.55380795266956
30
0
41
1
10
51.5467383787309
20
-9.20901450151194
30
0
41
1
10
51.0094347558193
20
-9.08933827710626
30
0
41
1
10
49.9348851336156
20
-8.84039261971299
30
0
41
1
10
49.3973954693726
20
-8.7123548239023
30
0
41
1
10
47.784714780995
20
-8.31446529826229
30
0
41
1
10
46.7089141149373
20
-8.03064314065145
30
0
41
1
10
44.5591759686722
20
-7.43554984844545
30
0
41
1
10
43.4848301141124
20
-7.12336414828815
30
0
41
1
10
41.3358509759259
20
-6.47142191211572
30
0
41
1
10
40.2611753993306
20
-6.1317928212504
30
0
41
1
10
39.1853195558694
20
-5.78099515742164
30
0
0
SPLINE
5
1E5
100
AcDbEntity
8
1
62
256
6
ByLayer
370
-1
48
1
60
0
100
AcDbSpline
70
4
71
3
72
16
73
12
40
0
40
0
40
0
40
0
40
0.421318814534866
40
0.421318814534866
40
0.526648518168588
40
0.526648518168588
40
0.63197822180231
40
0.63197822180231
40
0.842637629069751
40
0.842637629069751
40
1
40
1
40
1
40
1
41
1
10
113.253890008608
20
7.67865917025185
30
0
41
1
10
113.274200018088
20
7.48954340310397
30
0
41
1
10
113.326206585032
20
7.30181736187393
30
0
41
1
10
113.437661398433
20
7.07136064152118
30
0
41
1
10
113.462431293148
20
7.02537557526489
30
0
41
1
10
113.516160501403
20
6.93560579184685
30
0
41
1
10
113.54519679036
20
6.89163217673089
30
0
41
1
10
113.639062305788
20
6.76266688708373
30
0
41
1
10
113.7105669562
20
6.68058661494351
30
0
41
1
10
113.85357136509
20
6.54575775693917
30
0
41
1
10
113.919292670474
20
6.49203641056889
30
0
41
1
10
113.98949902407
20
6.44289151758699
30
0
0
SPLINE
5
1E6
100
AcDbEntity
8
1
62
256
6
ByLayer
370
-1
48
1
60
0
100
AcDbSpline
70
4
71
3
72
12
73
8
40
0
40
0
40
0
40
0
40
0.302650344388773
40
0.302650344388773
40
0.651325172194386
40
0.651325172194386
40
1
40
1
40
1
40
1
41
1
10
113.362012859442
20
8.45107089172183
30
0
41
1
10
113.331852713893
20
8.37872777597389
30
0
41
1
10
113.307672544559
20
8.30462131607803
30
0
41
1
10
113.267786512659
20
8.14131570241216
30
0
41
1
10
113.25393757019
20
8.05153498366602
30
0
41
1
10
113.241857259578
20
7.86696169748006
30
0
41
1
10
113.243735003868
20
7.77321705382579
30
0
41
1
10
113.253890008608
20
7.67865917025185
30
0
0
SPLINE
5
1E7
100
AcDbEntity
8
1
62
256
6
ByLayer
370
-1
48
1
60
0
100
AcDbSpline
70
4
71
2
72
6
73
3
40
0
40
0
40
0
40
1
40
1
40
1
41
1
10
38.7870832634851
20
-5.58662921049705
30
0
41
1
10
38.7870832634851
20
-6.09672405778321
30
0
41
1
10
38.7870832634851
20
-6.60681890506936
30
0
0
SPLINE
5
1E8
100
AcDbEntity
8
1
62
256
6
ByLayer
370
-1
48
1
60
0
100
AcDbSpline
70
4
71
3
72
14
73
10
40
0
40
0
40
0
40
0
40
0.499999999999993
40
0.499999999999993
40
0.624999999999991
40
0.624999999999991
40
0.749999999999989
40
0.749999999999989
40
1
40
1
40
1
40
1
41
1
10
107.149553068801
20
0.404361487073771
30
0
41
1
10
106.692840554041
20
0.377563592610585
30
0
41
1
10
106.241961160252
20
0.404566701136446
30
0
41
1
10
105.68553682398
20
0.504441697925671
30
0
41
1
10
105.574615754874
20
0.527768478128053
30
0
41
1
10
105.353519061947
20
0.581285135734333
30
0
41
1
10
105.243076363291
20
0.611563971819493
30
0
41
1
10
104.915486856428
20
0.712226062660022
30
0
41
1
10
104.701850027439
20
0.792367856002471
30
0
41
1
10
104.493054012895
20
0.88572659736792
30
0
0
SPLINE
5
1E9
100
AcDbEntity
8
1
62
256
6
ByLayer
370
-1
48
1
60
0
100
AcDbSpline
70
4
71
1
72
4
73
2
40
0
40
0
40
1
40
1
41
1
10
41.6146868415405
20
2.94385342787612
30
0
41
1
10
41.6146868415408
20
7.3209720607511
30
0
0
SPLINE
5
1EA
100
AcDbEntity
8
1
62
256
6
ByLayer
370
-1
48
1
60
0
100
AcDbSpline
70
4
71
3
72
10
73
6
40
0
40
0
40
0
40
0
40
0.5
40
0.5
40
1
40
1
40
1
40
1
41
1
10
105.694807246072
20
3.66340663265129
30
0
41
1
10
105.931839104215
20
3.57203591805936
30
0
41
1
10
106.17596142283
20
3.49664587414151
30
0
41
1
10
106.680761484484
20
3.37882118427766
30
0
41
1
10
106.941450395908
20
3.33637418489823
30
0
41
1
10
107.211694320014
20
3.312293412868
30
0
0
SPLINE
5
1EB
100
AcDbEntity
8
1
62
256
6
ByLayer
370
-1
48
1
60
0
100
AcDbSpline
70
4
71
3
72
8
73
4
40
0
40
0
40
0
40
0
40
1
40
1
40
1
40
1
41
1
10
40
20
-6.9108742347247
30
0
41
1
10
39.6002868956958
20
-6.77813860282578
30
0
41
1
10
39.1956742992481
20
-6.6762505891339
30
0
41
1
10
38.7870832634851
20
-6.60681890505123
30
0
0
SPLINE
5
1EC
100
AcDbEntity
8
1
62
256
6
ByLayer
370
-1
48
1
60
0
100
AcDbSpline
70
4
71
3
72
8
73
4
40
0
40
0
40
0
40
0
40
1
40
1
40
1
40
1
41
1
10
39.1787157676981
20
-5.77836901206763
30
0
41
1
10
39.0483520433822
20
-5.71418632278383
30
0
41
1
10
38.9178031116546
20
-5.65027909817772
30
0
41
1
10
38.7870832634851
20
-5.58662921041932
30
0
0
SPLINE
5
1ED
100
AcDbEntity
8
1
62
256
6
ByLayer
370
-1
48
1
60
0
100
AcDbSpline
70
4
71
3
72
20
73
16
40
0
40
0
40
0
40
0
40
0.104245957891134
40
0.104245957891134
40
0.253538298242612
40
0.253538298242612
40
0.402830638594089
40
0.402830638594089
40
0.552122978945567
40
0.552122978945567
40
0.701415319297045
40
0.701415319297045
40
0.850707659648522
40
0.850707659648522
40
1
40
1
40
1
40
1
41
1
10
92.6462240350036
20
7.47805341874235
30
0
41
1
10
92.6603593557622
20
7.51492035007314
30
0
41
1
10
92.6768569447017
20
7.55118817511473
30
0
41
1
10
92.7220452088595
20
7.63667436012574
30
0
41
1
10
92.7526247678333
20
7.68435703084359
30
0
41
1
10
92.8214055142128
20
7.77462889647947
30
0
41
1
10
92.8600123452281
20
7.81752990696211
30
0
41
1
10
92.9424790961163
20
7.89519910106407
30
0
41
1
10
92.9864675048159
20
7.93026674860596
30
0
41
1
10
93.0801434058188
20
7.99262167464312
30
0
41
1
10
93.1302500869995
20
8.01998367762573
30
0
41
1
10
93.2323750645828
20
8.06421349263903
30
0
41
1
10
93.2848102467964
20
8.08140123404715
30
0
41
1
10
93.3923760271047
20
8.10621533035717
30
0
41
1
10
93.4475180162225
20
8.11380888167909
30
0
41
1
10
93.5025320302677
20
8.11694906273317
30
0
0
SPLINE
5
1EE
100
AcDbEntity
8
1
62
256
6
ByLayer
370
-1
48
1
60
0
100
AcDbSpline
70
4
71
4
72
10
73
5
40
0
40
0
40
0
40
0
40
0
40
1
40
1
40
1
40
1
40
1
41
0.99808289831858
10
99.221673575916
20
6.87927386037996
30
0
41
0.998793163299338
10
99.2385982152015
20
7.16835633944195
30
0
41
0.999493521970803
10
99.249670873926
20
7.45874749498215
30
0
41
1
10
99.2549818824457
20
7.74711743830204
30
0
41
1
10
99.2549818824457
20
8.02999999999983
30
0
0
SPLINE
5
1EF
100
AcDbEntity
8
1
62
256
6
ByLayer
370
-1
48
1
60
0
100
AcDbSpline
70
4
71
3
72
8
73
4
40
0
40
0
40
0
40
0
40
1
40
1
40
1
40
1
41
1
10
105.449254408855
20
3.77391573303052
30
0
41
1
10
105.528302244187
20
3.73246796921214
30
0
41
1
10
105.610319736951
20
3.69597476143778
30
0
41
1
10
105.694807246072
20
3.66340663265126
30
0
0
SPLINE
5
1F0
100
AcDbEntity
8
1
62
256
6
ByLayer
370
-1
48
1
60
0
100
AcDbSpline
70
4
71
3
72
16
73
12
40
0
40
0
40
0
40
0
40
0.124999999999999
40
0.124999999999999
40
0.249999999999998
40
0.249999999999998
40
0.499999999999999
40
0.499999999999999
40
0.749999999999999
40
0.749999999999999
40
1
40
1
40
1
40
1
41
1
10
11.4613248654052
20
7.52966679426495
30
0
41
1
10
11.4930777586346
20
7.52966679426495
30
0
41
1
10
11.523990670531
20
7.53597576299637
30
0
41
1
10
11.5824040005111
20
7.55857361750097
30
0
41
1
10
11.6089650834003
20
7.57431556968103
30
0
41
1
10
11.6829561422921
20
7.63070347545332
30
0
41
1
10
11.7219265489987
20
7.67774765104224
30
0
41
1
10
11.7882603826481
20
7.77866338250448
30
0
41
1
10
11.8148780607233
20
7.83191947486037
30
0
41
1
10
11.8602443227467
20
7.9417232788818
30
0
41
1
10
11.8788862370738
20
7.99846916820698
30
0
41
1
10
11.8943375672975
20
8.05584836782762
30
0
0
SPLINE
5
1F1
100
AcDbEntity
8
1
62
256
6
ByLayer
370
-1
48
1
60
0
100
AcDbSpline
70
4
71
3
72
16
73
12
40
0
40
0
40
0
40
0
40
0.249999999999999
40
0.249999999999999
40
0.499999999999999
40
0.499999999999999
40
0.749999999999998
40
0.749999999999998
40
0.874999999999999
40
0.874999999999999
40
1
40
1
40
1
40
1
41
1
10
8.10566243270256
20
-23.6665017920809
30
0
41
1
10
8.12110769698498
20
-23.6860254491252
30
0
41
1
10
8.13959628273537
20
-23.7049589195931
30
0
41
1
10
8.18485781079309
20
-23.7414301198899
30
0
41
1
10
8.21171210490058
20
-23.7590955179201
30
0
41
1
10
8.27812666032526
20
-23.7919356634172
30
0
41
1
10
8.31777781748542
20
-23.8071882416308
30
0
41
1
10
8.39058907041823
20
-23.8248834464053
30
0
41
1
10
8.41770072232731
20
-23.8299908115613
30
0
41
1
10
8.47563983861079
20
-23.8370993498304
30
0
41
1
10
8.50697323176115
20
-23.8391299750505
30
0
41
1
10
8.53867513459471
20
-23.8391299750505
30
0
0
SPLINE
5
1F2
100
AcDbEntity
8
1
62
256
6
ByLayer
370
-1
48
1
60
0
100
AcDbSpline
70
4
71
3
72
8
73
4
40
0
40
0
40
0
40
0
40
1
40
1
40
1
40
1
41
1
10
40
20
7.95071561604738
30
0
41
1
10
40.5425015650477
20
7.75298974137286
30
0
41
1
10
41.0804238805457
20
7.54295525319671
30
0
41
1
10
41.6146868415408
20
7.32097206075107
30
0
0
SPLINE
5
1F3
100
AcDbEntity
8
1
62
256
6
ByLayer
370
-1
48
1
60
0
100
AcDbSpline
70
4
71
3
72
26
73
22
40
0
40
0
40
0
40
0
40
0.105312790610637
40
0.105312790610637
40
0.210625581221274
40
0.210625581221274
40
0.31593837183191
40
0.31593837183191
40
0.421251162442547
40
0.421251162442547
40
0.526563953053184
40
0.526563953053184
40
0.63187674366382
40
0.63187674366382
40
0.737189534274457
40
0.737189534274457
40
0.842502324885094
40
0.842502324885094
40
0.947815115495731
40
0.947815115495731
40
1
40
1
40
1
40
1
41
1
10
41.6146868415434
20
2.94385342787547
30
0
41
1
10
41.4737280789058
20
2.77770933730804
30
0
41
1
10
41.3249581190061
20
2.58353716650393
30
0
41
1
10
41.0174873268186
20
2.14656514802928
30
0
41
1
10
40.8587940677726
20
1.90377606331492
30
0
41
1
10
40.5375629835539
20
1.37888017354629
30
0
41
1
10
40.3750330705495
20
1.09678629708066
30
0
41
1
10
40.0523624421676
20
0.504098802886631
30
0
41
1
10
39.8922296744153
20
0.193519783506105
30
0
41
1
10
39.5804954631397
20
-0.444226916107596
30
0
41
1
10
39.4289016978693
20
-0.771378888150139
30
0
41
1
10
39.1400604010876
20
-1.42972415822482
30
0
41
1
10
39.0028199839593
20
-1.76090124070768
30
0
41
1
10
38.747950046339
20
-2.41459439262701
30
0
41
1
10
38.6303268034894
20
-2.73709436109942
30
0
41
1
10
38.4192037056595
20
-3.36106313721996
30
0
41
1
10
38.3257090508032
20
-3.66251657603826
30
0
41
1
10
38.1664303729357
20
-4.23282879063905
30
0
41
1
10
38.1006502730806
20
-4.50167351919401
30
0
41
1
10
38.0248832323586
20
-4.87165198092362
30
0
41
1
10
38.0034913823208
20
-4.98896884792703
30
0
41
1
10
37.9858948657442
20
-5.10048902634563
30
0
0
SPLINE
5
1F4
100
AcDbEntity
8
1
62
256
6
ByLayer
370
-1
48
1
60
0
100
AcDbSpline
70
4
71
3
72
8
73
4
40
0
40
0
40
0
40
0
40
1
40
1
40
1
40
1
41
1
10
32.6146868415414
20
6.99709262908533
30
0
41
1
10
32.6146868415414
20
8.39176134078917
30
0
41
1
10
32.6146868415414
20
9.78643005249305
30
0
41
1
10
32.6146868415414
20
11.1810987641969
30
0
0
SPLINE
5
1F5
100
AcDbEntity
8
1
62
256
6
ByLayer
370
-1
48
1
60
0
100
AcDbSpline
70
4
71
3
72
8
73
4
40
0
40
0
40
0
40
0
40
1
40
1
40
1
40
1
41
1
10
109.571372561481
20
8.19342227400892
30
0
41
1
10
109.573112992177
20
8.19342227400892
30
0
41
1
10
109.575805913753
20
8.1944527456036
30
0
41
1
10
109.579437828237
20
8.1964835163875
30
0
0
SPLINE
5
1F6
100
AcDbEntity
8
1
62
256
6
ByLayer
370
-1
48
1
60
0
100
AcDbSpline
70
4
71
3
72
16
73
12
40
0
40
0
40
0
40
0
40
0.249999999999997
40
0.249999999999997
40
0.499999999999995
40
0.499999999999995
40
0.749999999999992
40
0.749999999999992
40
0.874999999999996
40
0.874999999999996
40
1
40
1
40
1
40
1
41
1
10
8.10566243270259
20
8.05584836782771
30
0
41
1
10
8.12110769698501
20
7.9984916943491
30
0
41
1
10
8.1395962827354
20
7.94218253951252
30
0
41
1
10
8.18485781079312
20
7.83248598676801
30
0
41
1
10
8.21171210490061
20
7.77870179643023
30
0
41
1
10
8.27812666032528
20
7.67767014498887
30
0
41
1
10
8.31777781748545
20
7.63015704912689
30
0
41
1
10
8.39058907041826
20
7.57464889660886
30
0
41
1
10
8.41770072232734
20
7.55854989603577
30
0
41
1
10
8.47563983861082
20
7.53610198950835
30
0
41
1
10
8.50697323176118
20
7.5296667942647
30
0
41
1
10
8.53867513459474
20
7.52966679426467
30
0
0
SPLINE
5
1F7
100
AcDbEntity
8
1
62
256
6
ByLayer
370
-1
48
1
60
0
100
AcDbSpline
70
4
71
3
72
9
73
5
40
0
40
0
40
0
40
0
40
0.834870297982539
40
1
40
1
40
1
40
1
41
1
10
99.2549818824457
20
8.02999999999983
30
0
41
1
10
98.6574906403304
20
7.97893111661333
30
0
41
1
10
97.9420518065159
20
7.91108735901346
30
0
41
1
10
97.2263971996204
20
7.83690175961976
30
0
41
1
10
97.1082159703076
20
7.82448069347248
30
0
0
SPLINE
5
1F8
100
AcDbEntity
8
1
62
256
6
ByLayer
370
-1
48
1
60
0
100
AcDbSpline
70
4
71
3
72
8
73
4
40
0
40
0
40
0
40
0
40
1
40
1
40
1
40
1
41
1
10
36.6693743695628
20
-4.01541174905347
30
0
41
1
10
36.6693743695628
20
-4.54056443191274
30
0
41
1
10
36.6693743695628
20
-5.06571711477201
30
0
41
1
10
36.6693743695628
20
-5.59086979763129
30
0
0
SPLINE
5
1F9
100
AcDbEntity
8
1
62
256
6
ByLayer
370
-1
48
1
60
0
100
AcDbSpline
70
4
71
3
72
14
73
10
40
0
40
0
40
0
40
0
40
0.25
40
0.25
40
0.5
40
0.5
40
0.75
40
0.75
40
1
40
1
40
1
40
1
41
1
10
118.720167670152
20
-6.41029971981945
30
0
41
1
10
118.707402803784
20
-6.42448380898765
30
0
41
1
10
118.692267397427
20
-6.43829520661009
30
0
41
1
10
118.659801695612
20
-6.46189689899501
30
0
41
1
10
118.642634546463
20
-6.4716117462246
30
0
41
1
10
118.610228352794
20
-6.48645695738634
30
0
41
1
10
118.594561569133
20
-6.49189716860917
30
0
41
1
10
118.565248286531
20
-6.50006615536296
30
0
41
1
10
118.551362235018
20
-6.50288036813299
30
0
41
1
10
118.537958312613
20
-6.50489981398803
30
0
0
SPLINE
5
1FA
100
AcDbEntity
8
1
62
256
6
ByLayer
370
-1
48
1
60
0
100
AcDbSpline
70
4
71
3
72
16
73
12
40
0
40
0
40
0
40
0
40
0.249999999999996
40
0.249999999999996
40
0.499999999999993
40
0.499999999999993
40
0.749999999999989
40
0.749999999999989
40
0.874999999999994
40
0.874999999999994
40
1
40
1
40
1
40
1
41
1
10
118.806270635947
20
-5.9788049826125
30
0
41
1
10
118.812060922935
20
-6.0085662826354
30
0
41
1
10
118.816375491881
20
-6.03934044818166
30
0
41
1
10
118.820723624783
20
-6.10364166142728
30
0
41
1
10
118.82079313294
20
-6.1371776467299
30
0
41
1
10
118.813933141134
20
-6.20760993792635
30
0
41
1
10
118.807171576247
20
-6.2448457259654
30
0
41
1
10
118.786305890406
20
-6.30450061066728
30
0
41
1
10
118.777521671268
20
-6.32504663889191
30
0
41
1
10
118.753918717318
20
-6.36747647723504
30
0
41
1
10
118.73950627388
20
-6.38881101272227
30
0
41
1
10
118.720167667845
20
-6.41029972238323
30
0
0
SPLINE
5
1FB
100
AcDbEntity
8
1
62
256
6
ByLayer
370
-1
48
1
60
0
100
AcDbSpline
70
4
71
3
72
8
73
4
40
0
40
0
40
0
40
0
40
1
40
1
40
1
40
1
41
1
10
118.31496615964
20
-0.634069410909746
30
0
41
1
10
118.312742801619
20
-0.591724343074162
30
0
41
1
10
118.311967356518
20
-0.551594432075717
30
0
41
1
10
118.312214441683
20
-0.514738619158805
30
0
0
SPLINE
5
1FC
100
AcDbEntity
8
1
62
256
6
ByLayer
370
-1
48
1
60
0
100
AcDbSpline
70
4
71
3
72
8
73
4
40
0
40
0
40
0
40
0
40
1
40
1
40
1
40
1
41
1
10
118.286669436903
20
-0.371338778863532
30
0
41
1
10
118.304638385822
20
-0.419844457712941
30
0
41
1
10
118.312516826544
20
-0.469634171565332
30
0
41
1
10
118.312214441683
20
-0.514738619158777
30
0
0
SPLINE
5
1FD
100
AcDbEntity
8
1
62
256
6
ByLayer
370
-1
48
1
60
0
100
AcDbSpline
70
4
71
3
72
12
73
8
40
0
40
0
40
0
40
0
40
0.25
40
0.25
40
0.5
40
0.5
40
1
40
1
40
1
40
1
41
1
10
118.66829414663
20
-3.42066121414817
30
0
41
1
10
118.683953540957
20
-3.44909372086997
30
0
41
1
10
118.697952441146
20
-3.47913263604514
30
0
41
1
10
118.7215409661
20
-3.54074303130048
30
0
41
1
10
118.731087465305
20
-3.57207464445582
30
0
41
1
10
118.753058535001
20
-3.66763251222025
30
0
41
1
10
118.758604967331
20
-3.73386567224696
30
0
41
1
10
118.75482545591
20
-3.79790907831679
30
0
0
SPLINE
5
1FE
100
AcDbEntity
8
1
62
256
6
ByLayer
370
-1
48
1
60
0
100
AcDbSpline
70
4
71
3
72
8
73
4
40
0
40
0
40
0
40
0
40
1
40
1
40
1
40
1
41
1
10
118.66829414663
20
-3.4206612141482
30
0
41
1
10
118.662726672487
20
-3.4105524422057
30
0
41
1
10
118.657351314492
20
-3.40039683418186
30
0
41
1
10
118.652170000912
20
-3.39019403450217
30
0
0
SPLINE
5
1FF
100
AcDbEntity
8
1
62
256
6
ByLayer
370
-1
48
1
60
0
100
AcDbSpline
70
4
71
3
72
12
73
8
40
0
40
0
40
0
40
0
40
0.25
40
0.25
40
0.500000000000001
40
0.500000000000001
40
1
40
1
40
1
40
1
41
1
10
118.286669436903
20
-0.371338778863532
30
0
41
1
10
118.275798178179
20
-0.341992722686541
30
0
41
1
10
118.265517256753
20
-0.312488083617751
30
0
41
1
10
118.247195530441
20
-0.256708485316949
30
0
41
1
10
118.239084392624
20
-0.230286840295264
30
0
41
1
10
118.21769829384
20
-0.156826366172822
30
0
41
1
10
118.206988529433
20
-0.114652998184397
30
0
41
1
10
118.197961291944
20
-0.0762804545457811
30
0
0
SPLINE
5
200
100
AcDbEntity
8
1
62
256
6
ByLayer
370
-1
48
1
60
0
100
AcDbSpline
70
4
71
3
72
14
73
10
40
0
40
0
40
0
40
0
40
0.25
40
0.25
40
0.5
40
0.5
40
0.75
40
0.75
40
1
40
1
40
1
40
1
41
1
10
117.843155512579
20
1.18521217152355
30
0
41
1
10
117.856867185642
20
1.17197312306598
30
0
41
1
10
117.870447791668
20
1.1566098251283
30
0
41
1
10
117.894214283756
20
1.12432514879529
30
0
41
1
10
117.904319167001
20
1.1075612082125
30
0
41
1
10
117.920283298645
20
1.07630460278526
30
0
41
1
10
117.926454686906
20
1.06138670698982
30
0
41
1
10
117.93621189928
20
1.03369812602025
30
0
41
1
10
117.939894093799
20
1.02069908850675
30
0
41
1
10
117.942827738427
20
1.00822889405319
30
0
0
SPLINE
5
201
100
AcDbEntity
8
1
62
256
6
ByLayer
370
-1
48
1
60
0
100
AcDbSpline
70
4
71
3
72
8
73
4
40
0
40
0
40
0
40
0
40
1
40
1
40
1
40
1
41
1
10
118.752627273567
20
-3.84473853013802
30
0
41
1
10
118.753182626557
20
-3.82886496352063
30
0
41
1
10
118.753920349713
20
-3.81324600344837
30
0
41
1
10
118.75482545591
20
-3.79790907831685
30
0
0
SPLINE
5
202
100
AcDbEntity
8
1
62
256
6
ByLayer
370
-1
48
1
60
0
100
AcDbSpline
70
4
71
3
72
10
73
6
40
0
40
0
40
0
40
0
40
0.380837242215823
40
0.380837242215823
40
1
40
1
40
1
40
1
41
1
10
117.745957134036
20
1.25468426416472
30
0
41
1
10
117.757688615902
20
1.24860661268991
30
0
41
1
10
117.769706495028
20
1.24170019742428
30
0
41
1
10
117.802064952446
20
1.22070959081302
30
0
41
1
10
117.822382509601
20
1.2052691548156
30
0
41
1
10
117.843155515057
20
1.18521216913058
30
0
0
SPLINE
5
203
100
AcDbEntity
8
1
62
256
6
ByLayer
370
-1
48
1
60
0
100
AcDbSpline
70
4
71
3
72
20
73
16
40
0
40
0
40
0
40
0
40
0.25
40
0.25
40
0.5
40
0.5
40
0.625000000000001
40
0.625000000000001
40
0.750000000000001
40
0.750000000000001
40
0.8125
40
0.8125
40
0.874999999999999
40
0.874999999999999
40
1
40
1
40
1
40
1
41
1
10
118.806270635947
20
-5.97880498261267
30
0
41
1
10
118.795521185487
20
-5.92355424618128
30
0
41
1
10
118.784900787703
20
-5.86693749072177
30
0
41
1
10
118.76413972129
20
-5.74892836045683
30
0
41
1
10
118.753990024883
20
-5.68769852213293
30
0
41
1
10
118.739559115512
20
-5.58868501033629
30
0
41
1
10
118.734892191754
20
-5.55451968460153
30
0
41
1
10
118.7260360671
20
-5.48232131401051
30
0
41
1
10
118.721838965183
20
-5.44431456557803
30
0
41
1
10
118.716312573219
20
-5.38287449572454
30
0
41
1
10
118.714597638491
20
-5.3616190207355
30
0
41
1
10
118.711547973609
20
-5.31679014838264
30
0
41
1
10
118.71020291865
20
-5.2930093057542
30
0
41
1
10
118.707177878421
20
-5.21822159433765
30
0
41
1
10
118.706540827382
20
-5.16202009066464
30
0
41
1
10
118.708540489531
20
-5.10486406396291
30
0
0
SPLINE
5
204
100
AcDbEntity
8
1
62
256
6
ByLayer
370
-1
48
1
60
0
100
AcDbSpline
70
4
71
3
72
20
73
16
40
0
40
0
40
0
40
0
40
0.0098199397469077
40
0.0174614009336011
40
0.0251028621202901
40
0.0403857844936708
40
0.0480272456803615
40
0.284912542467779
40
0.52943930044188
40
0.773966058415984
40
0.896229437403036
40
0.926795282149799
40
0.957361126896562
40
0.987926971643327
40
1
40
1
40
1
40
1
41
1
10
118.053681055597
20
12.4278067532247
30
0
41
1
10
118.051994868607
20
12.4279028506853
30
0
41
1
10
118.048969988949
20
12.428066738722
30
0
41
1
10
118.04452000762
20
12.428304494131
30
0
41
1
10
118.039021407236
20
12.42859567443
30
0
41
1
10
118.033444236916
20
12.4288884740341
30
0
41
1
10
117.986079773889
20
12.4313756303332
30
0
41
1
10
117.897738581629
20
12.4360250155328
30
0
41
1
10
117.767404442272
20
12.4428876709218
30
0
41
1
10
117.656931174856
20
12.4486827443795
30
0
41
1
10
117.58522747631
20
12.4524844455755
30
0
41
1
10
117.55213075105
20
12.4541921085613
30
0
41
1
10
117.535583991681
20
12.4550690819359
30
0
41
1
10
117.522377241428
20
12.4558136432769
30
0
41
1
10
117.514682676722
20
12.4562065010046
30
0
41
1
10
117.512503712039
20
12.4563126000484
30
0
0
SPLINE
5
205
100
AcDbEntity
8
1
62
256
6
ByLayer
370
-1
48
1
60
0
100
AcDbSpline
70
4
71
3
72
33
73
29
40
0
40
0
40
0
40
0
40
0.015625
40
0.0234375
40
0.02734375
40
0.03125
40
0.046875
40
0.0625
40
0.125
40
0.1875
40
0.21875
40
0.234375
40
0.25
40
0.3125
40
0.375
40
0.4375
40
0.5
40
0.5625
40
0.578125
40
0.59375
40
0.625
40
0.65625
40
0.6875
40
0.75
40
0.8125
40
0.84375
40
0.875
40
1
40
1
40
1
40
1
41
1
10
117.501832819303
20
8.07677442876317
30
0
41
1
10
117.507591286499
20
8.07697628700029
30
0
41
1
10
117.516597240233
20
8.07728718258204
30
0
41
1
10
117.526329971221
20
8.07761486766657
30
0
41
1
10
117.53145815098
20
8.07778482200791
30
0
41
1
10
117.539034908139
20
8.07803486857759
30
0
41
1
10
117.5505012218
20
8.07841370062897
30
0
41
1
10
117.58101060628
20
8.07942141130141
30
0
41
1
10
117.626772167335
20
8.08093289138836
30
0
41
1
10
117.677631204126
20
8.08261275286256
30
0
41
1
10
117.713206618536
20
8.08378777090101
30
0
41
1
10
117.733580169659
20
8.08446073795886
30
0
41
1
10
117.763845767067
20
8.0854602826237
30
0
41
1
10
117.811056119555
20
8.08703151750328
30
0
41
1
10
117.877342445521
20
8.0892615203351
30
0
41
1
10
117.945993438756
20
8.0915946332137
30
0
41
1
10
118.015993662916
20
8.09399601623775
30
0
41
1
10
118.068368535155
20
8.09580924401209
30
0
41
1
10
118.103495354059
20
8.0970316539744
30
0
41
1
10
118.126970534072
20
8.09784825034259
30
0
41
1
10
118.156325382192
20
8.098869547265
30
0
41
1
10
118.191584739937
20
8.10009570648751
30
0
41
1
10
118.238420461583
20
8.10172724464275
30
0
41
1
10
118.297094753253
20
8.1037825723545
30
0
41
1
10
118.355214197687
20
8.10583237686049
30
0
41
1
10
118.401117160765
20
8.1074596382449
30
0
41
1
10
118.469081954551
20
8.10987907181377
30
0
41
1
10
118.525838956212
20
8.11190001707774
30
0
41
1
10
118.571208655489
20
8.11351534810197
30
0
0
SPLINE
5
206
100
AcDbEntity
8
1
62
256
6
ByLayer
370
-1
48
1
60
0
100
AcDbSpline
70
4
71
3
72
12
73
8
40
0
40
0
40
0
40
0
40
0.14415260495132
40
0.620677764711235
40
0.858940344591192
40
0.978071634531144
40
1
40
1
40
1
40
1
41
1
10
109.731709730414
20
11.2754952631984
30
0
41
1
10
109.731547832023
20
11.2721448929595
30
0
41
1
10
109.730902444625
20
11.2577163759411
30
0
41
1
10
109.730488611076
20
11.2377223805889
30
0
41
1
10
109.730781365015
20
11.2183205127633
30
0
41
1
10
109.731025316431
20
11.2094974532972
30
0
41
1
10
109.73112537437
20
11.2062165921479
30
0
41
1
10
109.73114112373
20
11.2057065714997
30
0
0
SPLINE
5
207
100
AcDbEntity
8
1
62
256
6
ByLayer
370
-1
48
1
60
0
100
AcDbSpline
70
4
71
3
72
33
73
29
40
0
40
0
40
0
40
0
40
0.015625
40
0.0234375
40
0.02734375
40
0.03125
40
0.046875
40
0.0625
40
0.125
40
0.1875
40
0.21875
40
0.234375
40
0.25
40
0.3125
40
0.375
40
0.4375
40
0.5
40
0.5625
40
0.578125
40
0.59375
40
0.625
40
0.65625
40
0.6875
40
0.75
40
0.8125
40
0.84375
40
0.875
40
1
40
1
40
1
40
1
41
1
10
114.304697769057
20
4.63517049714855
30
0
41
1
10
114.304898859163
20
4.62939003354307
30
0
41
1
10
114.305345518967
20
4.62048714891964
30
0
41
1
10
114.306056722731
20
4.61110347584213
30
0
41
1
10
114.306505874394
20
4.60623662027686
30
0
41
1
10
114.30719857719
20
4.59907622337496
30
0
41
1
10
114.308235231929
20
4.58822789279998
30
0
41
1
10
114.311001244205
20
4.55937083474808
30
0
41
1
10
114.315150112471
20
4.51608770814573
30
0
41
1
10
114.319760733516
20
4.46798276949073
30
0
41
1
10
114.322986621738
20
4.43433465532954
30
0
41
1
10
114.3248326569
20
4.41506340020953
30
0
41
1
10
114.327579701186
20
4.38644018602014
30
0
41
1
10
114.331532246371
20
4.34144590604109
30
0
41
1
10
114.336424165913
20
4.27758698012713
30
0
41
1
10
114.34084202085
20
4.21077536879838
30
0
41
1
10
114.344729555263
20
4.14200875629263
30
0
41
1
10
114.347184292277
20
4.09008470648644
30
0
41
1
10
114.348656833719
20
4.05507946519015
30
0
41
1
10
114.349650226447
20
4.03169520476061
30
0
41
1
10
114.350887658105
20
4.0024490874136
30
0
41
1
10
114.352389517173
20
3.96733648135304
30
0
41
1
10
114.354307216667
20
3.92061534149846
30
0
41
1
10
114.35639609819
20
3.86175845656521
30
0
41
1
10
114.358082192345
20
3.8030597355513
30
0
41
1
10
114.359184877431
20
3.7564610663899
30
0
41
1
10
114.360540030313
20
3.68717755391046
30
0
41
1
10
114.361658208056
20
3.62930525346033
30
0
41
1
10
114.362556085148
20
3.58304822511539
30
0
0
SPLINE
5
208
100
AcDbEntity
8
1
62
256
6
ByLayer
370
-1
48
1
60
0
100
AcDbSpline
70
4
71
3
72
20
73
16
40
0
40
0
40
0
40
0
40
0.0120730283552323
40
0.0426388731029935
40
0.0579217954768741
40
0.0732047178507547
40
0.103770562598516
40
0.164902252094038
40
0.226033941589561
40
0.47056069957165
40
0.95961421553583
40
0.97489713790971
40
0.990180060283591
40
0.997821521470531
40
1
40
1
40
1
40
1
41
1
10
110.603669297681
20
12.2141292050728
30
0
41
1
10
110.601503013779
20
12.2138707869849
30
0
41
1
10
110.593854492734
20
12.2129400902566
30
0
41
1
10
110.583471304117
20
12.2116206954251
30
0
41
1
10
110.572508898539
20
12.2102558223929
30
0
41
1
10
110.561544690279
20
12.2089039914535
30
0
41
1
10
110.542354519255
20
12.2065583888985
30
0
41
1
10
110.51494297313
20
12.2031841960443
30
0
41
1
10
110.449143713982
20
12.195053039015
30
0
41
1
10
110.306401823172
20
12.17748143424
30
0
41
1
10
110.173209481753
20
12.1610453046286
30
0
41
1
10
110.078974441401
20
12.1494408296058
30
0
41
1
10
110.072175837677
20
12.1485994211465
30
0
41
1
10
110.067841580023
20
12.1480587300573
30
0
41
1
10
110.06616281062
20
12.1478454325291
30
0
41
1
10
110.065791135586
20
12.1477979726569
30
0
0
SPLINE
5
209
100
AcDbEntity
8
1
62
256
6
ByLayer
370
-1
48
1
60
0
100
AcDbSpline
70
4
71
1
72
4
73
2
40
0
40
0
40
1
40
1
41
1
10
114.05798132769
20
12.3382442875376
30
0
41
1
10
117.442979994563
20
12.4569025763261
30
0
0
SPLINE
5
20A
100
AcDbEntity
8
1
62
256
6
ByLayer
370
-1
48
1
60
0
100
AcDbSpline
70
4
71
3
72
39
73
35
40
0
40
0
40
0
40
0
40
0.0060880048235977
40
0.0231194529331308
40
0.0316351769878974
40
0.0571823491521971
40
0.0912452453712634
40
0.12530814159033
40
0.150855313754629
40
0.159371037809396
40
0.176402485918929
40
0.193433934028462
40
0.210465382137996
40
0.227496830247529
40
0.295622622685661
40
0.363748415123794
40
0.431874207561927
40
0.500000000000059
40
0.56812579243819
40
0.636251584876324
40
0.704377377314457
40
0.772503169752589
40
0.789534617862123
40
0.806566065971656
40
0.823597514081189
40
0.840628962190722
40
0.849144686245491
40
0.87469185840979
40
0.908754754628855
40
0.942817650847919
40
0.976880547066987
40
0.985396271121752
40
0.993911995176517
40
1
40
1
40
1
40
1
41
1
10
118.354746277268
20
3.7734945399981
30
0
41
1
10
118.355678328802
20
3.7736135553815
30
0
41
1
10
118.359199991384
20
3.77406889919178
30
0
41
1
10
118.363949977283
20
3.77472618521375
30
0
41
1
10
118.371618127811
20
3.77593208353497
30
0
41
1
10
118.381839329356
20
3.77779573167686
30
0
41
1
10
118.395910907624
20
3.78096821370471
30
0
41
1
10
118.410039952521
20
3.78482939766977
30
0
41
1
10
118.420315147918
20
3.78808281153988
30
0
41
1
10
118.428009434715
20
3.79071596114963
30
0
41
1
10
118.434411291207
20
3.79303140301397
30
0
41
1
10
118.442069502474
20
3.79600527734667
30
0
41
1
10
118.44969575937
20
3.79917599903379
30
0
41
1
10
118.464868488723
20
3.80591414363457
30
0
41
1
10
118.487268857249
20
3.81752026457698
30
0
41
1
10
118.515905906614
20
3.83607516748887
30
0
41
1
10
118.542848019716
20
3.85759255842328
30
0
41
1
10
118.567677762806
20
3.88177523910701
30
0
41
1
10
118.589977702135
20
3.90832601126687
30
0
41
1
10
118.609481610268
20
3.93680613585232
30
0
41
1
10
118.625923259775
20
3.96677687381302
30
0
41
1
10
118.63589448086
20
3.99001763557248
30
0
41
1
10
118.641532237367
20
4.00568125030654
30
0
41
1
10
118.644151218384
20
4.01353916848856
30
0
41
1
10
118.646572349772
20
4.02141535358845
30
0
41
1
10
118.64842679091
20
4.02798752702225
30
0
41
1
10
118.650506804464
20
4.0358760694854
30
0
41
1
10
118.653023181719
20
4.04639233566942
30
0
41
1
10
118.655874710505
20
4.06081014468671
30
0
41
1
10
118.658243213229
20
4.07642347775362
30
0
41
1
10
118.65945392372
20
4.0880773744407
30
0
41
1
10
118.660021630241
20
4.0958358818861
30
0
41
1
10
118.66024639385
20
4.09936343222876
30
0
41
1
10
118.660377051901
20
4.10161106155329
30
0
41
1
10
118.660430308954
20
4.10255269636227
30
0
0
SPLINE
5
20B
100
AcDbEntity
8
1
62
256
6
ByLayer
370
-1
48
1
60
0
100
AcDbSpline
70
4
71
3
72
12
73
8
40
0
40
0
40
0
40
0
40
0.144152604951309
40
0.62067776471132
40
0.858940344591326
40
0.978071634531302
40
1
40
1
40
1
40
1
41
1
10
117.51250371204
20
12.4563126000483
30
0
41
1
10
117.509166090971
20
12.4564751168649
30
0
41
1
10
117.494792478816
20
12.457122969538
30
0
41
1
10
117.474874566652
20
12.4575383838637
30
0
41
1
10
117.455546528791
20
12.4572445116524
30
0
41
1
10
117.44675704373
20
12.4569996283818
30
0
41
1
10
117.443488667248
20
12.4568991882375
30
0
41
1
10
117.442980587383
20
12.456883378717
30
0
0
SPLINE
5
20C
100
AcDbEntity
8
1
62
256
6
ByLayer
370
-1
48
1
60
0
100
AcDbSpline
70
4
71
3
72
20
73
16
40
0
40
0
40
0
40
0
40
0.0120730283552426
40
0.0426388731030036
40
0.057921795476884
40
0.0732047178507645
40
0.103770562598525
40
0.164902252094047
40
0.226033941589569
40
0.470560699571657
40
0.959614215535832
40
0.974897137909712
40
0.990180060283593
40
0.997821521470533
40
1
40
1
40
1
40
1
41
1
10
109.972971544454
20
4.34027022376341
30
0
41
1
10
109.973228979184
20
4.33809566500841
30
0
41
1
10
109.97415613433
20
4.33041792785545
30
0
41
1
10
109.975470508466
20
4.3199950771448
30
0
41
1
10
109.976830187744
20
4.30899079695817
30
0
41
1
10
109.978176874558
20
4.29798470720405
30
0
41
1
10
109.980513551388
20
4.27872123284396
30
0
41
1
10
109.983874904419
20
4.2512049790667
30
0
41
1
10
109.991975119941
20
4.18515437743824
30
0
41
1
10
110.009479859455
20
4.04186723579423
30
0
41
1
10
110.025853444631
20
3.90816612126906
30
0
41
1
10
110.037413761123
20
3.81357111837247
30
0
41
1
10
110.038251967769
20
3.80674654508681
30
0
41
1
10
110.038790601365
20
3.80239573127219
30
0
41
1
10
110.039003087232
20
3.80071054924272
30
0
41
1
10
110.039050366505
20
3.80033745447037
30
0
0
SPLINE
5
20D
100
AcDbEntity
8
1
62
256
6
ByLayer
370
-1
48
1
60
0
100
AcDbSpline
70
4
71
1
72
4
73
2
40
0
40
0
40
1
40
1
41
1
10
118.571208655489
20
8.11351534810197
30
0
41
1
10
118.689415413664
20
4.71558653623705
30
0
0
SPLINE
5
20E
100
AcDbEntity
8
1
62
256
6
ByLayer
370
-1
48
1
60
0
100
AcDbSpline
70
4
71
1
72
4
73
2
40
0
40
0
40
1
40
1
41
1
10
109.967535515525
20
4.40984835268611
30
0
41
1
10
109.84932875735
20
7.80777716455106
30
0
0
SPLINE
5
20F
100
AcDbEntity
8
1
62
256
6
ByLayer
370
-1
48
1
60
0
100
AcDbSpline
70
4
71
3
72
20
73
16
40
0
40
0
40
0
40
0
40
0.0098199397469131
40
0.0174614009336066
40
0.0251028621202958
40
0.0403857844936767
40
0.0480272456803676
40
0.284912542467789
40
0.529439300441894
40
0.773966058416003
40
0.896229437403058
40
0.926795282149821
40
0.957361126896585
40
0.98792697164335
40
1
40
1
40
1
40
1
41
1
10
118.660430308954
20
4.10255269636224
30
0
41
1
10
118.660526040735
20
4.10424532431296
30
0
41
1
10
118.660689305128
20
4.10728175852032
30
0
41
1
10
118.660926155806
20
4.11174873805462
30
0
41
1
10
118.661216228076
20
4.11726834219894
30
0
41
1
10
118.661507913489
20
4.12286681640373
30
0
41
1
10
118.663985605408
20
4.1704122039846
30
0
41
1
10
118.668617298293
20
4.25909084524696
30
0
41
1
10
118.675453839206
20
4.38992283984277
30
0
41
1
10
118.68122686066
20
4.50081809719328
30
0
41
1
10
118.685014095235
20
4.57279569221944
30
0
41
1
10
118.686715260048
20
4.60601884159277
30
0
41
1
10
118.687588896274
20
4.62262880689468
30
0
41
1
10
118.688330624334
20
4.63588600478818
30
0
41
1
10
118.688721987119
20
4.64360996148153
30
0
41
1
10
118.688827682424
20
4.64579724945557
30
0
0
SPLINE
5
210
100
AcDbEntity
8
1
62
256
6
ByLayer
370
-1
48
1
60
0
100
AcDbSpline
70
4
71
3
72
12
73
8
40
0
40
0
40
0
40
0
40
0.0219283654687818
40
0.141059655408761
40
0.37932223528872
40
0.855847395048638
40
1
40
1
40
1
40
1
41
1
10
118.45298277799
20
11.5114434144435
30
0
41
1
10
118.452963047126
20
11.5119532955234
30
0
41
1
10
118.452834870911
20
11.5152331710102
30
0
41
1
10
118.452465104589
20
11.5240518201403
30
0
41
1
10
118.451408889629
20
11.5434269254802
30
0
41
1
10
118.449606660841
20
11.5633432386261
30
0
41
1
10
118.447960193075
20
11.5776914165842
30
0
41
1
10
118.447565868384
20
11.5810222888896
30
0
0
SPLINE
5
211
100
AcDbEntity
8
1
62
256
6
ByLayer
370
-1
48
1
60
0
100
AcDbSpline
70
4
71
1
72
4
73
2
40
0
40
0
40
1
40
1
41
1
10
109.84932875735
20
7.80777716455106
30
0
41
1
10
109.731121999174
20
11.205705976416
30
0
0
SPLINE
5
212
100
AcDbEntity
8
1
62
256
6
ByLayer
370
-1
48
1
60
0
100
AcDbSpline
70
4
71
3
72
12
73
8
40
0
40
0
40
0
40
0
40
0.144152604951449
40
0.620677764711254
40
0.858940344591157
40
0.978071634531081
40
1
40
1
40
1
40
1
41
1
10
110.908033700799
20
3.46497991260472
30
0
41
1
10
110.911371321867
20
3.46481739578809
30
0
41
1
10
110.925744934022
20
3.46416954311502
30
0
41
1
10
110.945662846186
20
3.46375412878933
30
0
41
1
10
110.964990884047
20
3.46404800100058
30
0
41
1
10
110.973780369108
20
3.46429288427123
30
0
41
1
10
110.97704874559
20
3.46439332441551
30
0
41
1
10
110.977556825456
20
3.46440913393607
30
0
0
SPLINE
5
213
100
AcDbEntity
8
1
62
256
6
ByLayer
370
-1
48
1
60
0
100
AcDbSpline
70
4
71
3
72
20
73
16
40
0
40
0
40
0
40
0
40
0.0120730283552378
40
0.0426388731029999
40
0.0579217954768809
40
0.0732047178507619
40
0.103770562598524
40
0.164902252094048
40
0.226033941589572
40
0.470560699571668
40
0.95961421553586
40
0.974897137909741
40
0.990180060283622
40
0.997821521470562
40
1
40
1
40
1
40
1
41
1
10
117.816868115157
20
3.70716330758023
30
0
41
1
10
117.819034399059
20
3.70742172566813
30
0
41
1
10
117.826682920104
20
3.70835242239642
30
0
41
1
10
117.837066108721
20
3.7096718172279
30
0
41
1
10
117.8480285143
20
3.71103669026016
30
0
41
1
10
117.858992722559
20
3.71238852119947
30
0
41
1
10
117.878182893584
20
3.71473412375451
30
0
41
1
10
117.905594439708
20
3.71810831660875
30
0
41
1
10
117.971393698856
20
3.72623947363806
30
0
41
1
10
118.114135589667
20
3.74381107841307
30
0
41
1
10
118.247327931085
20
3.76024720802442
30
0
41
1
10
118.341562971437
20
3.77185168304723
30
0
41
1
10
118.348361575161
20
3.77269309150651
30
0
41
1
10
118.352695832815
20
3.77323378259573
30
0
41
1
10
118.354374602218
20
3.77344708012387
30
0
41
1
10
118.354746277253
20
3.77349453999611
30
0
0
SPLINE
5
214
100
AcDbEntity
8
1
62
256
6
ByLayer
370
-1
48
1
60
0
100
AcDbSpline
70
4
71
3
72
87
73
83
40
0
40
0
40
0
40
0
40
0.125
40
0.25
40
0.375
40
0.390625
40
0.39453125
40
0.396484375
40
0.3984375
40
0.3994140625
40
0.400390625
40
0.40234375
40
0.40625
40
0.408203125
40
0.41015625
40
0.412109375
40
0.4140625
40
0.421875
40
0.4375
40
0.453125
40
0.46826171875
40
0.46875
40
0.4697265625
40
0.47021484375
40
0.470703125
40
0.4716796875
40
0.47216796875
40
0.47265625
40
0.474609375
40
0.4765625
40
0.478515625
40
0.47998046875
40
0.48046875
40
0.4814453125
40
0.482421875
40
0.4833984375
40
0.484375
40
0.48828125
40
0.4921875
40
0.49609375
40
0.5
40
0.50390625
40
0.5078125
40
0.51171875
40
0.515625
40
0.5166015625
40
0.517578125
40
0.5185546875
40
0.51953125
40
0.52001953125
40
0.521484375
40
0.5234375
40
0.525390625
40
0.52685546875
40
0.52734375
40
0.5283203125
40
0.52880859375
40
0.529296875
40
0.5302734375
40
0.53125
40
0.5625
40
0.578125
40
0.58203125
40
0.5859375
40
0.587890625
40
0.5888671875
40
0.58984375
40
0.591796875
40
0.59375
40
0.59765625
40
0.599609375
40
0.6005859375
40
0.6015625
40
0.603515625
40
0.60546875
40
0.609375
40
0.6171875
40
0.625
40
0.6875
40
0.75
40
0.875
40
1
40
1
40
1
40
1
41
1
10
114.304697769057
20
4.63517049714855
30
0
41
1
10
114.031300012976
20
4.6255867681466
30
0
41
1
10
113.484504500813
20
4.60641931014274
30
0
41
1
10
112.66430422544
20
4.57765950565067
30
0
41
1
10
112.083357818002
20
4.55732338097471
30
0
41
1
10
111.767218861213
20
4.54621415286215
30
0
41
1
10
111.720225729213
20
4.54456339198029
30
0
41
1
10
111.703137405448
20
4.54396322336132
30
0
41
1
10
111.692457246725
20
4.54358817163205
30
0
41
1
10
111.683913150135
20
4.54328816762137
30
0
41
1
10
111.675369075209
20
4.54298819025195
30
0
41
1
10
111.660417004636
20
4.54246330431954
30
0
41
1
10
111.643329079222
20
4.54186362559912
30
0
41
1
10
111.626241342731
20
4.54126417922083
30
0
41
1
10
111.613425643246
20
4.54081472096462
30
0
41
1
10
111.600610055066
20
4.54036539959228
30
0
41
1
10
111.574979118156
20
4.53946705132816
30
0
41
1
10
111.51944680977
20
4.5375223373866
30
0
41
1
10
111.434018962408
20
4.53453843067538
30
0
41
1
10
111.332587909634
20
4.53101289344266
30
0
41
1
10
111.264231876253
20
4.52860885133379
30
0
41
1
10
111.227902714305
20
4.52731323307736
30
0
41
1
10
111.223628526515
20
4.52716059988416
30
0
41
1
10
111.219354405032
20
4.5270080482359
30
0
41
1
10
111.215080406101
20
4.52685564730459
30
0
41
1
10
111.210806708521
20
4.52670361697912
30
0
41
1
10
111.206533547334
20
4.52655224632042
30
0
41
1
10
111.200124459471
20
4.52632599452966
30
0
41
1
10
111.190513720568
20
4.52599017457243
30
0
41
1
10
111.177709334236
20
4.52555462942584
30
0
41
1
10
111.16598453193
20
4.52517081616506
30
0
41
1
10
111.157435838518
20
4.52486515890365
30
0
41
1
10
111.151005577694
20
4.5246128682422
30
0
41
1
10
111.1456333351
20
4.52438578748269
30
0
41
1
10
111.139380412218
20
4.52418931505045
30
0
41
1
10
111.13353693285
20
4.52417183324326
30
0
41
1
10
111.121844490772
20
4.52458199347797
30
0
41
1
10
111.103373936953
20
4.52709236193598
30
0
41
1
10
111.078708161439
20
4.53479573984677
30
0
41
1
10
111.055006351213
20
4.54721976846204
30
0
41
1
10
111.033513492668
20
4.56386314412785
30
0
41
1
10
111.015474572199
20
4.58422456319019
30
0
41
1
10
111.001474615205
20
4.60709229709312
30
0
41
1
10
110.992098647086
20
4.63125461728075
30
0
41
1
10
110.988315482497
20
4.64957544595535
30
0
41
1
10
110.987092254844
20
4.66125534893195
30
0
41
1
10
110.98670200719
20
4.66710808011612
30
0
41
1
10
110.986461073359
20
4.67338330338228
30
0
41
1
10
110.986311990256
20
4.67877877092184
30
0
41
1
10
110.986114156326
20
4.68523546957979
30
0
41
1
10
110.985821582029
20
4.69381723545158
30
0
41
1
10
110.985385122508
20
4.70558492793009
30
0
41
1
10
110.984963127673
20
4.71736626628584
30
0
41
1
10
110.984662899078
20
4.72594081114886
30
0
41
1
10
110.9844397765
20
4.73237365268355
30
0
41
1
10
110.984291917117
20
4.73666305238501
30
0
41
1
10
110.984144675873
20
4.74095303523401
30
0
41
1
10
110.983997756433
20
4.74524332167113
30
0
41
1
10
110.983814541228
20
4.75060658923849
30
0
41
1
10
110.981324546426
20
4.82354866210352
30
0
41
1
10
110.977631214755
20
4.92857218449126
30
0
41
1
10
110.973739230121
20
5.04005163286735
30
0
41
1
10
110.971946659385
20
5.09150720469063
30
0
41
1
10
110.97120031186
20
5.11294755170417
30
0
41
1
10
110.970678127025
20
5.12795603841658
30
0
41
1
10
110.970379804676
20
5.1365323816184
30
0
41
1
10
110.970081526699
20
5.14510876668135
30
0
41
1
10
110.969708759396
20
5.15582932363864
30
0
41
1
10
110.969112489793
20
5.17298236390457
30
0
41
1
10
110.968516437906
20
5.19013560956171
30
0
41
1
10
110.96799504904
20
5.20514484718621
30
0
41
1
10
110.967697152418
20
5.21372159201536
30
0
41
1
10
110.96739928076
20
5.22229836039546
30
0
41
1
10
110.967026984962
20
5.2330193621676
30
0
41
1
10
110.966431392132
20
5.25017304089658
30
0
41
1
10
110.96538928189
20
5.28019214585007
30
0
41
1
10
110.963900865196
20
5.32307687604671
30
0
41
1
10
110.957946793329
20
5.49461541467466
30
0
41
1
10
110.947805934584
20
5.78621306572083
30
0
41
1
10
110.928693380401
20
6.33508023463247
30
0
41
1
10
110.90483195951
20
7.02119181060644
30
0
41
1
10
110.885737439471
20
7.57007599279538
30
0
41
1
10
110.876190179451
20
7.84451808388985
30
0
0
SPLINE
5
215
100
AcDbEntity
8
1
62
256
6
ByLayer
370
-1
48
1
60
0
100
AcDbSpline
70
4
71
3
72
12
73
8
40
0
40
0
40
0
40
0
40
0.0219283654687986
40
0.141059655408796
40
0.37932223528879
40
0.855847395048779
40
1
40
1
40
1
40
1
41
1
10
117.747554009335
20
3.70172570625962
30
0
41
1
10
117.748061950163
20
3.70174551249221
30
0
41
1
10
117.751329344733
20
3.70187417831971
30
0
41
1
10
117.760114436241
20
3.70224535708837
30
0
41
1
10
117.779415813456
20
3.70330560661861
30
0
41
1
10
117.799256339017
20
3.70511471962772
30
0
41
1
10
117.813549917826
20
3.70676747663282
30
0
41
1
10
117.816868115157
20
3.70716330758023
30
0
0
SPLINE
5
216
100
AcDbEntity
8
1
62
256
6
ByLayer
370
-1
48
1
60
0
100
AcDbSpline
70
4
71
3
72
20
73
16
40
0
40
0
40
0
40
0
40
0.0098199397469346
40
0.017461400933628
40
0.025102862120317
40
0.0403857844936976
40
0.0480272456803884
40
0.284912542467805
40
0.529439300441906
40
0.77396605841601
40
0.896229437403062
40
0.926795282149825
40
0.957361126896588
40
0.987926971643352
40
1
40
1
40
1
40
1
41
1
10
110.366856357241
20
3.49348575942832
30
0
41
1
10
110.368542544231
20
3.49338966196777
30
0
41
1
10
110.37156742389
20
3.49322577393104
30
0
41
1
10
110.376017405218
20
3.49298801852206
30
0
41
1
10
110.381516005602
20
3.492696838223
30
0
41
1
10
110.387093175923
20
3.49240403861896
30
0
41
1
10
110.434457638949
20
3.48991688231979
30
0
41
1
10
110.522798831209
20
3.48526749712025
30
0
41
1
10
110.653132970566
20
3.47840484173119
30
0
41
1
10
110.763606237982
20
3.47260976827354
30
0
41
1
10
110.835309936529
20
3.4688080670775
30
0
41
1
10
110.868406661788
20
3.46710040409175
30
0
41
1
10
110.884953421157
20
3.46622343071709
30
0
41
1
10
110.89816017141
20
3.46547886937614
30
0
41
1
10
110.905854736117
20
3.4650860116484
30
0
41
1
10
110.9080337008
20
3.46497991260466
30
0
0
SPLINE
5
217
100
AcDbEntity
8
1
62
256
6
ByLayer
370
-1
48
1
60
0
100
AcDbSpline
70
4
71
1
72
4
73
2
40
0
40
0
40
1
40
1
41
1
10
110.672982660817
20
12.2195859987491
30
0
41
1
10
114.05798132769
20
12.3382442875376
30
0
0
SPLINE
5
218
100
AcDbEntity
8
1
62
256
6
ByLayer
370
-1
48
1
60
0
100
AcDbSpline
70
4
71
3
72
87
73
83
40
0
40
0
40
0
40
0
40
0.125
40
0.25
40
0.375
40
0.390625
40
0.39453125
40
0.396484375
40
0.3984375
40
0.3994140625
40
0.400390625
40
0.40234375
40
0.40625
40
0.408203125
40
0.41015625
40
0.412109375
40
0.4140625
40
0.421875
40
0.4375
40
0.453125
40
0.46826171875
40
0.46875
40
0.4697265625
40
0.47021484375
40
0.470703125
40
0.4716796875
40
0.47216796875
40
0.47265625
40
0.474609375
40
0.4765625
40
0.478515625
40
0.47998046875
40
0.48046875
40
0.4814453125
40
0.482421875
40
0.4833984375
40
0.484375
40
0.48828125
40
0.4921875
40
0.49609375
40
0.5
40
0.50390625
40
0.5078125
40
0.51171875
40
0.515625
40
0.5166015625
40
0.517578125
40
0.5185546875
40
0.51953125
40
0.52001953125
40
0.521484375
40
0.5234375
40
0.525390625
40
0.52685546875
40
0.52734375
40
0.5283203125
40
0.52880859375
40
0.529296875
40
0.5302734375
40
0.53125
40
0.5625
40
0.578125
40
0.58203125
40
0.5859375
40
0.587890625
40
0.5888671875
40
0.58984375
40
0.591796875
40
0.59375
40
0.59765625
40
0.599609375
40
0.6005859375
40
0.6015625
40
0.603515625
40
0.60546875
40
0.609375
40
0.6171875
40
0.625
40
0.6875
40
0.75
40
0.875
40
1
40
1
40
1
40
1
41
1
10
117.501832819303
20
8.07677442876317
30
0
41
1
10
117.511380079322
20
7.8023323376687
30
0
41
1
10
117.530474599362
20
7.25344815547976
30
0
41
1
10
117.559124964115
20
6.43011484830222
30
0
41
1
10
117.579383703697
20
5.84694931996648
30
0
41
1
10
117.590450657842
20
5.52960276372144
30
0
41
1
10
117.592095137081
20
5.48243012559138
30
0
41
1
10
117.592693021877
20
5.46527652720536
30
0
41
1
10
117.593066646421
20
5.45455557201129
30
0
41
1
10
117.593365508826
20
5.44597883836099
30
0
41
1
10
117.593664344691
20
5.43740212645619
30
0
41
1
10
117.594187233274
20
5.42239294140302
30
0
41
1
10
117.594784630036
20
5.40523974288934
30
0
41
1
10
117.595381795339
20
5.38808673402144
30
0
41
1
10
117.595829543271
20
5.37522208064672
30
0
41
1
10
117.59627715484
20
5.36235753900141
30
0
41
1
10
117.597172084618
20
5.3366286960761
30
0
41
1
10
117.599109398336
20
5.2808842632939
30
0
41
1
10
117.602081950381
20
5.19513009543337
30
0
41
1
10
117.60559407188
20
5.09331159251599
30
0
41
1
10
117.607988965883
20
5.02469445019187
30
0
41
1
10
117.609279653921
20
4.98822651674794
30
0
41
1
10
117.609431706299
20
4.98393600225509
30
0
41
1
10
117.609583677442
20
4.97964555432208
30
0
41
1
10
117.609735498442
20
4.97535522940947
30
0
41
1
10
117.609886950246
20
4.97106520699839
30
0
41
1
10
117.610037744893
20
4.96677572303045
30
0
41
1
10
117.610263135728
20
4.96034215349246
30
0
41
1
10
117.610597677789
20
4.95069470312848
30
0
41
1
10
117.611031565555
20
4.93784140612121
30
0
41
1
10
117.61141391829
20
4.92607181697471
30
0
41
1
10
117.611718412433
20
4.91749046894316
30
0
41
1
10
117.611969743053
20
4.91103564556678
30
0
41
1
10
117.612195959701
20
4.90564288187895
30
0
41
1
10
117.612391684497
20
4.89936607384797
30
0
41
1
10
117.61240909978
20
4.89350027333779
30
0
41
1
10
117.612000500329
20
4.88176316803091
30
0
41
1
10
117.609499684581
20
4.86322205969685
30
0
41
1
10
117.601825620349
20
4.83846206492743
30
0
41
1
10
117.589448868913
20
4.81466971763641
30
0
41
1
10
117.572868826317
20
4.79309475986364
30
0
41
1
10
117.552584888601
20
4.77498693364905
30
0
41
1
10
117.52980417333
20
4.76093349909394
30
0
41
1
10
117.505733798065
20
4.75152171629952
30
0
41
1
10
117.487482685675
20
4.74772410063622
30
0
41
1
10
117.475847228255
20
4.74649620045307
30
0
41
1
10
117.47001676848
20
4.74610446211619
30
0
41
1
10
117.463765424333
20
4.74586260795681
30
0
41
1
10
117.458390488177
20
4.74571295538041
30
0
41
1
10
117.451958359206
20
4.74551436575714
30
0
41
1
10
117.443409249545
20
4.74522067387414
30
0
41
1
10
117.431686336689
20
4.74478254714884
30
0
41
1
10
117.419949829882
20
4.74435894036202
30
0
41
1
10
117.411407913751
20
4.74405756494201
30
0
41
1
10
117.404999551121
20
4.74383359007192
30
0
41
1
10
117.40072647388
20
4.74368516589016
30
0
41
1
10
117.396452815711
20
4.7435373622084
30
0
41
1
10
117.392178855109
20
4.74338988156049
30
0
41
1
10
117.386835996394
20
4.74320596650267
30
0
41
1
10
117.314171490138
20
4.74070646032507
30
0
41
1
10
117.20954761396
20
4.73699902072715
30
0
41
1
10
117.098492378542
20
4.73309216934447
30
0
41
1
10
117.047232610704
20
4.73129275127994
30
0
41
1
10
117.025873850684
20
4.73054355282838
30
0
41
1
10
117.010922475795
20
4.73001937333157
30
0
41
1
10
117.002378768168
20
4.72971991143959
30
0
41
1
10
116.99383501884
20
4.72942049409005
30
0
41
1
10
116.983155256838
20
4.72904630287601
30
0
41
1
10
116.966067489069
20
4.72844775562032
30
0
41
1
10
116.948979516691
20
4.72784942691177
30
0
41
1
10
116.934027393747
20
4.72732604642533
30
0
41
1
10
116.925483286021
20
4.72702701188618
30
0
41
1
10
116.916939154834
20
4.72672800240647
30
0
41
1
10
116.90625894971
20
4.72635428449908
30
0
41
1
10
116.889170545908
20
4.725756416602
30
0
41
1
10
116.859265672712
20
4.72471032566813
30
0
41
1
10
116.816544131861
20
4.72321622346391
30
0
41
1
10
116.645658349161
20
4.71723940800996
30
0
41
1
10
116.355170315213
20
4.70705981283186
30
0
41
1
10
115.808391751586
20
4.68787425179693
30
0
41
1
10
115.124891037302
20
4.66392168415439
30
0
41
1
10
114.578095525139
20
4.6447542261505
30
0
41
1
10
114.304697769057
20
4.63517049714855
30
0
0
SPLINE
5
219
100
AcDbEntity
8
1
62
256
6
ByLayer
370
-1
48
1
60
0
100
AcDbSpline
70
4
71
3
72
39
73
35
40
0
40
0
40
0
40
0
40
0.0060880048235994
40
0.023119452933132
40
0.0316351769878983
40
0.0571823491521971
40
0.0912452453712623
40
0.125308141590327
40
0.150855313754626
40
0.159371037809393
40
0.176402485918925
40
0.193433934028458
40
0.21046538213799
40
0.227496830247523
40
0.295622622685653
40
0.363748415123783
40
0.431874207561914
40
0.500000000000045
40
0.568125792438172
40
0.636251584876306
40
0.704377377314436
40
0.772503169752566
40
0.789534617862099
40
0.806566065971631
40
0.823597514081164
40
0.840628962190696
40
0.849144686245463
40
0.874691858409762
40
0.908754754628827
40
0.942817650847888
40
0.976880547066957
40
0.98539627112172
40
0.993911995176486
40
1
40
1
40
1
40
1
41
1
10
118.381487046331
20
12.1209550581984
30
0
41
1
10
118.381368483837
20
12.1218906700173
30
0
41
1
10
118.380914872748
20
12.1254257847785
30
0
41
1
10
118.380260087897
20
12.1301939148522
30
0
41
1
10
118.379058778383
20
12.137891356469
30
0
41
1
10
118.377202221985
20
12.1481516013438
30
0
41
1
10
118.374041812209
20
12.162276930755
30
0
41
1
10
118.370195321215
20
12.1764599463075
30
0
41
1
10
118.366954287567
20
12.1867743912819
30
0
41
1
10
118.364331157886
20
12.1944980690042
30
0
41
1
10
118.362024526978
20
12.2009243795478
30
0
41
1
10
118.359061969134
20
12.2086118439378
30
0
41
1
10
118.355903313001
20
12.216267231896
30
0
41
1
10
118.349190809074
20
12.2314979186105
30
0
41
1
10
118.337628852926
20
12.253983852905
30
0
41
1
10
118.319144557022
20
12.2827302911466
30
0
41
1
10
118.297709046256
20
12.3097753187443
30
0
41
1
10
118.273618387973
20
12.3346999074192
30
0
41
1
10
118.247168649517
20
12.3570850288928
30
0
41
1
10
118.218796900404
20
12.3766634387868
30
0
41
1
10
118.18894021015
20
12.3931678927233
30
0
41
1
10
118.165787886506
20
12.4031772022532
30
0
41
1
10
118.150183876555
20
12.4088364940745
30
0
41
1
10
118.142355860124
20
12.4114654791738
30
0
41
1
10
118.134509646286
20
12.4138958588903
30
0
41
1
10
118.127962481956
20
12.4157573836919
30
0
41
1
10
118.120103957779
20
12.4178453425593
30
0
41
1
10
118.109627709162
20
12.4203713319667
30
0
41
1
10
118.095264764261
20
12.4232337531297
30
0
41
1
10
118.079710844641
20
12.4256113031488
30
0
41
1
10
118.068101294549
20
12.4268266383579
30
0
41
1
10
118.060372310567
20
12.4273965134252
30
0
41
1
10
118.056858183618
20
12.4276221355949
30
0
41
1
10
118.054619107202
20
12.4277532927381
30
0
41
1
10
118.053681055597
20
12.4278067532247
30
0
0
SPLINE
5
21A
100
AcDbEntity
8
1
62
256
6
ByLayer
370
-1
48
1
60
0
100
AcDbSpline
70
4
71
1
72
4
73
2
40
0
40
0
40
1
40
1
41
1
10
114.362556085148
20
3.58304822511539
30
0
41
1
10
110.977557418275
20
3.46438993632688
30
0
0
SPLINE
5
21B
100
AcDbEntity
8
1
62
256
6
ByLayer
370
-1
48
1
60
0
100
AcDbSpline
70
4
71
3
72
12
73
8
40
0
40
0
40
0
40
0
40
0.0219283654688216
40
0.141059655408796
40
0.379322235288746
40
0.855847395048644
40
1
40
1
40
1
40
1
41
1
10
109.967554634848
20
4.40984909820949
30
0
41
1
10
109.967574365712
20
4.40933921712954
30
0
41
1
10
109.967702541928
20
4.40605934164279
30
0
41
1
10
109.968072308249
20
4.39724069251273
30
0
41
1
10
109.96912852321
20
4.37786558717283
30
0
41
1
10
109.970930751998
20
4.35794927402691
30
0
41
1
10
109.972577219763
20
4.3436010960688
30
0
41
1
10
109.972971544454
20
4.34027022376341
30
0
0
SPLINE
5
21C
100
AcDbEntity
8
1
62
256
6
ByLayer
370
-1
48
1
60
0
100
AcDbSpline
70
4
71
3
72
39
73
35
40
0
40
0
40
0
40
0
40
0.0060880048236032
40
0.0231194529331356
40
0.0316351769879019
40
0.0571823491522005
40
0.0912452453712653
40
0.12530814159033
40
0.150855313754629
40
0.159371037809395
40
0.176402485918927
40
0.19343393402846
40
0.210465382137992
40
0.227496830247525
40
0.295622622685654
40
0.363748415123784
40
0.431874207561914
40
0.500000000000044
40
0.568125792438171
40
0.636251584876303
40
0.704377377314433
40
0.772503169752562
40
0.789534617862095
40
0.806566065971627
40
0.82359751408116
40
0.840628962190692
40
0.84914468624546
40
0.874691858409759
40
0.908754754628822
40
0.942817650847885
40
0.976880547066951
40
0.985396271121716
40
0.99391199517648
40
1
40
1
40
1
40
1
41
1
10
110.039050366507
20
3.80033745445459
30
0
41
1
10
110.039168929001
20
3.79940184263569
30
0
41
1
10
110.039622540091
20
3.79586672787451
30
0
41
1
10
110.040277324941
20
3.79109859780078
30
0
41
1
10
110.041478634455
20
3.783401156184
30
0
41
1
10
110.043335190853
20
3.77314091130918
30
0
41
1
10
110.046495600629
20
3.75901558189795
30
0
41
1
10
110.050342091623
20
3.74483256634551
30
0
41
1
10
110.053583125271
20
3.73451812137111
30
0
41
1
10
110.056206254952
20
3.72679444364886
30
0
41
1
10
110.058512885861
20
3.72036813310518
30
0
41
1
10
110.061475443704
20
3.71268066871522
30
0
41
1
10
110.064634099838
20
3.70502528075698
30
0
41
1
10
110.071346603764
20
3.68979459404253
30
0
41
1
10
110.082908559912
20
3.66730865974804
30
0
41
1
10
110.101392855817
20
3.63856222150639
30
0
41
1
10
110.122828366582
20
3.61151719390873
30
0
41
1
10
110.146919024865
20
3.58659260523376
30
0
41
1
10
110.173368763321
20
3.56420748376024
30
0
41
1
10
110.201740512434
20
3.54462907386619
30
0
41
1
10
110.231597202688
20
3.52812461992971
30
0
41
1
10
110.254749526333
20
3.51811531039979
30
0
41
1
10
110.270353536284
20
3.51245601857852
30
0
41
1
10
110.278181552715
20
3.50982703347918
30
0
41
1
10
110.286027766552
20
3.50739665376275
30
0
41
1
10
110.292574930882
20
3.50553512896113
30
0
41
1
10
110.300433455059
20
3.50344717009372
30
0
41
1
10
110.310909703676
20
3.50092118068633
30
0
41
1
10
110.325272648577
20
3.49805875952333
30
0
41
1
10
110.340826568198
20
3.49568120950423
30
0
41
1
10
110.352436118289
20
3.49446587429509
30
0
41
1
10
110.360165102272
20
3.49389599922782
30
0
41
1
10
110.36367922922
20
3.49367037705812
30
0
41
1
10
110.365918305637
20
3.49353921991494
30
0
41
1
10
110.366856357241
20
3.49348575942832
30
0
0
SPLINE
5
21D
100
AcDbEntity
8
1
62
256
6
ByLayer
370
-1
48
1
60
0
100
AcDbSpline
70
4
71
1
72
4
73
2
40
0
40
0
40
1
40
1
41
1
10
117.747554752021
20
3.7017065139039
30
0
41
1
10
114.362556085148
20
3.58304822511539
30
0
0
SPLINE
5
21E
100
AcDbEntity
8
1
62
256
6
ByLayer
370
-1
48
1
60
0
100
AcDbSpline
70
4
71
3
72
33
73
29
40
0
40
0
40
0
40
0
40
0.015625
40
0.0234375
40
0.02734375
40
0.03125
40
0.046875
40
0.0625
40
0.125
40
0.1875
40
0.21875
40
0.234375
40
0.25
40
0.3125
40
0.375
40
0.4375
40
0.5
40
0.5625
40
0.578125
40
0.59375
40
0.625
40
0.65625
40
0.6875
40
0.75
40
0.8125
40
0.84375
40
0.875
40
1
40
1
40
1
40
1
41
1
10
110.876190179451
20
7.84451808388985
30
0
41
1
10
110.870431712255
20
7.84431622565273
30
0
41
1
10
110.861699653069
20
7.84400533007098
30
0
41
1
10
110.852736453321
20
7.84367764498646
30
0
41
1
10
110.848167961659
20
7.84350769064511
30
0
41
1
10
110.841478419958
20
7.84325764407544
30
0
41
1
10
110.831330634815
20
7.84287881202405
30
0
41
1
10
110.804345522827
20
7.84187110135161
30
0
41
1
10
110.763870241406
20
7.84035962126464
30
0
41
1
10
110.718885508517
20
7.83867975979047
30
0
41
1
10
110.687420777071
20
7.83750474175201
30
0
41
1
10
110.669398483842
20
7.83683177469413
30
0
41
1
10
110.642635492814
20
7.83583223002933
30
0
41
1
10
110.600199718983
20
7.83426099514972
30
0
41
1
10
110.539254198106
20
7.8320309923179
30
0
41
1
10
110.474790445387
20
7.82969787943932
30
0
41
1
10
110.40778079998
20
7.82729649641527
30
0
41
1
10
110.356702745978
20
7.82548326864091
30
0
41
1
10
110.322085493312
20
7.8242608586786
30
0
41
1
10
110.298970120808
20
7.8234442623104
30
0
41
1
10
110.270055314847
20
7.822422965388
30
0
41
1
10
110.235356688604
20
7.82119680616552
30
0
41
1
10
110.189105706627
20
7.81956526801025
30
0
41
1
10
110.130514164863
20
7.81750994029849
30
0
41
1
10
110.071682899979
20
7.81546013579251
30
0
41
1
10
110.024743168744
20
7.81383287440809
30
0
41
1
10
109.954668226935
20
7.81141344083923
30
0
41
1
10
109.896121070846
20
7.80939249557525
30
0
41
1
10
109.84932875735
20
7.80777716455106
30
0
0
SPLINE
5
21F
100
AcDbEntity
8
1
62
256
6
ByLayer
370
-1
48
1
60
0
100
AcDbSpline
70
4
71
3
72
12
73
8
40
0
40
0
40
0
40
0
40
0.021928365468768
40
0.141059655408746
40
0.379322235288702
40
0.855847395048613
40
1
40
1
40
1
40
1
41
1
10
110.672983403504
20
12.2195668063934
30
0
41
1
10
110.672475462675
20
12.2195470001608
30
0
41
1
10
110.669208068105
20
12.2194183343333
30
0
41
1
10
110.660422976597
20
12.2190471555646
30
0
41
1
10
110.641121599383
20
12.2179869060344
30
0
41
1
10
110.621281073821
20
12.2161777930253
30
0
41
1
10
110.606987495012
20
12.2145250360202
30
0
41
1
10
110.603669297681
20
12.2141292050728
30
0
0
SPLINE
5
220
100
AcDbEntity
8
1
62
256
6
ByLayer
370
-1
48
1
60
0
100
AcDbSpline
70
4
71
3
72
87
73
83
40
0
40
0
40
0
40
0
40
0.125
40
0.25
40
0.375
40
0.390625
40
0.39453125
40
0.396484375
40
0.3984375
40
0.3994140625
40
0.400390625
40
0.40234375
40
0.40625
40
0.408203125
40
0.41015625
40
0.412109375
40
0.4140625
40
0.421875
40
0.4375
40
0.453125
40
0.46826171875
40
0.46875
40
0.4697265625
40
0.47021484375
40
0.470703125
40
0.4716796875
40
0.47216796875
40
0.47265625
40
0.474609375
40
0.4765625
40
0.478515625
40
0.47998046875
40
0.48046875
40
0.4814453125
40
0.482421875
40
0.4833984375
40
0.484375
40
0.48828125
40
0.4921875
40
0.49609375
40
0.5
40
0.50390625
40
0.5078125
40
0.51171875
40
0.515625
40
0.5166015625
40
0.517578125
40
0.5185546875
40
0.51953125
40
0.52001953125
40
0.521484375
40
0.5234375
40
0.525390625
40
0.52685546875
40
0.52734375
40
0.5283203125
40
0.52880859375
40
0.529296875
40
0.5302734375
40
0.53125
40
0.5625
40
0.578125
40
0.58203125
40
0.5859375
40
0.587890625
40
0.5888671875
40
0.58984375
40
0.591796875
40
0.59375
40
0.59765625
40
0.599609375
40
0.6005859375
40
0.6015625
40
0.603515625
40
0.60546875
40
0.609375
40
0.6171875
40
0.625
40
0.6875
40
0.75
40
0.875
40
1
40
1
40
1
40
1
41
1
10
114.073325229696
20
11.2861220155044
30
0
41
1
10
114.346722985778
20
11.2957057445064
30
0
41
1
10
114.893518497941
20
11.3148732025103
30
0
41
1
10
115.713718773313
20
11.3436330070023
30
0
41
1
10
116.294665180751
20
11.3639691316783
30
0
41
1
10
116.61080413754
20
11.3750783597908
30
0
41
1
10
116.657797269541
20
11.3767291206727
30
0
41
1
10
116.674885593306
20
11.3773292892917
30
0
41
1
10
116.685565752029
20
11.3777043410209
30
0
41
1
10
116.694109848618
20
11.3780043450316
30
0
41
1
10
116.702653923545
20
11.3783043224011
30
0
41
1
10
116.717605994117
20
11.3788292083335
30
0
41
1
10
116.734693919532
20
11.3794288870539
30
0
41
1
10
116.751781656023
20
11.3800283334322
30
0
41
1
10
116.764597355507
20
11.3804777916884
30
0
41
1
10
116.777412943688
20
11.3809271130607
30
0
41
1
10
116.803043880598
20
11.3818254613249
30
0
41
1
10
116.858576188984
20
11.3837701752664
30
0
41
1
10
116.944004036346
20
11.3867540819776
30
0
41
1
10
117.045435089119
20
11.3902796192104
30
0
41
1
10
117.113791122501
20
11.3926836613192
30
0
41
1
10
117.150120284448
20
11.3939792795756
30
0
41
1
10
117.154394472238
20
11.3941319127688
30
0
41
1
10
117.158668593721
20
11.3942844644171
30
0
41
1
10
117.162942592652
20
11.3944368653484
30
0
41
1
10
117.167216290233
20
11.3945888956739
30
0
41
1
10
117.171489451419
20
11.3947402663326
30
0
41
1
10
117.177898539283
20
11.3949665181233
30
0
41
1
10
117.187509278186
20
11.3953023380806
30
0
41
1
10
117.200313664517
20
11.3957378832272
30
0
41
1
10
117.212038466824
20
11.396121696488
30
0
41
1
10
117.220587160235
20
11.3964273537494
30
0
41
1
10
117.22701742106
20
11.3966796444108
30
0
41
1
10
117.232389663654
20
11.3969067251703
30
0
41
1
10
117.238642586535
20
11.3971031976026
30
0
41
1
10
117.244486065904
20
11.3971206794098
30
0
41
1
10
117.256178507981
20
11.396710519175
30
0
41
1
10
117.2746490618
20
11.394200150717
30
0
41
1
10
117.299314837314
20
11.3864967728063
30
0
41
1
10
117.323016647541
20
11.374072744191
30
0
41
1
10
117.344509506086
20
11.3574293685252
30
0
41
1
10
117.362548426555
20
11.3370679494628
30
0
41
1
10
117.376548383548
20
11.3142002155599
30
0
41
1
10
117.385924351668
20
11.2900378953723
30
0
41
1
10
117.389707516257
20
11.2717170666977
30
0
41
1
10
117.390930743909
20
11.260037163721
30
0
41
1
10
117.391320991563
20
11.2541844325369
30
0
41
1
10
117.391561925395
20
11.2479092092707
30
0
41
1
10
117.391711008498
20
11.2425137417312
30
0
41
1
10
117.391908842428
20
11.2360570430732
30
0
41
1
10
117.392201416724
20
11.2274752772014
30
0
41
1
10
117.392637876245
20
11.2157075847229
30
0
41
1
10
117.39305987108
20
11.2039262463672
30
0
41
1
10
117.393360099676
20
11.1953517015042
30
0
41
1
10
117.393583222254
20
11.1889188599694
30
0
41
1
10
117.393731081637
20
11.184629460268
30
0
41
1
10
117.393878322881
20
11.180339477419
30
0
41
1
10
117.394025242321
20
11.1760491909819
30
0
41
1
10
117.394208457526
20
11.1706859234145
30
0
41
1
10
117.396698452328
20
11.0977438505495
30
0
41
1
10
117.400391783999
20
10.9927203281617
30
0
41
1
10
117.404283768633
20
10.8812408797857
30
0
41
1
10
117.406076339368
20
10.8297853079624
30
0
41
1
10
117.406822686893
20
10.8083449609489
30
0
41
1
10
117.407344871729
20
10.7933364742364
30
0
41
1
10
117.407643194078
20
10.7847601310346
30
0
41
1
10
117.407941472054
20
10.7761837459717
30
0
41
1
10
117.408314239358
20
10.7654631890144
30
0
41
1
10
117.40891050896
20
10.7483101487485
30
0
41
1
10
117.409506560848
20
10.7311569030913
30
0
41
1
10
117.410027949713
20
10.7161476654668
30
0
41
1
10
117.410325846336
20
10.7075709206377
30
0
41
1
10
117.410623717994
20
10.6989941522575
30
0
41
1
10
117.410996013792
20
10.6882731504854
30
0
41
1
10
117.411591606621
20
10.6711194717564
30
0
41
1
10
117.412633716863
20
10.641100366803
30
0
41
1
10
117.414122133557
20
10.5982156366063
30
0
41
1
10
117.420076205424
20
10.4266770979783
30
0
41
1
10
117.430217064169
20
10.1350794469322
30
0
41
1
10
117.449329618352
20
9.58621227802055
30
0
41
1
10
117.473191039243
20
8.90010070204656
30
0
41
1
10
117.492285559283
20
8.35121651985764
30
0
41
1
10
117.501832819303
20
8.07677442876317
30
0
0
SPLINE
5
221
100
AcDbEntity
8
1
62
256
6
ByLayer
370
-1
48
1
60
0
100
AcDbSpline
70
4
71
3
72
33
73
29
40
0
40
0
40
0
40
0
40
0.125
40
0.15625
40
0.1875
40
0.25
40
0.3125
40
0.34375
40
0.375
40
0.40625
40
0.421875
40
0.4375
40
0.5
40
0.5625
40
0.625
40
0.6875
40
0.75
40
0.765625
40
0.78125
40
0.8125
40
0.875
40
0.9375
40
0.953125
40
0.96875
40
0.97265625
40
0.9765625
40
0.984375
40
1
40
1
40
1
40
1
41
1
10
114.05798132769
20
12.3382442875376
30
0
41
1
10
114.060301819002
20
12.2919872591927
30
0
41
1
10
114.063210151173
20
12.2341149587425
30
0
41
1
10
114.066675452078
20
12.1648314462631
30
0
41
1
10
114.06881490532
20
12.1182327771017
30
0
41
1
10
114.071212819927
20
12.0595340560878
30
0
41
1
10
114.073218951543
20
12.0006771711545
30
0
41
1
10
114.074551911368
20
11.9539560313
30
0
41
1
10
114.075493038934
20
11.9188434252394
30
0
41
1
10
114.076290428434
20
11.8895973078924
30
0
41
1
10
114.076924013651
20
11.8662130474629
30
0
41
1
10
114.077886988856
20
11.8312078061666
30
0
41
1
10
114.079044907633
20
11.7792837563604
30
0
41
1
10
114.079941863293
20
11.7105171438546
30
0
41
1
10
114.080172477715
20
11.6437055325259
30
0
41
1
10
114.079723592168
20
11.5798466066119
30
0
41
1
10
114.078901558696
20
11.5348523266329
30
0
41
1
10
114.078145996601
20
11.5062291124435
30
0
41
1
10
114.077640773869
20
11.4869578573235
30
0
41
1
10
114.076755979128
20
11.4533097431623
30
0
41
1
10
114.075492296271
20
11.4052048045073
30
0
41
1
10
114.074354884903
20
11.3619216779049
30
0
41
1
10
114.073596624686
20
11.333064619853
30
0
41
1
10
114.073314750908
20
11.3222162892781
30
0
41
1
10
114.073120238246
20
11.3150558923761
30
0
41
1
10
114.073009701811
20
11.3101890368109
30
0
41
1
10
114.072951374335
20
11.3008053637334
30
0
41
1
10
114.073124139591
20
11.29190247911
30
0
41
1
10
114.073325229696
20
11.2861220155044
30
0
0
SPLINE
5
222
100
AcDbEntity
8
1
62
256
6
ByLayer
370
-1
48
1
60
0
100
AcDbSpline
70
4
71
3
72
87
73
83
40
0
40
0
40
0
40
0
40
0.125
40
0.25
40
0.375
40
0.390625
40
0.39453125
40
0.396484375
40
0.3984375
40
0.3994140625
40
0.400390625
40
0.40234375
40
0.40625
40
0.408203125
40
0.41015625
40
0.412109375
40
0.4140625
40
0.421875
40
0.4375
40
0.453125
40
0.46826171875
40
0.46875
40
0.4697265625
40
0.47021484375
40
0.470703125
40
0.4716796875
40
0.47216796875
40
0.47265625
40
0.474609375
40
0.4765625
40
0.478515625
40
0.47998046875
40
0.48046875
40
0.4814453125
40
0.482421875
40
0.4833984375
40
0.484375
40
0.48828125
40
0.4921875
40
0.49609375
40
0.5
40
0.50390625
40
0.5078125
40
0.51171875
40
0.515625
40
0.5166015625
40
0.517578125
40
0.5185546875
40
0.51953125
40
0.52001953125
40
0.521484375
40
0.5234375
40
0.525390625
40
0.52685546875
40
0.52734375
40
0.5283203125
40
0.52880859375
40
0.529296875
40
0.5302734375
40
0.53125
40
0.5625
40
0.578125
40
0.58203125
40
0.5859375
40
0.587890625
40
0.5888671875
40
0.58984375
40
0.591796875
40
0.59375
40
0.59765625
40
0.599609375
40
0.6005859375
40
0.6015625
40
0.603515625
40
0.60546875
40
0.609375
40
0.6171875
40
0.625
40
0.6875
40
0.75
40
0.875
40
1
40
1
40
1
40
1
41
1
10
110.876190179451
20
7.84451808388985
30
0
41
1
10
110.866642919431
20
8.11896017498432
30
0
41
1
10
110.847548399392
20
8.66784435717327
30
0
41
1
10
110.818898034639
20
9.4911776643508
30
0
41
1
10
110.798639295057
20
10.0743431926865
30
0
41
1
10
110.787572340911
20
10.3916897489316
30
0
41
1
10
110.785927861673
20
10.4388623870617
30
0
41
1
10
110.785329976877
20
10.4560159854476
30
0
41
1
10
110.784956352333
20
10.4667369406417
30
0
41
1
10
110.784657489928
20
10.475313674292
30
0
41
1
10
110.784358654063
20
10.4838903861968
30
0
41
1
10
110.78383576548
20
10.49889957125
30
0
41
1
10
110.783238368718
20
10.5160527697637
30
0
41
1
10
110.782641203414
20
10.5332057786315
30
0
41
1
10
110.782193455482
20
10.5460704320063
30
0
41
1
10
110.781745843913
20
10.5589349736516
30
0
41
1
10
110.780850914136
20
10.5846638165769
30
0
41
1
10
110.778913600418
20
10.6404082493591
30
0
41
1
10
110.775941048373
20
10.7261624172196
30
0
41
1
10
110.772428926873
20
10.827980920137
30
0
41
1
10
110.77003403287
20
10.8965980624611
30
0
41
1
10
110.768743344833
20
10.9330659959051
30
0
41
1
10
110.768591292455
20
10.9373565103979
30
0
41
1
10
110.768439321312
20
10.9416469583309
30
0
41
1
10
110.768287500312
20
10.9459372832435
30
0
41
1
10
110.768136048508
20
10.9502273056546
30
0
41
1
10
110.76798525386
20
10.9545167896226
30
0
41
1
10
110.767759863026
20
10.9609503591605
30
0
41
1
10
110.767425320965
20
10.9705978095245
30
0
41
1
10
110.766991433199
20
10.9834511065318
30
0
41
1
10
110.766609080464
20
10.9952206956783
30
0
41
1
10
110.76630458632
20
11.0038020437099
30
0
41
1
10
110.766053255701
20
11.0102568670862
30
0
41
1
10
110.765827039052
20
11.015649630774
30
0
41
1
10
110.765631314257
20
11.021926438805
30
0
41
1
10
110.765613898973
20
11.0277922393152
30
0
41
1
10
110.766022498425
20
11.0395293446221
30
0
41
1
10
110.768523314173
20
11.0580704529561
30
0
41
1
10
110.776197378405
20
11.0828304477256
30
0
41
1
10
110.78857412984
20
11.1066227950166
30
0
41
1
10
110.805154172437
20
11.1281977527894
30
0
41
1
10
110.825438110152
20
11.146305579004
30
0
41
1
10
110.848218825424
20
11.1603590135591
30
0
41
1
10
110.872289200688
20
11.1697707963535
30
0
41
1
10
110.890540313079
20
11.1735684120168
30
0
41
1
10
110.902175770498
20
11.1747963122
30
0
41
1
10
110.908006230273
20
11.1751880505368
30
0
41
1
10
110.91425757442
20
11.1754299046962
30
0
41
1
10
110.919632510577
20
11.1755795572726
30
0
41
1
10
110.926064639547
20
11.1757781468959
30
0
41
1
10
110.934613749209
20
11.1760718387789
30
0
41
1
10
110.946336662065
20
11.1765099655042
30
0
41
1
10
110.958073168871
20
11.176933572291
30
0
41
1
10
110.966615085002
20
11.177234947711
30
0
41
1
10
110.973023447633
20
11.1774589225811
30
0
41
1
10
110.977296524873
20
11.1776073467628
30
0
41
1
10
110.981570183043
20
11.1777551504446
30
0
41
1
10
110.985844143644
20
11.1779026310925
30
0
41
1
10
110.991187002359
20
11.1780865461503
30
0
41
1
10
111.063851508616
20
11.1805860523279
30
0
41
1
10
111.168475384793
20
11.1842934919258
30
0
41
1
10
111.279530620212
20
11.1882003433085
30
0
41
1
10
111.330790388049
20
11.1899997613731
30
0
41
1
10
111.352149148069
20
11.1907489598246
30
0
41
1
10
111.367100522959
20
11.1912731393214
30
0
41
1
10
111.375644230585
20
11.1915726012134
30
0
41
1
10
111.384187979914
20
11.191872018563
30
0
41
1
10
111.394867741915
20
11.192246209777
30
0
41
1
10
111.411955509684
20
11.1928447570327
30
0
41
1
10
111.429043482063
20
11.1934430857412
30
0
41
1
10
111.443995605007
20
11.1939664662277
30
0
41
1
10
111.452539712733
20
11.1942655007668
30
0
41
1
10
111.46108384392
20
11.1945645102465
30
0
41
1
10
111.471764049043
20
11.1949382281539
30
0
41
1
10
111.488852452846
20
11.195536096051
30
0
41
1
10
111.518757326042
20
11.1965821869849
30
0
41
1
10
111.561478866893
20
11.1980762891891
30
0
41
1
10
111.732364649592
20
11.2040531046431
30
0
41
1
10
112.022852683541
20
11.2142326998211
30
0
41
1
10
112.569631247167
20
11.2334182608561
30
0
41
1
10
113.253131961452
20
11.2573708284986
30
0
41
1
10
113.799927473615
20
11.2765382865025
30
0
41
1
10
114.073325229696
20
11.2861220155044
30
0
0
SPLINE
5
223
100
AcDbEntity
8
1
62
256
6
ByLayer
370
-1
48
1
60
0
100
AcDbSpline
70
4
71
3
72
20
73
16
40
0
40
0
40
0
40
0
40
0.0120730283552426
40
0.0426388731030035
40
0.0579217954768839
40
0.0732047178507644
40
0.103770562598525
40
0.164902252094047
40
0.226033941589569
40
0.470560699571656
40
0.95961421553583
40
0.97489713790971
40
0.990180060283591
40
0.997821521470531
40
1
40
1
40
1
40
1
41
1
10
118.447565868384
20
11.5810222888896
30
0
41
1
10
118.447308433655
20
11.5831968476446
30
0
41
1
10
118.446381278508
20
11.5908745847976
30
0
41
1
10
118.445066904373
20
11.6012974355082
30
0
41
1
10
118.443707225094
20
11.6123017156948
30
0
41
1
10
118.44236053828
20
11.623307805449
30
0
41
1
10
118.440023861451
20
11.6425712798091
30
0
41
1
10
118.436662508419
20
11.6700875335863
30
0
41
1
10
118.428562292897
20
11.7361381352148
30
0
41
1
10
118.411057553383
20
11.8794252768588
30
0
41
1
10
118.394683968207
20
12.013126391384
30
0
41
1
10
118.383123651715
20
12.1077213942806
30
0
41
1
10
118.382285445069
20
12.1145459675662
30
0
41
1
10
118.381746811473
20
12.1188967813808
30
0
41
1
10
118.381534325606
20
12.1205819634103
30
0
41
1
10
118.381487046333
20
12.1209550581826
30
0
0
SPLINE
5
224
100
AcDbEntity
8
1
62
256
6
ByLayer
370
-1
48
1
60
0
100
AcDbSpline
70
4
71
3
72
20
73
16
40
0
40
0
40
0
40
0
40
0.0098199397469088
40
0.0174614009336023
40
0.0251028621202915
40
0.0403857844936724
40
0.0480272456803633
40
0.284912542467785
40
0.52943930044189
40
0.773966058415999
40
0.896229437403054
40
0.926795282149817
40
0.957361126896581
40
0.987926971643346
40
1
40
1
40
1
40
1
41
1
10
109.760107103884
20
11.8187398162908
30
0
41
1
10
109.760011372104
20
11.8170471883401
30
0
41
1
10
109.75984810771
20
11.8140107541327
30
0
41
1
10
109.759611257032
20
11.8095437745984
30
0
41
1
10
109.759321184762
20
11.8040241704541
30
0
41
1
10
109.759029499349
20
11.7984256962493
30
0
41
1
10
109.756551807431
20
11.7508803086684
30
0
41
1
10
109.751920114545
20
11.6622016674061
30
0
41
1
10
109.745083573632
20
11.5313696728103
30
0
41
1
10
109.739310552178
20
11.4204744154597
30
0
41
1
10
109.735523317603
20
11.3484968204335
30
0
41
1
10
109.733822152791
20
11.3152736710602
30
0
41
1
10
109.732948516565
20
11.2986637057583
30
0
41
1
10
109.732206788504
20
11.2854065078649
30
0
41
1
10
109.731815425719
20
11.2776825511715
30
0
41
1
10
109.731709730414
20
11.2754952631975
30
0
0
SPLINE
5
225
100
AcDbEntity
8
1
62
256
6
ByLayer
370
-1
48
1
60
0
100
AcDbSpline
70
4
71
3
72
12
73
8
40
0
40
0
40
0
40
0
40
0.144152604951353
40
0.620677764711242
40
0.858940344591186
40
0.978071634531131
40
1
40
1
40
1
40
1
41
1
10
118.688827682424
20
4.64579724945457
30
0
41
1
10
118.688989580815
20
4.64914761969354
30
0
41
1
10
118.689634968213
20
4.6635761367119
30
0
41
1
10
118.690048801762
20
4.68357013206412
30
0
41
1
10
118.689756047823
20
4.70297199988974
30
0
41
1
10
118.689512096407
20
4.71179505935575
30
0
41
1
10
118.689412038468
20
4.71507592050509
30
0
41
1
10
118.689396289108
20
4.71558594115331
30
0
0
SPLINE
5
226
100
AcDbEntity
8
1
62
256
6
ByLayer
370
-1
48
1
60
0
100
AcDbSpline
70
4
71
3
72
39
73
35
40
0
40
0
40
0
40
0
40
0.0060880048235938
40
0.0231194529331269
40
0.0316351769878934
40
0.0571823491521931
40
0.0912452453712593
40
0.125308141590325
40
0.150855313754625
40
0.159371037809392
40
0.176402485918925
40
0.193433934028458
40
0.210465382137991
40
0.227496830247524
40
0.295622622685656
40
0.363748415123789
40
0.431874207561921
40
0.500000000000055
40
0.568125792438183
40
0.63625158487632
40
0.704377377314452
40
0.772503169752584
40
0.789534617862117
40
0.806566065971651
40
0.823597514081184
40
0.840628962190717
40
0.849144686245483
40
0.874691858409783
40
0.908754754628849
40
0.942817650847911
40
0.976880547066982
40
0.985396271121744
40
0.993911995176511
40
1
40
1
40
1
40
1
41
1
10
110.06579113557
20
12.1477979726549
30
0
41
1
10
110.064859084036
20
12.1476789572715
30
0
41
1
10
110.061337421454
20
12.1472236134613
30
0
41
1
10
110.056587435555
20
12.1465663274393
30
0
41
1
10
110.048919285027
20
12.145360429118
30
0
41
1
10
110.038698083482
20
12.1434967809761
30
0
41
1
10
110.024626505214
20
12.1403242989483
30
0
41
1
10
110.010497460317
20
12.1364631149832
30
0
41
1
10
110.00022226492
20
12.1332097011132
30
0
41
1
10
109.992527978124
20
12.1305765515034
30
0
41
1
10
109.986126121632
20
12.1282611096391
30
0
41
1
10
109.978467910365
20
12.1252872353063
30
0
41
1
10
109.970841653469
20
12.1221165136192
30
0
41
1
10
109.955668924116
20
12.1153783690184
30
0
41
1
10
109.93326855559
20
12.103772248076
30
0
41
1
10
109.904631506224
20
12.0852173451641
30
0
41
1
10
109.877689393122
20
12.0636999542297
30
0
41
1
10
109.852859650032
20
12.039517273546
30
0
41
1
10
109.830559710704
20
12.0129665013862
30
0
41
1
10
109.81105580257
20
11.9844863768007
30
0
41
1
10
109.794614153064
20
11.95451563884
30
0
41
1
10
109.784642931978
20
11.9312748770805
30
0
41
1
10
109.779005175471
20
11.9156112623465
30
0
41
1
10
109.776386194454
20
11.9077533441644
30
0
41
1
10
109.773965063066
20
11.8998771590645
30
0
41
1
10
109.772110621928
20
11.8933049856308
30
0
41
1
10
109.770030608375
20
11.8854164431676
30
0
41
1
10
109.76751423112
20
11.8749001769836
30
0
41
1
10
109.764662702333
20
11.8604823679663
30
0
41
1
10
109.76229419961
20
11.8448690348994
30
0
41
1
10
109.761083489118
20
11.8332151382123
30
0
41
1
10
109.760515782597
20
11.8254566307669
30
0
41
1
10
109.760291018988
20
11.8219290804243
30
0
41
1
10
109.760160360938
20
11.8196814510997
30
0
41
1
10
109.760107103884
20
11.8187398162908
30
0
0
SPLINE
5
227
100
AcDbEntity
8
1
62
256
6
ByLayer
370
-1
48
1
60
0
100
AcDbSpline
70
4
71
1
72
4
73
2
40
0
40
0
40
1
40
1
41
1
10
118.453001897313
20
11.5114441599669
30
0
41
1
10
118.571208655489
20
8.11351534810197
30
0
0
SPLINE
5
228
100
AcDbEntity
8
SK1
62
256
6
ByLayer
370
-1
48
1
60
0
100
AcDbSpline
70
4
71
3
72
55
73
51
40
0
40
0
40
0
40
0
40
0.0062775012552578
40
0.0126613089314934
40
0.0191232697754809
40
0.0256662793436417
40
0.0322931269521668
40
0.0390064974172862
40
0.0458089731089013
40
0.0527030362668541
40
0.0799449904842088
40
0.107583238411846
40
0.135758352896478
40
0.164603058696993
40
0.202129411944694
40
0.239329534854516
40
0.276480867404691
40
0.305761010907828
40
0.334078182752207
40
0.361588636230222
40
0.388462699776139
40
0.407109179700934
40
0.42474913956971
40
0.441462471810388
40
0.457343060112828
40
0.472500270110219
40
0.487059777821932
40
0.501163246705116
40
0.526004663068
40
0.552561575309492
40
0.581450206310052
40
0.61315109283972
40
0.630954144421722
40
0.6490127282966
40
0.667378043139194
40
0.686098771189575
40
0.705220880382133
40
0.724787509958403
40
0.752608175586637
40
0.780406228837484
40
0.808298398886983
40
0.836400242111187
40
0.865167190129203
40
0.893276376698863
40
0.920859939809586
40
0.948057679625556
40
0.961722893139252
40
0.975026986403109
40
0.987991264714412
40
1
40
1
40
1
40
1
41
1
10
-30
20
-15.9412563553943
30
0
41
1
10
-30
20
-15.9413511254957
30
0
41
1
10
-30
20
-15.9388915971213
30
0
41
1
10
-30
20
-15.9273804000157
30
0
41
1
10
-30
20
-15.9079788422216
30
0
41
1
10
-30
20
-15.8807063718935
30
0
41
1
10
-30
20
-15.8455619478377
30
0
41
1
10
-30
20
-15.8025510336339
30
0
41
1
10
-30
20
-15.751654237556
30
0
41
1
10
-30
20
-15.6354614488172
30
0
41
1
10
-30
20
-15.4072734112923
30
0
41
1
10
-30
20
-14.9910393954625
30
0
41
1
10
-30
20
-14.4612492653321
30
0
41
1
10
-30
20
-13.75980362743
30
0
41
1
10
-30
20
-12.8634986274155
30
0
41
1
10
-30
20
-11.739852996921
30
0
41
1
10
-30
20
-10.5610442122656
30
0
41
1
10
-30
20
-9.38065337957798
30
0
41
1
10
-30
20
-8.23841077858418
30
0
41
1
10
-30
20
-7.04971673261991
30
0
41
1
10
-30
20
-5.93280908256415
30
0
41
1
10
-30
20
-4.92269022344595
30
0
41
1
10
-30
20
-4.04473490583857
30
0
41
1
10
-30
20
-3.18409230622029
30
0
41
1
10
-30
20
-2.34074423568492
30
0
41
1
10
-30
20
-1.51461138812482
30
0
41
1
10
-30
20
-0.705662651942646
30
0
41
1
10
-30
20
0.291624376544149
30
0
41
1
10
-30
20
1.51125027171196
30
0
41
1
10
-30
20
2.95678912159335
30
0
41
1
10
-30
20
4.44757052085859
30
0
41
1
10
-30
20
5.71060973941567
30
0
41
1
10
-30
20
6.74763296214297
30
0
41
1
10
-30
20
7.54747447616455
30
0
41
1
10
-30
20
8.32687796284489
30
0
41
1
10
-30
20
9.08577238570726
30
0
41
1
10
-30
20
9.82413283315879
30
0
41
1
10
-30
20
10.6371602934683
30
0
41
1
10
-30
20
11.4981281374076
30
0
41
1
10
-30
20
12.3723486056914
30
0
41
1
10
-30
20
13.1641616656871
30
0
41
1
10
-30
20
13.876053967975
30
0
41
1
10
-30
20
14.499744874278
30
0
41
1
10
-30
20
15.0213498104851
30
0
41
1
10
-30
20
15.4299810664198
30
0
41
1
10
-30
20
15.6772442440077
30
0
41
1
10
-30
20
15.8176211683846
30
0
41
1
10
-29.9999999999999
20
15.8924972054746
30
0
41
1
10
-30
20
15.9350483209176
30
0
41
1
10
-30
20
15.9432323681028
30
0
41
1
10
-30
20
15.9423143991378
30
0
0
SPLINE
5
229
100
AcDbEntity
8
SK1
62
256
6
ByLayer
370
-1
48
1
60
0
100
AcDbSpline
70
4
71
3
72
16
73
12
40
0
40
0
40
0
40
0
40
0.210347437860711
40
0.210347437860711
40
0.420694875721422
40
0.420694875721422
40
0.631042313582132
40
0.631042313582132
40
0.841389751442843
40
0.841389751442843
40
1
40
1
40
1
40
1
41
1
10
-2.19999999999999
20
15.0247809138928
30
0
41
1
10
-2.19999999999999
20
15.3464281768119
30
0
41
1
10
-2.19999985369779
20
15.6408309205943
30
0
41
1
10
-2.19999861013468
20
16.1716311372165
30
0
41
1
10
-2.19999751318201
20
16.4085994471238
30
0
41
1
10
-2.19999332922319
20
16.81967937675
30
0
41
1
10
-2.19999025395853
20
16.9939820524753
30
0
41
1
10
-2.19998056068692
20
17.2730608970185
30
0
41
1
10
-2.19997397016539
20
17.377934512455
30
0
41
1
10
-2.19995735784332
20
17.492383089682
30
0
41
1
10
-2.19994857701477
20
17.5191239927057
30
0
41
1
10
-2.19993753438075
20
17.5200999009104
30
0
0
SPLINE
5
22A
100
AcDbEntity
8
SK1
62
256
6
ByLayer
370
-1
48
1
60
0
100
AcDbSpline
70
4
71
3
72
14
73
10
40
0
40
0
40
0
40
0
40
0.158271111546177
40
0.158271111546177
40
0.368703333659632
40
0.368703333659632
40
0.579135555773089
40
0.579135555773089
40
1
40
1
40
1
40
1
41
1
10
-2.19993758659487
20
-17.5200998509081
30
0
41
1
10
-2.19994859698866
20
-17.5190520156497
30
0
41
1
10
-2.19995735145551
20
-17.4923613558623
30
0
41
1
10
-2.19997395241097
20
-17.37814676901
30
0
41
1
10
-2.19998054803548
20
-17.2733105000759
30
0
41
1
10
-2.19999024684913
20
-16.994301647152
30
0
41
1
10
-2.19999332411427
20
-16.820033747135
30
0
41
1
10
-2.19999960456138
20
-16.2034150671494
30
0
41
1
10
-2.20000000000005
20
-15.6672998594695
30
0
41
1
10
-2.20000000000005
20
-15.0247808645597
30
0
0
SPLINE
5
22B
100
AcDbEntity
8
SK1
62
256
6
ByLayer
370
-1
48
1
60
0
100
AcDbSpline
70
4
71
3
72
41
73
37
40
0
40
0
40
0
40
0
40
0.0035862615420455
40
0.0346121196537849
40
0.0656379777655244
40
0.0966638358772639
40
0.127689693989003
40
0.158715552100743
40
0.189741410212482
40
0.220767268324222
40
0.251793126435961
40
0.282818984547701
40
0.31384484265944
40
0.34487070077118
40
0.375896558882919
40
0.406922416994659
40
0.437948275106398
40
0.468974133218138
40
0.499999991329877
40
0.531025849441616
40
0.562051707553356
40
0.593077565665095
40
0.624103423776835
40
0.655129281888574
40
0.686155140000314
40
0.717180998112053
40
0.748206856223793
40
0.779232714335532
40
0.810258572447272
40
0.841284430559011
40
0.872310288670751
40
0.90333614678249
40
0.93436200489423
40
0.965387863005969
40
0.996413721117709
40
1
40
1
40
1
40
1
41
1
10
-2.20000000000005
20
-10.2416915120173
30
0
41
1
10
-2.20000000000005
20
-10.2098170446237
30
0
41
1
10
-2.20000000000005
20
-9.90198508684045
30
0
41
1
10
-2.20000000000005
20
-9.3149808480191
30
0
41
1
10
-2.20000000000005
20
-8.48421552667966
30
0
41
1
10
-2.20000000000005
20
-7.66447545612931
30
0
41
1
10
-2.20000000000005
20
-6.86437716583347
30
0
41
1
10
-2.20000000000005
20
-6.09147129549578
30
0
41
1
10
-2.20000000000005
20
-5.35199475664402
30
0
41
1
10
-2.20000000000005
20
-4.6506671110304
30
0
41
1
10
-2.20000000000005
20
-3.99054255831777
30
0
41
1
10
-2.20000000000005
20
-3.37292400688881
30
0
41
1
10
-2.20000000000005
20
-2.79733805829036
30
0
41
1
10
-2.20000000000005
20
-2.26158054799637
30
0
41
1
10
-2.20000000000005
20
-1.76181929549949
30
0
41
1
10
-2.20000000000005
20
-1.29276519791185
30
0
41
1
10
-2.20000000000005
20
-0.847888335032877
30
0
41
1
10
-2.20000000000005
20
-0.419689842123091
30
0
41
1
10
-2.20000000000005
20
8.86504949E-08
30
0
41
1
10
-2.20000000000005
20
0.419689487520998
30
0
41
1
10
-2.20000000000005
20
0.847888498250114
30
0
41
1
10
-2.20000000000005
20
1.29276489964477
30
0
41
1
10
-2.20000000000005
20
1.7618194185427
30
0
41
1
10
-2.20000000000005
20
2.26158035409029
30
0
41
1
10
-2.20000000000005
20
2.79733812098013
30
0
41
1
10
-2.20000000000005
20
3.37292395003561
30
0
41
1
10
-2.20000000000005
20
3.99054254934384
30
0
41
1
10
-2.20000000000005
20
4.65066720377908
30
0
41
1
10
-2.20000000000005
20
5.35199467517899
30
0
41
1
10
-2.20000000000005
20
6.091471528607
30
0
41
1
10
-2.20000000000005
20
6.86437702157369
30
0
41
1
10
-2.20000000000005
20
7.66447580005692
30
0
41
1
10
-2.20000000000005
20
8.48421533830793
30
0
41
1
10
-2.20000000000005
20
9.31498125757835
30
0
41
1
10
-2.20000000000005
20
9.90198521620806
30
0
41
1
10
-2.20000000000005
20
10.2098173562835
30
0
41
1
10
-2.20000000000005
20
10.2416919827236
30
0
0
SPLINE
5
22C
100
AcDbEntity
8
SK1
62
256
6
ByLayer
370
-1
48
1
60
0
100
AcDbSpline
70
4
71
3
72
14
73
10
40
0
40
0
40
0
40
0
40
0.134730002442921
40
0.287068852256708
40
0.439407702070496
40
0.591746551884283
40
0.74408540169807
40
0.896424251511857
40
1
40
1
40
1
40
1
41
1
10
-2.20000000000005
20
10.2416919827236
30
0
41
1
10
-2.20000000000005
20
10.4855732776028
30
0
41
1
10
-2.20000000000005
20
11.0026050713461
30
0
41
1
10
-2.20000000000005
20
11.777504870163
30
0
41
1
10
-2.20000000000002
20
12.5554386011843
30
0
41
1
10
-2.20000000000002
20
13.2960633878308
30
0
41
1
10
-2.20000000000002
20
13.9908994853336
30
0
41
1
10
-2.20000000000002
20
14.5640747934518
30
0
41
1
10
-2.20000000000002
20
14.8954704523347
30
0
41
1
10
-2.20000000000002
20
15.0247809138928
30
0
0
SPLINE
5
22D
100
AcDbEntity
8
SK1
62
256
6
ByLayer
370
-1
48
1
60
0
100
AcDbSpline
70
4
71
3
72
79
73
75
40
0
40
0
40
0
40
0
40
0.0067087495126086
40
0.020802785376137
40
0.0348968212396655
40
0.0489908571031939
40
0.0630848929667223
40
0.0771789288302507
40
0.0912729646937791
40
0.105367000557307
40
0.119461036420836
40
0.133555072284364
40
0.147649108147893
40
0.161743144011421
40
0.17583717987495
40
0.189931215738478
40
0.204025251602006
40
0.218119287465535
40
0.232213323329063
40
0.246307359192592
40
0.26040139505612
40
0.274495430919648
40
0.288589466783177
40
0.302683502646705
40
0.316777538510233
40
0.330871574373762
40
0.34496561023729
40
0.359059646100819
40
0.373153681964347
40
0.387247717827875
40
0.401341753691404
40
0.415435789554932
40
0.429529825418461
40
0.443623861281989
40
0.457717897145518
40
0.471811933009046
40
0.485905968872574
40
0.500000004736103
40
0.514094040599631
40
0.52818807646316
40
0.542282112326688
40
0.556376148190216
40
0.570470184053745
40
0.584564219917273
40
0.598658255780802
40
0.61275229164433
40
0.626846327507858
40
0.640940363371387
40
0.655034399234915
40
0.669128435098444
40
0.683222470961972
40
0.6973165068255
40
0.711410542689029
40
0.725504578552557
40
0.739598614416086
40
0.753692650279614
40
0.767786686143142
40
0.781880722006671
40
0.795974757870199
40
0.810068793733728
40
0.824162829597256
40
0.838256865460784
40
0.852350901324313
40
0.866444937187841
40
0.88053897305137
40
0.894633008914898
40
0.908727044778427
40
0.922821080641955
40
0.936915116505483
40
0.951009152369012
40
0.96510318823254
40
0.979197224096068
40
0.993291259959597
40
1
40
1
40
1
40
1
41
1
10
-3
20
-17.2891030015314
30
0
41
1
10
-3
20
-17.3064425240888
30
0
41
1
10
-3
20
-17.3576824674137
30
0
41
1
10
-3
20
-17.4290648746259
30
0
41
1
10
-3
20
-17.4859427971309
30
0
41
1
10
-3
20
-17.5070292572437
30
0
41
1
10
-3
20
-17.4859401738945
30
0
41
1
10
-3.00000000000003
20
-17.4163913620312
30
0
41
1
10
-3.00000000000003
20
-17.2925088911448
30
0
41
1
10
-3.00000000000003
20
-17.1091123896189
30
0
41
1
10
-3.00000000000003
20
-16.8619882313057
30
0
41
1
10
-3.00000000000003
20
-16.5481197778907
30
0
41
1
10
-3.00000000000003
20
-16.1658744357057
30
0
41
1
10
-3.00000000000003
20
-15.7151402778227
30
0
41
1
10
-3.00000000000003
20
-15.1974002275414
30
0
41
1
10
-3.00000000000003
20
-14.6157505856349
30
0
41
1
10
-3.00000000000003
20
-13.9748490556261
30
0
41
1
10
-3.00000000000003
20
-13.2808105172309
30
0
41
1
10
-3.00000000000003
20
-12.5410348198394
30
0
41
1
10
-3
20
-11.763994099502
30
0
41
1
10
-3
20
-10.9589648821141
30
0
41
1
10
-3
20
-10.1357380738661
30
0
41
1
10
-3
20
-9.30429484700929
30
0
41
1
10
-3
20
-8.47448256671282
30
0
41
1
10
-3
20
-7.6556828892094
30
0
41
1
10
-3
20
-6.85650245921596
30
0
41
1
10
-3
20
-6.08448325445985
30
0
41
1
10
-3
20
-5.34585503158101
30
0
41
1
10
-3
20
-4.64533193812392
30
0
41
1
10
-3
20
-3.9859646700211
30
0
41
1
10
-3
20
-3.36905464097902
30
0
41
1
10
-3
20
-2.79412899561987
30
0
41
1
10
-3
20
-2.25898609800083
30
0
41
1
10
-3
20
-1.75979816383233
30
0
41
1
10
-3
20
-1.29128215780307
30
0
41
1
10
-3
20
-0.846915650735156
30
0
41
1
10
-3
20
-0.41920838047011
30
0
41
1
10
-3
20
8.85488021E-08
30
0
41
1
10
-3
20
0.419208026274788
30
0
41
1
10
-3
20
0.84691581376515
30
0
41
1
10
-3
20
1.29128185987813
30
0
41
1
10
-3
20
1.75979828673439
30
0
41
1
10
-3
20
2.25898590431717
30
0
41
1
10
-3
20
2.79412905823773
30
0
41
1
10
-3
20
3.36905458419105
30
0
41
1
10
-3
20
3.98596466105747
30
0
41
1
10
-3
20
4.64533203076618
30
0
41
1
10
-3
20
5.34585495020943
30
0
41
1
10
-3
20
6.08448348730366
30
0
41
1
10
-3
20
6.85650231512167
30
0
41
1
10
-3
20
7.65568323274246
30
0
41
1
10
-3
20
8.47448237855718
30
0
41
1
10
-3
20
9.3042952560987
30
0
41
1
10
-3
20
10.1357378664365
30
0
41
1
10
-3
20
10.9589653027428
30
0
41
1
10
-3
20
11.7639938999324
30
0
41
1
10
-2.99999999999997
20
12.5410351974886
30
0
41
1
10
-2.99999999999997
20
13.2808103509102
30
0
41
1
10
-2.99999999999997
20
13.9748493432595
30
0
41
1
10
-2.99999999999997
20
14.6157504724401
30
0
41
1
10
-2.99999999999997
20
15.1974003926871
30
0
41
1
10
-2.99999999999997
20
15.7151402291805
30
0
41
1
10
-2.99999999999997
20
16.1658744651289
30
0
41
1
10
-2.99999999999997
20
16.5481197951877
30
0
41
1
10
-2.99999999999997
20
16.8619881326948
30
0
41
1
10
-2.99999999999997
20
17.1091124641426
30
0
41
1
10
-2.99999999999997
20
17.2925086916609
30
0
41
1
10
-2.99999999999997
20
17.4163918494222
30
0
41
1
10
-2.99999999999997
20
17.4859391868839
30
0
41
1
10
-2.99999999999994
20
17.5070293524766
30
0
41
1
10
-2.99999999999994
20
17.4859434032096
30
0
41
1
10
-2.99999999999994
20
17.4290646714908
30
0
41
1
10
-2.99999999999994
20
17.3576822652758
30
0
41
1
10
-2.99999999999994
20
17.3064424615151
30
0
41
1
10
-2.99999999999994
20
17.2891029987731
30
0
0
SPLINE
5
22E
100
AcDbEntity
8
SK1
62
256
6
ByLayer
370
-1
48
1
60
0
100
AcDbSpline
70
4
71
3
72
73
73
69
40
0
40
0
40
0
40
0
40
0.0018466563416122
40
0.0173088927479062
40
0.0327711291542003
40
0.0482333655604943
40
0.0636956019667884
40
0.0791578383730825
40
0.0946200747793766
40
0.110082311185671
40
0.125544547591965
40
0.141006783998259
40
0.156469020404553
40
0.171931256810847
40
0.187393493217141
40
0.202855729623435
40
0.218317966029729
40
0.233780202436023
40
0.249242438842317
40
0.264704675248611
40
0.280166911654905
40
0.295629148061199
40
0.311091384467493
40
0.326553620873787
40
0.342015857280081
40
0.357478093686376
40
0.37294033009267
40
0.388402566498963
40
0.403864802905258
40
0.419327039311552
40
0.434789275717846
40
0.45025151212414
40
0.465713748530434
40
0.481175984936728
40
0.496638221343022
40
0.512100457749316
40
0.52756269415561
40
0.543024930561904
40
0.558487166968198
40
0.573949403374492
40
0.589411639780786
40
0.60487387618708
40
0.620336112593374
40
0.635798348999668
40
0.651260585405963
40
0.666722821812257
40
0.682185058218551
40
0.697647294624845
40
0.713109531031139
40
0.728571767437433
40
0.744034003843727
40
0.759496240250021
40
0.774958476656315
40
0.790420713062609
40
0.805882949468903
40
0.821345185875197
40
0.836807422281491
40
0.852269658687785
40
0.867731895094079
40
0.883194131500373
40
0.898656367906667
40
0.914118604312962
40
0.929580840719256
40
0.94504307712555
40
0.960505313531844
40
0.975967549938138
40
0.991429786344432
40
1
40
1
40
1
40
1
41
1
10
-28.5004731679065
20
16.5843275730954
30
0
41
1
10
-28.5004731679065
20
16.5890126467407
30
0
41
1
10
-28.5004731679065
20
16.6325284257403
30
0
41
1
10
-28.5004731679065
20
16.7076779742402
30
0
41
1
10
-28.5004731679065
20
16.7910009100058
30
0
41
1
10
-28.5004731679065
20
16.8457973580111
30
0
41
1
10
-28.5004731679065
20
16.8661113679711
30
0
41
1
10
-28.5004731679065
20
16.8457932960415
30
0
41
1
10
-28.5004731679065
20
16.7787920295583
30
0
41
1
10
-28.5004731679065
20
16.6594441325878
30
0
41
1
10
-28.5004731679065
20
16.4827618905288
30
0
41
1
10
-28.5004731679065
20
16.2446845781523
30
0
41
1
10
-28.5004731679065
20
15.9423067030317
30
0
41
1
10
-28.5004731679065
20
15.5740550609709
30
0
41
1
10
-28.5004731679065
20
15.1398218356871
30
0
41
1
10
-28.5004731679065
20
14.6410360299331
30
0
41
1
10
-28.5004731679065
20
14.0806798361698
30
0
41
1
10
-28.5004731679065
20
13.4632415716312
30
0
41
1
10
-28.5004731679065
20
12.7946107775085
30
0
41
1
10
-28.5004731679065
20
12.0819181856553
30
0
41
1
10
-28.5004731679065
20
11.3333237326369
30
0
41
1
10
-28.5004731679065
20
10.557766572068
30
0
41
1
10
-28.5004731679065
20
9.76467681695502
30
0
41
1
10
-28.5004731679065
20
8.96367263859335
30
0
41
1
10
-28.5004731679065
20
8.16423852984713
30
0
41
1
10
-28.5004731679065
20
7.37541494914311
30
0
41
1
10
-28.5004731679065
20
6.60549138939066
30
0
41
1
10
-28.5004731679065
20
5.8617355376129
30
0
41
1
10
-28.5004731679065
20
5.15014758540386
30
0
41
1
10
-28.5004731679065
20
4.47527023543961
30
0
41
1
10
-28.5004731679065
20
3.84004176429181
30
0
41
1
10
-28.5004731679065
20
3.24571625932083
30
0
41
1
10
-28.5004731679065
20
2.69183828529168
30
0
41
1
10
-28.5004731679065
20
2.1762862832866
30
0
41
1
10
-28.5004731679065
20
1.69537351492639
30
0
41
1
10
-28.5004731679065
20
1.24400909015813
30
0
41
1
10
-28.5004731679065
20
0.815910920503427
30
0
41
1
10
-28.5004731679065
20
0.403861164287036
30
0
41
1
10
-28.5004731679065
20
8.53071356E-08
30
0
41
1
10
-28.5004731679065
20
-0.403861505515493
30
0
41
1
10
-28.5004731679065
20
-0.815910763441764
30
0
41
1
10
-28.5004731679065
20
-1.24400937717618
30
0
41
1
10
-28.5004731679065
20
-1.69537339652359
30
0
41
1
10
-28.5004731679065
20
-2.17628646987959
30
0
41
1
10
-28.5004731679065
20
-2.69183822496618
30
0
41
1
10
-28.5004731679065
20
-3.24571631402978
30
0
41
1
10
-28.5004731679065
20
-3.84004177292724
30
0
41
1
10
-28.5004731679065
20
-4.47527014618882
30
0
41
1
10
-28.5004731679065
20
-5.15014766379645
30
0
41
1
10
-28.5004731679065
20
-5.86173531329328
30
0
41
1
10
-28.5004731679065
20
-6.60549152820971
30
0
41
1
10
-28.5004731679065
20
-7.37541461818645
30
0
41
1
10
-28.5004731679065
20
-8.16423871111448
30
0
41
1
10
-28.5004731679065
20
-8.96367224448034
30
0
41
1
10
-28.5004731679065
20
-9.7646770167907
30
0
41
1
10
-28.5004731679065
20
-10.5577661668381
30
0
41
1
10
-28.5004731679065
20
-11.3333239249002
30
0
41
1
10
-28.5004731679065
20
-12.0819178218314
30
0
41
1
10
-28.5004731679066
20
-12.7946109377403
30
0
41
1
10
-28.5004731679065
20
-13.4632412945279
30
0
41
1
10
-28.5004731679065
20
-14.0806799452205
30
0
41
1
10
-28.5004731679065
20
-14.6410358708332
30
0
41
1
10
-28.5004731679065
20
-15.1398218825485
30
0
41
1
10
-28.5004731679065
20
-15.5740550326248
30
0
41
1
10
-28.5004731679065
20
-15.942306686368
30
0
41
1
10
-28.5004731679065
20
-16.2446846731531
30
0
41
1
10
-28.5004731679065
20
-16.4473889041335
30
0
41
1
10
-28.5004731679065
20
-16.5460150988219
30
0
41
1
10
-28.5004731679065
20
-16.5781578642455
30
0
0
SPLINE
5
22F
100
AcDbEntity
8
SK1
62
256
6
ByLayer
370
-1
48
1
60
0
100
AcDbSpline
70
4
71
3
72
14
73
10
40
0
40
0
40
0
40
0
40
0.103575740797296
40
0.255914577449049
40
0.408253414100803
40
0.560592250752556
40
0.71293108740431
40
0.865269924056063
40
1
40
1
40
1
40
1
41
1
10
-2.20000000000007
20
-15.0247808645595
30
0
41
1
10
-2.20000000000007
20
-14.8954704309983
30
0
41
1
10
-2.20000000000007
20
-14.5640748657259
30
0
41
1
10
-2.20000000000007
20
-13.9908991973699
30
0
41
1
10
-2.20000000000007
20
-13.2960635543425
30
0
41
1
10
-2.20000000000007
20
-12.5554382231013
30
0
41
1
10
-2.20000000000005
20
-11.7775050699617
30
0
41
1
10
-2.20000000000005
20
-11.0026045240097
30
0
41
1
10
-2.20000000000005
20
-10.4855729233141
30
0
41
1
10
-2.20000000000005
20
-10.2416915120173
30
0
0
SPLINE
5
230
100
AcDbEntity
8
SK1
62
256
6
ByLayer
370
-1
48
1
60
0
100
AcDbSpline
70
4
71
3
72
30
73
26
40
0
40
0
40
0
40
0
40
0.0450445944181809
40
0.0902490530668534
40
0.135453511715526
40
0.180657970364199
40
0.225862429012871
40
0.271066887661544
40
0.316271346310216
40
0.361475804958888
40
0.406680263607561
40
0.451884722256234
40
0.497089180904906
40
0.542293639553579
40
0.587498098202251
40
0.632702556850924
40
0.677907015499596
40
0.723111474148269
40
0.768315932796941
40
0.813520391445614
40
0.858724850094286
40
0.903929308742959
40
0.949133767391631
40
0.994338226040304
40
1
40
1
40
1
40
1
41
1
10
-0.399999999999977
20
17.3251498299723
30
0
41
1
10
-0.399999999999977
20
17.3250962939262
30
0
41
1
10
-0.399999999999977
20
17.3111377072256
30
0
41
1
10
-0.399999999999977
20
17.2422674474922
30
0
41
1
10
-0.399999999999977
20
17.1193484069474
30
0
41
1
10
-0.399999999999977
20
16.9372587367204
30
0
41
1
10
-0.400000000000006
20
16.6917602356259
30
0
41
1
10
-0.400000000000006
20
16.3798174953022
30
0
41
1
10
-0.400000000000006
20
15.9997825770269
30
0
41
1
10
-0.400000000000006
20
15.5515337348698
30
0
41
1
10
-0.400000000000006
20
15.0365499649754
30
0
41
1
10
-0.400000000000006
20
14.4579280405673
30
0
41
1
10
-0.400000000000006
20
13.8203335391023
30
0
41
1
10
-0.400000000000006
20
13.1298914527523
30
0
41
1
10
-0.400000000000006
20
12.39401945775
30
0
41
1
10
-0.400000000000034
20
11.6212068879994
30
0
41
1
10
-0.400000000000034
20
10.8207542384819
30
0
41
1
10
-0.400000000000034
20
10.00247262006
30
0
41
1
10
-0.400000000000034
20
9.17636811026827
30
0
41
1
10
-0.400000000000034
20
8.35230629219913
30
0
41
1
10
-0.400000000000034
20
7.53968883941312
30
0
41
1
10
-0.400000000000034
20
6.74713346409783
30
0
41
1
10
-0.400000000000034
20
5.98219169787032
30
0
41
1
10
-0.400000000000034
20
5.46426940201667
30
0
41
1
10
-0.400000000000034
20
5.19818241873483
30
0
41
1
10
-0.400000000000034
20
5.16866682996368
30
0
0
SPLINE
5
231
100
AcDbEntity
8
SK1
62
256
6
ByLayer
370
-1
48
1
60
0
100
AcDbSpline
70
4
71
3
72
24
73
20
40
0
40
0
40
0
40
0
40
0.249999999999999
40
0.249999999999999
40
0.499999999999999
40
0.499999999999999
40
0.624999999999999
40
0.624999999999999
40
0.749999999999999
40
0.749999999999999
40
0.812499999999999
40
0.812499999999999
40
0.874999999999999
40
0.874999999999999
40
0.906249999999999
40
0.906249999999999
40
0.937499999999999
40
0.937499999999999
40
1
40
1
40
1
40
1
41
1
10
-1.30710678118655
20
3.80474436172742
30
0
41
1
10
-1.27820587151987
20
3.96162549630972
30
0
41
1
10
-1.24528283058905
20
4.11647986205287
30
0
41
1
10
-1.16690330055033
20
4.42150599832851
30
0
41
1
10
-1.1216394818185
20
4.57210526807785
30
0
41
1
10
-1.03683410576141
20
4.78923689203188
30
0
41
1
10
-1.00570960409644
20
4.86025318303473
30
0
41
1
10
-0.93330125313895
20
4.99796819311584
30
0
41
1
10
-0.892788793638914
20
5.06495158421586
30
0
41
1
10
-0.812720410511901
20
5.15791908023726
30
0
41
1
10
-0.783582064742575
20
5.18655692653388
30
0
41
1
10
-0.715621550866786
20
5.23468180965574
30
0
41
1
10
-0.675209143574591
20
5.2544383674574
30
0
41
1
10
-0.609749014159945
20
5.26408079733798
30
0
41
1
10
-0.587593321752848
20
5.26395175835981
30
0
41
1
10
-0.543797506156182
20
5.25694068357137
30
0
41
1
10
-0.522881824241551
20
5.25022122084911
30
0
41
1
10
-0.463662442339768
20
5.22330778036215
30
0
41
1
10
-0.430108854220066
20
5.19751789940321
30
0
41
1
10
-0.400000000000006
20
5.16866682996363
30
0
0
SPLINE
5
232
100
AcDbEntity
8
SK1
62
256
6
ByLayer
370
-1
48
1
60
0
100
AcDbSpline
70
4
71
3
72
26
73
22
40
0
40
0
40
0
40
0
40
0.0312500000000011
40
0.0312500000000011
40
0.0625000000000023
40
0.0625000000000023
40
0.0937500000000034
40
0.0937500000000034
40
0.125000000000004
40
0.125000000000004
40
0.187500000000004
40
0.187500000000004
40
0.250000000000004
40
0.250000000000004
40
0.375000000000003
40
0.375000000000003
40
0.500000000000003
40
0.500000000000003
40
0.750000000000001
40
0.750000000000001
40
1
40
1
40
1
40
1
41
1
10
-0.400000000000034
20
5.16866682996297
30
0
41
1
10
-0.39379156107097
20
5.16271774597109
30
0
41
1
10
-0.387065759690273
20
5.15737775419612
30
0
41
1
10
-0.371847789302336
20
5.14918868455118
30
0
41
1
10
-0.363364114486188
20
5.14648591129571
30
0
41
1
10
-0.345795239221502
20
5.14639178859295
30
0
41
1
10
-0.336814123758302
20
5.14920763371799
30
0
41
1
10
-0.321282558839755
20
5.15860582383482
30
0
41
1
10
-0.314550028521779
20
5.16497907632953
30
0
41
1
10
-0.296944139903985
20
5.18569897355047
30
0
41
1
10
-0.288179942609275
20
5.20182093101974
30
0
41
1
10
-0.273356478254499
20
5.23426931143496
30
0
41
1
10
-0.267307193501125
20
5.25091131490998
30
0
41
1
10
-0.251274285749361
20
5.30146995854872
30
0
41
1
10
-0.243428614732437
20
5.33601274127312
30
0
41
1
10
-0.230497441696428
20
5.40451867267049
30
0
41
1
10
-0.225449336351801
20
5.43874947226385
30
0
41
1
10
-0.212850463115558
20
5.54134062553351
30
0
41
1
10
-0.207811804454735
20
5.60959926072471
30
0
41
1
10
-0.201341575126975
20
5.74580650530868
30
0
41
1
10
-0.200000000000046
20
5.81380202900655
30
0
41
1
10
-0.200000000000046
20
5.88142452370542
30
0
0
SPLINE
5
233
100
AcDbEntity
8
SK1
62
256
6
ByLayer
370
-1
48
1
60
0
100
AcDbSpline
70
4
71
3
72
24
73
20
40
0
40
0
40
0
40
0
40
0.250000000000001
40
0.250000000000001
40
0.375000000000001
40
0.375000000000001
40
0.437500000000001
40
0.437500000000001
40
0.500000000000001
40
0.500000000000001
40
0.625000000000001
40
0.625000000000001
40
0.750000000000001
40
0.750000000000001
40
0.812500000000001
40
0.812500000000001
40
0.875
40
0.875
40
1
40
1
40
1
40
1
41
1
10
-1.30710678118655
20
3.80474436172742
30
0
41
1
10
-1.41816180194488
20
3.20191082262588
30
0
41
1
10
-1.51742460563804
20
2.58660830647122
30
0
41
1
10
-1.62712751713187
20
1.6369256404862
30
0
41
1
10
-1.6570129896302
20
1.31584300840137
30
0
41
1
10
-1.68795529356487
20
0.825841257997496
30
0
41
1
10
-1.69596975522452
20
0.660458756170897
30
0
41
1
10
-1.70663247810879
20
0.331065538121066
30
0
41
1
10
-1.70932931448368
20
0.166863930724105
30
0
41
1
10
-1.70943014065867
20
-0.324256820765584
30
0
41
1
10
-1.69876152571632
20
-0.649683250610991
30
0
41
1
10
-1.6585118317669
20
-1.29689910929389
30
0
41
1
10
-1.62900241775955
20
-1.61869699531221
30
0
41
1
10
-1.57385204849132
20
-2.09905529777984
30
0
41
1
10
-1.55367435654514
20
-2.25852307528237
30
0
41
1
10
-1.51060288083744
20
-2.57419592633738
30
0
41
1
10
-1.48766444543867
20
-2.73071961056408
30
0
41
1
10
-1.41544165724093
20
-3.1967524121109
30
0
41
1
10
-1.3627454758165
20
-3.50272542326081
30
0
41
1
10
-1.30710678118663
20
-3.80474664113297
30
0
0
SPLINE
5
234
100
AcDbEntity
8
SK1
62
256
6
ByLayer
370
-1
48
1
60
0
100
AcDbSpline
70
4
71
3
72
79
73
75
40
0
40
0
40
0
40
0
40
0.0074030717402288
40
0.0214772707656333
40
0.0355514697910377
40
0.0496256688164421
40
0.0636998678418466
40
0.077774066867251
40
0.0918482658926555
40
0.10592246491806
40
0.119996663943464
40
0.134070862968869
40
0.148145061994273
40
0.162219261019678
40
0.176293460045082
40
0.190367659070487
40
0.204441858095891
40
0.218516057121295
40
0.2325902561467
40
0.246664455172104
40
0.260738654197509
40
0.274812853222913
40
0.288887052248318
40
0.302961251273722
40
0.317035450299127
40
0.331109649324531
40
0.345183848349935
40
0.35925804737534
40
0.373332246400744
40
0.387406445426149
40
0.401480644451553
40
0.415554843476958
40
0.429629042502362
40
0.443703241527767
40
0.457777440553171
40
0.471851639578576
40
0.48592583860398
40
0.500000037629384
40
0.514074236654789
40
0.528148435680193
40
0.542222634705598
40
0.556296833731002
40
0.570371032756407
40
0.584445231781811
40
0.598519430807215
40
0.61259362983262
40
0.626667828858024
40
0.640742027883429
40
0.654816226908833
40
0.668890425934238
40
0.682964624959642
40
0.697038823985047
40
0.711113023010451
40
0.725187222035856
40
0.73926142106126
40
0.753335620086664
40
0.767409819112069
40
0.781484018137473
40
0.795558217162878
40
0.809632416188282
40
0.823706615213687
40
0.837780814239091
40
0.851855013264496
40
0.8659292122899
40
0.880003411315304
40
0.894077610340709
40
0.908151809366113
40
0.922226008391518
40
0.936300207416922
40
0.950374406442327
40
0.964448605467731
40
0.978522804493135
40
0.99259700351854
40
1
40
1
40
1
40
1
41
1
10
-1.99999999999997
20
17.1116144559991
30
0
41
1
10
-1.99999999999997
20
17.1306737746498
30
0
41
1
10
-1.99999999999997
20
17.1831798978529
30
0
41
1
10
-1.99999999999997
20
17.2550395308993
30
0
41
1
10
-1.99999999999997
20
17.3112459497451
30
0
41
1
10
-1.99999999999997
20
17.3321089735132
30
0
41
1
10
-1.99999999999997
20
17.311218988921
30
0
41
1
10
-1.99999999999997
20
17.2422674474922
30
0
41
1
10
-1.99999999999997
20
17.1193484069474
30
0
41
1
10
-1.99999999999997
20
16.9372587367204
30
0
41
1
10
-1.99999999999997
20
16.6917602356259
30
0
41
1
10
-1.99999999999997
20
16.3798174953022
30
0
41
1
10
-1.99999999999997
20
15.9997825770269
30
0
41
1
10
-1.99999999999997
20
15.5515337348698
30
0
41
1
10
-1.99999999999997
20
15.0365499649754
30
0
41
1
10
-1.99999999999997
20
14.4579280405673
30
0
41
1
10
-1.99999999999997
20
13.8203335391023
30
0
41
1
10
-2
20
13.1298914527523
30
0
41
1
10
-2
20
12.39401945775
30
0
41
1
10
-2.00000000000003
20
11.6212068879994
30
0
41
1
10
-2.00000000000003
20
10.8207542384819
30
0
41
1
10
-2.00000000000003
20
10.00247262006
30
0
41
1
10
-2.00000000000003
20
9.17636811026827
30
0
41
1
10
-2.00000000000003
20
8.35230629219913
30
0
41
1
10
-2.00000000000003
20
7.53968883941312
30
0
41
1
10
-2.00000000000003
20
6.74713346409783
30
0
41
1
10
-2.00000000000003
20
5.98219169787032
30
0
41
1
10
-2.00000000000003
20
5.25109264883253
30
0
41
1
10
-2.00000000000003
20
4.55854550233684
30
0
41
1
10
-2.00000000000003
20
3.90758262960779
30
0
41
1
10
-2.00000000000003
20
3.29948777527221
30
0
41
1
10
-2.00000000000003
20
2.73375387844547
30
0
41
1
10
-2.00000000000003
20
2.20813463136872
30
0
41
1
10
-2.00000000000003
20
1.71876156390923
30
0
41
1
10
-2.00000000000003
20
1.26029526086333
30
0
41
1
10
-2.00000000000003
20
0.826158476850765
30
0
41
1
10
-2.00000000000003
20
0.408799134273892
30
0
41
1
10
-2.00000000000003
20
2.402494488E-07
30
0
41
1
10
-2.00000000000003
20
-0.408799553455736
30
0
41
1
10
-2.00000000000003
20
-0.82615842677356
30
0
41
1
10
-2.00000000000003
20
-1.26029551010325
30
0
41
1
10
-2.00000000000003
20
-1.71876142586774
30
0
41
1
10
-2.00000000000003
20
-2.20813448047156
30
0
41
1
10
-2.00000000000003
20
-2.7337537633878
30
0
41
1
10
-2.00000000000003
20
-3.29948825001514
30
0
41
1
10
-2.00000000000003
20
-3.9075826619212
30
0
41
1
10
-2.00000000000003
20
-4.55854530449344
30
0
41
1
10
-2.00000000000003
20
-5.25109273249788
30
0
41
1
10
-2.00000000000003
20
-5.98219146197602
30
0
41
1
10
-2.00000000000003
20
-6.74713361247495
30
0
41
1
10
-2.00000000000003
20
-7.53968849279406
30
0
41
1
10
-2.00000000000003
20
-8.35230648563552
30
0
41
1
10
-2.00000000000003
20
-9.17636769820604
30
0
41
1
10
-2.00000000000003
20
-10.0024728331477
30
0
41
1
10
-2.00000000000003
20
-10.8207538150476
30
0
41
1
10
-2.00000000000003
20
-11.6212070931939
30
0
41
1
10
-2.00000000000006
20
-12.3940190774915
30
0
41
1
10
-2.00000000000006
20
-13.1298916243886
30
0
41
1
10
-2.00000000000003
20
-13.8203332490725
30
0
41
1
10
-2.00000000000003
20
-14.4579281585871
30
0
41
1
10
-2.00000000000003
20
-15.0365497976464
30
0
41
1
10
-2.00000000000003
20
-15.5515337877379
30
0
41
1
10
-2.00000000000003
20
-15.9997825456108
30
0
41
1
10
-2.00000000000003
20
-16.379817481596
30
0
41
1
10
-2.00000000000003
20
-16.6917603323907
30
0
41
1
10
-2.00000000000003
20
-16.9372586651848
30
0
41
1
10
-2.00000000000003
20
-17.1193485969266
30
0
41
1
10
-2.00000000000003
20
-17.2422669751987
30
0
41
1
10
-2.00000000000003
20
-17.3112199736996
30
0
41
1
10
-2.00000000000003
20
-17.3321088799281
30
0
41
1
10
-2.00000000000003
20
-17.3112453434672
30
0
41
1
10
-2.00000000000003
20
-17.2550397180126
30
0
41
1
10
-2.00000000000003
20
-17.1831802761866
30
0
41
1
10
-2.00000000000003
20
-17.1306742495823
30
0
41
1
10
-2.00000000000006
20
-17.1116151083863
30
0
0
SPLINE
5
235
100
AcDbEntity
8
SK1
62
256
6
ByLayer
370
-1
48
1
60
0
100
AcDbSpline
70
4
71
3
72
28
73
24
40
0
40
0
40
0
40
0
40
0.0624999999999978
40
0.0624999999999978
40
0.0937499999999973
40
0.0937499999999973
40
0.124999999999997
40
0.124999999999997
40
0.156249999999996
40
0.156249999999996
40
0.187499999999996
40
0.187499999999996
40
0.249999999999995
40
0.249999999999995
40
0.312499999999995
40
0.312499999999995
40
0.374999999999994
40
0.374999999999994
40
0.499999999999996
40
0.499999999999996
40
0.749999999999998
40
0.749999999999998
40
1
40
1
40
1
40
1
41
1
10
-0.400000000000034
20
-5.16866679574528
30
0
41
1
10
-0.429667984858526
20
-5.19709542919747
30
0
41
1
10
-0.463222617053248
20
-5.22280908416965
30
0
41
1
10
-0.52069073499743
20
-5.2493656202553
30
0
41
1
10
-0.541319982680051
20
-5.2562280629663
30
0
41
1
10
-0.584167147180267
20
-5.26367853666855
30
0
41
1
10
-0.606263827599633
20
-5.26419006417308
30
0
41
1
10
-0.649499715320417
20
-5.25856600648308
30
0
41
1
10
-0.670470103516493
20
-5.25251038934852
30
0
41
1
10
-0.709851682998163
20
-5.23586408036579
30
0
41
1
10
-0.728052830987394
20
-5.22546765124821
30
0
41
1
10
-0.779626594601126
20
-5.19004145070292
30
0
41
1
10
-0.809163918582101
20
-5.16149505705718
30
0
41
1
10
-0.862207736531758
20
-5.10093998422238
30
0
41
1
10
-0.886005967364127
20
-5.06835849703066
30
0
41
1
10
-0.929332938802958
20
-5.00192246546092
30
0
41
1
10
-0.948980336228743
20
-4.96788084943088
30
0
41
1
10
-1.00396571473226
20
-4.86405782935998
30
0
41
1
10
-1.03542015821515
20
-4.79260544067262
30
0
41
1
10
-1.12107140298599
20
-4.57404740423686
30
0
41
1
10
-1.16650547510207
20
-4.42291937415834
30
0
41
1
10
-1.24510539876221
20
-4.11730652712239
30
0
41
1
10
-1.27812387419789
20
-3.96207335277512
30
0
41
1
10
-1.30710678118655
20
-3.80474664113271
30
0
0
SPLINE
5
236
100
AcDbEntity
8
SK1
62
256
6
ByLayer
370
-1
48
1
60
0
100
AcDbSpline
70
4
71
3
72
30
73
26
40
0
40
0
40
0
40
0
40
0.0056618334178372
40
0.0508667587544733
40
0.0960716840911094
40
0.141276609427746
40
0.186481534764382
40
0.231686460101018
40
0.276891385437654
40
0.32209631077429
40
0.367301236110926
40
0.412506161447562
40
0.457711086784198
40
0.502916012120834
40
0.54812093745747
40
0.593325862794106
40
0.638530788130742
40
0.683735713467378
40
0.728940638804015
40
0.774145564140651
40
0.819350489477287
40
0.864555414813923
40
0.909760340150559
40
0.954965265487195
40
1
40
1
40
1
40
1
41
1
10
-0.400000000000034
20
-5.16866679574528
30
0
41
1
10
-0.400000000000034
20
-5.1981823917107
30
0
41
1
10
-0.400000000000034
20
-5.46426938707833
30
0
41
1
10
-0.400000000000034
20
-5.98219146197602
30
0
41
1
10
-0.400000000000034
20
-6.74713361247495
30
0
41
1
10
-0.400000000000034
20
-7.53968849279406
30
0
41
1
10
-0.400000000000034
20
-8.35230648563555
30
0
41
1
10
-0.400000000000034
20
-9.17636769820604
30
0
41
1
10
-0.400000000000034
20
-10.0024728331477
30
0
41
1
10
-0.400000000000034
20
-10.8207538150476
30
0
41
1
10
-0.400000000000034
20
-11.6212070931939
30
0
41
1
10
-0.400000000000063
20
-12.3940190774915
30
0
41
1
10
-0.400000000000063
20
-13.1298916243886
30
0
41
1
10
-0.400000000000063
20
-13.8203332490725
30
0
41
1
10
-0.400000000000063
20
-14.4579281585871
30
0
41
1
10
-0.400000000000063
20
-15.0365497976464
30
0
41
1
10
-0.400000000000063
20
-15.5515337877379
30
0
41
1
10
-0.400000000000063
20
-15.9997825456108
30
0
41
1
10
-0.400000000000063
20
-16.379817481596
30
0
41
1
10
-0.400000000000063
20
-16.6917603323907
30
0
41
1
10
-0.400000000000034
20
-16.9372586651848
30
0
41
1
10
-0.400000000000034
20
-17.1193485969266
30
0
41
1
10
-0.400000000000034
20
-17.2422669751987
30
0
41
1
10
-0.400000000000006
20
-17.3111334405948
30
0
41
1
10
-0.400000000000034
20
-17.3250933682472
30
0
41
1
10
-0.400000000000034
20
-17.3251497957615
30
0
0
SPLINE
5
237
100
AcDbEntity
8
SK1
62
256
6
ByLayer
370
-1
48
1
60
0
100
AcDbSpline
70
4
71
3
72
24
73
20
40
0
40
0
40
0
40
0
40
0.250000000000001
40
0.250000000000001
40
0.500000000000002
40
0.500000000000002
40
0.625000000000002
40
0.625000000000002
40
0.750000000000003
40
0.750000000000003
40
0.812500000000003
40
0.812500000000003
40
0.875000000000004
40
0.875000000000004
40
0.906250000000003
40
0.906250000000003
40
0.937500000000002
40
0.937500000000002
40
1
40
1
40
1
40
1
41
1
10
-0.200000000000046
20
-5.88142397393344
30
0
41
1
10
-0.200000000000046
20
-5.81371009654848
30
0
41
1
10
-0.201340439454953
20
-5.74574546022151
30
0
41
1
10
-0.207833121644739
20
-5.60923509045296
30
0
41
1
10
-0.212902754690077
20
-5.54059458280554
30
0
41
1
10
-0.225634072984661
20
-5.4374091810827
30
0
41
1
10
-0.230734364014495
20
-5.40303508817371
30
0
41
1
10
-0.243774490552681
20
-5.33441922744203
30
0
41
1
10
-0.251620111359472
20
-5.30011582455157
30
0
41
1
10
-0.267750793190515
20
-5.24965195775641
30
0
41
1
10
-0.273885609564587
20
-5.23293996762811
30
0
41
1
10
-0.288755383055644
20
-5.20074556117078
30
0
41
1
10
-0.297542372526635
20
-5.18480467715821
30
0
41
1
10
-0.315067245397358
20
-5.16447225710797
30
0
41
1
10
-0.321786064568897
20
-5.15820797099255
30
0
41
1
10
-0.33727307780353
20
-5.14902898284879
30
0
41
1
10
-0.346051494737054
20
-5.14633288727399
30
0
41
1
10
-0.372567411829238
20
-5.14665884649861
30
0
41
1
10
-0.387659424580988
20
-5.15684173594229
30
0
41
1
10
-0.400000000000063
20
-5.168666795745
30
0
0
LINE
5
45
100
AcDbEntity
8
80
62
256
6
ByLayer
370
-1
48
1
60
0
100
AcDbLine
10
0
20
0
30
0
11
-7
21
0
31
0
39
0
210
0
220
0
230
1
0
LINE
5
46
100
AcDbEntity
8
81
62
256
6
ByLayer
370
-1
48
1
60
0
100
AcDbLine
10
119
20
0
30
0
11
126
21
0
31
0
39
0
210
0
220
0
230
1
0
LINE
5
47
100
AcDbEntity
8
1
62
256
6
ByLayer
370
-1
48
1
60
0
100
AcDbLine
10
0.3
20
25
30
0
11
0
21
24.7
31
0
39
0
210
0
220
0
230
1
0
LINE
5
49
100
AcDbEntity
8
1
62
256
6
ByLayer
370
-1
48
1
60
0
100
AcDbLine
10
0
20
-24.7
30
0
11
0.3
21
-25
31
0
39
0
210
0
220
0
230
1
0
LINE
5
4A
100
AcDbEntity
8
1
62
256
6
ByLayer
370
-1
48
1
60
0
100
AcDbLine
10
19.4
20
-25
30
0
11
19.7
21
-24.7
31
0
39
0
210
0
220
0
230
1
0
LINE
5
4B
100
AcDbEntity
8
1
62
256
6
ByLayer
370
-1
48
1
60
0
100
AcDbLine
10
19.7
20
24.7
30
0
11
19.4
21
25
31
0
39
0
210
0
220
0
230
1
0
LINE
5
4C
100
AcDbEntity
8
1
62
256
6
ByLayer
370
-1
48
1
60
0
100
AcDbLine
10
19.4
20
25
30
0
11
0.3
21
25
31
0
39
0
210
0
220
0
230
1
0
LINE
5
4D
100
AcDbEntity
8
1
62
256
6
ByLayer
370
-1
48
1
60
0
100
AcDbLine
10
0.3
20
-25
30
0
11
19.4
21
-25
31
0
39
0
210
0
220
0
230
1
0
LINE
5
4E
100
AcDbEntity
8
1
62
256
6
ByLayer
370
-1
48
1
60
0
100
AcDbLine
10
24.9
20
16
30
0
11
20.1
21
16
31
0
39
0
210
0
220
0
230
1
0
LINE
5
4F
100
AcDbEntity
8
1
62
256
6
ByLayer
370
-1
48
1
60
0
100
AcDbLine
10
20.1
20
-16
30
0
11
24.9
21
-16
31
0
39
0
210
0
220
0
230
1
0
LINE
5
50
100
AcDbEntity
8
1
62
256
6
ByLayer
370
-1
48
1
60
0
100
AcDbLine
10
24.9
20
-16
30
0
11
25.025882
21
-15.903407
31
0
39
0
210
0
220
0
230
1
0
LINE
5
51
100
AcDbEntity
8
1
62
256
6
ByLayer
370
-1
48
1
60
0
100
AcDbLine
10
25.025882
20
15.903407
30
0
11
24.9
21
16
31
0
39
0
210
0
220
0
230
1
0
LINE
5
52
100
AcDbEntity
8
1
62
256
6
ByLayer
370
-1
48
1
60
0
100
AcDbLine
10
19.7
20
-16
30
0
11
20
21
-16
31
0
39
0
210
0
220
0
230
1
0
LINE
5
53
100
AcDbEntity
8
1
62
256
6
ByLayer
370
-1
48
1
60
0
100
AcDbLine
10
20
20
16
30
0
11
19.7
21
16
31
0
39
0
210
0
220
0
230
1
0
LINE
5
54
100
AcDbEntity
8
1
62
256
6
ByLayer
370
-1
48
1
60
0
100
AcDbLine
10
20.1
20
16
30
0
11
20
21
15.9
31
0
39
0
210
0
220
0
230
1
0
LINE
5
55
100
AcDbEntity
8
1
62
256
6
ByLayer
370
-1
48
1
60
0
100
AcDbLine
10
20
20
-15.9
30
0
11
20.1
21
-16
31
0
39
0
210
0
220
0
230
1
0
LINE
5
56
100
AcDbEntity
8
1
62
256
6
ByLayer
370
-1
48
1
60
0
100
AcDbLine
10
25.025882
20
-15.903407
30
0
11
25.243045
21
-15.092945
31
0
39
0
210
0
220
0
230
1
0
LINE
5
57
100
AcDbEntity
8
1
62
256
6
ByLayer
370
-1
48
1
60
0
100
AcDbLine
10
25.243045
20
15.092945
30
0
11
25.025882
21
15.903407
31
0
39
0
210
0
220
0
230
1
0
LINE
5
58
100
AcDbEntity
8
1
62
256
6
ByLayer
370
-1
48
1
60
0
100
AcDbLine
10
26.015785
20
-14.5
30
0
11
26.5
21
-14.5
31
0
39
0
210
0
220
0
230
1
0
LINE
5
59
100
AcDbEntity
8
1
62
256
6
ByLayer
370
-1
48
1
60
0
100
AcDbLine
10
71.223143
20
12.05
30
0
11
40
21
12.05
31
0
39
0
210
0
220
0
230
1
0
LINE
5
5A
100
AcDbEntity
8
1
62
256
6
ByLayer
370
-1
48
1
60
0
100
AcDbLine
10
109.43951
20
12.05
30
0
11
108.494867
21
12.05
31
0
39
0
210
0
220
0
230
1
0
LINE
5
5B
100
AcDbEntity
8
1
62
256
6
ByLayer
370
-1
48
1
60
0
100
AcDbLine
10
40
20
-12.05
30
0
11
68.594242
21
-12.05
31
0
39
0
210
0
220
0
230
1
0
LINE
5
5C
100
AcDbEntity
8
1
62
256
6
ByLayer
370
-1
48
1
60
0
100
AcDbLine
10
26.5
20
14.5
30
0
11
26.015785
21
14.5
31
0
39
0
210
0
220
0
230
1
0
LINE
5
5D
100
AcDbEntity
8
SK4
62
256
6
ByLayer
370
-1
48
0.05
60
0
100
AcDbLine
10
119
20
0
30
0
11
-30
21
0
31
0
39
0
210
0
220
0
230
1
0
LINE
5
5F
100
AcDbEntity
8
4
62
256
6
ByLayer
370
-1
48
0.05
60
0
100
AcDbLine
10
119
20
0
30
0
11
0
21
0
31
0
39
0
210
0
220
0
230
1
0
LINE
5
61
100
AcDbEntity
8
1
62
256
6
ByLayer
370
-1
48
1
60
0
100
AcDbLine
10
11.461325
20
-23.83913
30
0
11
11.461325
21
-7.529667
31
0
39
0
210
0
220
0
230
1
0
LINE
5
62
100
AcDbEntity
8
1
62
256
6
ByLayer
370
-1
48
1
60
0
100
AcDbLine
10
26.015785
20
14.5
30
0
11
26.015785
21
8.819066
31
0
39
0
210
0
220
0
230
1
0
LINE
5
63
100
AcDbEntity
8
1
62
256
6
ByLayer
370
-1
48
1
60
0
100
AcDbLine
10
11.894338
20
-23.666502
30
0
11
11.894338
21
-8.055848
31
0
39
0
210
0
220
0
230
1
0
LINE
5
64
100
AcDbEntity
8
1
62
256
6
ByLayer
370
-1
48
1
60
0
100
AcDbLine
10
111.476415
20
3.241346
30
0
11
117.289654
21
3.428309
31
0
39
0
210
0
220
0
230
1
0
LINE
5
65
100
AcDbEntity
8
1
62
256
6
ByLayer
370
-1
48
1
60
0
100
AcDbLine
10
117.776191
20
0.640055
30
0
11
118.127888
21
-6.058219
31
0
39
0
210
0
220
0
230
1
0
LINE
5
66
100
AcDbEntity
8
1
62
256
6
ByLayer
370
-1
48
1
60
0
100
AcDbLine
10
11.461325
20
-23.83913
30
0
11
8.538675
21
-23.83913
31
0
39
0
210
0
220
0
230
1
0
LINE
5
67
100
AcDbEntity
8
1
62
256
6
ByLayer
370
-1
48
1
60
0
100
AcDbLine
10
8.538675
20
23.83913
30
0
11
11.461325
21
23.83913
31
0
39
0
210
0
220
0
230
1
0
LINE
5
68
100
AcDbEntity
8
1
62
256
6
ByLayer
370
-1
48
1
60
0
100
AcDbLine
10
25.243045
20
-15.092945
30
0
11
25.243045
21
15.092945
31
0
39
0
210
0
220
0
230
1
0
LINE
5
69
100
AcDbEntity
8
1
62
256
6
ByLayer
370
-1
48
1
60
0
100
AcDbLine
10
117.781533
20
1.250761
30
0
11
117.853996
21
1.248235
31
0
39
0
210
0
220
0
230
1
0
LINE
5
6A
100
AcDbEntity
8
1
62
256
6
ByLayer
370
-1
48
1
60
0
100
AcDbLine
10
109.176201
20
4.612626
30
0
11
109.420237
21
4.612626
31
0
39
0
210
0
220
0
230
1
0
LINE
5
6B
100
AcDbEntity
8
1
62
256
6
ByLayer
370
-1
48
1
60
0
100
AcDbLine
10
8.105662
20
8.055848
30
0
11
8.105662
21
23.666502
31
0
39
0
210
0
220
0
230
1
0
LINE
5
6C
100
AcDbEntity
8
1
62
256
6
ByLayer
370
-1
48
1
60
0
100
AcDbLine
10
26.5
20
5.392389
30
0
11
26.5
21
-14.5
31
0
39
0
210
0
220
0
230
1
0
LINE
5
6D
100
AcDbEntity
8
1
62
256
6
ByLayer
370
-1
48
1
60
0
100
AcDbLine
10
20.1
20
16
30
0
11
20.1
21
-16
31
0
39
0
210
0
220
0
230
1
0
LINE
5
6E
100
AcDbEntity
8
1
62
256
6
ByLayer
370
-1
48
1
60
0
100
AcDbLine
10
117.795928
20
1.274678
30
0
11
117.80466
21
1.274374
31
0
39
0
210
0
220
0
230
1
0
LINE
5
6F
100
AcDbEntity
8
1
62
256
6
ByLayer
370
-1
48
1
60
0
100
AcDbLine
10
26.015785
20
6.805928
30
0
11
26.015785
21
-14.5
31
0
39
0
210
0
220
0
230
1
0
LINE
5
70
100
AcDbEntity
8
1
62
256
6
ByLayer
370
-1
48
1
60
0
100
AcDbLine
10
20
20
16
30
0
11
20
21
-16
31
0
39
0
210
0
220
0
230
1
0
LINE
5
71
100
AcDbEntity
8
1
62
256
6
ByLayer
370
-1
48
1
60
0
100
AcDbLine
10
8.538675
20
-23.83913
30
0
11
8.538675
21
-7.529667
31
0
39
0
210
0
220
0
230
1
0
LINE
5
72
100
AcDbEntity
8
1
62
256
6
ByLayer
370
-1
48
1
60
0
100
AcDbLine
10
118.030414
20
-12.043159
30
0
11
118.48533
21
-6.914283
31
0
39
0
210
0
220
0
230
1
0
LINE
5
73
100
AcDbEntity
8
1
62
256
6
ByLayer
370
-1
48
1
60
0
100
AcDbLine
10
40
20
12.05
30
0
11
40
21
7.950716
31
0
39
0
210
0
220
0
230
1
0
LINE
5
74
100
AcDbEntity
8
1
62
256
6
ByLayer
370
-1
48
1
60
0
100
AcDbLine
10
117.495369
20
3.428309
30
0
11
117.869425
21
3.407535
31
0
39
0
210
0
220
0
230
1
0
LINE
5
75
100
AcDbEntity
8
1
62
256
6
ByLayer
370
-1
48
1
60
0
100
AcDbLine
10
109.099712
20
7.011398
30
0
11
109.343748
21
7.011398
31
0
39
0
210
0
220
0
230
1
0
LINE
5
76
100
AcDbEntity
8
1
62
256
6
ByLayer
370
-1
48
1
60
0
100
AcDbLine
10
118.48533
20
-6.914283
30
0
11
118.132219
21
-6.871629
31
0
39
0
210
0
220
0
230
1
0
LINE
5
77
100
AcDbEntity
8
1
62
256
6
ByLayer
370
-1
48
1
60
0
100
AcDbLine
10
100.0678
20
11.838663
30
0
11
100.0678
21
8.03
31
0
39
0
210
0
220
0
230
1
0
LINE
5
78
100
AcDbEntity
8
1
62
256
6
ByLayer
370
-1
48
1
60
0
100
AcDbLine
10
109.70492
20
3.355238
30
0
11
107.989838
21
3.295117
31
0
39
0
210
0
220
0
230
1
0
LINE
5
79
100
AcDbEntity
8
1
62
256
6
ByLayer
370
-1
48
1
60
0
100
AcDbLine
10
8.105662
20
-23.666502
30
0
11
8.105662
21
-8.055848
31
0
39
0
210
0
220
0
230
1
0
LINE
5
7A
100
AcDbEntity
8
1
62
256
6
ByLayer
370
-1
48
1
60
0
100
AcDbLine
10
117.869425
20
3.407535
30
0
11
117.578881
21
3.411759
31
0
39
0
210
0
220
0
230
1
0
LINE
5
7B
100
AcDbEntity
8
1
62
256
6
ByLayer
370
-1
48
1
60
0
100
AcDbLine
10
105.817381
20
4.502916
30
0
11
105.017859
21
4.843589
31
0
39
0
210
0
220
0
230
1
0
LINE
5
7C
100
AcDbEntity
8
1
62
256
6
ByLayer
370
-1
48
1
60
0
100
AcDbLine
10
8.538675
20
7.529667
30
0
11
8.538675
21
23.83913
31
0
39
0
210
0
220
0
230
1
0
LINE
5
7D
100
AcDbEntity
8
1
62
256
6
ByLayer
370
-1
48
1
60
0
100
AcDbLine
10
99.254982
20
8.03
30
0
11
100.0678
21
8.03
31
0
39
0
210
0
220
0
230
1
0
LINE
5
7E
100
AcDbEntity
8
1
62
256
6
ByLayer
370
-1
48
1
60
0
100
AcDbLine
10
107.9778
20
3.253705
30
0
11
107.989838
21
3.295117
31
0
39
0
210
0
220
0
230
1
0
LINE
5
7F
100
AcDbEntity
8
1
62
256
6
ByLayer
370
-1
48
1
60
0
100
AcDbLine
10
118.127888
20
-6.058219
30
0
11
118.114962
21
-6.203954
31
0
39
0
210
0
220
0
230
1
0
LINE
5
80
100
AcDbEntity
8
1
62
256
6
ByLayer
370
-1
48
1
60
0
100
AcDbLine
10
117.80466
20
1.274374
30
0
11
117.853996
21
1.248235
31
0
39
0
210
0
220
0
230
1
0
LINE
5
81
100
AcDbEntity
8
1
62
256
6
ByLayer
370
-1
48
1
60
0
100
AcDbLine
10
11.461325
20
7.529667
30
0
11
11.461325
21
23.83913
31
0
39
0
210
0
220
0
230
1
0
LINE
5
82
100
AcDbEntity
8
1
62
256
6
ByLayer
370
-1
48
1
60
0
100
AcDbLine
10
117.771265
20
0.712921
30
0
11
117.776191
21
0.640055
31
0
39
0
210
0
220
0
230
1
0
LINE
5
83
100
AcDbEntity
8
1
62
256
6
ByLayer
370
-1
48
1
60
0
100
AcDbLine
10
117.578881
20
3.411759
30
0
11
117.289654
21
3.428309
31
0
39
0
210
0
220
0
230
1
0
LINE
5
84
100
AcDbEntity
8
1
62
256
6
ByLayer
370
-1
48
1
60
0
100
AcDbLine
10
19.7
20
-24.7
30
0
11
19.7
21
24.7
31
0
39
0
210
0
220
0
230
1
0
LINE
5
85
100
AcDbEntity
8
1
62
256
6
ByLayer
370
-1
48
1
60
0
100
AcDbLine
10
118.127888
20
-6.058219
30
0
11
117.789974
21
-5.907653
31
0
39
0
210
0
220
0
230
1
0
LINE
5
86
100
AcDbEntity
8
1
62
256
6
ByLayer
370
-1
48
1
60
0
100
AcDbLine
10
11.461325
20
7.529667
30
0
11
8.538675
21
7.529667
31
0
39
0
210
0
220
0
230
1
0
LINE
5
87
100
AcDbEntity
8
1
62
256
6
ByLayer
370
-1
48
1
60
0
100
AcDbLine
10
109.579438
20
8.196484
30
0
11
109.766828
21
8.196484
31
0
39
0
210
0
220
0
230
1
0
LINE
5
88
100
AcDbEntity
8
1
62
256
6
ByLayer
370
-1
48
1
60
0
100
AcDbLine
10
109.262208
20
4.136175
30
0
11
108.022238
21
4.092709
31
0
39
0
210
0
220
0
230
1
0
LINE
5
89
100
AcDbEntity
8
1
62
256
6
ByLayer
370
-1
48
1
60
0
100
AcDbLine
10
89.841662
20
9.028716
30
0
11
91.381566
21
8.171061
31
0
39
0
210
0
220
0
230
1
0
LINE
5
8A
100
AcDbEntity
8
1
62
256
6
ByLayer
370
-1
48
1
60
0
100
AcDbLine
10
107.149553
20
0.404361
30
0
11
107.49987
21
1.609527
31
0
39
0
210
0
220
0
230
1
0
LINE
5
8B
100
AcDbEntity
8
1
62
256
6
ByLayer
370
-1
48
1
60
0
100
AcDbLine
10
11.894338
20
8.055848
30
0
11
11.894338
21
23.666502
31
0
39
0
210
0
220
0
230
1
0
LINE
5
8C
100
AcDbEntity
8
1
62
256
6
ByLayer
370
-1
48
1
60
0
100
AcDbLine
10
117.872676
20
1.255615
30
0
11
118.003192
21
3.640841
31
0
39
0
210
0
220
0
230
1
0
LINE
5
8D
100
AcDbEntity
8
1
62
256
6
ByLayer
370
-1
48
1
60
0
100
AcDbLine
10
25.025882
20
15.903407
30
0
11
25.025882
21
-15.903407
31
0
39
0
210
0
220
0
230
1
0
LINE
5
8E
100
AcDbEntity
8
1
62
256
6
ByLayer
370
-1
48
1
60
0
100
AcDbLine
10
117.639637
20
-5.840667
30
0
11
117.245084
21
-5.664865
31
0
39
0
210
0
220
0
230
1
0
LINE
5
8F
100
AcDbEntity
8
1
62
256
6
ByLayer
370
-1
48
1
60
0
100
AcDbLine
10
116.683942
20
0.967314
30
0
11
116.736071
21
1.103504
31
0
39
0
210
0
220
0
230
1
0
LINE
5
90
100
AcDbEntity
8
1
62
256
6
ByLayer
370
-1
48
1
60
0
100
AcDbLine
10
117.853996
20
1.248235
30
0
11
117.872676
21
1.255615
31
0
39
0
210
0
220
0
230
1
0
LINE
5
91
100
AcDbEntity
8
1
62
256
6
ByLayer
370
-1
48
1
60
0
100
AcDbLine
10
109.70492
20
3.355238
30
0
11
109.750207
21
3.355238
31
0
39
0
210
0
220
0
230
1
0
LINE
5
92
100
AcDbEntity
8
1
62
256
6
ByLayer
370
-1
48
1
60
0
100
AcDbLine
10
107.331122
20
6.7956
30
0
11
99.960545
21
7.619266
31
0
39
0
210
0
220
0
230
1
0
LINE
5
93
100
AcDbEntity
8
1
62
256
6
ByLayer
370
-1
48
1
60
0
100
AcDbLine
10
96.343826
20
8.023436
30
0
11
95.600873
21
8.106461
31
0
39
0
210
0
220
0
230
1
0
LINE
5
94
100
AcDbEntity
8
1
62
256
6
ByLayer
370
-1
48
1
60
0
100
AcDbLine
10
117.289654
20
3.428309
30
0
11
117.495314
21
3.428309
31
0
39
0
210
0
220
0
230
1
0
LINE
5
95
100
AcDbEntity
8
1
62
256
6
ByLayer
370
-1
48
1
60
0
100
AcDbLine
10
19.4
20
-25
30
0
11
19.4
21
25
31
0
39
0
210
0
220
0
230
1
0
LINE
5
96
100
AcDbEntity
8
1
62
256
6
ByLayer
370
-1
48
1
60
0
100
AcDbLine
10
107.331122
20
6.7956
30
0
11
107.331122
21
12.04957
31
0
39
0
210
0
220
0
230
1
0
LINE
5
97
100
AcDbEntity
8
1
62
256
6
ByLayer
370
-1
48
1
60
0
100
AcDbLine
10
24.9
20
16
30
0
11
24.9
21
-16
31
0
39
0
210
0
220
0
230
1
0
LINE
5
98
100
AcDbEntity
8
1
62
256
6
ByLayer
370
-1
48
1
60
0
100
AcDbLine
10
26.5
20
14.5
30
0
11
26.5
21
9.895284
31
0
39
0
210
0
220
0
230
1
0
LINE
5
99
100
AcDbEntity
8
1
62
256
6
ByLayer
370
-1
48
1
60
0
100
AcDbLine
10
109.343748
20
7.011398
30
0
11
109.420237
21
4.612626
31
0
39
0
210
0
220
0
230
1
0
LINE
5
9A
100
AcDbEntity
8
1
62
256
6
ByLayer
370
-1
48
1
60
0
100
AcDbLine
10
0
20
-24.7
30
0
11
0
21
24.7
31
0
39
0
210
0
220
0
230
1
0
LINE
5
9B
100
AcDbEntity
8
1
62
256
6
ByLayer
370
-1
48
1
60
0
100
AcDbLine
10
109.544122
20
8.193422
30
0
11
109.432342
21
12.049721
31
0
39
0
210
0
220
0
230
1
0
LINE
5
9C
100
AcDbEntity
8
1
62
256
6
ByLayer
370
-1
48
1
60
0
100
AcDbLine
10
117.776191
20
0.640055
30
0
11
116.736071
21
1.103504
31
0
39
0
210
0
220
0
230
1
0
LINE
5
9D
100
AcDbEntity
8
1
62
256
6
ByLayer
370
-1
48
1
60
0
100
AcDbLine
10
104.754839
20
1.78632
30
0
11
104.493054
21
0.885727
31
0
39
0
210
0
220
0
230
1
0
LINE
5
9E
100
AcDbEntity
8
1
62
256
6
ByLayer
370
-1
48
1
60
0
100
AcDbLine
10
40
20
-6.910874
30
0
11
40
21
-12.05
31
0
39
0
210
0
220
0
230
1
0
LINE
5
9F
100
AcDbEntity
8
1
62
256
6
ByLayer
370
-1
48
1
60
0
100
AcDbLine
10
116.736071
20
1.103504
30
0
11
117.578881
21
3.411759
31
0
39
0
210
0
220
0
230
1
0
LINE
5
A0
100
AcDbEntity
8
1
62
256
6
ByLayer
370
-1
48
1
60
0
100
AcDbLine
10
109.099712
20
7.011398
30
0
11
109.176201
21
4.612626
31
0
39
0
210
0
220
0
230
1
0
LINE
5
A1
100
AcDbEntity
8
1
62
256
6
ByLayer
370
-1
48
1
60
0
100
AcDbLine
10
8.538675
20
-7.529667
30
0
11
11.461325
21
-7.529667
31
0
39
0
210
0
220
0
230
1
0
LINE
5
A2
100
AcDbEntity
8
1
62
256
6
ByLayer
370
-1
48
1
60
0
100
AcDbLine
10
108.956829
20
-12.043159
30
0
11
118.030414
21
-12.043159
31
0
39
0
210
0
220
0
230
1
0
LINE
5
A3
100
AcDbEntity
8
1
62
256
6
ByLayer
370
-1
48
1
60
0
100
AcDbLine
10
0.3
20
-25
30
0
11
0.3
21
25
31
0
39
0
210
0
220
0
230
1
0
LINE
5
A4
100
AcDbEntity
8
1
62
256
6
ByLayer
370
-1
48
1
60
0
100
AcDbLine
10
109.459648
20
12.047815
30
0
11
109.571373
21
8.193422
31
0
39
0
210
0
220
0
230
1
0
LINE
5
A5
100
AcDbEntity
8
1
62
256
6
ByLayer
370
-1
48
1
60
0
100
AcDbLine
10
109.544122
20
8.193422
30
0
11
109.571373
21
8.193422
31
0
39
0
210
0
220
0
230
1
0
LINE
5
A6
100
AcDbEntity
8
1
62
256
6
ByLayer
370
-1
48
1
60
0
100
AcDbLine
10
118.657862
20
-2.603395
30
0
11
118.41263
21
-2.494126
31
0
39
0
210
0
220
0
230
1
0
LINE
5
A7
100
AcDbEntity
8
1
62
256
6
ByLayer
370
-1
48
1
60
0
100
AcDbLine
10
118.197961
20
-0.07628
30
0
11
117.846594
21
-0.274101
31
0
39
0
210
0
220
0
230
1
0
LINE
5
A8
100
AcDbEntity
8
1
62
256
6
ByLayer
370
-1
48
1
60
0
100
AcDbLine
10
118.522488
20
-0.441787
30
0
11
118.286669
21
-0.371339
31
0
39
0
210
0
220
0
230
1
0
LINE
5
A9
100
AcDbEntity
8
1
62
256
6
ByLayer
370
-1
48
1
60
0
100
AcDbLine
10
118.258815
20
-5.034245
30
0
11
118.302901
21
-3.774119
31
0
39
0
210
0
220
0
230
1
0
LINE
5
AA
100
AcDbEntity
8
1
62
256
6
ByLayer
370
-1
48
1
60
0
100
AcDbLine
10
117.983712
20
1.035726
30
0
11
117.942828
21
1.008229
31
0
39
0
210
0
220
0
230
1
0
LINE
5
AB
100
AcDbEntity
8
1
62
256
6
ByLayer
370
-1
48
1
60
0
100
AcDbLine
10
118.70854
20
-5.104864
30
0
11
118.358754
21
-5.037728
31
0
39
0
210
0
220
0
230
1
0
LINE
5
AC
100
AcDbEntity
8
1
62
256
6
ByLayer
370
-1
48
1
60
0
100
AcDbLine
10
118.594231
20
-6.574379
30
0
11
118.537958
21
-6.5049
31
0
39
0
210
0
220
0
230
1
0
LINE
5
AD
100
AcDbEntity
8
1
62
256
6
ByLayer
370
-1
48
1
60
0
100
AcDbLine
10
118.70854
20
-5.104864
30
0
11
118.752627
21
-3.844739
31
0
39
0
210
0
220
0
230
1
0
LINE
5
AE
100
AcDbEntity
8
1
62
256
6
ByLayer
370
-1
48
1
60
0
100
AcDbLine
10
118.522488
20
-0.441787
30
0
11
117.983712
21
1.035726
31
0
39
0
210
0
220
0
230
1
0
LINE
5
AF
100
AcDbEntity
8
1
62
256
6
ByLayer
370
-1
48
1
60
0
100
AcDbLine
10
117.846594
20
-0.274101
30
0
11
117.822522
21
-0.24256
31
0
39
0
210
0
220
0
230
1
0
LINE
5
B0
100
AcDbEntity
8
1
62
256
6
ByLayer
370
-1
48
1
60
0
100
AcDbLine
10
118.063109
20
-2.457466
30
0
11
117.963246
21
-2.462689
31
0
39
0
210
0
220
0
230
1
0
LINE
5
B1
100
AcDbEntity
8
1
62
256
6
ByLayer
370
-1
48
1
60
0
100
AcDbLine
10
118.09526
20
-6.571597
30
0
11
118.537958
21
-6.5049
31
0
39
0
210
0
220
0
230
1
0
LINE
5
B2
100
AcDbEntity
8
1
62
256
6
ByLayer
370
-1
48
1
60
0
100
AcDbLine
10
118.099889
20
-6.75397
30
0
11
118.594231
21
-6.574379
31
0
39
0
210
0
220
0
230
1
0
LINE
5
B3
100
AcDbEntity
8
1
62
256
6
ByLayer
370
-1
48
1
60
0
100
AcDbLine
10
118.752627
20
-3.844739
30
0
11
118.40284
21
-3.777603
31
0
39
0
210
0
220
0
230
1
0
LINE
5
B4
100
AcDbEntity
8
1
62
256
6
ByLayer
370
-1
48
1
60
0
100
AcDbLine
10
118.999695
20
-3.928268
30
0
11
118.754825
21
-3.797909
31
0
39
0
210
0
220
0
230
1
0
LINE
5
B5
100
AcDbEntity
8
1
62
256
6
ByLayer
370
-1
48
1
60
0
100
AcDbLine
10
118.65217
20
-3.390194
30
0
11
118.339985
21
-3.493197
31
0
39
0
210
0
220
0
230
1
0
LINE
5
B6
100
AcDbEntity
8
1
62
256
6
ByLayer
370
-1
48
1
60
0
100
AcDbLine
10
118.922917
20
-6.122827
30
0
11
118.999695
21
-3.928268
31
0
39
0
210
0
220
0
230
1
0
LINE
5
B7
100
AcDbEntity
8
1
62
256
6
ByLayer
370
-1
48
1
60
0
100
AcDbLine
10
118.197961
20
-0.07628
30
0
11
117.942828
21
1.008229
31
0
39
0
210
0
220
0
230
1
0
LINE
5
B8
100
AcDbEntity
8
1
62
256
6
ByLayer
370
-1
48
1
60
0
100
AcDbLine
10
118.129802
20
-3.761981
30
0
11
118.085715
21
-5.022107
31
0
39
0
210
0
220
0
230
1
0
LINE
5
B9
100
AcDbEntity
8
1
62
256
6
ByLayer
370
-1
48
1
60
0
100
AcDbLine
10
118.41263
20
-2.494126
30
0
11
118.063109
21
-2.457466
31
0
39
0
210
0
220
0
230
1
0
LINE
5
BA
100
AcDbEntity
8
1
62
256
6
ByLayer
370
-1
48
1
60
0
100
AcDbLine
10
117.843156
20
1.185212
30
0
11
117.765204
21
1.141325
31
0
39
0
210
0
220
0
230
1
0
LINE
5
BB
100
AcDbEntity
8
1
62
256
6
ByLayer
370
-1
48
1
60
0
100
AcDbLine
10
118.551956
20
-0.586359
30
0
11
118.312214
21
-0.514739
31
0
39
0
210
0
220
0
230
1
0
LINE
5
BC
100
AcDbEntity
8
1
62
256
6
ByLayer
370
-1
48
1
60
0
100
AcDbLine
10
118.314966
20
-0.634069
30
0
11
117.965446
21
-0.597409
31
0
39
0
210
0
220
0
230
1
0
LINE
5
BD
100
AcDbEntity
8
1
62
256
6
ByLayer
370
-1
48
1
60
0
100
AcDbLine
10
118.885244
20
-3.428595
30
0
11
118.668294
21
-3.420661
31
0
39
0
210
0
220
0
230
1
0
LINE
5
BE
100
AcDbEntity
8
1
62
256
6
ByLayer
370
-1
48
1
60
0
100
AcDbLine
10
118.720168
20
-6.4103
30
0
11
118.128579
21
-5.481889
31
0
39
0
210
0
220
0
230
1
0
LINE
5
BF
100
AcDbEntity
8
1
62
256
6
ByLayer
370
-1
48
1
60
0
100
AcDbLine
10
117.963246
20
-2.462689
30
0
11
117.865583
21
-0.602633
31
0
39
0
210
0
220
0
230
1
0
LINE
5
C0
100
AcDbEntity
8
1
62
256
6
ByLayer
370
-1
48
1
60
0
100
AcDbLine
10
118.41263
20
-2.494126
30
0
11
118.314966
21
-0.634069
31
0
39
0
210
0
220
0
230
1
0
LINE
5
C1
100
AcDbEntity
8
1
62
256
6
ByLayer
370
-1
48
1
60
0
100
AcDbLine
10
118.063109
20
-2.457466
30
0
11
117.965446
21
-0.597409
31
0
39
0
210
0
220
0
230
1
0
LINE
5
C2
100
AcDbEntity
8
1
62
256
6
ByLayer
370
-1
48
1
60
0
100
AcDbLine
10
118.657862
20
-2.603395
30
0
11
118.551956
21
-0.586359
31
0
39
0
210
0
220
0
230
1
0
LINE
5
C3
100
AcDbEntity
8
1
62
256
6
ByLayer
370
-1
48
1
60
0
100
AcDbLine
10
118.922917
20
-6.122827
30
0
11
118.806271
21
-5.978805
31
0
39
0
210
0
220
0
230
1
0
LINE
5
C4
100
AcDbEntity
8
1
62
256
6
ByLayer
370
-1
48
1
60
0
100
AcDbLine
10
118.098803
20
-5.504529
30
0
11
118.128579
21
-5.481889
31
0
39
0
210
0
220
0
230
1
0
LINE
5
C5
100
AcDbEntity
8
1
62
256
6
ByLayer
370
-1
48
1
60
0
100
AcDbLine
10
118.358754
20
-5.037728
30
0
11
118.40284
21
-3.777603
31
0
39
0
210
0
220
0
230
1
0
LINE
5
C6
100
AcDbEntity
8
1
62
256
6
ByLayer
370
-1
48
1
60
0
100
AcDbLine
10
118.442091
20
11.825079
30
0
11
118.453002
21
11.511444
31
0
39
0
210
0
220
0
230
1
0
LINE
5
C7
100
AcDbEntity
8
1
62
256
6
ByLayer
370
-1
48
1
60
0
100
AcDbLine
10
109.731122
20
11.205706
30
0
11
109.720211
21
11.51934
31
0
39
0
210
0
220
0
230
1
0
LINE
5
C8
100
AcDbEntity
8
1
62
256
6
ByLayer
370
-1
48
1
60
0
100
AcDbLine
10
118.059996
20
3.712659
30
0
11
117.747555
21
3.701707
31
0
39
0
210
0
220
0
230
1
0
LINE
5
C9
100
AcDbEntity
8
1
62
256
6
ByLayer
370
-1
48
1
60
0
100
AcDbLine
10
109.925364
20
3.794152
30
0
11
109.994131
21
3.799016
31
0
39
0
210
0
220
0
230
1
0
LINE
5
CA
100
AcDbEntity
8
1
62
256
6
ByLayer
370
-1
48
1
60
0
100
AcDbLine
10
109.915515
20
3.953904
30
0
11
109.984351
21
3.957654
31
0
39
0
210
0
220
0
230
1
0
LINE
5
CB
100
AcDbEntity
8
1
62
256
6
ByLayer
370
-1
48
1
60
0
100
AcDbLine
10
118.36144
20
3.65884
30
0
11
118.356063
21
3.728404
31
0
39
0
210
0
220
0
230
1
0
LINE
5
CC
100
AcDbEntity
8
1
62
256
6
ByLayer
370
-1
48
1
60
0
100
AcDbLine
10
109.978446
20
4.096214
30
0
11
109.967536
21
4.409848
31
0
39
0
210
0
220
0
230
1
0
LINE
5
CD
100
AcDbEntity
8
1
62
256
6
ByLayer
370
-1
48
1
60
0
100
AcDbLine
10
109.646269
20
11.816913
30
0
11
109.715206
21
11.816913
31
0
39
0
210
0
220
0
230
1
0
LINE
5
CE
100
AcDbEntity
8
1
62
256
6
ByLayer
370
-1
48
1
60
0
100
AcDbLine
10
109.913128
20
4.002845
30
0
11
109.981997
21
4.005913
31
0
39
0
210
0
220
0
230
1
0
LINE
5
CF
100
AcDbEntity
8
1
62
256
6
ByLayer
370
-1
48
1
60
0
100
AcDbLine
10
109.99363
20
12.250075
30
0
11
110.013409
21
12.183388
31
0
39
0
210
0
220
0
230
1
0
LINE
5
D0
100
AcDbEntity
8
1
62
256
6
ByLayer
370
-1
48
1
60
0
100
AcDbLine
10
118.496237
20
12.127141
30
0
11
118.426406
21
12.122276
31
0
39
0
210
0
220
0
230
1
0
LINE
5
D1
100
AcDbEntity
8
1
62
256
6
ByLayer
370
-1
48
1
60
0
100
AcDbLine
10
110.30198
20
3.386368
30
0
11
110.317075
21
3.454314
31
0
39
0
210
0
220
0
230
1
0
LINE
5
D2
100
AcDbEntity
8
1
62
256
6
ByLayer
370
-1
48
1
60
0
100
AcDbLine
10
117.44298
20
12.456903
30
0
11
117.755421
21
12.467855
31
0
39
0
210
0
220
0
230
1
0
LINE
5
D3
100
AcDbEntity
8
1
62
256
6
ByLayer
370
-1
48
1
60
0
100
AcDbLine
10
109.653929
20
11.884398
30
0
11
109.721085
21
11.868711
31
0
39
0
210
0
220
0
230
1
0
LINE
5
D4
100
AcDbEntity
8
1
62
256
6
ByLayer
370
-1
48
1
60
0
100
AcDbLine
10
117.753528
20
12.537546
30
0
11
117.755421
21
12.467855
31
0
39
0
210
0
220
0
230
1
0
LINE
5
D5
100
AcDbEntity
8
1
62
256
6
ByLayer
370
-1
48
1
60
0
100
AcDbLine
10
110.26806
20
12.274735
30
0
11
110.270584
21
12.205069
31
0
39
0
210
0
220
0
230
1
0
LINE
5
D6
100
AcDbEntity
8
1
62
256
6
ByLayer
370
-1
48
1
60
0
100
AcDbLine
10
117.892949
20
12.541333
30
0
11
117.893529
21
12.471608
31
0
39
0
210
0
220
0
230
1
0
LINE
5
D7
100
AcDbEntity
8
1
62
256
6
ByLayer
370
-1
48
1
60
0
100
AcDbLine
10
109.648565
20
11.607871
30
0
11
109.717479
21
11.60967
31
0
39
0
210
0
220
0
230
1
0
LINE
5
D8
100
AcDbEntity
8
1
62
256
6
ByLayer
370
-1
48
1
60
0
100
AcDbLine
10
118.775332
20
4.10438
30
0
11
118.705332
21
4.10438
31
0
39
0
210
0
220
0
230
1
0
LINE
5
D9
100
AcDbEntity
8
1
62
256
6
ByLayer
370
-1
48
1
60
0
100
AcDbLine
10
110.668073
20
3.383746
30
0
11
110.665117
21
3.453438
31
0
39
0
210
0
220
0
230
1
0
LINE
5
DA
100
AcDbEntity
8
1
62
256
6
ByLayer
370
-1
48
1
60
0
100
AcDbLine
10
118.052392
20
12.542613
30
0
11
118.051861
21
12.47288
31
0
39
0
210
0
220
0
230
1
0
LINE
5
DB
100
AcDbEntity
8
1
62
256
6
ByLayer
370
-1
48
1
60
0
100
AcDbLine
10
118.689415
20
4.715587
30
0
11
118.700326
21
4.401952
31
0
39
0
210
0
220
0
230
1
0
LINE
5
DC
100
AcDbEntity
8
1
62
256
6
ByLayer
370
-1
48
1
60
0
100
AcDbLine
10
109.647545
20
11.65686
30
0
11
109.716473
21
11.657976
31
0
39
0
210
0
220
0
230
1
0
LINE
5
DD
100
AcDbEntity
8
1
62
256
6
ByLayer
370
-1
48
1
60
0
100
AcDbLine
10
118.767672
20
4.036895
30
0
11
118.699453
21
4.052581
31
0
39
0
210
0
220
0
230
1
0
LINE
5
DE
100
AcDbEntity
8
1
62
256
6
ByLayer
370
-1
48
1
60
0
100
AcDbLine
10
118.770284
20
4.404386
30
0
11
118.512049
21
11.827512
31
0
39
0
210
0
220
0
230
1
0
LINE
5
DF
100
AcDbEntity
8
1
62
256
6
ByLayer
370
-1
48
1
60
0
100
AcDbLine
10
109.909552
20
4.09378
30
0
11
109.978446
21
4.096214
31
0
39
0
210
0
220
0
230
1
0
LINE
5
E0
100
AcDbEntity
8
1
62
256
6
ByLayer
370
-1
48
1
60
0
100
AcDbLine
10
118.202296
20
3.648953
30
0
11
118.198028
21
3.718586
31
0
39
0
210
0
220
0
230
1
0
LINE
5
E1
100
AcDbEntity
8
1
62
256
6
ByLayer
370
-1
48
1
60
0
100
AcDbLine
10
118.770284
20
4.404386
30
0
11
118.700326
21
4.401952
31
0
39
0
210
0
220
0
230
1
0
LINE
5
E2
100
AcDbEntity
8
1
62
256
6
ByLayer
370
-1
48
1
60
0
100
AcDbLine
10
118.427971
20
3.671218
30
0
11
118.407128
21
3.737904
31
0
39
0
210
0
220
0
230
1
0
LINE
5
E3
100
AcDbEntity
8
1
62
256
6
ByLayer
370
-1
48
1
60
0
100
AcDbLine
10
109.651317
20
11.516907
30
0
11
109.909552
21
4.09378
31
0
39
0
210
0
220
0
230
1
0
LINE
5
E4
100
AcDbEntity
8
1
62
256
6
ByLayer
370
-1
48
1
60
0
100
AcDbLine
10
110.528652
20
3.37996
30
0
11
110.527009
21
3.449685
31
0
39
0
210
0
220
0
230
1
0
LINE
5
E5
100
AcDbEntity
8
1
62
256
6
ByLayer
370
-1
48
1
60
0
100
AcDbLine
10
117.844146
20
12.540308
30
0
11
117.845407
21
12.470598
31
0
39
0
210
0
220
0
230
1
0
LINE
5
E6
100
AcDbEntity
8
1
62
256
6
ByLayer
370
-1
48
1
60
0
100
AcDbLine
10
118.119621
20
12.534925
30
0
11
118.103462
21
12.466978
31
0
39
0
210
0
220
0
230
1
0
LINE
5
E7
100
AcDbEntity
8
1
62
256
6
ByLayer
370
-1
48
1
60
0
100
AcDbLine
10
118.483906
20
12.193925
30
0
11
118.416942
21
12.173537
31
0
39
0
210
0
220
0
230
1
0
LINE
5
E8
100
AcDbEntity
8
1
62
256
6
ByLayer
370
-1
48
1
60
0
100
AcDbLine
10
118.774056
20
4.264433
30
0
11
118.704065
21
4.263317
31
0
39
0
210
0
220
0
230
1
0
LINE
5
E9
100
AcDbEntity
8
1
62
256
6
ByLayer
370
-1
48
1
60
0
100
AcDbLine
10
118.062952
20
3.642968
30
0
11
118.059996
21
3.712659
31
0
39
0
210
0
220
0
230
1
0
LINE
5
EA
100
AcDbEntity
8
1
62
256
6
ByLayer
370
-1
48
1
60
0
100
AcDbLine
10
110.977557
20
3.46439
30
0
11
110.665117
21
3.453438
31
0
39
0
210
0
220
0
230
1
0
LINE
5
EB
100
AcDbEntity
8
1
62
256
6
ByLayer
370
-1
48
1
60
0
100
AcDbLine
10
110.369208
20
3.378679
30
0
11
110.368677
21
3.448413
31
0
39
0
210
0
220
0
230
1
0
LINE
5
EC
100
AcDbEntity
8
1
62
256
6
ByLayer
370
-1
48
1
60
0
100
AcDbLine
10
117.753528
20
12.537546
30
0
11
110.358649
21
12.278325
31
0
39
0
210
0
220
0
230
1
0
LINE
5
ED
100
AcDbEntity
8
1
62
256
6
ByLayer
370
-1
48
1
60
0
100
AcDbLine
10
118.508473
20
11.918447
30
0
11
118.43854
21
11.91538
31
0
39
0
210
0
220
0
230
1
0
LINE
5
EE
100
AcDbEntity
8
1
62
256
6
ByLayer
370
-1
48
1
60
0
100
AcDbLine
10
109.651317
20
11.516907
30
0
11
109.720211
21
11.51934
31
0
39
0
210
0
220
0
230
1
0
LINE
5
EF
100
AcDbEntity
8
1
62
256
6
ByLayer
370
-1
48
1
60
0
100
AcDbLine
10
118.773035
20
4.313422
30
0
11
118.703059
21
4.311622
31
0
39
0
210
0
220
0
230
1
0
LINE
5
F0
100
AcDbEntity
8
1
62
256
6
ByLayer
370
-1
48
1
60
0
100
AcDbLine
10
110.219305
20
12.272339
30
0
11
110.222509
21
12.202707
31
0
39
0
210
0
220
0
230
1
0
LINE
5
F1
100
AcDbEntity
8
1
62
256
6
ByLayer
370
-1
48
1
60
0
100
AcDbLine
10
110.360542
20
12.208634
30
0
11
110.672983
21
12.219586
31
0
39
0
210
0
220
0
230
1
0
LINE
5
F2
100
AcDbEntity
8
1
62
256
6
ByLayer
370
-1
48
1
60
0
100
AcDbLine
10
110.668073
20
3.383746
30
0
11
118.062952
21
3.642968
31
0
39
0
210
0
220
0
230
1
0
LINE
5
F3
100
AcDbEntity
8
1
62
256
6
ByLayer
370
-1
48
1
60
0
100
AcDbLine
10
110.577455
20
3.380984
30
0
11
110.575131
21
3.450695
31
0
39
0
210
0
220
0
230
1
0
LINE
5
F4
100
AcDbEntity
8
1
62
256
6
ByLayer
370
-1
48
1
60
0
100
AcDbLine
10
118.506086
20
11.967388
30
0
11
118.436187
21
11.963638
31
0
39
0
210
0
220
0
230
1
0
LINE
5
F5
100
AcDbEntity
8
1
62
256
6
ByLayer
370
-1
48
1
60
0
100
AcDbLine
10
110.358649
20
12.278325
30
0
11
110.360542
21
12.208634
31
0
39
0
210
0
220
0
230
1
0
LINE
5
F6
100
AcDbEntity
8
1
62
256
6
ByLayer
370
-1
48
1
60
0
100
AcDbLine
10
109.937695
20
3.727367
30
0
11
110.003596
21
3.747755
31
0
39
0
210
0
220
0
230
1
0
LINE
5
F7
100
AcDbEntity
8
1
62
256
6
ByLayer
370
-1
48
1
60
0
100
AcDbLine
10
118.153541
20
3.646558
30
0
11
118.149953
21
3.716224
31
0
39
0
210
0
220
0
230
1
0
LINE
5
F8
100
AcDbEntity
8
1
62
256
6
ByLayer
370
-1
48
1
60
0
100
AcDbLine
10
118.512049
20
11.827512
30
0
11
118.442091
21
11.825079
31
0
39
0
210
0
220
0
230
1
0
LINE
5
F9
100
AcDbEntity
8
1
62
256
6
ByLayer
370
-1
48
1
60
0
100
AcDbLine
10
110.060161
20
12.262453
30
0
11
110.064475
21
12.192889
31
0
39
0
210
0
220
0
230
1
0
LINE
5
FA
100
AcDbEntity
8
SK1
62
256
6
ByLayer
370
-1
48
1
60
0
100
AcDbLine
10
-0.2
20
-5.881424
30
0
11
-0.2
21
-17.833485
31
0
39
0
210
0
220
0
230
1
0
LINE
5
FC
100
AcDbEntity
8
SK1
62
256
6
ByLayer
370
-1
48
1
60
0
100
AcDbLine
10
-1.307107
20
3.804744
30
0
11
-1.307107
21
-3.804747
31
0
39
0
210
0
220
0
230
1
0
LINE
5
FD
100
AcDbEntity
8
SK1
62
256
6
ByLayer
370
-1
48
1
60
0
100
AcDbLine
10
-0.2
20
17.833485
30
0
11
-0.2
21
5.881425
31
0
39
0
210
0
220
0
230
1
0
MTEXT
5
238
100
AcDbEntity
8
SK6
62
256
6
ByLayer
370
-1
48
1
60
0
100
AcDbMText
10
0.79375
20
-80.79375
30
0
210
0
220
0
230
1
1
\W00.727;\fsimplex.shx,bigfont.shx;880-D2500C5-03 
40
3.175
41
0
44
1.084337
50
0
71
7
72
5
7
DEFAULT
0
DIMENSION
5
268
100
AcDbEntity
8
SK2
62
256
6
ByLayer
370
-3
48
1
60
0
100
AcDbDimension
2
DimnDraft3D1
10
119
20
-63.81875
30
0
11
44.5
21
-63.81875
31
0
70
32
71
5
72
1
41
1
210
0
220
0
230
1
3
Standard
100
AcDbAlignedDimension
13
-30
23
-4.0875
33
0
14
119
24
-14.0875
34
0
50
0
100
AcDbRotatedDimension
1001
ACAD
1000
DSTYLE
1002
{
1070
   279
1070
     0
1070
   172
1070
     1
1070
   173
1070
     1
1070
   340
1005
239
1070
   271
1070
     1
1070
   272
1070
     2
1070
    77
1070
     1
1070
    73
1070
     0
1070
   171
1070
     3
1070
   274
1070
     4
1070
   177
1070
   150
1070
   176
1070
     9
1070
   178
1070
    43
1070
    78
1070
     8
1070
    48
1040
-0.005
1070
    41
1041
4.175
1070
   147
1041
2.25
1070
    42
1041
1.5875
1070
    44
1041
3.175
1070
   140
1041
4.5
1070
   343
1005
0
1070
   344
1005
0
1002
}
0
DIMENSION
5
272
100
AcDbEntity
8
SK2
62
256
6
ByLayer
370
-3
48
1
60
0
100
AcDbDimension
2
DimnDraft3D2
10
0
20
-51.85
30
0
11
-15
21
-51.85
31
0
70
32
71
5
72
1
41
1
210
0
220
0
230
1
3
Standard
100
AcDbAlignedDimension
13
-30
23
-4.0875
33
0
14
0
24
-26.5875
34
0
50
0
100
AcDbRotatedDimension
1001
ACAD
1000
DSTYLE
1002
{
1070
   279
1070
     0
1070
   172
1070
     1
1070
   173
1070
     1
1070
   340
1005
239
1070
   271
1070
     1
1070
   272
1070
     2
1070
    77
1070
     1
1070
    73
1070
     0
1070
   171
1070
     3
1070
   274
1070
     4
1070
   177
1070
   150
1070
   176
1070
     9
1070
   178
1070
    43
1070
    78
1070
     8
1070
    48
1040
-0.005
1070
    41
1041
4.175
1070
   147
1041
2.25
1070
    42
1041
1.5875
1070
    44
1041
3.175
1070
   140
1041
4.5
1070
   343
1005
0
1070
   344
1005
0
1002
}
0
DIMENSION
5
27D
100
AcDbEntity
8
2
62
256
6
ByLayer
370
-3
48
1
60
0
100
AcDbDimension
2
DimnDraft3D3
10
119
20
-51.85
30
0
11
59.5
21
-51.85
31
0
70
32
71
5
72
1
41
1
210
0
220
0
230
1
3
Standard
100
AcDbAlignedDimension
13
0
23
-26.5875
33
0
14
119
24
-14.0875
34
0
50
0
100
AcDbRotatedDimension
1001
ACAD
1000
DSTYLE
1002
{
1070
   279
1070
     0
1070
   172
1070
     1
1070
   173
1070
     1
1070
   340
1005
239
1070
   271
1070
     1
1070
   272
1070
     2
1070
    77
1070
     1
1070
    73
1070
     0
1070
   171
1070
     3
1070
   274
1070
     4
1070
   177
1070
   150
1070
   176
1070
     9
1070
   178
1070
    43
1070
    78
1070
     8
1070
    48
1040
-0.005
1070
    41
1041
4.175
1070
   147
1041
2.25
1070
    42
1041
1.5875
1070
    44
1041
3.175
1070
   140
1041
4.5
1070
   343
1005
0
1070
   344
1005
0
1002
}
0
DIMENSION
5
287
100
AcDbEntity
8
SK2
62
256
6
ByLayer
370
-3
48
1
60
0
100
AcDbDimension
2
DimnDraft3D4
10
119
20
-41.85
30
0
11
79.5
21
-41.85
31
0
70
32
71
5
72
1
41
1
210
0
220
0
230
1
3
Standard
100
AcDbAlignedDimension
13
40
23
-11.5875
33
0
14
119
24
-14.0875
34
0
50
0
100
AcDbRotatedDimension
1001
ACAD
1000
DSTYLE
1002
{
1070
   279
1070
     0
1070
   172
1070
     1
1070
   173
1070
     1
1070
   340
1005
239
1070
   271
1070
     1
1070
   272
1070
     2
1070
    77
1070
     1
1070
    73
1070
     0
1070
   171
1070
     3
1070
   274
1070
     4
1070
   177
1070
   150
1070
   176
1070
     9
1070
   178
1070
    43
1070
    78
1070
     8
1070
    48
1040
-0.005
1070
    41
1041
4.175
1070
   147
1041
2.25
1070
    42
1041
1.5875
1070
    44
1041
3.175
1070
   140
1041
4.5
1070
   343
1005
0
1070
   344
1005
0
1002
}
0
DIMENSION
5
292
100
AcDbEntity
8
SK2
62
256
6
ByLayer
370
-3
48
1
60
0
100
AcDbDimension
2
DimnDraft3D5
10
-52.084264
20
25
30
0
11
-52.284264
21
4.121053
31
0
70
33
71
5
72
1
41
1
210
0
220
0
230
1
3
Standard
100
AcDbAlignedDimension
13
-1.5875
23
-25
33
0
14
-1.5875
24
25
34
0
1001
ACAD
1000
DSTYLE
1002
{
1070
   279
1070
     0
1070
    74
1070
     0
1070
   173
1070
     1
1070
   340
1005
239
1070
   271
1070
     1
1070
   272
1070
     2
1070
    77
1070
     1
1070
    73
1070
     0
1070
   171
1070
     3
1070
   274
1070
     4
1070
   177
1070
   150
1070
   176
1070
     9
1070
   178
1070
    43
1070
    78
1070
     8
1070
    48
1040
-0.005
1070
    41
1041
4.175
1070
   147
1041
2.25
1070
    42
1041
1.5875
1070
    44
1041
3.175
1070
   140
1041
4.5
1070
   343
1005
0
1070
   344
1005
0
1002
}
0
DIMENSION
5
29D
100
AcDbEntity
8
2
62
256
6
ByLayer
370
-3
48
1
60
0
100
AcDbDimension
2
DimnDraft3D6
10
149.15
20
-12.5
30
0
11
142.6
21
4.121053
31
0
70
33
71
5
72
1
41
1
210
0
220
0
230
1
3
Standard
100
AcDbAlignedDimension
13
120.5875
23
12.5
33
0
14
120.5875
24
-12.5
34
0
1001
ACAD
1000
DSTYLE
1002
{
1070
   279
1070
     0
1070
    74
1070
     0
1070
   173
1070
     1
1070
   340
1005
239
1070
   271
1070
     2
1070
   272
1070
     2
1070
    77
1070
     1
1070
    73
1070
     0
1070
   171
1070
     3
1070
   274
1070
     4
1070
   177
1070
   150
1070
   176
1070
     9
1070
   178
1070
    43
1070
    78
1070
     8
1070
    48
1040
-0.005
1070
    41
1041
4.175
1070
   147
1041
2.25
1070
    42
1041
1.5875
1070
    44
1041
3.175
1070
   140
1041
4.5
1070
   343
1005
0
1070
   344
1005
0
1002
}
0
ENDSEC
0
SECTION
2
OBJECTS
0
DICTIONARY
5
2ce
330
0
100
AcDbDictionary
280
0
281
1
3
ACAD_GROUP
350
2cf
3
ACAD_MLINESTYLE
350
2d0
0
DICTIONARY
5
2cf
330
0
100
AcDbDictionary
280
0
281
1
0
DICTIONARY
5
2d0
330
0
100
AcDbDictionary
280
0
281
1
3
Standard
350
18
0
MLINESTYLE
5
18
330
2d0
100
AcDbMlineStyle
2
Standard
70
0
3

62
256
51
90
52
90
71
2
49
-0.5
62
256
6
ByLayer
49
0.5
62
256
6
ByLayer
0
RASTERVARIABLES
5
2bc
330

100
AcDbRasterVariables
90
0
70
1
71
1
72
1
0
ENDSEC
0
EOF
