0
SECTION
2
HEADER
9
$ACADVER
1
AC1015
9
$DWGCODEPAGE
3
ANSI_1252
9
$HANDSEED
5
2bf
9
$ANGBASE
50
0
9
$ANGDIR
70
0
9
$ATTMODE
70
1
9
$AUNITS
70
0
9
$AUPREC
70
0
9
$CECOLOR
62
256
9
$CELTSCALE
40
1
9
$CELTYPE
6
ByLayer
9
$CELWEIGHT
370
-1
9
$CLAYER
8
0
9
$CMLJUST
70
0
9
$CMLSCALE
40
1
9
$CMLSTYLE
2
Standard
9
$DIMSTYLE
2
Standard
9
$TEXTSIZE
40
0.2
9
$TEXTSTYLE
7
Standard
9
$LUNITS
70
2
9
$LUPREC
70
4
9
$EXTNAMES
290
1
9
$INSUNITS
70
4
9
$LTSCALE
40
1
9
$LWDISPLAY
290
0
9
$PDMODE
70
0
9
$PDSIZE
40
0
9
$PLINEGEN
70
0
0
ENDSEC
0
SECTION
2
CLASSES
0
CLASS
1
RASTERVARIABLES
2
AcDbRasterVariables
3
ISM
90
0
280
0
281
0
0
ENDSEC
0
SECTION
2
TABLES
0
TABLE
2
VPORT
5
2b5
100
AcDbSymbolTable
0
VPORT
5
1
100
AcDbSymbolTableRecord
100
AcDbViewportTableRecord
2
*Active
70
0
10
0
20
0
11
1
21
1
12
-1
22
1
13
0
23
0
14
0.5
24
0.5
15
10
25
10
16
0
26
0
36
1
17
0
27
0
37
0
0
ENDTAB
0
TABLE
2
LTYPE
5
2b6
100
AcDbSymbolTable
0
LTYPE
5
14
100
AcDbSymbolTableRecord
100
AcDbLinetypeTableRecord
70
0
2
ByBlock
3

72
65
73
0
40
0
0
LTYPE
5
15
100
AcDbSymbolTableRecord
100
AcDbLinetypeTableRecord
70
0
2
ByLayer
3

72
65
73
0
40
0
0
LTYPE
5
16
100
AcDbSymbolTableRecord
100
AcDbLinetypeTableRecord
70
0
2
CONTINUOUS
3
Solid line
72
65
73
0
40
0
0
LTYPE
5
3B
100
AcDbSymbolTableRecord
100
AcDbLinetypeTableRecord
70
0
2
DASHED
3
__ __ __ __ __ __ __ __ __
72
65
73
2
40
25.72
49
12.86
74
0
49
-12.86
74
0
0
LTYPE
5
3C
100
AcDbSymbolTableRecord
100
AcDbLinetypeTableRecord
70
0
2
HIDDEN
3
_ _ _ _ _ _ _ _ _ _ _ _ _ _ _
72
65
73
2
40
0.5
49
0.25
74
0
49
-0.25
74
0
0
LTYPE
5
3D
100
AcDbSymbolTableRecord
100
AcDbLinetypeTableRecord
70
0
2
PHANTOM
3
____ _ _ ____ _ _ _____ _ _ ____
72
65
73
6
40
50.5
49
18
74
0
49
-6.5
74
0
49
6.5
74
0
49
-6.5
74
0
49
6.5
74
0
49
-6.5
74
0
0
LTYPE
5
3E
100
AcDbSymbolTableRecord
100
AcDbLinetypeTableRecord
70
0
2
CENTER
3
____ _ ____ _ ____ _ ____
72
65
73
4
40
47.5
49
22
74
0
49
-8.5
74
0
49
8.5
74
0
49
-8.5
74
0
0
LTYPE
5
3F
100
AcDbSymbolTableRecord
100
AcDbLinetypeTableRecord
70
0
2
DOT
3
.........................
72
65
73
2
40
10
49
0
74
0
49
-10
74
0
0
LTYPE
5
40
100
AcDbSymbolTableRecord
100
AcDbLinetypeTableRecord
70
0
2
DASHDOT
3
_._._._._._._._._._._._._._._._.
72
65
73
4
40
70
49
31
74
0
49
-13
74
0
49
13
74
0
49
-13
74
0
0
ENDTAB
0
TABLE
2
LAYER
5
2b7
100
AcDbSymbolTable
0
LAYER
5
10
100
AcDbSymbolTableRecord
100
AcDbLayerTableRecord
2
0
70
0
62
7
6
CONTINUOUS
290
1
370
-3
390
0
0
LAYER
5
42
100
AcDbSymbolTableRecord
100
AcDbLayerTableRecord
2
81
70
0
62
-3
6
CONTINUOUS
290
1
370
-3
390
0
0
LAYER
5
44
100
AcDbSymbolTableRecord
100
AcDbLayerTableRecord
2
80
70
0
62
-6
6
CONTINUOUS
290
1
370
-3
390
0
0
LAYER
5
48
100
AcDbSymbolTableRecord
100
AcDbLayerTableRecord
2
1
70
0
62
4
6
CONTINUOUS
290
1
370
-3
390
0
0
LAYER
5
63
100
AcDbSymbolTableRecord
100
AcDbLayerTableRecord
2
4
70
0
62
-2
6
CENTER
290
1
370
-3
390
0
0
LAYER
5
24E
100
AcDbSymbolTableRecord
100
AcDbLayerTableRecord
2
2
70
0
62
7
6
CONTINUOUS
290
1
370
-3
390
0
0
LAYER
5
2a1
100
AcDbSymbolTableRecord
100
AcDbLayerTableRecord
2
SK1
70
0
62
4
6
CONTINUOUS
290
1
370
-3
390
0
0
LAYER
5
2a2
100
AcDbSymbolTableRecord
100
AcDbLayerTableRecord
2
SK4
70
0
62
2
6
CENTER
290
1
370
-3
390
0
0
LAYER
5
2a3
100
AcDbSymbolTableRecord
100
AcDbLayerTableRecord
2
SK6
70
0
62
5
6
CONTINUOUS
290
1
370
-3
390
0
0
LAYER
5
2a4
100
AcDbSymbolTableRecord
100
AcDbLayerTableRecord
2
SK2
70
0
62
7
6
CONTINUOUS
290
1
370
-3
390
0
0
ENDTAB
0
TABLE
2
STYLE
5
2b8
100
AcDbSymbolTable
0
STYLE
5
11
100
AcDbSymbolTableRecord
100
AcDbTextStyleTableRecord
2
Standard
3
txt
70
0
71
0
40
0
41
1
42
0
50
0
0
STYLE
5
212
100
AcDbSymbolTableRecord
100
AcDbTextStyleTableRecord
2
DEFAULT
3
simplex.shx
70
0
71
0
40
0
41
1
42
0
50
0
0
STYLE
5
235
100
AcDbSymbolTableRecord
100
AcDbTextStyleTableRecord
2
DWGDirectTextStyle
3
SIMPLEX
70
0
71
0
40
0
41
1
42
0
50
0
0
ENDTAB
0
TABLE
2
DIMSTYLE
5
2b9
100
AcDbSymbolTable
100
AcDbDimStyleTable
0
DIMSTYLE
105
27
100
AcDbSymbolTableRecord
100
AcDbDimStyleTableRecord
2
Standard
70
0
3
<>
41
0.18
42
0.0625
44
0.18
140
0.18
147
0.09
73
0
74
0
77
1
271
2
275
0
278
52
280
0
340
11
0
ENDTAB
0
TABLE
2
VIEW
5
2ba
100
AcDbSymbolTable
0
ENDTAB
0
TABLE
2
UCS
5
2bb
100
AcDbSymbolTable
0
ENDTAB
0
TABLE
2
APPID
5
2bc
100
AcDbSymbolTable
0
APPID
5
12
100
AcDbSymbolTableRecord
100
AcDbRegAppTableRecord
2
ACAD
70
0
0
ENDTAB
0
TABLE
2
BLOCK_RECORD
5
2bd
100
AcDbSymbolTable
0
BLOCK_RECORD
5
1F
100
AcDbSymbolTableRecord
100
AcDbBlockTableRecord
2
*Model_Space
340
0
70
0
0
BLOCK_RECORD
5
1B
100
AcDbSymbolTableRecord
100
AcDbBlockTableRecord
2
*Paper_Space
340
0
70
0
0
BLOCK_RECORD
5
23
100
AcDbSymbolTableRecord
100
AcDbBlockTableRecord
2
*Paper_Space0
340
0
70
0
0
BLOCK_RECORD
5
237
100
AcDbSymbolTableRecord
100
AcDbBlockTableRecord
2
DimnDraft3D1
340
0
70
0
0
BLOCK_RECORD
5
242
100
AcDbSymbolTableRecord
100
AcDbBlockTableRecord
2
DimnDraft3D2
340
0
70
0
0
BLOCK_RECORD
5
24C
100
AcDbSymbolTableRecord
100
AcDbBlockTableRecord
2
DimnDraft3D3
340
0
70
0
0
BLOCK_RECORD
5
257
100
AcDbSymbolTableRecord
100
AcDbBlockTableRecord
2
DimnDraft3D4
340
0
70
0
0
BLOCK_RECORD
5
261
100
AcDbSymbolTableRecord
100
AcDbBlockTableRecord
2
DimnDraft3D5
340
0
70
0
0
BLOCK_RECORD
5
26C
100
AcDbSymbolTableRecord
100
AcDbBlockTableRecord
2
DimnDraft3D6
340
0
70
0
0
BLOCK_RECORD
5
277
100
AcDbSymbolTableRecord
100
AcDbBlockTableRecord
2
DimnDraft3D7
340
0
70
0
0
ENDTAB
0
ENDSEC
0
SECTION
2
BLOCKS
0
BLOCK
5
20
100
AcDbEntity
8
0
100
AcDbBlockBegin
2
*Model_Space
70
0
10
0
20
0
30
0
3
*Model_Space
0
ENDBLK
5
21
100
AcDbEntity
8
0
100
AcDbBlockEnd
0
BLOCK
5
1C
100
AcDbEntity
8
0
100
AcDbBlockBegin
2
*Paper_Space
70
0
10
0
20
0
30
0
3
*Paper_Space
0
ENDBLK
5
1D
100
AcDbEntity
8
0
100
AcDbBlockEnd
0
BLOCK
5
24
100
AcDbEntity
8
0
100
AcDbBlockBegin
2
*Paper_Space0
70
0
10
0
20
0
30
0
3
*Paper_Space0
0
ENDBLK
5
25
100
AcDbEntity
8
0
100
AcDbBlockEnd
0
BLOCK
5
23F
100
AcDbEntity
8
0
100
AcDbBlockBegin
2
DimnDraft3D1
70
0
10
0
20
0
30
0
3
DimnDraft3D1
0
MTEXT
5
238
100
AcDbEntity
8
SK2
62
256
6
ByLayer
370
-1
48
1
60
0
100
AcDbMText
10
19.406579
20
-51.7758
30
0
210
0
220
0
230
1
1
\W01.000;\fsimplex.shx,bigfont.shx;(165) 
40
4.5
41
0
44
1.084337
50
0
71
7
72
5
7
DEFAULT
0
LINE
5
23A
100
AcDbEntity
8
SK2
62
256
6
ByLayer
370
-1
48
1
60
0
100
AcDbLine
10
-56
20
-14.0875
30
0
11
-56
21
-58.04455
31
0
39
0
210
0
220
0
230
1
0
LINE
5
23B
100
AcDbEntity
8
SK2
62
256
6
ByLayer
370
-1
48
1
60
0
100
AcDbLine
10
109
20
-12.5875
30
0
11
109
21
-58.04455
31
0
39
0
210
0
220
0
230
1
0
LINE
5
23C
100
AcDbEntity
8
SK2
62
256
6
ByLayer
370
-1
48
1
60
0
100
AcDbLine
10
-56
20
-54.86955
30
0
11
109
21
-54.86955
31
0
39
0
210
0
220
0
230
1
0
SOLID
5
23D
100
AcDbEntity
8
SK2
62
256
6
ByLayer
370
-1
48
1
60
0
100
AcDbTrace
10
-56
20
-54.86955
30
0
11
-51.825003
21
-53.943975
31
0
12
-51.824997
22
-55.795125
32
0
13
-56
23
-54.86955
33
0
39
0
210
0
220
0
230
1
0
SOLID
5
23E
100
AcDbEntity
8
SK2
62
256
6
ByLayer
370
-1
48
1
60
0
100
AcDbTrace
10
109
20
-54.86955
30
0
11
104.825003
21
-55.795125
31
0
12
104.824997
22
-53.943975
32
0
13
109
23
-54.86955
33
0
39
0
210
0
220
0
230
1
0
ENDBLK
5
240
100
AcDbEntity
8
0
100
AcDbBlockEnd
0
BLOCK
5
249
100
AcDbEntity
8
0
100
AcDbBlockBegin
2
DimnDraft3D2
70
0
10
0
20
0
30
0
3
DimnDraft3D2
0
MTEXT
5
243
100
AcDbEntity
8
SK2
62
256
6
ByLayer
370
-1
48
1
60
0
100
AcDbMText
10
-29.503947
20
-41.7758
30
0
210
0
220
0
230
1
1
\W01.000;\fsimplex.shx,bigfont.shx;56 
40
4.5
41
0
44
1.084337
50
0
71
7
72
5
7
DEFAULT
0
LINE
5
244
100
AcDbEntity
8
SK2
62
256
6
ByLayer
370
-1
48
1
60
0
100
AcDbLine
10
-56
20
-14.0875
30
0
11
-56
21
-46.0758
31
0
39
0
210
0
220
0
230
1
0
LINE
5
245
100
AcDbEntity
8
SK2
62
256
6
ByLayer
370
-1
48
1
60
0
100
AcDbLine
10
0
20
-17.5875
30
0
11
0
21
-46.0758
31
0
39
0
210
0
220
0
230
1
0
LINE
5
246
100
AcDbEntity
8
SK2
62
256
6
ByLayer
370
-1
48
1
60
0
100
AcDbLine
10
-56
20
-42.9008
30
0
11
0
21
-42.9008
31
0
39
0
210
0
220
0
230
1
0
SOLID
5
247
100
AcDbEntity
8
SK2
62
256
6
ByLayer
370
-1
48
1
60
0
100
AcDbTrace
10
-56
20
-42.9008
30
0
11
-51.825003
21
-41.975225
31
0
12
-51.824997
22
-43.826375
32
0
13
-56
23
-42.9008
33
0
39
0
210
0
220
0
230
1
0
SOLID
5
248
100
AcDbEntity
8
SK2
62
256
6
ByLayer
370
-1
48
1
60
0
100
AcDbTrace
10
0
20
-42.9008
30
0
11
-4.174997
21
-43.826375
31
0
12
-4.175003
22
-41.975225
32
0
13
0
23
-42.9008
33
0
39
0
210
0
220
0
230
1
0
ENDBLK
5
24A
100
AcDbEntity
8
0
100
AcDbBlockEnd
0
BLOCK
5
254
100
AcDbEntity
8
0
100
AcDbBlockBegin
2
DimnDraft3D3
70
0
10
0
20
0
30
0
3
DimnDraft3D3
0
MTEXT
5
24D
100
AcDbEntity
8
2
62
256
6
ByLayer
370
-1
48
1
60
0
100
AcDbMText
10
51.906579
20
-41.7758
30
0
210
0
220
0
230
1
1
\W01.000;\fsimplex.shx,bigfont.shx;109 
40
4.5
41
0
44
1.084337
50
0
71
7
72
5
7
DEFAULT
0
LINE
5
24F
100
AcDbEntity
8
2
62
256
6
ByLayer
370
-1
48
1
60
0
100
AcDbLine
10
0
20
-17.5875
30
0
11
0
21
-46.0758
31
0
39
0
210
0
220
0
230
1
0
LINE
5
250
100
AcDbEntity
8
2
62
256
6
ByLayer
370
-1
48
1
60
0
100
AcDbLine
10
109
20
-12.5875
30
0
11
109
21
-46.0758
31
0
39
0
210
0
220
0
230
1
0
LINE
5
251
100
AcDbEntity
8
2
62
256
6
ByLayer
370
-1
48
1
60
0
100
AcDbLine
10
0
20
-42.9008
30
0
11
109
21
-42.9008
31
0
39
0
210
0
220
0
230
1
0
SOLID
5
252
100
AcDbEntity
8
2
62
256
6
ByLayer
370
-1
48
1
60
0
100
AcDbTrace
10
0
20
-42.9008
30
0
11
4.174997
21
-41.975225
31
0
12
4.175003
22
-43.826375
32
0
13
0
23
-42.9008
33
0
39
0
210
0
220
0
230
1
0
SOLID
5
253
100
AcDbEntity
8
2
62
256
6
ByLayer
370
-1
48
1
60
0
100
AcDbTrace
10
109
20
-42.9008
30
0
11
104.825003
21
-43.826375
31
0
12
104.824997
22
-41.975225
32
0
13
109
23
-42.9008
33
0
39
0
210
0
220
0
230
1
0
ENDBLK
5
255
100
AcDbEntity
8
0
100
AcDbBlockEnd
0
BLOCK
5
25E
100
AcDbEntity
8
0
100
AcDbBlockBegin
2
DimnDraft3D4
70
0
10
0
20
0
30
0
3
DimnDraft3D4
0
MTEXT
5
258
100
AcDbEntity
8
SK2
62
256
6
ByLayer
370
-1
48
1
60
0
100
AcDbMText
10
62.558553
20
-31.7758
30
0
210
0
220
0
230
1
1
\W01.000;\fsimplex.shx,bigfont.shx;91 
40
4.5
41
0
44
1.084337
50
0
71
7
72
5
7
DEFAULT
0
LINE
5
259
100
AcDbEntity
8
SK2
62
256
6
ByLayer
370
-1
48
1
60
0
100
AcDbLine
10
18
20
-11.5875
30
0
11
18
21
-36.0758
31
0
39
0
210
0
220
0
230
1
0
LINE
5
25A
100
AcDbEntity
8
SK2
62
256
6
ByLayer
370
-1
48
1
60
0
100
AcDbLine
10
109
20
-12.5875
30
0
11
109
21
-36.0758
31
0
39
0
210
0
220
0
230
1
0
LINE
5
25B
100
AcDbEntity
8
SK2
62
256
6
ByLayer
370
-1
48
1
60
0
100
AcDbLine
10
18
20
-32.9008
30
0
11
109
21
-32.9008
31
0
39
0
210
0
220
0
230
1
0
SOLID
5
25C
100
AcDbEntity
8
SK2
62
256
6
ByLayer
370
-1
48
1
60
0
100
AcDbTrace
10
18
20
-32.9008
30
0
11
22.174997
21
-31.975225
31
0
12
22.175003
22
-33.826375
32
0
13
18
23
-32.9008
33
0
39
0
210
0
220
0
230
1
0
SOLID
5
25D
100
AcDbEntity
8
SK2
62
256
6
ByLayer
370
-1
48
1
60
0
100
AcDbTrace
10
109
20
-32.9008
30
0
11
104.825003
21
-33.826375
31
0
12
104.824997
22
-31.975225
32
0
13
109
23
-32.9008
33
0
39
0
210
0
220
0
230
1
0
ENDBLK
5
25F
100
AcDbEntity
8
0
100
AcDbBlockEnd
0
BLOCK
5
269
100
AcDbEntity
8
0
100
AcDbBlockBegin
2
DimnDraft3D5
70
0
10
0
20
0
30
0
3
DimnDraft3D5
0
MTEXT
5
262
100
AcDbEntity
8
SK2
62
256
6
ByLayer
370
-1
48
1
60
0
100
AcDbMText
10
-66.975
20
5.246053
30
0
210
0
220
0
230
1
1
\W01.000;\fsimplex.shx,bigfont.shx;25 
40
4.5
41
0
44
1.084337
50
90
71
7
72
5
7
DEFAULT
0
MTEXT
5
263
100
AcDbEntity
8
SK2
62
256
6
ByLayer
370
-1
48
1
60
0
100
AcDbMText
10
-66.975
20
-8.253947
30
0
210
0
220
0
230
1
1
\W01.000;\fsimplex.shx,bigfont.shx;%%c 
40
4.5
41
0
44
1.084337
50
90
71
7
72
5
7
DEFAULT
0
LINE
5
264
100
AcDbEntity
8
SK2
62
256
6
ByLayer
370
-1
48
1
60
0
100
AcDbLine
10
-57.5875
20
12.5
30
0
11
-67.9
21
12.5
31
0
39
0
210
0
220
0
230
1
0
LINE
5
265
100
AcDbEntity
8
SK2
62
256
6
ByLayer
370
-1
48
1
60
0
100
AcDbLine
10
-57.5875
20
-12.5
30
0
11
-67.9
21
-12.5
31
0
39
0
210
0
220
0
230
1
0
LINE
5
266
100
AcDbEntity
8
SK2
62
256
6
ByLayer
370
-1
48
1
60
0
100
AcDbLine
10
-64.725
20
23.75
30
0
11
-64.725
21
-23.75
31
0
39
0
210
0
220
0
230
1
0
SOLID
5
267
100
AcDbEntity
8
SK2
62
256
6
ByLayer
370
-1
48
1
60
0
100
AcDbTrace
10
-64.725
20
12.5
30
0
11
-65.650575
21
16.674997
31
0
12
-63.799425
22
16.675003
32
0
13
-64.725
23
12.5
33
0
39
0
210
0
220
0
230
1
0
SOLID
5
268
100
AcDbEntity
8
SK2
62
256
6
ByLayer
370
-1
48
1
60
0
100
AcDbTrace
10
-64.725
20
-12.5
30
0
11
-63.799425
21
-16.674997
31
0
12
-65.650575
22
-16.675003
32
0
13
-64.725
23
-12.5
33
0
39
0
210
0
220
0
230
1
0
ENDBLK
5
26A
100
AcDbEntity
8
0
100
AcDbBlockEnd
0
BLOCK
5
274
100
AcDbEntity
8
0
100
AcDbBlockBegin
2
DimnDraft3D6
70
0
10
0
20
0
30
0
3
DimnDraft3D6
0
MTEXT
5
26D
100
AcDbEntity
8
SK2
62
256
6
ByLayer
370
-1
48
1
60
0
100
AcDbMText
10
-76.975
20
5.246053
30
0
210
0
220
0
230
1
1
\W01.000;\fsimplex.shx,bigfont.shx;32 
40
4.5
41
0
44
1.084337
50
90
71
7
72
5
7
DEFAULT
0
MTEXT
5
26E
100
AcDbEntity
8
SK2
62
256
6
ByLayer
370
-1
48
1
60
0
100
AcDbMText
10
-76.975
20
-8.253947
30
0
210
0
220
0
230
1
1
\W01.000;\fsimplex.shx,bigfont.shx;%%c 
40
4.5
41
0
44
1.084337
50
90
71
7
72
5
7
DEFAULT
0
LINE
5
26F
100
AcDbEntity
8
SK2
62
256
6
ByLayer
370
-1
48
1
60
0
100
AcDbLine
10
-1.5875
20
-16
30
0
11
-77.9
21
-16
31
0
39
0
210
0
220
0
230
1
0
LINE
5
270
100
AcDbEntity
8
SK2
62
256
6
ByLayer
370
-1
48
1
60
0
100
AcDbLine
10
-1.5875
20
16
30
0
11
-77.9
21
16
31
0
39
0
210
0
220
0
230
1
0
LINE
5
271
100
AcDbEntity
8
SK2
62
256
6
ByLayer
370
-1
48
1
60
0
100
AcDbLine
10
-74.725
20
-16
30
0
11
-74.725
21
16
31
0
39
0
210
0
220
0
230
1
0
SOLID
5
272
100
AcDbEntity
8
SK2
62
256
6
ByLayer
370
-1
48
1
60
0
100
AcDbTrace
10
-74.725
20
-16
30
0
11
-75.650575
21
-11.825003
31
0
12
-73.799425
22
-11.824997
32
0
13
-74.725
23
-16
33
0
39
0
210
0
220
0
230
1
0
SOLID
5
273
100
AcDbEntity
8
SK2
62
256
6
ByLayer
370
-1
48
1
60
0
100
AcDbTrace
10
-74.725
20
16
30
0
11
-73.799425
21
11.825003
31
0
12
-75.650575
22
11.824997
32
0
13
-74.725
23
16
33
0
39
0
210
0
220
0
230
1
0
ENDBLK
5
275
100
AcDbEntity
8
0
100
AcDbBlockEnd
0
BLOCK
5
27F
100
AcDbEntity
8
0
100
AcDbBlockBegin
2
DimnDraft3D7
70
0
10
0
20
0
30
0
3
DimnDraft3D7
0
MTEXT
5
278
100
AcDbEntity
8
2
62
256
6
ByLayer
370
-1
48
1
60
0
100
AcDbMText
10
133.725
20
5.246053
30
0
210
0
220
0
230
1
1
\W01.000;\fsimplex.shx,bigfont.shx;22 
40
4.5
41
0
44
1.084337
50
90
71
7
72
5
7
DEFAULT
0
MTEXT
5
279
100
AcDbEntity
8
2
62
256
6
ByLayer
370
-1
48
1
60
0
100
AcDbMText
10
133.725
20
-8.253947
30
0
210
0
220
0
230
1
1
\W01.000;\fsimplex.shx,bigfont.shx;%%c 
40
4.5
41
0
44
1.084337
50
90
71
7
72
5
7
DEFAULT
0
LINE
5
27A
100
AcDbEntity
8
2
62
256
6
ByLayer
370
-1
48
1
60
0
100
AcDbLine
10
110.5875
20
11
30
0
11
139.15
21
11
31
0
39
0
210
0
220
0
230
1
0
LINE
5
27B
100
AcDbEntity
8
2
62
256
6
ByLayer
370
-1
48
1
60
0
100
AcDbLine
10
110.5875
20
-11
30
0
11
139.15
21
-11
31
0
39
0
210
0
220
0
230
1
0
LINE
5
27C
100
AcDbEntity
8
2
62
256
6
ByLayer
370
-1
48
1
60
0
100
AcDbLine
10
135.975
20
22.25
30
0
11
135.975
21
-22.25
31
0
39
0
210
0
220
0
230
1
0
SOLID
5
27D
100
AcDbEntity
8
2
62
256
6
ByLayer
370
-1
48
1
60
0
100
AcDbTrace
10
135.975
20
11
30
0
11
135.049425
21
15.174997
31
0
12
136.900575
22
15.175003
32
0
13
135.975
23
11
33
0
39
0
210
0
220
0
230
1
0
SOLID
5
27E
100
AcDbEntity
8
2
62
256
6
ByLayer
370
-1
48
1
60
0
100
AcDbTrace
10
135.975
20
-11
30
0
11
136.900575
21
-15.174997
31
0
12
135.049425
22
-15.175003
32
0
13
135.975
23
-11
33
0
39
0
210
0
220
0
230
1
0
ENDBLK
5
280
100
AcDbEntity
8
0
100
AcDbBlockEnd
0
ENDSEC
0
SECTION
2
ENTITIES
0
ARC
5
F2
100
AcDbEntity
8
SK1
62
256
6
ByLayer
370
-1
48
1
60
0
100
AcDbCircle
39
0
10
1.382165
20
12.65
30
0
40
0.4
210
0
220
0
230
-1
100
AcDbArc
50
270
51
295
0
ARC
5
F3
100
AcDbEntity
8
SK1
62
256
6
ByLayer
370
-1
48
1
60
0
100
AcDbCircle
39
0
10
1.382165
20
-12.65
30
0
40
0.4
210
0
220
0
230
-1
100
AcDbArc
50
65
51
90
0
ARC
5
F4
100
AcDbEntity
8
SK1
62
256
6
ByLayer
370
-1
48
1
60
0
100
AcDbCircle
39
0
10
0.15
20
12.65
30
0
40
0.4
210
0
220
0
230
-1
100
AcDbArc
50
247.975687
51
270
0
ARC
5
F5
100
AcDbEntity
8
SK1
62
256
6
ByLayer
370
-1
48
1
60
0
100
AcDbCircle
39
0
10
0.15
20
-12.65
30
0
40
0.4
210
0
220
0
230
-1
100
AcDbArc
50
90
51
112.024313
0
ARC
5
F6
100
AcDbEntity
8
SK1
62
256
6
ByLayer
370
-1
48
1
60
0
100
AcDbCircle
39
0
10
53.894506
20
12.89675
30
0
40
0.8
210
0
220
0
230
-1
100
AcDbArc
50
250.982048
51
321
0
ARC
5
F7
100
AcDbEntity
8
SK1
62
256
6
ByLayer
370
-1
48
1
60
0
100
AcDbCircle
39
0
10
53.894506
20
-12.89675
30
0
40
0.8
210
0
220
0
230
-1
100
AcDbArc
50
39
51
109.017952
0
ELLIPSE
5
F8
100
AcDbEntity
8
1
62
256
6
ByLayer
370
-1
48
1
60
0
100
AcDbEllipse
10
101.370586
20
1E-06
30
0
11
-0.343210398983526
21
10.5999568378631
31
0
210
0
220
0
230
-1
40
0.087398
41
-0.0175632054334889
42
0.0118229319047642
0
ELLIPSE
5
F9
100
AcDbEntity
8
1
62
256
6
ByLayer
370
-1
48
1
60
0
100
AcDbEllipse
10
108.204973
20
-5.454082
30
0
11
-0.05751986367463
21
-0.658282332472944
31
0
210
0
220
0
230
-1
40
0.115977
41
0.0117126501978479
42
1.5825089769904
0
ELLIPSE
5
FA
100
AcDbEntity
8
1
62
256
6
ByLayer
370
-1
48
1
60
0
100
AcDbEllipse
10
102.42682
20
9.316495
30
0
11
6.09155738004463E-15
21
5.2
31
0
210
0
220
0
230
1
40
0.996195
41
2.72271363311115
42
2.82017770552679
0
ELLIPSE
5
FB
100
AcDbEntity
8
1
62
256
6
ByLayer
370
-1
48
1
60
0
100
AcDbEllipse
10
108.208047
20
0
30
0
11
-0.715843608050312
21
10.5996625862357
31
0
210
0
220
0
230
-1
40
0.118103
41
-1.50685140830573
42
-1.44601059867136
0
ELLIPSE
5
FC
100
AcDbEntity
8
1
62
256
6
ByLayer
370
-1
48
1
60
0
100
AcDbEllipse
10
96.94138
20
4.039964
30
0
11
-10.7531969262598
21
0.565681931119844
31
0
210
0
220
0
230
-1
40
0.00032
41
-3.13642649798139
42
-3.13551585798736
0
ELLIPSE
5
FD
100
AcDbEntity
8
1
62
256
6
ByLayer
370
-1
48
1
60
0
100
AcDbEllipse
10
98.996485
20
0
30
0
11
-38.7240641060612
21
-4.38782250521093E-14
31
0
210
0
220
0
230
-1
40
0.273732
41
1.54068772348341
42
1.57632731960682
0
ELLIPSE
5
FE
100
AcDbEntity
8
1
62
256
6
ByLayer
370
-1
48
1
60
0
100
AcDbEllipse
10
107.930998
20
0.036997
30
0
11
-0.0374166572027722
21
0.601626289136243
31
0
210
0
220
0
230
-1
40
0.118187
41
-1.48953394199382
42
-1.44873059073094
0
ELLIPSE
5
FF
100
AcDbEntity
8
1
62
256
6
ByLayer
370
-1
48
1
60
0
100
AcDbEllipse
10
102.57195
20
6.161713
30
0
11
-1.76858446507625E-15
21
-1.65
31
0
210
0
220
0
230
1
40
0.996195
41
-2.2954931910143
42
-1.53879862384166
0
ELLIPSE
5
100
100
AcDbEntity
8
1
62
256
6
ByLayer
370
-1
48
1
60
0
100
AcDbEllipse
10
101.723141
20
7.87851
30
0
11
-0.579980162398302
21
-0.618336926195417
31
0
210
0
220
0
230
-1
40
0.04503
41
-0.791576829882198
42
-0.359511934338633
0
ELLIPSE
5
101
100
AcDbEntity
8
1
62
256
6
ByLayer
370
-1
48
1
60
0
100
AcDbEllipse
10
37.834045
20
0
30
0
11
-188.517125409839
21
-10.2508415006707
31
0
210
0
220
0
230
-1
40
0.014313
41
-1.9449845598116
42
-1.91666523848749
0
ELLIPSE
5
102
100
AcDbEntity
8
1
62
256
6
ByLayer
370
-1
48
1
60
0
100
AcDbEllipse
10
105.171677
20
7.029049
30
0
11
1.75718001347441E-15
21
1.5
31
0
210
0
220
0
230
1
40
0.996195
41
0.0349499032697529
42
0.710883060211173
0
ELLIPSE
5
103
100
AcDbEntity
8
1
62
256
6
ByLayer
370
-1
48
1
60
0
100
AcDbEllipse
10
108.98524
20
0
30
0
11
-0.859839858980886
21
-10.599436593596
31
0
210
0
220
0
230
-1
40
0.127103
41
0.0321408804882236
42
1.0771255604217
0
ELLIPSE
5
104
100
AcDbEntity
8
1
62
256
6
ByLayer
370
-1
48
1
60
0
100
AcDbEllipse
10
88.811975
20
8.56546
30
0
11
-14.3716993187081
21
7.81673177952686
31
0
210
0
220
0
230
-1
40
0.082448
41
-2.18264981371456
42
-1.75574653608019
0
ELLIPSE
5
105
100
AcDbEntity
8
1
62
256
6
ByLayer
370
-1
48
1
60
0
100
AcDbEllipse
10
107.877738
20
4.065452
30
0
11
-0.0404009138722703
21
0.602896090269541
31
0
210
0
220
0
230
-1
40
0.116777
41
2.32620841513288
42
-3.13215416812015
0
ELLIPSE
5
106
100
AcDbEntity
8
1
62
256
6
ByLayer
370
-1
48
1
60
0
100
AcDbEllipse
10
102.389964
20
4.76243
30
0
11
1.93289801482185E-15
21
1.65
31
0
210
0
220
0
230
1
40
0.996195
41
1.60279402974813
42
1.80296078808597
0
ELLIPSE
5
107
100
AcDbEntity
8
1
62
256
6
ByLayer
370
-1
48
1
60
0
100
AcDbEllipse
10
99.155639
20
-1E-06
30
0
11
-62.4235448960468
21
0.76125753813171
31
0
210
0
220
0
230
-1
40
0.169369
41
-1.60022369293718
42
-1.57344801070385
0
ELLIPSE
5
108
100
AcDbEntity
8
1
62
256
6
ByLayer
370
-1
48
1
60
0
100
AcDbEllipse
10
105.110593
20
-2.479152
30
0
11
-1.25
21
1.26329881885295E-15
31
0
210
0
220
0
230
1
40
0.997564
41
-2.62008802915429
42
-0.521602163786987
0
ELLIPSE
5
109
100
AcDbEntity
8
1
62
256
6
ByLayer
370
-1
48
1
60
0
100
AcDbEllipse
10
105.110593
20
-2.479152
30
0
11
-1.25
21
1.26329881885295E-15
31
0
210
0
220
0
230
1
40
0.997564
41
0
42
6.28318530717959
0
ELLIPSE
5
10A
100
AcDbEntity
8
1
62
256
6
ByLayer
370
-1
48
1
60
0
100
AcDbEllipse
10
105.171677
20
7.029049
30
0
11
1.46431667789534E-15
21
1.25
31
0
210
0
220
0
230
1
40
0.996195
41
-2.35825588077847
42
0
0
ELLIPSE
5
10B
100
AcDbEntity
8
1
62
256
6
ByLayer
370
-1
48
1
60
0
100
AcDbEllipse
10
105.171677
20
7.029049
30
0
11
1.46431667789534E-15
21
1.25
31
0
210
0
220
0
230
1
40
0.996195
41
0
42
1.57079605281728
0
ELLIPSE
5
10C
100
AcDbEntity
8
1
62
256
6
ByLayer
370
-1
48
1
60
0
100
AcDbEllipse
10
105.171677
20
7.029049
30
0
11
1.46431667789534E-15
21
1.25
31
0
210
0
220
0
230
1
40
0.996195
41
1.57079634872777
42
1.80887004062054
0
ELLIPSE
5
10D
100
AcDbEntity
8
1
62
256
6
ByLayer
370
-1
48
1
60
0
100
AcDbEllipse
10
98.540543
20
1E-06
30
0
11
-121.1585466684
21
-1.37284711727105E-13
31
0
210
0
220
0
230
-1
40
0.087489
41
1.57632731987465
42
1.59118933058132
0
ELLIPSE
5
10E
100
AcDbEntity
8
1
62
256
6
ByLayer
370
-1
48
1
60
0
100
AcDbEllipse
10
105.101952
20
7.029049
30
0
11
1.75718001347441E-15
21
1.5
31
0
210
0
220
0
230
1
40
0.996195
41
-1.54046055081385
42
0
0
ELLIPSE
5
10F
100
AcDbEntity
8
1
62
256
6
ByLayer
370
-1
48
1
60
0
100
AcDbEllipse
10
105.101952
20
7.029049
30
0
11
1.75718001347441E-15
21
1.5
31
0
210
0
220
0
230
1
40
0.996195
41
0
42
0.510607148495788
0
ELLIPSE
5
110
100
AcDbEntity
8
1
62
256
6
ByLayer
370
-1
48
1
60
0
100
AcDbEllipse
10
102.746593
20
4.76243
30
0
11
-1.4397123416367
21
-1.28202564690333
31
0
210
0
220
0
230
-1
40
0.721468
41
-1.18428535875649
42
-0.868660261777719
0
ELLIPSE
5
111
100
AcDbEntity
8
1
62
256
6
ByLayer
370
-1
48
1
60
0
100
AcDbEllipse
10
100.250114
20
4.566059
30
0
11
-0.326425640836806
21
-0.730374082922088
31
0
210
0
220
0
230
1
40
0.079621
41
0.035569836570632
42
1.60636616336575
0
ELLIPSE
5
112
100
AcDbEntity
8
1
62
256
6
ByLayer
370
-1
48
1
60
0
100
AcDbEllipse
10
109.300935
20
0
30
0
11
-24.1204097240848
21
10.2721716567014
31
0
210
0
220
0
230
-1
40
0.108448
41
-1.18227610810884
42
-0.706269821296659
0
ELLIPSE
5
113
100
AcDbEntity
8
1
62
256
6
ByLayer
370
-1
48
1
60
0
100
AcDbEllipse
10
108.208498
20
0
30
0
11
-0.654296215675434
21
10.5997161819206
31
0
210
0
220
0
230
-1
40
0.118552
41
-2.04683886898838
42
-1.50750942395053
0
ELLIPSE
5
114
100
AcDbEntity
8
1
62
256
6
ByLayer
370
-1
48
1
60
0
100
AcDbEllipse
10
98.604182
20
6.591881
30
0
11
-0.979258609492317
21
-4.80115117193108
31
0
210
0
220
0
230
1
40
0.259054
41
0.55046346811613
42
1.089510457262
0
ELLIPSE
5
115
100
AcDbEntity
8
1
62
256
6
ByLayer
370
-1
48
1
60
0
100
AcDbEllipse
10
107.931177
20
0.036991
30
0
11
-0.0409149347887521
21
0.601745061171437
31
0
210
0
220
0
230
-1
40
0.117715
41
-1.44808960241761
42
0.0819034711546356
0
ELLIPSE
5
116
100
AcDbEntity
8
1
62
256
6
ByLayer
370
-1
48
1
60
0
100
AcDbEllipse
10
101.526481
20
6.128122
30
0
11
-0.599695201525335
21
-0.0191223760942029
31
0
210
0
220
0
230
1
40
0.002788
41
0.0872220186676158
42
1.32520647544542
0
ELLIPSE
5
117
100
AcDbEntity
8
1
62
256
6
ByLayer
370
-1
48
1
60
0
100
AcDbEllipse
10
102.345345
20
6.161713
30
0
11
1.93289801482185E-15
21
1.65
31
0
210
0
220
0
230
1
40
0.996195
41
0.84340834077205
42
1.60279402974813
0
ELLIPSE
5
118
100
AcDbEntity
8
1
62
256
6
ByLayer
370
-1
48
1
60
0
100
AcDbEllipse
10
105.110593
20
-2.123394
30
0
11
-1.11602540378444
21
1.12789885952862E-15
31
0
210
0
220
0
230
1
40
0.997564
41
0
42
6.28318530717959
0
ELLIPSE
5
119
100
AcDbEntity
8
1
62
256
6
ByLayer
370
-1
48
1
60
0
100
AcDbEllipse
10
102.616569
20
4.76243
30
0
11
-1.76858446507625E-15
21
-1.65
31
0
210
0
220
0
230
1
40
0.996195
41
-1.53879862384166
42
-0.123410159232462
0
ELLIPSE
5
11A
100
AcDbEntity
8
1
62
256
6
ByLayer
370
-1
48
1
60
0
100
AcDbEllipse
10
71.933066
20
12.031809
30
0
11
-27.2605483414061
21
5.47300448180555
31
0
210
0
220
0
230
-1
40
0.176204
41
3.10623145821584
42
-2.893708279103
0
ELLIPSE
5
11B
100
AcDbEntity
8
1
62
256
6
ByLayer
370
-1
48
1
60
0
100
AcDbEllipse
10
102.357096
20
9.316495
30
0
11
-6.43121623664089E-15
21
-6
31
0
210
0
220
0
230
1
40
0.996195
41
-0.418879020478638
42
-0.16037719861654
0
ELLIPSE
5
11C
100
AcDbEntity
8
1
62
256
6
ByLayer
370
-1
48
1
60
0
100
AcDbEllipse
10
107.82554
20
-5.995221
30
0
11
-0.0784460687691088
21
1.26478713597442
31
0
210
0
220
0
230
-1
40
0.11655
41
-0.742288375462786
42
0.881409920809705
0
ELLIPSE
5
11D
100
AcDbEntity
8
1
62
256
6
ByLayer
370
-1
48
1
60
0
100
AcDbEllipse
10
101.5711
20
4.728838
30
0
11
-0.599695201525335
21
-0.0191223760942029
31
0
210
0
220
0
230
1
40
0.002788
41
0.0872220186676158
42
1.33217642950434
0
ELLIPSE
5
11E
100
AcDbEntity
8
1
62
256
6
ByLayer
370
-1
48
1
60
0
100
AcDbEllipse
10
105.110593
20
-2.123394
30
0
11
1.35
21
0
31
0
210
0
220
0
230
1
40
0.997564
41
0.06302820858658
42
-3.14159262170401
0
ELLIPSE
5
11F
100
AcDbEntity
8
1
62
256
6
ByLayer
370
-1
48
1
60
0
100
AcDbEllipse
10
10.7
20
3.27575
30
0
11
-4.99999999999999
21
5.0531952754118E-15
31
0
210
0
220
0
230
1
40
0.720533
41
-1.72767049549561
42
-0.491317058122057
0
ELLIPSE
5
120
100
AcDbEntity
8
1
62
256
6
ByLayer
370
-1
48
1
60
0
100
AcDbEllipse
10
107.704796
20
-5.98259
30
0
11
-0.099193263497035
21
-1.24643809813879
31
0
210
0
220
0
230
-1
40
0.126762
41
-2.27658164184112
42
2.38290536906672
0
ELLIPSE
5
121
100
AcDbEntity
8
1
62
256
6
ByLayer
370
-1
48
1
60
0
100
AcDbEllipse
10
105.415713
20
7.029049
30
0
11
1.46431667789534E-15
21
1.25
31
0
210
0
220
0
230
1
40
0.996195
41
0.0981750815225059
42
1.57079634872777
0
ELLIPSE
5
122
100
AcDbEntity
8
1
62
256
6
ByLayer
370
-1
48
1
60
0
100
AcDbEllipse
10
105.415713
20
7.029049
30
0
11
1.46431667789534E-15
21
1.25
31
0
210
0
220
0
230
1
40
0.996195
41
1.57079634872777
42
2.6683900478538
0
ELLIPSE
5
123
100
AcDbEntity
8
1
62
256
6
ByLayer
370
-1
48
1
60
0
100
AcDbEllipse
10
106.218788
20
10.308068
30
0
11
5.77557701897395E-15
21
4.93026637113357
31
0
210
0
220
0
230
1
40
0.996195
41
1.58680228982978
42
1.59660228291656
0
ELLIPSE
5
124
100
AcDbEntity
8
1
62
256
6
ByLayer
370
-1
48
1
60
0
100
AcDbEllipse
10
108.3865
20
3.976028
30
0
11
-3.21560811832046E-16
21
-0.300000000000001
31
0
210
0
220
0
230
1
40
0.996195
41
0.0698131700797553
42
0.296705972839045
0
ELLIPSE
5
125
100
AcDbEntity
8
1
62
256
6
ByLayer
370
-1
48
1
60
0
100
AcDbEllipse
10
98.654228
20
9.99735
30
0
11
-1.07186937277348E-14
21
-9.99999999999999
31
0
210
0
220
0
230
1
40
0.996195
41
1.60570291183479
42
1.61480354075299
0
ELLIPSE
5
126
100
AcDbEntity
8
1
62
256
6
ByLayer
370
-1
48
1
60
0
100
AcDbEllipse
10
102.297755
20
0.855598
30
0
11
-1.07186937277348E-14
21
-9.99999999999999
31
0
210
0
220
0
230
1
40
0.996195
41
-3.10668606854991
42
-3.0975854396317
0
ELLIPSE
5
127
100
AcDbEntity
8
1
62
256
6
ByLayer
370
-1
48
1
60
0
100
AcDbEllipse
10
111.404188
20
4.513044
30
0
11
1.16328437305553E-14
21
9.93026637113358
31
0
210
0
220
0
230
1
40
0.996195
41
1.60934574665594
42
1.61480354075299
0
ELLIPSE
5
128
100
AcDbEntity
8
1
62
256
6
ByLayer
370
-1
48
1
60
0
100
AcDbEllipse
10
101.988219
20
8.449588
30
0
11
-5.35934686386771E-15
21
-5.00000000000028
31
0
210
0
220
0
230
1
40
0.996195
41
0.016005963034881
42
0.0258059561216564
0
ELLIPSE
5
129
100
AcDbEntity
8
1
62
256
6
ByLayer
370
-1
48
1
60
0
100
AcDbEllipse
10
105.081279
20
7.255197
30
0
11
-2.01991837106078E-15
21
-1.88448184300126
31
0
210
0
220
0
230
1
40
0.996195
41
2.21551025834039
42
-9.46223865285074E-16
0
ELLIPSE
5
12A
100
AcDbEntity
8
1
62
256
6
ByLayer
370
-1
48
1
60
0
100
AcDbEllipse
10
105.081279
20
7.255197
30
0
11
-2.01991837106078E-15
21
-1.88448184300126
31
0
210
0
220
0
230
1
40
0.996195
41
0
42
0.92608264308836
0
ELLIPSE
5
12B
100
AcDbEntity
8
1
62
256
6
ByLayer
370
-1
48
1
60
0
100
AcDbEllipse
10
103.839096
20
4.202325
30
0
11
5.77557701897395E-15
21
4.93026637113357
31
0
210
0
220
0
230
1
40
0.996195
41
-1.55479036376002
42
-1.54499037067324
0
ELLIPSE
5
12C
100
AcDbEntity
8
1
62
256
6
ByLayer
370
-1
48
1
60
0
100
AcDbEllipse
10
108.328248
20
4.167289
30
0
11
-5.35934686386747E-16
21
-0.500000000000006
31
0
210
0
220
0
230
1
40
0.996195
41
0.296705972839008
42
1.34390352403565
0
ELLIPSE
5
12D
100
AcDbEntity
8
1
62
256
6
ByLayer
370
-1
48
1
60
0
100
AcDbEllipse
10
107.76066
20
13.654795
30
0
11
1.16328437305553E-14
21
9.93026637113358
31
0
210
0
220
0
230
1
40
0.996195
41
-3.10304323372874
42
-3.0975854396317
0
ELLIPSE
5
12E
100
AcDbEntity
8
1
62
256
6
ByLayer
370
-1
48
1
60
0
100
AcDbEllipse
10
98.859781
20
4.07331
30
0
11
1.16328437305553E-14
21
9.93026637113358
31
0
210
0
220
0
230
1
40
0.996195
41
-1.54499037067321
42
-1.53953256490644
0
ELLIPSE
5
12F
100
AcDbEntity
8
1
62
256
6
ByLayer
370
-1
48
1
60
0
100
AcDbEllipse
10
108.522381
20
4.122299
30
0
11
-3.21560811832046E-16
21
-0.300000000000001
31
0
210
0
220
0
230
1
40
0.996195
41
1.34390352403572
42
1.5707963267949
0
ELLIPSE
5
130
100
AcDbEntity
8
1
62
256
6
ByLayer
370
-1
48
1
60
0
100
AcDbEllipse
10
107.712437
20
13.652399
30
0
11
-1.07186937277344E-14
21
-9.99999999999964
31
0
210
0
220
0
230
1
40
0.996195
41
0.0538072070448948
42
0.0698131700797835
0
ELLIPSE
5
131
100
AcDbEntity
8
1
62
256
6
ByLayer
370
-1
48
1
60
0
100
AcDbEllipse
10
101.536566
20
10.388095
30
0
11
-3.21560811832046E-16
21
-0.300000000000001
31
0
210
0
220
0
230
1
40
0.996195
41
-1.79768912955407
42
-1.5707963267949
0
ELLIPSE
5
132
100
AcDbEntity
8
1
62
256
6
ByLayer
370
-1
48
1
60
0
100
AcDbEllipse
10
108.521849
20
4.122299
30
0
11
2.69746310087586E-16
21
0.230266371133677
31
0
210
0
220
0
230
1
40
0.996195
41
-1.79768912955418
42
-1.5707963267949
0
ELLIPSE
5
133
100
AcDbEntity
8
1
62
256
6
ByLayer
370
-1
48
1
60
0
100
AcDbEllipse
10
101.536035
20
10.388095
30
0
11
2.69746310087586E-16
21
0.230266371133677
31
0
210
0
220
0
230
1
40
0.996195
41
1.34390352403567
42
1.5707963267949
0
ELLIPSE
5
134
100
AcDbEntity
8
1
62
256
6
ByLayer
370
-1
48
1
60
0
100
AcDbEllipse
10
101.762251
20
3.885347
30
0
11
2.69746310087586E-16
21
0.230266371133677
31
0
210
0
220
0
230
1
40
0.996195
41
1.64060949687465
42
1.86750229963388
0
ELLIPSE
5
135
100
AcDbEntity
8
1
62
256
6
ByLayer
370
-1
48
1
60
0
100
AcDbEllipse
10
106.428568
20
4.293078
30
0
11
-5.35934686386771E-15
21
-5.00000000000028
31
0
210
0
220
0
230
1
40
0.996195
41
-1.52678911283678
42
-1.51698911975
0
ELLIPSE
5
136
100
AcDbEntity
8
1
62
256
6
ByLayer
370
-1
48
1
60
0
100
AcDbEllipse
10
101.672447
20
10.534365
30
0
11
-3.21560811832046E-16
21
-0.300000000000001
31
0
210
0
220
0
230
1
40
0.996195
41
-3.07177948351004
42
-2.84488668075079
0
ELLIPSE
5
137
100
AcDbEntity
8
1
62
256
6
ByLayer
370
-1
48
1
60
0
100
AcDbEllipse
10
111.404719
20
4.513044
30
0
11
-1.07186937277348E-14
21
-9.99999999999999
31
0
210
0
220
0
230
1
40
0.996195
41
-1.53588974175501
42
-1.5267891128368
0
ELLIPSE
5
138
100
AcDbEntity
8
1
62
256
6
ByLayer
370
-1
48
1
60
0
100
AcDbEllipse
10
102.078095
20
5.850758
30
0
11
5.77557701897395E-15
21
4.93026637113357
31
0
210
0
220
0
230
1
40
0.996195
41
0.0440072139581149
42
0.0538072070448944
0
ELLIPSE
5
139
100
AcDbEntity
8
1
62
256
6
ByLayer
370
-1
48
1
60
0
100
AcDbEllipse
10
101.859163
20
13.447923
30
0
11
1.16328437305553E-14
21
9.93026637113358
31
0
210
0
220
0
230
1
40
0.996195
41
-3.11578669746811
42
-3.11032889170133
0
ELLIPSE
5
13A
100
AcDbEntity
8
1
62
256
6
ByLayer
370
-1
48
1
60
0
100
AcDbEllipse
10
98.656082
20
9.948409
30
0
11
1.1632843730555E-14
21
9.9302663711333
31
0
210
0
220
0
230
1
40
0.996195
41
-1.51698911975
42
-1.50098315671511
0
ELLIPSE
5
13B
100
AcDbEntity
8
1
62
256
6
ByLayer
370
-1
48
1
60
0
100
AcDbEllipse
10
101.907966
20
3.748947
30
0
11
2.69746310087586E-16
21
0.230266371133677
31
0
210
0
220
0
230
1
40
0.996195
41
2.91469985083055
42
3.14159265358979
0
ELLIPSE
5
13C
100
AcDbEntity
8
1
62
256
6
ByLayer
370
-1
48
1
60
0
100
AcDbEllipse
10
103.630379
20
10.217315
30
0
11
-5.35934686386771E-15
21
-5.00000000000028
31
0
210
0
220
0
230
1
40
0.996195
41
1.61480354075301
42
1.62460353383979
0
ELLIPSE
5
13D
100
AcDbEntity
8
1
62
256
6
ByLayer
370
-1
48
1
60
0
100
AcDbEllipse
10
108.105099
20
10.566572
30
0
11
5.04036978550836E-16
21
0.430266371133673
31
0
210
0
220
0
230
1
40
0.996195
41
-1.27409035395586
42
-0.226892802759293
0
ELLIPSE
5
13E
100
AcDbEntity
8
1
62
256
6
ByLayer
370
-1
48
1
60
0
100
AcDbEllipse
10
101.908497
20
3.748947
30
0
11
-3.21560811832046E-16
21
-0.300000000000001
31
0
210
0
220
0
230
1
40
0.996195
41
-0.226892802759223
42
0
0
ELLIPSE
5
13F
100
AcDbEntity
8
1
62
256
6
ByLayer
370
-1
48
1
60
0
100
AcDbEllipse
10
107.711905
20
13.652399
30
0
11
1.1632843730555E-14
21
9.9302663711333
31
0
210
0
220
0
230
1
40
0.996195
41
-3.0877854465449
42
-3.07177948351001
0
ELLIPSE
5
140
100
AcDbEntity
8
1
62
256
6
ByLayer
370
-1
48
1
60
0
100
AcDbEllipse
10
108.149918
20
1.061446
30
0
11
1.1632843730555E-14
21
9.9302663711333
31
0
210
0
220
0
230
1
40
0.996195
41
0
42
0.0160059630348829
0
ELLIPSE
5
141
100
AcDbEntity
8
1
62
256
6
ByLayer
370
-1
48
1
60
0
100
AcDbEllipse
10
107.979788
20
8.659636
30
0
11
5.77557701897395E-15
21
4.93026637113357
31
0
210
0
220
0
230
1
40
0.996195
41
-3.09758543963168
42
-3.0877854465449
0
ELLIPSE
5
142
100
AcDbEntity
8
1
62
256
6
ByLayer
370
-1
48
1
60
0
100
AcDbEllipse
10
101.952785
20
3.943821
30
0
11
5.04036978550836E-16
21
0.430266371133673
31
0
210
0
220
0
230
1
40
0.996195
41
1.86750229963393
42
2.9146998508305
0
ELLIPSE
5
143
100
AcDbEntity
8
1
62
256
6
ByLayer
370
-1
48
1
60
0
100
AcDbEllipse
10
101.762783
20
3.885347
30
0
11
-3.21560811832046E-16
21
-0.300000000000001
31
0
210
0
220
0
230
1
40
0.996195
41
-1.50098315671517
42
-1.27409035395594
0
ELLIPSE
5
144
100
AcDbEntity
8
1
62
256
6
ByLayer
370
-1
48
1
60
0
100
AcDbEllipse
10
98.656614
20
9.948409
30
0
11
-1.07186937277344E-14
21
-9.99999999999964
31
0
210
0
220
0
230
1
40
0.996195
41
1.62460353383979
42
1.64060949687468
0
ELLIPSE
5
145
100
AcDbEntity
8
1
62
256
6
ByLayer
370
-1
48
1
60
0
100
AcDbEllipse
10
98.653696
20
9.99735
30
0
11
1.16328437305553E-14
21
9.93026637113358
31
0
210
0
220
0
230
1
40
0.996195
41
-1.53224690693385
42
-1.5267891128368
0
ELLIPSE
5
146
100
AcDbEntity
8
1
62
256
6
ByLayer
370
-1
48
1
60
0
100
AcDbEllipse
10
108.105631
20
10.566572
30
0
11
-5.35934686386747E-16
21
-0.500000000000006
31
0
210
0
220
0
230
1
40
0.996195
41
1.8675022996339
42
2.9146998508305
0
ELLIPSE
5
147
100
AcDbEntity
8
1
62
256
6
ByLayer
370
-1
48
1
60
0
100
AcDbEllipse
10
108.295632
20
10.625047
30
0
11
2.69746310087586E-16
21
0.230266371133677
31
0
210
0
220
0
230
1
40
0.996195
41
-1.50098315671514
42
-1.27409035395591
0
ELLIPSE
5
148
100
AcDbEntity
8
1
62
256
6
ByLayer
370
-1
48
1
60
0
100
AcDbEllipse
10
108.385968
20
3.976028
30
0
11
2.69746310087586E-16
21
0.230266371133677
31
0
210
0
220
0
230
1
40
0.996195
41
-3.07177948351008
42
-2.84488668075083
0
ELLIPSE
5
149
100
AcDbEntity
8
1
62
256
6
ByLayer
370
-1
48
1
60
0
100
AcDbEllipse
10
102.34651
20
0.857994
30
0
11
-1.07186937277344E-14
21
-9.99999999999964
31
0
210
0
220
0
230
1
40
0.996195
41
-3.0877854465449
42
-3.07177948351001
0
ELLIPSE
5
14A
100
AcDbEntity
8
1
62
256
6
ByLayer
370
-1
48
1
60
0
100
AcDbEllipse
10
98.860313
20
4.07331
30
0
11
-1.07186937277348E-14
21
-9.99999999999999
31
0
210
0
220
0
230
1
40
0.996195
41
1.59660228291658
42
1.60570291183479
0
ELLIPSE
5
14B
100
AcDbEntity
8
1
62
256
6
ByLayer
370
-1
48
1
60
0
100
AcDbEllipse
10
108.070728
20
6.060806
30
0
11
-5.35934686386771E-15
21
-5.00000000000028
31
0
210
0
220
0
230
1
40
0.996195
41
-3.12558669055491
42
-3.11578669746813
0
ELLIPSE
5
14C
100
AcDbEntity
8
1
62
256
6
ByLayer
370
-1
48
1
60
0
100
AcDbEllipse
10
98.859292
20
4.122299
30
0
11
-1.07186937277344E-14
21
-9.99999999999964
31
0
210
0
220
0
230
1
40
0.996195
41
1.57079632679489
42
1.58680228982978
0
ELLIPSE
5
14D
100
AcDbEntity
8
1
62
256
6
ByLayer
370
-1
48
1
60
0
100
AcDbEllipse
10
102.078627
20
5.850758
30
0
11
-5.35934686386771E-15
21
-5.00000000000028
31
0
210
0
220
0
230
1
40
0.996195
41
-3.09758543963168
42
-3.0877854465449
0
ELLIPSE
5
14E
100
AcDbEntity
8
1
62
256
6
ByLayer
370
-1
48
1
60
0
100
AcDbEllipse
10
101.671915
20
10.534365
30
0
11
2.69746310087586E-16
21
0.230266371133677
31
0
210
0
220
0
230
1
40
0.996195
41
0.069813170079711
42
0.296705972838969
0
ELLIPSE
5
14F
100
AcDbEntity
8
1
62
256
6
ByLayer
370
-1
48
1
60
0
100
AcDbEllipse
10
111.401801
20
4.561985
30
0
11
1.1632843730555E-14
21
9.9302663711333
31
0
210
0
220
0
230
1
40
0.996195
41
1.62460353383979
42
1.64060949687468
0
ELLIPSE
5
150
100
AcDbEntity
8
1
62
256
6
ByLayer
370
-1
48
1
60
0
100
AcDbEllipse
10
111.199123
20
10.388095
30
0
11
1.1632843730555E-14
21
9.9302663711333
31
0
210
0
220
0
230
1
40
0.996195
41
1.57079632679489
42
1.58680228982978
0
ELLIPSE
5
151
100
AcDbEntity
8
1
62
256
6
ByLayer
370
-1
48
1
60
0
100
AcDbEllipse
10
107.761192
20
13.654795
30
0
11
-1.07186937277348E-14
21
-9.99999999999999
31
0
210
0
220
0
230
1
40
0.996195
41
0.0349065850398898
42
0.0440072139580939
0
ELLIPSE
5
152
100
AcDbEntity
8
1
62
256
6
ByLayer
370
-1
48
1
60
0
100
AcDbEllipse
10
101.987688
20
8.449588
30
0
11
5.77557701897395E-15
21
4.93026637113357
31
0
210
0
220
0
230
1
40
0.996195
41
-3.12558669055491
42
-3.11578669746813
0
ELLIPSE
5
153
100
AcDbEntity
8
1
62
256
6
ByLayer
370
-1
48
1
60
0
100
AcDbEllipse
10
101.730167
20
10.343104
30
0
11
5.04036978550836E-16
21
0.430266371133673
31
0
210
0
220
0
230
1
40
0.996195
41
0.296705972838953
42
1.34390352403561
0
ELLIPSE
5
154
100
AcDbEntity
8
1
62
256
6
ByLayer
370
-1
48
1
60
0
100
AcDbEllipse
10
108.327717
20
4.167289
30
0
11
5.04036978550836E-16
21
0.430266371133673
31
0
210
0
220
0
230
1
40
0.996195
41
-2.84488668075077
42
-1.79768912955418
0
ELLIPSE
5
155
100
AcDbEntity
8
1
62
256
6
ByLayer
370
-1
48
1
60
0
100
AcDbEllipse
10
103.629847
20
10.217315
30
0
11
5.77557701897395E-15
21
4.93026637113357
31
0
210
0
220
0
230
1
40
0.996195
41
-1.52678911283678
42
-1.51698911975
0
ELLIPSE
5
156
100
AcDbEntity
8
1
62
256
6
ByLayer
370
-1
48
1
60
0
100
AcDbEllipse
10
106.219319
20
10.308068
30
0
11
-5.35934686386771E-15
21
-5.00000000000028
31
0
210
0
220
0
230
1
40
0.996195
41
-1.55479036376001
42
-1.54499037067324
0
ELLIPSE
5
157
100
AcDbEntity
8
1
62
256
6
ByLayer
370
-1
48
1
60
0
100
AcDbEllipse
10
103.839628
20
4.202325
30
0
11
-5.35934686386771E-15
21
-5.00000000000028
31
0
210
0
220
0
230
1
40
0.996195
41
1.58680228982978
42
1.59660228291656
0
ELLIPSE
5
158
100
AcDbEntity
8
1
62
256
6
ByLayer
370
-1
48
1
60
0
100
AcDbEllipse
10
111.199655
20
10.388095
30
0
11
-1.07186937277344E-14
21
-9.99999999999964
31
0
210
0
220
0
230
1
40
0.996195
41
-1.5707963267949
42
-1.55479036376002
0
ELLIPSE
5
159
100
AcDbEntity
8
1
62
256
6
ByLayer
370
-1
48
1
60
0
100
AcDbEllipse
10
101.908497
20
13.448947
30
0
11
-1.07186937277344E-14
21
-9.99999999999964
31
0
210
0
220
0
230
1
40
0.996195
41
0
42
0.0160059630348851
0
ELLIPSE
5
15A
100
AcDbEntity
8
1
62
256
6
ByLayer
370
-1
48
1
60
0
100
AcDbEllipse
10
101.953316
20
3.943821
30
0
11
-5.35934686386747E-16
21
-0.500000000000006
31
0
210
0
220
0
230
1
40
0.996195
41
-1.27409035395589
42
-0.226892802759265
0
ELLIPSE
5
15B
100
AcDbEntity
8
1
62
256
6
ByLayer
370
-1
48
1
60
0
100
AcDbEllipse
10
98.85876
20
4.122299
30
0
11
1.1632843730555E-14
21
9.9302663711333
31
0
210
0
220
0
230
1
40
0.996195
41
-1.5707963267949
42
-1.55479036376002
0
ELLIPSE
5
15C
100
AcDbEntity
8
1
62
256
6
ByLayer
370
-1
48
1
60
0
100
AcDbEllipse
10
108.199252
20
1.062471
30
0
11
-1.07186937277348E-14
21
-9.99999999999999
31
0
210
0
220
0
230
1
40
0.996195
41
-3.11578669746811
42
-3.1066860685499
0
ELLIPSE
5
15D
100
AcDbEntity
8
1
62
256
6
ByLayer
370
-1
48
1
60
0
100
AcDbEllipse
10
108.149918
20
10.761446
30
0
11
2.69746310087586E-16
21
0.230266371133677
31
0
210
0
220
0
230
1
40
0.996195
41
-0.22689280275933
42
-1.23901145252964E-13
0
ELLIPSE
5
15E
100
AcDbEntity
8
1
62
256
6
ByLayer
370
-1
48
1
60
0
100
AcDbEllipse
10
101.907966
20
13.448947
30
0
11
1.1632843730555E-14
21
9.9302663711333
31
0
210
0
220
0
230
1
40
0.996195
41
3.14159265358979
42
-3.12558669055491
0
ELLIPSE
5
15F
100
AcDbEntity
8
1
62
256
6
ByLayer
370
-1
48
1
60
0
100
AcDbEllipse
10
111.198103
20
10.437084
30
0
11
1.16328437305553E-14
21
9.93026637113358
31
0
210
0
220
0
230
1
40
0.996195
41
1.59660228291658
42
1.60206008868336
0
ELLIPSE
5
160
100
AcDbEntity
8
1
62
256
6
ByLayer
370
-1
48
1
60
0
100
AcDbEllipse
10
105.012042
20
7.255197
30
0
11
2.27265689458196E-15
21
1.94003193510747
31
0
210
0
220
0
230
1
40
0.996195
41
0
42
6.28318530717959
0
ELLIPSE
5
161
100
AcDbEntity
8
1
62
256
6
ByLayer
370
-1
48
1
60
0
100
AcDbEllipse
10
106.428037
20
4.293078
30
0
11
5.77557701897395E-15
21
4.93026637113357
31
0
210
0
220
0
230
1
40
0.996195
41
1.61480354075301
42
1.62460353383979
0
ELLIPSE
5
162
100
AcDbEntity
8
1
62
256
6
ByLayer
370
-1
48
1
60
0
100
AcDbEllipse
10
108.070196
20
6.060806
30
0
11
5.77557701897395E-15
21
4.93026637113357
31
0
210
0
220
0
230
1
40
0.996195
41
0.0160059630348803
42
0.0258059561216605
0
ELLIPSE
5
163
100
AcDbEntity
8
1
62
256
6
ByLayer
370
-1
48
1
60
0
100
AcDbEllipse
10
108.296164
20
10.625047
30
0
11
-3.21560811832046E-16
21
-0.300000000000001
31
0
210
0
220
0
230
1
40
0.996195
41
1.64060949687463
42
1.86750229963386
0
ELLIPSE
5
164
100
AcDbEntity
8
1
62
256
6
ByLayer
370
-1
48
1
60
0
100
AcDbEllipse
10
105.220874
20
7.255197
30
0
11
-1.50061712188287E-15
21
-1.4
31
0
210
0
220
0
230
1
40
0.996195
41
-3.12352863120908
42
0
0
ELLIPSE
5
165
100
AcDbEntity
8
1
62
256
6
ByLayer
370
-1
48
1
60
0
100
AcDbEllipse
10
105.220874
20
7.255197
30
0
11
-1.50061712188287E-15
21
-1.4
31
0
210
0
220
0
230
1
40
0.996195
41
0
42
0.0349500842375337
0
ELLIPSE
5
166
100
AcDbEntity
8
1
62
256
6
ByLayer
370
-1
48
1
60
0
100
AcDbEllipse
10
105.102012
20
7.255197
30
0
11
-1.93445608783117E-15
21
-1.80474984822612
31
0
210
0
220
0
230
1
40
0.996195
41
0
42
6.28318530717959
0
ELLIPSE
5
167
100
AcDbEntity
8
1
62
256
6
ByLayer
370
-1
48
1
60
0
100
AcDbEllipse
10
108.15045
20
1.061446
30
0
11
-1.07186937277344E-14
21
-9.99999999999964
31
0
210
0
220
0
230
1
40
0.996195
41
3.14159265358979
42
-3.12558669055491
0
ELLIPSE
5
168
100
AcDbEntity
8
1
62
256
6
ByLayer
370
-1
48
1
60
0
100
AcDbEllipse
10
102.297223
20
0.855598
30
0
11
1.16328437305553E-14
21
9.93026637113358
31
0
210
0
220
0
230
1
40
0.996195
41
0.0385494198610473
42
0.044007213958095
0
ELLIPSE
5
169
100
AcDbEntity
8
1
62
256
6
ByLayer
370
-1
48
1
60
0
100
AcDbEllipse
10
105.256078
20
7.255197
30
0
11
1.64003467924279E-15
21
1.4
31
0
210
0
220
0
230
1
40
0.996195
41
0
42
1.57079653853157
0
ELLIPSE
5
16A
100
AcDbEntity
8
1
62
256
6
ByLayer
370
-1
48
1
60
0
100
AcDbEllipse
10
105.256078
20
7.255197
30
0
11
1.64003467924279E-15
21
1.4
31
0
210
0
220
0
230
1
40
0.996195
41
1.57079640587062
42
-3.14159236166655
0
ELLIPSE
5
16B
100
AcDbEntity
8
1
62
256
6
ByLayer
370
-1
48
1
60
0
100
AcDbEllipse
10
108.15045
20
10.761446
30
0
11
-3.21560811832046E-16
21
-0.300000000000001
31
0
210
0
220
0
230
1
40
0.996195
41
2.91469985083057
42
-3.14159265358975
0
ELLIPSE
5
16C
100
AcDbEntity
8
1
62
256
6
ByLayer
370
-1
48
1
60
0
100
AcDbEllipse
10
111.402333
20
4.561985
30
0
11
-1.07186937277344E-14
21
-9.99999999999964
31
0
210
0
220
0
230
1
40
0.996195
41
-1.51698911975
42
-1.50098315671511
0
ELLIPSE
5
16D
100
AcDbEntity
8
1
62
256
6
ByLayer
370
-1
48
1
60
0
100
AcDbEllipse
10
101.730699
20
10.343104
30
0
11
-5.35934686386747E-16
21
-0.500000000000006
31
0
210
0
220
0
230
1
40
0.996195
41
-2.84488668075075
42
-1.79768912955414
0
ELLIPSE
5
16E
100
AcDbEntity
8
1
62
256
6
ByLayer
370
-1
48
1
60
0
100
AcDbEllipse
10
107.98032
20
8.659636
30
0
11
-5.35934686386771E-15
21
-5.00000000000028
31
0
210
0
220
0
230
1
40
0.996195
41
0.0440072139581186
42
0.0538072070448953
0
ELLIPSE
5
16F
100
AcDbEntity
8
1
62
256
6
ByLayer
370
-1
48
1
60
0
100
AcDbEllipse
10
108.198721
20
1.062471
30
0
11
1.16328437305553E-14
21
9.93026637113358
31
0
210
0
220
0
230
1
40
0.996195
41
0.0258059561216836
42
0.0312637618884592
0
ELLIPSE
5
170
100
AcDbEntity
8
1
62
256
6
ByLayer
370
-1
48
1
60
0
100
AcDbEllipse
10
102.345978
20
0.857994
30
0
11
1.1632843730555E-14
21
9.9302663711333
31
0
210
0
220
0
230
1
40
0.996195
41
0.0538072070448951
42
0.0698131700797828
0
ELLIPSE
5
171
100
AcDbEntity
8
1
62
256
6
ByLayer
370
-1
48
1
60
0
100
AcDbEllipse
10
111.198635
20
10.437084
30
0
11
-1.07186937277348E-14
21
-9.99999999999999
31
0
210
0
220
0
230
1
40
0.996195
41
-1.54499037067321
42
-1.53588974175501
0
ELLIPSE
5
172
100
AcDbEntity
8
1
62
256
6
ByLayer
370
-1
48
1
60
0
100
AcDbEllipse
10
101.859695
20
13.447923
30
0
11
-1.07186937277348E-14
21
-9.99999999999999
31
0
210
0
220
0
230
1
40
0.996195
41
0.0258059561216821
42
0.0349065850398896
0
ELLIPSE
5
173
100
AcDbEntity
8
1
62
256
6
ByLayer
370
-1
48
1
60
0
100
AcDbEllipse
10
110.681038
20
-2.214298
30
0
11
2.55607522661845
21
0
31
0
210
0
220
0
230
1
40
0.997564
41
-3.0892327757775
42
-2.6888382774219
0
ELLIPSE
5
174
100
AcDbEntity
8
1
62
256
6
ByLayer
370
-1
48
1
60
0
100
AcDbEllipse
10
107.842951
20
-3.584566
30
0
11
0.326794919243111
21
0
31
0
210
0
220
0
230
1
40
0.997564
41
-0.0349065850398941
42
0.452754376167911
0
ELLIPSE
5
175
100
AcDbEntity
8
1
62
256
6
ByLayer
370
-1
48
1
60
0
100
AcDbEllipse
10
107.448819
20
-0.847382
30
0
11
-0.500000000000031
21
5.05319527541213E-16
31
0
210
0
220
0
230
1
40
0.997564
41
-3.08923277602996
42
-2.66873051811648
0
ELLIPSE
5
176
100
AcDbEntity
8
1
62
256
6
ByLayer
370
-1
48
1
60
0
100
AcDbEllipse
10
107.448819
20
-0.847382
30
0
11
-0.600000000000031
21
6.06383433049449E-16
31
0
210
0
220
0
230
1
40
0.997564
41
-3.08923277602996
42
-2.38288493715824
0
ELLIPSE
5
177
100
AcDbEntity
8
1
62
256
6
ByLayer
370
-1
48
1
60
0
100
AcDbEllipse
10
108.31962
20
-4.25277
30
0
11
-0.199877570208915
21
0.00699692270788842
31
0
210
0
220
0
230
1
40
0.069714
41
0.526039181296428
42
1.57323673249303
0
ELLIPSE
5
178
100
AcDbEntity
8
1
62
256
6
ByLayer
370
-1
48
1
60
0
100
AcDbEllipse
10
108.183633
20
-4.577625
30
0
11
-0.145316104585927
21
0.137416264495772
31
0
210
0
220
0
230
1
40
0.050742
41
0.991356938499486
42
1.61874306562619
0
ELLIPSE
5
179
100
AcDbEntity
8
1
62
256
6
ByLayer
370
-1
48
1
60
0
100
AcDbEllipse
10
108.028603
20
-2.339017
30
0
11
-0.199724569469276
21
-0.0104926807972083
31
0
210
0
220
0
230
1
40
0.069661
41
1.34748943558498
42
1.56713665656312
0
ELLIPSE
5
17A
100
AcDbEntity
8
1
62
256
6
ByLayer
370
-1
48
1
60
0
100
AcDbEllipse
10
108.292574
20
-3.359401
30
0
11
-0.179765043292579
21
-0.0876614465430336
31
0
210
0
220
0
230
1
40
0.062728
41
0.493019242990922
42
1.54021679418694
0
ELLIPSE
5
17B
100
AcDbEntity
8
1
62
256
6
ByLayer
370
-1
48
1
60
0
100
AcDbEllipse
10
110.681038
20
-2.214298
30
0
11
2.65607522661845
21
0
31
0
210
0
220
0
230
1
40
0.997564
41
-3.089232775787
42
-2.68883827742191
0
ELLIPSE
5
17C
100
AcDbEntity
8
1
62
256
6
ByLayer
370
-1
48
1
60
0
100
AcDbEllipse
10
108.342646
20
-3.594997
30
0
11
-0.199877570208915
21
0.00699692270788842
31
0
210
0
220
0
230
1
40
0.069714
41
0.526039181296484
42
1.57323673249303
0
ELLIPSE
5
17D
100
AcDbEntity
8
1
62
256
6
ByLayer
370
-1
48
1
60
0
100
AcDbEllipse
10
107.819925
20
-4.242338
30
0
11
0.326794919243145
21
0
31
0
210
0
220
0
230
1
40
0.997564
41
-0.578166151428066
42
-0.0349065850399018
0
ELLIPSE
5
17E
100
AcDbEntity
8
1
62
256
6
ByLayer
370
-1
48
1
60
0
100
AcDbEllipse
10
105.30186
20
-2.751699
30
0
11
1.4
21
0
31
0
210
0
220
0
230
1
40
0.997564
41
1.18693294204111
42
2.7642089817927
0
ELLIPSE
5
17F
100
AcDbEntity
8
1
62
256
6
ByLayer
370
-1
48
1
60
0
100
AcDbEllipse
10
107.819925
20
-4.249314
30
0
11
-0.500000000000032
21
5.05319527541214E-16
31
0
210
0
220
0
230
1
40
0.997564
41
2.38534574936601
42
3.10668606854992
0
ELLIPSE
5
180
100
AcDbEntity
8
1
62
256
6
ByLayer
370
-1
48
1
60
0
100
AcDbEllipse
10
110.681038
20
-2.270103
30
0
11
-2.23329066571558
21
2.25705076812306E-15
31
0
210
0
220
0
230
1
40
0.997564
41
0.0523598778487885
42
0.452754376167894
0
ELLIPSE
5
181
100
AcDbEntity
8
1
62
256
6
ByLayer
370
-1
48
1
60
0
100
AcDbEllipse
10
107.726348
20
0.194605
30
0
11
0.499999999999967
21
0
31
0
210
0
220
0
230
1
40
0.997564
41
0.349065850398949
42
1.1296809326839
0
ELLIPSE
5
182
100
AcDbEntity
8
1
62
256
6
ByLayer
370
-1
48
1
60
0
100
AcDbEllipse
10
110.681038
20
-2.402641
30
0
11
2.00000000000005
21
0
31
0
210
0
220
0
230
1
40
0.997564
41
-3.0892327757073
42
-2.67604929468264
0
ELLIPSE
5
183
100
AcDbEntity
8
1
62
256
6
ByLayer
370
-1
48
1
60
0
100
AcDbEllipse
10
108.094113
20
-0.813361
30
0
11
0.49999999999995
21
0
31
0
210
0
220
0
230
1
40
0.997564
41
0.0523598775597018
42
0.349065850398737
0
ELLIPSE
5
184
100
AcDbEntity
8
1
62
256
6
ByLayer
370
-1
48
1
60
0
100
AcDbEllipse
10
107.948134
20
-0.807327
30
0
11
-0.199724569469276
21
-0.0104926807972083
31
0
210
0
220
0
230
1
40
0.069661
41
1.34748943558499
42
1.56713665656312
0
ELLIPSE
5
185
100
AcDbEntity
8
1
62
256
6
ByLayer
370
-1
48
1
60
0
100
AcDbEllipse
10
108.000305
20
-3.746085
30
0
11
0.999999999999949
21
0
31
0
210
0
220
0
230
1
40
0.997564
41
-0.0349065850400208
42
0.465543358906966
0
ELLIPSE
5
186
100
AcDbEntity
8
1
62
256
6
ByLayer
370
-1
48
1
60
0
100
AcDbEllipse
10
105.30186
20
-2.751699
30
0
11
1.5
21
0
31
0
210
0
220
0
230
1
40
0.997564
41
1.53525678255632
42
2.62097185987594
0
ELLIPSE
5
187
100
AcDbEntity
8
1
62
256
6
ByLayer
370
-1
48
1
60
0
100
AcDbEllipse
10
107.819925
20
-4.249314
30
0
11
-0.600000000000032
21
6.0638343304945E-16
31
0
210
0
220
0
230
1
40
0.997564
41
2.38534574936598
42
3.10668606854991
0
ELLIPSE
5
188
100
AcDbEntity
8
1
62
256
6
ByLayer
370
-1
48
1
60
0
100
AcDbEllipse
10
107.842951
20
-3.591542
30
0
11
-0.599999999999998
21
6.06383433049416E-16
31
0
210
0
220
0
230
1
40
0.997564
41
3.10668606854991
42
-2.6888382774219
0
ELLIPSE
5
189
100
AcDbEntity
8
1
62
256
6
ByLayer
370
-1
48
1
60
0
100
AcDbEllipse
10
107.842951
20
-3.591542
30
0
11
-0.499999999999999
21
5.0531952754118E-16
31
0
210
0
220
0
230
1
40
0.997564
41
3.10668606854992
42
-2.68883827742188
0
ELLIPSE
5
18A
100
AcDbEntity
8
1
62
256
6
ByLayer
370
-1
48
1
60
0
100
AcDbEllipse
10
105.30186
20
-2.779875
30
0
11
1.4
21
0
31
0
210
0
220
0
230
1
40
0.997564
41
1.11830893008046
42
2.75939816091079
0
ELLIPSE
5
18B
100
AcDbEntity
8
1
62
256
6
ByLayer
370
-1
48
1
60
0
100
AcDbEllipse
10
110.681038
20
-2.207323
30
0
11
-2.82928030737534
21
2.85938117640895E-15
31
0
210
0
220
0
230
1
40
0.997564
41
0.355821520526209
42
0.452754376167888
0
ELLIPSE
5
18C
100
AcDbEntity
8
1
62
256
6
ByLayer
370
-1
48
1
60
0
100
AcDbEllipse
10
108.444161
20
-5.358623
30
0
11
0.499999999999967
21
0
31
0
210
0
220
0
230
1
40
0.997564
41
-1.22173047639592
42
-0.0349065850399439
0
POINT
5
41
100
AcDbEntity
8
81
62
256
6
ByLayer
370
-1
48
1
60
0
100
AcDbPoint
10
109
20
0
30
0
39
0
210
0
220
0
230
1
50
360
0
POINT
5
43
100
AcDbEntity
8
80
62
256
6
ByLayer
370
-1
48
1
60
0
100
AcDbPoint
10
0
20
0
30
0
39
0
210
0
220
0
230
1
50
360
0
SPLINE
5
18D
100
AcDbEntity
8
1
62
256
6
ByLayer
370
-1
48
1
60
0
100
AcDbSpline
70
4
71
3
72
20
73
16
40
0
40
0
40
0
40
0
40
0.0553893404809057
40
0.136567403713268
40
0.217471982885444
40
0.297898519492222
40
0.377777370957173
40
0.457177337562029
40
0.536273217725297
40
0.615298749254388
40
0.694429112718004
40
0.773874250405723
40
0.853793010588071
40
0.934241316975739
40
1
40
1
40
1
40
1
41
1
10
105.195691456113
20
8.64543620984372
30
0
41
1
10
105.275797479382
20
8.65124347487497
30
0
41
1
10
105.469775860959
20
8.6466303195192
30
0
41
1
10
105.772067589277
20
8.55471384529017
30
0
41
1
10
106.074657343538
20
8.37664323586026
30
0
41
1
10
106.323694139135
20
8.12645007419971
30
0
41
1
10
106.503132265938
20
7.8225091931732
30
0
41
1
10
106.60215860804
20
7.48368106244916
30
0
41
1
10
106.615109683464
20
7.13141383158452
30
0
41
1
10
106.541706387697
20
6.78750226367166
30
0
41
1
10
106.386932578519
20
6.47297633442466
30
0
41
1
10
106.160343107015
20
6.20681613861228
30
0
41
1
10
105.876097104939
20
6.00514361647552
30
0
41
1
10
105.569810087775
20
5.88797761622516
30
0
41
1
10
105.364052107327
20
5.8595552030138
30
0
41
1
10
105.268882558604
20
5.85603791863335
30
0
0
SPLINE
5
18E
100
AcDbEntity
8
1
62
256
6
ByLayer
370
-1
48
1
60
0
100
AcDbSpline
70
4
71
3
72
10
73
6
40
0
40
0
40
0
40
0
40
0.153028599947047
40
0.633930324065598
40
1
40
1
40
1
40
1
41
1
10
105.228271806398
20
-1.39129764907784
30
0
41
1
10
105.265313094999
20
-1.38937135190147
30
0
41
1
10
105.418059663734
20
-1.38736132426232
30
0
41
1
10
105.659750856666
20
-1.42387872119505
30
0
41
1
10
105.851366583616
20
-1.49794259644523
30
0
41
1
10
105.930318708566
20
-1.53733960324493
30
0
0
SPLINE
5
18F
100
AcDbEntity
8
1
62
256
6
ByLayer
370
-1
48
1
60
0
100
AcDbSpline
70
4
71
3
72
12
73
8
40
0
40
0
40
0
40
0
40
0.164204343131302
40
0.387684129787549
40
0.610202845999796
40
0.831791737143568
40
1
40
1
40
1
40
1
41
1
10
104.008066584439
20
-2.25099659586874
30
0
41
1
10
104.041114879627
20
-2.17203530681999
30
0
41
1
10
104.133411850649
20
-1.992671202775
30
0
41
1
10
104.342647370885
20
-1.74720538036334
30
0
41
1
10
104.630547935786
20
-1.54283957807058
30
0
41
1
10
104.93580392104
20
-1.42598557529391
30
0
41
1
10
105.138342319426
20
-1.39619575028479
30
0
41
1
10
105.228271806398
20
-1.39129764907784
30
0
0
SPLINE
5
190
100
AcDbEntity
8
1
62
256
6
ByLayer
370
-1
48
1
60
0
100
AcDbSpline
70
4
71
3
72
17
73
13
40
0
40
0
40
0
40
0
40
0.0924424235988197
40
0.186705956930122
40
0.281472829302364
40
0.375382858379899
40
0.467903045520764
40
0.560254343045082
40
0.668403279585966
40
0.777477111995982
40
0.88809665486081
40
1
40
1
40
1
40
1
41
1
10
18
20
10.82
30
0
41
1
10
17.5526219319876
20
10.8205117961856
30
0
41
1
10
16.6635131258331
20
10.8945364268139
30
0
41
1
10
15.3478347641285
20
11.2304304586349
30
0
41
1
10
14.1090375252575
20
11.7901289721035
30
0
41
1
10
12.9719628942524
20
12.531823312244
30
0
41
1
10
12.0451136929167
20
13.4983192829181
30
0
41
1
10
10.965183645655
20
14.4023788446713
30
0
41
1
10
9.65636846366121
20
15.1206517638439
30
0
41
1
10
8.16909365891962
20
15.6413722325944
30
0
41
1
10
6.60154132116284
20
15.936784444176
30
0
41
1
10
5.53944154797219
20
16.00252339102
30
0
41
1
10
5.00000000000003
20
16
30
0
0
SPLINE
5
191
100
AcDbEntity
8
1
62
256
6
ByLayer
370
-1
48
1
60
0
100
AcDbSpline
70
4
71
3
72
16
73
12
40
0
40
0
40
0
40
0
40
0.113960557594186
40
0.226579600004402
40
0.337603221941768
40
0.447737012619108
40
0.558849026142465
40
0.66807749931681
40
0.779468698653465
40
0.890837145718061
40
1
40
1
40
1
40
1
41
1
10
4.99999999999997
20
-16
30
0
41
1
10
5.5493331790328
20
-16.002671268577
30
0
41
1
10
6.63011798011524
20
-15.9342893474358
30
0
41
1
10
8.22557524137844
20
-15.6286026712681
30
0
41
1
10
9.73282960714533
20
-15.0848439886507
30
0
41
1
10
11.1395607359133
20
-14.3085631109865
30
0
41
1
10
12.284464622667
20
-13.2078891068602
30
0
41
1
10
13.4734929758291
20
-12.1464636445927
30
0
41
1
10
14.889895619379
20
-11.3939289096325
30
0
41
1
10
16.4213146691128
20
-10.9230779810291
30
0
41
1
10
17.4697505623876
20
-10.8209942199418
30
0
41
1
10
18
20
-10.82
30
0
0
SPLINE
5
192
100
AcDbEntity
8
1
62
256
6
ByLayer
370
-1
48
1
60
0
100
AcDbSpline
70
4
71
3
72
18
73
14
40
0
40
0
40
0
40
0
40
0.167873170560694
40
0.167873170560694
40
0.335746341121388
40
0.335746341121388
40
0.503619511682082
40
0.503619511682082
40
0.671492682242776
40
0.671492682242776
40
0.83936585280347
40
0.83936585280347
40
1
40
1
40
1
40
1
41
1
10
19.1811576368198
20
2.50875736965412
30
0
41
1
10
18.8416814217432
20
2.29217971457896
30
0
41
1
10
18.4853266959955
20
1.9849762205408
30
0
41
1
10
17.7839547635952
20
1.22819230316222
30
0
41
1
10
17.4391308673836
20
0.778820462780459
30
0
41
1
10
16.8048425984703
20
-0.205017686303194
30
0
41
1
10
16.5155530467721
20
-0.739212831906514
30
0
41
1
10
16.0292909561998
20
-1.82455609268669
30
0
41
1
10
15.8324524397108
20
-2.37540506817081
30
0
41
1
10
15.556269190943
20
-3.42375109508913
30
0
41
1
10
15.4770005796254
20
-3.92095920391895
30
0
41
1
10
15.4468057247511
20
-4.77960569759063
30
0
41
1
10
15.4905002925517
20
-5.14575271786376
30
0
41
1
10
15.589970194725
20
-5.43711243802704
30
0
0
SPLINE
5
193
100
AcDbEntity
8
1
62
256
6
ByLayer
370
-1
48
1
60
0
100
AcDbSpline
70
4
71
3
72
8
73
4
40
0
40
0
40
0
40
0
40
1
40
1
40
1
40
1
41
1
10
99.907569993622
20
3.83522274441941
30
0
41
1
10
100.126206490222
20
3.73257857059062
30
0
41
1
10
100.340024463637
20
3.64886607836294
30
0
41
1
10
100.546797176856
20
3.58086366249111
30
0
0
SPLINE
5
194
100
AcDbEntity
8
1
62
256
6
ByLayer
370
-1
48
1
60
0
100
AcDbSpline
70
4
71
3
72
18
73
14
40
0
40
0
40
0
40
0
40
0.25
40
0.25
40
0.500000000000001
40
0.500000000000001
40
0.5625
40
0.5625
40
0.625
40
0.625
40
0.75
40
0.75
40
1
40
1
40
1
40
1
41
1
10
22.9999999999999
20
-8.49899455155693
30
0
41
1
10
26.3779643614827
20
-9.07574397456031
30
0
41
1
10
29.7476741827839
20
-9.548372478136
30
0
41
1
10
36.4884494525514
20
-10.2577647037835
30
0
41
1
10
39.8593660345311
20
-10.4949007957489
30
0
41
1
10
44.0840337089206
20
-10.6354219070943
30
0
41
1
10
44.9292410482318
20
-10.6557377414066
30
0
41
1
10
46.618316141974
20
-10.6807261641809
30
0
41
1
10
47.4624936127325
20
-10.6854101650811
30
0
41
1
10
49.9943470832839
20
-10.6761337773652
30
0
41
1
10
51.6813521023424
20
-10.6388294384807
30
0
41
1
10
56.7426782299888
20
-10.4351631694262
30
0
41
1
10
60.1170318480966
20
-10.1764593664744
30
0
41
1
10
63.5
20
-9.80304074392635
30
0
0
SPLINE
5
195
100
AcDbEntity
8
1
62
256
6
ByLayer
370
-1
48
1
60
0
100
AcDbSpline
70
4
71
3
72
10
73
6
40
0
40
0
40
0
40
0
40
0.5
40
0.5
40
1
40
1
40
1
40
1
41
1
10
100.375118144272
20
2.1670198898951
30
0
41
1
10
100.235934694524
20
2.13379681528056
30
0
41
1
10
100.075677405668
20
2.11519236986732
30
0
41
1
10
99.7251542923316
20
2.11104356591264
30
0
41
1
10
99.5347818217413
20
2.12550988017935
30
0
41
1
10
99.3331028917225
20
2.15991947174467
30
0
0
SPLINE
5
196
100
AcDbEntity
8
1
62
256
6
ByLayer
370
-1
48
1
60
0
100
AcDbSpline
70
4
71
3
72
8
73
4
40
0
40
0
40
0
40
0
40
1
40
1
40
1
40
1
41
1
10
14.3517746924371
20
-4.55329942739837
30
0
41
1
10
14.3517746924372
20
-5.19866310708974
30
0
41
1
10
14.3517746924372
20
-5.84402678678109
30
0
41
1
10
14.3517746924372
20
-6.48939046647246
30
0
0
SPLINE
5
197
100
AcDbEntity
8
1
62
256
6
ByLayer
370
-1
48
1
60
0
100
AcDbSpline
70
4
71
3
72
18
73
14
40
0
40
0
40
0
40
0
40
0.25
40
0.25
40
0.375
40
0.375
40
0.499999999999999
40
0.499999999999999
40
0.749999999999999
40
0.749999999999999
40
0.875
40
0.875
40
1
40
1
40
1
40
1
41
1
10
96.5393169557212
20
3.10568497088948
30
0
41
1
10
96.7855217488055
20
2.98966881797114
30
0
41
1
10
97.0315335793848
20
2.88188302932102
30
0
41
1
10
97.4002709361849
20
2.73216368620248
30
0
41
1
10
97.5231362893613
20
2.68426614001541
30
0
41
1
10
97.7687698189584
20
2.59261589484683
30
0
41
1
10
97.8912938722865
20
2.54898378598614
30
0
41
1
10
98.2502504638367
20
2.42734611310868
30
0
41
1
10
98.4809931544162
20
2.35742303937673
30
0
41
1
10
98.8141266831568
20
2.26947144816776
30
0
41
1
10
98.9234491082136
20
2.2429099645407
30
0
41
1
10
99.133941271272
20
2.19651811872828
30
0
41
1
10
99.23540945137
20
2.17658750633359
30
0
41
1
10
99.3331028917235
20
2.15991947174584
30
0
0
SPLINE
5
198
100
AcDbEntity
8
1
62
256
6
ByLayer
370
-1
48
1
60
0
100
AcDbSpline
70
4
71
3
72
48
73
44
40
0
40
0
40
0
40
0
40
0.0614047949810774
40
0.0921071924716161
40
0.122809589962155
40
0.153511987452694
40
0.184214384943232
40
0.214916782433771
40
0.24561917992431
40
0.260970378669579
40
0.276321577414848
40
0.307023974905387
40
0.322375173650656
40
0.337726372395926
40
0.368428769886464
40
0.383779968631734
40
0.399131167377003
40
0.429833564867542
40
0.445184763612811
40
0.46053596235808
40
0.491238359848619
40
0.506589558593888
40
0.521940757339158
40
0.552643154829696
40
0.567994353574966
40
0.583345552320236
40
0.614047949810774
40
0.644750347301313
40
0.675452744791851
40
0.70615514228239
40
0.736857539772929
40
0.767559937263467
40
0.798262334754006
40
0.859667129735083
40
0.890369527225622
40
0.921071924716161
40
0.93642312346143
40
0.9517743222067
40
0.967125520951969
40
0.982476719697238
40
0.990152319069873
40
0.997827918442508
40
1
40
1
40
1
40
1
41
1
10
11.4811576368185
20
6.83417802701484
30
0
41
1
10
11.3976122149042
20
6.7600658075302
30
0
41
1
10
11.2684599302957
20
6.63989366469011
30
0
41
1
10
11.089642006973
20
6.46143343669749
30
0
41
1
10
10.9525717606297
20
6.31854667440192
30
0
41
1
10
10.8128953451731
20
6.16669208160707
30
0
41
1
10
10.671047751519
20
6.0060920939122
30
0
41
1
10
10.5274639705836
20
5.83696914691669
30
0
41
1
10
10.4067876184175
20
5.68924801230565
30
0
41
1
10
10.3098867886614
20
5.56719016972951
30
0
41
1
10
10.2128400730199
20
5.44263469402995
30
0
41
1
10
10.1157154477452
20
5.31446725384734
30
0
41
1
10
10.0187947512273
20
5.182956819586
30
0
41
1
10
9.92210893953981
20
5.04933117260549
30
0
41
1
10
9.82592385358652
20
4.9127028815461
30
0
41
1
10
9.73053629034476
20
4.77341229640768
30
0
41
1
10
9.63577933357718
20
4.63247965144569
30
0
41
1
10
9.5421166735205
20
4.48928312109203
30
0
41
1
10
9.44984508417411
20
4.34422111403404
30
0
41
1
10
9.35859444947516
20
4.19806116556612
30
0
41
1
10
9.26901560800832
20
4.05047286957279
30
0
41
1
10
9.18138928229533
20
3.90189335523294
30
0
41
1
10
9.09514775081334
20
3.75280404706851
30
0
41
1
10
9.01110808627047
20
3.60317657577664
30
0
41
1
10
8.92951963985192
20
3.45346399657652
30
0
41
1
10
8.84963378627259
20
3.30384295380958
30
0
41
1
10
8.75309716979015
20
3.11726629686081
30
0
41
1
10
8.642977035336
20
2.89498339317046
30
0
41
1
10
8.53888517845377
20
2.67513705027582
30
0
41
1
10
8.44112607139053
20
2.45855474432443
30
0
41
1
10
8.34988966329956
20
2.2459641434956
30
0
41
1
10
8.26536590333424
20
2.03809291596858
30
0
41
1
10
8.16171862943764
20
1.76802404992554
30
0
41
1
10
8.07179927746145
20
1.50979474925779
30
0
41
1
10
7.99548931804816
20
1.26523824292644
30
0
41
1
10
7.95336584076628
20
1.11834816330582
30
0
41
1
10
7.92294900762175
20
1.00456718522898
30
0
41
1
10
7.90176658468363
20
0.921179234367628
30
0
41
1
10
7.88220359124554
20
0.839821306088993
30
0
41
1
10
7.86715338247677
20
0.773381189948338
30
0
41
1
10
7.85580624362734
20
0.720843874654236
30
0
41
1
10
7.84958931202144
20
0.691060286184523
30
0
41
1
10
7.84618750991407
20
0.674383829029608
30
0
41
1
10
7.84544163492126
20
0.670708359290842
30
0
0
SPLINE
5
199
100
AcDbEntity
8
1
62
256
6
ByLayer
370
-1
48
1
60
0
100
AcDbSpline
70
4
71
3
72
10
73
6
40
0
40
0
40
0
40
0
40
0.5
40
0.5
40
1
40
1
40
1
40
1
41
1
10
101.144877709553
20
7.258833038772
30
0
41
1
10
101.147714846755
20
7.258833038772
30
0
41
1
10
101.153020932054
20
7.2617019888483
30
0
41
1
10
101.168183272827
20
7.27250987585282
30
0
41
1
10
101.178135457542
20
7.28053023545147
30
0
41
1
10
101.190035747935
20
7.29051623479435
30
0
0
SPLINE
5
19A
100
AcDbEntity
8
1
62
256
6
ByLayer
370
-1
48
1
60
0
100
AcDbSpline
70
4
71
3
72
8
73
4
40
0
40
0
40
0
40
0
40
1
40
1
40
1
40
1
41
1
10
99.2533301226684
20
4.14447233099395
30
0
41
1
10
99.3286956884594
20
4.1064715277787
30
0
41
1
10
99.4038129434371
20
4.0697934540236
30
0
41
1
10
99.4790460458764
20
4.03496285181447
30
0
0
SPLINE
5
19B
100
AcDbEntity
8
1
62
256
6
ByLayer
370
-1
48
1
60
0
100
AcDbSpline
70
4
71
3
72
14
73
10
40
0
40
0
40
0
40
0
40
0.25
40
0.25
40
0.5
40
0.5
40
0.75
40
0.75
40
1
40
1
40
1
40
1
41
1
10
101.038352170573
20
10.5995713576692
30
0
41
1
10
101.042536132921
20
10.5991426841179
30
0
41
1
10
101.052269573326
20
10.5984061294439
30
0
41
1
10
101.082429156067
20
10.5964277002124
30
0
41
1
10
101.103154631448
20
10.5951713628611
30
0
41
1
10
101.153447582472
20
10.5924411402216
30
0
41
1
10
101.183451717164
20
10.5909427165595
30
0
41
1
10
101.251693734901
20
10.5879790090131
30
0
41
1
10
101.289306119073
20
10.5865389931686
30
0
41
1
10
101.330457521501
20
10.5852516529685
30
0
0
SPLINE
5
19C
100
AcDbEntity
8
1
62
256
6
ByLayer
370
-1
48
1
60
0
100
AcDbSpline
70
4
71
3
72
8
73
4
40
0
40
0
40
0
40
0
40
1
40
1
40
1
40
1
41
1
10
11.4811576368185
20
6.83417802701484
30
0
41
1
10
14.0600744040911
20
5.38993033726271
30
0
41
1
10
16.6258608206765
20
3.94580424077918
30
0
41
1
10
19.1811576368168
20
2.5087573696546
30
0
0
SPLINE
5
19D
100
AcDbEntity
8
1
62
256
6
ByLayer
370
-1
48
1
60
0
100
AcDbSpline
70
4
71
3
72
18
73
14
40
0
40
0
40
0
40
0
40
0.0415764294945318
40
0.0415764294945318
40
0.361050952996355
40
0.361050952996355
40
0.520788214747267
40
0.520788214747267
40
0.680525476498178
40
0.680525476498178
40
0.840262738249089
40
0.840262738249089
40
1
40
1
40
1
40
1
41
1
10
103.502733495315
20
3.49244498364402
30
0
41
1
10
103.497587109815
20
3.48845061996437
30
0
41
1
10
103.492441450696
20
3.48450720867709
30
0
41
1
10
103.447771660378
20
3.45069797366523
30
0
41
1
10
103.408007804375
20
3.42355356327488
30
0
41
1
10
103.351209931643
20
3.38814593950437
30
0
41
1
10
103.332824438798
20
3.37726356553606
30
0
41
1
10
103.297833509952
20
3.35751697255839
30
0
41
1
10
103.281225397826
20
3.3486609089091
30
0
41
1
10
103.251989298242
20
3.33388151104293
30
0
41
1
10
103.239214365493
20
3.32787094478442
30
0
41
1
10
103.219365011854
20
3.3193928857917
30
0
41
1
10
103.212628696332
20
3.31707829001459
30
0
41
1
10
103.210086474227
20
3.31707829001459
30
0
0
SPLINE
5
19E
100
AcDbEntity
8
1
62
256
6
ByLayer
370
-1
48
1
60
0
100
AcDbSpline
70
4
71
3
72
8
73
4
40
0
40
0
40
0
40
0
40
1
40
1
40
1
40
1
41
1
10
11.4811576368172
20
6.8341780270087
30
0
41
1
10
11.4811576368172
20
7.88748136967126
30
0
41
1
10
11.4811576368172
20
8.94078471233382
30
0
41
1
10
11.4811576368172
20
9.99408805499638
30
0
0
SPLINE
5
19F
100
AcDbEntity
8
1
62
256
6
ByLayer
370
-1
48
1
60
0
100
AcDbSpline
70
4
71
3
72
26
73
22
40
0
40
0
40
0
40
0
40
0.25
40
0.25
40
0.375000000000001
40
0.375000000000001
40
0.437500000000001
40
0.437500000000001
40
0.500000000000001
40
0.500000000000001
40
0.750000000000001
40
0.750000000000001
40
0.812500000000001
40
0.812500000000001
40
0.843750000000001
40
0.843750000000001
40
0.875
40
0.875
40
0.9375
40
0.9375
40
1
40
1
40
1
40
1
41
1
10
18
20
6.53232532939626
30
0
41
1
10
17.3978257061589
20
6.71470118781355
30
0
41
1
10
16.7978983880431
20
6.91477461503013
30
0
41
1
10
15.9069360311235
20
7.25647797390428
30
0
41
1
10
15.6114555828292
20
7.37737334854302
30
0
41
1
10
15.1714064504111
20
7.5717862921633
30
0
41
1
10
15.0254452910288
20
7.63871132127161
30
0
41
1
10
14.738518794372
20
7.77553516543549
30
0
41
1
10
14.5970816396152
20
7.8456386397049
30
0
41
1
10
13.9002231712657
20
8.20526531032601
30
0
41
1
10
13.3755026448824
20
8.52191520383593
30
0
41
1
10
12.7661735336068
20
8.96590982630426
30
0
41
1
10
12.646439911574
20
9.05731534017272
30
0
41
1
10
12.4717474637662
20
9.19734197345321
30
0
41
1
10
12.414304685776
20
9.24452183800935
30
0
41
1
10
12.3010069215006
20
9.33991579031223
30
0
41
1
10
12.2453404144371
20
9.38824449093659
30
0
41
1
10
12.0777193987044
20
9.53298942230722
30
0
41
1
10
11.9631934124839
20
9.62798331925322
30
0
41
1
10
11.7270779400901
20
9.81389683858134
30
0
41
1
10
11.6057456800443
20
9.90497179901558
30
0
41
1
10
11.4811576368156
20
9.99408805500039
30
0
0
SPLINE
5
1A0
100
AcDbEntity
8
1
62
256
6
ByLayer
370
-1
48
1
60
0
100
AcDbSpline
70
4
71
3
72
8
73
4
40
0
40
0
40
0
40
0
40
1
40
1
40
1
40
1
41
1
10
97.9416742246299
20
5.32830207354928
30
0
41
1
10
97.9413237193963
20
5.31744786549427
30
0
41
1
10
97.9411572397888
20
5.30665704843048
30
0
41
1
10
97.9411657958602
20
5.29592733895743
30
0
0
SPLINE
5
1A1
100
AcDbEntity
8
1
62
256
6
ByLayer
370
-1
48
1
60
0
100
AcDbSpline
70
4
71
3
72
8
73
4
40
0
40
0
40
0
40
0
40
1
40
1
40
1
40
1
41
1
10
99.4790460458764
20
4.03496285181447
30
0
41
1
10
99.6262433457536
20
3.96681504942379
30
0
41
1
10
99.7691121183373
20
3.90022513166809
30
0
41
1
10
99.9075699936229
20
3.83522274441913
30
0
0
SPLINE
5
1A2
100
AcDbEntity
8
1
62
256
6
ByLayer
370
-1
48
1
60
0
100
AcDbSpline
70
4
71
3
72
8
73
4
40
0
40
0
40
0
40
0
40
1
40
1
40
1
40
1
41
1
10
18
20
-7.54863740276878
30
0
41
1
10
19.6668989754539
20
-7.88798036369184
30
0
41
1
10
21.33320181127
20
-8.20564038405755
30
0
41
1
10
23
20
-8.49899455155693
30
0
0
SPLINE
5
1A3
100
AcDbEntity
8
1
62
256
6
ByLayer
370
-1
48
1
60
0
100
AcDbSpline
70
4
71
3
72
10
73
6
40
0
40
0
40
0
40
0
40
0.5
40
0.5
40
1
40
1
40
1
40
1
41
1
10
9.23556897313398
20
-0.798043575988146
30
0
41
1
10
9.0673474225938
20
-0.666557218684176
30
0
41
1
10
8.90277878092419
20
-0.523341630344561
30
0
41
1
10
8.5801129377252
20
-0.214468050834114
30
0
41
1
10
8.4220177754687
20
-0.0488104941389906
30
0
41
1
10
8.26700880235236
20
0.128367263792739
30
0
0
SPLINE
5
1A4
100
AcDbEntity
8
1
62
256
6
ByLayer
370
-1
48
1
60
0
100
AcDbSpline
70
4
71
3
72
16
73
12
40
0
40
0
40
0
40
0
40
0.249999999999999
40
0.249999999999999
40
0.374999999999998
40
0.374999999999998
40
0.499999999999998
40
0.499999999999998
40
0.749999999999999
40
0.749999999999999
40
1
40
1
40
1
40
1
41
1
10
14.3517746924371
20
-6.48939046647243
30
0
41
1
10
14.5614127248313
20
-6.6375807476245
30
0
41
1
10
14.7909318894919
20
-6.7592003176816
30
0
41
1
10
15.1638937037332
20
-6.91647086292539
30
0
41
1
10
15.2930228330224
20
-6.9646263807347
30
0
41
1
10
15.5610343768668
20
-7.05417651577994
30
0
41
1
10
15.70025477595
20
-7.09565793299697
30
0
41
1
10
16.1308904926872
20
-7.21161405090751
30
0
41
1
10
16.4296625249729
20
-7.2763912576938
30
0
41
1
10
17.0498959776652
20
-7.3928280901948
30
0
41
1
10
17.3713547189541
20
-7.44440377601381
30
0
41
1
10
17.7048239580777
20
-7.49325261038271
30
0
0
SPLINE
5
1A5
100
AcDbEntity
8
1
62
256
6
ByLayer
370
-1
48
1
60
0
100
AcDbSpline
70
4
71
3
72
20
73
16
40
0
40
0
40
0
40
0
40
0.138093289545723
40
0.138093289545723
40
0.353569967159291
40
0.353569967159291
40
0.461308305966076
40
0.461308305966076
40
0.56904664477286
40
0.56904664477286
40
0.784523322386429
40
0.784523322386429
40
0.892261661193214
40
0.892261661193214
40
1
40
1
40
1
40
1
41
1
10
77.0450735839922
20
8.68780818288681
30
0
41
1
10
77.9061326651114
20
8.82508635707882
30
0
41
1
10
78.7673509970344
20
8.9557798256107
30
0
41
1
10
80.9731276423825
20
9.27278544324059
30
0
41
1
10
82.3180971895509
20
9.44922650865129
30
0
41
1
10
84.3376436072415
20
9.68683201965473
30
0
41
1
10
85.0109762024492
20
9.76146111609606
30
0
41
1
10
86.3569529278086
20
9.90163652169468
30
0
41
1
10
87.0295071410274
20
9.96746370360495
30
0
41
1
10
89.0474179921772
20
10.1501065604127
30
0
41
1
10
90.3934469031562
20
10.2519156250907
30
0
41
1
10
92.4116755689253
20
10.3768332571124
30
0
41
1
10
93.084301601838
20
10.4137505169743
30
0
41
1
10
94.4301073421947
20
10.4775563510735
30
0
41
1
10
95.1032981042235
20
10.5044733110386
30
0
41
1
10
95.7766020804839
20
10.5265090693786
30
0
0
SPLINE
5
1A6
100
AcDbEntity
8
1
62
256
6
ByLayer
370
-1
48
1
60
0
100
AcDbSpline
70
4
71
3
72
8
73
4
40
0
40
0
40
0
40
0
40
1
40
1
40
1
40
1
41
1
10
18
20
-7.54863740276878
30
0
41
1
10
17.9017155465674
20
-7.5286289091938
30
0
41
1
10
17.8033201800706
20
-7.51016935977867
30
0
41
1
10
17.7048239579756
20
-7.49325261036819
30
0
0
SPLINE
5
1A7
100
AcDbEntity
8
1
62
256
6
ByLayer
370
-1
48
1
60
0
100
AcDbSpline
70
4
71
3
72
14
73
10
40
0
40
0
40
0
40
0
40
0.25
40
0.25
40
0.5
40
0.5
40
0.75
40
0.75
40
1
40
1
40
1
40
1
41
1
10
98.1237483734623
20
5.54755620206504
30
0
41
1
10
98.1004139038547
20
5.53741298683616
30
0
41
1
10
98.0779648230122
20
5.52567160606083
30
0
41
1
10
98.0356409139748
20
5.49753781567517
30
0
41
1
10
98.0158693586368
20
5.48109997095779
30
0
41
1
10
97.9823003733272
20
5.44350155133983
30
0
41
1
10
97.9683750572483
20
5.42195749014388
30
0
41
1
10
97.949159100448
20
5.37668390265998
30
0
41
1
10
97.943558854917
20
5.35232046914209
30
0
41
1
10
97.9416742246294
20
5.32830207354928
30
0
0
SPLINE
5
1A8
100
AcDbEntity
8
1
62
256
6
ByLayer
370
-1
48
1
60
0
100
AcDbSpline
70
4
71
3
72
16
73
12
40
0
40
0
40
0
40
0
40
0.25
40
0.25
40
0.5
40
0.5
40
0.75
40
0.75
40
0.875
40
0.875
40
1
40
1
40
1
40
1
41
1
10
63.4999999999999
20
10.2597554752137
30
0
41
1
10
65.7301781017829
20
10.1036111122814
30
0
41
1
10
67.9567829176907
20
9.89491083093401
30
0
41
1
10
72.4076716446726
20
9.37949948217832
30
0
41
1
10
74.6318628425339
20
9.07268371334575
30
0
41
1
10
79.0821747659857
20
8.36862499439863
30
0
41
1
10
81.3083780216207
20
7.9714833376741
30
0
41
1
10
84.6531255208774
20
7.31676536678907
30
0
41
1
10
85.7682790578164
20
7.08884032056298
30
0
41
1
10
87.9978414812032
20
6.61569333667103
30
0
41
1
10
89.1125346274753
20
6.37041959855489
30
0
41
1
10
90.2274296591527
20
6.11728025852273
30
0
0
SPLINE
5
1A9
100
AcDbEntity
8
1
62
256
6
ByLayer
370
-1
48
1
60
0
100
AcDbSpline
70
4
71
3
72
16
73
12
40
0
40
0
40
0
40
0
40
0.250000000000001
40
0.250000000000001
40
0.500000000000002
40
0.500000000000002
40
0.625000000000001
40
0.625000000000001
40
0.750000000000001
40
0.750000000000001
40
1
40
1
40
1
40
1
41
1
10
14.3517746924372
20
-4.5532994273984
30
0
41
1
10
14.5205087785916
20
-4.69367832893323
30
0
41
1
10
14.7016356689102
20
-4.83172927783554
30
0
41
1
10
15.0865471523199
20
-5.10652336130522
30
0
41
1
10
15.2903331788919
20
-5.24325882387242
30
0
41
1
10
15.6126084270973
20
-5.44800121130626
30
0
41
1
10
15.7231314411169
20
-5.51636057268095
30
0
41
1
10
15.9482470341203
20
-5.65185893094397
30
0
41
1
10
16.0625158265456
20
-5.71881417827672
30
0
41
1
10
16.4104130603146
20
-5.91702020732737
30
0
41
1
10
16.6490860930621
20
-6.04567602899289
30
0
41
1
10
16.8949499996112
20
-6.16930951296598
30
0
0
SPLINE
5
1AA
100
AcDbEntity
8
1
62
256
6
ByLayer
370
-1
48
1
60
0
100
AcDbSpline
70
4
71
3
72
18
73
14
40
0
40
0
40
0
40
0
40
0.125
40
0.125
40
0.25
40
0.25
40
0.499999999999999
40
0.499999999999999
40
0.624999999999999
40
0.624999999999999
40
0.749999999999999
40
0.749999999999999
40
1
40
1
40
1
40
1
41
1
10
63.5
20
-5.6224501855506
30
0
41
1
10
64.9301178301345
20
-5.96060667421284
30
0
41
1
10
66.3585507939493
20
-6.28690783523499
30
0
41
1
10
69.2138810540835
20
-6.91037087542483
30
0
41
1
10
70.6408836100693
20
-7.20726155052841
30
0
41
1
10
74.9217643040571
20
-8.04904306078302
30
0
41
1
10
77.7755393623916
20
-8.54518660361688
30
0
41
1
10
82.0609014125176
20
-9.18015817762242
30
0
41
1
10
83.4908204773595
20
-9.37373579245448
30
0
41
1
10
86.3504128562173
20
-9.7199886261364
30
0
41
1
10
87.7792479347905
20
-9.87284714555486
30
0
41
1
10
92.0648507998409
20
-10.2678488663894
30
0
41
1
10
94.9205483816231
20
-10.4461485111681
30
0
41
1
10
97.7811576368107
20
-10.5345276586128
30
0
0
SPLINE
5
1AB
100
AcDbEntity
8
1
62
256
6
ByLayer
370
-1
48
1
60
0
100
AcDbSpline
70
4
71
3
72
8
73
4
40
0
40
0
40
0
40
0
40
1
40
1
40
1
40
1
41
1
10
17.6470798524376
20
-6.40023893090896
30
0
41
1
10
17.6663060027183
20
-6.40393084911025
30
0
41
1
10
17.6855545469152
20
-6.40759443221896
30
0
41
1
10
17.7048239580776
20
-6.41122981259781
30
0
0
SPLINE
5
1AC
100
AcDbEntity
8
1
62
256
6
ByLayer
370
-1
48
1
60
0
100
AcDbSpline
70
4
71
3
72
26
73
22
40
0
40
0
40
0
40
0
40
0.249999999999992
40
0.249999999999992
40
0.312499999999992
40
0.312499999999992
40
0.374999999999992
40
0.374999999999992
40
0.499999999999995
40
0.499999999999995
40
0.562499999999995
40
0.562499999999995
40
0.624999999999996
40
0.624999999999996
40
0.749999999999998
40
0.749999999999998
40
0.812499999999998
40
0.812499999999998
40
0.874999999999997
40
0.874999999999997
40
1
40
1
40
1
40
1
41
1
10
100.546797176855
20
3.58086366249105
30
0
41
1
10
100.776346067229
20
3.43459046088566
30
0
41
1
10
100.977598093868
20
3.30713752517102
30
0
41
1
10
101.177253827634
20
3.15728774942522
30
0
41
1
10
101.21463105486
20
3.12770032928228
30
0
41
1
10
101.282411103834
20
3.07004017430268
30
0
41
1
10
101.312957659612
20
3.0418694427573
30
0
41
1
10
101.394098219395
20
2.95880978951345
30
0
41
1
10
101.434239268081
20
2.90534235803048
30
0
41
1
10
101.47094449107
20
2.82641752316147
30
0
41
1
10
101.479250773118
20
2.80020074336201
30
0
41
1
10
101.487358398169
20
2.74895082792827
30
0
41
1
10
101.487228343865
20
2.72386437229443
30
0
41
1
10
101.474458661572
20
2.65007119546166
30
0
41
1
10
101.449469742439
20
2.60277752559938
30
0
41
1
10
101.387398762912
20
2.5350718380933
30
0
41
1
10
101.362458716615
20
2.5129573834279
30
0
41
1
10
101.305062544173
20
2.47059421764786
30
0
41
1
10
101.272706117965
20
2.45037608087665
30
0
41
1
10
101.165403370345
20
2.39285661673134
30
0
41
1
10
101.080258492521
20
2.35865880167251
30
0
41
1
10
100.982958292365
20
2.32969354071199
30
0
0
SPLINE
5
1AD
100
AcDbEntity
8
1
62
256
6
ByLayer
370
-1
48
1
60
0
100
AcDbSpline
70
4
71
2
72
6
73
3
40
0
40
0
40
0
40
1
40
1
40
1
41
1
10
17.7048239579756
20
-6.41122981258602
30
0
41
1
10
17.7048239579756
20
-6.95224121147845
30
0
41
1
10
17.7048239579756
20
-7.49325261037089
30
0
0
SPLINE
5
1AE
100
AcDbEntity
8
1
62
256
6
ByLayer
370
-1
48
1
60
0
100
AcDbSpline
70
4
71
3
72
14
73
10
40
0
40
0
40
0
40
0
40
0.070520063288587
40
0.070520063288587
40
0.380346708859058
40
0.380346708859058
40
0.690173354429529
40
0.690173354429529
40
1
40
1
40
1
40
1
41
1
10
107.724565077965
20
3.64148426081496
30
0
41
1
10
107.724092851574
20
3.63406565171826
30
0
41
1
10
107.723591187534
20
3.62685112799986
30
0
41
1
10
107.720753730841
20
3.58903234298887
30
0
41
1
10
107.717912294636
20
3.56210245932527
30
0
41
1
10
107.711786933193
20
3.51905019163445
30
0
41
1
10
107.708440964652
20
3.5023815290198
30
0
41
1
10
107.701503309059
20
3.47996115913298
30
0
41
1
10
107.697971748953
20
3.47430428383305
30
0
41
1
10
107.694432234327
20
3.47427156813913
30
0
0
SPLINE
5
1AF
100
AcDbEntity
8
1
62
256
6
ByLayer
370
-1
48
1
60
0
100
AcDbSpline
70
4
71
3
72
29
73
25
40
0
40
0
40
0
40
0
40
0.0276268463264794
40
0.0848252671308049
40
0.199222108739454
40
0.313618950348104
40
0.342218160750265
40
0.370817371152428
40
0.399416581554591
40
0.428015791956753
40
0.485214212761078
40
0.51381342316324
40
0.542412633565402
40
0.556712238766484
40
0.599611054369727
40
0.656809475174052
40
0.714007895978377
40
0.771206316782701
40
0.799805527184864
40
0.828404737587026
40
0.857003947989188
40
0.885603158391351
40
0.942801579195675
40
1
40
1
40
1
40
1
41
1
10
40.6534469311155
20
0.442044385406149
30
0
41
1
10
40.4557227101275
20
0.462810237008597
30
0
41
1
10
39.8486530962744
20
0.52649161461531
30
0
41
1
10
38.4230368747088
20
0.675426405676689
30
0
41
1
10
36.3764079681034
20
0.887544361861217
30
0
41
1
10
34.5339587194342
20
1.07672978942728
30
0
41
1
10
33.3058014568566
20
1.20121521282394
30
0
41
1
10
32.6918007590038
20
1.2629800551552
30
0
41
1
10
32.0777788682888
20
1.32428125034471
30
0
41
1
10
31.2588092036972
20
1.40549220454238
30
0
41
1
10
30.4395152097664
20
1.48610887456286
30
0
41
1
10
29.6204786569839
20
1.56609661707418
30
0
41
1
10
29.1088706130985
20
1.6156472273637
30
0
41
1
10
28.4951284687457
20
1.67459781751842
30
0
41
1
10
27.6764649402082
20
1.75246625282745
30
0
41
1
10
26.5499345995765
20
1.85815028693
30
0
41
1
10
25.3202658489845
20
1.97217184757051
30
0
41
1
10
24.2960211166648
20
2.06596553523684
30
0
41
1
10
23.4774176181492
20
2.13987748353344
30
0
41
1
10
22.8639366462081
20
2.1946086579471
30
0
41
1
10
22.2507289525091
20
2.24859761020227
30
0
41
1
10
21.4332290041896
20
2.31957425429042
30
0
41
1
10
20.4109007390994
20
2.40651672524038
30
0
41
1
10
19.5914518846348
20
2.47477960510881
30
0
41
1
10
19.1811576368198
20
2.50875736965415
30
0
0
SPLINE
5
1B0
100
AcDbEntity
8
1
62
256
6
ByLayer
370
-1
48
1
60
0
100
AcDbSpline
70
4
71
4
72
10
73
5
40
0
40
0
40
0
40
0
40
0
40
1
40
1
40
1
40
1
40
1
41
0.996134423565411
10
95.5672937275686
20
3.54681492410199
30
0
41
0.994718707336776
10
95.6695522430429
20
4.21172045241999
30
0
41
0.995189669179299
10
95.7437281349666
20
5.00216240444274
30
0
41
1
10
95.7766020804497
20
5.84746097133402
30
0
41
1
10
95.7766020804497
20
6.63999999999987
30
0
0
SPLINE
5
1B1
100
AcDbEntity
8
1
62
256
6
ByLayer
370
-1
48
1
60
0
100
AcDbSpline
70
4
71
3
72
8
73
4
40
0
40
0
40
0
40
0
40
1
40
1
40
1
40
1
41
1
10
53.7098931029425
20
10.6531782636478
30
0
41
1
10
56.9704989704314
20
10.6354581195639
30
0
41
1
10
60.2311491965064
20
10.5030061175383
30
0
41
1
10
63.4999999999999
20
10.2597554752138
30
0
0
SPLINE
5
1B2
100
AcDbEntity
8
1
62
256
6
ByLayer
370
-1
48
1
60
0
100
AcDbSpline
70
4
71
3
72
15
73
11
40
0
40
0
40
0
40
0
40
0.184128143649788
40
0.368256287299576
40
0.552384430949365
40
0.644448502774259
40
0.736512574599153
40
0.828576646424047
40
0.920640718248941
40
1
40
1
40
1
40
1
41
1
10
95.7766020804497
20
6.63999999999987
30
0
41
1
10
95.3787740683003
20
6.62696866743258
30
0
41
1
10
94.5830820540517
20
6.59869707898079
30
0
41
1
10
93.3893109152737
20
6.54972018654044
30
0
41
1
10
92.3947767380939
20
6.50355400441322
30
0
41
1
10
91.5994548364245
20
6.46349116225437
30
0
41
1
10
91.0030647914667
20
6.43188549877408
30
0
41
1
10
90.4064590618098
20
6.39874343755804
30
0
41
1
10
89.8367828550694
20
6.36564835161866
30
0
41
1
10
89.4659577073242
20
6.34322294774503
30
0
41
1
10
89.2942587431933
20
6.33265019925904
30
0
0
SPLINE
5
1B3
100
AcDbEntity
8
1
62
256
6
ByLayer
370
-1
48
1
60
0
100
AcDbSpline
70
4
71
3
72
8
73
4
40
0
40
0
40
0
40
0
40
1
40
1
40
1
40
1
41
1
10
97.9416742246299
20
5.32830207354928
30
0
41
1
10
97.9475974845958
20
5.7562103014078
30
0
41
1
10
97.9232462837214
20
6.1942228105703
30
0
41
1
10
97.858562082086
20
6.64000000000277
30
0
0
SPLINE
5
1B4
100
AcDbEntity
8
1
62
256
6
ByLayer
370
-1
48
1
60
0
100
AcDbSpline
70
4
71
3
72
8
73
4
40
0
40
0
40
0
40
0
40
1
40
1
40
1
40
1
41
1
10
19.1811576368173
20
6.14941196161013
30
0
41
1
10
20.4541734733791
20
5.85190792707422
30
0
41
1
10
21.7270032817559
20
5.54431331398189
30
0
41
1
10
23
20
5.22767985496219
30
0
0
SPLINE
5
1B5
100
AcDbEntity
8
1
62
256
6
ByLayer
370
-1
48
1
60
0
100
AcDbSpline
70
4
71
3
72
8
73
4
40
0
40
0
40
0
40
0
40
1
40
1
40
1
40
1
41
1
10
100.982958292365
20
2.32969354071216
30
0
41
1
10
100.777009423086
20
2.26838469721952
30
0
41
1
10
100.573996778756
20
2.21449219874108
30
0
41
1
10
100.375118144272
20
2.16701988989522
30
0
0
SPLINE
5
1B6
100
AcDbEntity
8
1
62
256
6
ByLayer
370
-1
48
1
60
0
100
AcDbSpline
70
4
71
3
72
10
73
6
40
0
40
0
40
0
40
0
40
0.5
40
0.5
40
1
40
1
40
1
40
1
41
1
10
16.8949499654516
20
-6.16930974189333
30
0
41
1
10
17.0151845561757
20
-6.21868973861299
30
0
41
1
10
17.1388163256956
20
-6.26304435238112
30
0
41
1
10
17.3906003331637
20
-6.34040336820487
30
0
41
1
10
17.5180534089913
20
-6.37323521847634
30
0
41
1
10
17.6470798524376
20
-6.40023893090896
30
0
0
SPLINE
5
1B7
100
AcDbEntity
8
1
62
256
6
ByLayer
370
-1
48
1
60
0
100
AcDbSpline
70
4
71
3
72
8
73
4
40
0
40
0
40
0
40
0
40
1
40
1
40
1
40
1
41
1
10
90.8214133970219
20
5.96327177340965
30
0
41
1
10
90.6257993874906
20
6.01197827345766
30
0
41
1
10
90.4277612377089
20
6.06336256467043
30
0
41
1
10
90.2274296591527
20
6.11728025852273
30
0
0
SPLINE
5
1B8
100
AcDbEntity
8
1
62
256
6
ByLayer
370
-1
48
1
60
0
100
AcDbSpline
70
4
71
3
72
22
73
18
40
0
40
0
40
0
40
0
40
0.275097072224663
40
0.275097072224663
40
0.550194144449325
40
0.550194144449325
40
0.618968412505491
40
0.618968412505491
40
0.687742680561657
40
0.687742680561657
40
0.825291216673989
40
0.825291216673989
40
0.894065484730155
40
0.894065484730155
40
0.962839752786321
40
0.962839752786321
40
1
40
1
40
1
40
1
41
1
10
7.65177469243704
20
0.875896571874165
30
0
41
1
10
7.43604102962175
20
1.19775926379089
30
0
41
1
10
7.25003777588657
20
1.5315563933361
30
0
41
1
10
6.92899640384076
20
2.21391732338412
30
0
41
1
10
6.79391725917944
20
2.56267524144653
30
0
41
1
10
6.65735235082596
20
3.00147003297332
30
0
41
1
10
6.63162405397949
20
3.0895842590983
30
0
41
1
10
6.58402030882218
20
3.2642225223816
30
0
41
1
10
6.56210818149887
20
3.35083425886575
30
0
41
1
10
6.50216969587544
20
3.60793146640265
30
0
41
1
10
6.46989518391044
20
3.77570325486281
30
0
41
1
10
6.43422639951837
20
4.01899242658149
30
0
41
1
10
6.42443894137074
20
4.09907244353656
30
0
41
1
10
6.4096672177096
20
4.25386002747535
30
0
41
1
10
6.40467916710682
20
4.32836478201676
30
0
41
1
10
6.40069208352858
20
4.43849346281314
30
0
41
1
10
6.39999277668542
20
4.47623983782654
30
0
41
1
10
6.39999732041701
20
4.51310383105491
30
0
0
SPLINE
5
1B9
100
AcDbEntity
8
1
62
256
6
ByLayer
370
-1
48
1
60
0
100
AcDbSpline
70
4
71
3
72
83
73
79
40
-0.0312500000000012
40
-0.0312500000000012
40
0
40
0
40
0.031250000000005
40
0.031250000000005
40
0.0468750000000079
40
0.0468750000000079
40
0.0625000000000108
40
0.0625000000000108
40
0.0937500000000165
40
0.0937500000000165
40
0.125000000000022
40
0.125000000000022
40
0.156250000000028
40
0.156250000000028
40
0.171875000000031
40
0.171875000000031
40
0.187500000000034
40
0.187500000000034
40
0.218750000000035
40
0.218750000000035
40
0.250000000000037
40
0.250000000000037
40
0.281250000000038
40
0.281250000000038
40
0.312500000000039
40
0.312500000000039
40
0.328125000000038
40
0.328125000000038
40
0.343750000000036
40
0.343750000000036
40
0.375000000000033
40
0.375000000000033
40
0.40625000000003
40
0.40625000000003
40
0.437500000000027
40
0.437500000000027
40
0.468750000000024
40
0.468750000000024
40
0.484375000000023
40
0.484375000000023
40
0.500000000000021
40
0.500000000000021
40
0.531250000000019
40
0.531250000000019
40
0.562500000000016
40
0.562500000000016
40
0.593750000000013
40
0.593750000000013
40
0.625000000000011
40
0.625000000000011
40
0.656250000000008
40
0.656250000000008
40
0.687500000000005
40
0.687500000000005
40
0.718750000000003
40
0.718750000000003
40
0.75
40
0.75
40
0.765624999999999
40
0.765624999999999
40
0.781249999999998
40
0.796874999999996
40
0.796874999999996
40
0.812499999999995
40
0.812499999999995
40
0.843749999999997
40
0.843749999999997
40
0.859374999999996
40
0.859374999999996
40
0.874999999999995
40
0.874999999999995
40
0.906249999999996
40
0.906249999999996
40
0.937499999999998
40
0.937499999999998
40
0.968749999999999
40
0.968749999999999
40
1
40
1
40
1.03125000000001
40
1.03125000000001
41
1
10
103.767027003027
20
-2.18450536443891
30
0
41
1
10
103.757858789327
20
-2.00662974602543
30
0
41
1
10
103.761765999794
20
-1.91844300522484
30
0
41
1
10
103.780117056778
20
-1.78728129468161
30
0
41
1
10
103.788330102334
20
-1.743748720702
30
0
41
1
10
103.809083547747
20
-1.65707807737832
30
0
41
1
10
103.821704937867
20
-1.61375801955091
30
0
41
1
10
103.865432847302
20
-1.48709530621261
30
0
41
1
10
103.902447210417
20
-1.40629515947225
30
0
41
1
10
103.992254631769
20
-1.25207541408361
30
0
41
1
10
104.045719786128
20
-1.17810151545726
30
0
41
1
10
104.164555834852
20
-1.04415775523319
30
0
41
1
10
104.230182838235
20
-0.983436563473106
30
0
41
1
10
104.338156130907
20
-0.902003582873789
30
0
41
1
10
104.375893917989
20
-0.876417453406503
30
0
41
1
10
104.452931345986
20
-0.829671880766227
30
0
41
1
10
104.492407825623
20
-0.808359340007456
30
0
41
1
10
104.613659309583
20
-0.75050030529215
30
0
41
1
10
104.698714667035
20
-0.719852563377088
30
0
41
1
10
104.874598655435
20
-0.676070435217071
30
0
41
1
10
104.963408800467
20
-0.663331364566318
30
0
41
1
10
105.142714290806
20
-0.655630941974948
30
0
41
1
10
105.234181235468
20
-0.660929227808566
30
0
41
1
10
105.411772872119
20
-0.689416771979381
30
0
41
1
10
105.498400124086
20
-0.712382989543158
30
0
41
1
10
105.625056304252
20
-0.760026662967334
30
0
41
1
10
105.666896136777
20
-0.778230228604741
30
0
41
1
10
105.747685874559
20
-0.818347929017818
30
0
41
1
10
105.786825140848
20
-0.840312383183146
30
0
41
1
10
105.900557424587
20
-0.911789954742375
30
0
41
1
10
105.971803478753
20
-0.967124526133574
30
0
41
1
10
106.102808998202
20
-1.09194810825798
30
0
41
1
10
106.161040371355
20
-1.15986352539917
30
0
41
1
10
106.263557329989
20
-1.30617379003851
30
0
41
1
10
106.308149408528
20
-1.38549698592212
30
0
41
1
10
106.379963394181
20
-1.54892554287227
30
0
41
1
10
106.40758777955
20
-1.63326058842063
30
0
41
1
10
106.436782742664
20
-1.76358860347807
30
0
41
1
10
106.444475261167
20
-1.80789392547695
30
0
41
1
10
106.45545397657
20
-1.89617758223414
30
0
41
1
10
106.458787565807
20
-1.94026515292785
30
0
41
1
10
106.462528192866
20
-2.07236514757662
30
0
41
1
10
106.456732703759
20
-2.16021487862548
30
0
41
1
10
106.428247655443
20
-2.33548018630356
30
0
41
1
10
106.405954313529
20
-2.42038285493936
30
0
41
1
10
106.346123276779
20
-2.58456690817218
30
0
41
1
10
106.308163096313
20
-2.66458462122969
30
0
41
1
10
106.217880151409
20
-2.81574576966861
30
0
41
1
10
106.166163195041
20
-2.88619029513777
30
0
41
1
10
106.049550990594
20
-3.01695866202155
30
0
41
1
10
105.983787743352
20
-3.07786251197578
30
0
41
1
10
105.842826299702
20
-3.18467286406516
30
0
41
1
10
105.767678678505
20
-3.2308761905941
30
0
41
1
10
105.60766370324
20
-3.30848274773933
30
0
41
1
10
105.522059623593
20
-3.33987117680766
30
0
41
1
10
105.348846056685
20
-3.38395034767146
30
0
41
1
10
105.260363841048
20
-3.39721230875529
30
0
41
1
10
105.124687605202
20
-3.40333954211232
30
0
41
1
10
105.07909968108
20
-3.4030290892814
30
0
41
1
10
104.989226485081
20
-3.3977964075967
30
0
41
1
10
104.900091432035
20
-3.38798885155168
30
0
41
1
10
104.812404857411
20
-3.36919064577722
30
0
41
1
10
104.725449334492
20
-3.34584209777236
30
0
41
1
10
104.682234911087
20
-3.33182475665655
30
0
41
1
10
104.556621541125
20
-3.28393138127052
30
0
41
1
10
104.477227468365
20
-3.24406377524079
30
0
41
1
10
104.364380420643
20
-3.17272754463528
30
0
41
1
10
104.327659517932
20
-3.14687357529201
30
0
41
1
10
104.257662892671
20
-3.09226000593105
30
0
41
1
10
104.224254865228
20
-3.06344093660178
30
0
41
1
10
104.12861439737
20
-2.97258835115363
30
0
41
1
10
104.07070810599
20
-2.90589873174235
30
0
41
1
10
103.968072486674
20
-2.76185670994332
30
0
41
1
10
103.924359695901
20
-2.68605773411605
30
0
41
1
10
103.851456589039
20
-2.52710809675744
30
0
41
1
10
103.822117053631
20
-2.44317609235864
30
0
41
1
10
103.779982615307
20
-2.27182021062592
30
0
41
1
10
103.767027003027
20
-2.18450536443891
30
0
41
1
10
103.757858789327
20
-2.00662974602543
30
0
0
SPLINE
5
1BA
100
AcDbEntity
8
1
62
256
6
ByLayer
370
-1
48
1
60
0
100
AcDbSpline
70
4
71
3
72
38
73
34
40
0
40
0
40
0
40
0
40
0.017640779698231
40
0.017640779698231
40
0.0995040480567118
40
0.0995040480567118
40
0.181367316415192
40
0.181367316415192
40
0.263230584773673
40
0.263230584773673
40
0.345093853132154
40
0.345093853132154
40
0.426957121490635
40
0.426957121490635
40
0.508820389849115
40
0.508820389849115
40
0.590683658207596
40
0.590683658207596
40
0.672546926566077
40
0.672546926566077
40
0.754410194924558
40
0.754410194924558
40
0.795341829103798
40
0.795341829103798
40
0.836273463283039
40
0.836273463283039
40
0.877205097462279
40
0.877205097462279
40
0.918136731641519
40
0.918136731641519
40
0.95906836582076
40
0.95906836582076
40
1
40
1
40
1
40
1
41
1
10
73.6277802224199
20
-7.80124001857587
30
0
41
1
10
73.2988775949768
20
-7.84985618077869
30
0
41
1
10
72.9699915520379
20
-7.89761654857395
30
0
41
1
10
71.115052128259
20
-8.16212191855763
30
0
41
1
10
69.5891693341225
20
-8.36131349122724
30
0
41
1
10
66.5367709454304
20
-8.71930991943256
30
0
41
1
10
65.0099862999757
20
-8.8779095333214
30
0
41
1
10
61.9578987965419
20
-9.15144413694918
30
0
41
1
10
60.4321574736307
20
-9.2667978993947
30
0
41
1
10
57.3798906352668
20
-9.45385400392755
30
0
41
1
10
55.8529681664149
20
-9.5255306144646
30
0
41
1
10
52.8004957194965
20
-9.62255928569968
30
0
41
1
10
51.2747127054377
20
-9.64789168314402
30
0
41
1
10
48.2228843745125
20
-9.64943775249708
30
0
41
1
10
46.6963267050439
20
-9.6258968993391
30
0
41
1
10
43.6443862152836
20
-9.53250412267172
30
0
41
1
10
42.1188980830771
20
-9.46270452600567
30
0
41
1
10
39.0675597343648
20
-9.276567441315
30
0
41
1
10
37.5412309888876
20
-9.16016769088148
30
0
41
1
10
34.489301441481
20
-8.88341700459711
30
0
41
1
10
32.9637732312509
20
-8.72417336098752
30
0
41
1
10
30.6753694240907
20
-8.4534976214814
30
0
41
1
10
29.9125539568203
20
-8.35781461970424
30
0
41
1
10
28.386640155152
20
-8.15717401388898
30
0
41
1
10
27.6234285127467
20
-8.05218838442809
30
0
41
1
10
26.0973116551451
20
-7.83187196302845
30
0
41
1
10
25.3344057767672
20
-7.71687850722793
30
0
41
1
10
23.8086269112176
20
-7.47876141050793
30
0
41
1
10
23.0457568149281
20
-7.35565099099426
30
0
41
1
10
21.519983697478
20
-7.10083928363403
30
0
41
1
10
20.7570958395329
20
-6.96893952037394
30
0
41
1
10
19.2311592967053
20
-6.69617024174363
30
0
41
1
10
18.4680985477636
20
-6.55541241107869
30
0
41
1
10
17.7048239579756
20
-6.41122981257877
30
0
0
SPLINE
5
1BB
100
AcDbEntity
8
1
62
256
6
ByLayer
370
-1
48
1
60
0
100
AcDbSpline
70
4
71
3
72
18
73
14
40
0
40
0
40
0
40
0
40
0.0957978011981718
40
0.0957978011981718
40
0.321848350898627
40
0.321848350898627
40
0.434873625748856
40
0.434873625748856
40
0.547898900599085
40
0.547898900599085
40
0.773949450299542
40
0.773949450299542
40
1
40
1
40
1
40
1
41
1
10
97.4146061455698
20
2.72107741511945
30
0
41
1
10
97.4435550807079
20
2.7775709523315
30
0
41
1
10
97.4717909130856
20
2.83749853477357
30
0
41
1
10
97.5628180517524
20
3.0475131574683
30
0
41
1
10
97.6208257536542
20
3.20985429282555
30
0
41
1
10
97.6986585268688
20
3.47488164866311
30
0
41
1
10
97.7230637253671
20
3.56682666496539
30
0
41
1
10
97.7686276910792
20
3.75799213735505
30
0
41
1
10
97.7898627495642
20
3.85763280404328
30
0
41
1
10
97.8477220783672
20
4.16456597001721
30
0
41
1
10
97.8783902697276
20
4.37849699836082
30
0
41
1
10
97.9229910890998
20
4.82396688349579
30
0
41
1
10
97.9369423790284
20
5.0555123519737
30
0
41
1
10
97.9411657958602
20
5.2959273389574
30
0
0
SPLINE
5
1BC
100
AcDbEntity
8
1
62
256
6
ByLayer
370
-1
48
1
60
0
100
AcDbSpline
70
4
71
3
72
24
73
20
40
0
40
0
40
0
40
0
40
0.125
40
0.125
40
0.25
40
0.25
40
0.3125
40
0.3125
40
0.375
40
0.375
40
0.5
40
0.5
40
0.625
40
0.625
40
0.6875
40
0.6875
40
0.75
40
0.75
40
1
40
1
40
1
40
1
41
1
10
7.65177469243704
20
-2.08627857116974
30
0
41
1
10
7.48842937801604
20
-1.83877476354959
30
0
41
1
10
7.3492663669565
20
-1.57895775848712
30
0
41
1
10
7.10676793785967
20
-1.04071430264824
30
0
41
1
10
7.00358545034638
20
-0.762210032840841
30
0
41
1
10
6.87046200190275
20
-0.332864735331469
30
0
41
1
10
6.82962280266793
20
-0.187401544838934
30
0
41
1
10
6.75502473559257
20
0.105209350981284
30
0
41
1
10
6.72137870022343
20
0.251806717220887
30
0
41
1
10
6.62992464576564
20
0.692308451330035
30
0
41
1
10
6.5815441124476
20
0.986916935349541
30
0
41
1
10
6.50408405208256
20
1.5773242384482
30
0
41
1
10
6.47503648105948
20
1.87312625190288
30
0
41
1
10
6.4427155260199
20
2.31731854604135
30
0
41
1
10
6.43382572325322
20
2.46546503208643
30
0
41
1
10
6.41935159980895
20
2.76186261041977
30
0
41
1
10
6.41376269208229
20
2.91038035676996
30
0
41
1
10
6.39312682277367
20
3.64848183896007
30
0
41
1
10
6.39937376492179
20
4.22630058170804
30
0
41
1
10
6.41553409603344
20
4.79260266125982
30
0
0
SPLINE
5
1BD
100
AcDbEntity
8
1
62
256
6
ByLayer
370
-1
48
1
60
0
100
AcDbSpline
70
4
71
4
72
10
73
5
40
0
40
0
40
0
40
0
40
0
40
1
40
1
40
1
40
1
40
1
41
1
10
95.7766020804497
20
6.63999999999987
30
0
41
1
10
95.7766020804627
20
7.61162726734455
30
0
41
1
10
95.7766020804721
20
8.58325453468922
30
0
41
1
10
95.7766020804789
20
9.55488180203389
30
0
41
1
10
95.7766020804838
20
10.5265090693786
30
0
0
SPLINE
5
1BE
100
AcDbEntity
8
1
62
256
6
ByLayer
370
-1
48
1
60
0
100
AcDbSpline
70
4
71
2
72
6
73
3
40
0
40
0
40
0
40
1
40
1
40
1
41
1
10
7.65177469243693
20
0.875896571874364
30
0
41
1
10
7.65177469243699
20
-0.605190999647704
30
0
41
1
10
7.65177469243704
20
-2.08627857116971
30
0
0
SPLINE
5
1BF
100
AcDbEntity
8
1
62
256
6
ByLayer
370
-1
48
1
60
0
100
AcDbSpline
70
4
71
3
72
8
73
4
40
0
40
0
40
0
40
0
40
1
40
1
40
1
40
1
41
1
10
18
20
6.53232532939626
30
0
41
1
10
18.3964974179897
20
6.41224123131087
30
0
41
1
10
18.7901334603936
20
6.28461019707211
30
0
41
1
10
19.181157636817
20
6.14941196161024
30
0
0
SPLINE
5
1C0
100
AcDbEntity
8
1
62
256
6
ByLayer
370
-1
48
1
60
0
100
AcDbSpline
70
4
71
3
72
14
73
10
40
0
40
0
40
0
40
0
40
0.412583664814787
40
0.412583664814787
40
0.618875497222179
40
0.618875497222179
40
0.825167329629572
40
0.825167329629572
40
1
40
1
40
1
40
1
41
1
10
104.214598583749
20
6.98193451076062
30
0
41
1
10
104.232260574479
20
6.82373153327703
30
0
41
1
10
104.27623070236
20
6.66627001703628
30
0
41
1
10
104.389047049149
20
6.43368145844451
30
0
41
1
10
104.43441210923
20
6.35752084362704
30
0
41
1
10
104.539923348934
20
6.21248141943718
30
0
41
1
10
104.600285988972
20
6.14304576483965
30
0
41
1
10
104.728319300956
20
6.02208992151844
30
0
41
1
10
104.792029672908
20
5.9708578501382
30
0
41
1
10
104.8608519217
20
5.92459058198236
30
0
0
SPLINE
5
1C1
100
AcDbEntity
8
1
62
256
6
ByLayer
370
-1
48
1
60
0
100
AcDbSpline
70
4
71
3
72
12
73
8
40
0
40
0
40
0
40
0
40
0.233422253256017
40
0.233422253256017
40
0.616711126628008
40
0.616711126628008
40
1
40
1
40
1
40
1
41
1
10
104.279712395871
20
7.57292703281564
30
0
41
1
10
104.264511295478
20
7.52981781013676
30
0
41
1
10
104.251710951554
20
7.48600996076459
30
0
41
1
10
104.223976659248
20
7.36841273133399
30
0
41
1
10
104.212957483876
20
7.29343209548546
30
0
41
1
10
104.203813276794
20
7.13946733798085
30
0
41
1
10
104.205767588384
20
7.06103599950239
30
0
41
1
10
104.214598583749
20
6.98193451076062
30
0
0
SPLINE
5
1C2
100
AcDbEntity
8
1
62
256
6
ByLayer
370
-1
48
1
60
0
100
AcDbSpline
70
4
71
4
72
19
73
14
40
0
40
0
40
0
40
0
40
0
40
0.455137720174235
40
0.455137720174235
40
0.455137720174235
40
0.682706580261353
40
0.682706580261353
40
0.682706580261353
40
0.91027544034847
40
0.91027544034847
40
0.91027544034847
40
1
40
1
40
1
40
1
40
1
41
1
10
19.1811576368198
20
2.50875736965415
30
0
41
1
10
19.1811576368198
20
1.87882265066992
30
0
41
0.974581796258695
10
19.1217849614063
20
0.814647556419635
30
0
41
0.974581796258695
10
18.9682599025566
20
-0.602746443873744
30
0
41
0.987290898129347
10
18.690096723269
20
-2.62260471125183
30
0
41
0.993645449064674
10
18.5913283913174
20
-3.2656076577284
30
0
41
1
10
18.4920603103641
20
-3.84582767753881
30
0
41
1
10
18.3079396896411
20
-4.82962459688335
30
0
41
0.993645449064674
10
18.2086716086879
20
-5.31022689939098
30
0
41
0.987290898129347
10
18.1099032767363
20
-5.72270573785795
30
0
41
0.981384239967649
10
17.9815207751196
20
-6.1624189335953
30
0
41
0.980043225502606
10
17.9462247773519
20
-6.27161474318348
30
0
41
0.979161312678263
10
17.9125369005421
20
-6.36317861172496
30
0
41
0.978765953214585
10
17.8808042813015
20
-6.43615448652961
30
0
0
SPLINE
5
1C3
100
AcDbEntity
8
1
62
256
6
ByLayer
370
-1
48
1
60
0
100
AcDbSpline
70
4
71
1
72
4
73
2
40
0
40
0
40
1
40
1
41
1
10
19.1811576368168
20
2.5087573696546
30
0
41
1
10
19.181157636817
20
6.14941196161033
30
0
0
SPLINE
5
1C4
100
AcDbEntity
8
1
62
256
6
ByLayer
370
-1
48
1
60
0
100
AcDbSpline
70
4
71
3
72
10
73
6
40
0
40
0
40
0
40
0
40
0.5
40
0.5
40
1
40
1
40
1
40
1
41
1
10
9.23556918799244
20
-0.798042544456166
30
0
41
1
10
10.0917503902312
20
-1.42922121083751
30
0
41
1
10
10.9475945838424
20
-2.05798961193969
30
0
41
1
10
12.654299958959
20
-3.31031064882364
30
0
41
1
10
13.5051473170473
20
-3.93388422667488
30
0
41
1
10
14.3517746924372
20
-4.55329942739837
30
0
0
SPLINE
5
1C5
100
AcDbEntity
8
1
62
256
6
ByLayer
370
-1
48
1
60
0
100
AcDbSpline
70
4
71
3
72
22
73
18
40
0
40
0
40
0
40
0
40
0.25
40
0.25
40
0.374999999999999
40
0.374999999999999
40
0.499999999999999
40
0.499999999999999
40
0.562499999999999
40
0.562499999999999
40
0.624999999999999
40
0.624999999999999
40
0.75
40
0.75
40
0.875
40
0.875
40
1
40
1
40
1
40
1
41
1
10
23
20
5.22767985496219
30
0
41
1
10
26.3784449803027
20
4.37914582448425
30
0
41
1
10
29.7494318625638
20
3.47807756176357
30
0
41
1
10
34.8051472015123
20
2.08377689606863
30
0
41
1
10
36.4902703608958
20
1.61191295380047
30
0
41
1
10
39.8633393587732
20
0.664854430377147
30
0
41
1
10
41.5510823959633
20
0.188958489928012
30
0
41
1
10
44.0856680301142
20
-0.524267508157521
30
0
41
1
10
44.9307524445372
20
-0.761730021424967
30
0
41
1
10
46.6195062662516
20
-1.23427299350359
30
0
41
1
10
47.4634884410266
20
-1.46944919725712
30
0
41
1
10
49.9947383201904
20
-2.16995637091085
30
0
41
1
10
51.681301043488
20
-2.63028211332136
30
0
41
1
10
55.0550737622327
20
-3.52895937322609
30
0
41
1
10
56.7424026592608
20
-3.9669320919995
30
0
41
1
10
60.1191371063699
20
-4.81631232281697
30
0
41
1
10
61.8085435527265
20
-5.22769601886449
30
0
41
1
10
63.5
20
-5.6224501855506
30
0
0
SPLINE
5
1C6
100
AcDbEntity
8
1
62
256
6
ByLayer
370
-1
48
1
60
0
100
AcDbSpline
70
4
71
3
72
14
73
10
40
0
40
0
40
0
40
0
40
0.5
40
0.5
40
0.625
40
0.625
40
0.75
40
0.75
40
1
40
1
40
1
40
1
41
1
10
101.882068152628
20
0.936776166653431
30
0
41
1
10
101.407679669243
20
0.908526085231983
30
0
41
1
10
100.939579334505
20
0.939073623261208
30
0
41
1
10
100.362257247953
20
1.05003829572834
30
0
41
1
10
100.247189225531
20
1.07592564923073
30
0
41
1
10
100.017870450206
20
1.13530135910162
30
0
41
1
10
99.9036917685921
20
1.16879892352654
30
0
41
1
10
99.5662022088644
20
1.27973355686504
30
0
41
1
10
99.3466521970578
20
1.36787726585629
30
0
41
1
10
99.1326841048289
20
1.47043702142508
30
0
0
SPLINE
5
1C7
100
AcDbEntity
8
1
62
256
6
ByLayer
370
-1
48
1
60
0
100
AcDbSpline
70
4
71
3
72
20
73
16
40
0
40
0
40
0
40
0
40
0.062499999999996
40
0.062499999999996
40
0.124999999999992
40
0.124999999999992
40
0.249999999999993
40
0.249999999999993
40
0.374999999999994
40
0.374999999999994
40
0.499999999999995
40
0.499999999999995
40
0.749999999999997
40
0.749999999999997
40
1
40
1
40
1
40
1
41
1
10
97.9411657958602
20
5.2959273389574
30
0
41
1
10
97.9428928929361
20
5.25694048568582
30
0
41
1
10
97.9522109992912
20
5.22010773454721
30
0
41
1
10
97.9788608676074
20
5.14875579108232
30
0
41
1
10
97.9959189568033
20
5.11534768122138
30
0
41
1
10
98.053461762429
20
5.0191990460288
30
0
41
1
10
98.1006202377155
20
4.96012093719213
30
0
41
1
10
98.2008151478651
20
4.85023149597589
30
0
41
1
10
98.2543637724521
20
4.79907964551032
30
0
41
1
10
98.3657738985935
20
4.70149447694763
30
0
41
1
10
98.4236874705217
20
4.65511765774039
30
0
41
1
10
98.6023000396605
20
4.5212585886571
30
0
41
1
10
98.7280408661837
20
4.43885375552921
30
0
41
1
10
98.9857978414906
20
4.28460169846872
30
0
41
1
10
99.1181894235445
20
4.21261293419752
30
0
41
1
10
99.2533301226681
20
4.14447233099409
30
0
0
SPLINE
5
1C8
100
AcDbEntity
8
1
62
256
6
ByLayer
370
-1
48
1
60
0
100
AcDbSpline
70
4
71
3
72
10
73
6
40
0
40
0
40
0
40
0
40
0.5
40
0.5
40
1
40
1
40
1
40
1
41
1
10
97.7811576367662
20
-10.534527658612
30
0
41
1
10
98.0281480459239
20
-10.5388668235503
30
0
41
1
10
98.2690971890969
20
-10.5450212193411
30
0
41
1
10
98.7394185265255
20
-10.5591193224562
30
0
41
1
10
98.9687895922667
20
-10.5670705872122
30
0
41
1
10
99.1922333634833
20
-10.5746105804643
30
0
0
SPLINE
5
1C9
100
AcDbEntity
8
1
62
256
6
ByLayer
370
-1
48
1
60
0
100
AcDbSpline
70
4
71
3
72
8
73
4
40
0
40
0
40
0
40
0
40
1
40
1
40
1
40
1
41
1
10
97.8585620821389
20
6.6399999999999
30
0
41
1
10
97.8406458098767
20
6.76347165602309
30
0
41
1
10
97.8307339841634
20
6.88790260721896
30
0
41
1
10
97.8307339841634
20
7.01350152621404
30
0
0
SPLINE
5
1CA
100
AcDbEntity
8
1
62
256
6
ByLayer
370
-1
48
1
60
0
100
AcDbSpline
70
4
71
3
72
22
73
18
40
0
40
0
40
0
40
0
40
0.125
40
0.125
40
0.25
40
0.25
40
0.375
40
0.375
40
0.5
40
0.5
40
0.625
40
0.625
40
0.75
40
0.75
40
0.875
40
0.875
40
1
40
1
40
1
40
1
41
1
10
101.402598416978
20
3.39349277904
30
0
41
1
10
101.408383752631
20
3.39349277904
30
0
41
1
10
101.396623577418
20
3.40506142190586
30
0
41
1
10
101.35532342335
20
3.44217265426568
30
0
41
1
10
101.326253044271
20
3.4677314846524
30
0
41
1
10
101.264397937063
20
3.52655918962842
30
0
41
1
10
101.231170990223
20
3.56009735504134
30
0
41
1
10
101.163765984255
20
3.6348681904166
30
0
41
1
10
101.129872175529
20
3.67578418987611
30
0
41
1
10
101.064450315657
20
3.76327835606395
30
0
41
1
10
101.032712542758
20
3.81005909786708
30
0
41
1
10
100.972096631202
20
3.9102725235625
30
0
41
1
10
100.943040013384
20
3.96414351756204
30
0
41
1
10
100.890278159743
20
4.07592800317138
30
0
41
1
10
100.866357395301
20
4.13410421878405
30
0
41
1
10
100.823864321813
20
4.25561218516427
30
0
41
1
10
100.805318458246
20
4.31920751563723
30
0
41
1
10
100.790342827635
20
4.38279075242326
30
0
0
SPLINE
5
1CB
100
AcDbEntity
8
1
62
256
6
ByLayer
370
-1
48
1
60
0
100
AcDbSpline
70
4
71
3
72
39
73
35
40
0
40
0
40
0
40
0
40
0.125
40
0.125
40
0.25
40
0.25
40
0.312499999999999
40
0.312499999999999
40
0.374999999999999
40
0.374999999999999
40
0.5
40
0.5
40
0.53125
40
0.53125
40
0.5625
40
0.5625
40
0.625
40
0.625
40
0.65625
40
0.65625
40
0.671875
40
0.671875
40
0.6875
40
0.6875
40
0.703125
40
0.703125
40
0.71875
40
0.75
40
0.75
40
0.8125
40
0.8125
40
0.875
40
0.875
40
1
40
1
40
1
40
1
41
1
10
7.65177469243702
20
-2.08627857116969
30
0
41
1
10
7.91154819130787
20
-2.41577932900259
30
0
41
1
10
8.17446634329781
20
-2.73196365785094
30
0
41
1
10
8.70841256617993
20
-3.33520349227956
30
0
41
1
10
8.97941943931468
20
-3.6223026399436
30
0
41
1
10
9.39413721499227
20
-4.02740486350226
30
0
41
1
10
9.53375407295994
20
-4.15815857123252
30
0
41
1
10
9.81627565855172
20
-4.41008405016018
30
0
41
1
10
9.95840146599761
20
-4.53051847585516
30
0
41
1
10
10.3840340436309
20
-4.87063707837416
30
0
41
1
10
10.6682827084263
20
-5.07079911932738
30
0
41
1
10
11.0258504711791
20
-5.28023734394571
30
0
41
1
10
11.09747931818
20
-5.32006330180087
30
0
41
1
10
11.2410208337746
20
-5.3952901835637
30
0
41
1
10
11.3130595022449
20
-5.43073750834756
30
0
41
1
10
11.5273723781969
20
-5.52889735136054
30
0
41
1
10
11.6685127835273
20
-5.58383430939597
30
0
41
1
10
11.8776355893542
20
-5.64913760544962
30
0
41
1
10
11.9469109512569
20
-5.668049011455
30
0
41
1
10
12.0501679127044
20
-5.69189944361125
30
0
41
1
10
12.084477480875
20
-5.6990963132159
30
0
41
1
10
12.1528755596057
20
-5.7119383131641
30
0
41
1
10
12.1869279233313
20
-5.71738080489197
30
0
41
1
10
12.2550970784364
20
-5.72827671918452
30
0
41
1
10
12.2891600801328
20
-5.73343016387554
30
0
41
1
10
12.3575823683785
20
-5.74505901648371
30
0
41
1
10
12.4605837484541
20
-5.76406260911543
30
0
41
1
10
12.5646295526609
20
-5.78752987468042
30
0
41
1
10
12.7739681253416
20
-5.83988732590393
30
0
41
1
10
12.9152160491566
20
-5.88203564407749
30
0
41
1
10
13.1990424060642
20
-5.97780647351215
30
0
41
1
10
13.3418002149714
20
-6.03147185995661
30
0
41
1
10
13.7719701604074
20
-6.20655615734171
30
0
41
1
10
14.061248489033
20
-6.34192478148776
30
0
41
1
10
14.3517746924372
20
-6.48939046647246
30
0
0
SPLINE
5
1CC
100
AcDbEntity
8
1
62
256
6
ByLayer
370
-1
48
1
60
0
100
AcDbSpline
70
4
71
3
72
8
73
4
40
0
40
0
40
0
40
0
40
1
40
1
40
1
40
1
41
1
10
100.546797176856
20
3.58086366249091
30
0
41
1
10
100.810247194128
20
3.50026245312196
30
0
41
1
10
101.078685990446
20
3.43766692851921
30
0
41
1
10
101.352230369474
20
3.39349277904
30
0
0
SPLINE
5
1CD
100
AcDbEntity
8
1
62
256
6
ByLayer
370
-1
48
1
60
0
100
AcDbSpline
70
4
71
3
72
12
73
8
40
0
40
0
40
0
40
0
40
0.500000000000008
40
0.500000000000008
40
0.750000000000004
40
0.750000000000004
40
1
40
1
40
1
40
1
41
1
10
95.7766020804497
20
10.5265090693777
30
0
41
1
10
96.1516291905591
20
10.5353501025242
30
0
41
1
10
96.5108478729799
20
10.5484503308537
30
0
41
1
10
97.0270459243012
20
10.5682927513243
30
0
41
1
10
97.1955164219568
20
10.5749208221918
30
0
41
1
10
97.5236982400789
20
10.586704198701
30
0
41
1
10
97.6806533634945
20
10.5917509609671
30
0
41
1
10
97.8307339841634
20
10.5951957647302
30
0
0
SPLINE
5
1CE
100
AcDbEntity
8
1
62
256
6
ByLayer
370
-1
48
1
60
0
100
AcDbSpline
70
4
71
3
72
24
73
20
40
0
40
0
40
0
40
0
40
0.125000000000008
40
0.125000000000008
40
0.250000000000016
40
0.250000000000016
40
0.312500000000021
40
0.312500000000021
40
0.375000000000025
40
0.375000000000025
40
0.437500000000029
40
0.437500000000029
40
0.500000000000033
40
0.500000000000033
40
0.625000000000021
40
0.625000000000021
40
0.75000000000001
40
0.75000000000001
40
1
40
1
40
1
40
1
41
1
10
102.522913774329
20
3.14141883700523
30
0
41
1
10
102.462886845915
20
3.13052358473607
30
0
41
1
10
102.400418497505
20
3.1221534917413
30
0
41
1
10
102.268912553182
20
3.11230067515851
30
0
41
1
10
102.202069415487
20
3.11109742421166
30
0
41
1
10
102.103160763406
20
3.11542932947927
30
0
41
1
10
102.070120196567
20
3.11792177171932
30
0
41
1
10
102.006677661022
20
3.12467573021988
30
0
41
1
10
101.975952503245
20
3.12894062105082
30
0
41
1
10
101.91628819803
20
3.13904717846936
30
0
41
1
10
101.887293144152
20
3.14491579352949
30
0
41
1
10
101.832414881541
20
3.15767879717694
30
0
41
1
10
101.806302255813
20
3.16460692341019
30
0
41
1
10
101.731272023949
20
3.18672837499344
30
0
41
1
10
101.685309598802
20
3.20339178170985
30
0
41
1
10
101.601876049527
20
3.2383522550353
30
0
41
1
10
101.564270211929
20
3.25665107726218
30
0
41
1
10
101.460255332517
20
3.31315236328029
30
0
41
1
10
101.402303656665
20
3.35310817312541
30
0
41
1
10
101.352230369474
20
3.39349277904
30
0
0
SPLINE
5
1CF
100
AcDbEntity
8
1
62
256
6
ByLayer
370
-1
48
1
60
0
100
AcDbSpline
70
4
71
3
72
48
73
44
40
0
40
0
40
0
40
0
40
0.125
40
0.125
40
0.15625
40
0.15625
40
0.1875
40
0.1875
40
0.25
40
0.25
40
0.28125
40
0.28125
40
0.3125
40
0.3125
40
0.375
40
0.375
40
0.40625
40
0.40625
40
0.4375
40
0.4375
40
0.500000000000001
40
0.500000000000001
40
0.531250000000001
40
0.531250000000001
40
0.562500000000001
40
0.562500000000001
40
0.625000000000001
40
0.625000000000001
40
0.656250000000001
40
0.656250000000001
40
0.687500000000001
40
0.687500000000001
40
0.750000000000001
40
0.750000000000001
40
0.812500000000001
40
0.812500000000001
40
0.875
40
0.875
40
0.9375
40
0.9375
40
0.96875
40
0.96875
40
1
40
1
40
1
40
1
41
1
10
11.4811576368158
20
9.9940880549984
30
0
41
1
10
11.089850438116
20
10.2553358660458
30
0
41
1
10
10.6731004676117
20
10.4582028533589
30
0
41
1
10
10.1241020894479
20
10.62778422745
30
0
41
1
10
10.0124140947392
20
10.6575531421584
30
0
41
1
10
9.78868372578822
20
10.7075713755757
30
0
41
1
10
9.67694204522135
20
10.7277999174556
30
0
41
1
10
9.34239189567359
20
10.7742811266673
30
0
41
1
10
9.120257260431
20
10.7863967733801
30
0
41
1
10
8.78957895845539
20
10.7757201565095
30
0
41
1
10
8.67977330021654
20
10.7673372462787
30
0
41
1
10
8.46120888345152
20
10.7406065614134
30
0
41
1
10
8.3519744512015
20
10.7221217978488
30
0
41
1
10
8.03222551359414
20
10.6524780881154
30
0
41
1
10
7.82818622847032
20
10.5872257358449
30
0
41
1
10
7.53636170309525
20
10.462047868465
30
0
41
1
10
7.44146657810197
20
10.4157507327709
30
0
41
1
10
7.25662920152945
20
10.3139077717641
30
0
41
1
10
7.16634931815028
20
10.2581240929047
30
0
41
1
10
6.90573984529152
20
10.0781330974831
30
0
41
1
10
6.74755228919693
20
9.94295907774367
30
0
41
1
10
6.53291693226768
20
9.71872858635615
30
0
41
1
10
6.46516261726697
20
9.64038698708859
30
0
41
1
10
6.33731643339047
20
9.47649949778787
30
0
41
1
10
6.27703064584728
20
9.39063859963471
30
0
41
1
10
6.10935038984604
20
9.1242247016489
30
0
41
1
10
6.01619783183389
20
8.937029746604
30
0
41
1
10
5.90282184155851
20
8.64276164683042
30
0
41
1
10
5.86944295228756
20
8.54241369956389
30
0
41
1
10
5.81147627021909
20
8.33721297636544
30
0
41
1
10
5.78682684797516
20
8.23201300806309
30
0
41
1
10
5.72666809195371
20
7.91199487994524
30
0
41
1
10
5.7051300044684
20
7.69494373903615
30
0
41
1
10
5.69648927193794
20
7.25377592079343
30
0
41
1
10
5.70940799121516
20
7.02962746832526
30
0
41
1
10
5.76923367423376
20
6.57417272889754
30
0
41
1
10
5.81546275635122
20
6.34790835427563
30
0
41
1
10
5.93777177665277
20
5.89777160498536
30
0
41
1
10
6.01387029162717
20
5.67390245051502
30
0
41
1
10
6.14967883812233
20
5.33957402381768
30
0
41
1
10
6.19871116077584
20
5.22812187117466
30
0
41
1
10
6.30263710176266
20
5.00844010518017
30
0
41
1
10
6.35763720437419
20
4.89990625931119
30
0
41
1
10
6.41553409603367
20
4.79260266127497
30
0
0
SPLINE
5
1D0
100
AcDbEntity
8
1
62
256
6
ByLayer
370
-1
48
1
60
0
100
AcDbSpline
70
4
71
3
72
10
73
6
40
0
40
0
40
0
40
0
40
0.55867873110904
40
0.55867873110904
40
1
40
1
40
1
40
1
41
1
10
63.5
20
-9.80304074392637
30
0
41
1
10
65.70633211987
20
-9.56920814602208
30
0
41
1
10
67.9090364023164
20
-9.28624589076895
30
0
41
1
10
71.8495999481428
20
-8.6998916755814
30
0
41
1
10
73.5879125116066
20
-8.41331958334138
30
0
41
1
10
75.3265234976159
20
-8.10123271419516
30
0
0
SPLINE
5
1D1
100
AcDbEntity
8
1
62
256
6
ByLayer
370
-1
48
1
60
0
100
AcDbSpline
70
4
71
3
72
8
73
4
40
0
40
0
40
0
40
0
40
1
40
1
40
1
40
1
41
1
10
7.65177469243699
20
0.87589657187425
30
0
41
1
10
7.85132852438858
20
0.617686380236762
30
0
41
1
10
8.05659240452223
20
0.368876602381789
30
0
41
1
10
8.26700880235754
20
0.128367263786828
30
0
0
SPLINE
5
1D2
100
AcDbEntity
8
1
62
256
6
ByLayer
370
-1
48
1
60
0
100
AcDbSpline
70
4
71
3
72
77
73
73
40
0
40
0
40
0
40
0
40
0.125
40
0.25
40
0.375
40
0.40625
40
0.421875
40
0.423828125
40
0.42578125
40
0.427734375
40
0.4296875
40
0.43359375
40
0.435546875
40
0.4375
40
0.44140625
40
0.4453125
40
0.447265625
40
0.44921875
40
0.4501953125
40
0.451171875
40
0.453125
40
0.4609375
40
0.46875
40
0.47265625
40
0.474609375
40
0.47607421875
40
0.4765625
40
0.4775390625
40
0.478515625
40
0.4794921875
40
0.48046875
40
0.482421875
40
0.484375
40
0.4921875
40
0.5
40
0.5078125
40
0.515625
40
0.517578125
40
0.51953125
40
0.5205078125
40
0.521484375
40
0.5224609375
40
0.5234375
40
0.52392578125
40
0.525390625
40
0.52734375
40
0.53125
40
0.5390625
40
0.54296875
40
0.546875
40
0.5478515625
40
0.548828125
40
0.5498046875
40
0.55078125
40
0.552734375
40
0.5546875
40
0.55859375
40
0.560546875
40
0.5625
40
0.5634765625
40
0.564453125
40
0.56640625
40
0.568359375
40
0.5703125
40
0.572265625
40
0.57421875
40
0.578125
40
0.59375
40
0.625
40
0.75
40
0.875
40
1
40
1
40
1
40
1
41
1
10
104.917469891257
20
9.97374375070436
30
0
41
1
10
105.140482715333
20
9.98156127817981
30
0
41
1
10
105.586508363483
20
9.99719633313072
30
0
41
1
10
106.255546835709
20
10.0206489155571
30
0
41
1
10
106.757325689879
20
10.0382383523769
30
0
41
1
10
107.063968322982
20
10.0489874526556
30
0
41
1
10
107.151082707387
20
10.0520411743257
30
0
41
1
10
107.185928461149
20
10.0532626629938
30
0
41
1
10
107.196382187277
20
10.0536291095942
30
0
41
1
10
107.206835913406
20
10.0539955561946
30
0
41
1
10
107.22077421491
20
10.0544841516618
30
0
41
1
10
107.234712516415
20
10.054972747129
30
0
41
1
10
107.24865081792
20
10.0554613425963
30
0
41
1
10
107.262589119424
20
10.0559499380635
30
0
41
1
10
107.280011996305
20
10.0565606823975
30
0
41
1
10
107.297434682667
20
10.0571719261966
30
0
41
1
10
107.311372603132
20
10.057661520594
30
0
41
1
10
107.320083684348
20
10.0579678292581
30
0
41
1
10
107.327052463587
20
10.0582131009486
30
0
41
1
10
107.334021180907
20
10.0584585349653
30
0
41
1
10
107.353184878474
20
10.0591341996139
30
0
41
1
10
107.384541941635
20
10.0602443278611
30
0
41
1
10
107.419391353374
20
10.0614562267994
30
0
41
1
10
107.443796183931
20
10.0622777048129
30
0
41
1
10
107.456864027462
20
10.0627339649891
30
0
41
1
10
107.463827462624
20
10.0629932466754
30
0
41
1
10
107.469046095238
20
10.0631980468676
30
0
41
1
10
107.473392212266
20
10.0633759059917
30
0
41
1
10
107.478468251572
20
10.0635286880318
30
0
41
1
10
107.483270078198
20
10.0635486645789
30
0
41
1
10
107.48956332384
20
10.0633788406772
30
0
41
1
10
107.497705950625
20
10.0627618521656
30
0
41
1
10
107.517739986308
20
10.059907009326
30
0
41
1
10
107.548166188541
20
10.0501757205904
30
0
41
1
10
107.58497442379
20
10.0248679599062
30
0
41
1
10
107.612692079658
20
9.98977450883163
30
0
41
1
10
107.624485147753
20
9.95998530364869
30
0
41
1
10
107.628719702947
20
9.94012287329306
30
0
41
1
10
107.629900847329
20
9.93201209273582
30
0
41
1
10
107.630508607515
20
9.92572204282251
30
0
41
1
10
107.630823713955
20
9.9209122221948
30
0
41
1
10
107.631025970652
20
9.91581854791536
30
0
41
1
10
107.631152389741
20
9.91145404996408
30
0
41
1
10
107.631312899269
20
9.9062139577681
30
0
41
1
10
107.631540978104
20
9.89922286421154
30
0
41
1
10
107.631999128017
20
9.88610523074513
30
0
41
1
10
107.632885164362
20
9.86160955031733
30
0
41
1
10
107.633866464897
20
9.83362406796479
30
0
41
1
10
107.634834555501
20
9.80564262759387
30
0
41
1
10
107.63537754696
20
9.78990354456363
30
0
41
1
10
107.63574030573
20
9.77941058863249
30
0
41
1
10
107.635921828451
20
9.7741640668086
30
0
41
1
10
107.636103484954
20
9.76891750405031
30
0
41
1
10
107.636345859258
20
9.76192203635853
30
0
41
1
10
107.636649113813
20
9.75317761402718
30
0
41
1
10
107.637134830742
20
9.73918638235639
30
0
41
1
10
107.637621159242
20
9.72519496355685
30
0
41
1
10
107.638107793527
20
9.71120345119289
30
0
41
1
10
107.638412003661
20
9.70245873647283
30
0
41
1
10
107.638655371768
20
9.69546296469679
30
0
41
1
10
107.638898739875
20
9.68846719292074
30
0
41
1
10
107.639202950009
20
9.67972247820069
30
0
41
1
10
107.639568002169
20
9.66922882053663
30
0
41
1
10
107.63993305433
20
9.65873516287257
30
0
41
1
10
107.64029810649
20
9.64824150520849
30
0
41
1
10
107.640784842704
20
9.63424996165642
30
0
41
1
10
107.642123367292
20
9.59577321688818
30
0
41
1
10
107.645287152683
20
9.50482818379962
30
0
41
1
10
107.65599534939
20
9.19701422565376
30
0
41
1
10
107.673517853092
20
8.69331865777866
30
0
41
1
10
107.696881191362
20
8.02172456727857
30
0
41
1
10
107.712456750209
20
7.57399517361185
30
0
41
1
10
107.720244529632
20
7.35013047677848
30
0
0
SPLINE
5
1D3
100
AcDbEntity
8
1
62
256
6
ByLayer
370
-1
48
1
60
0
100
AcDbSpline
70
4
71
3
72
14
73
10
40
0
40
0
40
0
40
0
40
0.0128443058606144
40
0.0848398580568392
40
0.228830962449289
40
0.372822066841738
40
0.660804275626638
40
0.948786484411537
40
1
40
1
40
1
40
1
41
1
10
102.004305006942
20
3.52804201449479
30
0
41
1
10
102.004692003519
20
3.52801994470968
30
0
41
1
10
102.007251950677
20
3.52787529778269
30
0
41
1
10
102.014226761606
20
3.52750185834546
30
0
41
1
10
102.025558293416
20
3.52690452487639
30
0
41
1
10
102.04399822181
20
3.52594029117188
30
0
41
1
10
102.0667713061
20
3.52474260238995
30
0
41
1
10
102.086530067126
20
3.52368609155272
30
0
41
1
10
102.09724948783
20
3.52314475078148
30
0
41
1
10
102.098868460955
20
3.52306492097148
30
0
0
SPLINE
5
1D4
100
AcDbEntity
8
1
62
256
6
ByLayer
370
-1
48
1
60
0
100
AcDbSpline
70
4
71
3
72
8
73
4
40
0
40
0
40
0
40
0
40
1
40
1
40
1
40
1
41
1
10
101.915968455236
20
10.7784873035494
30
0
41
1
10
101.927971752883
20
10.778952021448
30
0
41
1
10
101.939975893756
20
10.7793947927939
30
0
41
1
10
101.951980798205
20
10.7798156146491
30
0
0
SPLINE
5
1D5
100
AcDbEntity
8
1
62
256
6
ByLayer
370
-1
48
1
60
0
100
AcDbSpline
70
4
71
3
72
15
73
11
40
0
40
0
40
0
40
0
40
0.0512135155737919
40
0.195204619948453
40
0.339195724323114
40
0.627177933072436
40
0.771169037447097
40
0.915160141821758
40
0.987155694009088
40
1
40
1
40
1
40
1
41
1
10
101.524460175569
20
4.06075538725301
30
0
41
1
10
101.524652441737
20
4.05913975736115
30
0
41
1
10
101.525392361823
20
4.0529840624007
30
0
41
1
10
101.526693926423
20
4.04230807646542
30
0
41
1
10
101.528922145019
20
4.02418697309255
30
0
41
1
10
101.53114518091
20
4.00601030010421
30
0
41
1
10
101.533389709908
20
3.98761228604357
30
0
41
1
10
101.534773768507
20
3.9763068459807
30
0
41
1
10
101.535631418892
20
3.9693484974095
30
0
41
1
10
101.535953737269
20
3.96679512144789
30
0
41
1
10
101.536002665033
20
3.96640913241853
30
0
0
SPLINE
5
1D6
100
AcDbEntity
8
1
62
256
6
ByLayer
370
-1
48
1
60
0
100
AcDbSpline
70
4
71
3
72
14
73
10
40
0
40
0
40
0
40
0
40
0.0868146872094819
40
0.283438438146052
40
0.480062189082622
40
0.676685940019192
40
0.873309690955762
40
0.971621566424047
40
1
40
1
40
1
40
1
41
1
10
108.538870274635
20
10.3800627623532
30
0
41
1
10
108.53879312413
20
10.3820812510937
30
0
41
1
10
108.538531707348
20
10.3886708830299
30
0
41
1
10
108.538004164483
20
10.399828092308
30
0
41
1
10
108.537087570116
20
10.4135267023611
30
0
41
1
10
108.535909051913
20
10.4272053628763
30
0
41
1
10
108.534714065139
20
10.4385799064724
30
0
41
1
10
108.53384841244
20
10.4460551333415
30
0
41
1
10
108.533501471881
20
10.4489824483275
30
0
41
1
10
108.533423451802
20
10.4496380580663
30
0
0
SPLINE
5
1D7
100
AcDbEntity
8
1
62
256
6
ByLayer
370
-1
48
1
60
0
100
AcDbSpline
70
4
71
3
72
14
73
10
40
0
40
0
40
0
40
0
40
0.0128443058601493
40
0.0848398580564051
40
0.228830962448916
40
0.372822066841428
40
0.660804275626451
40
0.948786484411474
40
1
40
1
40
1
40
1
41
1
10
108.053578620429
20
10.9823514308245
30
0
41
1
10
108.053191623852
20
10.9823735006096
30
0
41
1
10
108.050631676694
20
10.9825181475366
30
0
41
1
10
108.043656865765
20
10.9828915869738
30
0
41
1
10
108.032325333955
20
10.9834889204429
30
0
41
1
10
108.013885405561
20
10.9844531541474
30
0
41
1
10
107.991112321271
20
10.9856508429293
30
0
41
1
10
107.971353560245
20
10.9867073537665
30
0
41
1
10
107.960634139541
20
10.9872486945378
30
0
41
1
10
107.959015166416
20
10.9873285243478
30
0
0
SPLINE
5
1D8
100
AcDbEntity
8
1
62
256
6
ByLayer
370
-1
48
1
60
0
100
AcDbSpline
70
4
71
3
72
12
73
8
40
0
40
0
40
0
40
0
40
0.296401916752159
40
0.592803833504318
40
0.889205750256477
40
0.963306229444517
40
1
40
1
40
1
40
1
41
1
10
104.902729455143
20
10.8832516336065
30
0
41
1
10
104.611193608521
20
10.8730320890556
30
0
41
1
10
104.028121915277
20
10.8525929999539
30
0
41
1
10
103.153513856674
20
10.8219382629454
30
0
41
1
10
102.497560017357
20
10.7989306494518
30
0
41
1
10
102.097046577599
20
10.7849080991804
30
0
41
1
10
101.988073257123
20
10.78107299816
30
0
41
1
10
101.951980776928
20
10.7798162303597
30
0
0
SPLINE
5
1D9
100
AcDbEntity
8
1
62
256
6
ByLayer
370
-1
48
1
60
0
100
AcDbSpline
70
4
71
3
72
12
73
8
40
0
40
0
40
0
40
0
40
0.126690309034521
40
0.32331405997365
40
0.716561561851908
40
0.913185312791037
40
1
40
1
40
1
40
1
41
1
10
108.746871727107
20
4.31393096573152
30
0
41
1
10
108.747015795202
20
4.316875074873
30
0
41
1
10
108.74736756657
20
4.324392652754
30
0
41
1
10
108.747953060184
20
4.34105526991345
30
0
41
1
10
108.748081948886
20
4.35936658667933
30
0
41
1
10
108.747730867453
20
4.37510732282433
30
0
41
1
10
108.74753372713
20
4.38169920791793
30
0
41
1
10
108.74747042284
20
4.3837181820258
30
0
0
SPLINE
5
1DA
100
AcDbEntity
8
1
62
256
6
ByLayer
370
-1
48
1
60
0
100
AcDbSpline
70
4
71
3
72
12
73
8
40
0
40
0
40
0
40
0
40
0.29640191675216
40
0.59280383350432
40
0.88920575025648
40
0.96330622944452
40
1
40
1
40
1
40
1
41
1
10
101.414692747015
20
7.12850225341106
30
0
41
1
10
101.424873403113
20
6.83585278721716
30
0
41
1
10
101.44523471531
20
6.25055385482935
30
0
41
1
10
101.475772801789
20
5.37260493552864
30
0
41
1
10
101.498692864367
20
4.71414545910886
30
0
41
1
10
101.512662054601
20
4.31210212307695
30
0
41
1
10
101.516482561904
20
4.20271254221998
30
0
41
1
10
101.517734547324
20
4.16648219461496
30
0
0
SPLINE
5
1DB
100
AcDbEntity
8
1
62
256
6
ByLayer
370
-1
48
1
60
0
100
AcDbSpline
70
4
71
3
72
14
73
10
40
0
40
0
40
0
40
0
40
0.0128443058604711
40
0.0848398580566953
40
0.228830962449144
40
0.372822066841592
40
0.660804275626489
40
0.948786484411386
40
1
40
1
40
1
40
1
41
1
10
108.741913572927
20
4.21900629468669
30
0
41
1
10
108.74193555873
20
4.21939476952767
30
0
41
1
10
108.742079655232
20
4.22196449526766
30
0
41
1
10
108.742451673619
20
4.22896594884216
30
0
41
1
10
108.743046734054
20
4.2403407652626
30
0
41
1
10
108.744007298558
20
4.25885113118738
30
0
41
1
10
108.745200429773
20
4.28171120495963
30
0
41
1
10
108.746252920267
20
4.30154544124255
30
0
41
1
10
108.746792201073
20
4.31230580839176
30
0
41
1
10
108.746871727107
20
4.31393096573152
30
0
0
SPLINE
5
1DC
100
AcDbEntity
8
1
62
256
6
ByLayer
370
-1
48
1
60
0
100
AcDbSpline
70
4
71
3
72
14
73
10
40
0
40
0
40
0
40
0
40
0.0868146872098435
40
0.283438438146321
40
0.480062189082799
40
0.676685940019276
40
0.873309690955754
40
0.971621566423993
40
1
40
1
40
1
40
1
41
1
10
108.141916794675
20
3.73186090520053
30
0
41
1
10
108.143927602457
20
3.73193835040757
30
0
41
1
10
108.150492158854
20
3.73220076575919
30
0
41
1
10
108.161606911582
20
3.73273032375241
30
0
41
1
10
108.175253394288
20
3.73365041936154
30
0
41
1
10
108.188880003371
20
3.73483343931241
30
0
41
1
10
108.200211263394
20
3.73603299074168
30
0
41
1
10
108.207658044768
20
3.73690195009294
30
0
41
1
10
108.210574220437
20
3.73725021590849
30
0
41
1
10
108.211227335383
20
3.73732853401188
30
0
0
SPLINE
5
1DD
100
AcDbEntity
8
1
62
256
6
ByLayer
370
-1
48
1
60
0
100
AcDbSpline
70
4
71
3
72
12
73
8
40
0
40
0
40
0
40
0
40
0.0366937705554795
40
0.11079424974352
40
0.40719616649568
40
0.70359808324784
40
1
40
1
40
1
40
1
41
1
10
101.31164971998
20
10.0905222692053
30
0
41
1
10
101.312918468481
20
10.0542925092161
30
0
41
1
10
101.31670886231
20
9.94490187275653
30
0
41
1
10
101.330712105566
20
9.54285973042474
30
0
41
1
10
101.353604901878
20
8.88439929820888
30
0
41
1
10
101.384150778719
20
8.00645065199276
30
0
41
1
10
101.404512090916
20
7.42115171960495
30
0
41
1
10
101.414692747015
20
7.12850225341106
30
0
0
SPLINE
5
1DE
100
AcDbEntity
8
1
62
256
6
ByLayer
370
-1
48
1
60
0
100
AcDbSpline
70
4
71
3
72
77
73
73
40
0
40
0
40
0
40
0
40
0.125
40
0.25
40
0.375
40
0.40625
40
0.421875
40
0.423828125
40
0.42578125
40
0.427734375
40
0.4296875
40
0.43359375
40
0.435546875
40
0.4375
40
0.44140625
40
0.4453125
40
0.447265625
40
0.44921875
40
0.4501953125
40
0.451171875
40
0.453125
40
0.4609375
40
0.46875
40
0.47265625
40
0.474609375
40
0.47607421875
40
0.4765625
40
0.4775390625
40
0.478515625
40
0.4794921875
40
0.48046875
40
0.482421875
40
0.484375
40
0.4921875
40
0.5
40
0.5078125
40
0.515625
40
0.517578125
40
0.51953125
40
0.5205078125
40
0.521484375
40
0.5224609375
40
0.5234375
40
0.52392578125
40
0.525390625
40
0.52734375
40
0.53125
40
0.5390625
40
0.54296875
40
0.546875
40
0.5478515625
40
0.548828125
40
0.5498046875
40
0.55078125
40
0.552734375
40
0.5546875
40
0.55859375
40
0.560546875
40
0.5625
40
0.5634765625
40
0.564453125
40
0.56640625
40
0.568359375
40
0.5703125
40
0.572265625
40
0.57421875
40
0.578125
40
0.59375
40
0.625
40
0.75
40
0.875
40
1
40
1
40
1
40
1
41
1
10
105.106614896304
20
4.53664969461494
30
0
41
1
10
104.883602072228
20
4.52883216713948
30
0
41
1
10
104.437576424078
20
4.51319711218855
30
0
41
1
10
103.768537951852
20
4.48974452976216
30
0
41
1
10
103.266759097682
20
4.47215509294239
30
0
41
1
10
102.960116464579
20
4.46140599266363
30
0
41
1
10
102.873002080174
20
4.45835227099354
30
0
41
1
10
102.838156326413
20
4.45713078232549
30
0
41
1
10
102.827702600284
20
4.4567643357251
30
0
41
1
10
102.817248874155
20
4.45639788912467
30
0
41
1
10
102.803310572651
20
4.45590929365747
30
0
41
1
10
102.789372271146
20
4.45542069819024
30
0
41
1
10
102.775433969641
20
4.45493210272303
30
0
41
1
10
102.761495668137
20
4.4544435072558
30
0
41
1
10
102.744072791256
20
4.45383276292179
30
0
41
1
10
102.726650104895
20
4.45322151912268
30
0
41
1
10
102.712712184429
20
4.45273192472527
30
0
41
1
10
102.704001103213
20
4.45242561606122
30
0
41
1
10
102.697032323974
20
4.4521803443707
30
0
41
1
10
102.690063606654
20
4.451934910354
30
0
41
1
10
102.670899909087
20
4.45125924570539
30
0
41
1
10
102.639542845926
20
4.45014911745818
30
0
41
1
10
102.604693434187
20
4.44893721851989
30
0
41
1
10
102.58028860363
20
4.44811574050635
30
0
41
1
10
102.567220760099
20
4.44765948033017
30
0
41
1
10
102.560257324937
20
4.44740019864383
30
0
41
1
10
102.555038692324
20
4.4471953984517
30
0
41
1
10
102.550692575296
20
4.44701753932762
30
0
41
1
10
102.545616535989
20
4.44686475728744
30
0
41
1
10
102.540814709364
20
4.44684478074035
30
0
41
1
10
102.534521463721
20
4.44701460464213
30
0
41
1
10
102.526378836937
20
4.44763159315369
30
0
41
1
10
102.506344801254
20
4.45048643599327
30
0
41
1
10
102.47591859902
20
4.46021772472884
30
0
41
1
10
102.439110363771
20
4.48552548541306
30
0
41
1
10
102.411392707904
20
4.52061893648764
30
0
41
1
10
102.399599639808
20
4.55040814167057
30
0
41
1
10
102.395365084614
20
4.57027057202623
30
0
41
1
10
102.394183940232
20
4.57838135258348
30
0
41
1
10
102.393576180046
20
4.58467140249678
30
0
41
1
10
102.393261073606
20
4.58948122312447
30
0
41
1
10
102.393058816909
20
4.5945748974039
30
0
41
1
10
102.39293239782
20
4.59893939535519
30
0
41
1
10
102.392771888292
20
4.60417948755116
30
0
41
1
10
102.392543809457
20
4.61117058110773
30
0
41
1
10
102.392085659544
20
4.62428821457414
30
0
41
1
10
102.391199623199
20
4.64878389500194
30
0
41
1
10
102.390218322664
20
4.67676937735448
30
0
41
1
10
102.38925023206
20
4.7047508177254
30
0
41
1
10
102.388707240601
20
4.72048990075564
30
0
41
1
10
102.388344481831
20
4.73098285668678
30
0
41
1
10
102.38816295911
20
4.73622937851067
30
0
41
1
10
102.387981302607
20
4.74147594126896
30
0
41
1
10
102.387738928303
20
4.74847140896074
30
0
41
1
10
102.387435673748
20
4.75721583129209
30
0
41
1
10
102.386949956819
20
4.77120706296287
30
0
41
1
10
102.386463628319
20
4.78519848176242
30
0
41
1
10
102.385976994034
20
4.79918999412638
30
0
41
1
10
102.3856727839
20
4.80793470884643
30
0
41
1
10
102.385429415793
20
4.81493048062248
30
0
41
1
10
102.385186047686
20
4.82192625239853
30
0
41
1
10
102.384881837552
20
4.83067096711858
30
0
41
1
10
102.384516785392
20
4.84116462478264
30
0
41
1
10
102.384151733232
20
4.85165828244672
30
0
41
1
10
102.383786681071
20
4.86215194011078
30
0
41
1
10
102.383299944857
20
4.87614348366284
30
0
41
1
10
102.381961420269
20
4.91462022843109
30
0
41
1
10
102.378797634878
20
5.00556526151965
30
0
41
1
10
102.368089438171
20
5.31337921966553
30
0
41
1
10
102.350566934469
20
5.81707478754061
30
0
41
1
10
102.327203596199
20
6.4886688780407
30
0
41
1
10
102.311628037353
20
6.93639827170745
30
0
41
1
10
102.303840257929
20
7.16026296854079
30
0
0
SPLINE
5
1DF
100
AcDbEntity
8
1
62
256
6
ByLayer
370
-1
48
1
60
0
100
AcDbSpline
70
4
71
3
72
8
73
4
40
0
40
0
40
0
40
0
40
1
40
1
40
1
40
1
41
1
10
108.141915172135
20
3.73190614176985
30
0
41
1
10
108.129911874488
20
3.73144142387125
30
0
41
1
10
108.117907733615
20
3.73099865252542
30
0
41
1
10
108.105902829166
20
3.73057783067014
30
0
0
SPLINE
5
1E0
100
AcDbEntity
8
1
62
256
6
ByLayer
370
-1
48
1
60
0
100
AcDbSpline
70
4
71
3
72
8
73
4
40
0
40
0
40
0
40
0
40
1
40
1
40
1
40
1
41
1
10
108.746233294033
20
4.41987115447006
30
0
41
1
10
108.746652513192
20
4.40782043184046
30
0
41
1
10
108.747049866523
20
4.39576894272273
30
0
41
1
10
108.747425351393
20
4.38371676707925
30
0
0
SPLINE
5
1E1
100
AcDbEntity
8
1
62
256
6
ByLayer
370
-1
48
1
60
0
100
AcDbSpline
70
4
71
3
72
12
73
8
40
0
40
0
40
0
40
0
40
0.126690309034382
40
0.323314059973583
40
0.716561561851984
40
0.913185312791184
40
1
40
1
40
1
40
1
41
1
10
102.098868460955
20
3.52306492097148
30
0
41
1
10
102.101801366872
20
3.52292030255973
30
0
41
1
10
102.1092903381
20
3.52256718748208
30
0
41
1
10
102.12588954897
20
3.52197945737817
30
0
41
1
10
102.144131185648
20
3.52185007634131
30
0
41
1
10
102.159812023539
20
3.52220249884925
30
0
41
1
10
102.16637882452
20
3.52240039221539
30
0
41
1
10
102.168390115822
20
3.52246393831783
30
0
0
SPLINE
5
1E2
100
AcDbEntity
8
1
62
256
6
ByLayer
370
-1
48
1
60
0
100
AcDbSpline
70
4
71
3
72
15
73
11
40
0
40
0
40
0
40
0
40
0.0512135155737936
40
0.195204619948459
40
0.339195724323125
40
0.627177933072456
40
0.771169037447122
40
0.915160141821788
40
0.987155694009121
40
1
40
1
40
1
40
1
41
1
10
101.846656291988
20
10.7730649113074
30
0
41
1
10
101.845046810056
20
10.7728719107135
30
0
41
1
10
101.838914539373
20
10.7721291642536
30
0
41
1
10
101.828279178788
20
10.770822627888
30
0
41
1
10
101.810227031684
20
10.7685858978587
30
0
41
1
10
101.792119526424
20
10.7663543703322
30
0
41
1
10
101.773791522362
20
10.7641012675979
30
0
41
1
10
101.762529102911
20
10.7627119221201
30
0
41
1
10
101.755597232957
20
10.7618509956497
30
0
41
1
10
101.753053573362
20
10.7615274460687
30
0
41
1
10
101.752669053137
20
10.7614783314089
30
0
0
SPLINE
5
1E3
100
AcDbEntity
8
1
62
256
6
ByLayer
370
-1
48
1
60
0
100
AcDbSpline
70
4
71
3
72
8
73
4
40
0
40
0
40
0
40
0
40
1
40
1
40
1
40
1
41
1
10
102.204405515291
20
3.52370579275552
30
0
41
1
10
102.192400649299
20
3.52328497224835
30
0
41
1
10
102.180395019736
20
3.52288610109116
30
0
41
1
10
102.16838870626
20
3.52250918193047
30
0
0
SPLINE
5
1E4
100
AcDbEntity
8
1
62
256
6
ByLayer
370
-1
48
1
60
0
100
AcDbSpline
70
4
71
3
72
12
73
8
40
0
40
0
40
0
40
0
40
0.296401916752157
40
0.592803833504314
40
0.889205750256471
40
0.963306229444511
40
1
40
1
40
1
40
1
41
1
10
105.155154172228
20
3.62714181171285
30
0
41
1
10
105.44669001885
20
3.63736135626368
30
0
41
1
10
106.029761712094
20
3.65780044536535
30
0
41
1
10
106.904369770697
20
3.68845518237382
30
0
41
1
10
107.560323610014
20
3.71146279586745
30
0
41
1
10
107.960837049772
20
3.7254853461389
30
0
41
1
10
108.069810370248
20
3.72932044715927
30
0
41
1
10
108.105902850443
20
3.73057721495962
30
0
0
SPLINE
5
1E5
100
AcDbEntity
8
1
62
256
6
ByLayer
370
-1
48
1
60
0
100
AcDbSpline
70
4
71
3
72
15
73
11
40
0
40
0
40
0
40
0
40
0.0512135155737919
40
0.195204619948453
40
0.339195724323114
40
0.627177933072436
40
0.771169037447097
40
0.915160141821758
40
0.987155694009088
40
1
40
1
40
1
40
1
41
1
10
108.533423451802
20
10.4496380580663
30
0
41
1
10
108.533231185634
20
10.4512536879581
30
0
41
1
10
108.532491265548
20
10.4574093829186
30
0
41
1
10
108.531189700948
20
10.4680853688539
30
0
41
1
10
108.528961482352
20
10.4862064722267
30
0
41
1
10
108.526738446461
20
10.5043831452151
30
0
41
1
10
108.524493917463
20
10.5227811592757
30
0
41
1
10
108.523109858864
20
10.5340865993386
30
0
41
1
10
108.522252208479
20
10.5410449479098
30
0
41
1
10
108.521929890102
20
10.5435983238714
30
0
41
1
10
108.521880962338
20
10.5439843129007
30
0
0
SPLINE
5
1E6
100
AcDbEntity
8
1
62
256
6
ByLayer
370
-1
48
1
60
0
100
AcDbSpline
70
4
71
3
72
12
73
8
40
0
40
0
40
0
40
0
40
0.29640191675216
40
0.59280383350432
40
0.88920575025648
40
0.96330622944452
40
1
40
1
40
1
40
1
41
1
10
108.643190880356
20
7.38189119190821
30
0
41
1
10
108.633010224258
20
7.6745406581021
30
0
41
1
10
108.612648912061
20
8.25983959048992
30
0
41
1
10
108.582110825582
20
9.13778850979065
30
0
41
1
10
108.559190763004
20
9.7962479862104
30
0
41
1
10
108.54522157277
20
10.1982913222423
30
0
41
1
10
108.541401065466
20
10.3076809030993
30
0
41
1
10
108.540149080047
20
10.3439112507043
30
0
0
SPLINE
5
1E7
100
AcDbEntity
8
1
62
256
6
ByLayer
370
-1
48
1
60
0
100
AcDbSpline
70
4
71
3
72
8
73
4
40
0
40
0
40
0
40
0
40
1
40
1
40
1
40
1
41
1
10
101.311650333338
20
10.0905222908492
30
0
41
1
10
101.31123111418
20
10.1025730134788
30
0
41
1
10
101.310833760848
20
10.1146245025966
30
0
41
1
10
101.310458275978
20
10.12667667824
30
0
0
SPLINE
5
1E8
100
AcDbEntity
8
1
62
256
6
ByLayer
370
-1
48
1
60
0
100
AcDbSpline
70
4
71
3
72
12
73
8
40
0
40
0
40
0
40
0
40
0.126690309034513
40
0.323314059973647
40
0.716561561851917
40
0.913185312791051
40
1
40
1
40
1
40
1
41
1
10
107.959015166416
20
10.9873285243478
30
0
41
1
10
107.956082260499
20
10.9874731427596
30
0
41
1
10
107.948593289271
20
10.9878262578372
30
0
41
1
10
107.931994078401
20
10.9884139879411
30
0
41
1
10
107.913752441723
20
10.988543368978
30
0
41
1
10
107.898071603832
20
10.98819094647
30
0
41
1
10
107.891504802851
20
10.9879930531039
30
0
41
1
10
107.889493511549
20
10.9879295070015
30
0
0
SPLINE
5
1E9
100
AcDbEntity
8
1
62
256
6
ByLayer
370
-1
48
1
60
0
100
AcDbSpline
70
4
71
3
72
14
73
10
40
0
40
0
40
0
40
0
40
0.0128443058604672
40
0.0848398580566923
40
0.228830962449142
40
0.372822066841593
40
0.660804275626493
40
0.948786484411393
40
1
40
1
40
1
40
1
41
1
10
101.315970054444
20
10.2913871506326
30
0
41
1
10
101.315948068641
20
10.2909986757916
30
0
41
1
10
101.315803972139
20
10.2884289500516
30
0
41
1
10
101.315431953752
20
10.2814274964771
30
0
41
1
10
101.314836893317
20
10.2700526800567
30
0
41
1
10
101.313876328813
20
10.2515423141319
30
0
41
1
10
101.312683197598
20
10.2286822403596
30
0
41
1
10
101.311630707104
20
10.2088480040767
30
0
41
1
10
101.311091426298
20
10.1980876369275
30
0
41
1
10
101.311011900264
20
10.1964624795877
30
0
0
SPLINE
5
1EA
100
AcDbEntity
8
1
62
256
6
ByLayer
370
-1
48
1
60
0
100
AcDbSpline
70
4
71
3
72
12
73
8
40
0
40
0
40
0
40
0
40
0.126690309034505
40
0.323314059973636
40
0.716561561851899
40
0.91318531279103
40
1
40
1
40
1
40
1
41
1
10
101.311011900264
20
10.1964624795877
30
0
41
1
10
101.310867832169
20
10.1935183704463
30
0
41
1
10
101.310516060801
20
10.1860007925653
30
0
41
1
10
101.309930567187
20
10.1693381754058
30
0
41
1
10
101.309801678485
20
10.1510268586399
30
0
41
1
10
101.310152759918
20
10.1352861224949
30
0
41
1
10
101.310349900241
20
10.1286942374014
30
0
41
1
10
101.310413204531
20
10.1266752632935
30
0
0
SPLINE
5
1EB
100
AcDbEntity
8
1
62
256
6
ByLayer
370
-1
48
1
60
0
100
AcDbSpline
70
4
71
3
72
12
73
8
40
0
40
0
40
0
40
0
40
0.0366937705554766
40
0.110794249743517
40
0.407196166495678
40
0.703598083247839
40
1
40
1
40
1
40
1
41
1
10
102.204405536853
20
3.52370517705495
30
0
41
1
10
102.240497431667
20
3.52497877196924
30
0
41
1
10
102.349471803729
20
3.52878364448714
30
0
41
1
10
102.749984054329
20
3.54284037785732
30
0
41
1
10
103.405938845806
20
3.56582062093222
30
0
41
1
10
104.280546632363
20
3.59648317806031
30
0
41
1
10
104.863618325607
20
3.61692226716198
30
0
41
1
10
105.155154172229
20
3.62714181171285
30
0
0
SPLINE
5
1EC
100
AcDbEntity
8
1
62
256
6
ByLayer
370
-1
48
1
60
0
100
AcDbSpline
70
4
71
3
72
12
73
8
40
0
40
0
40
0
40
0
40
0.0366937705554794
40
0.110794249743519
40
0.40719616649568
40
0.70359808324784
40
1
40
1
40
1
40
1
41
1
10
108.746233907391
20
4.41987117611396
30
0
41
1
10
108.74496515889
20
4.45610093610321
30
0
41
1
10
108.741174765061
20
4.56549157256273
30
0
41
1
10
108.727171521805
20
4.96753371489453
30
0
41
1
10
108.704278725493
20
5.62599414711039
30
0
41
1
10
108.673732848652
20
6.5039427933265
30
0
41
1
10
108.653371536455
20
7.08924172571432
30
0
41
1
10
108.643190880356
20
7.38189119190821
30
0
0
SPLINE
5
1ED
100
AcDbEntity
8
1
62
256
6
ByLayer
370
-1
48
1
60
0
100
AcDbSpline
70
4
71
3
72
41
73
37
40
0
40
0
40
0
40
0
40
0.0080831369865688
40
0.017921474247017
40
0.0277598115074653
40
0.0671131605492583
40
0.106466509591051
40
0.185173207674637
40
0.22452655671643
40
0.244203231237327
40
0.258960737127999
40
0.263879905758223
40
0.273718243018671
40
0.28355658027912
40
0.293394917539568
40
0.303233254800016
40
0.322909929320913
40
0.342586603841809
40
0.421293301925395
40
0.500000000008982
40
0.578706698092568
40
0.657413396176154
40
0.67709007069705
40
0.696766745217947
40
0.706605082478395
40
0.716443419738843
40
0.726281756999292
40
0.73612009425974
40
0.741039262889964
40
0.755796768780636
40
0.775473443301533
40
0.814826792343326
40
0.893533490426912
40
0.972240188510498
40
0.991916863031394
40
1
40
1
40
1
40
1
41
1
10
108.52188096234
20
10.5439843128889
30
0
41
1
10
108.521655637733
20
10.5457618890516
30
0
41
1
10
108.521149926022
20
10.5496758239054
30
0
41
1
10
108.520322504973
20
10.5556656106192
30
0
41
1
10
108.518421522875
20
10.5683275911991
30
0
41
1
10
108.514894752988
20
10.5873949563873
30
0
41
1
10
108.506709720483
20
10.6214204178748
30
0
41
1
10
108.495660295943
20
10.6555122337288
30
0
41
1
10
108.483341486198
20
10.6849684483281
30
0
41
1
10
108.476040760285
20
10.7005861341495
30
0
41
1
10
108.471930176944
20
10.7088553548324
30
0
41
1
10
108.468754728654
20
10.7150283544426
30
0
41
1
10
108.466050792179
20
10.7201538002488
30
0
41
1
10
108.462713988061
20
10.72627230845
30
0
41
1
10
108.459285390554
20
10.7323567159755
30
0
41
1
10
108.454591918638
20
10.7404210265626
30
0
41
1
10
108.448497030063
20
10.7504057935598
30
0
41
1
10
108.433144133043
20
10.7740300638447
30
0
41
1
10
108.407412638374
20
10.8080701452983
30
0
41
1
10
108.367964898116
20
10.849538154764
30
0
41
1
10
108.324003581287
20
10.8861474570965
30
0
41
1
10
108.28838069868
20
10.9095398057885
30
0
41
1
10
108.263832690468
20
10.9232658608479
30
0
41
1
10
108.253484990425
20
10.9286726252156
30
0
41
1
10
108.245143536427
20
10.9328100108282
30
0
41
1
10
108.238857879948
20
10.9358188944125
30
0
41
1
10
108.232544738492
20
10.9387334796873
30
0
41
1
10
108.227262617299
20
10.9410835999215
30
0
41
1
10
108.220906579636
20
10.9438328064438
30
0
41
1
10
108.21240215279
20
10.9473722084465
30
0
41
1
10
108.196372523212
20
10.9535935351216
30
0
41
1
10
108.166240562487
20
10.9638745164309
30
0
41
1
10
108.122927906037
20
10.9747326264708
30
0
41
1
10
108.084345141335
20
10.9802093744087
30
0
41
1
10
108.061440261811
20
10.9818882884414
30
0
41
1
10
108.055360836627
20
10.9822497939345
30
0
41
1
10
108.053578620441
20
10.9823514308238
30
0
0
SPLINE
5
1EE
100
AcDbEntity
8
1
62
256
6
ByLayer
370
-1
48
1
60
0
100
AcDbSpline
70
4
71
3
72
12
73
8
40
0
40
0
40
0
40
0
40
0.0366937705554898
40
0.110794249743529
40
0.407196166495686
40
0.703598083247843
40
1
40
1
40
1
40
1
41
1
10
107.853478090518
20
10.9866882682643
30
0
41
1
10
107.817386195704
20
10.98541467335
30
0
41
1
10
107.708411823642
20
10.9816098008321
30
0
41
1
10
107.307899573042
20
10.967553067462
30
0
41
1
10
106.651944781565
20
10.9445728243871
30
0
41
1
10
105.777336995008
20
10.913910267259
30
0
41
1
10
105.194265301764
20
10.8934711781573
30
0
41
1
10
104.902729455143
20
10.8832516336065
30
0
0
SPLINE
5
1EF
100
AcDbEntity
8
1
62
256
6
ByLayer
370
-1
48
1
60
0
100
AcDbSpline
70
4
71
3
72
41
73
37
40
0
40
0
40
0
40
0
40
0.0080831369865747
40
0.0179214742470234
40
0.027759811507472
40
0.0671131605492666
40
0.106466509591061
40
0.18517320767465
40
0.224526556716445
40
0.244203231237342
40
0.258960737128015
40
0.263879905758239
40
0.273718243018688
40
0.283556580279137
40
0.293394917539585
40
0.303233254800034
40
0.322909929320931
40
0.342586603841828
40
0.421293301925418
40
0.500000000009007
40
0.578706698092596
40
0.657413396176185
40
0.677090070697082
40
0.696766745217979
40
0.706605082478428
40
0.716443419738877
40
0.726281756999325
40
0.736120094259774
40
0.741039262889998
40
0.755796768780671
40
0.775473443301569
40
0.814826792343363
40
0.893533490426952
40
0.972240188510541
40
0.991916863031439
40
1
40
1
40
1
40
1
41
1
10
108.305214574222
20
3.74891511390882
30
0
41
1
10
108.30698538617
20
3.74914129921928
30
0
41
1
10
108.310884427321
20
3.74964894266688
30
0
41
1
10
108.316851421088
20
3.75047952432911
30
0
41
1
10
108.329465219008
20
3.75238776787037
30
0
41
1
10
108.348460027116
20
3.75592800944506
30
0
41
1
10
108.38235601145
20
3.76414430744484
30
0
41
1
10
108.416318097652
20
3.77523593899124
30
0
41
1
10
108.445662222461
20
3.78760180458792
30
0
41
1
10
108.461220478273
20
3.79493041808809
30
0
41
1
10
108.469458232075
20
3.79905670318934
30
0
41
1
10
108.475607741558
20
3.80224428117671
30
0
41
1
10
108.480713683495
20
3.80495854624996
30
0
41
1
10
108.486808908926
20
3.80830809641733
30
0
41
1
10
108.492870163443
20
3.8117497906095
30
0
41
1
10
108.500903786894
20
3.81646119082595
30
0
41
1
10
108.510850558838
20
3.8225793608853
30
0
41
1
10
108.534384931643
20
3.83799090347779
30
0
41
1
10
108.568295480309
20
3.86382068827552
30
0
41
1
10
108.609605691479
20
3.90341911249266
30
0
41
1
10
108.646075684364
20
3.94754835441077
30
0
41
1
10
108.669379018107
20
3.98330731064175
30
0
41
1
10
108.683052841383
20
4.00794908825782
30
0
41
1
10
108.68843903138
20
4.01833631483359
30
0
41
1
10
108.692560672991
20
4.02670963183087
30
0
41
1
10
108.695558106865
20
4.03301929849599
30
0
41
1
10
108.698461601262
20
4.03935655512706
30
0
41
1
10
108.70080277858
20
4.04465885316526
30
0
41
1
10
108.703541523541
20
4.05103916985874
30
0
41
1
10
108.707067457051
20
4.05957608223406
30
0
41
1
10
108.7132651097
20
4.07566694239293
30
0
41
1
10
108.723506968771
20
4.10591400231272
30
0
41
1
10
108.734323760424
20
4.14939210607372
30
0
41
1
10
108.739779667683
20
4.18812225066912
30
0
41
1
10
108.741452192941
20
4.21111462311208
30
0
41
1
10
108.741812322796
20
4.21721727071255
30
0
41
1
10
108.741913572926
20
4.21900629467473
30
0
0
SPLINE
5
1F0
100
AcDbEntity
8
1
62
256
6
ByLayer
370
-1
48
1
60
0
100
AcDbSpline
70
4
71
3
72
77
73
73
40
0
40
0
40
0
40
0
40
0.125
40
0.25
40
0.375
40
0.40625
40
0.421875
40
0.423828125
40
0.42578125
40
0.427734375
40
0.4296875
40
0.43359375
40
0.435546875
40
0.4375
40
0.44140625
40
0.4453125
40
0.447265625
40
0.44921875
40
0.4501953125
40
0.451171875
40
0.453125
40
0.4609375
40
0.46875
40
0.47265625
40
0.474609375
40
0.47607421875
40
0.4765625
40
0.4775390625
40
0.478515625
40
0.4794921875
40
0.48046875
40
0.482421875
40
0.484375
40
0.4921875
40
0.5
40
0.5078125
40
0.515625
40
0.517578125
40
0.51953125
40
0.5205078125
40
0.521484375
40
0.5224609375
40
0.5234375
40
0.52392578125
40
0.525390625
40
0.52734375
40
0.53125
40
0.5390625
40
0.54296875
40
0.546875
40
0.5478515625
40
0.548828125
40
0.5498046875
40
0.55078125
40
0.552734375
40
0.5546875
40
0.55859375
40
0.560546875
40
0.5625
40
0.5634765625
40
0.564453125
40
0.56640625
40
0.568359375
40
0.5703125
40
0.572265625
40
0.57421875
40
0.578125
40
0.59375
40
0.625
40
0.75
40
0.875
40
1
40
1
40
1
40
1
41
1
10
102.303840257929
20
7.16026296854079
30
0
41
1
10
102.296052478506
20
7.38412766537417
30
0
41
1
10
102.28047691966
20
7.83185705904091
30
0
41
1
10
102.25711358139
20
8.50345114954101
30
0
41
1
10
102.239591077688
20
9.00714671741608
30
0
41
1
10
102.228882880981
20
9.31496067556196
30
0
41
1
10
102.225840779644
20
9.40240782276248
30
0
41
1
10
102.224623939109
20
9.43738668164272
30
0
41
1
10
102.224258886948
20
9.44788033930678
30
0
41
1
10
102.223893834788
20
9.45837399697083
30
0
41
1
10
102.223407098574
20
9.47236554052293
30
0
41
1
10
102.22292036236
20
9.486357084075
30
0
41
1
10
102.222433626146
20
9.50034862762709
30
0
41
1
10
102.221946889932
20
9.51434017117919
30
0
41
1
10
102.221338469664
20
9.53182960061929
30
0
41
1
10
102.220729551833
20
9.54931883881196
30
0
41
1
10
102.22024182049
20
9.56330999986915
30
0
41
1
10
102.219936677422
20
9.57205435600025
30
0
41
1
10
102.219692339065
20
9.57904975484379
30
0
41
1
10
102.219447838999
20
9.5860450915319
30
0
41
1
10
102.218774745458
20
9.6052819913107
30
0
41
1
10
102.217668841584
20
9.63675883335816
30
0
41
1
10
102.216461554287
20
9.67174136418924
30
0
41
1
10
102.215643202245
20
9.6962394172335
30
0
41
1
10
102.215188678277
20
9.70935717780438
30
0
41
1
10
102.214930383236
20
9.71634721215716
30
0
41
1
10
102.21472636237
20
9.72158577909968
30
0
41
1
10
102.214549180054
20
9.72594849758863
30
0
41
1
10
102.214396979395
20
9.73104392654051
30
0
41
1
10
102.214377078865
20
9.73586409536372
30
0
41
1
10
102.214546256535
20
9.7421813801819
30
0
41
1
10
102.215160897219
20
9.75035511047824
30
0
41
1
10
102.21800487652
20
9.77046567292282
30
0
41
1
10
102.227699134764
20
9.80100809830611
30
0
41
1
10
102.252910591778
20
9.83795693503362
30
0
41
1
10
102.287870501676
20
9.86578046784382
30
0
41
1
10
102.31754634994
20
9.87761858354347
30
0
41
1
10
102.337333197752
20
9.8818693140505
30
0
41
1
10
102.34541311434
20
9.88305497021187
30
0
41
1
10
102.351679228715
20
9.88366505194372
30
0
41
1
10
102.356470746523
20
9.88398136203847
30
0
41
1
10
102.361545037834
20
9.88418439132354
30
0
41
1
10
102.365892927552
20
9.88431129331306
30
0
41
1
10
102.371113079616
20
9.88447241596131
30
0
41
1
10
102.378077569951
20
9.88470136601993
30
0
41
1
10
102.391145286861
20
9.88516126599146
30
0
41
1
10
102.41554775383
20
9.88605068685104
30
0
41
1
10
102.443426742973
20
9.88703573579505
30
0
41
1
10
102.471301705515
20
9.8880075243479
30
0
41
1
10
102.486980896583
20
9.88855258994602
30
0
41
1
10
102.497433923649
20
9.88891673439517
30
0
41
1
10
102.502660480873
20
9.88909895050421
30
0
41
1
10
102.507887078876
20
9.88928130090542
30
0
41
1
10
102.514855926701
20
9.88952460104014
30
0
41
1
10
102.523567073866
20
9.88982901397748
30
0
41
1
10
102.537505064676
20
9.89031658626635
30
0
41
1
10
102.551443241903
20
9.89080477246225
30
0
41
1
10
102.565381512338
20
9.89129326561161
30
0
41
1
10
102.574092950779
20
9.89159863777863
30
0
41
1
10
102.581062101531
20
9.89184293551224
30
0
41
1
10
102.588031252283
20
9.89208723324583
30
0
41
1
10
102.596742690724
20
9.89239260541285
30
0
41
1
10
102.607196416852
20
9.89275905201328
30
0
41
1
10
102.617650142981
20
9.89312549861367
30
0
41
1
10
102.628103869109
20
9.89349194521409
30
0
41
1
10
102.642042170614
20
9.8939805406813
30
0
41
1
10
102.680372499752
20
9.89532417821616
30
0
41
1
10
102.770971459533
20
9.89850004875305
30
0
41
1
10
103.077614092636
20
9.90924914903181
30
0
41
1
10
103.579392946805
20
9.92683858585158
30
0
41
1
10
104.248431419032
20
9.95029116827797
30
0
41
1
10
104.694457067182
20
9.96592622322888
30
0
41
1
10
104.917469891257
20
9.97374375070436
30
0
0
SPLINE
5
1F1
100
AcDbEntity
8
1
62
256
6
ByLayer
370
-1
48
1
60
0
100
AcDbSpline
70
4
71
3
72
36
73
32
40
0
40
0
40
0
40
0
40
0.015625
40
0.0234375
40
0.03125
40
0.03515625
40
0.0390625
40
0.046875
40
0.0625
40
0.125
40
0.1875
40
0.203125
40
0.21875
40
0.25
40
0.3125
40
0.375
40
0.4375
40
0.5
40
0.53125
40
0.546875
40
0.5625
40
0.625
40
0.65625
40
0.6875
40
0.75
40
0.8125
40
0.84375
40
0.859375
40
0.875
40
0.9375
40
1
40
1
40
1
40
1
41
1
10
102.303840257929
20
7.16026296854079
30
0
41
1
10
102.298893476764
20
7.16008956327661
30
0
41
1
10
102.29139445539
20
7.15982321465907
30
0
41
1
10
102.282296896457
20
7.15949273113782
30
0
41
1
10
102.277202544325
20
7.15930434082165
30
0
41
1
10
102.273390260235
20
7.15916182565209
30
0
41
1
10
102.269508580094
20
7.15901682133685
30
0
41
1
10
102.262758857429
20
7.15876479680304
30
0
41
1
10
102.241498978722
20
7.15797085647333
30
0
41
1
10
102.206728424188
20
7.15667244756673
30
0
41
1
10
102.171977125599
20
7.15537467207696
30
0
41
1
10
102.148762602987
20
7.15450783021748
30
0
41
1
10
102.133426775626
20
7.15393499733869
30
0
41
1
10
102.105765728328
20
7.15290731354625
30
0
41
1
10
102.063617767262
20
7.15135599441462
30
0
41
1
10
102.009681667886
20
7.14939323108607
30
0
41
1
10
101.953133998333
20
7.14735688094382
30
0
41
1
10
101.904553791531
20
7.14562411258316
30
0
41
1
10
101.870346824097
20
7.14441246984052
30
0
41
1
10
101.850500373842
20
7.14371163128715
30
0
41
1
10
101.820712477164
20
7.14265932198074
30
0
41
1
10
101.785940718943
20
7.14143105501981
30
0
41
1
10
101.746185726383
20
7.14002671819608
30
0
41
1
10
101.706516795371
20
7.13862563459469
30
0
41
1
10
101.656232938849
20
7.136860878356
30
0
41
1
10
101.605665817184
20
7.13509926086772
30
0
41
1
10
101.570426866108
20
7.13387859357178
30
0
41
1
10
101.550347180767
20
7.1331851197825
30
0
41
1
10
101.520218468207
20
7.13214523711184
30
0
41
1
10
101.474987785751
20
7.13058371592911
30
0
41
1
10
101.43479109326
20
7.12919607425042
30
0
41
1
10
101.414692747015
20
7.12850225341106
30
0
0
SPLINE
5
1F2
100
AcDbEntity
8
1
62
256
6
ByLayer
370
-1
48
1
60
0
100
AcDbSpline
70
4
71
3
72
36
73
32
40
0
40
0
40
0
40
0
40
0.0625
40
0.125
40
0.140625
40
0.15625
40
0.1875
40
0.25
40
0.3125
40
0.34375
40
0.375
40
0.4375
40
0.453125
40
0.46875
40
0.5
40
0.5625
40
0.625
40
0.6875
40
0.75
40
0.78125
40
0.796875
40
0.8125
40
0.875
40
0.9375
40
0.953125
40
0.9609375
40
0.96484375
40
0.96875
40
0.9765625
40
0.984375
40
1
40
1
40
1
40
1
41
1
10
104.902729455143
20
10.8832516336065
30
0
41
1
10
104.903726158113
20
10.8633832043178
30
0
41
1
10
104.905719564053
20
10.8236463457405
30
0
41
1
10
104.907959867859
20
10.7789302296454
30
0
41
1
10
104.909459478068
20
10.7491518861036
30
0
41
1
10
104.910447074801
20
10.7292933950293
30
0
41
1
10
104.912079725918
20
10.6943380571679
30
0
41
1
10
104.914147599737
20
10.6438919325861
30
0
41
1
10
104.915845795196
20
10.5933559259521
30
0
41
1
10
104.916941368888
20
10.5532341410726
30
0
41
1
10
104.918033439375
20
10.513019196094
30
0
41
1
10
104.918989670584
20
10.477846232301
30
0
41
1
10
104.919806346096
20
10.4477120364709
30
0
41
1
10
104.920357947767
20
10.4276426461467
30
0
41
1
10
104.921207071022
20
10.3929457376793
30
0
41
1
10
104.922082277878
20
10.3433257440231
30
0
41
1
10
104.922567010439
20
10.2850123055773
30
0
41
1
10
104.922466097939
20
10.2288061177665
30
0
41
1
10
104.921904553932
20
10.18438215019
30
0
41
1
10
104.921272347281
20
10.1549531368153
30
0
41
1
10
104.920837461676
20
10.1385493494096
30
0
41
1
10
104.92018688391
20
10.1137262463651
30
0
41
1
10
104.919209009993
20
10.0765628187353
30
0
41
1
10
104.918232953368
20
10.0393812524213
30
0
41
1
10
104.9176347902
20
10.0166457760483
30
0
41
1
10
104.917446002995
20
10.0094287376643
30
0
41
1
10
104.917335556428
20
10.0052763573661
30
0
41
1
10
104.917224242703
20
10.0011952568744
30
0
41
1
10
104.917132004274
20
9.99580046406402
30
0
41
1
10
104.917130991972
20
9.98633665424376
30
0
41
1
10
104.917297145853
20
9.97870942777055
30
0
41
1
10
104.917469891257
20
9.97374375070436
30
0
0
SPLINE
5
1F3
100
AcDbEntity
8
1
62
256
6
ByLayer
370
-1
48
1
60
0
100
AcDbSpline
70
4
71
3
72
8
73
4
40
0
40
0
40
0
40
0
40
1
40
1
40
1
40
1
41
1
10
101.519058417167
20
4.13033231170363
30
0
41
1
10
101.51859546766
20
4.14238145999823
30
0
41
1
10
101.518154381193
20
4.15443145473901
30
0
41
1
10
101.517735160692
20
4.16648221597291
30
0
0
SPLINE
5
1F4
100
AcDbEntity
8
1
62
256
6
ByLayer
370
-1
48
1
60
0
100
AcDbSpline
70
4
71
3
72
15
73
11
40
0
40
0
40
0
40
0
40
0.0512135155736255
40
0.195204619948302
40
0.339195724322978
40
0.627177933072331
40
0.771169037447007
40
0.915160141821683
40
0.987155694009021
40
1
40
1
40
1
40
1
41
1
10
108.211227335383
20
3.73732853401188
30
0
41
1
10
108.212836817315
20
3.73752153460575
30
0
41
1
10
108.218969087998
20
3.73826428106565
30
0
41
1
10
108.229604448583
20
3.73957081743129
30
0
41
1
10
108.247656595687
20
3.74180754746058
30
0
41
1
10
108.265764100947
20
3.74403907498709
30
0
41
1
10
108.28409210501
20
3.74629217772136
30
0
41
1
10
108.29535452446
20
3.74768152319913
30
0
41
1
10
108.302286394414
20
3.7485424496696
30
0
41
1
10
108.304830054009
20
3.74886599925057
30
0
41
1
10
108.305214574234
20
3.74891511391033
30
0
0
SPLINE
5
1F5
100
AcDbEntity
8
1
62
256
6
ByLayer
370
-1
48
1
60
0
100
AcDbSpline
70
4
71
3
72
14
73
10
40
0
40
0
40
0
40
0
40
0.0868146872095879
40
0.283438438146094
40
0.4800621890826
40
0.676685940019106
40
0.873309690955613
40
0.971621566423866
40
1
40
1
40
1
40
1
41
1
10
101.915966832696
20
10.7785325401187
30
0
41
1
10
101.913956024914
20
10.7784550949117
30
0
41
1
10
101.907391468517
20
10.7781926795601
30
0
41
1
10
101.896276715789
20
10.7776631215669
30
0
41
1
10
101.882630233083
20
10.7767430259577
30
0
41
1
10
101.869003624
20
10.7755600060069
30
0
41
1
10
101.857672363977
20
10.7743604545776
30
0
41
1
10
101.850225582603
20
10.7734914952264
30
0
41
1
10
101.847309406934
20
10.7731432294108
30
0
41
1
10
101.846656291988
20
10.7730649113074
30
0
0
SPLINE
5
1F6
100
AcDbEntity
8
1
62
256
6
ByLayer
370
-1
48
1
60
0
100
AcDbSpline
70
4
71
3
72
14
73
10
40
0
40
0
40
0
40
0
40
0.0868146872094707
40
0.283438438146041
40
0.480062189082611
40
0.67668594001918
40
0.87330969095575
40
0.971621566424035
40
1
40
1
40
1
40
1
41
1
10
101.519013352736
20
4.1303306829661
30
0
41
1
10
101.519090503241
20
4.12831219422563
30
0
41
1
10
101.519351920023
20
4.12172256228936
30
0
41
1
10
101.519879462888
20
4.11056535301131
30
0
41
1
10
101.520796057255
20
4.09686674295818
30
0
41
1
10
101.521974575458
20
4.08318808244294
30
0
41
1
10
101.523169562232
20
4.07181353884687
30
0
41
1
10
101.524035214931
20
4.06433831197774
30
0
41
1
10
101.52438215549
20
4.06141099699178
30
0
41
1
10
101.524460175569
20
4.06075538725301
30
0
0
SPLINE
5
1F7
100
AcDbEntity
8
1
62
256
6
ByLayer
370
-1
48
1
60
0
100
AcDbSpline
70
4
71
3
72
36
73
32
40
0
40
0
40
0
40
0
40
0.015625
40
0.0234375
40
0.03125
40
0.03515625
40
0.0390625
40
0.046875
40
0.0625
40
0.125
40
0.1875
40
0.203125
40
0.21875
40
0.25
40
0.3125
40
0.375
40
0.4375
40
0.5
40
0.53125
40
0.546875
40
0.5625
40
0.625
40
0.65625
40
0.6875
40
0.75
40
0.8125
40
0.84375
40
0.859375
40
0.875
40
0.9375
40
1
40
1
40
1
40
1
41
1
10
105.106614896304
20
4.53664969461494
30
0
41
1
10
105.106787641708
20
4.53168401754874
30
0
41
1
10
105.10715215799
20
4.52405679107551
30
0
41
1
10
105.107811622155
20
4.51459298125525
30
0
41
1
10
105.108279207452
20
4.50919818844486
30
0
41
1
10
105.10867446689
20
4.50511708795324
30
0
41
1
10
105.109073818516
20
4.50096470765493
30
0
41
1
10
105.10976473673
20
4.49374766927104
30
0
41
1
10
105.111944738192
20
4.471012192898
30
0
41
1
10
105.115507730955
20
4.43383062658395
30
0
41
1
10
105.119071278996
20
4.39666719895422
30
0
41
1
10
105.121448943292
20
4.37184409590972
30
0
41
1
10
105.12302513505
20
4.35544030850394
30
0
41
1
10
105.125704887991
20
4.32601129512926
30
0
41
1
10
105.129357263787
20
4.28158732755273
30
0
41
1
10
105.133368765129
20
4.22538113974198
30
0
41
1
10
105.136941234999
20
4.16706770129613
30
0
41
1
10
105.13951837745
20
4.11744770763994
30
0
41
1
10
105.141083318348
20
4.0827507991726
30
0
41
1
10
105.14192805998
20
4.06268140884836
30
0
41
1
10
105.14320799437
20
4.03254721301823
30
0
41
1
10
105.14469894923
20
3.99737424922529
30
0
41
1
10
105.14640486454
20
3.95715930424669
30
0
41
1
10
105.148100794958
20
3.91703751936714
30
0
41
1
10
105.149918681116
20
3.86650151273318
30
0
41
1
10
105.151360635301
20
3.81605538815137
30
0
41
1
10
105.15216002876
20
3.78110005028998
30
0
41
1
10
105.152554101852
20
3.7612415592157
30
0
41
1
10
105.153126342849
20
3.73146321567387
30
0
41
1
10
105.15399719729
20
3.68674709957881
30
0
41
1
10
105.154768513915
20
3.64701024100148
30
0
41
1
10
105.155154172228
20
3.62714181171285
30
0
0
SPLINE
5
1F8
100
AcDbEntity
8
1
62
256
6
ByLayer
370
-1
48
1
60
0
100
AcDbSpline
70
4
71
3
72
41
73
37
40
0
40
0
40
0
40
0
40
0.0080831369865925
40
0.0179214742470409
40
0.0277598115074894
40
0.0671131605492832
40
0.106466509591077
40
0.185173207674665
40
0.224526556716458
40
0.244203231237355
40
0.258960737128028
40
0.263879905758252
40
0.273718243018701
40
0.283556580279149
40
0.293394917539598
40
0.303233254800046
40
0.322909929320943
40
0.34258660384184
40
0.421293301925428
40
0.500000000009015
40
0.578706698092602
40
0.65741339617619
40
0.677090070697087
40
0.696766745217984
40
0.706605082478432
40
0.716443419738881
40
0.726281756999329
40
0.736120094259778
40
0.741039262890002
40
0.755796768780675
40
0.775473443301572
40
0.814826792343365
40
0.893533490426953
40
0.972240188510541
40
0.991916863031438
40
1
40
1
40
1
40
1
41
1
10
101.752669053149
20
10.7614783314105
30
0
41
1
10
101.7508982412
20
10.7612521461
30
0
41
1
10
101.74699920005
20
10.7607445026524
30
0
41
1
10
101.741032206283
20
10.7599139209902
30
0
41
1
10
101.728418408363
20
10.7580056774489
30
0
41
1
10
101.709423600255
20
10.7544654358742
30
0
41
1
10
101.675527615921
20
10.7462491378744
30
0
41
1
10
101.641565529719
20
10.735157506328
30
0
41
1
10
101.61222140491
20
10.7227916407314
30
0
41
1
10
101.596663149098
20
10.7154630272312
30
0
41
1
10
101.588425395296
20
10.7113367421299
30
0
41
1
10
101.582275885813
20
10.7081491641426
30
0
41
1
10
101.577169943876
20
10.7054348990693
30
0
41
1
10
101.571074718445
20
10.7020853489019
30
0
41
1
10
101.565013463928
20
10.6986436547098
30
0
41
1
10
101.556979840477
20
10.6939322544933
30
0
41
1
10
101.547033068533
20
10.687814084434
30
0
41
1
10
101.523498695728
20
10.6724025418415
30
0
41
1
10
101.489588147062
20
10.6465727570437
30
0
41
1
10
101.448277935892
20
10.6069743328266
30
0
41
1
10
101.411807943007
20
10.5628450909085
30
0
41
1
10
101.388504609264
20
10.5270861346775
30
0
41
1
10
101.374830785988
20
10.5024443570614
30
0
41
1
10
101.369444595991
20
10.4920571304857
30
0
41
1
10
101.36532295438
20
10.4836838134884
30
0
41
1
10
101.362325520506
20
10.4773741468233
30
0
41
1
10
101.359422026109
20
10.4710368901922
30
0
41
1
10
101.357080848791
20
10.465734592154
30
0
41
1
10
101.35434210383
20
10.4593542754605
30
0
41
1
10
101.35081617032
20
10.4508173630852
30
0
41
1
10
101.344618517672
20
10.4347265029263
30
0
41
1
10
101.3343766586
20
10.4044794430066
30
0
41
1
10
101.323559866947
20
10.3610013392456
30
0
41
1
10
101.318103959688
20
10.3222711946501
30
0
41
1
10
101.31643143443
20
10.2992788222072
30
0
41
1
10
101.316071304575
20
10.2931761746067
30
0
41
1
10
101.315970054445
20
10.2913871506445
30
0
0
SPLINE
5
1F9
100
AcDbEntity
8
1
62
256
6
ByLayer
370
-1
48
1
60
0
100
AcDbSpline
70
4
71
3
72
41
73
37
40
0
40
0
40
0
40
0
40
0.0080831369865694
40
0.0179214742470185
40
0.0277598115074675
40
0.0671131605492636
40
0.10646650959106
40
0.185173207674652
40
0.224526556716448
40
0.244203231237346
40
0.258960737128019
40
0.263879905758244
40
0.273718243018693
40
0.283556580279142
40
0.293394917539591
40
0.30323325480004
40
0.322909929320938
40
0.342586603841836
40
0.421293301925429
40
0.500000000009021
40
0.578706698092613
40
0.657413396176205
40
0.677090070697103
40
0.696766745218001
40
0.70660508247845
40
0.716443419738899
40
0.726281756999348
40
0.736120094259797
40
0.741039262890022
40
0.755796768780695
40
0.775473443301593
40
0.814826792343389
40
0.893533490426982
40
0.972240188510574
40
0.991916863031472
40
1
40
1
40
1
40
1
41
1
10
101.536002665031
20
3.96640913243041
30
0
41
1
10
101.536227989638
20
3.96463155626768
30
0
41
1
10
101.536733701349
20
3.96071762141389
30
0
41
1
10
101.537561122398
20
3.95472783470009
30
0
41
1
10
101.539462104496
20
3.94206585412024
30
0
41
1
10
101.542988874383
20
3.922998488932
30
0
41
1
10
101.551173906888
20
3.88897302744448
30
0
41
1
10
101.562223331428
20
3.85488121159045
30
0
41
1
10
101.574542141173
20
3.82542499699119
30
0
41
1
10
101.581842867086
20
3.80980731116981
30
0
41
1
10
101.585953450427
20
3.80153809048684
30
0
41
1
10
101.589128898717
20
3.79536509087671
30
0
41
1
10
101.591832835193
20
3.79023964507047
30
0
41
1
10
101.59516963931
20
3.78412113686926
30
0
41
1
10
101.598598236817
20
3.77803672934377
30
0
41
1
10
101.603291708733
20
3.76997241875668
30
0
41
1
10
101.609386597308
20
3.75998765175944
30
0
41
1
10
101.624739494328
20
3.73636338147452
30
0
41
1
10
101.650470988997
20
3.70232330002102
30
0
41
1
10
101.689918729255
20
3.66085529055525
30
0
41
1
10
101.733880046084
20
3.62424598822281
30
0
41
1
10
101.769502928691
20
3.60085363953078
30
0
41
1
10
101.794050936903
20
3.58712758447135
30
0
41
1
10
101.804398636946
20
3.58172082010364
30
0
41
1
10
101.812740090944
20
3.57758343449106
30
0
41
1
10
101.819025747423
20
3.57457455090676
30
0
41
1
10
101.825338888879
20
3.57165996563197
30
0
41
1
10
101.830621010072
20
3.56930984539781
30
0
41
1
10
101.836977047735
20
3.56656063887544
30
0
41
1
10
101.845481474581
20
3.56302123687274
30
0
41
1
10
101.861511104159
20
3.55679991019767
30
0
41
1
10
101.891643064884
20
3.54651892888839
30
0
41
1
10
101.934955721334
20
3.53566081884853
30
0
41
1
10
101.973538486036
20
3.53018407091059
30
0
41
1
10
101.99644336556
20
3.52850515687791
30
0
41
1
10
102.002522790744
20
3.52814365138474
30
0
41
1
10
102.00430500693
20
3.52804201449547
30
0
0
SPLINE
5
1FA
100
AcDbEntity
8
1
62
256
6
ByLayer
370
-1
48
1
60
0
100
AcDbSpline
70
4
71
3
72
8
73
4
40
0
40
0
40
0
40
0
40
1
40
1
40
1
40
1
41
1
10
108.538825210204
20
10.3800611336156
30
0
41
1
10
108.539288159711
20
10.368011985321
30
0
41
1
10
108.539729246178
20
10.3559619905803
30
0
41
1
10
108.540148466679
20
10.3439112293464
30
0
0
SPLINE
5
1FB
100
AcDbEntity
8
1
62
256
6
ByLayer
370
-1
48
1
60
0
100
AcDbSpline
70
4
71
3
72
77
73
73
40
0
40
0
40
0
40
0
40
0.125
40
0.25
40
0.375
40
0.40625
40
0.421875
40
0.423828125
40
0.42578125
40
0.427734375
40
0.4296875
40
0.43359375
40
0.435546875
40
0.4375
40
0.44140625
40
0.4453125
40
0.447265625
40
0.44921875
40
0.4501953125
40
0.451171875
40
0.453125
40
0.4609375
40
0.46875
40
0.47265625
40
0.474609375
40
0.47607421875
40
0.4765625
40
0.4775390625
40
0.478515625
40
0.4794921875
40
0.48046875
40
0.482421875
40
0.484375
40
0.4921875
40
0.5
40
0.5078125
40
0.515625
40
0.517578125
40
0.51953125
40
0.5205078125
40
0.521484375
40
0.5224609375
40
0.5234375
40
0.52392578125
40
0.525390625
40
0.52734375
40
0.53125
40
0.5390625
40
0.54296875
40
0.546875
40
0.5478515625
40
0.548828125
40
0.5498046875
40
0.55078125
40
0.552734375
40
0.5546875
40
0.55859375
40
0.560546875
40
0.5625
40
0.5634765625
40
0.564453125
40
0.56640625
40
0.568359375
40
0.5703125
40
0.572265625
40
0.57421875
40
0.578125
40
0.59375
40
0.625
40
0.75
40
0.875
40
1
40
1
40
1
40
1
41
1
10
107.720244529632
20
7.35013047677848
30
0
41
1
10
107.728032309055
20
7.1262657799451
30
0
41
1
10
107.743607867902
20
6.67853638627838
30
0
41
1
10
107.766971206171
20
6.00694229577826
30
0
41
1
10
107.784493709874
20
5.50324672790319
30
0
41
1
10
107.79520190658
20
5.1954327697573
30
0
41
1
10
107.798244007918
20
5.10798562255678
30
0
41
1
10
107.799460848452
20
5.07300676367657
30
0
41
1
10
107.799825900613
20
5.06251310601249
30
0
41
1
10
107.800190952773
20
5.05201944834843
30
0
41
1
10
107.800677688987
20
5.03802790479637
30
0
41
1
10
107.801164425201
20
5.02403636124427
30
0
41
1
10
107.801651161415
20
5.01004481769218
30
0
41
1
10
107.802137897629
20
4.99605327414011
30
0
41
1
10
107.802746317897
20
4.97856384469998
30
0
41
1
10
107.803355235729
20
4.96107460650731
30
0
41
1
10
107.803842967072
20
4.94708344545012
30
0
41
1
10
107.804148110139
20
4.93833908931902
30
0
41
1
10
107.804392448496
20
4.9313436904755
30
0
41
1
10
107.804636948563
20
4.92434835378739
30
0
41
1
10
107.805310042103
20
4.90511145400856
30
0
41
1
10
107.806415945977
20
4.87363461196114
30
0
41
1
10
107.807623233274
20
4.83865208113002
30
0
41
1
10
107.808441585316
20
4.81415402808577
30
0
41
1
10
107.808896109284
20
4.80103626751489
30
0
41
1
10
107.809154404325
20
4.79404623316211
30
0
41
1
10
107.809358425191
20
4.78880766621958
30
0
41
1
10
107.809535607507
20
4.78444494773063
30
0
41
1
10
107.809687808166
20
4.77934951877876
30
0
41
1
10
107.809707708696
20
4.77452934995554
30
0
41
1
10
107.809538531026
20
4.76821206513739
30
0
41
1
10
107.808923890342
20
4.76003833484103
30
0
41
1
10
107.806079911041
20
4.73992777239644
30
0
41
1
10
107.796385652797
20
4.70938534701315
30
0
41
1
10
107.771174195783
20
4.67243651028565
30
0
41
1
10
107.736214285885
20
4.64461297747545
30
0
41
1
10
107.706538437621
20
4.6327748617758
30
0
41
1
10
107.686751589809
20
4.62852413126876
30
0
41
1
10
107.678671673221
20
4.62733847510739
30
0
41
1
10
107.672405558847
20
4.62672839337554
30
0
41
1
10
107.667614041039
20
4.6264120832808
30
0
41
1
10
107.662539749728
20
4.62620905399572
30
0
41
1
10
107.658191860009
20
4.62608215200621
30
0
41
1
10
107.652971707945
20
4.62592102935795
30
0
41
1
10
107.646007217611
20
4.62569207929934
30
0
41
1
10
107.6329395007
20
4.62523217932784
30
0
41
1
10
107.608537033731
20
4.62434275846823
30
0
41
1
10
107.580658044588
20
4.62335770952421
30
0
41
1
10
107.552783082046
20
4.62238592097137
30
0
41
1
10
107.537103890978
20
4.62184085537325
30
0
41
1
10
107.526650863912
20
4.6214767109241
30
0
41
1
10
107.521424306688
20
4.62129449481506
30
0
41
1
10
107.516197708685
20
4.62111214441387
30
0
41
1
10
107.50922886086
20
4.62086884427913
30
0
41
1
10
107.500517713695
20
4.62056443134182
30
0
41
1
10
107.486579722885
20
4.62007685905292
30
0
41
1
10
107.472641545658
20
4.61958867285705
30
0
41
1
10
107.458703275223
20
4.61910017970766
30
0
41
1
10
107.449991836783
20
4.61879480754064
30
0
41
1
10
107.44302268603
20
4.61855050980702
30
0
41
1
10
107.436053535278
20
4.61830621207343
30
0
41
1
10
107.427342096837
20
4.61800083990642
30
0
41
1
10
107.416888370709
20
4.61763439330602
30
0
41
1
10
107.40643464458
20
4.6172679467056
30
0
41
1
10
107.395980918452
20
4.61690150010517
30
0
41
1
10
107.382042616947
20
4.61641290463797
30
0
41
1
10
107.343712287809
20
4.61506926710311
30
0
41
1
10
107.253113328029
20
4.61189339656622
30
0
41
1
10
106.946470694925
20
4.60114429628746
30
0
41
1
10
106.444691840756
20
4.58355485946768
30
0
41
1
10
105.77565336853
20
4.5601022770413
30
0
41
1
10
105.329627720379
20
4.54446722209039
30
0
41
1
10
105.106614896304
20
4.53664969461494
30
0
0
SPLINE
5
1FC
100
AcDbEntity
8
1
62
256
6
ByLayer
370
-1
48
1
60
0
100
AcDbSpline
70
4
71
3
72
36
73
32
40
0
40
0
40
0
40
0
40
0.015625
40
0.0234375
40
0.03125
40
0.03515625
40
0.0390625
40
0.046875
40
0.0625
40
0.125
40
0.1875
40
0.203125
40
0.21875
40
0.25
40
0.3125
40
0.375
40
0.4375
40
0.5
40
0.53125
40
0.546875
40
0.5625
40
0.625
40
0.65625
40
0.6875
40
0.75
40
0.8125
40
0.84375
40
0.859375
40
0.875
40
0.9375
40
1
40
1
40
1
40
1
41
1
10
107.720244529632
20
7.35013047677848
30
0
41
1
10
107.725191310797
20
7.35030388204268
30
0
41
1
10
107.732888694572
20
7.3505702306602
30
0
41
1
10
107.742646729972
20
7.35090071418145
30
0
41
1
10
107.74830090583
20
7.35108910449765
30
0
41
1
10
107.752619763084
20
7.35123161966717
30
0
41
1
10
107.757011241418
20
7.35137662398242
30
0
41
1
10
107.764640669501
20
7.35162864851623
30
0
41
1
10
107.788678712837
20
7.35242258884594
30
0
41
1
10
107.827988316761
20
7.35372099775253
30
0
41
1
10
107.867281037307
20
7.35501877324231
30
0
41
1
10
107.893523801981
20
7.35588561510181
30
0
41
1
10
107.910870706705
20
7.3564584479806
30
0
41
1
10
107.941843713595
20
7.35748613177302
30
0
41
1
10
107.988205594464
20
7.35903745090465
30
0
41
1
10
108.046254107683
20
7.3610002142332
30
0
41
1
10
108.105889514544
20
7.36303656437545
30
0
41
1
10
108.156171656941
20
7.3647693327361
30
0
41
1
10
108.191094442018
20
7.36598097547878
30
0
41
1
10
108.211234032234
20
7.36668181403212
30
0
41
1
10
108.24148518779
20
7.36773412333852
30
0
41
1
10
108.276791669662
20
7.36896239029949
30
0
41
1
10
108.317160507045
20
7.37036672712318
30
0
41
1
10
108.357429794783
20
7.37176781072458
30
0
41
1
10
108.407833342004
20
7.37353256696326
30
0
41
1
10
108.457774544035
20
7.37529418445155
30
0
41
1
10
108.492180237453
20
7.37651485174752
30
0
41
1
10
108.511666399153
20
7.37720832553677
30
0
41
1
10
108.540867742502
20
7.37824820820742
30
0
41
1
10
108.584728975592
20
7.37980972939016
30
0
41
1
10
108.623703578768
20
7.38119737106885
30
0
41
1
10
108.643190880356
20
7.38189119190821
30
0
0
SPLINE
5
1FD
100
AcDbEntity
8
1
62
256
6
ByLayer
370
-1
48
1
60
0
100
AcDbSpline
70
4
71
3
72
8
73
4
40
0
40
0
40
0
40
0
40
1
40
1
40
1
40
1
41
1
10
107.85347811208
20
10.9866876525638
30
0
41
1
10
107.865482978072
20
10.9871084730709
30
0
41
1
10
107.877488607635
20
10.9875073442281
30
0
41
1
10
107.889494921111
20
10.9878842633888
30
0
0
SPLINE
5
1FE
100
AcDbEntity
8
1
62
256
6
ByLayer
370
-1
48
1
60
0
100
AcDbSpline
70
4
71
3
72
8
73
4
40
0
40
0
40
0
40
0
40
1
40
1
40
1
40
1
41
1
10
108.851780922266
20
-5.36183853503209
30
0
41
1
10
108.851050972247
20
-5.31871999395023
30
0
41
1
10
108.846268315859
20
-5.27805328522075
30
0
41
1
10
108.839023530545
20
-5.23901870961663
30
0
0
SPLINE
5
1FF
100
AcDbEntity
8
1
62
256
6
ByLayer
370
-1
48
1
60
0
100
AcDbSpline
70
4
71
3
72
16
73
12
40
0
40
0
40
0
40
0
40
0.25
40
0.25
40
0.5
40
0.5
40
0.75
40
0.75
40
0.875
40
0.875
40
1
40
1
40
1
40
1
41
1
10
108.227261156903
20
-0.116584947237641
30
0
41
1
10
108.232311965194
20
-0.14385686131078
30
0
41
1
10
108.237875951129
20
-0.172315583410352
30
0
41
1
10
108.250588482663
20
-0.232689682772246
30
0
41
1
10
108.257716189023
20
-0.264579273970355
30
0
41
1
10
108.274863957907
20
-0.334741781919632
30
0
41
1
10
108.284857033359
20
-0.372986631587963
30
0
41
1
10
108.303823871834
20
-0.438044979705779
30
0
41
1
10
108.310847506384
20
-0.461095138457921
30
0
41
1
10
108.326382212437
20
-0.509388812798164
30
0
41
1
10
108.335079916149
20
-0.53517728704395
30
0
41
1
10
108.34442403217
20
-0.561444045041725
30
0
0
SPLINE
5
200
100
AcDbEntity
8
1
62
256
6
ByLayer
370
-1
48
1
60
0
100
AcDbSpline
70
4
71
3
72
10
73
6
40
0
40
0
40
0
40
0
40
0.5
40
0.5
40
1
40
1
40
1
40
1
41
1
10
108.367836762062
20
-0.703690058010551
30
0
41
1
10
108.36827279973
20
-0.681771933158586
30
0
41
1
10
108.366910887347
20
-0.658971448916986
30
0
41
1
10
108.35941198477
20
-0.611072914558349
30
0
41
1
10
108.353236399843
20
-0.58621603294867
30
0
41
1
10
108.34442403217
20
-0.561444045041725
30
0
0
SPLINE
5
201
100
AcDbEntity
8
1
62
256
6
ByLayer
370
-1
48
1
60
0
100
AcDbSpline
70
4
71
3
72
8
73
4
40
0
40
0
40
0
40
0
40
1
40
1
40
1
40
1
41
1
10
108.766913364991
20
-3.64046182170574
30
0
41
1
10
108.766212639908
20
-3.65337001889057
30
0
41
1
10
108.765632065311
20
-3.66637325087092
30
0
41
1
10
108.765173495486
20
-3.67947298431997
30
0
0
SPLINE
5
202
100
AcDbEntity
8
1
62
256
6
ByLayer
370
-1
48
1
60
0
100
AcDbSpline
70
4
71
3
72
20
73
16
40
0
40
0
40
0
40
0
40
0.0625
40
0.0625
40
0.125
40
0.125
40
0.250000000000001
40
0.250000000000001
40
0.375000000000002
40
0.375000000000002
40
0.500000000000002
40
0.500000000000002
40
0.750000000000001
40
0.750000000000001
40
1
40
1
40
1
40
1
41
1
10
108.742147481438
20
-4.33724554115315
30
0
41
1
10
108.741144594953
20
-4.36589449473425
30
0
41
1
10
108.740747609477
20
-4.39501342546006
30
0
41
1
10
108.741023330193
20
-4.45093739661394
30
0
41
1
10
108.741665692189
20
-4.47753695122262
30
0
41
1
10
108.744624352646
20
-4.55454979852513
30
0
41
1
10
108.747818941362
20
-4.59993740237232
30
0
41
1
10
108.755173048951
20
-4.68499295392755
30
0
41
1
10
108.759367899553
20
-4.72442309921558
30
0
41
1
10
108.768149192879
20
-4.79886811762913
30
0
41
1
10
108.77277174558
20
-4.8340986966208
30
0
41
1
10
108.78705343849
20
-4.93623412928781
30
0
41
1
10
108.797116832478
20
-4.9996666916748
30
0
41
1
10
108.8177395858
20
-5.12227177921889
30
0
41
1
10
108.828318068794
20
-5.18133816589301
30
0
41
1
10
108.839023530545
20
-5.23901870961666
30
0
0
SPLINE
5
203
100
AcDbEntity
8
1
62
256
6
ByLayer
370
-1
48
1
60
0
100
AcDbSpline
70
4
71
3
72
8
73
4
40
0
40
0
40
0
40
0
40
1
40
1
40
1
40
1
41
1
10
108.367836762062
20
-0.703690058008846
30
0
41
1
10
108.366941946905
20
-0.748669360936333
30
0
41
1
10
108.367458135188
20
-0.80016595231362
30
0
41
1
10
108.370339412899
20
-0.855010082380886
30
0
0
SPLINE
5
204
100
AcDbEntity
8
1
62
256
6
ByLayer
370
-1
48
1
60
0
100
AcDbSpline
70
4
71
3
72
22
73
18
40
0
40
0
40
0
40
0
40
0.124999999999984
40
0.124999999999984
40
0.249999999999968
40
0.249999999999968
40
0.374999999999951
40
0.374999999999951
40
0.437499999999943
40
0.437499999999943
40
0.499999999999936
40
0.499999999999936
40
0.624999999999952
40
0.624999999999952
40
0.749999999999968
40
0.749999999999968
40
1
40
1
40
1
40
1
41
1
10
108.542785247089
20
-5.73272002908894
30
0
41
1
10
108.559729471808
20
-5.73172864188462
30
0
41
1
10
108.577232225216
20
-5.72974303684512
30
0
41
1
10
108.614009672134
20
-5.72261765673426
30
0
41
1
10
108.633420248623
20
-5.71748851676654
30
0
41
1
10
108.674688305203
20
-5.70149917445713
30
0
41
1
10
108.696820837918
20
-5.69056335250045
30
0
41
1
10
108.730844974075
20
-5.66623168197992
30
0
41
1
10
108.742566681113
20
-5.65651411165987
30
0
41
1
10
108.764475741872
20
-5.63488614474608
30
0
41
1
10
108.774821677608
20
-5.6228057356538
30
0
41
1
10
108.801673955273
20
-5.58601608784554
30
0
41
1
10
108.814152615145
20
-5.56106494004848
30
0
41
1
10
108.832088727004
20
-5.51536419483173
30
0
41
1
10
108.837900080867
20
-5.49395510061814
30
0
41
1
10
108.850446593482
20
-5.43277143376406
30
0
41
1
10
108.852366663573
20
-5.39643858973341
30
0
41
1
10
108.851780922266
20
-5.36183853503206
30
0
0
SPLINE
5
205
100
AcDbEntity
8
1
62
256
6
ByLayer
370
-1
48
1
60
0
100
AcDbSpline
70
4
71
3
72
10
73
6
40
0
40
0
40
0
40
0
40
0.5
40
0.5
40
1
40
1
40
1
40
1
41
1
10
108.766913364991
20
-3.64046182170571
30
0
41
1
10
108.77033347702
20
-3.57745925266607
30
0
41
1
10
108.76528416422
20
-3.514154878825
30
0
41
1
10
108.737492780892
20
-3.38755597672372
30
0
41
1
10
108.715465479376
20
-3.32739494893909
30
0
41
1
10
108.685662982492
20
-3.27023711640899
30
0
0
SPLINE
5
206
100
AcDbEntity
8
1
62
256
6
ByLayer
370
-1
48
1
60
0
100
AcDbSpline
70
4
71
3
72
8
73
4
40
0
40
0
40
0
40
0
40
1
40
1
40
1
40
1
41
1
10
108.672761053374
20
-3.24466341166078
30
0
41
1
10
108.676906875792
20
-3.25316514162046
30
0
41
1
10
108.681256407679
20
-3.26178580220685
30
0
41
1
10
108.685662982492
20
-3.27023711640899
30
0
0
SPLINE
5
207
100
AcDbEntity
8
1
62
256
6
ByLayer
370
-1
48
1
60
0
100
AcDbSpline
70
4
71
3
72
20
73
16
40
0
40
0
40
0
40
0
40
0.194224563052539
40
0.194224563052539
40
0.388449126105078
40
0.388449126105078
40
0.582673689157617
40
0.582673689157617
40
0.679785970683886
40
0.679785970683886
40
0.776898252210155
40
0.776898252210155
40
0.971122815262693
40
0.971122815262693
40
1
40
1
40
1
40
1
41
1
10
108.143602586364
20
0.335130741760025
30
0
41
1
10
108.140805319504
20
0.350234625544516
30
0
41
1
10
108.137054405976
20
0.365938571673183
30
0
41
1
10
108.126527121487
20
0.399250170136781
30
0
41
1
10
108.119744968728
20
0.416976971629026
30
0
41
1
10
108.100770525363
20
0.455205621032405
30
0
41
1
10
108.088479497443
20
0.475958974372787
30
0
41
1
10
108.062847341154
20
0.508662182321274
30
0
41
1
10
108.052820717516
20
0.520070706901635
30
0
41
1
10
108.030975794908
20
0.541762655729428
30
0
41
1
10
108.018987314814
20
0.552204521620268
30
0
41
1
10
107.983002124037
20
0.579883503633141
30
0
41
1
10
107.959242481418
20
0.593581148590403
30
0
41
1
10
107.934566520766
20
0.605489375889078
30
0
41
1
10
107.931408992337
20
0.60696556386489
30
0
41
1
10
107.928286047376
20
0.608381190859973
30
0
0
SPLINE
5
208
100
AcDbEntity
8
SK1
62
256
6
ByLayer
370
-1
48
1
60
0
100
AcDbSpline
70
4
71
3
72
8
73
4
40
0
40
0
40
0
40
0
40
1
40
1
40
1
40
1
41
1
10
-55
20
-6.99849805315392
30
0
41
1
10
-55.3648529633576
20
-6.34700451336727
30
0
41
1
10
-55.7026345426883
20
-5.68249326840734
30
0
41
1
10
-56
20
-4.99854728896301
30
0
0
SPLINE
5
209
100
AcDbEntity
8
SK1
62
256
6
ByLayer
370
-1
48
1
60
0
100
AcDbSpline
70
4
71
3
72
8
73
4
40
0
40
0
40
0
40
0
40
1
40
1
40
1
40
1
41
1
10
-54.6
20
6.99849805315404
30
0
41
1
10
-54.5718676648179
20
6.93646419260517
30
0
41
1
10
-54.5439393896427
20
6.87431425928909
30
0
41
1
10
-54.516222729729
20
6.81204395564973
30
0
0
SPLINE
5
20A
100
AcDbEntity
8
SK1
62
256
6
ByLayer
370
-1
48
1
60
0
100
AcDbSpline
70
4
71
3
72
68
73
64
40
0
40
0
40
0
40
0
40
0.015625
40
0.015625
40
0.0312499999999999
40
0.0312499999999999
40
0.0468749999999999
40
0.0468749999999999
40
0.0624999999999998
40
0.0624999999999998
40
0.0781249999999998
40
0.0781249999999998
40
0.0937499999999997
40
0.0937499999999997
40
0.125
40
0.125
40
0.15625
40
0.15625
40
0.1875
40
0.1875
40
0.25
40
0.25
40
0.28125
40
0.28125
40
0.3125
40
0.3125
40
0.375
40
0.375
40
0.4375
40
0.4375
40
0.46875
40
0.46875
40
0.5
40
0.5
40
0.5625
40
0.5625
40
0.625
40
0.625
40
0.6875
40
0.6875
40
0.75
40
0.75
40
0.8125
40
0.8125
40
0.84375
40
0.84375
40
0.859375
40
0.859375
40
0.875
40
0.875
40
0.90625
40
0.90625
40
0.921875
40
0.921875
40
0.9375
40
0.9375
40
0.953125
40
0.953125
40
0.96875
40
0.96875
40
0.984375
40
0.984375
40
1
40
1
40
1
40
1
41
1
10
-6.5
20
-6.99849805315398
30
0
41
1
10
-6.4096424095903
20
-6.99849805315398
30
0
41
1
10
-6.31887533751086
20
-6.9924669932976
30
0
41
1
10
-6.13726564177031
20
-6.96792032412691
30
0
41
1
10
-6.04880117468585
20
-6.94974705973743
30
0
41
1
10
-5.87614107362342
20
-6.90252164638767
30
0
41
1
10
-5.79194795071362
20
-6.87346297167917
30
0
41
1
10
-5.62761370230606
20
-6.80484072991021
30
0
41
1
10
-5.54890965383427
20
-6.76585529638666
30
0
41
1
10
-5.39867973784189
20
-6.68016521734489
30
0
41
1
10
-5.32694157755157
20
-6.63336290342139
30
0
41
1
10
-5.18947718430641
20
-6.53250060019133
30
0
41
1
10
-5.12348684568531
20
-6.47818603126365
30
0
41
1
10
-4.93566988154686
20
-6.30674027670506
30
0
41
1
10
-4.82518003213681
20
-6.18267595320251
30
0
41
1
10
-4.62603001440084
20
-5.91868980815966
30
0
41
1
10
-4.53721391214785
20
-5.77825879287735
30
0
41
1
10
-4.37814656673874
20
-5.48542007115435
30
0
41
1
10
-4.30877871567313
20
-5.33483042069352
30
0
41
1
10
-4.12354082750574
20
-4.87237000918773
30
0
41
1
10
-4.03020120532329
20
-4.54989217457512
30
0
41
1
10
-3.91807144557504
20
-4.04887624586692
30
0
41
1
10
-3.88552668802802
20
-3.87909831441809
30
0
41
1
10
-3.82866773565829
20
-3.53847076026688
30
0
41
1
10
-3.80422767364425
20
-3.36705941807358
30
0
41
1
10
-3.74020579920568
20
-2.84975913582008
30
0
41
1
10
-3.70977205452269
20
-2.5008195214777
30
0
41
1
10
-3.66416163751657
20
-1.79552608157809
30
0
41
1
10
-3.64903771748126
20
-1.43916908464092
30
0
41
1
10
-3.63426182330713
20
-0.899256752194447
30
0
41
1
10
-3.63068669313998
20
-0.718167674817778
30
0
41
1
10
-3.62598899859142
20
-0.357375695924361
30
0
41
1
10
-3.62485343662013
20
-0.177302953433326
30
0
41
1
10
-3.62488496014578
20
0.361962578325034
30
0
41
1
10
-3.62938260517049
20
0.720207066315254
30
0
41
1
10
-3.64887950283875
20
1.43414621185846
30
0
41
1
10
-3.66385562324439
20
1.78984138878459
30
0
41
1
10
-3.70956223321124
20
2.49851694715909
30
0
41
1
10
-3.74045671775656
20
2.85271919963691
30
0
41
1
10
-3.82645737175278
20
3.54573152185978
30
0
41
1
10
-3.88145968550236
20
3.88575414429386
30
0
41
1
10
-4.03051920995767
20
4.55084385300148
30
0
41
1
10
-4.12523349261875
20
4.87761469840365
30
0
41
1
10
-4.31105593218689
20
5.33999328729007
30
0
41
1
10
-4.38041029850672
20
5.4899128326384
30
0
41
1
10
-4.49888437250004
20
5.70752713951083
30
0
41
1
10
-4.54079549132547
20
5.77885043055693
30
0
41
1
10
-4.63023926406612
20
5.91883578995851
30
0
41
1
10
-4.67776791395602
20
5.98743717509882
30
0
41
1
10
-4.82792587490127
20
6.18597359029033
30
0
41
1
10
-4.93858588995937
20
6.30966494075429
30
0
41
1
10
-5.12522766477915
20
6.47964028567972
30
0
41
1
10
-5.19131964832849
20
6.53397024553271
30
0
41
1
10
-5.32929892448178
20
6.63497116118225
30
0
41
1
10
-5.40112275258878
20
6.68167605293547
30
0
41
1
10
-5.55102867370906
20
6.76694298534821
30
0
41
1
10
-5.62910582891868
20
6.80551115138627
30
0
41
1
10
-5.79238720600742
20
6.87359848794483
30
0
41
1
10
-5.87738605118548
20
6.90291103819595
30
0
41
1
10
-6.04966564042599
20
6.94993403370722
30
0
41
1
10
-6.13756051826556
20
6.96792637087054
30
0
41
1
10
-6.31709499624006
20
6.99225989008042
30
0
41
1
10
-6.40924253974518
20
6.99849805315398
30
0
41
1
10
-6.5
20
6.99849805315398
30
0
0
SPLINE
5
20B
100
AcDbEntity
8
SK1
62
256
6
ByLayer
370
-1
48
1
60
0
100
AcDbSpline
70
4
71
3
72
8
73
4
40
0
40
0
40
0
40
0
40
1
40
1
40
1
40
1
41
1
10
-52.6000000000004
20
-6.99849805315466
30
0
41
1
10
-52.9473802440142
20
-6.78469639798683
30
0
41
1
10
-53.292222119692
20
-6.56578790669792
30
0
41
1
10
-53.6338144512151
20
-6.34034179467449
30
0
0
SPLINE
5
20C
100
AcDbEntity
8
SK1
62
256
6
ByLayer
370
-1
48
1
60
0
100
AcDbSpline
70
4
71
3
72
8
73
4
40
0
40
0
40
0
40
0
40
1
40
1
40
1
40
1
41
1
10
-54.516222729729
20
-6.81204395564961
30
0
41
1
10
-54.5439393896427
20
-6.87431425928901
30
0
41
1
10
-54.5718676648179
20
-6.93646419260506
30
0
41
1
10
-54.6
20
-6.99849805315392
30
0
0
SPLINE
5
20D
100
AcDbEntity
8
SK1
62
256
6
ByLayer
370
-1
48
1
60
0
100
AcDbSpline
70
4
71
3
72
20
73
16
40
0
40
0
40
0
40
0
40
0.125000000000007
40
0.125000000000007
40
0.250000000000015
40
0.250000000000015
40
0.312500000000018
40
0.312500000000018
40
0.375000000000022
40
0.375000000000022
40
0.500000000000012
40
0.500000000000012
40
0.750000000000006
40
0.750000000000006
40
1
40
1
40
1
40
1
41
1
10
-53.6338144512145
20
-6.34034179467375
30
0
41
1
10
-53.6736405326374
20
-6.31405714368671
30
0
41
1
10
-53.7174596238937
20
-6.2918915268643
30
0
41
1
10
-53.8100286430817
20
-6.26230917234659
30
0
41
1
10
-53.858409060093
20
-6.25510537770515
30
0
41
1
10
-53.930507607687
20
-6.25719119578449
30
0
41
1
10
-53.9548847131618
20
-6.26004287846277
30
0
41
1
10
-54.0024268232708
20
-6.26975628298462
30
0
41
1
10
-54.025531470073
20
-6.27654559824734
30
0
41
1
10
-54.0930893921825
20
-6.30200607369946
30
0
41
1
10
-54.136092797726
20
-6.32609087475549
30
0
41
1
10
-54.2534188607808
20
-6.41013429612562
30
0
41
1
10
-54.3194596979378
20
-6.48308041368765
30
0
41
1
10
-54.4306544823114
20
-6.63915672058906
30
0
41
1
10
-54.4771151388184
20
-6.72418194167685
30
0
41
1
10
-54.5162227297291
20
-6.81204395564961
30
0
0
SPLINE
5
20E
100
AcDbEntity
8
SK1
62
256
6
ByLayer
370
-1
48
1
60
0
100
AcDbSpline
70
4
71
3
72
8
73
4
40
0
40
0
40
0
40
0
40
1
40
1
40
1
40
1
41
1
10
-56.0000000000001
20
4.99854728896315
30
0
41
1
10
-55.7019755215914
20
5.68400902895925
30
0
41
1
10
-55.3641473109835
20
6.34826454962635
30
0
41
1
10
-55
20
6.99849805315404
30
0
0
SPLINE
5
20F
100
AcDbEntity
8
SK1
62
256
6
ByLayer
370
-1
48
1
60
0
100
AcDbSpline
70
4
71
3
72
20
73
16
40
0
40
0
40
0
40
0
40
0.25
40
0.25
40
0.375
40
0.375
40
0.5
40
0.5
40
0.625
40
0.625
40
0.75
40
0.75
40
0.875
40
0.875
40
1
40
1
40
1
40
1
41
1
10
-54.5162227297291
20
6.81204395564973
30
0
41
1
10
-54.4772709483907
20
6.72453199501689
30
0
41
1
10
-54.4306845518237
20
6.63914767831511
30
0
41
1
10
-54.3469265709005
20
6.52165950363116
30
0
41
1
10
-54.3163253277688
20
6.4838456686486
30
0
41
1
10
-54.2501041764424
20
6.41421731653315
30
0
41
1
10
-54.2145625265326
20
6.38236090680323
30
0
41
1
10
-54.1369222939179
20
6.32662557921188
30
0
41
1
10
-54.0940013611407
20
6.30244517653043
30
0
41
1
10
-54.0037548865671
20
6.26824500575401
30
0
41
1
10
-53.9556146989167
20
6.25796898452336
30
0
41
1
10
-53.8582046255659
20
6.25504848254033
30
0
41
1
10
-53.8099490429816
20
6.26234710426348
30
0
41
1
10
-53.7177558858445
20
6.29178438547694
30
0
41
1
10
-53.6739857261288
20
6.31382932086129
30
0
41
1
10
-53.6338144512151
20
6.3403417946746
30
0
0
SPLINE
5
210
100
AcDbEntity
8
SK1
62
256
6
ByLayer
370
-1
48
1
60
0
100
AcDbSpline
70
4
71
3
72
8
73
4
40
0
40
0
40
0
40
0
40
1
40
1
40
1
40
1
41
1
10
-53.6338144512151
20
6.34034179467457
30
0
41
1
10
-53.2922221196919
20
6.56578790669803
30
0
41
1
10
-52.9473802440142
20
6.78469639798695
30
0
41
1
10
-52.6000000000004
20
6.99849805315478
30
0
0
LINE
5
45
100
AcDbEntity
8
80
62
256
6
ByLayer
370
-1
48
1
60
0
100
AcDbLine
10
0
20
0
30
0
11
-7
21
0
31
0
39
0
210
0
220
0
230
1
0
LINE
5
46
100
AcDbEntity
8
81
62
256
6
ByLayer
370
-1
48
1
60
0
100
AcDbLine
10
109
20
0
30
0
11
116
21
0
31
0
39
0
210
0
220
0
230
1
0
LINE
5
47
100
AcDbEntity
8
1
62
256
6
ByLayer
370
-1
48
1
60
0
100
AcDbLine
10
0.2
20
16
30
0
11
0
21
15.8
31
0
39
0
210
0
220
0
230
1
0
LINE
5
49
100
AcDbEntity
8
1
62
256
6
ByLayer
370
-1
48
1
60
0
100
AcDbLine
10
0
20
-15.8
30
0
11
0.2
21
-16
31
0
39
0
210
0
220
0
230
1
0
LINE
5
4A
100
AcDbEntity
8
1
62
256
6
ByLayer
370
-1
48
1
60
0
100
AcDbLine
10
5
20
16
30
0
11
0.2
21
16
31
0
39
0
210
0
220
0
230
1
0
LINE
5
4B
100
AcDbEntity
8
1
62
256
6
ByLayer
370
-1
48
1
60
0
100
AcDbLine
10
0.2
20
-16
30
0
11
5
21
-16
31
0
39
0
210
0
220
0
230
1
0
LINE
5
4C
100
AcDbEntity
8
1
62
256
6
ByLayer
370
-1
48
1
60
0
100
AcDbLine
10
53.711595
20
10.653172
30
0
11
23
21
10.82
31
0
39
0
210
0
220
0
230
1
0
LINE
5
4D
100
AcDbEntity
8
1
62
256
6
ByLayer
370
-1
48
1
60
0
100
AcDbLine
10
23
20
10.82
30
0
11
18
21
10.82
31
0
39
0
210
0
220
0
230
1
0
LINE
5
4E
100
AcDbEntity
8
1
62
256
6
ByLayer
370
-1
48
1
60
0
100
AcDbLine
10
18
20
-10.82
30
0
11
23
21
-10.82
31
0
39
0
210
0
220
0
230
1
0
LINE
5
4F
100
AcDbEntity
8
1
62
256
6
ByLayer
370
-1
48
1
60
0
100
AcDbLine
10
23
20
-10.82
30
0
11
48.550438
21
-10.681207
31
0
39
0
210
0
220
0
230
1
0
LINE
5
50
100
AcDbEntity
8
1
62
256
6
ByLayer
370
-1
48
1
60
0
100
AcDbLine
10
101.029998
20
10.6
30
0
11
98.996485
21
10.6
31
0
39
0
210
0
220
0
230
1
0
LINE
5
51
100
AcDbEntity
8
SK1
62
256
6
ByLayer
370
-1
48
1
60
0
100
AcDbLine
10
-2
20
12.49675
30
0
11
-52.6
21
12.49675
31
0
39
0
210
0
220
0
230
1
0
LINE
5
53
100
AcDbEntity
8
SK1
62
256
6
ByLayer
370
-1
48
1
60
0
100
AcDbLine
10
-52.6
20
-12.49675
30
0
11
-2
21
-12.49675
31
0
39
0
210
0
220
0
230
1
0
LINE
5
54
100
AcDbEntity
8
SK1
62
256
6
ByLayer
370
-1
48
1
60
0
100
AcDbLine
10
-2
20
-12.49675
30
0
11
-1.551212
21
-12.287477
31
0
39
0
210
0
220
0
230
1
0
LINE
5
55
100
AcDbEntity
8
SK1
62
256
6
ByLayer
370
-1
48
1
60
0
100
AcDbLine
10
-1.551212
20
12.287477
30
0
11
-2
21
12.49675
31
0
39
0
210
0
220
0
230
1
0
LINE
5
56
100
AcDbEntity
8
SK1
62
256
6
ByLayer
370
-1
48
1
60
0
100
AcDbLine
10
-0.15
20
12.25
30
0
11
-1.382165
21
12.25
31
0
39
0
210
0
220
0
230
1
0
LINE
5
57
100
AcDbEntity
8
SK1
62
256
6
ByLayer
370
-1
48
1
60
0
100
AcDbLine
10
-1.382165
20
-12.25
30
0
11
-0.15
21
-12.25
31
0
39
0
210
0
220
0
230
1
0
LINE
5
58
100
AcDbEntity
8
SK1
62
256
6
ByLayer
370
-1
48
1
60
0
100
AcDbLine
10
-55
20
12.49675
30
0
11
-56
21
11.49675
31
0
39
0
210
0
220
0
230
1
0
LINE
5
59
100
AcDbEntity
8
SK1
62
256
6
ByLayer
370
-1
48
1
60
0
100
AcDbLine
10
-56
20
-11.49675
30
0
11
-55
21
-12.49675
31
0
39
0
210
0
220
0
230
1
0
LINE
5
5A
100
AcDbEntity
8
SK1
62
256
6
ByLayer
370
-1
48
1
60
0
100
AcDbLine
10
-54.6
20
-12.49675
30
0
11
-54.516223
21
-12.393294
31
0
39
0
210
0
220
0
230
1
0
LINE
5
5B
100
AcDbEntity
8
SK1
62
256
6
ByLayer
370
-1
48
1
60
0
100
AcDbLine
10
-54.516223
20
12.393294
30
0
11
-54.6
21
12.49675
31
0
39
0
210
0
220
0
230
1
0
LINE
5
5C
100
AcDbEntity
8
SK1
62
256
6
ByLayer
370
-1
48
1
60
0
100
AcDbLine
10
-52.6
20
12.49675
30
0
11
-53.633814
21
12.140417
31
0
39
0
210
0
220
0
230
1
0
LINE
5
5D
100
AcDbEntity
8
SK1
62
256
6
ByLayer
370
-1
48
1
60
0
100
AcDbLine
10
-53.633814
20
-12.140417
30
0
11
-52.6
21
-12.49675
31
0
39
0
210
0
220
0
230
1
0
LINE
5
5E
100
AcDbEntity
8
SK1
62
256
6
ByLayer
370
-1
48
1
60
0
100
AcDbLine
10
-54.6
20
12.49675
30
0
11
-55
21
12.49675
31
0
39
0
210
0
220
0
230
1
0
LINE
5
5F
100
AcDbEntity
8
SK1
62
256
6
ByLayer
370
-1
48
1
60
0
100
AcDbLine
10
-55
20
-12.49675
30
0
11
-54.6
21
-12.49675
31
0
39
0
210
0
220
0
230
1
0
LINE
5
60
100
AcDbEntity
8
SK4
62
256
6
ByLayer
370
-1
48
0.05
60
0
100
AcDbLine
10
109
20
0
30
0
11
-56
21
0
31
0
39
0
210
0
220
0
230
1
0
LINE
5
62
100
AcDbEntity
8
4
62
256
6
ByLayer
370
-1
48
0.05
60
0
100
AcDbLine
10
109
20
0
30
0
11
0
21
0
31
0
39
0
210
0
220
0
230
1
0
LINE
5
64
100
AcDbEntity
8
1
62
256
6
ByLayer
370
-1
48
1
60
0
100
AcDbLine
10
100.702466
20
6.108926
30
0
11
100.747084
21
4.709643
31
0
39
0
210
0
220
0
230
1
0
LINE
5
65
100
AcDbEntity
8
1
62
256
6
ByLayer
370
-1
48
1
60
0
100
AcDbLine
10
107.938469
20
0.611712
30
0
11
107.937275
21
0.607779
31
0
39
0
210
0
220
0
230
1
0
LINE
5
66
100
AcDbEntity
8
1
62
256
6
ByLayer
370
-1
48
1
60
0
100
AcDbLine
10
108.082551
20
-10.59045
30
0
11
108.474451
21
-6.174557
31
0
39
0
210
0
220
0
230
1
0
LINE
5
67
100
AcDbEntity
8
1
62
256
6
ByLayer
370
-1
48
1
60
0
100
AcDbLine
10
99.210667
20
6.732046
30
0
11
97.830734
21
7.013502
31
0
39
0
210
0
220
0
230
1
0
LINE
5
68
100
AcDbEntity
8
1
62
256
6
ByLayer
370
-1
48
1
60
0
100
AcDbLine
10
95.776602
20
6.64
30
0
11
97.858562
21
6.64
31
0
39
0
210
0
220
0
230
1
0
LINE
5
69
100
AcDbEntity
8
1
62
256
6
ByLayer
370
-1
48
1
60
0
100
AcDbLine
10
99.333103
20
2.159919
30
0
11
99.132684
21
1.470437
31
0
39
0
210
0
220
0
230
1
0
LINE
5
6A
100
AcDbEntity
8
1
62
256
6
ByLayer
370
-1
48
1
60
0
100
AcDbLine
10
107.938469
20
0.611712
30
0
11
108.059543
21
3.659149
31
0
39
0
210
0
220
0
230
1
0
LINE
5
6B
100
AcDbEntity
8
1
62
256
6
ByLayer
370
-1
48
1
60
0
100
AcDbLine
10
99.479046
20
4.034963
30
0
11
99.925963
21
3.835223
31
0
39
0
210
0
220
0
230
1
0
LINE
5
6C
100
AcDbEntity
8
1
62
256
6
ByLayer
370
-1
48
1
60
0
100
AcDbLine
10
97.830734
20
10.595196
30
0
11
97.830734
21
7.013502
31
0
39
0
210
0
220
0
230
1
0
LINE
5
6D
100
AcDbEntity
8
1
62
256
6
ByLayer
370
-1
48
1
60
0
100
AcDbLine
10
5
20
16
30
0
11
5
21
-16
31
0
39
0
210
0
220
0
230
1
0
LINE
5
6E
100
AcDbEntity
8
1
62
256
6
ByLayer
370
-1
48
1
60
0
100
AcDbLine
10
100.747084
20
4.709643
30
0
11
100.973689
21
4.709643
31
0
39
0
210
0
220
0
230
1
0
LINE
5
6F
100
AcDbEntity
8
1
62
256
6
ByLayer
370
-1
48
1
60
0
100
AcDbLine
10
23
20
10.82
30
0
11
23
21
5.22768
31
0
39
0
210
0
220
0
230
1
0
LINE
5
70
100
AcDbEntity
8
1
62
256
6
ByLayer
370
-1
48
1
60
0
100
AcDbLine
10
63.5
20
10.259755
30
0
11
63.5
21
-5.62245
31
0
39
0
210
0
220
0
230
1
0
LINE
5
71
100
AcDbEntity
8
1
62
256
6
ByLayer
370
-1
48
1
60
0
100
AcDbLine
10
107.855867
20
0.105864
30
0
11
106.913011
21
0.592962
31
0
39
0
210
0
220
0
230
1
0
LINE
5
72
100
AcDbEntity
8
1
62
256
6
ByLayer
370
-1
48
1
60
0
100
AcDbLine
10
101.117627
20
7.258833
30
0
11
101.144878
21
7.258833
31
0
39
0
210
0
220
0
230
1
0
LINE
5
73
100
AcDbEntity
8
1
62
256
6
ByLayer
370
-1
48
1
60
0
100
AcDbLine
10
100.863457
20
-10.59045
30
0
11
108.082551
21
-10.59045
31
0
39
0
210
0
220
0
230
1
0
LINE
5
74
100
AcDbEntity
8
1
62
256
6
ByLayer
370
-1
48
1
60
0
100
AcDbLine
10
23
20
-10.82
30
0
11
23
21
-8.498995
31
0
39
0
210
0
220
0
230
1
0
LINE
5
75
100
AcDbEntity
8
1
62
256
6
ByLayer
370
-1
48
1
60
0
100
AcDbLine
10
107.544878
20
3.474271
30
0
11
107.694377
21
3.474271
31
0
39
0
210
0
220
0
230
1
0
LINE
5
76
100
AcDbEntity
8
1
62
256
6
ByLayer
370
-1
48
1
60
0
100
AcDbLine
10
108.140514
20
-5.313416
30
0
11
107.889391
21
-5.183681
31
0
39
0
210
0
220
0
230
1
0
LINE
5
77
100
AcDbEntity
8
1
62
256
6
ByLayer
370
-1
48
1
60
0
100
AcDbLine
10
107.937275
20
0.607779
30
0
11
107.871027
21
0.610087
31
0
39
0
210
0
220
0
230
1
0
LINE
5
78
100
AcDbEntity
8
1
62
256
6
ByLayer
370
-1
48
1
60
0
100
AcDbLine
10
0
20
15.8
30
0
11
0
21
-15.8
31
0
39
0
210
0
220
0
230
1
0
LINE
5
79
100
AcDbEntity
8
1
62
256
6
ByLayer
370
-1
48
1
60
0
100
AcDbLine
10
100.319838
20
4.566059
30
0
11
98.123748
21
5.547556
31
0
39
0
210
0
220
0
230
1
0
LINE
5
7A
100
AcDbEntity
8
1
62
256
6
ByLayer
370
-1
48
1
60
0
100
AcDbLine
10
101.117627
20
7.258833
30
0
11
101.011159
21
10.597796
31
0
39
0
210
0
220
0
230
1
0
LINE
5
7B
100
AcDbEntity
8
1
62
256
6
ByLayer
370
-1
48
1
60
0
100
AcDbLine
10
107.917473
20
3.462538
30
0
11
107.708539
21
3.465409
31
0
39
0
210
0
220
0
230
1
0
LINE
5
7C
100
AcDbEntity
8
1
62
256
6
ByLayer
370
-1
48
1
60
0
100
AcDbLine
10
107.708539
20
3.465409
30
0
11
107.544878
21
3.474271
31
0
39
0
210
0
220
0
230
1
0
LINE
5
7D
100
AcDbEntity
8
1
62
256
6
ByLayer
370
-1
48
1
60
0
100
AcDbLine
10
107.694432
20
3.474272
30
0
11
107.917473
21
3.462538
31
0
39
0
210
0
220
0
230
1
0
LINE
5
7E
100
AcDbEntity
8
1
62
256
6
ByLayer
370
-1
48
1
60
0
100
AcDbLine
10
18
20
10.82
30
0
11
18
21
6.532325
31
0
39
0
210
0
220
0
230
1
0
LINE
5
7F
100
AcDbEntity
8
1
62
256
6
ByLayer
370
-1
48
1
60
0
100
AcDbLine
10
107.886222
20
0.63746
30
0
11
107.896194
21
0.637113
31
0
39
0
210
0
220
0
230
1
0
LINE
5
80
100
AcDbEntity
8
1
62
256
6
ByLayer
370
-1
48
1
60
0
100
AcDbLine
10
0.2
20
16
30
0
11
0.2
21
-16
31
0
39
0
210
0
220
0
230
1
0
LINE
5
81
100
AcDbEntity
8
1
62
256
6
ByLayer
370
-1
48
1
60
0
100
AcDbLine
10
108.474451
20
-6.174557
30
0
11
108.146563
21
-6.112241
31
0
39
0
210
0
220
0
230
1
0
LINE
5
82
100
AcDbEntity
8
1
62
256
6
ByLayer
370
-1
48
1
60
0
100
AcDbLine
10
106.876835
20
1.235371
30
0
11
107.708539
21
3.465409
31
0
39
0
210
0
220
0
230
1
0
LINE
5
83
100
AcDbEntity
8
1
62
256
6
ByLayer
370
-1
48
1
60
0
100
AcDbLine
10
100.929071
20
6.108926
30
0
11
100.973689
21
4.709643
31
0
39
0
210
0
220
0
230
1
0
LINE
5
84
100
AcDbEntity
8
1
62
256
6
ByLayer
370
-1
48
1
60
0
100
AcDbLine
10
101.882068
20
0.936776
30
0
11
102.522914
21
3.141419
31
0
39
0
210
0
220
0
230
1
0
LINE
5
85
100
AcDbEntity
8
1
62
256
6
ByLayer
370
-1
48
1
60
0
100
AcDbLine
10
18
20
-10.82
30
0
11
18
21
-7.548637
31
0
39
0
210
0
220
0
230
1
0
LINE
5
86
100
AcDbEntity
8
1
62
256
6
ByLayer
370
-1
48
1
60
0
100
AcDbLine
10
101.190036
20
7.290516
30
0
11
101.340076
21
7.290516
31
0
39
0
210
0
220
0
230
1
0
LINE
5
87
100
AcDbEntity
8
1
62
256
6
ByLayer
370
-1
48
1
60
0
100
AcDbLine
10
101.35223
20
3.393493
30
0
11
101.402598
21
3.393493
31
0
39
0
210
0
220
0
230
1
0
LINE
5
88
100
AcDbEntity
8
1
62
256
6
ByLayer
370
-1
48
1
60
0
100
AcDbLine
10
107.857091
20
0.081426
30
0
11
108.140514
21
-5.313416
31
0
39
0
210
0
220
0
230
1
0
LINE
5
89
100
AcDbEntity
8
1
62
256
6
ByLayer
370
-1
48
1
60
0
100
AcDbLine
10
107.938469
20
0.611712
30
0
11
107.896194
21
0.637113
31
0
39
0
210
0
220
0
230
1
0
LINE
5
8A
100
AcDbEntity
8
1
62
256
6
ByLayer
370
-1
48
1
60
0
100
AcDbLine
10
99.925963
20
3.835223
30
0
11
99.90757
21
3.835223
31
0
39
0
210
0
220
0
230
1
0
LINE
5
8B
100
AcDbEntity
8
1
62
256
6
ByLayer
370
-1
48
1
60
0
100
AcDbLine
10
101.038352
20
10.599571
30
0
11
101.144878
21
7.258833
31
0
39
0
210
0
220
0
230
1
0
LINE
5
8C
100
AcDbEntity
8
1
62
256
6
ByLayer
370
-1
48
1
60
0
100
AcDbLine
10
108.140514
20
-5.313416
30
0
11
108.129306
21
-5.439701
31
0
39
0
210
0
220
0
230
1
0
LINE
5
8D
100
AcDbEntity
8
1
62
256
6
ByLayer
370
-1
48
1
60
0
100
AcDbLine
10
99.210667
20
6.732046
30
0
11
99.210667
21
10.599838
31
0
39
0
210
0
220
0
230
1
0
LINE
5
8E
100
AcDbEntity
8
1
62
256
6
ByLayer
370
-1
48
1
60
0
100
AcDbLine
10
103.060588
20
3.317078
30
0
11
107.544878
21
3.474271
31
0
39
0
210
0
220
0
230
1
0
LINE
5
8F
100
AcDbEntity
8
1
62
256
6
ByLayer
370
-1
48
1
60
0
100
AcDbLine
10
107.668085
20
-5.06935
30
0
11
107.391435
21
-4.926426
31
0
39
0
210
0
220
0
230
1
0
LINE
5
90
100
AcDbEntity
8
1
62
256
6
ByLayer
370
-1
48
1
60
0
100
AcDbLine
10
100.702466
20
6.108926
30
0
11
100.929071
21
6.108926
31
0
39
0
210
0
220
0
230
1
0
LINE
5
91
100
AcDbEntity
8
SK1
62
256
6
ByLayer
370
-1
48
1
60
0
100
AcDbLine
10
-0.15
20
12.25
30
0
11
-0.15
21
-12.25
31
0
39
0
210
0
220
0
230
1
0
LINE
5
92
100
AcDbEntity
8
1
62
256
6
ByLayer
370
-1
48
1
60
0
100
AcDbLine
10
101.454804
20
4.024172
30
0
11
101.52364
21
4.027923
31
0
39
0
210
0
220
0
230
1
0
LINE
5
93
100
AcDbEntity
8
1
62
256
6
ByLayer
370
-1
48
1
60
0
100
AcDbLine
10
101.810744
20
10.843521
30
0
11
101.813948
21
10.773889
31
0
39
0
210
0
220
0
230
1
0
LINE
5
94
100
AcDbEntity
8
1
62
256
6
ByLayer
370
-1
48
1
60
0
100
AcDbLine
10
107.942203
20
11.059141
30
0
11
107.943464
21
10.989431
31
0
39
0
210
0
220
0
230
1
0
LINE
5
95
100
AcDbEntity
8
1
62
256
6
ByLayer
370
-1
48
1
60
0
100
AcDbLine
10
101.242756
20
10.088089
30
0
11
101.448841
21
4.164049
31
0
39
0
210
0
220
0
230
1
0
LINE
5
96
100
AcDbEntity
8
1
62
256
6
ByLayer
370
-1
48
1
60
0
100
AcDbLine
10
101.245368
20
10.45558
30
0
11
101.312524
21
10.439893
31
0
39
0
210
0
220
0
230
1
0
LINE
5
97
100
AcDbEntity
8
1
62
256
6
ByLayer
370
-1
48
1
60
0
100
AcDbLine
10
101.6516
20
10.833634
30
0
11
101.655914
21
10.764071
31
0
39
0
210
0
220
0
230
1
0
LINE
5
98
100
AcDbEntity
8
1
62
256
6
ByLayer
370
-1
48
1
60
0
100
AcDbLine
10
101.908497
20
3.448947
30
0
11
101.907966
21
3.518681
31
0
39
0
210
0
220
0
230
1
0
LINE
5
99
100
AcDbEntity
8
1
62
256
6
ByLayer
370
-1
48
1
60
0
100
AcDbLine
10
108.407347
20
3.676759
30
0
11
108.40197
21
3.746323
31
0
39
0
210
0
220
0
230
1
0
LINE
5
9A
100
AcDbEntity
8
1
62
256
6
ByLayer
370
-1
48
1
60
0
100
AcDbLine
10
108.217678
20
11.053757
30
0
11
108.20152
21
10.985811
31
0
39
0
210
0
220
0
230
1
0
LINE
5
9B
100
AcDbEntity
8
1
62
256
6
ByLayer
370
-1
48
1
60
0
100
AcDbLine
10
102.207362
20
3.454015
30
0
11
102.204406
21
3.523706
31
0
39
0
210
0
220
0
230
1
0
LINE
5
9C
100
AcDbEntity
8
1
62
256
6
ByLayer
370
-1
48
1
60
0
100
AcDbLine
10
102.116744
20
3.451252
30
0
11
102.11442
21
3.520963
31
0
39
0
210
0
220
0
230
1
0
LINE
5
9D
100
AcDbEntity
8
1
62
256
6
ByLayer
370
-1
48
1
60
0
100
AcDbLine
10
108.610106
20
10.346345
30
0
11
108.540148
21
10.343911
31
0
39
0
210
0
220
0
230
1
0
LINE
5
9E
100
AcDbEntity
8
1
62
256
6
ByLayer
370
-1
48
1
60
0
100
AcDbLine
10
108.473878
20
3.689137
30
0
11
108.453036
21
3.755823
31
0
39
0
210
0
220
0
230
1
0
LINE
5
9F
100
AcDbEntity
8
1
62
256
6
ByLayer
370
-1
48
1
60
0
100
AcDbLine
10
101.238984
20
10.228042
30
0
11
101.307912
21
10.229158
31
0
39
0
210
0
220
0
230
1
0
LINE
5
A0
100
AcDbEntity
8
1
62
256
6
ByLayer
370
-1
48
1
60
0
100
AcDbLine
10
101.237708
20
10.388095
30
0
11
101.306645
21
10.388095
31
0
39
0
210
0
220
0
230
1
0
LINE
5
A1
100
AcDbEntity
8
1
62
256
6
ByLayer
370
-1
48
1
60
0
100
AcDbLine
10
108.581964
20
10.712758
30
0
11
108.514999
21
10.69237
31
0
39
0
210
0
220
0
230
1
0
LINE
5
A2
100
AcDbEntity
8
1
62
256
6
ByLayer
370
-1
48
1
60
0
100
AcDbLine
10
107.851585
20
11.056379
30
0
11
107.853478
21
10.986688
31
0
39
0
210
0
220
0
230
1
0
LINE
5
A3
100
AcDbEntity
8
1
62
256
6
ByLayer
370
-1
48
1
60
0
100
AcDbLine
10
101.585069
20
10.821257
30
0
11
101.604848
21
10.75457
31
0
39
0
210
0
220
0
230
1
0
LINE
5
A4
100
AcDbEntity
8
1
62
256
6
ByLayer
370
-1
48
1
60
0
100
AcDbLine
10
108.819963
20
4.282352
30
0
11
108.749972
21
4.281236
31
0
39
0
210
0
220
0
230
1
0
LINE
5
A5
100
AcDbEntity
8
1
62
256
6
ByLayer
370
-1
48
1
60
0
100
AcDbLine
10
101.859499
20
10.845917
30
0
11
101.862023
21
10.776251
31
0
39
0
210
0
220
0
230
1
0
LINE
5
A6
100
AcDbEntity
8
1
62
256
6
ByLayer
370
-1
48
1
60
0
100
AcDbLine
10
108.248203
20
3.666872
30
0
11
108.243935
21
3.736505
31
0
39
0
210
0
220
0
230
1
0
LINE
5
A7
100
AcDbEntity
8
1
62
256
6
ByLayer
370
-1
48
1
60
0
100
AcDbLine
10
108.604144
20
10.486221
30
0
11
108.534244
21
10.482471
31
0
39
0
210
0
220
0
230
1
0
LINE
5
A8
100
AcDbEntity
8
1
62
256
6
ByLayer
370
-1
48
1
60
0
100
AcDbLine
10
102.067941
20
3.450228
30
0
11
102.066298
21
3.519953
31
0
39
0
210
0
220
0
230
1
0
LINE
5
A9
100
AcDbEntity
8
1
62
256
6
ByLayer
370
-1
48
1
60
0
100
AcDbLine
10
108.816191
20
4.422305
30
0
11
108.610106
21
10.346345
31
0
39
0
210
0
220
0
230
1
0
LINE
5
AA
100
AcDbEntity
8
1
62
256
6
ByLayer
370
-1
48
1
60
0
100
AcDbLine
10
102.207362
20
3.454015
30
0
11
108.108859
21
3.660887
31
0
39
0
210
0
220
0
230
1
0
LINE
5
AB
100
AcDbEntity
8
1
62
256
6
ByLayer
370
-1
48
1
60
0
100
AcDbLine
10
108.15045
20
11.061446
30
0
11
108.149918
21
10.991713
31
0
39
0
210
0
220
0
230
1
0
LINE
5
AC
100
AcDbEntity
8
1
62
256
6
ByLayer
370
-1
48
1
60
0
100
AcDbLine
10
101.464653
20
3.86442
30
0
11
101.53342
21
3.869284
31
0
39
0
210
0
220
0
230
1
0
LINE
5
AD
100
AcDbEntity
8
1
62
256
6
ByLayer
370
-1
48
1
60
0
100
AcDbLine
10
108.108859
20
3.660887
30
0
11
108.105903
21
3.730578
31
0
39
0
210
0
220
0
230
1
0
LINE
5
AE
100
AcDbEntity
8
1
62
256
6
ByLayer
370
-1
48
1
60
0
100
AcDbLine
10
108.821239
20
4.122299
30
0
11
108.751239
21
4.122299
31
0
39
0
210
0
220
0
230
1
0
LINE
5
AF
100
AcDbEntity
8
1
62
256
6
ByLayer
370
-1
48
1
60
0
100
AcDbLine
10
101.448841
20
4.164049
30
0
11
101.517735
21
4.166482
31
0
39
0
210
0
220
0
230
1
0
LINE
5
B0
100
AcDbEntity
8
1
62
256
6
ByLayer
370
-1
48
1
60
0
100
AcDbLine
10
108.813579
20
4.054814
30
0
11
108.74536
21
4.0705
31
0
39
0
210
0
220
0
230
1
0
LINE
5
B1
100
AcDbEntity
8
1
62
256
6
ByLayer
370
-1
48
1
60
0
100
AcDbLine
10
108.199448
20
3.664477
30
0
11
108.19586
21
3.734143
31
0
39
0
210
0
220
0
230
1
0
LINE
5
B2
100
AcDbEntity
8
1
62
256
6
ByLayer
370
-1
48
1
60
0
100
AcDbLine
10
107.991006
20
11.060165
30
0
11
107.991586
21
10.990441
31
0
39
0
210
0
220
0
230
1
0
LINE
5
B3
100
AcDbEntity
8
1
62
256
6
ByLayer
370
-1
48
1
60
0
100
AcDbLine
10
108.594294
20
10.645973
30
0
11
108.524463
21
10.641109
31
0
39
0
210
0
220
0
230
1
0
LINE
5
B4
100
AcDbEntity
8
1
62
256
6
ByLayer
370
-1
48
1
60
0
100
AcDbLine
10
107.851585
20
11.056379
30
0
11
101.950088
21
10.849507
31
0
39
0
210
0
220
0
230
1
0
LINE
5
B5
100
AcDbEntity
8
1
62
256
6
ByLayer
370
-1
48
1
60
0
100
AcDbLine
10
108.816191
20
4.422305
30
0
11
108.746233
21
4.419871
31
0
39
0
210
0
220
0
230
1
0
LINE
5
B6
100
AcDbEntity
8
1
62
256
6
ByLayer
370
-1
48
1
60
0
100
AcDbLine
10
108.60653
20
10.43728
30
0
11
108.536597
21
10.434212
31
0
39
0
210
0
220
0
230
1
0
LINE
5
B7
100
AcDbEntity
8
1
62
256
6
ByLayer
370
-1
48
1
60
0
100
AcDbLine
10
101.452417
20
4.073113
30
0
11
101.521286
21
4.076181
31
0
39
0
210
0
220
0
230
1
0
LINE
5
B8
100
AcDbEntity
8
1
62
256
6
ByLayer
370
-1
48
1
60
0
100
AcDbLine
10
101.950088
20
10.849507
30
0
11
101.951981
21
10.779816
31
0
39
0
210
0
220
0
230
1
0
LINE
5
B9
100
AcDbEntity
8
1
62
256
6
ByLayer
370
-1
48
1
60
0
100
AcDbLine
10
101.841269
20
3.456636
30
0
11
101.856364
21
3.524583
31
0
39
0
210
0
220
0
230
1
0
LINE
5
BA
100
AcDbEntity
8
1
62
256
6
ByLayer
370
-1
48
1
60
0
100
AcDbLine
10
101.476984
20
3.797635
30
0
11
101.542885
21
3.818024
31
0
39
0
210
0
220
0
230
1
0
LINE
5
BB
100
AcDbEntity
8
1
62
256
6
ByLayer
370
-1
48
1
60
0
100
AcDbLine
10
101.240004
20
10.179053
30
0
11
101.308918
21
10.180852
31
0
39
0
210
0
220
0
230
1
0
LINE
5
BC
100
AcDbEntity
8
1
62
256
6
ByLayer
370
-1
48
1
60
0
100
AcDbLine
10
108.818943
20
4.331341
30
0
11
108.748966
21
4.329541
31
0
39
0
210
0
220
0
230
1
0
LINE
5
BD
100
AcDbEntity
8
1
62
256
6
ByLayer
370
-1
48
1
60
0
100
AcDbLine
10
101.242756
20
10.088089
30
0
11
101.31165
21
10.090522
31
0
39
0
210
0
220
0
230
1
0
LINE
5
BE
100
AcDbEntity
8
1
62
256
6
ByLayer
370
-1
48
1
60
0
100
AcDbLine
10
108.450808
20
-2.3867
30
0
11
108.370339
21
-0.85501
31
0
39
0
210
0
220
0
230
1
0
LINE
5
BF
100
AcDbEntity
8
1
62
256
6
ByLayer
370
-1
48
1
60
0
100
AcDbLine
10
108.370339
20
-0.85501
30
0
11
108.047997
21
-0.816057
31
0
39
0
210
0
220
0
230
1
0
LINE
5
C0
100
AcDbEntity
8
1
62
256
6
ByLayer
370
-1
48
1
60
0
100
AcDbLine
10
108.128466
20
-2.347747
30
0
11
108.450808
21
-2.3867
31
0
39
0
210
0
220
0
230
1
0
LINE
5
C1
100
AcDbEntity
8
1
62
256
6
ByLayer
370
-1
48
1
60
0
100
AcDbLine
10
108.563959
20
-0.642768
30
0
11
108.344424
21
-0.561444
31
0
39
0
210
0
220
0
230
1
0
LINE
5
C2
100
AcDbEntity
8
1
62
256
6
ByLayer
370
-1
48
1
60
0
100
AcDbLine
10
108.893882
20
-3.298271
30
0
11
108.685663
21
-3.270237
31
0
39
0
210
0
220
0
230
1
0
LINE
5
C3
100
AcDbEntity
8
1
62
256
6
ByLayer
370
-1
48
1
60
0
100
AcDbLine
10
108.563959
20
-0.642768
30
0
11
108.196194
21
0.365199
31
0
39
0
210
0
220
0
230
1
0
LINE
5
C4
100
AcDbEntity
8
1
62
256
6
ByLayer
370
-1
48
1
60
0
100
AcDbLine
10
108.542785
20
-5.73272
30
0
11
108.110547
21
-5.75801
31
0
39
0
210
0
220
0
230
1
0
LINE
5
C5
100
AcDbEntity
8
1
62
256
6
ByLayer
370
-1
48
1
60
0
100
AcDbLine
10
108.31962
20
-4.266721
30
0
11
108.342646
21
-3.608949
31
0
39
0
210
0
220
0
230
1
0
LINE
5
C6
100
AcDbEntity
8
1
62
256
6
ByLayer
370
-1
48
1
60
0
100
AcDbLine
10
107.882105
20
-0.394622
30
0
11
108.227261
21
-0.116585
31
0
39
0
210
0
220
0
230
1
0
LINE
5
C7
100
AcDbEntity
8
1
62
256
6
ByLayer
370
-1
48
1
60
0
100
AcDbLine
10
108.196194
20
0.365199
30
0
11
108.143603
21
0.335131
31
0
39
0
210
0
220
0
230
1
0
LINE
5
C8
100
AcDbEntity
8
1
62
256
6
ByLayer
370
-1
48
1
60
0
100
AcDbLine
10
108.765173
20
-3.679473
30
0
11
108.742147
21
-4.337246
31
0
39
0
210
0
220
0
230
1
0
LINE
5
C9
100
AcDbEntity
8
1
62
256
6
ByLayer
370
-1
48
1
60
0
100
AcDbLine
10
108.683779
20
-2.507058
30
0
11
108.450808
21
-2.3867
31
0
39
0
210
0
220
0
230
1
0
LINE
5
CA
100
AcDbEntity
8
1
62
256
6
ByLayer
370
-1
48
1
60
0
100
AcDbLine
10
108.41956
20
-4.270203
30
0
11
108.742147
21
-4.337246
31
0
39
0
210
0
220
0
230
1
0
LINE
5
CB
100
AcDbEntity
8
1
62
256
6
ByLayer
370
-1
48
1
60
0
100
AcDbLine
10
108.256375
20
-4.660029
30
0
11
108.851781
21
-5.361839
31
0
39
0
210
0
220
0
230
1
0
LINE
5
CC
100
AcDbEntity
8
1
62
256
6
ByLayer
370
-1
48
1
60
0
100
AcDbLine
10
108.128466
20
-2.347747
30
0
11
108.047997
21
-0.816057
31
0
39
0
210
0
220
0
230
1
0
LINE
5
CD
100
AcDbEntity
8
1
62
256
6
ByLayer
370
-1
48
1
60
0
100
AcDbLine
10
108.143603
20
0.335131
30
0
11
108.227261
21
-0.116585
31
0
39
0
210
0
220
0
230
1
0
LINE
5
CE
100
AcDbEntity
8
1
62
256
6
ByLayer
370
-1
48
1
60
0
100
AcDbLine
10
108.128466
20
-2.347747
30
0
11
108.028603
21
-2.352968
31
0
39
0
210
0
220
0
230
1
0
LINE
5
CF
100
AcDbEntity
8
1
62
256
6
ByLayer
370
-1
48
1
60
0
100
AcDbLine
10
108.114084
20
-4.8105
30
0
11
108.256375
21
-4.660029
31
0
39
0
210
0
220
0
230
1
0
LINE
5
D0
100
AcDbEntity
8
1
62
256
6
ByLayer
370
-1
48
1
60
0
100
AcDbLine
10
108.999695
20
-3.7809
30
0
11
108.766913
21
-3.640462
31
0
39
0
210
0
220
0
230
1
0
LINE
5
D1
100
AcDbEntity
8
1
62
256
6
ByLayer
370
-1
48
1
60
0
100
AcDbLine
10
108.382498
20
-3.329714
30
0
11
108.672761
21
-3.244663
31
0
39
0
210
0
220
0
230
1
0
LINE
5
D2
100
AcDbEntity
8
1
62
256
6
ByLayer
370
-1
48
1
60
0
100
AcDbLine
10
108.593428
20
-0.787257
30
0
11
108.367837
21
-0.70369
31
0
39
0
210
0
220
0
230
1
0
LINE
5
D3
100
AcDbEntity
8
1
62
256
6
ByLayer
370
-1
48
1
60
0
100
AcDbLine
10
108.442586
20
-3.61243
30
0
11
108.765173
21
-3.679473
31
0
39
0
210
0
220
0
230
1
0
LINE
5
D4
100
AcDbEntity
8
1
62
256
6
ByLayer
370
-1
48
1
60
0
100
AcDbLine
10
108.683779
20
-2.507058
30
0
11
108.593428
21
-0.787257
31
0
39
0
210
0
220
0
230
1
0
LINE
5
D5
100
AcDbEntity
8
1
62
256
6
ByLayer
370
-1
48
1
60
0
100
AcDbLine
10
108.028603
20
-2.352968
30
0
11
107.948134
21
-0.821278
31
0
39
0
210
0
220
0
230
1
0
LINE
5
D6
100
AcDbEntity
8
1
62
256
6
ByLayer
370
-1
48
1
60
0
100
AcDbLine
10
108.41956
20
-4.270203
30
0
11
108.442586
21
-3.61243
31
0
39
0
210
0
220
0
230
1
0
LINE
5
D7
100
AcDbEntity
8
1
62
256
6
ByLayer
370
-1
48
1
60
0
100
AcDbLine
10
108.943856
20
-5.37603
30
0
11
108.999695
21
-3.7809
31
0
39
0
210
0
220
0
230
1
0
LINE
5
D8
100
AcDbEntity
8
1
62
256
6
ByLayer
370
-1
48
1
60
0
100
AcDbLine
10
108.615171
20
-5.827325
30
0
11
108.542785
21
-5.73272
31
0
39
0
210
0
220
0
230
1
0
LINE
5
D9
100
AcDbEntity
8
1
62
256
6
ByLayer
370
-1
48
1
60
0
100
AcDbLine
10
108.943856
20
-5.37603
30
0
11
108.839024
21
-5.239019
31
0
39
0
210
0
220
0
230
1
0
LINE
5
DA
100
AcDbEntity
8
1
62
256
6
ByLayer
370
-1
48
1
60
0
100
AcDbLine
10
108.11572
20
-6.008667
30
0
11
108.615171
21
-5.827325
31
0
39
0
210
0
220
0
230
1
0
LINE
5
DB
100
AcDbEntity
8
1
62
256
6
ByLayer
370
-1
48
1
60
0
100
AcDbLine
10
108.106849
20
-4.672775
30
0
11
108.183633
21
-4.591576
31
0
39
0
210
0
220
0
230
1
0
LINE
5
DC
100
AcDbEntity
8
1
62
256
6
ByLayer
370
-1
48
1
60
0
100
AcDbLine
10
108.169547
20
-3.595943
30
0
11
108.146521
21
-4.253716
31
0
39
0
210
0
220
0
230
1
0
LINE
5
DD
100
AcDbEntity
8
SK1
62
256
6
ByLayer
370
-1
48
1
60
0
100
AcDbLine
10
-55
20
6.998498
30
0
11
-54.6
21
6.998498
31
0
39
0
210
0
220
0
230
1
0
LINE
5
DE
100
AcDbEntity
8
SK1
62
256
6
ByLayer
370
-1
48
1
60
0
100
AcDbLine
10
-54.516223
20
-6.812044
30
0
11
-54.516223
21
-12.393294
31
0
39
0
210
0
220
0
230
1
0
LINE
5
DF
100
AcDbEntity
8
SK1
62
256
6
ByLayer
370
-1
48
1
60
0
100
AcDbLine
10
-54.516223
20
12.393294
30
0
11
-54.516223
21
6.812044
31
0
39
0
210
0
220
0
230
1
0
LINE
5
E0
100
AcDbEntity
8
SK1
62
256
6
ByLayer
370
-1
48
1
60
0
100
AcDbLine
10
-1.551212
20
12.287477
30
0
11
-1.551212
21
-12.287477
31
0
39
0
210
0
220
0
230
1
0
LINE
5
E1
100
AcDbEntity
8
SK1
62
256
6
ByLayer
370
-1
48
1
60
0
100
AcDbLine
10
-53.633814
20
-6.340342
30
0
11
-53.633814
21
-12.140417
31
0
39
0
210
0
220
0
230
1
0
LINE
5
E2
100
AcDbEntity
8
SK1
62
256
6
ByLayer
370
-1
48
1
60
0
100
AcDbLine
10
-53.633814
20
12.140417
30
0
11
-53.633814
21
6.340342
31
0
39
0
210
0
220
0
230
1
0
LINE
5
E3
100
AcDbEntity
8
SK1
62
256
6
ByLayer
370
-1
48
1
60
0
100
AcDbLine
10
-55
20
-6.998498
30
0
11
-55
21
-12.49675
31
0
39
0
210
0
220
0
230
1
0
LINE
5
E4
100
AcDbEntity
8
SK1
62
256
6
ByLayer
370
-1
48
1
60
0
100
AcDbLine
10
-55
20
12.49675
30
0
11
-55
21
6.998498
31
0
39
0
210
0
220
0
230
1
0
LINE
5
E5
100
AcDbEntity
8
SK1
62
256
6
ByLayer
370
-1
48
1
60
0
100
AcDbLine
10
-52.6
20
6.998498
30
0
11
-6.5
21
6.998498
31
0
39
0
210
0
220
0
230
1
0
LINE
5
E6
100
AcDbEntity
8
SK1
62
256
6
ByLayer
370
-1
48
1
60
0
100
AcDbLine
10
-1.382165
20
12.25
30
0
11
-1.382165
21
-12.25
31
0
39
0
210
0
220
0
230
1
0
LINE
5
E7
100
AcDbEntity
8
SK1
62
256
6
ByLayer
370
-1
48
1
60
0
100
AcDbLine
10
-2
20
-12.49675
30
0
11
-2
21
12.49675
31
0
39
0
210
0
220
0
230
1
0
LINE
5
E8
100
AcDbEntity
8
SK1
62
256
6
ByLayer
370
-1
48
1
60
0
100
AcDbLine
10
-56
20
4.998547
30
0
11
-56
21
-4.998547
31
0
39
0
210
0
220
0
230
1
0
LINE
5
E9
100
AcDbEntity
8
SK1
62
256
6
ByLayer
370
-1
48
1
60
0
100
AcDbLine
10
-6.5
20
-6.998498
30
0
11
-52.6
21
-6.998498
31
0
39
0
210
0
220
0
230
1
0
LINE
5
EA
100
AcDbEntity
8
SK1
62
256
6
ByLayer
370
-1
48
1
60
0
100
AcDbLine
10
-6.5
20
6.998498
30
0
11
-6.5
21
-6.998498
31
0
39
0
210
0
220
0
230
1
0
LINE
5
EB
100
AcDbEntity
8
SK1
62
256
6
ByLayer
370
-1
48
1
60
0
100
AcDbLine
10
-54.6
20
-12.49675
30
0
11
-54.6
21
-6.998498
31
0
39
0
210
0
220
0
230
1
0
LINE
5
EC
100
AcDbEntity
8
SK1
62
256
6
ByLayer
370
-1
48
1
60
0
100
AcDbLine
10
-54.6
20
6.998498
30
0
11
-54.6
21
12.49675
31
0
39
0
210
0
220
0
230
1
0
LINE
5
ED
100
AcDbEntity
8
SK1
62
256
6
ByLayer
370
-1
48
1
60
0
100
AcDbLine
10
-56
20
-4.998547
30
0
11
-56
21
-11.49675
31
0
39
0
210
0
220
0
230
1
0
LINE
5
EE
100
AcDbEntity
8
SK1
62
256
6
ByLayer
370
-1
48
1
60
0
100
AcDbLine
10
-56
20
11.49675
30
0
11
-56
21
4.998547
31
0
39
0
210
0
220
0
230
1
0
LINE
5
EF
100
AcDbEntity
8
SK1
62
256
6
ByLayer
370
-1
48
1
60
0
100
AcDbLine
10
-54.6
20
-6.998498
30
0
11
-55
21
-6.998498
31
0
39
0
210
0
220
0
230
1
0
LINE
5
F0
100
AcDbEntity
8
SK1
62
256
6
ByLayer
370
-1
48
1
60
0
100
AcDbLine
10
-52.6
20
6.998498
30
0
11
-52.6
21
12.49675
31
0
39
0
210
0
220
0
230
1
0
LINE
5
F1
100
AcDbEntity
8
SK1
62
256
6
ByLayer
370
-1
48
1
60
0
100
AcDbLine
10
-52.6
20
-12.49675
30
0
11
-52.6
21
-6.998498
31
0
39
0
210
0
220
0
230
1
0
MTEXT
5
211
100
AcDbEntity
8
SK6
62
256
6
ByLayer
370
-1
48
1
60
0
100
AcDbMText
10
0.79375
20
-80.79375
30
0
210
0
220
0
230
1
1
\W00.745;\fsimplex.shx,bigfont.shx;880-D2200L25-04 
40
3.175
41
0
44
1.084337
50
0
71
7
72
5
7
DEFAULT
0
DIMENSION
5
241
100
AcDbEntity
8
SK2
62
256
6
ByLayer
370
-3
48
1
60
0
100
AcDbDimension
2
DimnDraft3D1
10
109
20
-54.86955
30
0
11
26.5
21
-54.86955
31
0
70
32
71
5
72
1
41
1
210
0
220
0
230
1
3
Standard
100
AcDbAlignedDimension
13
-56
23
-14.0875
33
0
14
109
24
-12.5875
34
0
50
0
100
AcDbRotatedDimension
1001
ACAD
1000
DSTYLE
1002
{
1070
   279
1070
     0
1070
   172
1070
     1
1070
   173
1070
     1
1070
   340
1005
212
1070
   271
1070
     1
1070
   272
1070
     2
1070
    77
1070
     1
1070
    73
1070
     0
1070
   171
1070
     3
1070
   274
1070
     4
1070
   177
1070
   150
1070
   176
1070
     9
1070
   178
1070
    43
1070
    78
1070
     8
1070
    48
1040
-0.005
1070
    41
1041
4.175
1070
   147
1041
2.25
1070
    42
1041
1.5875
1070
    44
1041
3.175
1070
   140
1041
4.5
1070
   343
1005
0
1070
   344
1005
0
1002
}
0
DIMENSION
5
24B
100
AcDbEntity
8
SK2
62
256
6
ByLayer
370
-3
48
1
60
0
100
AcDbDimension
2
DimnDraft3D2
10
0
20
-42.9008
30
0
11
-28
21
-42.9008
31
0
70
32
71
5
72
1
41
1
210
0
220
0
230
1
3
Standard
100
AcDbAlignedDimension
13
-56
23
-14.0875
33
0
14
0
24
-17.5875
34
0
50
0
100
AcDbRotatedDimension
1001
ACAD
1000
DSTYLE
1002
{
1070
   279
1070
     0
1070
   172
1070
     1
1070
   173
1070
     1
1070
   340
1005
212
1070
   271
1070
     1
1070
   272
1070
     2
1070
    77
1070
     1
1070
    73
1070
     0
1070
   171
1070
     3
1070
   274
1070
     4
1070
   177
1070
   150
1070
   176
1070
     9
1070
   178
1070
    43
1070
    78
1070
     8
1070
    48
1040
-0.005
1070
    41
1041
4.175
1070
   147
1041
2.25
1070
    42
1041
1.5875
1070
    44
1041
3.175
1070
   140
1041
4.5
1070
   343
1005
0
1070
   344
1005
0
1002
}
0
DIMENSION
5
256
100
AcDbEntity
8
2
62
256
6
ByLayer
370
-3
48
1
60
0
100
AcDbDimension
2
DimnDraft3D3
10
109
20
-42.9008
30
0
11
54.5
21
-42.9008
31
0
70
32
71
5
72
1
41
1
210
0
220
0
230
1
3
Standard
100
AcDbAlignedDimension
13
0
23
-17.5875
33
0
14
109
24
-12.5875
34
0
50
0
100
AcDbRotatedDimension
1001
ACAD
1000
DSTYLE
1002
{
1070
   279
1070
     0
1070
   172
1070
     1
1070
   173
1070
     1
1070
   340
1005
212
1070
   271
1070
     1
1070
   272
1070
     2
1070
    77
1070
     1
1070
    73
1070
     0
1070
   171
1070
     3
1070
   274
1070
     4
1070
   177
1070
   150
1070
   176
1070
     9
1070
   178
1070
    43
1070
    78
1070
     8
1070
    48
1040
-0.005
1070
    41
1041
4.175
1070
   147
1041
2.25
1070
    42
1041
1.5875
1070
    44
1041
3.175
1070
   140
1041
4.5
1070
   343
1005
0
1070
   344
1005
0
1002
}
0
DIMENSION
5
260
100
AcDbEntity
8
SK2
62
256
6
ByLayer
370
-3
48
1
60
0
100
AcDbDimension
2
DimnDraft3D4
10
109
20
-32.9008
30
0
11
63.5
21
-32.9008
31
0
70
32
71
5
72
1
41
1
210
0
220
0
230
1
3
Standard
100
AcDbAlignedDimension
13
18
23
-11.5875
33
0
14
109
24
-12.5875
34
0
50
0
100
AcDbRotatedDimension
1001
ACAD
1000
DSTYLE
1002
{
1070
   279
1070
     0
1070
   172
1070
     1
1070
   173
1070
     1
1070
   340
1005
212
1070
   271
1070
     1
1070
   272
1070
     2
1070
    77
1070
     1
1070
    73
1070
     0
1070
   171
1070
     3
1070
   274
1070
     4
1070
   177
1070
   150
1070
   176
1070
     9
1070
   178
1070
    43
1070
    78
1070
     8
1070
    48
1040
-0.005
1070
    41
1041
4.175
1070
   147
1041
2.25
1070
    42
1041
1.5875
1070
    44
1041
3.175
1070
   140
1041
4.5
1070
   343
1005
0
1070
   344
1005
0
1002
}
0
DIMENSION
5
26B
100
AcDbEntity
8
SK2
62
256
6
ByLayer
370
-3
48
1
60
0
100
AcDbDimension
2
DimnDraft3D5
10
-67.9
20
-12.5
30
0
11
-68.1
21
4.121053
31
0
70
33
71
5
72
1
41
1
210
0
220
0
230
1
3
Standard
100
AcDbAlignedDimension
13
-57.5875
23
12.5
33
0
14
-57.5875
24
-12.5
34
0
1001
ACAD
1000
DSTYLE
1002
{
1070
   279
1070
     0
1070
    74
1070
     0
1070
   173
1070
     1
1070
   340
1005
212
1070
   271
1070
     2
1070
   272
1070
     2
1070
    77
1070
     1
1070
    73
1070
     0
1070
   171
1070
     3
1070
   274
1070
     4
1070
   177
1070
   150
1070
   176
1070
     9
1070
   178
1070
    43
1070
    78
1070
     8
1070
    48
1040
-0.005
1070
    41
1041
4.175
1070
   147
1041
2.25
1070
    42
1041
1.5875
1070
    44
1041
3.175
1070
   140
1041
4.5
1070
   343
1005
0
1070
   344
1005
0
1002
}
0
DIMENSION
5
276
100
AcDbEntity
8
SK2
62
256
6
ByLayer
370
-3
48
1
60
0
100
AcDbDimension
2
DimnDraft3D6
10
-77.9
20
16
30
0
11
-78.1
21
4.121053
31
0
70
33
71
5
72
1
41
1
210
0
220
0
230
1
3
Standard
100
AcDbAlignedDimension
13
-1.5875
23
-16
33
0
14
-1.5875
24
16
34
0
1001
ACAD
1000
DSTYLE
1002
{
1070
   279
1070
     0
1070
    74
1070
     0
1070
   173
1070
     1
1070
   340
1005
212
1070
   271
1070
     1
1070
   272
1070
     2
1070
    77
1070
     1
1070
    73
1070
     0
1070
   171
1070
     3
1070
   274
1070
     4
1070
   177
1070
   150
1070
   176
1070
     9
1070
   178
1070
    43
1070
    78
1070
     8
1070
    48
1040
-0.005
1070
    41
1041
4.175
1070
   147
1041
2.25
1070
    42
1041
1.5875
1070
    44
1041
3.175
1070
   140
1041
4.5
1070
   343
1005
0
1070
   344
1005
0
1002
}
0
DIMENSION
5
281
100
AcDbEntity
8
2
62
256
6
ByLayer
370
-3
48
1
60
0
100
AcDbDimension
2
DimnDraft3D7
10
139.15
20
-11
30
0
11
132.6
21
4.121053
31
0
70
33
71
5
72
1
41
1
210
0
220
0
230
1
3
Standard
100
AcDbAlignedDimension
13
110.5875
23
11
33
0
14
110.5875
24
-11
34
0
1001
ACAD
1000
DSTYLE
1002
{
1070
   279
1070
     0
1070
    74
1070
     0
1070
   173
1070
     1
1070
   340
1005
212
1070
   271
1070
     2
1070
   272
1070
     2
1070
    77
1070
     1
1070
    73
1070
     0
1070
   171
1070
     3
1070
   274
1070
     4
1070
   177
1070
   150
1070
   176
1070
     9
1070
   178
1070
    43
1070
    78
1070
     8
1070
    48
1040
-0.005
1070
    41
1041
4.175
1070
   147
1041
2.25
1070
    42
1041
1.5875
1070
    44
1041
3.175
1070
   140
1041
4.5
1070
   343
1005
0
1070
   344
1005
0
1002
}
0
ENDSEC
0
SECTION
2
OBJECTS
0
DICTIONARY
5
2b2
330
0
100
AcDbDictionary
280
0
281
1
3
ACAD_GROUP
350
2b3
3
ACAD_MLINESTYLE
350
2b4
0
DICTIONARY
5
2b3
330
0
100
AcDbDictionary
280
0
281
1
0
DICTIONARY
5
2b4
330
0
100
AcDbDictionary
280
0
281
1
3
Standard
350
18
0
MLINESTYLE
5
18
330
2b4
100
AcDbMlineStyle
2
Standard
70
0
3

62
256
51
90
52
90
71
2
49
-0.5
62
256
6
ByLayer
49
0.5
62
256
6
ByLayer
0
RASTERVARIABLES
5
2a0
330

100
AcDbRasterVariables
90
0
70
1
71
1
72
1
0
ENDSEC
0
EOF
