0
SECTION
2
HEADER
9
$ACADVER
1
AC1015
9
$DWGCODEPAGE
3
ANSI_1252
9
$HANDSEED
5
2c9
9
$ANGBASE
50
0
9
$ANGDIR
70
0
9
$ATTMODE
70
1
9
$AUNITS
70
0
9
$AUPREC
70
0
9
$CECOLOR
62
256
9
$CELTSCALE
40
1
9
$CELTYPE
6
ByLayer
9
$CELWEIGHT
370
-1
9
$CLAYER
8
0
9
$CMLJUST
70
0
9
$CMLSCALE
40
1
9
$CMLSTYLE
2
Standard
9
$DIMSTYLE
2
Standard
9
$TEXTSIZE
40
0.2
9
$TEXTSTYLE
7
Standard
9
$LUNITS
70
2
9
$LUPREC
70
4
9
$EXTNAMES
290
1
9
$INSUNITS
70
4
9
$LTSCALE
40
1
9
$LWDISPLAY
290
0
9
$PDMODE
70
0
9
$PDSIZE
40
0
9
$PLINEGEN
70
0
0
ENDSEC
0
SECTION
2
CLASSES
0
CLASS
1
RASTERVARIABLES
2
AcDbRasterVariables
3
ISM
90
0
280
0
281
0
0
ENDSEC
0
SECTION
2
TABLES
0
TABLE
2
VPORT
5
2bf
100
AcDbSymbolTable
0
VPORT
5
1
100
AcDbSymbolTableRecord
100
AcDbViewportTableRecord
2
*Active
70
0
10
0
20
0
11
1
21
1
12
-1
22
1
13
0
23
0
14
0.5
24
0.5
15
10
25
10
16
0
26
0
36
1
17
0
27
0
37
0
0
ENDTAB
0
TABLE
2
LTYPE
5
2c0
100
AcDbSymbolTable
0
LTYPE
5
14
100
AcDbSymbolTableRecord
100
AcDbLinetypeTableRecord
70
0
2
ByBlock
3

72
65
73
0
40
0
0
LTYPE
5
15
100
AcDbSymbolTableRecord
100
AcDbLinetypeTableRecord
70
0
2
ByLayer
3

72
65
73
0
40
0
0
LTYPE
5
16
100
AcDbSymbolTableRecord
100
AcDbLinetypeTableRecord
70
0
2
CONTINUOUS
3
Solid line
72
65
73
0
40
0
0
LTYPE
5
3B
100
AcDbSymbolTableRecord
100
AcDbLinetypeTableRecord
70
0
2
DASHED
3
__ __ __ __ __ __ __ __ __
72
65
73
2
40
25.72
49
12.86
74
0
49
-12.86
74
0
0
LTYPE
5
3C
100
AcDbSymbolTableRecord
100
AcDbLinetypeTableRecord
70
0
2
HIDDEN
3
_ _ _ _ _ _ _ _ _ _ _ _ _ _ _
72
65
73
2
40
0.5
49
0.25
74
0
49
-0.25
74
0
0
LTYPE
5
3D
100
AcDbSymbolTableRecord
100
AcDbLinetypeTableRecord
70
0
2
PHANTOM
3
____ _ _ ____ _ _ _____ _ _ ____
72
65
73
6
40
50.5
49
18
74
0
49
-6.5
74
0
49
6.5
74
0
49
-6.5
74
0
49
6.5
74
0
49
-6.5
74
0
0
LTYPE
5
3E
100
AcDbSymbolTableRecord
100
AcDbLinetypeTableRecord
70
0
2
CENTER
3
____ _ ____ _ ____ _ ____
72
65
73
4
40
47.5
49
22
74
0
49
-8.5
74
0
49
8.5
74
0
49
-8.5
74
0
0
LTYPE
5
3F
100
AcDbSymbolTableRecord
100
AcDbLinetypeTableRecord
70
0
2
DOT
3
.........................
72
65
73
2
40
10
49
0
74
0
49
-10
74
0
0
LTYPE
5
40
100
AcDbSymbolTableRecord
100
AcDbLinetypeTableRecord
70
0
2
DASHDOT
3
_._._._._._._._._._._._._._._._.
72
65
73
4
40
70
49
31
74
0
49
-13
74
0
49
13
74
0
49
-13
74
0
0
ENDTAB
0
TABLE
2
LAYER
5
2c1
100
AcDbSymbolTable
0
LAYER
5
10
100
AcDbSymbolTableRecord
100
AcDbLayerTableRecord
2
0
70
0
62
7
6
CONTINUOUS
290
1
370
-3
390
0
0
LAYER
5
42
100
AcDbSymbolTableRecord
100
AcDbLayerTableRecord
2
81
70
0
62
-3
6
CONTINUOUS
290
1
370
-3
390
0
0
LAYER
5
44
100
AcDbSymbolTableRecord
100
AcDbLayerTableRecord
2
80
70
0
62
-6
6
CONTINUOUS
290
1
370
-3
390
0
0
LAYER
5
48
100
AcDbSymbolTableRecord
100
AcDbLayerTableRecord
2
1
70
0
62
4
6
CONTINUOUS
290
1
370
-3
390
0
0
LAYER
5
60
100
AcDbSymbolTableRecord
100
AcDbLayerTableRecord
2
4
70
0
62
-2
6
CENTER
290
1
370
-3
390
0
0
LAYER
5
263
100
AcDbSymbolTableRecord
100
AcDbLayerTableRecord
2
2
70
0
62
7
6
CONTINUOUS
290
1
370
-3
390
0
0
LAYER
5
2ab
100
AcDbSymbolTableRecord
100
AcDbLayerTableRecord
2
SK4
70
0
62
2
6
CENTER
290
1
370
-3
390
0
0
LAYER
5
2ac
100
AcDbSymbolTableRecord
100
AcDbLayerTableRecord
2
SK1
70
0
62
4
6
CONTINUOUS
290
1
370
-3
390
0
0
LAYER
5
2ad
100
AcDbSymbolTableRecord
100
AcDbLayerTableRecord
2
SK6
70
0
62
5
6
CONTINUOUS
290
1
370
-3
390
0
0
LAYER
5
2ae
100
AcDbSymbolTableRecord
100
AcDbLayerTableRecord
2
SK2
70
0
62
7
6
CONTINUOUS
290
1
370
-3
390
0
0
ENDTAB
0
TABLE
2
STYLE
5
2c2
100
AcDbSymbolTable
0
STYLE
5
11
100
AcDbSymbolTableRecord
100
AcDbTextStyleTableRecord
2
Standard
3
txt
70
0
71
0
40
0
41
1
42
0
50
0
0
STYLE
5
227
100
AcDbSymbolTableRecord
100
AcDbTextStyleTableRecord
2
DEFAULT
3
simplex.shx
70
0
71
0
40
0
41
1
42
0
50
0
0
STYLE
5
24A
100
AcDbSymbolTableRecord
100
AcDbTextStyleTableRecord
2
DWGDirectTextStyle
3
SIMPLEX
70
0
71
0
40
0
41
1
42
0
50
0
0
ENDTAB
0
TABLE
2
DIMSTYLE
5
2c3
100
AcDbSymbolTable
100
AcDbDimStyleTable
0
DIMSTYLE
105
27
100
AcDbSymbolTableRecord
100
AcDbDimStyleTableRecord
2
Standard
70
0
3
<>
41
0.18
42
0.0625
44
0.18
140
0.18
147
0.09
73
0
74
0
77
1
271
2
275
0
278
52
280
0
340
11
0
ENDTAB
0
TABLE
2
VIEW
5
2c4
100
AcDbSymbolTable
0
ENDTAB
0
TABLE
2
UCS
5
2c5
100
AcDbSymbolTable
0
ENDTAB
0
TABLE
2
APPID
5
2c6
100
AcDbSymbolTable
0
APPID
5
12
100
AcDbSymbolTableRecord
100
AcDbRegAppTableRecord
2
ACAD
70
0
0
ENDTAB
0
TABLE
2
BLOCK_RECORD
5
2c7
100
AcDbSymbolTable
0
BLOCK_RECORD
5
1F
100
AcDbSymbolTableRecord
100
AcDbBlockTableRecord
2
*Model_Space
340
0
70
0
0
BLOCK_RECORD
5
1B
100
AcDbSymbolTableRecord
100
AcDbBlockTableRecord
2
*Paper_Space
340
0
70
0
0
BLOCK_RECORD
5
23
100
AcDbSymbolTableRecord
100
AcDbBlockTableRecord
2
*Paper_Space0
340
0
70
0
0
BLOCK_RECORD
5
24C
100
AcDbSymbolTableRecord
100
AcDbBlockTableRecord
2
DimnDraft3D1
340
0
70
0
0
BLOCK_RECORD
5
257
100
AcDbSymbolTableRecord
100
AcDbBlockTableRecord
2
DimnDraft3D2
340
0
70
0
0
BLOCK_RECORD
5
261
100
AcDbSymbolTableRecord
100
AcDbBlockTableRecord
2
DimnDraft3D3
340
0
70
0
0
BLOCK_RECORD
5
26C
100
AcDbSymbolTableRecord
100
AcDbBlockTableRecord
2
DimnDraft3D4
340
0
70
0
0
BLOCK_RECORD
5
276
100
AcDbSymbolTableRecord
100
AcDbBlockTableRecord
2
DimnDraft3D5
340
0
70
0
0
BLOCK_RECORD
5
281
100
AcDbSymbolTableRecord
100
AcDbBlockTableRecord
2
DimnDraft3D6
340
0
70
0
0
ENDTAB
0
ENDSEC
0
SECTION
2
BLOCKS
0
BLOCK
5
20
100
AcDbEntity
8
0
100
AcDbBlockBegin
2
*Model_Space
70
0
10
0
20
0
30
0
3
*Model_Space
0
ENDBLK
5
21
100
AcDbEntity
8
0
100
AcDbBlockEnd
0
BLOCK
5
1C
100
AcDbEntity
8
0
100
AcDbBlockBegin
2
*Paper_Space
70
0
10
0
20
0
30
0
3
*Paper_Space
0
ENDBLK
5
1D
100
AcDbEntity
8
0
100
AcDbBlockEnd
0
BLOCK
5
24
100
AcDbEntity
8
0
100
AcDbBlockBegin
2
*Paper_Space0
70
0
10
0
20
0
30
0
3
*Paper_Space0
0
ENDBLK
5
25
100
AcDbEntity
8
0
100
AcDbBlockEnd
0
BLOCK
5
254
100
AcDbEntity
8
0
100
AcDbBlockBegin
2
DimnDraft3D1
70
0
10
0
20
0
30
0
3
DimnDraft3D1
0
MTEXT
5
24D
100
AcDbEntity
8
SK2
62
256
6
ByLayer
370
-1
48
1
60
0
100
AcDbMText
10
31.406579
20
-60.725
30
0
210
0
220
0
230
1
1
\W01.000;\fsimplex.shx,bigfont.shx;(137) 
40
4.5
41
0
44
1.084337
50
0
71
7
72
5
7
DEFAULT
0
LINE
5
24F
100
AcDbEntity
8
SK2
62
256
6
ByLayer
370
-1
48
1
60
0
100
AcDbLine
10
-30
20
-4.0875
30
0
11
-30
21
-66.99375
31
0
39
0
210
0
220
0
230
1
0
LINE
5
250
100
AcDbEntity
8
SK2
62
256
6
ByLayer
370
-1
48
1
60
0
100
AcDbLine
10
107
20
-12.5875
30
0
11
107
21
-66.99375
31
0
39
0
210
0
220
0
230
1
0
LINE
5
251
100
AcDbEntity
8
SK2
62
256
6
ByLayer
370
-1
48
1
60
0
100
AcDbLine
10
-30
20
-63.81875
30
0
11
107
21
-63.81875
31
0
39
0
210
0
220
0
230
1
0
SOLID
5
252
100
AcDbEntity
8
SK2
62
256
6
ByLayer
370
-1
48
1
60
0
100
AcDbTrace
10
-30
20
-63.81875
30
0
11
-25.825003
21
-62.893175
31
0
12
-25.824997
22
-64.744325
32
0
13
-30
23
-63.81875
33
0
39
0
210
0
220
0
230
1
0
SOLID
5
253
100
AcDbEntity
8
SK2
62
256
6
ByLayer
370
-1
48
1
60
0
100
AcDbTrace
10
107
20
-63.81875
30
0
11
102.825003
21
-64.744325
31
0
12
102.824997
22
-62.893175
32
0
13
107
23
-63.81875
33
0
39
0
210
0
220
0
230
1
0
ENDBLK
5
255
100
AcDbEntity
8
0
100
AcDbBlockEnd
0
BLOCK
5
25E
100
AcDbEntity
8
0
100
AcDbBlockBegin
2
DimnDraft3D2
70
0
10
0
20
0
30
0
3
DimnDraft3D2
0
MTEXT
5
258
100
AcDbEntity
8
SK2
62
256
6
ByLayer
370
-1
48
1
60
0
100
AcDbMText
10
-16.503947
20
-50.725
30
0
210
0
220
0
230
1
1
\W01.000;\fsimplex.shx,bigfont.shx;30 
40
4.5
41
0
44
1.084337
50
0
71
7
72
5
7
DEFAULT
0
LINE
5
259
100
AcDbEntity
8
SK2
62
256
6
ByLayer
370
-1
48
1
60
0
100
AcDbLine
10
-30
20
-4.0875
30
0
11
-30
21
-55.025
31
0
39
0
210
0
220
0
230
1
0
LINE
5
25A
100
AcDbEntity
8
SK2
62
256
6
ByLayer
370
-1
48
1
60
0
100
AcDbLine
10
0
20
-26.5875
30
0
11
0
21
-55.025
31
0
39
0
210
0
220
0
230
1
0
LINE
5
25B
100
AcDbEntity
8
SK2
62
256
6
ByLayer
370
-1
48
1
60
0
100
AcDbLine
10
-30
20
-51.85
30
0
11
0
21
-51.85
31
0
39
0
210
0
220
0
230
1
0
SOLID
5
25C
100
AcDbEntity
8
SK2
62
256
6
ByLayer
370
-1
48
1
60
0
100
AcDbTrace
10
-30
20
-51.85
30
0
11
-25.825003
21
-50.924425
31
0
12
-25.824997
22
-52.775575
32
0
13
-30
23
-51.85
33
0
39
0
210
0
220
0
230
1
0
SOLID
5
25D
100
AcDbEntity
8
SK2
62
256
6
ByLayer
370
-1
48
1
60
0
100
AcDbTrace
10
0
20
-51.85
30
0
11
-4.174997
21
-52.775575
31
0
12
-4.175003
22
-50.924425
32
0
13
0
23
-51.85
33
0
39
0
210
0
220
0
230
1
0
ENDBLK
5
25F
100
AcDbEntity
8
0
100
AcDbBlockEnd
0
BLOCK
5
269
100
AcDbEntity
8
0
100
AcDbBlockBegin
2
DimnDraft3D3
70
0
10
0
20
0
30
0
3
DimnDraft3D3
0
MTEXT
5
262
100
AcDbEntity
8
2
62
256
6
ByLayer
370
-1
48
1
60
0
100
AcDbMText
10
50.906579
20
-50.725
30
0
210
0
220
0
230
1
1
\W01.000;\fsimplex.shx,bigfont.shx;107 
40
4.5
41
0
44
1.084337
50
0
71
7
72
5
7
DEFAULT
0
LINE
5
264
100
AcDbEntity
8
2
62
256
6
ByLayer
370
-1
48
1
60
0
100
AcDbLine
10
0
20
-26.5875
30
0
11
0
21
-55.025
31
0
39
0
210
0
220
0
230
1
0
LINE
5
265
100
AcDbEntity
8
2
62
256
6
ByLayer
370
-1
48
1
60
0
100
AcDbLine
10
107
20
-12.5875
30
0
11
107
21
-55.025
31
0
39
0
210
0
220
0
230
1
0
LINE
5
266
100
AcDbEntity
8
2
62
256
6
ByLayer
370
-1
48
1
60
0
100
AcDbLine
10
0
20
-51.85
30
0
11
107
21
-51.85
31
0
39
0
210
0
220
0
230
1
0
SOLID
5
267
100
AcDbEntity
8
2
62
256
6
ByLayer
370
-1
48
1
60
0
100
AcDbTrace
10
0
20
-51.85
30
0
11
4.174997
21
-50.924425
31
0
12
4.175003
22
-52.775575
32
0
13
0
23
-51.85
33
0
39
0
210
0
220
0
230
1
0
SOLID
5
268
100
AcDbEntity
8
2
62
256
6
ByLayer
370
-1
48
1
60
0
100
AcDbTrace
10
107
20
-51.85
30
0
11
102.825003
21
-52.775575
31
0
12
102.824997
22
-50.924425
32
0
13
107
23
-51.85
33
0
39
0
210
0
220
0
230
1
0
ENDBLK
5
26A
100
AcDbEntity
8
0
100
AcDbBlockEnd
0
BLOCK
5
273
100
AcDbEntity
8
0
100
AcDbBlockBegin
2
DimnDraft3D4
70
0
10
0
20
0
30
0
3
DimnDraft3D4
0
MTEXT
5
26D
100
AcDbEntity
8
SK2
62
256
6
ByLayer
370
-1
48
1
60
0
100
AcDbMText
10
70.996053
20
-40.725
30
0
210
0
220
0
230
1
1
\W01.000;\fsimplex.shx,bigfont.shx;69 
40
4.5
41
0
44
1.084337
50
0
71
7
72
5
7
DEFAULT
0
LINE
5
26E
100
AcDbEntity
8
SK2
62
256
6
ByLayer
370
-1
48
1
60
0
100
AcDbLine
10
38
20
-11.5875
30
0
11
38
21
-45.025
31
0
39
0
210
0
220
0
230
1
0
LINE
5
26F
100
AcDbEntity
8
SK2
62
256
6
ByLayer
370
-1
48
1
60
0
100
AcDbLine
10
107
20
-12.5875
30
0
11
107
21
-45.025
31
0
39
0
210
0
220
0
230
1
0
LINE
5
270
100
AcDbEntity
8
SK2
62
256
6
ByLayer
370
-1
48
1
60
0
100
AcDbLine
10
38
20
-41.85
30
0
11
107
21
-41.85
31
0
39
0
210
0
220
0
230
1
0
SOLID
5
271
100
AcDbEntity
8
SK2
62
256
6
ByLayer
370
-1
48
1
60
0
100
AcDbTrace
10
38
20
-41.85
30
0
11
42.174997
21
-40.924425
31
0
12
42.175003
22
-42.775575
32
0
13
38
23
-41.85
33
0
39
0
210
0
220
0
230
1
0
SOLID
5
272
100
AcDbEntity
8
SK2
62
256
6
ByLayer
370
-1
48
1
60
0
100
AcDbTrace
10
107
20
-41.85
30
0
11
102.825003
21
-42.775575
31
0
12
102.824997
22
-40.924425
32
0
13
107
23
-41.85
33
0
39
0
210
0
220
0
230
1
0
ENDBLK
5
274
100
AcDbEntity
8
0
100
AcDbBlockEnd
0
BLOCK
5
27E
100
AcDbEntity
8
0
100
AcDbBlockBegin
2
DimnDraft3D5
70
0
10
0
20
0
30
0
3
DimnDraft3D5
0
MTEXT
5
277
100
AcDbEntity
8
SK2
62
256
6
ByLayer
370
-1
48
1
60
0
100
AcDbMText
10
-51.159264
20
5.246053
30
0
210
0
220
0
230
1
1
\W01.000;\fsimplex.shx,bigfont.shx;50 
40
4.5
41
0
44
1.084337
50
90
71
7
72
5
7
DEFAULT
0
MTEXT
5
278
100
AcDbEntity
8
SK2
62
256
6
ByLayer
370
-1
48
1
60
0
100
AcDbMText
10
-51.159264
20
-8.253947
30
0
210
0
220
0
230
1
1
\W01.000;\fsimplex.shx,bigfont.shx;%%c 
40
4.5
41
0
44
1.084337
50
90
71
7
72
5
7
DEFAULT
0
LINE
5
279
100
AcDbEntity
8
SK2
62
256
6
ByLayer
370
-1
48
1
60
0
100
AcDbLine
10
-1.5875
20
-25
30
0
11
-52.084264
21
-25
31
0
39
0
210
0
220
0
230
1
0
LINE
5
27A
100
AcDbEntity
8
SK2
62
256
6
ByLayer
370
-1
48
1
60
0
100
AcDbLine
10
-1.5875
20
25
30
0
11
-52.084264
21
25
31
0
39
0
210
0
220
0
230
1
0
LINE
5
27B
100
AcDbEntity
8
SK2
62
256
6
ByLayer
370
-1
48
1
60
0
100
AcDbLine
10
-48.909264
20
-25
30
0
11
-48.909264
21
25
31
0
39
0
210
0
220
0
230
1
0
SOLID
5
27C
100
AcDbEntity
8
SK2
62
256
6
ByLayer
370
-1
48
1
60
0
100
AcDbTrace
10
-48.909264
20
-25
30
0
11
-49.834839
21
-20.825003
31
0
12
-47.983689
22
-20.824997
32
0
13
-48.909264
23
-25
33
0
39
0
210
0
220
0
230
1
0
SOLID
5
27D
100
AcDbEntity
8
SK2
62
256
6
ByLayer
370
-1
48
1
60
0
100
AcDbTrace
10
-48.909264
20
25
30
0
11
-47.983689
21
20.825003
31
0
12
-49.834839
22
20.824997
32
0
13
-48.909264
23
25
33
0
39
0
210
0
220
0
230
1
0
ENDBLK
5
27F
100
AcDbEntity
8
0
100
AcDbBlockEnd
0
BLOCK
5
289
100
AcDbEntity
8
0
100
AcDbBlockBegin
2
DimnDraft3D6
70
0
10
0
20
0
30
0
3
DimnDraft3D6
0
MTEXT
5
282
100
AcDbEntity
8
2
62
256
6
ByLayer
370
-1
48
1
60
0
100
AcDbMText
10
131.725
20
5.246053
30
0
210
0
220
0
230
1
1
\W01.000;\fsimplex.shx,bigfont.shx;22 
40
4.5
41
0
44
1.084337
50
90
71
7
72
5
7
DEFAULT
0
MTEXT
5
283
100
AcDbEntity
8
2
62
256
6
ByLayer
370
-1
48
1
60
0
100
AcDbMText
10
131.725
20
-8.253947
30
0
210
0
220
0
230
1
1
\W01.000;\fsimplex.shx,bigfont.shx;%%c 
40
4.5
41
0
44
1.084337
50
90
71
7
72
5
7
DEFAULT
0
LINE
5
284
100
AcDbEntity
8
2
62
256
6
ByLayer
370
-1
48
1
60
0
100
AcDbLine
10
108.5875
20
11
30
0
11
137.15
21
11
31
0
39
0
210
0
220
0
230
1
0
LINE
5
285
100
AcDbEntity
8
2
62
256
6
ByLayer
370
-1
48
1
60
0
100
AcDbLine
10
108.5875
20
-11
30
0
11
137.15
21
-11
31
0
39
0
210
0
220
0
230
1
0
LINE
5
286
100
AcDbEntity
8
2
62
256
6
ByLayer
370
-1
48
1
60
0
100
AcDbLine
10
133.975
20
22.25
30
0
11
133.975
21
-22.25
31
0
39
0
210
0
220
0
230
1
0
SOLID
5
287
100
AcDbEntity
8
2
62
256
6
ByLayer
370
-1
48
1
60
0
100
AcDbTrace
10
133.975
20
11
30
0
11
133.049425
21
15.174997
31
0
12
134.900575
22
15.175003
32
0
13
133.975
23
11
33
0
39
0
210
0
220
0
230
1
0
SOLID
5
288
100
AcDbEntity
8
2
62
256
6
ByLayer
370
-1
48
1
60
0
100
AcDbTrace
10
133.975
20
-11
30
0
11
134.900575
21
-15.174997
31
0
12
133.049425
22
-15.175003
32
0
13
133.975
23
-11
33
0
39
0
210
0
220
0
230
1
0
ENDBLK
5
28A
100
AcDbEntity
8
0
100
AcDbBlockEnd
0
ENDSEC
0
SECTION
2
ENTITIES
0
ARC
5
F0
100
AcDbEntity
8
SK1
62
256
6
ByLayer
370
-1
48
1
60
0
100
AcDbCircle
39
0
10
0.6
20
18.75
30
0
40
1
210
0
220
0
230
-1
100
AcDbArc
50
233.130102
51
246.421822
0
ARC
5
F1
100
AcDbEntity
8
SK1
62
256
6
ByLayer
370
-1
48
1
60
0
100
AcDbCircle
39
0
10
0.6
20
-18.75
30
0
40
1
210
0
220
0
230
-1
100
AcDbArc
50
113.578178
51
126.869898
0
ARC
5
F2
100
AcDbEntity
8
1
62
256
6
ByLayer
370
-1
48
1
60
0
100
AcDbCircle
39
0
10
-26.015785
20
15.3
30
0
40
0.8
210
0
220
0
230
-1
100
AcDbArc
50
270
51
345
0
ARC
5
F3
100
AcDbEntity
8
1
62
256
6
ByLayer
370
-1
48
1
60
0
100
AcDbCircle
39
0
10
-26.015785
20
-15.3
30
0
40
0.8
210
0
220
0
230
-1
100
AcDbArc
50
15
51
90
0
ELLIPSE
5
F4
100
AcDbEntity
8
1
62
256
6
ByLayer
370
-1
48
1
60
0
100
AcDbEllipse
10
100.539892
20
6.141698
30
0
11
-1.76858446507625E-15
21
-1.65
31
0
210
0
220
0
230
1
40
0.996195
41
-2.2954931910143
42
-1.53879862384166
0
ELLIPSE
5
F5
100
AcDbEntity
8
1
62
256
6
ByLayer
370
-1
48
1
60
0
100
AcDbEllipse
10
99.337885
20
0
30
0
11
-0.343210431158799
21
10.5999578310059
31
0
210
0
220
0
230
-1
40
0.087398
41
-0.0175579354865821
42
0.0118281991609368
0
ELLIPSE
5
F6
100
AcDbEntity
8
1
62
256
6
ByLayer
370
-1
48
1
60
0
100
AcDbEllipse
10
99.691083
20
7.858495
30
0
11
-0.579980162418409
21
-0.618336926218179
31
0
210
0
220
0
230
-1
40
0.04503
41
-0.791576829869385
42
-0.35951193433651
0
ELLIPSE
5
F7
100
AcDbEntity
8
1
62
256
6
ByLayer
370
-1
48
1
60
0
100
AcDbEllipse
10
87.527168
20
8.258414
30
0
11
-12.8194375417884
21
7.30412967536273
31
0
210
0
220
0
230
-1
40
0.09337
41
-2.16509266390747
42
-1.66831162686912
0
ELLIPSE
5
F8
100
AcDbEntity
8
1
62
256
6
ByLayer
370
-1
48
1
60
0
100
AcDbEllipse
10
21.056258
20
0
30
0
11
-11.7092723497269
21
-24.677186440937
31
0
210
0
220
0
230
-1
40
0.341999
41
0.167213071908981
42
1.08183270048929
0
ELLIPSE
5
F9
100
AcDbEntity
8
1
62
256
6
ByLayer
370
-1
48
1
60
0
100
AcDbEllipse
10
106.202583
20
0
30
0
11
-0.778797509232691
21
10.5995997453214
31
0
210
0
220
0
230
-1
40
0.118204
41
-1.51489341079674
42
-1.44715809281498
0
ELLIPSE
5
FA
100
AcDbEntity
8
1
62
256
6
ByLayer
370
-1
48
1
60
0
100
AcDbEllipse
10
105.930997
20
0.01437
30
0
11
-0.0367897559553365
21
0.601600606903487
31
0
210
0
220
0
230
-1
40
0.118732
41
-1.49832500669591
42
-1.45752128648444
0
ELLIPSE
5
FB
100
AcDbEntity
8
1
62
256
6
ByLayer
370
-1
48
1
60
0
100
AcDbEllipse
10
103.069894
20
7.009033
30
0
11
1.75718001347441E-15
21
1.5
31
0
210
0
220
0
230
1
40
0.996195
41
-1.54046055081385
42
0
0
ELLIPSE
5
FC
100
AcDbEntity
8
1
62
256
6
ByLayer
370
-1
48
1
60
0
100
AcDbEllipse
10
103.069894
20
7.009033
30
0
11
1.75718001347441E-15
21
1.5
31
0
210
0
220
0
230
1
40
0.996195
41
0
42
0.510607148495788
0
ELLIPSE
5
FD
100
AcDbEntity
8
1
62
256
6
ByLayer
370
-1
48
1
60
0
100
AcDbEllipse
10
99.518456
20
3.777472
30
0
11
-6.14406248935381
21
0.323205903221944
31
0
210
0
220
0
230
-1
40
0.000423
41
-3.13475814282543
42
-3.13355341137795
0
ELLIPSE
5
FE
100
AcDbEntity
8
1
62
256
6
ByLayer
370
-1
48
1
60
0
100
AcDbEllipse
10
76.496067
20
10.369918
30
0
11
-20.5314376062503
21
3.78776840115029
31
0
210
0
220
0
230
-1
40
0.234668
41
3.09832655540776
42
-2.88923853047136
0
ELLIPSE
5
FF
100
AcDbEntity
8
1
62
256
6
ByLayer
370
-1
48
1
60
0
100
AcDbEllipse
10
100.325038
20
9.29648
30
0
11
-6.43121623664089E-15
21
-6
31
0
210
0
220
0
230
1
40
0.996195
41
-0.418879020478638
42
-0.160377198616544
0
ELLIPSE
5
100
100
AcDbEntity
8
1
62
256
6
ByLayer
370
-1
48
1
60
0
100
AcDbEllipse
10
100.313287
20
6.141698
30
0
11
1.93289801482185E-15
21
1.65
31
0
210
0
220
0
230
1
40
0.996195
41
0.843408340772049
42
1.60279402974813
0
ELLIPSE
5
101
100
AcDbEntity
8
1
62
256
6
ByLayer
370
-1
48
1
60
0
100
AcDbEllipse
10
100.357906
20
4.742415
30
0
11
1.93289801482185E-15
21
1.65
31
0
210
0
220
0
230
1
40
0.996195
41
1.60279402974813
42
1.80296078808597
0
ELLIPSE
5
102
100
AcDbEntity
8
1
62
256
6
ByLayer
370
-1
48
1
60
0
100
AcDbEllipse
10
105.82171
20
-6.029568
30
0
11
-0.0780818607279221
21
1.26896433880065
31
0
210
0
220
0
230
-1
40
0.116833
41
-0.777014085561835
42
0.89869751259946
0
ELLIPSE
5
103
100
AcDbEntity
8
1
62
256
6
ByLayer
370
-1
48
1
60
0
100
AcDbEllipse
10
96.508485
20
3E-06
30
0
11
-121.158535747382
21
-1.37284699352503E-13
31
0
210
0
220
0
230
-1
40
0.087489
41
1.57523888304078
42
1.5911840632951
0
ELLIPSE
5
104
100
AcDbEntity
8
1
62
256
6
ByLayer
370
-1
48
1
60
0
100
AcDbEllipse
10
106.204973
20
-5.479852
30
0
11
-0.0581290992925497
21
-0.658564973946239
31
0
210
0
220
0
230
-1
40
0.115224
41
0.00370845515578149
42
1.57450478195361
0
ELLIPSE
5
105
100
AcDbEntity
8
1
62
256
6
ByLayer
370
-1
48
1
60
0
100
AcDbEllipse
10
100.714535
20
4.742415
30
0
11
-1.43971234162825
21
-1.28202564660006
31
0
210
0
220
0
230
-1
40
0.721468
41
-1.18428535889038
42
-0.86866026188453
0
ELLIPSE
5
106
100
AcDbEntity
8
1
62
256
6
ByLayer
370
-1
48
1
60
0
100
AcDbEllipse
10
100.584511
20
4.742415
30
0
11
-1.76858446507625E-15
21
-1.65
31
0
210
0
220
0
230
1
40
0.996195
41
-1.53879862384166
42
-0.123410159232462
0
ELLIPSE
5
107
100
AcDbEntity
8
1
62
256
6
ByLayer
370
-1
48
1
60
0
100
AcDbEllipse
10
103.139619
20
7.009033
30
0
11
1.75718001347441E-15
21
1.5
31
0
210
0
220
0
230
1
40
0.996195
41
0.0349499032697529
42
0.710883060211173
0
ELLIPSE
5
108
100
AcDbEntity
8
1
62
256
6
ByLayer
370
-1
48
1
60
0
100
AcDbEllipse
10
106.20358
20
0
30
0
11
-0.64318987591862
21
10.5997232331729
31
0
210
0
220
0
230
-1
40
0.119092
41
-2.05568537669147
42
-1.51635179382702
0
ELLIPSE
5
109
100
AcDbEntity
8
1
62
256
6
ByLayer
370
-1
48
1
60
0
100
AcDbEllipse
10
-1.056258
20
0
30
0
11
-11.7092723497289
21
-24.6771864409394
31
0
210
0
220
0
230
-1
40
0.341999
41
-2.97437958168083
42
-2.05975995310058
0
ELLIPSE
5
10A
100
AcDbEntity
8
1
62
256
6
ByLayer
370
-1
48
1
60
0
100
AcDbEllipse
10
105.931391
20
0.014355
30
0
11
-0.0444999151406122
21
0.601865889316068
31
0
210
0
220
0
230
-1
40
0.117795
41
-1.45609609372883
42
0.0738969798482423
0
ELLIPSE
5
10B
100
AcDbEntity
8
1
62
256
6
ByLayer
370
-1
48
1
60
0
100
AcDbEllipse
10
107.225259
20
0
30
0
11
-24.1204097238255
21
10.2721716566142
31
0
210
0
220
0
230
-1
40
0.108448
41
-1.18425650398002
42
-0.642916826206932
0
ELLIPSE
5
10C
100
AcDbEntity
8
1
62
256
6
ByLayer
370
-1
48
1
60
0
100
AcDbEllipse
10
105.703872
20
-6.014951
30
0
11
-0.100311958106618
21
-1.24711813076675
31
0
210
0
220
0
230
-1
40
0.126165
41
-2.25929237450569
42
2.34818133451256
0
ELLIPSE
5
10D
100
AcDbEntity
8
1
62
256
6
ByLayer
370
-1
48
1
60
0
100
AcDbEllipse
10
-1.056258
20
0
30
0
11
-11.7092723497287
21
24.6771864409392
31
0
210
0
220
0
230
-1
40
0.341999
41
2.05975995310057
42
2.97437958168083
0
ELLIPSE
5
10E
100
AcDbEntity
8
1
62
256
6
ByLayer
370
-1
48
1
60
0
100
AcDbEllipse
10
97.059878
20
-1E-06
30
0
11
-43.1348623275946
21
0.688522905916852
31
0
210
0
220
0
230
-1
40
0.245222
41
-1.60584766908486
42
-1.58015800415555
0
ELLIPSE
5
10F
100
AcDbEntity
8
1
62
256
6
ByLayer
370
-1
48
1
60
0
100
AcDbEllipse
10
30.7
20
4.947355
30
0
11
-5.00000000000001
21
5.05319527541183E-15
31
0
210
0
220
0
230
1
40
0.588876
41
-1.79637723778041
42
-0.483199084071251
0
ELLIPSE
5
110
100
AcDbEntity
8
1
62
256
6
ByLayer
370
-1
48
1
60
0
100
AcDbEllipse
10
100.394762
20
9.29648
30
0
11
6.09155738004463E-15
21
5.2
31
0
210
0
220
0
230
1
40
0.996195
41
2.72271363311115
42
2.82017770552678
0
ELLIPSE
5
111
100
AcDbEntity
8
1
62
256
6
ByLayer
370
-1
48
1
60
0
100
AcDbEllipse
10
21.056258
20
0
30
0
11
-11.709272349727
21
24.6771864409371
31
0
210
0
220
0
230
-1
40
0.341999
41
-1.08183270048929
42
-0.16721307190898
0
ELLIPSE
5
112
100
AcDbEntity
8
1
62
256
6
ByLayer
370
-1
48
1
60
0
100
AcDbEllipse
10
98.218056
20
4.546044
30
0
11
-0.326425640836806
21
-0.730374082922088
31
0
210
0
220
0
230
1
40
0.079621
41
0.0355698365710786
42
1.60636616336577
0
ELLIPSE
5
113
100
AcDbEntity
8
1
62
256
6
ByLayer
370
-1
48
1
60
0
100
AcDbEllipse
10
99.539042
20
4.708823
30
0
11
-0.599695201525335
21
-0.0191223760942034
31
0
210
0
220
0
230
1
40
0.002788
41
0.0872220186681488
42
1.33217642950441
0
ELLIPSE
5
114
100
AcDbEntity
8
1
62
256
6
ByLayer
370
-1
48
1
60
0
100
AcDbEllipse
10
87.829763
20
8.23364
30
0
11
-18.5544521091959
21
8.47852122131476
31
0
210
0
220
0
230
-1
40
0.008949
41
2.09682310766292
42
2.11128710261919
0
ELLIPSE
5
115
100
AcDbEntity
8
1
62
256
6
ByLayer
370
-1
48
1
60
0
100
AcDbEllipse
10
106.980358
20
0
30
0
11
-0.8716745288466
21
-10.5994275137367
31
0
210
0
220
0
230
-1
40
0.126383
41
0.0195562825717172
42
1.06828777720754
0
ELLIPSE
5
116
100
AcDbEntity
8
1
62
256
6
ByLayer
370
-1
48
1
60
0
100
AcDbEllipse
10
96.907937
20
0
30
0
11
-31.2433046951587
21
-3.54017788791755E-14
31
0
210
0
220
0
230
-1
40
0.339273
41
1.5326022249805
42
1.57523888236682
0
ELLIPSE
5
117
100
AcDbEntity
8
1
62
256
6
ByLayer
370
-1
48
1
60
0
100
AcDbEllipse
10
103.110593
20
-2.204119
30
0
11
-1.11602540378444
21
1.12789885952862E-15
31
0
210
0
220
0
230
1
40
0.998135
41
0
42
6.28318530717959
0
ELLIPSE
5
118
100
AcDbEntity
8
1
62
256
6
ByLayer
370
-1
48
1
60
0
100
AcDbEllipse
10
99.494423
20
6.108106
30
0
11
-0.599695201525335
21
-0.0191223760942034
31
0
210
0
220
0
230
1
40
0.002788
41
0.0872220186676158
42
1.32520647544542
0
ELLIPSE
5
119
100
AcDbEntity
8
1
62
256
6
ByLayer
370
-1
48
1
60
0
100
AcDbEllipse
10
36.146132
20
0
30
0
11
-188.517169402653
21
-10.2508435218936
31
0
210
0
220
0
230
-1
40
0.014313
41
-1.94312823676422
42
-1.91472405153567
0
ELLIPSE
5
11A
100
AcDbEntity
8
1
62
256
6
ByLayer
370
-1
48
1
60
0
100
AcDbEllipse
10
103.383655
20
7.009033
30
0
11
1.46431667789534E-15
21
1.25
31
0
210
0
220
0
230
1
40
0.996195
41
0.0981750815225059
42
1.57079634872777
0
ELLIPSE
5
11B
100
AcDbEntity
8
1
62
256
6
ByLayer
370
-1
48
1
60
0
100
AcDbEllipse
10
103.383655
20
7.009033
30
0
11
1.46431667789534E-15
21
1.25
31
0
210
0
220
0
230
1
40
0.996195
41
1.57079634872777
42
2.6683900478538
0
ELLIPSE
5
11C
100
AcDbEntity
8
1
62
256
6
ByLayer
370
-1
48
1
60
0
100
AcDbEllipse
10
103.110593
20
-2.515467
30
0
11
-1.25
21
1.26329881885295E-15
31
0
210
0
220
0
230
1
40
0.998135
41
-2.58160408898123
42
-0.560087611647872
0
ELLIPSE
5
11D
100
AcDbEntity
8
1
62
256
6
ByLayer
370
-1
48
1
60
0
100
AcDbEllipse
10
103.110593
20
-2.515467
30
0
11
-1.25
21
1.26329881885295E-15
31
0
210
0
220
0
230
1
40
0.998135
41
0
42
6.28318530717959
0
ELLIPSE
5
11E
100
AcDbEntity
8
1
62
256
6
ByLayer
370
-1
48
1
60
0
100
AcDbEllipse
10
105.849799
20
4.045219
30
0
11
-0.0439569216247294
21
0.603077111939545
31
0
210
0
220
0
230
-1
40
0.116841
41
2.32559372564191
42
-3.13145300652596
0
ELLIPSE
5
11F
100
AcDbEntity
8
1
62
256
6
ByLayer
370
-1
48
1
60
0
100
AcDbEllipse
10
96.547255
20
6.591555
30
0
11
-0.907366862038665
21
-4.81525548415389
31
0
210
0
220
0
230
1
40
0.316289
41
0.518378728430313
42
1.06643300920595
0
ELLIPSE
5
120
100
AcDbEntity
8
1
62
256
6
ByLayer
370
-1
48
1
60
0
100
AcDbEllipse
10
103.139619
20
7.009033
30
0
11
1.46431667789534E-15
21
1.25
31
0
210
0
220
0
230
1
40
0.996195
41
-2.35825588077847
42
0
0
ELLIPSE
5
121
100
AcDbEntity
8
1
62
256
6
ByLayer
370
-1
48
1
60
0
100
AcDbEllipse
10
103.139619
20
7.009033
30
0
11
1.46431667789534E-15
21
1.25
31
0
210
0
220
0
230
1
40
0.996195
41
0
42
1.57079605281728
0
ELLIPSE
5
122
100
AcDbEntity
8
1
62
256
6
ByLayer
370
-1
48
1
60
0
100
AcDbEllipse
10
103.139619
20
7.009033
30
0
11
1.46431667789534E-15
21
1.25
31
0
210
0
220
0
230
1
40
0.996195
41
1.57079634872777
42
1.80887004062054
0
ELLIPSE
5
123
100
AcDbEntity
8
1
62
256
6
ByLayer
370
-1
48
1
60
0
100
AcDbEllipse
10
103.110593
20
-2.204119
30
0
11
1.35
21
0
31
0
210
0
220
0
230
1
40
0.998135
41
0.0630280791550846
42
3.14159243501374
0
ELLIPSE
5
124
100
AcDbEntity
8
1
62
256
6
ByLayer
370
-1
48
1
60
0
100
AcDbEllipse
10
106.167194
20
1.042455
30
0
11
-1.07186937277348E-14
21
-9.99999999999999
31
0
210
0
220
0
230
1
40
0.996195
41
-3.11578669746811
42
-3.1066860685499
0
ELLIPSE
5
125
100
AcDbEntity
8
1
62
256
6
ByLayer
370
-1
48
1
60
0
100
AcDbEllipse
10
105.94773
20
8.63962
30
0
11
5.77557701897395E-15
21
4.93026637113357
31
0
210
0
220
0
230
1
40
0.996195
41
-3.09758543963168
42
-3.0877854465449
0
ELLIPSE
5
126
100
AcDbEntity
8
1
62
256
6
ByLayer
370
-1
48
1
60
0
100
AcDbEllipse
10
104.395979
20
4.273063
30
0
11
5.77557701897395E-15
21
4.93026637113357
31
0
210
0
220
0
230
1
40
0.996195
41
1.61480354075301
42
1.62460353383979
0
ELLIPSE
5
127
100
AcDbEntity
8
1
62
256
6
ByLayer
370
-1
48
1
60
0
100
AcDbEllipse
10
106.166663
20
1.042455
30
0
11
1.16328437305553E-14
21
9.93026637113358
31
0
210
0
220
0
230
1
40
0.996195
41
0.0258059561216836
42
0.0312637618884592
0
ELLIPSE
5
128
100
AcDbEntity
8
1
62
256
6
ByLayer
370
-1
48
1
60
0
100
AcDbEllipse
10
105.680379
20
13.632384
30
0
11
-1.07186937277344E-14
21
-9.99999999999964
31
0
210
0
220
0
230
1
40
0.996195
41
0.0538072070448948
42
0.069813170079785
0
ELLIPSE
5
129
100
AcDbEntity
8
1
62
256
6
ByLayer
370
-1
48
1
60
0
100
AcDbEllipse
10
105.948262
20
8.63962
30
0
11
-5.35934686386771E-15
21
-5.00000000000028
31
0
210
0
220
0
230
1
40
0.996195
41
0.0440072139581214
42
0.0538072070448985
0
ELLIPSE
5
12A
100
AcDbEntity
8
1
62
256
6
ByLayer
370
-1
48
1
60
0
100
AcDbEllipse
10
96.624556
20
9.928393
30
0
11
-1.07186937277344E-14
21
-9.99999999999964
31
0
210
0
220
0
230
1
40
0.996195
41
1.62460353383979
42
1.64060949687468
0
ELLIPSE
5
12B
100
AcDbEntity
8
1
62
256
6
ByLayer
370
-1
48
1
60
0
100
AcDbEllipse
10
106.073573
20
10.546557
30
0
11
-5.35934686386747E-16
21
-0.500000000000006
31
0
210
0
220
0
230
1
40
0.996195
41
1.8675022996339
42
2.9146998508305
0
ELLIPSE
5
12C
100
AcDbEntity
8
1
62
256
6
ByLayer
370
-1
48
1
60
0
100
AcDbEllipse
10
103.188816
20
7.235181
30
0
11
-1.50061712188287E-15
21
-1.4
31
0
210
0
220
0
230
1
40
0.996195
41
-3.12352863120908
42
0
0
ELLIPSE
5
12D
100
AcDbEntity
8
1
62
256
6
ByLayer
370
-1
48
1
60
0
100
AcDbEllipse
10
103.188816
20
7.235181
30
0
11
-1.50061712188287E-15
21
-1.4
31
0
210
0
220
0
230
1
40
0.996195
41
0
42
0.0349500842375337
0
ELLIPSE
5
12E
100
AcDbEntity
8
1
62
256
6
ByLayer
370
-1
48
1
60
0
100
AcDbEllipse
10
106.118392
20
1.041431
30
0
11
-1.07186937277344E-14
21
-9.99999999999964
31
0
210
0
220
0
230
1
40
0.996195
41
3.14159265358979
42
-3.12558669055491
0
ELLIPSE
5
12F
100
AcDbEntity
8
1
62
256
6
ByLayer
370
-1
48
1
60
0
100
AcDbEllipse
10
99.875908
20
13.428932
30
0
11
1.1632843730555E-14
21
9.9302663711333
31
0
210
0
220
0
230
1
40
0.996195
41
3.14159265358979
42
-3.12558669055491
0
ELLIPSE
5
130
100
AcDbEntity
8
1
62
256
6
ByLayer
370
-1
48
1
60
0
100
AcDbEllipse
10
99.827105
20
13.427907
30
0
11
1.16328437305553E-14
21
9.93026637113358
31
0
210
0
220
0
230
1
40
0.996195
41
-3.11578669746811
42
-3.11032889170134
0
ELLIPSE
5
131
100
AcDbEntity
8
1
62
256
6
ByLayer
370
-1
48
1
60
0
100
AcDbEllipse
10
99.639857
20
10.51435
30
0
11
2.69746310087586E-16
21
0.230266371133677
31
0
210
0
220
0
230
1
40
0.996195
41
0.069813170079711
42
0.296705972839021
0
ELLIPSE
5
132
100
AcDbEntity
8
1
62
256
6
ByLayer
370
-1
48
1
60
0
100
AcDbEllipse
10
106.354442
20
3.956013
30
0
11
-3.21560811832046E-16
21
-0.300000000000001
31
0
210
0
220
0
230
1
40
0.996195
41
0.0698131700798042
42
0.296705972839085
0
ELLIPSE
5
133
100
AcDbEntity
8
1
62
256
6
ByLayer
370
-1
48
1
60
0
100
AcDbEllipse
10
109.167597
20
10.368079
30
0
11
-1.07186937277344E-14
21
-9.99999999999964
31
0
210
0
220
0
230
1
40
0.996195
41
-1.5707963267949
42
-1.55479036376002
0
ELLIPSE
5
134
100
AcDbEntity
8
1
62
256
6
ByLayer
370
-1
48
1
60
0
100
AcDbEllipse
10
106.490323
20
4.102283
30
0
11
-3.21560811832046E-16
21
-0.300000000000001
31
0
210
0
220
0
230
1
40
0.996195
41
1.34390352403572
42
1.5707963267949
0
ELLIPSE
5
135
100
AcDbEntity
8
1
62
256
6
ByLayer
370
-1
48
1
60
0
100
AcDbEllipse
10
99.698109
20
10.323089
30
0
11
5.04036978550836E-16
21
0.430266371133673
31
0
210
0
220
0
230
1
40
0.996195
41
0.296705972839002
42
1.34390352403561
0
ELLIPSE
5
136
100
AcDbEntity
8
1
62
256
6
ByLayer
370
-1
48
1
60
0
100
AcDbEllipse
10
106.038138
20
6.04079
30
0
11
5.77557701897395E-15
21
4.93026637113357
31
0
210
0
220
0
230
1
40
0.996195
41
0.0160059630348832
42
0.0258059561216605
0
ELLIPSE
5
137
100
AcDbEntity
8
1
62
256
6
ByLayer
370
-1
48
1
60
0
100
AcDbEllipse
10
104.187261
20
10.288053
30
0
11
-5.35934686386771E-15
21
-5.00000000000028
31
0
210
0
220
0
230
1
40
0.996195
41
-1.55479036376001
42
-1.54499037067324
0
ELLIPSE
5
138
100
AcDbEntity
8
1
62
256
6
ByLayer
370
-1
48
1
60
0
100
AcDbEllipse
10
99.730193
20
3.865331
30
0
11
2.69746310087586E-16
21
0.230266371133677
31
0
210
0
220
0
230
1
40
0.996195
41
1.64060949687465
42
1.86750229963382
0
ELLIPSE
5
139
100
AcDbEntity
8
1
62
256
6
ByLayer
370
-1
48
1
60
0
100
AcDbEllipse
10
96.827723
20
4.053294
30
0
11
1.16328437305553E-14
21
9.93026637113358
31
0
210
0
220
0
230
1
40
0.996195
41
-1.54499037067321
42
-1.53953256490644
0
ELLIPSE
5
13A
100
AcDbEntity
8
1
62
256
6
ByLayer
370
-1
48
1
60
0
100
AcDbEllipse
10
96.827234
20
4.102283
30
0
11
-1.07186937277344E-14
21
-9.99999999999964
31
0
210
0
220
0
230
1
40
0.996195
41
1.57079632679489
42
1.58680228982978
0
ELLIPSE
5
13B
100
AcDbEntity
8
1
62
256
6
ByLayer
370
-1
48
1
60
0
100
AcDbEllipse
10
99.827637
20
13.427907
30
0
11
-1.07186937277348E-14
21
-9.99999999999999
31
0
210
0
220
0
230
1
40
0.996195
41
0.0258059561216852
42
0.0349065850398896
0
ELLIPSE
5
13C
100
AcDbEntity
8
1
62
256
6
ByLayer
370
-1
48
1
60
0
100
AcDbEllipse
10
99.956161
20
8.429572
30
0
11
-5.35934686386771E-15
21
-5.00000000000028
31
0
210
0
220
0
230
1
40
0.996195
41
0.0160059630348838
42
0.0258059561216593
0
ELLIPSE
5
13D
100
AcDbEntity
8
1
62
256
6
ByLayer
370
-1
48
1
60
0
100
AcDbEllipse
10
100.314452
20
0.837978
30
0
11
-1.07186937277344E-14
21
-9.99999999999964
31
0
210
0
220
0
230
1
40
0.996195
41
-3.0877854465449
42
-3.07177948351001
0
ELLIPSE
5
13E
100
AcDbEntity
8
1
62
256
6
ByLayer
370
-1
48
1
60
0
100
AcDbEllipse
10
109.372661
20
4.493028
30
0
11
-1.07186937277348E-14
21
-9.99999999999999
31
0
210
0
220
0
230
1
40
0.996195
41
-1.53588974175501
42
-1.5267891128368
0
ELLIPSE
5
13F
100
AcDbEntity
8
1
62
256
6
ByLayer
370
-1
48
1
60
0
100
AcDbEllipse
10
104.18673
20
10.288053
30
0
11
5.77557701897395E-15
21
4.93026637113357
31
0
210
0
220
0
230
1
40
0.996195
41
1.58680228982978
42
1.59660228291656
0
ELLIPSE
5
140
100
AcDbEntity
8
1
62
256
6
ByLayer
370
-1
48
1
60
0
100
AcDbEllipse
10
99.95563
20
8.429572
30
0
11
5.77557701897395E-15
21
4.93026637113357
31
0
210
0
220
0
230
1
40
0.996195
41
-3.12558669055491
42
-3.11578669746813
0
ELLIPSE
5
141
100
AcDbEntity
8
1
62
256
6
ByLayer
370
-1
48
1
60
0
100
AcDbEllipse
10
106.35391
20
3.956013
30
0
11
2.69746310087586E-16
21
0.230266371133677
31
0
210
0
220
0
230
1
40
0.996195
41
-3.07177948351008
42
-2.84488668075078
0
ELLIPSE
5
142
100
AcDbEntity
8
1
62
256
6
ByLayer
370
-1
48
1
60
0
100
AcDbEllipse
10
105.729134
20
13.634779
30
0
11
-1.07186937277348E-14
21
-9.99999999999999
31
0
210
0
220
0
230
1
40
0.996195
41
0.0349065850398898
42
0.0440072139580954
0
ELLIPSE
5
143
100
AcDbEntity
8
1
62
256
6
ByLayer
370
-1
48
1
60
0
100
AcDbEllipse
10
106.03867
20
6.04079
30
0
11
-5.35934686386771E-15
21
-5.00000000000028
31
0
210
0
220
0
230
1
40
0.996195
41
-3.12558669055491
42
-3.11578669746813
0
ELLIPSE
5
144
100
AcDbEntity
8
1
62
256
6
ByLayer
370
-1
48
1
60
0
100
AcDbEllipse
10
96.826702
20
4.102283
30
0
11
1.1632843730555E-14
21
9.9302663711333
31
0
210
0
220
0
230
1
40
0.996195
41
-1.5707963267949
42
-1.55479036376002
0
ELLIPSE
5
145
100
AcDbEntity
8
1
62
256
6
ByLayer
370
-1
48
1
60
0
100
AcDbEllipse
10
99.730725
20
3.865331
30
0
11
-3.21560811832046E-16
21
-0.300000000000001
31
0
210
0
220
0
230
1
40
0.996195
41
-1.50098315671517
42
-1.27409035395594
0
ELLIPSE
5
146
100
AcDbEntity
8
1
62
256
6
ByLayer
370
-1
48
1
60
0
100
AcDbEllipse
10
99.920727
20
3.923806
30
0
11
5.04036978550836E-16
21
0.430266371133673
31
0
210
0
220
0
230
1
40
0.996195
41
1.86750229963393
42
2.91469985083054
0
ELLIPSE
5
147
100
AcDbEntity
8
1
62
256
6
ByLayer
370
-1
48
1
60
0
100
AcDbEllipse
10
101.598321
20
10.197299
30
0
11
-5.35934686386771E-15
21
-5.00000000000028
31
0
210
0
220
0
230
1
40
0.996195
41
1.61480354075301
42
1.62460353383979
0
ELLIPSE
5
148
100
AcDbEntity
8
1
62
256
6
ByLayer
370
-1
48
1
60
0
100
AcDbEllipse
10
109.37213
20
4.493028
30
0
11
1.16328437305553E-14
21
9.93026637113358
31
0
210
0
220
0
230
1
40
0.996195
41
1.60934574665594
42
1.61480354075299
0
ELLIPSE
5
149
100
AcDbEntity
8
1
62
256
6
ByLayer
370
-1
48
1
60
0
100
AcDbEllipse
10
96.624024
20
9.928393
30
0
11
1.1632843730555E-14
21
9.9302663711333
31
0
210
0
220
0
230
1
40
0.996195
41
-1.51698911975
42
-1.50098315671511
0
ELLIPSE
5
14A
100
AcDbEntity
8
1
62
256
6
ByLayer
370
-1
48
1
60
0
100
AcDbEllipse
10
100.046569
20
5.830742
30
0
11
-5.35934686386771E-15
21
-5.00000000000028
31
0
210
0
220
0
230
1
40
0.996195
41
-3.09758543963168
42
-3.0877854465449
0
ELLIPSE
5
14B
100
AcDbEntity
8
1
62
256
6
ByLayer
370
-1
48
1
60
0
100
AcDbEllipse
10
106.29619
20
4.147274
30
0
11
-5.35934686386747E-16
21
-0.500000000000006
31
0
210
0
220
0
230
1
40
0.996195
41
0.296705972839047
42
1.34390352403565
0
ELLIPSE
5
14C
100
AcDbEntity
8
1
62
256
6
ByLayer
370
-1
48
1
60
0
100
AcDbEllipse
10
106.489791
20
4.102283
30
0
11
2.69746310087586E-16
21
0.230266371133677
31
0
210
0
220
0
230
1
40
0.996195
41
-1.79768912955412
42
-1.5707963267949
0
ELLIPSE
5
14D
100
AcDbEntity
8
1
62
256
6
ByLayer
370
-1
48
1
60
0
100
AcDbEllipse
10
101.807038
20
4.18231
30
0
11
5.77557701897395E-15
21
4.93026637113357
31
0
210
0
220
0
230
1
40
0.996195
41
-1.55479036376002
42
-1.54499037067324
0
ELLIPSE
5
14E
100
AcDbEntity
8
1
62
256
6
ByLayer
370
-1
48
1
60
0
100
AcDbEllipse
10
99.640389
20
10.51435
30
0
11
-3.21560811832046E-16
21
-0.300000000000001
31
0
210
0
220
0
230
1
40
0.996195
41
-3.07177948351009
42
-2.84488668075079
0
ELLIPSE
5
14F
100
AcDbEntity
8
1
62
256
6
ByLayer
370
-1
48
1
60
0
100
AcDbEllipse
10
106.073041
20
10.546557
30
0
11
5.04036978550836E-16
21
0.430266371133673
31
0
210
0
220
0
230
1
40
0.996195
41
-1.27409035395586
42
-0.226892802759249
0
ELLIPSE
5
150
100
AcDbEntity
8
1
62
256
6
ByLayer
370
-1
48
1
60
0
100
AcDbEllipse
10
99.876439
20
3.728932
30
0
11
-3.21560811832046E-16
21
-0.300000000000001
31
0
210
0
220
0
230
1
40
0.996195
41
-0.226892802759265
42
0
0
ELLIPSE
5
151
100
AcDbEntity
8
1
62
256
6
ByLayer
370
-1
48
1
60
0
100
AcDbEllipse
10
106.11786
20
10.741431
30
0
11
2.69746310087586E-16
21
0.230266371133677
31
0
210
0
220
0
230
1
40
0.996195
41
-0.226892802759241
42
-6.19505726264818E-14
0
ELLIPSE
5
152
100
AcDbEntity
8
1
62
256
6
ByLayer
370
-1
48
1
60
0
100
AcDbEllipse
10
102.979984
20
7.235181
30
0
11
2.27265689458196E-15
21
1.94003193510747
31
0
210
0
220
0
230
1
40
0.996195
41
0
42
6.28318530717959
0
ELLIPSE
5
153
100
AcDbEntity
8
1
62
256
6
ByLayer
370
-1
48
1
60
0
100
AcDbEllipse
10
101.597789
20
10.197299
30
0
11
5.77557701897395E-15
21
4.93026637113357
31
0
210
0
220
0
230
1
40
0.996195
41
-1.52678911283678
42
-1.51698911975
0
ELLIPSE
5
154
100
AcDbEntity
8
1
62
256
6
ByLayer
370
-1
48
1
60
0
100
AcDbEllipse
10
99.921258
20
3.923806
30
0
11
-5.35934686386747E-16
21
-0.500000000000006
31
0
210
0
220
0
230
1
40
0.996195
41
-1.27409035395589
42
-0.226892802759265
0
ELLIPSE
5
155
100
AcDbEntity
8
1
62
256
6
ByLayer
370
-1
48
1
60
0
100
AcDbEllipse
10
106.118392
20
10.741431
30
0
11
-3.21560811832046E-16
21
-0.300000000000001
31
0
210
0
220
0
230
1
40
0.996195
41
2.91469985083057
42
-3.14159265358975
0
ELLIPSE
5
156
100
AcDbEntity
8
1
62
256
6
ByLayer
370
-1
48
1
60
0
100
AcDbEllipse
10
100.31392
20
0.837978
30
0
11
1.1632843730555E-14
21
9.9302663711333
31
0
210
0
220
0
230
1
40
0.996195
41
0.0538072070448951
42
0.0698131700797843
0
ELLIPSE
5
157
100
AcDbEntity
8
1
62
256
6
ByLayer
370
-1
48
1
60
0
100
AcDbEllipse
10
99.875908
20
3.728932
30
0
11
2.69746310087586E-16
21
0.230266371133677
31
0
210
0
220
0
230
1
40
0.996195
41
2.91469985083047
42
3.14159265358973
0
ELLIPSE
5
158
100
AcDbEntity
8
1
62
256
6
ByLayer
370
-1
48
1
60
0
100
AcDbEllipse
10
106.263574
20
10.605031
30
0
11
2.69746310087586E-16
21
0.230266371133677
31
0
210
0
220
0
230
1
40
0.996195
41
-1.50098315671514
42
-1.27409035395598
0
ELLIPSE
5
159
100
AcDbEntity
8
1
62
256
6
ByLayer
370
-1
48
1
60
0
100
AcDbEllipse
10
101.80757
20
4.18231
30
0
11
-5.35934686386771E-15
21
-5.00000000000028
31
0
210
0
220
0
230
1
40
0.996195
41
1.58680228982978
42
1.59660228291656
0
ELLIPSE
5
15A
100
AcDbEntity
8
1
62
256
6
ByLayer
370
-1
48
1
60
0
100
AcDbEllipse
10
109.167065
20
10.368079
30
0
11
1.1632843730555E-14
21
9.9302663711333
31
0
210
0
220
0
230
1
40
0.996195
41
1.57079632679489
42
1.58680228982978
0
ELLIPSE
5
15B
100
AcDbEntity
8
1
62
256
6
ByLayer
370
-1
48
1
60
0
100
AcDbEllipse
10
104.39651
20
4.273063
30
0
11
-5.35934686386771E-15
21
-5.00000000000028
31
0
210
0
220
0
230
1
40
0.996195
41
-1.52678911283678
42
-1.51698911975
0
ELLIPSE
5
15C
100
AcDbEntity
8
1
62
256
6
ByLayer
370
-1
48
1
60
0
100
AcDbEllipse
10
106.11786
20
1.041431
30
0
11
1.1632843730555E-14
21
9.9302663711333
31
0
210
0
220
0
230
1
40
0.996195
41
0
42
0.0160059630348829
0
ELLIPSE
5
15D
100
AcDbEntity
8
1
62
256
6
ByLayer
370
-1
48
1
60
0
100
AcDbEllipse
10
100.046037
20
5.830742
30
0
11
5.77557701897395E-15
21
4.93026637113357
31
0
210
0
220
0
230
1
40
0.996195
41
0.0440072139581178
42
0.0538072070448944
0
ELLIPSE
5
15E
100
AcDbEntity
8
1
62
256
6
ByLayer
370
-1
48
1
60
0
100
AcDbEllipse
10
100.265165
20
0.835583
30
0
11
1.16328437305553E-14
21
9.93026637113358
31
0
210
0
220
0
230
1
40
0.996195
41
0.0385494198610473
42
0.0440072139580949
0
ELLIPSE
5
15F
100
AcDbEntity
8
1
62
256
6
ByLayer
370
-1
48
1
60
0
100
AcDbEllipse
10
109.166577
20
10.417068
30
0
11
-1.07186937277348E-14
21
-9.99999999999999
31
0
210
0
220
0
230
1
40
0.996195
41
-1.54499037067321
42
-1.53588974175501
0
ELLIPSE
5
160
100
AcDbEntity
8
1
62
256
6
ByLayer
370
-1
48
1
60
0
100
AcDbEllipse
10
96.62217
20
9.977334
30
0
11
-1.07186937277348E-14
21
-9.99999999999999
31
0
210
0
220
0
230
1
40
0.996195
41
1.60570291183479
42
1.61480354075299
0
ELLIPSE
5
161
100
AcDbEntity
8
1
62
256
6
ByLayer
370
-1
48
1
60
0
100
AcDbEllipse
10
106.264106
20
10.605031
30
0
11
-3.21560811832046E-16
21
-0.300000000000001
31
0
210
0
220
0
230
1
40
0.996195
41
1.64060949687463
42
1.86750229963386
0
ELLIPSE
5
162
100
AcDbEntity
8
1
62
256
6
ByLayer
370
-1
48
1
60
0
100
AcDbEllipse
10
103.049221
20
7.235181
30
0
11
-2.01991837106078E-15
21
-1.88448184300126
31
0
210
0
220
0
230
1
40
0.996195
41
2.21551025834039
42
-9.46223865285074E-16
0
ELLIPSE
5
163
100
AcDbEntity
8
1
62
256
6
ByLayer
370
-1
48
1
60
0
100
AcDbEllipse
10
103.049221
20
7.235181
30
0
11
-2.01991837106078E-15
21
-1.88448184300126
31
0
210
0
220
0
230
1
40
0.996195
41
0
42
0.92608264308836
0
ELLIPSE
5
164
100
AcDbEntity
8
1
62
256
6
ByLayer
370
-1
48
1
60
0
100
AcDbEllipse
10
109.166045
20
10.417068
30
0
11
1.16328437305553E-14
21
9.93026637113358
31
0
210
0
220
0
230
1
40
0.996195
41
1.59660228291658
42
1.60206008868336
0
ELLIPSE
5
165
100
AcDbEntity
8
1
62
256
6
ByLayer
370
-1
48
1
60
0
100
AcDbEllipse
10
103.069954
20
7.235181
30
0
11
-1.93445608783117E-15
21
-1.80474984822612
31
0
210
0
220
0
230
1
40
0.996195
41
0
42
6.28318530717959
0
ELLIPSE
5
166
100
AcDbEntity
8
1
62
256
6
ByLayer
370
-1
48
1
60
0
100
AcDbEllipse
10
105.728602
20
13.634779
30
0
11
1.16328437305553E-14
21
9.93026637113358
31
0
210
0
220
0
230
1
40
0.996195
41
-3.10304323372875
42
-3.0975854396317
0
ELLIPSE
5
167
100
AcDbEntity
8
1
62
256
6
ByLayer
370
-1
48
1
60
0
100
AcDbEllipse
10
103.22402
20
7.235181
30
0
11
1.64003467924279E-15
21
1.4
31
0
210
0
220
0
230
1
40
0.996195
41
0
42
1.57079653853157
0
ELLIPSE
5
168
100
AcDbEntity
8
1
62
256
6
ByLayer
370
-1
48
1
60
0
100
AcDbEllipse
10
103.22402
20
7.235181
30
0
11
1.64003467924279E-15
21
1.4
31
0
210
0
220
0
230
1
40
0.996195
41
1.57079640587062
42
-3.14159236166655
0
ELLIPSE
5
169
100
AcDbEntity
8
1
62
256
6
ByLayer
370
-1
48
1
60
0
100
AcDbEllipse
10
99.503977
20
10.368079
30
0
11
2.69746310087586E-16
21
0.230266371133677
31
0
210
0
220
0
230
1
40
0.996195
41
1.34390352403567
42
1.5707963267949
0
ELLIPSE
5
16A
100
AcDbEntity
8
1
62
256
6
ByLayer
370
-1
48
1
60
0
100
AcDbEllipse
10
105.679847
20
13.632384
30
0
11
1.1632843730555E-14
21
9.9302663711333
31
0
210
0
220
0
230
1
40
0.996195
41
-3.0877854465449
42
-3.07177948351001
0
ELLIPSE
5
16B
100
AcDbEntity
8
1
62
256
6
ByLayer
370
-1
48
1
60
0
100
AcDbEllipse
10
100.265697
20
0.835583
30
0
11
-1.07186937277348E-14
21
-9.99999999999999
31
0
210
0
220
0
230
1
40
0.996195
41
-3.10668606854991
42
-3.0975854396317
0
ELLIPSE
5
16C
100
AcDbEntity
8
1
62
256
6
ByLayer
370
-1
48
1
60
0
100
AcDbEllipse
10
96.828255
20
4.053294
30
0
11
-1.07186937277348E-14
21
-9.99999999999999
31
0
210
0
220
0
230
1
40
0.996195
41
1.59660228291658
42
1.60570291183479
0
ELLIPSE
5
16D
100
AcDbEntity
8
1
62
256
6
ByLayer
370
-1
48
1
60
0
100
AcDbEllipse
10
99.504508
20
10.368079
30
0
11
-3.21560811832046E-16
21
-0.300000000000001
31
0
210
0
220
0
230
1
40
0.996195
41
-1.79768912955412
42
-1.5707963267949
0
ELLIPSE
5
16E
100
AcDbEntity
8
1
62
256
6
ByLayer
370
-1
48
1
60
0
100
AcDbEllipse
10
109.370275
20
4.541969
30
0
11
-1.07186937277344E-14
21
-9.99999999999964
31
0
210
0
220
0
230
1
40
0.996195
41
-1.51698911975
42
-1.50098315671511
0
ELLIPSE
5
16F
100
AcDbEntity
8
1
62
256
6
ByLayer
370
-1
48
1
60
0
100
AcDbEllipse
10
99.698641
20
10.323089
30
0
11
-5.35934686386747E-16
21
-0.500000000000006
31
0
210
0
220
0
230
1
40
0.996195
41
-2.84488668075078
42
-1.79768912955414
0
ELLIPSE
5
170
100
AcDbEntity
8
1
62
256
6
ByLayer
370
-1
48
1
60
0
100
AcDbEllipse
10
99.876439
20
13.428932
30
0
11
-1.07186937277344E-14
21
-9.99999999999964
31
0
210
0
220
0
230
1
40
0.996195
41
0
42
0.0160059630348837
0
ELLIPSE
5
171
100
AcDbEntity
8
1
62
256
6
ByLayer
370
-1
48
1
60
0
100
AcDbEllipse
10
96.621638
20
9.977334
30
0
11
1.16328437305553E-14
21
9.93026637113358
31
0
210
0
220
0
230
1
40
0.996195
41
-1.53224690693385
42
-1.5267891128368
0
ELLIPSE
5
172
100
AcDbEntity
8
1
62
256
6
ByLayer
370
-1
48
1
60
0
100
AcDbEllipse
10
106.295659
20
4.147274
30
0
11
5.04036978550836E-16
21
0.430266371133673
31
0
210
0
220
0
230
1
40
0.996195
41
-2.8448866807508
42
-1.79768912955418
0
ELLIPSE
5
173
100
AcDbEntity
8
1
62
256
6
ByLayer
370
-1
48
1
60
0
100
AcDbEllipse
10
109.369743
20
4.541969
30
0
11
1.1632843730555E-14
21
9.9302663711333
31
0
210
0
220
0
230
1
40
0.996195
41
1.62460353383979
42
1.64060949687468
0
ELLIPSE
5
174
100
AcDbEntity
8
1
62
256
6
ByLayer
370
-1
48
1
60
0
100
AcDbEllipse
10
106.342646
20
-3.625827
30
0
11
-0.199877710054841
21
0.00699292665720031
31
0
210
0
220
0
230
1
40
0.061011
41
0.525733317016737
42
1.57293086821329
0
ELLIPSE
5
175
100
AcDbEntity
8
1
62
256
6
ByLayer
370
-1
48
1
60
0
100
AcDbEllipse
10
108.681038
20
-2.242589
30
0
11
2.55607522661845
21
0
31
0
210
0
220
0
230
1
40
0.998135
41
-3.08923277577749
42
-2.6888382774219
0
ELLIPSE
5
176
100
AcDbEntity
8
1
62
256
6
ByLayer
370
-1
48
1
60
0
100
AcDbEllipse
10
105.842951
20
-3.62062
30
0
11
-0.599999999999998
21
6.06383433049416E-16
31
0
210
0
220
0
230
1
40
0.998135
41
3.10668606854991
42
-2.6888382774219
0
ELLIPSE
5
177
100
AcDbEntity
8
1
62
256
6
ByLayer
370
-1
48
1
60
0
100
AcDbEllipse
10
108.681038
20
-2.236484
30
0
11
-2.82928030737534
21
2.85938117640895E-15
31
0
210
0
220
0
230
1
40
0.998135
41
0.35582122975915
42
0.452754376167887
0
ELLIPSE
5
178
100
AcDbEntity
8
1
62
256
6
ByLayer
370
-1
48
1
60
0
100
AcDbEllipse
10
106.028603
20
-2.369128
30
0
11
-0.199724883720219
21
-0.0104866974279326
31
0
210
0
220
0
230
1
40
0.060965
41
1.34771660471096
42
1.56759533351589
0
ELLIPSE
5
179
100
AcDbEntity
8
1
62
256
6
ByLayer
370
-1
48
1
60
0
100
AcDbEllipse
10
103.30186
20
-2.780297
30
0
11
1.5
21
0
31
0
210
0
220
0
230
1
40
0.998135
41
1.56824355508757
42
2.60850353614161
0
ELLIPSE
5
17A
100
AcDbEntity
8
1
62
256
6
ByLayer
370
-1
48
1
60
0
100
AcDbEllipse
10
106.183633
20
-4.609017
30
0
11
-0.145355336275983
21
0.137374765572487
31
0
210
0
220
0
230
1
40
0.044408
41
0.98510727762439
42
1.6127412692516
0
ELLIPSE
5
17B
100
AcDbEntity
8
1
62
256
6
ByLayer
370
-1
48
1
60
0
100
AcDbEllipse
10
105.819925
20
-4.278769
30
0
11
-0.500000000000032
21
5.05319527541214E-16
31
0
210
0
220
0
230
1
40
0.998135
41
2.38534574936597
42
3.10668606854992
0
ELLIPSE
5
17C
100
AcDbEntity
8
1
62
256
6
ByLayer
370
-1
48
1
60
0
100
AcDbEllipse
10
106.444161
20
-5.365093
30
0
11
0.499999999999967
21
0
31
0
210
0
220
0
230
1
40
0.998135
41
-1.22173047639592
42
-0.0349065850399499
0
ELLIPSE
5
17D
100
AcDbEntity
8
1
62
256
6
ByLayer
370
-1
48
1
60
0
100
AcDbEllipse
10
103.30186
20
-2.804956
30
0
11
1.4
21
0
31
0
210
0
220
0
230
1
40
0.998135
41
1.14481596360342
42
2.76823410218923
0
ELLIPSE
5
17E
100
AcDbEntity
8
1
62
256
6
ByLayer
370
-1
48
1
60
0
100
AcDbEllipse
10
106.31962
20
-4.283976
30
0
11
-0.199877710054841
21
0.00699292665720031
31
0
210
0
220
0
230
1
40
0.061011
41
0.525733317016737
42
1.57293086821329
0
ELLIPSE
5
17F
100
AcDbEntity
8
1
62
256
6
ByLayer
370
-1
48
1
60
0
100
AcDbEllipse
10
106.000305
20
-3.751633
30
0
11
0.999999999999949
21
0
31
0
210
0
220
0
230
1
40
0.998135
41
-0.0349065850400169
42
0.465543358906946
0
ELLIPSE
5
180
100
AcDbEntity
8
1
62
256
6
ByLayer
370
-1
48
1
60
0
100
AcDbEllipse
10
105.448819
20
-0.87489
30
0
11
-0.600000000000031
21
6.06383433049449E-16
31
0
210
0
220
0
230
1
40
0.998135
41
-3.08923277602996
42
-2.38276718465505
0
ELLIPSE
5
181
100
AcDbEntity
8
1
62
256
6
ByLayer
370
-1
48
1
60
0
100
AcDbEllipse
10
105.726348
20
0.191312
30
0
11
0.499999999999967
21
0
31
0
210
0
220
0
230
1
40
0.998135
41
0.34906585039895
42
1.13657821053286
0
ELLIPSE
5
182
100
AcDbEntity
8
1
62
256
6
ByLayer
370
-1
48
1
60
0
100
AcDbEllipse
10
103.30186
20
-2.780297
30
0
11
1.4
21
0
31
0
210
0
220
0
230
1
40
0.998135
41
1.20804052964577
42
2.77127760037697
0
ELLIPSE
5
183
100
AcDbEntity
8
1
62
256
6
ByLayer
370
-1
48
1
60
0
100
AcDbEllipse
10
105.948134
20
-0.836561
30
0
11
-0.199724883720219
21
-0.0104866974279326
31
0
210
0
220
0
230
1
40
0.060965
41
1.34771660471096
42
1.56759533351589
0
ELLIPSE
5
184
100
AcDbEntity
8
1
62
256
6
ByLayer
370
-1
48
1
60
0
100
AcDbEllipse
10
106.094113
20
-0.817231
30
0
11
0.49999999999995
21
0
31
0
210
0
220
0
230
1
40
0.998135
41
0.0523598775597036
42
0.349065850398746
0
ELLIPSE
5
185
100
AcDbEntity
8
1
62
256
6
ByLayer
370
-1
48
1
60
0
100
AcDbEllipse
10
105.819925
20
-4.278769
30
0
11
-0.600000000000032
21
6.0638343304945E-16
31
0
210
0
220
0
230
1
40
0.998135
41
2.38534574936598
42
3.10668606854991
0
ELLIPSE
5
186
100
AcDbEntity
8
1
62
256
6
ByLayer
370
-1
48
1
60
0
100
AcDbEllipse
10
105.842951
20
-3.614515
30
0
11
0.326794919243111
21
0
31
0
210
0
220
0
230
1
40
0.998135
41
-0.0349065850398939
42
0.452754376167898
0
ELLIPSE
5
187
100
AcDbEntity
8
1
62
256
6
ByLayer
370
-1
48
1
60
0
100
AcDbEllipse
10
108.681038
20
-2.242589
30
0
11
2.65607522661845
21
0
31
0
210
0
220
0
230
1
40
0.998135
41
-3.089232775787
42
-2.6888382774219
0
ELLIPSE
5
188
100
AcDbEntity
8
1
62
256
6
ByLayer
370
-1
48
1
60
0
100
AcDbEllipse
10
108.681038
20
-2.291427
30
0
11
-2.23329066571558
21
2.25705076812306E-15
31
0
210
0
220
0
230
1
40
0.998135
41
0.0523598778487871
42
0.452754376167892
0
ELLIPSE
5
189
100
AcDbEntity
8
1
62
256
6
ByLayer
370
-1
48
1
60
0
100
AcDbEllipse
10
105.448819
20
-0.87489
30
0
11
-0.500000000000031
21
5.05319527541213E-16
31
0
210
0
220
0
230
1
40
0.998135
41
-3.08923277602996
42
-2.66850494205337
0
ELLIPSE
5
18A
100
AcDbEntity
8
1
62
256
6
ByLayer
370
-1
48
1
60
0
100
AcDbEllipse
10
108.681038
20
-2.40742
30
0
11
2.00000000000005
21
0
31
0
210
0
220
0
230
1
40
0.998135
41
-3.0892327757073
42
-2.67604929468265
0
ELLIPSE
5
18B
100
AcDbEntity
8
1
62
256
6
ByLayer
370
-1
48
1
60
0
100
AcDbEllipse
10
105.819925
20
-4.272664
30
0
11
0.326794919243145
21
0
31
0
210
0
220
0
230
1
40
0.998135
41
-0.578165928880406
42
-0.0349065850398962
0
ELLIPSE
5
18C
100
AcDbEntity
8
1
62
256
6
ByLayer
370
-1
48
1
60
0
100
AcDbEllipse
10
105.842951
20
-3.62062
30
0
11
-0.499999999999999
21
5.0531952754118E-16
31
0
210
0
220
0
230
1
40
0.998135
41
3.10668606854992
42
-2.68883827742191
0
ELLIPSE
5
18D
100
AcDbEntity
8
1
62
256
6
ByLayer
370
-1
48
1
60
0
100
AcDbEllipse
10
106.292574
20
-3.390096
30
0
11
-0.179784788659424
21
-0.0876209436532511
31
0
210
0
220
0
230
1
40
0.054898
41
0.496849932696674
42
1.54404748389334
0
POINT
5
41
100
AcDbEntity
8
81
62
256
6
ByLayer
370
-1
48
1
60
0
100
AcDbPoint
10
107
20
0
30
0
39
0
210
0
220
0
230
1
50
360
0
POINT
5
43
100
AcDbEntity
8
80
62
256
6
ByLayer
370
-1
48
1
60
0
100
AcDbPoint
10
0
20
0
30
0
39
0
210
0
220
0
230
1
50
360
0
SPLINE
5
18E
100
AcDbEntity
8
SK1
62
256
6
ByLayer
370
-1
48
1
60
0
100
AcDbSpline
70
4
71
2
72
6
73
3
40
0
40
0
40
0
40
1
40
1
40
1
41
1
10
-2.99999999999997
20
17.5000000000527
30
0
41
1
10
-15.7502365839532
20
17.1796696772131
30
0
41
1
10
-28.5004731679065
20
16.8593393543736
30
0
0
SPLINE
5
18F
100
AcDbEntity
8
1
62
256
6
ByLayer
370
-1
48
1
60
0
100
AcDbSpline
70
4
71
3
72
12
73
8
40
0
40
0
40
0
40
0
40
0.179227330584541
40
0.39954017823607
40
0.619125937381921
40
0.83800688756929
40
1
40
1
40
1
40
1
41
1
10
101.999870853342
20
-2.29500481339369
30
0
41
1
10
102.035434788862
20
-2.20683058777001
30
0
41
1
10
102.131018071321
20
-2.01823350330596
30
0
41
1
10
102.347484677885
20
-1.76619548068572
30
0
41
1
10
102.636428691101
20
-1.5627919089018
30
0
41
1
10
102.940194216975
20
-1.44796747704226
30
0
41
1
10
103.140699121839
20
-1.41891257719769
30
0
41
1
10
103.228346279796
20
-1.41415127975867
30
0
0
SPLINE
5
190
100
AcDbEntity
8
1
62
256
6
ByLayer
370
-1
48
1
60
0
100
AcDbSpline
70
4
71
3
72
10
73
6
40
0
40
0
40
0
40
0
40
0.156620253062205
40
0.649955738290949
40
1
40
1
40
1
40
1
41
1
10
103.228346279796
20
-1.41415127975867
30
0
41
1
10
103.265349534395
20
-1.41222568073348
30
0
41
1
10
103.41821235227
20
-1.41021361316191
30
0
41
1
10
103.654123140223
20
-1.44594323991635
30
0
41
1
10
103.840769444902
20
-1.51691609839961
30
0
41
1
10
103.914959147347
20
-1.55286931784394
30
0
0
SPLINE
5
191
100
AcDbEntity
8
1
62
256
6
ByLayer
370
-1
48
1
60
0
100
AcDbSpline
70
4
71
3
72
20
73
16
40
0
40
0
40
0
40
0
40
0.0553893404809149
40
0.13656740371328
40
0.21747198288545
40
0.297898519492237
40
0.377777370957186
40
0.457177337562037
40
0.536273217725313
40
0.615298749254411
40
0.694429112718048
40
0.773874250405755
40
0.853793010588117
40
0.934241316975785
40
1
40
1
40
1
40
1
41
1
10
103.163633456113
20
8.62542071992985
30
0
41
1
10
103.243739479382
20
8.63122798496113
30
0
41
1
10
103.437717860959
20
8.62661482960533
30
0
41
1
10
103.740009589277
20
8.53469835537629
30
0
41
1
10
104.042599343538
20
8.35662774594638
30
0
41
1
10
104.291636139136
20
8.10643458428584
30
0
41
1
10
104.471074265938
20
7.80249370325933
30
0
41
1
10
104.57010060804
20
7.46366557253526
30
0
41
1
10
104.583051683464
20
7.11139834167062
30
0
41
1
10
104.509648387697
20
6.76748677375767
30
0
41
1
10
104.354874578519
20
6.45296084451067
30
0
41
1
10
104.128285107015
20
6.18680064869829
30
0
41
1
10
103.844039104939
20
5.98512812656159
30
0
41
1
10
103.537752087775
20
5.86796212631126
30
0
41
1
10
103.331994107327
20
5.83953971309992
30
0
41
1
10
103.236824558604
20
5.83602242871947
30
0
0
SPLINE
5
192
100
AcDbEntity
8
1
62
256
6
ByLayer
370
-1
48
1
60
0
100
AcDbSpline
70
4
71
3
72
15
73
11
40
0
40
0
40
0
40
0
40
0.139246379719073
40
0.277869753584594
40
0.417037386351789
40
0.557241125214073
40
0.667325932678454
40
0.778496981842103
40
0.889930459900942
40
1
40
1
40
1
40
1
41
1
10
26.5
20
-14.5
30
0
41
1
10
27.0782850089991
20
-14.4975448886417
30
0
41
1
10
28.215071488905
20
-14.4026024450364
30
0
41
1
10
29.8864544227485
20
-13.9761614916471
30
0
41
1
10
31.4764198158871
20
-13.3071888377958
30
0
41
1
10
32.8483884728277
20
-12.4736854651863
30
0
41
1
10
34.0468885502836
20
-11.5875866467752
30
0
41
1
10
35.306026156421
20
-11.0282182647198
30
0
41
1
10
36.6362969444162
20
-10.676757312985
30
0
41
1
10
37.5424559139155
20
-10.6005569328345
30
0
41
1
10
38
20
-10.6
30
0
0
SPLINE
5
193
100
AcDbEntity
8
1
62
256
6
ByLayer
370
-1
48
1
60
0
100
AcDbSpline
70
4
71
3
72
15
73
11
40
0
40
0
40
0
40
0
40
0.112084933044229
40
0.225553320948128
40
0.338688020642131
40
0.450804568354836
40
0.563038195347048
40
0.708938694437001
40
0.854165121704041
40
1
40
1
40
1
40
1
41
1
10
38
20
10.5999999999999
30
0
41
1
10
37.5339024088199
20
10.6005988078553
30
0
41
1
10
36.6114252026767
20
10.6796731627155
30
0
41
1
10
35.2582766176678
20
11.0436110088653
30
0
41
1
10
33.9813664334629
20
11.6242211714765
30
0
41
1
10
32.8683264104377
20
12.4600554788269
30
0
41
1
10
31.5656819129472
20
13.2527457977536
30
0
41
1
10
30.0434917607367
20
13.9265943809344
30
0
41
1
10
28.2962716527265
20
14.3930437026276
30
0
41
1
10
27.1061649273869
20
14.4971229148794
30
0
41
1
10
26.5000000000001
20
14.5
30
0
0
SPLINE
5
194
100
AcDbEntity
8
SK1
62
256
6
ByLayer
370
-1
48
1
60
0
100
AcDbSpline
70
4
71
2
72
6
73
3
40
0
40
0
40
0
40
1
40
1
40
1
41
1
10
-28.5004731679065
20
-16.8593393543424
30
0
41
1
10
-15.7502365839533
20
-17.1796696771814
30
0
41
1
10
-3.00000000000003
20
-17.5000000000204
30
0
0
SPLINE
5
195
100
AcDbEntity
8
SK1
62
256
6
ByLayer
370
-1
48
1
60
0
100
AcDbSpline
70
4
71
2
72
6
73
3
40
0
40
0
40
0
40
1
40
1
40
1
41
1
10
-2.19492113517944
20
17.5202263833814
30
0
41
1
10
-2.59746056758971
20
17.5101131917171
30
0
41
1
10
-2.99999999999997
20
17.5000000000527
30
0
0
SPLINE
5
196
100
AcDbEntity
8
SK1
62
256
6
ByLayer
370
-1
48
1
60
0
100
AcDbSpline
70
4
71
2
72
6
73
3
40
0
40
0
40
0
40
1
40
1
40
1
41
1
10
-3.00000000000003
20
-17.5000000000204
30
0
41
1
10
-2.59746056758976
20
-17.5101131916847
30
0
41
1
10
-2.1949211351795
20
-17.5202263833491
30
0
0
SPLINE
5
197
100
AcDbEntity
8
SK1
62
256
6
ByLayer
370
-1
48
1
60
0
100
AcDbSpline
70
4
71
2
72
6
73
3
40
0
40
0
40
0
40
1
40
1
40
1
41
1
10
-0.399999999999977
20
17.3251501409625
30
0
41
1
10
-1.19999999999999
20
17.3251501409625
30
0
41
1
10
-1.99999999999997
20
17.3251501409625
30
0
0
SPLINE
5
198
100
AcDbEntity
8
SK1
62
256
6
ByLayer
370
-1
48
1
60
0
100
AcDbSpline
70
4
71
2
72
6
73
3
40
0
40
0
40
0
40
1
40
1
40
1
41
1
10
-2.00000000000003
20
-17.3251501414068
30
0
41
1
10
-1.20000000000005
20
-17.3251501414067
30
0
41
1
10
-0.400000000000034
20
-17.3251501414068
30
0
0
SPLINE
5
199
100
AcDbEntity
8
SK1
62
256
6
ByLayer
370
-1
48
1
60
0
100
AcDbSpline
70
4
71
2
72
6
73
3
40
0
40
0
40
0
40
1
40
1
40
1
41
1
10
-28.5003904504266
20
16.8597456617509
30
0
41
1
10
-29.2501952787077
20
16.4010253845911
30
0
41
1
10
-30
20
15.9423013487223
30
0
0
SPLINE
5
19A
100
AcDbEntity
8
SK1
62
256
6
ByLayer
370
-1
48
1
60
0
100
AcDbSpline
70
4
71
2
72
6
73
3
40
0
40
0
40
0
40
1
40
1
40
1
41
1
10
-30
20
-15.9408160639385
30
0
41
1
10
-29.250201613525
20
-16.3993636736325
30
0
41
1
10
-28.5004032853135
20
-16.8579102610942
30
0
0
SPLINE
5
19B
100
AcDbEntity
8
SK1
62
256
6
ByLayer
370
-1
48
1
60
0
100
AcDbSpline
70
4
71
3
72
11
73
7
40
0
40
0
40
0
40
0
40
0.245755007744097
40
0.501794198211019
40
0.756953870258405
40
1
40
1
40
1
40
1
41
1
10
-0.199999999999989
20
17.5191731511753
30
0
41
1
10
-0.199994647676362
20
17.493844966999
30
0
41
1
10
-0.209350242264492
20
17.4456228534321
30
0
41
1
10
-0.254178184246626
20
17.3766360753193
30
0
41
1
10
-0.324420736760771
20
17.33275982811
30
0
41
1
10
-0.37399106702361
20
17.3239685556465
30
0
41
1
10
-0.399999999999977
20
17.3241476526065
30
0
0
SPLINE
5
19C
100
AcDbEntity
8
SK1
62
256
6
ByLayer
370
-1
48
1
60
0
100
AcDbSpline
70
4
71
3
72
11
73
7
40
0
40
0
40
0
40
0
40
0.243046950855008
40
0.498204668192555
40
0.75424246970475
40
1
40
1
40
1
40
1
41
1
10
-0.400000000000034
20
-17.3241468641747
30
0
41
1
10
-0.373991174653838
20
-17.3239674893689
30
0
41
1
10
-0.32442120264767
20
-17.332758304075
30
0
41
1
10
-0.254178044541192
20
-17.3766339294131
30
0
41
1
10
-0.209350044376095
20
-17.4456203921356
30
0
41
1
10
-0.199994500672261
20
-17.4938412312526
30
0
41
1
10
-0.200000000000046
20
-17.5191688355708
30
0
0
SPLINE
5
19D
100
AcDbEntity
8
1
62
256
6
ByLayer
370
-1
48
1
60
0
100
AcDbSpline
70
4
71
3
72
16
73
12
40
0
40
0
40
0
40
0
40
0.124999999999996
40
0.124999999999996
40
0.249999999999993
40
0.249999999999993
40
0.499999999999993
40
0.499999999999993
40
0.749999999999997
40
0.749999999999997
40
1
40
1
40
1
40
1
41
1
10
8.5386751345948
20
-7.52966679426498
30
0
41
1
10
8.50692224136537
20
-7.52966679426498
30
0
41
1
10
8.47600932946898
20
-7.5359757629964
30
0
41
1
10
8.41759599948892
20
-7.558573617501
30
0
41
1
10
8.39103491659969
20
-7.57431556968103
30
0
41
1
10
8.31704385770789
20
-7.63070347545334
30
0
41
1
10
8.27807345100129
20
-7.67774765104227
30
0
41
1
10
8.21173961735187
20
-7.7786633825045
30
0
41
1
10
8.18512193927674
20
-7.8319194748604
30
0
41
1
10
8.13975567725325
20
-7.94172327888182
30
0
41
1
10
8.12111376292617
20
-7.99846916820701
30
0
41
1
10
8.10566243270242
20
-8.05584836782768
30
0
0
SPLINE
5
19E
100
AcDbEntity
8
1
62
256
6
ByLayer
370
-1
48
1
60
0
100
AcDbSpline
70
4
71
3
72
8
73
4
40
0
40
0
40
0
40
0
40
1
40
1
40
1
40
1
41
1
10
95.7574055604148
20
6.6399999999999
30
0
41
1
10
95.7306058625976
20
6.7729774505494
30
0
41
1
10
95.7149174090238
20
6.90776672775073
30
0
41
1
10
95.7149174090238
20
7.0450514747792
30
0
0
SPLINE
5
19F
100
AcDbEntity
8
1
62
256
6
ByLayer
370
-1
48
1
60
0
100
AcDbSpline
70
4
71
3
72
44
73
40
40
0
40
0
40
0
40
0
40
0.0624999999999999
40
0.0624999999999999
40
0.125
40
0.125
40
0.1875
40
0.1875
40
0.21875
40
0.21875
40
0.25
40
0.25
40
0.312500000000001
40
0.312500000000001
40
0.343750000000001
40
0.343750000000001
40
0.375000000000001
40
0.375000000000001
40
0.500000000000002
40
0.500000000000002
40
0.562500000000002
40
0.562500000000002
40
0.625000000000002
40
0.625000000000002
40
0.687500000000002
40
0.687500000000002
40
0.718750000000002
40
0.718750000000002
40
0.750000000000002
40
0.750000000000002
40
0.812500000000002
40
0.812500000000002
40
0.875000000000001
40
0.875000000000001
40
0.906250000000001
40
0.906250000000001
40
0.9375
40
0.9375
40
1
40
1
40
1
40
1
41
1
10
39.5183629653043
20
6.68878530974163
30
0
41
1
10
40.7022771354511
20
6.31688278193189
30
0
41
1
10
41.8824413233216
20
5.92657289402581
30
0
41
1
10
44.2380575120916
20
5.1157762327019
30
0
41
1
10
45.413475083618
20
4.69522713063398
30
0
41
1
10
47.7613723171951
20
3.82821550219089
30
0
41
1
10
48.9341170288414
20
3.38236434688903
30
0
41
1
10
50.6931462372884
20
2.69913080462689
30
0
41
1
10
51.2793318752114
20
2.46861907752304
30
0
41
1
10
52.4527162745852
20
2.00533207749905
30
0
41
1
10
53.0399043052509
20
1.7725459841202
30
0
41
1
10
54.8021550557005
20
1.06873347132026
30
0
41
1
10
55.9780517833754
20
0.592555941910859
30
0
41
1
10
57.7472097121475
20
-0.122766331168037
30
0
41
1
10
58.3377465790788
20
-0.361552187528986
30
0
41
1
10
59.5207741467828
20
-0.839002641626792
30
0
41
1
10
60.1131061687528
20
-1.07760235855451
30
0
41
1
10
63.0702345948706
20
-2.2638622567402
30
0
41
1
10
65.4296501686129
20
-3.19433999202875
30
0
41
1
10
68.9769982812081
20
-4.51969234578729
30
0
41
1
10
70.1614294767312
20
-4.95004084350808
30
0
41
1
10
72.5255324472122
20
-5.77540434067203
30
0
41
1
10
73.7060871176103
20
-6.17177714746887
30
0
41
1
10
76.0692514786311
20
-6.92187949445054
30
0
41
1
10
77.2517311415318
20
-7.27599153901198
30
0
41
1
10
79.0277013865287
20
-7.77407032675436
30
0
41
1
10
79.6202380450754
20
-7.93462749707427
30
0
41
1
10
80.8027073689545
20
-8.24306090653232
30
0
41
1
10
81.3931089744143
20
-8.39102243655697
30
0
41
1
10
83.1624900501408
20
-8.81515372801755
30
0
41
1
10
84.3395359280978
20
-9.07172405579291
30
0
41
1
10
86.6916393983118
20
-9.52847360392516
30
0
41
1
10
87.8673610035758
20
-9.72795874784595
30
0
41
1
10
89.6311699876836
20
-9.98320517396388
30
0
41
1
10
90.219496216929
20
-10.0606333898223
30
0
41
1
10
91.3966761126433
20
-10.200437443392
30
0
41
1
10
91.9854285081761
20
-10.2628637917314
30
0
41
1
10
93.7532498472989
20
-10.4267861226663
30
0
41
1
10
94.9339971855263
20
-10.5048853390305
30
0
41
1
10
96.1183629652978
20
-10.5508743319067
30
0
0
SPLINE
5
1A0
100
AcDbEntity
8
1
62
256
6
ByLayer
370
-1
48
1
60
0
100
AcDbSpline
70
4
71
3
72
83
73
79
40
-0.0312500000000016
40
-0.0312500000000016
40
0
40
0
40
0.0312500000000049
40
0.0312500000000049
40
0.0468750000000077
40
0.0468750000000077
40
0.0625000000000104
40
0.0625000000000104
40
0.0937500000000162
40
0.0937500000000162
40
0.125000000000022
40
0.125000000000022
40
0.156250000000028
40
0.156250000000028
40
0.171875000000031
40
0.171875000000031
40
0.187500000000034
40
0.187500000000034
40
0.218750000000035
40
0.218750000000035
40
0.250000000000036
40
0.250000000000036
40
0.281250000000038
40
0.281250000000038
40
0.312500000000039
40
0.312500000000039
40
0.328125000000038
40
0.328125000000038
40
0.343750000000036
40
0.343750000000036
40
0.375000000000033
40
0.375000000000033
40
0.40625000000003
40
0.40625000000003
40
0.437500000000027
40
0.437500000000027
40
0.468750000000023
40
0.468750000000023
40
0.484375000000022
40
0.484375000000022
40
0.500000000000021
40
0.500000000000021
40
0.531250000000018
40
0.531250000000018
40
0.562500000000015
40
0.562500000000015
40
0.593750000000013
40
0.593750000000013
40
0.62500000000001
40
0.62500000000001
40
0.656250000000007
40
0.656250000000007
40
0.687500000000004
40
0.687500000000004
40
0.718750000000002
40
0.718750000000002
40
0.749999999999999
40
0.749999999999999
40
0.765624999999998
40
0.765624999999998
40
0.781249999999996
40
0.796874999999995
40
0.796874999999995
40
0.812499999999994
40
0.812499999999994
40
0.843749999999996
40
0.843749999999996
40
0.859374999999995
40
0.859374999999995
40
0.874999999999994
40
0.874999999999994
40
0.906249999999995
40
0.906249999999995
40
0.937499999999997
40
0.937499999999997
40
0.968749999999998
40
0.968749999999998
40
1
40
1
40
1.03125000000001
40
1.03125000000001
41
1
10
101.767027003027
20
-2.27494129236436
30
0
41
1
10
101.757858789327
20
-2.0973854951161
30
0
41
1
10
101.761765999794
20
-2.00934694900414
30
0
41
1
10
101.780117056779
20
-1.87839096148548
30
0
41
1
10
101.788330102334
20
-1.83492419665927
30
0
41
1
10
101.809083547747
20
-1.74837977379272
30
0
41
1
10
101.821704937867
20
-1.70512035308266
30
0
41
1
10
101.865432847302
20
-1.57862816769284
30
0
41
1
10
101.902447210417
20
-1.49792771833404
30
0
41
1
10
101.992254631769
20
-1.34388394465563
30
0
41
1
10
102.045719786128
20
-1.26998672689805
30
0
41
1
10
102.164555834852
20
-1.13617127016633
30
0
41
1
10
102.230182838235
20
-1.07550265499458
30
0
41
1
10
102.338156130907
20
-0.994135306213707
30
0
41
1
10
102.375893917989
20
-0.968568867930969
30
0
41
1
10
102.452931345986
20
-0.921858010331363
30
0
41
1
10
102.492407825623
20
-0.900560621787463
30
0
41
1
10
102.613659309583
20
-0.842741480590092
30
0
41
1
10
102.698714667035
20
-0.812113080853266
30
0
41
1
10
102.874598655435
20
-0.768357831814228
30
0
41
1
10
102.963408800468
20
-0.755626091420538
30
0
41
1
10
103.142714290806
20
-0.747930150890397
30
0
41
1
10
103.234181235468
20
-0.753225435984717
30
0
41
1
10
103.411772872119
20
-0.781696028655034
30
0
41
1
10
103.498400124086
20
-0.804648424904627
30
0
41
1
10
103.625056304252
20
-0.852261024367778
30
0
41
1
10
103.666896136777
20
-0.870452402480424
30
0
41
1
10
103.747685874559
20
-0.910542134978328
30
0
41
1
10
103.786825140848
20
-0.93249077930551
30
0
41
1
10
103.900557424587
20
-1.0039146096276
30
0
41
1
10
103.971803478753
20
-1.05920478918711
30
0
41
1
10
104.102808998202
20
-1.18391731860331
30
0
41
1
10
104.161040371356
20
-1.25176745898227
30
0
41
1
10
104.263557329989
20
-1.39792261900516
30
0
41
1
10
104.308149408528
20
-1.47715476527688
30
0
41
1
10
104.379963394181
20
-1.64037777642372
30
0
41
1
10
104.40758777955
20
-1.7245982724894
30
0
41
1
10
104.436782742664
20
-1.85473428522806
30
0
41
1
10
104.444475261167
20
-1.89897187170104
30
0
41
1
10
104.45545397657
20
-1.98711545764971
30
0
41
1
10
104.458787565807
20
-2.03113055840669
30
0
41
1
10
104.462528192866
20
-2.16300584242839
30
0
41
1
10
104.456732703759
20
-2.25069603314907
30
0
41
1
10
104.428247655443
20
-2.42562278023502
30
0
41
1
10
104.405954313529
20
-2.51035128177296
30
0
41
1
10
104.346123276779
20
-2.67418099482859
30
0
41
1
10
104.308163096313
20
-2.75401678269498
30
0
41
1
10
104.217880151409
20
-2.90481917800596
30
0
41
1
10
104.166163195041
20
-2.97508872427619
30
0
41
1
10
104.049550990594
20
-3.10552127236224
30
0
41
1
10
103.983787743352
20
-3.16626262592712
30
0
41
1
10
103.842826299702
20
-3.27278070923876
30
0
41
1
10
103.767678678505
20
-3.31885362920482
30
0
41
1
10
103.60766370324
20
-3.39623762201265
30
0
41
1
10
103.522059623593
20
-3.42753390630614
30
0
41
1
10
103.348846056685
20
-3.47148275846482
30
0
41
1
10
103.260363841048
20
-3.48470491695252
30
0
41
1
10
103.124687605202
20
-3.49081380195094
30
0
41
1
10
103.07909968108
20
-3.49050428065226
30
0
41
1
10
102.989226485081
20
-3.48528726405487
30
0
41
1
10
102.900091432035
20
-3.47550906326859
30
0
41
1
10
102.812404857411
20
-3.45676673335828
30
0
41
1
10
102.725449334492
20
-3.43348711560685
30
0
41
1
10
102.682234911087
20
-3.41951096126337
30
0
41
1
10
102.556621541125
20
-3.37175705733966
30
0
41
1
10
102.477227468365
20
-3.33200415595934
30
0
41
1
10
102.364380420643
20
-3.260867532074
30
0
41
1
10
102.327659517932
20
-3.23508508882301
30
0
41
1
10
102.257662892671
20
-3.180620357436
30
0
41
1
10
102.224254865228
20
-3.15187877512491
30
0
41
1
10
102.12861439737
20
-3.06126641456544
30
0
41
1
10
102.07070810599
20
-2.99474797179079
30
0
41
1
10
101.968072486675
20
-2.85106018077693
30
0
41
1
10
101.924359695901
20
-2.77544045876124
30
0
41
1
10
101.851456589039
20
-2.61684876740597
30
0
41
1
10
101.822117053631
20
-2.53309701860954
30
0
41
1
10
101.779982615307
20
-2.36208877761655
30
0
41
1
10
101.767027003027
20
-2.27494129236436
30
0
41
1
10
101.757858789327
20
-2.0973854951161
30
0
0
SPLINE
5
1A1
100
AcDbEntity
8
1
62
256
6
ByLayer
370
-1
48
1
60
0
100
AcDbSpline
70
4
71
3
72
14
73
10
40
0
40
0
40
0
40
0
40
0.499999999999993
40
0.499999999999993
40
0.624999999999995
40
0.624999999999995
40
0.749999999999996
40
0.749999999999996
40
1
40
1
40
1
40
1
41
1
10
99.8498697273687
20
0.916277584543963
30
0
41
1
10
99.37548726134
20
0.888042795534204
30
0
41
1
10
98.9073915829868
20
0.918574238577747
30
0
41
1
10
98.3300723587518
20
1.02947191240489
30
0
41
1
10
98.2150047513814
20
1.0553434751466
30
0
41
1
10
97.9856864166044
20
1.11468240861822
30
0
41
1
10
97.871498931116
20
1.14816143404121
30
0
41
1
10
97.533978943676
20
1.25903653400729
30
0
41
1
10
97.3144021448543
20
1.34713481144112
30
0
41
1
10
97.1004003584315
20
1.44964491679528
30
0
0
SPLINE
5
1A2
100
AcDbEntity
8
1
62
256
6
ByLayer
370
-1
48
1
60
0
100
AcDbSpline
70
4
71
3
72
8
73
4
40
0
40
0
40
0
40
0
40
1
40
1
40
1
40
1
41
1
10
98.0400402784144
20
2.12213107040361
30
0
41
1
10
97.8297550714868
20
2.0843328832344
30
0
41
1
10
97.5758432643804
20
2.07983711286997
30
0
41
1
10
97.2944201758985
20
2.11711357694804
30
0
0
SPLINE
5
1A3
100
AcDbEntity
8
1
62
256
6
ByLayer
370
-1
48
1
60
0
100
AcDbSpline
70
4
71
3
72
8
73
4
40
0
40
0
40
0
40
0
40
1
40
1
40
1
40
1
41
1
10
26.0157853790299
20
6.89542212119895
30
0
41
1
10
26.1412323116616
20
6.56784708725448
30
0
41
1
10
26.2998576824199
20
6.24693651383933
30
0
41
1
10
26.4908619909064
20
5.93380354463628
30
0
0
SPLINE
5
1A4
100
AcDbEntity
8
1
62
256
6
ByLayer
370
-1
48
1
60
0
100
AcDbSpline
70
4
71
3
72
28
73
24
40
0
40
0
40
0
40
0
40
0.145969418455886
40
0.145969418455886
40
0.291938836911773
40
0.291938836911773
40
0.437908255367659
40
0.437908255367659
40
0.474400609981631
40
0.474400609981631
40
0.510892964595603
40
0.510892964595603
40
0.583877673823546
40
0.583877673823546
40
0.729847092279433
40
0.729847092279433
40
0.87581651073532
40
0.87581651073532
40
0.948801219963264
40
0.948801219963264
40
0.985293574577236
40
0.985293574577236
40
1
40
1
40
1
40
1
41
1
10
38
20
-6.91888133739562
30
0
41
1
10
40.0352298679081
20
-7.54143365730553
30
0
41
1
10
42.0580531144207
20
-8.09817396703767
30
0
41
1
10
46.0943975834734
20
-9.05644043030694
30
0
41
1
10
48.1080325167489
20
-9.45787959681391
30
0
41
1
10
52.1407660540558
20
-10.0882142506
30
0
41
1
10
54.1595994145539
20
-10.3173246176323
30
0
41
1
10
56.6956773031499
20
-10.4871881798119
30
0
41
1
10
57.203523326435
20
-10.515344493467
30
0
41
1
10
58.2207187235072
20
-10.5598488331715
30
0
41
1
10
58.7292848262377
20
-10.5761543062044
30
0
41
1
10
60.2520573894055
20
-10.6071760041278
30
0
41
1
10
61.2646519681612
20
-10.604051949399
30
0
41
1
10
64.2973583419702
20
-10.524297957999
30
0
41
1
10
66.312175811293
20
-10.3771183098178
30
0
41
1
10
70.3423399559883
20
-9.90227847518338
30
0
41
1
10
72.3579024324293
20
-9.57469158733863
30
0
41
1
10
75.3935531330872
20
-8.95848569449828
30
0
41
1
10
76.407476980495
20
-8.73232413457586
30
0
41
1
10
77.9326983422622
20
-8.36332289293483
30
0
41
1
10
78.4416410002796
20
-8.23539269372876
30
0
41
1
10
79.1544074050974
20
-8.04976769583016
30
0
41
1
10
79.3590642758616
20
-7.99572203048001
30
0
41
1
10
79.5636495121585
20
-7.94096385525518
30
0
0
SPLINE
5
1A5
100
AcDbEntity
8
1
62
256
6
ByLayer
370
-1
48
1
60
0
100
AcDbSpline
70
4
71
3
72
22
73
18
40
0
40
0
40
0
40
0
40
0.0520385111396424
40
0.0520385111396424
40
0.241630808911714
40
0.241630808911714
40
0.336426957797749
40
0.336426957797749
40
0.431223106683784
40
0.431223106683784
40
0.620815404455856
40
0.620815404455856
40
0.715611553341892
40
0.715611553341892
40
0.810407702227928
40
0.810407702227928
40
1
40
1
40
1
40
1
41
1
10
95.3520059241486
20
2.63703744759098
30
0
41
1
10
95.3759481673043
20
2.67975726724447
30
0
41
1
10
95.3993774120816
20
2.72456483019488
30
0
41
1
10
95.5056646827845
20
2.94232330201984
30
0
41
1
10
95.5794986831588
20
3.13583857375181
30
0
41
1
10
95.6751985613839
20
3.45837789343176
30
0
41
1
10
95.7045684766387
20
3.57130636116295
30
0
41
1
10
95.7578385995775
20
3.8081384609209
30
0
41
1
10
95.7817412730463
20
3.93232759377437
30
0
41
1
10
95.8431607798916
20
4.31349264183655
30
0
41
1
10
95.8711477762442
20
4.58138316246823
30
0
41
1
10
95.8910046356202
20
5.00286316950528
30
0
41
1
10
95.893899888591
20
5.14704118747861
30
0
41
1
10
95.8913122049899
20
5.44029533507685
30
0
41
1
10
95.885863311828
20
5.58806828937821
30
0
41
1
10
95.8560575490623
20
6.03436910081018
30
0
41
1
10
95.8186835451576
20
6.33594469878156
30
0
41
1
10
95.7574055603649
20
6.6399999999993
30
0
0
SPLINE
5
1A6
100
AcDbEntity
8
1
62
256
6
ByLayer
370
-1
48
1
60
0
100
AcDbSpline
70
4
71
3
72
8
73
4
40
0
40
0
40
0
40
0
40
1
40
1
40
1
40
1
41
1
10
31.8183629653043
20
7.81713817624865
30
0
41
1
10
31.8183629653043
20
8.80666431350269
30
0
41
1
10
31.8183629653043
20
9.79619045075677
30
0
41
1
10
31.8183629653043
20
10.7857165880108
30
0
0
SPLINE
5
1A7
100
AcDbEntity
8
1
62
256
6
ByLayer
370
-1
48
1
60
0
100
AcDbSpline
70
4
71
3
72
30
73
26
40
0
40
0
40
0
40
0
40
0.0312499999999985
40
0.0312499999999985
40
0.062499999999997
40
0.062499999999997
40
0.124999999999994
40
0.124999999999994
40
0.156249999999994
40
0.156249999999994
40
0.187499999999994
40
0.187499999999994
40
0.249999999999995
40
0.249999999999995
40
0.312499999999995
40
0.312499999999995
40
0.374999999999996
40
0.374999999999996
40
0.499999999999997
40
0.499999999999997
40
0.624999999999998
40
0.624999999999998
40
0.749999999999999
40
0.749999999999999
40
1
40
1
40
1
40
1
41
1
10
96.155282479738
20
5.49911953110362
30
0
41
1
10
96.1351162363611
20
5.48659040155079
30
0
41
1
10
96.1160345186923
20
5.47270156697545
30
0
41
1
10
96.0806197913645
20
5.4414764732617
30
0
41
1
10
96.0641664441499
20
5.42390105057197
30
0
41
1
10
96.022430460308
20
5.36758987755772
30
0
41
1
10
96.0041484027237
20
5.32353237416592
30
0
41
1
10
95.9934640615558
20
5.25679932753064
30
0
41
1
10
95.9924875207572
20
5.23427545404545
30
0
41
1
10
95.9946174414671
20
5.19058560217553
30
0
41
1
10
95.9976755514503
20
5.16913993596359
30
0
41
1
10
96.0114927346917
20
5.10574292990324
30
0
41
1
10
96.0265328910999
20
5.06588363697679
30
0
41
1
10
96.0629609126009
20
4.99019844968331
30
0
41
1
10
96.0846730484068
20
4.95394146964887
30
0
41
1
10
96.1319448535413
20
4.88503548728852
30
0
41
1
10
96.1574649897622
20
4.85240691177708
30
0
41
1
10
96.2380408571851
20
4.75839339166748
30
0
41
1
10
96.2970468998289
20
4.70081707458181
30
0
41
1
10
96.42182546696
20
4.59207226231158
30
0
41
1
10
96.4878892077416
20
4.54084779755664
30
0
41
1
10
96.6237333333488
20
4.44430623853623
30
0
41
1
10
96.6936441121579
20
4.39888435842369
30
0
41
1
10
96.9081471657829
20
4.26924442947578
30
0
41
1
10
97.057450559034
20
4.19155857357885
30
0
41
1
10
97.2115901532952
20
4.12015359762853
30
0
0
SPLINE
5
1A8
100
AcDbEntity
8
1
62
256
6
ByLayer
370
-1
48
1
60
0
100
AcDbSpline
70
4
71
2
72
6
73
3
40
0
40
0
40
0
40
1
40
1
40
1
41
1
10
27.3118174246783
20
3.53772723167052
30
0
41
1
10
27.3118174246784
20
2.8080027834805
30
0
41
1
10
27.3118174246784
20
2.07827833529046
30
0
0
SPLINE
5
1A9
100
AcDbEntity
8
1
62
256
6
ByLayer
370
-1
48
1
60
0
100
AcDbSpline
70
4
71
3
72
24
73
20
40
0
40
0
40
0
40
0
40
0.124999999999989
40
0.124999999999989
40
0.249999999999977
40
0.249999999999977
40
0.312499999999985
40
0.312499999999985
40
0.374999999999992
40
0.374999999999992
40
0.437499999999999
40
0.437499999999999
40
0.500000000000007
40
0.500000000000007
40
0.625000000000002
40
0.625000000000002
40
0.749999999999996
40
0.749999999999996
40
1
40
1
40
1
40
1
41
1
10
100.490855774329
20
3.12140334709136
30
0
41
1
10
100.430828845915
20
3.11050809482222
30
0
41
1
10
100.368360497505
20
3.10213800182746
30
0
41
1
10
100.236854553182
20
3.09228518524463
30
0
41
1
10
100.170011415487
20
3.09108193429779
30
0
41
1
10
100.071102763406
20
3.0954138395654
30
0
41
1
10
100.038062196567
20
3.09790628180548
30
0
41
1
10
99.9746196610218
20
3.104660240306
30
0
41
1
10
99.943894503245
20
3.10892513113697
30
0
41
1
10
99.8842301980299
20
3.11903168855548
30
0
41
1
10
99.8552351441526
20
3.12490030361562
30
0
41
1
10
99.8003568815414
20
3.13766330726307
30
0
41
1
10
99.7742442558135
20
3.14459143349635
30
0
41
1
10
99.6992140239486
20
3.16671288507956
30
0
41
1
10
99.6532515988024
20
3.18337629179598
30
0
41
1
10
99.5698180495267
20
3.21833676512145
30
0
41
1
10
99.5322122119292
20
3.23663558734833
30
0
41
1
10
99.4281973325174
20
3.29313687336642
30
0
41
1
10
99.3702456566655
20
3.33309268321156
30
0
41
1
10
99.3201723694737
20
3.37347728912616
30
0
0
SPLINE
5
1AA
100
AcDbEntity
8
1
62
256
6
ByLayer
370
-1
48
1
60
0
100
AcDbSpline
70
4
71
3
72
16
73
12
40
0
40
0
40
0
40
0
40
0.124999999999996
40
0.124999999999996
40
0.249999999999993
40
0.249999999999993
40
0.499999999999995
40
0.499999999999995
40
0.749999999999997
40
0.749999999999997
40
1
40
1
40
1
40
1
41
1
10
8.53867513459483
20
23.8391299750503
30
0
41
1
10
8.50692224136543
20
23.8391299750503
30
0
41
1
10
8.47600932946901
20
23.8371392949586
30
0
41
1
10
8.41759599948895
20
23.8299833264009
30
0
41
1
10
8.39103491659969
20
23.824989671385
30
0
41
1
10
8.31704385770792
20
23.8070141183761
30
0
41
1
10
8.27807345100132
20
23.7919105160783
30
0
41
1
10
8.2117396173519
20
23.7591079584198
30
0
41
1
10
8.18512193927677
20
23.7416171457992
30
0
41
1
10
8.13975567725328
20
23.7051129235882
30
0
41
1
10
8.1211137629262
20
23.6860331168061
30
0
41
1
10
8.10566243270245
20
23.6665017920809
30
0
0
SPLINE
5
1AB
100
AcDbEntity
8
1
62
256
6
ByLayer
370
-1
48
1
60
0
100
AcDbSpline
70
4
71
3
72
16
73
12
40
0
40
0
40
0
40
0
40
0.249999999999997
40
0.249999999999997
40
0.499999999999995
40
0.499999999999995
40
0.749999999999992
40
0.749999999999992
40
0.874999999999996
40
0.874999999999996
40
1
40
1
40
1
40
1
41
1
10
8.10566243270259
20
8.05584836782771
30
0
41
1
10
8.12110769698501
20
7.9984916943491
30
0
41
1
10
8.1395962827354
20
7.94218253951252
30
0
41
1
10
8.18485781079312
20
7.83248598676801
30
0
41
1
10
8.21171210490061
20
7.77870179643023
30
0
41
1
10
8.27812666032528
20
7.67767014498887
30
0
41
1
10
8.31777781748545
20
7.63015704912689
30
0
41
1
10
8.39058907041826
20
7.57464889660886
30
0
41
1
10
8.41770072232734
20
7.55854989603577
30
0
41
1
10
8.47563983861082
20
7.53610198950835
30
0
41
1
10
8.50697323176118
20
7.5296667942647
30
0
41
1
10
8.53867513459474
20
7.52966679426467
30
0
0
SPLINE
5
1AC
100
AcDbEntity
8
1
62
256
6
ByLayer
370
-1
48
1
60
0
100
AcDbSpline
70
4
71
3
72
8
73
4
40
0
40
0
40
0
40
0
40
1
40
1
40
1
40
1
41
1
10
96.1183629652539
20
-10.5508743319057
30
0
41
1
10
96.5308498027211
20
-10.5599828942607
30
0
41
1
10
96.9227961964835
20
-10.5729083447548
30
0
41
1
10
97.2948527820505
20
-10.583596983519
30
0
0
SPLINE
5
1AD
100
AcDbEntity
8
1
62
256
6
ByLayer
370
-1
48
1
60
0
100
AcDbSpline
70
4
71
3
72
22
73
18
40
0
40
0
40
0
40
0
40
0.250000000000005
40
0.250000000000005
40
0.375000000000006
40
0.375000000000006
40
0.437500000000005
40
0.437500000000005
40
0.500000000000004
40
0.500000000000004
40
0.750000000000004
40
0.750000000000004
40
0.812500000000003
40
0.812500000000003
40
0.875000000000002
40
0.875000000000002
40
1
40
1
40
1
40
1
41
1
10
38
20
7.32685744007392
30
0
41
1
10
37.4651824132714
20
7.52972931683826
30
0
41
1
10
36.927086331435
20
7.74562826385045
30
0
41
1
10
36.1212585111053
20
8.10434340088904
30
0
41
1
10
35.85289369245
20
8.22978157093908
30
0
41
1
10
35.4517362212402
20
8.42917874890941
30
0
41
1
10
35.3182504760666
20
8.49752157987467
30
0
41
1
10
35.0519392979365
20
8.6384186674448
30
0
41
1
10
34.9189122636828
20
8.71109890269443
30
0
41
1
10
34.2626358654146
20
9.08236916580631
30
0
41
1
10
33.7612436441715
20
9.40725462688727
30
0
41
1
10
33.1703514254571
20
9.85909605370512
30
0
41
1
10
33.0519541584977
20
9.94919096987272
30
0
41
1
10
32.8120111407187
20
10.1253397866913
30
0
41
1
10
32.6908263936351
20
10.2118529668321
30
0
41
1
10
32.3235157627462
20
10.4664902106058
30
0
41
1
10
32.0736417903649
20
10.6297240206191
30
0
41
1
10
31.8183629653053
20
10.785716588013
30
0
0
SPLINE
5
1AE
100
AcDbEntity
8
1
62
256
6
ByLayer
370
-1
48
1
60
0
100
AcDbSpline
70
4
71
3
72
14
73
10
40
0
40
0
40
0
40
0
40
0.25
40
0.25
40
0.5
40
0.5
40
0.75
40
0.75
40
1
40
1
40
1
40
1
41
1
10
99.005655956161
20
10.5995708553632
30
0
41
1
10
99.0098399269846
20
10.5991419306572
30
0
41
1
10
99.019573376592
20
10.5984051324392
30
0
41
1
10
99.049732975956
20
10.5964262308522
30
0
41
1
10
99.0704584590132
20
10.5951696635975
30
0
41
1
10
99.120751422743
20
10.5924390198381
30
0
41
1
10
99.1507555611844
20
10.5909404002684
30
0
41
1
10
99.2189975891421
20
10.5879763419658
30
0
41
1
10
99.2566099779343
20
10.5865361737881
30
0
41
1
10
99.2977613850839
20
10.5852487046503
30
0
0
SPLINE
5
1AF
100
AcDbEntity
8
1
62
256
6
ByLayer
370
-1
48
1
60
0
100
AcDbSpline
70
4
71
3
72
30
73
26
40
0
40
0
40
0
40
0
40
0.125000000000001
40
0.125000000000001
40
0.250000000000002
40
0.250000000000002
40
0.312500000000003
40
0.312500000000003
40
0.375000000000004
40
0.375000000000004
40
0.500000000000004
40
0.500000000000004
40
0.625000000000005
40
0.625000000000005
40
0.687500000000005
40
0.687500000000005
40
0.750000000000004
40
0.750000000000004
40
0.875000000000004
40
0.875000000000004
40
0.906250000000003
40
0.906250000000003
40
0.937500000000002
40
0.937500000000002
40
1
40
1
40
1
40
1
41
1
10
27.3118174246784
20
2.07827833529044
30
0
41
1
10
27.5490239112626
20
1.67225022444211
30
0
41
1
10
27.7918971884034
20
1.27269516225508
30
0
41
1
10
28.2901453739088
20
0.48717586887895
30
0
41
1
10
28.5455135273949
20
0.10120684360686
30
0
41
1
10
28.9395069930285
20
-0.466445690425246
30
0
41
1
10
29.0726694594943
20
-0.653772793304768
30
0
41
1
10
29.3430319755781
20
-1.02436229116714
30
0
41
1
10
29.4806535463503
20
-1.20817012461137
30
0
41
1
10
29.8973200672862
20
-1.74911979199493
30
0
41
1
10
30.1773844175708
20
-2.09237792359539
30
0
41
1
10
30.7443856992241
20
-2.74300072003544
30
0
41
1
10
31.0313092111013
20
-3.05038202618246
30
0
41
1
10
31.4690510968757
20
-3.48209259986876
30
0
41
1
10
31.6161974034108
20
-3.62108468079359
30
0
41
1
10
31.9134292247031
20
-3.88856947403883
30
0
41
1
10
32.0635519615316
20
-4.01702212536725
30
0
41
1
10
32.5118838081307
20
-4.37978470114121
30
0
41
1
10
32.8103917902506
20
-4.59380794859607
30
0
41
1
10
33.1848886976634
20
-4.82423937428953
30
0
41
1
10
33.2598612472594
20
-4.86786602823838
30
0
41
1
10
33.4099653115463
20
-4.95675634712228
30
0
41
1
10
33.4850899436288
20
-5.00234042607846
30
0
41
1
10
33.7106206532203
20
-5.14207082815821
30
0
41
1
10
33.8611812232398
20
-5.23918221292709
30
0
41
1
10
34.0118174246785
20
-5.33926295246059
30
0
0
SPLINE
5
1B0
100
AcDbEntity
8
1
62
256
6
ByLayer
370
-1
48
1
60
0
100
AcDbSpline
70
4
71
3
72
18
73
14
40
0
40
0
40
0
40
0
40
0.25
40
0.25
40
0.375000000000002
40
0.375000000000002
40
0.500000000000004
40
0.500000000000004
40
0.750000000000004
40
0.750000000000004
40
0.875000000000002
40
0.875000000000002
40
1
40
1
40
1
40
1
41
1
10
34.0118174246785
20
-5.33926295246053
30
0
41
1
10
34.1923137540178
20
-5.53448606162422
30
0
41
1
10
34.3951697004547
20
-5.69842364524399
30
0
41
1
10
34.7317697691355
20
-5.91247727529282
30
0
41
1
10
34.8493835677644
20
-5.97844803876174
30
0
41
1
10
35.0955656514553
20
-6.10147486515734
30
0
41
1
10
35.2247195810072
20
-6.15875171567686
30
0
41
1
10
35.6246814367358
20
-6.31781181999483
30
0
41
1
10
35.9060570836229
20
-6.40656358366192
30
0
41
1
10
36.3499721990028
20
-6.52381829329923
30
0
41
1
10
36.5016059370053
20
-6.56020702228295
30
0
41
1
10
36.8124015595469
20
-6.6288010210794
30
0
41
1
10
36.971911741827
20
-6.66106054998019
30
0
41
1
10
37.1336933260269
20
-6.69142971709022
30
0
0
SPLINE
5
1B1
100
AcDbEntity
8
1
62
256
6
ByLayer
370
-1
48
1
60
0
100
AcDbSpline
70
4
71
3
72
8
73
4
40
0
40
0
40
0
40
0
40
1
40
1
40
1
40
1
41
1
10
27.3118174246784
20
3.53772723167037
30
0
41
1
10
27.5650801676572
20
3.15907797889335
30
0
41
1
10
27.8295329672862
20
2.79083427677952
30
0
41
1
10
28.1033236082958
20
2.43117276825885
30
0
0
SPLINE
5
1B2
100
AcDbEntity
8
1
62
256
6
ByLayer
370
-1
48
1
60
0
100
AcDbSpline
70
4
71
3
72
22
73
18
40
0
40
0
40
0
40
0
40
0.124999999999999
40
0.124999999999999
40
0.249999999999998
40
0.249999999999998
40
0.374999999999998
40
0.374999999999998
40
0.499999999999999
40
0.499999999999999
40
0.624999999999999
40
0.624999999999999
40
0.749999999999999
40
0.749999999999999
40
0.875
40
0.875
40
1
40
1
40
1
40
1
41
1
10
26.0157853790299
20
6.89542212119895
30
0
41
1
10
25.9652267912326
20
7.02744393126963
30
0
41
1
10
25.9212417872215
20
7.16172693382242
30
0
41
1
10
25.8450187208186
20
7.43160906900289
30
0
41
1
10
25.8127990991311
20
7.56723966938111
30
0
41
1
10
25.7599231847915
20
7.83769864209353
30
0
41
1
10
25.7392701233563
20
7.97253087203637
30
0
41
1
10
25.7102021585523
20
8.23975543688184
30
0
41
1
10
25.7018616937847
20
8.37250273293006
30
0
41
1
10
25.6987002531886
20
8.62857398017695
30
0
41
1
10
25.703771721953
20
8.75259748578901
30
0
41
1
10
25.7277192918874
20
8.99319003837502
30
0
41
1
10
25.7466030330596
20
9.10976217599506
30
0
41
1
10
25.798789679711
20
9.33757393171632
30
0
41
1
10
25.8321653175572
20
9.44899324682521
30
0
41
1
10
25.9135516084803
20
9.66926355613106
30
0
41
1
10
25.9612695696368
20
9.77740186814904
30
0
41
1
10
26.0157853790297
20
9.88620122095759
30
0
0
SPLINE
5
1B3
100
AcDbEntity
8
1
62
256
6
ByLayer
370
-1
48
1
60
0
100
AcDbSpline
70
4
71
3
72
8
73
4
40
0
40
0
40
0
40
0
40
1
40
1
40
1
40
1
41
1
10
26.5
20
5.82050326892849
30
0
41
1
10
26.4968491994509
20
5.85834413363267
30
0
41
1
10
26.4938047474895
20
5.89611095363554
30
0
41
1
10
26.4908619909064
20
5.93380354463628
30
0
0
SPLINE
5
1B4
100
AcDbEntity
8
1
62
256
6
ByLayer
370
-1
48
1
60
0
100
AcDbSpline
70
4
71
3
72
28
73
24
40
0
40
0
40
0
40
0
40
0.125000000000001
40
0.125000000000001
40
0.250000000000001
40
0.250000000000001
40
0.312500000000001
40
0.312500000000001
40
0.375000000000001
40
0.375000000000001
40
0.5
40
0.5
40
0.562500000000001
40
0.562500000000001
40
0.625000000000001
40
0.625000000000001
40
0.750000000000001
40
0.750000000000001
40
0.812500000000001
40
0.812500000000001
40
0.875
40
0.875
40
1
40
1
40
1
40
1
41
1
10
31.8183629653043
20
10.7857165880108
30
0
41
1
10
31.5885942958203
20
10.917730474457
30
0
41
1
10
31.3546826194547
20
11.0347098384182
30
0
41
1
10
30.878485327392
20
11.2377918596165
30
0
41
1
10
30.6362034976671
20
11.3239127537476
30
0
41
1
10
30.2660761780952
20
11.4279041256003
30
0
41
1
10
30.1410872171969
20
11.4584252753241
30
0
41
1
10
29.8930494868625
20
11.5096707691837
30
0
41
1
10
29.769627174911
20
11.5305358218937
30
0
41
1
10
29.401218116779
20
11.578861705342
30
0
41
1
10
29.1580748844225
20
11.5921357046961
30
0
41
1
10
28.7975514321843
20
11.5822683244657
30
0
41
1
10
28.6780787729796
20
11.5739968253118
30
0
41
1
10
28.4406701101791
20
11.5469827947859
30
0
41
1
10
28.3240418199672
20
11.5283576611857
30
0
41
1
10
27.9832913821597
20
11.4579431051498
30
0
41
1
10
27.766975297258
20
11.3915605506794
30
0
41
1
10
27.4591674155077
20
11.2631621383181
30
0
41
1
10
27.3593545625443
20
11.2155374190108
30
0
41
1
10
27.1655342438297
20
11.1104199920389
30
0
41
1
10
27.0721367580536
20
11.0532087272234
30
0
41
1
10
26.8055058500117
20
10.8699397176575
30
0
41
1
10
26.6444004541219
20
10.7316120804815
30
0
41
1
10
26.5
20
10.5775283093405
30
0
0
SPLINE
5
1B5
100
AcDbEntity
8
1
62
256
6
ByLayer
370
-1
48
1
60
0
100
AcDbSpline
70
4
71
3
72
16
73
12
40
0
40
0
40
0
40
0
40
0.25
40
0.25
40
0.5
40
0.5
40
0.625
40
0.625
40
0.75
40
0.75
40
1
40
1
40
1
40
1
41
1
10
34.0118174246786
20
-3.28212465959845
30
0
41
1
10
34.1704699079356
20
-3.47164239475782
30
0
41
1
10
34.3452723497548
20
-3.65707614194923
30
0
41
1
10
34.7236201181213
20
-4.02536564757361
30
0
41
1
10
34.9271643022697
20
-4.20821468330536
30
0
41
1
10
35.2529738919094
20
-4.48244762197996
30
0
41
1
10
35.3652845846376
20
-4.57402851841741
30
0
41
1
10
35.5934414093261
20
-4.75457386621778
30
0
41
1
10
35.7096307144464
20
-4.84383958272838
30
0
41
1
10
36.0643529955478
20
-5.10855782676791
30
0
41
1
10
36.3089715215999
20
-5.28101168944582
30
0
41
1
10
36.5621055953395
20
-5.44825748558347
30
0
0
SPLINE
5
1B6
100
AcDbEntity
8
1
62
256
6
ByLayer
370
-1
48
1
60
0
100
AcDbSpline
70
4
71
3
72
8
73
4
40
0
40
0
40
0
40
0
40
1
40
1
40
1
40
1
41
1
10
98.377108019026
20
3.60475378093818
30
0
41
1
10
98.684529152364
20
3.50263813335209
30
0
41
1
10
98.9988341657499
20
3.42536957035364
30
0
41
1
10
99.3201723694737
20
3.37347728912613
30
0
0
SPLINE
5
1B7
100
AcDbEntity
8
1
62
256
6
ByLayer
370
-1
48
1
60
0
100
AcDbSpline
70
4
71
3
72
14
73
10
40
0
40
0
40
0
40
0
40
0.25
40
0.25
40
0.5
40
0.5
40
0.75
40
0.75
40
1
40
1
40
1
40
1
41
1
10
27.3118174246784
20
2.07827833529032
30
0
41
1
10
27.1823812297797
20
2.38783108506934
30
0
41
1
10
27.0754009703017
20
2.69946725880379
30
0
41
1
10
26.8932995560076
20
3.32451154579164
30
0
41
1
10
26.8183138885215
20
3.63793935670273
30
0
41
1
10
26.6923504960935
20
4.26488864728086
30
0
41
1
10
26.6414256078948
20
4.57841796227959
30
0
41
1
10
26.5578515436158
20
5.20415804811412
30
0
41
1
10
26.5254882457523
20
5.51439145892155
30
0
41
1
10
26.5
20
5.82050326892858
30
0
0
SPLINE
5
1B8
100
AcDbEntity
8
1
62
256
6
ByLayer
370
-1
48
1
60
0
100
AcDbSpline
70
4
71
3
72
47
73
43
40
0
40
0
40
0
40
0
40
0.0688384195063529
40
0.103257629259529
40
0.137676839012706
40
0.154886443889294
40
0.172096048765882
40
0.206515258519059
40
0.223724863395647
40
0.240934468272235
40
0.275353678025412
40
0.292563282902
40
0.309772887778588
40
0.344192097531765
40
0.361401702408353
40
0.378611307284941
40
0.413030517038117
40
0.430240121914706
40
0.447449726791294
40
0.48186893654447
40
0.499078541421059
40
0.516288146297647
40
0.550707356050823
40
0.567916960927411
40
0.585126565804
40
0.619545775557176
40
0.636755380433764
40
0.653964985310353
40
0.688384195063529
40
0.705593799940118
40
0.722803404816706
40
0.757222614569882
40
0.774432219446471
40
0.791641824323059
40
0.826061034076235
40
0.843270638952823
40
0.860480243829412
40
0.894899453582588
40
0.929318663335765
40
0.963737873088941
40
0.998157082842117
40
1
40
1
40
1
40
1
41
1
10
31.8183629653062
20
7.81713817625354
30
0
41
1
10
31.735921883545
20
7.73079890551639
30
0
41
1
10
31.6077972968008
20
7.59329501586615
30
0
41
1
10
31.4289376963831
20
7.39422199721733
30
0
41
1
10
31.3140702899291
20
7.263404960082
30
0
41
1
10
31.2204868818572
20
7.15500927457677
30
0
41
1
10
31.1258453882844
20
7.04417420136497
30
0
41
1
10
31.0297191211178
20
6.92976302083042
30
0
41
1
10
30.9323127896722
20
6.81194168144728
30
0
41
1
10
30.8341352632808
20
6.69192601461623
30
0
41
1
10
30.734924216331
20
6.56873752428996
30
0
41
1
10
30.6349261925435
20
6.44261354582176
30
0
41
1
10
30.5344969881291
20
6.31463421077055
30
0
41
1
10
30.4335612186715
20
6.18402429411228
30
0
41
1
10
30.3323992959651
20
6.05108870238178
30
0
41
1
10
30.2311873445486
20
5.91672339115303
30
0
41
1
10
30.1300514602509
20
5.78039459650171
30
0
41
1
10
30.0292938634397
20
5.64246451007753
30
0
41
1
10
29.9288915388385
20
5.50360155311768
30
0
41
1
10
29.8291767433811
20
5.36354127632376
30
0
41
1
10
29.7304587187251
20
5.22268765163452
30
0
41
1
10
29.632505149742
20
5.08144696262207
30
0
41
1
10
29.535848176976
20
4.93983842853538
30
0
41
1
10
29.4407876258429
20
4.79828755219549
30
0
41
1
10
29.3468827476291
20
4.65691663982884
30
0
41
1
10
29.2548484665402
20
4.51602796163516
30
0
41
1
10
29.1649589580683
20
4.37604609404062
30
0
41
1
10
29.0765774596672
20
4.23680252416608
30
0
41
1
10
28.9905752188622
20
4.09886703685254
30
0
41
1
10
28.9071867206323
20
3.96264090406177
30
0
41
1
10
28.8256020588192
20
3.82767364854317
30
0
41
1
10
28.7468151636812
20
3.6947736703182
30
0
41
1
10
28.6710100593187
20
3.56429889215778
30
0
41
1
10
28.5972353580255
20
3.43554071019057
30
0
41
1
10
28.5265700751653
20
3.3095071167385
30
0
41
1
10
28.4591418383957
20
3.18649750025216
30
0
41
1
10
28.3938948508255
20
3.06558085064364
30
0
41
1
10
28.316469493247
20
2.91850369321779
30
0
41
1
10
28.2303117780017
20
2.74898284504656
30
0
41
1
10
28.1509363086118
20
2.58675191424911
30
0
41
1
10
28.1012654150687
20
2.48091035211488
30
0
41
1
10
28.0770299825137
20
2.42805003951702
30
0
41
1
10
28.0758015077021
20
2.42536729252021
30
0
0
SPLINE
5
1B9
100
AcDbEntity
8
1
62
256
6
ByLayer
370
-1
48
1
60
0
100
AcDbSpline
70
4
71
3
72
10
73
6
40
0
40
0
40
0
40
0
40
0.5
40
0.5
40
1
40
1
40
1
40
1
41
1
10
36.5621055975954
20
-5.44825750257215
30
0
41
1
10
36.6537133138921
20
-5.49611019157919
30
0
41
1
10
36.7478138229429
20
-5.54107417258166
30
0
41
1
10
36.9386682961616
20
-5.62389222094157
30
0
41
1
10
37.0354793211467
20
-5.66180658766552
30
0
41
1
10
37.1336933331242
20
-5.69621504692307
30
0
0
SPLINE
5
1BA
100
AcDbEntity
8
1
62
256
6
ByLayer
370
-1
48
1
60
0
100
AcDbSpline
70
4
71
3
72
18
73
14
40
0
40
0
40
0
40
0
40
0.0145950949010577
40
0.0145950949010577
40
0.507297547450528
40
0.507297547450528
40
0.630473160587896
40
0.630473160587896
40
0.753648773725264
40
0.753648773725264
40
0.876824386862632
40
0.876824386862632
40
1
40
1
40
1
40
1
41
1
10
80.3580719612507
20
8.53152568003381
30
0
41
1
10
80.4255532083875
20
8.54768988540712
30
0
41
1
10
80.4930224192155
20
8.56376733512013
30
0
41
1
10
82.8375710389867
20
9.11952259661899
30
0
41
1
10
85.1041729098187
20
9.5605665427548
30
0
41
1
10
87.9392292045383
20
9.97225423201391
30
0
41
1
10
88.5062800378325
20
10.0476959426696
30
0
41
1
10
89.6405483642814
20
10.1846366994619
30
0
41
1
10
90.2080453502852
20
10.2459366548517
30
0
41
1
10
91.3434217134592
20
10.3543694472388
30
0
41
1
10
91.911256408388
20
10.4014865019368
30
0
41
1
10
93.0485267032412
20
10.4807843329976
30
0
41
1
10
93.6179894967452
20
10.5130047565612
30
0
41
1
10
94.1879525343377
20
10.537886826913
30
0
0
SPLINE
5
1BB
100
AcDbEntity
8
1
62
256
6
ByLayer
370
-1
48
1
60
0
100
AcDbSpline
70
4
71
3
72
16
73
12
40
0
40
0
40
0
40
0
40
0.249999999999999
40
0.249999999999999
40
0.499999999999999
40
0.499999999999999
40
0.749999999999998
40
0.749999999999998
40
0.874999999999999
40
0.874999999999999
40
1
40
1
40
1
40
1
41
1
10
8.10566243270256
20
-23.6665017920809
30
0
41
1
10
8.12110769698498
20
-23.6860254491252
30
0
41
1
10
8.13959628273537
20
-23.7049589195931
30
0
41
1
10
8.18485781079309
20
-23.7414301198899
30
0
41
1
10
8.21171210490058
20
-23.7590955179201
30
0
41
1
10
8.27812666032526
20
-23.7919356634172
30
0
41
1
10
8.31777781748542
20
-23.8071882416308
30
0
41
1
10
8.39058907041823
20
-23.8248834464053
30
0
41
1
10
8.41770072232731
20
-23.8299908115613
30
0
41
1
10
8.47563983861079
20
-23.8370993498304
30
0
41
1
10
8.50697323176115
20
-23.8391299750505
30
0
41
1
10
8.53867513459471
20
-23.8391299750505
30
0
0
SPLINE
5
1BC
100
AcDbEntity
8
1
62
256
6
ByLayer
370
-1
48
1
60
0
100
AcDbSpline
70
4
71
3
72
34
73
30
40
0
40
0
40
0
40
0
40
0.0727509788718831
40
0.0727509788718831
40
0.150021730632559
40
0.150021730632559
40
0.227292482393235
40
0.227292482393235
40
0.304563234153912
40
0.304563234153912
40
0.381833985914588
40
0.381833985914588
40
0.53637548943594
40
0.53637548943594
40
0.613646241196617
40
0.613646241196617
40
0.652281617076955
40
0.652281617076955
40
0.690916992957293
40
0.690916992957293
40
0.729552368837632
40
0.729552368837632
40
0.76818774471797
40
0.76818774471797
40
0.845458496478647
40
0.845458496478647
40
0.922729248239323
40
0.922729248239323
40
1
40
1
40
1
40
1
41
1
10
78.4661670074759
20
-7.60373225530373
30
0
41
1
10
77.4690837596979
20
-7.82116257284699
30
0
41
1
10
76.4719632097517
20
-8.02214175303826
30
0
41
1
10
74.4141514986071
20
-8.4010240416799
30
0
41
1
10
73.3527534233702
20
-8.57706875723454
30
0
41
1
10
71.2329769546152
20
-8.8864990409632
30
0
41
1
10
70.1740590912569
20
-9.01975095198924
30
0
41
1
10
68.0562472343138
20
-9.24098830255679
30
0
41
1
10
66.9972519898822
20
-9.32985118655705
30
0
41
1
10
64.8773619090442
20
-9.46029750526392
30
0
41
1
10
63.8162211776382
20
-9.50146031031389
30
0
41
1
10
60.6374557606632
20
-9.55496850531802
30
0
41
1
10
58.5212375574959
20
-9.49686584514149
30
0
41
1
10
55.3406104695208
20
-9.27258386783751
30
0
41
1
10
54.2798535121698
20
-9.17513946164794
30
0
41
1
10
52.6906733594812
20
-8.99684370399345
30
0
41
1
10
52.1610861075513
20
-8.93201813134345
30
0
41
1
10
51.1021052699762
20
-8.7904629133667
30
0
41
1
10
50.5727091953921
20
-8.71364640391033
30
0
41
1
10
49.5136423531878
20
-8.55046710977587
30
0
41
1
10
48.9839608900889
20
-8.46436370787683
30
0
41
1
10
47.9242968964939
20
-8.28145652858936
30
0
41
1
10
47.3943356995984
20
-8.18425484314346
30
0
41
1
10
45.8035430415721
20
-7.87797343570534
30
0
41
1
10
44.7434357686782
20
-7.65430304725823
30
0
41
1
10
42.62523548052
20
-7.17022698334853
30
0
41
1
10
41.5666474870575
20
-6.9099705312658
30
0
41
1
10
39.4484525821103
20
-6.35794607707535
30
0
41
1
10
38.3888570418076
20
-6.06616328155707
30
0
41
1
10
37.3279176347342
20
-5.76007233428038
30
0
0
SPLINE
5
1BD
100
AcDbEntity
8
1
62
256
6
ByLayer
370
-1
48
1
60
0
100
AcDbSpline
70
4
71
4
72
10
73
5
40
0
40
0
40
0
40
0
40
0
40
1
40
1
40
1
40
1
40
1
41
0.978787829043613
10
93.8397208683473
20
3.32773824148959
30
0
41
0.980249952727899
10
94.0156198723058
20
4.0442878627514
30
0
41
0.987740862920877
10
94.137751476367
20
4.90787856087987
30
0
41
1
10
94.1879525343042
20
5.82155165626904
30
0
41
1
10
94.1879525343042
20
6.63999999999984
30
0
0
SPLINE
5
1BE
100
AcDbEntity
8
1
62
256
6
ByLayer
370
-1
48
1
60
0
100
AcDbSpline
70
4
71
3
72
8
73
4
40
0
40
0
40
0
40
0
40
1
40
1
40
1
40
1
41
1
10
34.0118174246785
20
-3.28212465959842
30
0
41
1
10
34.0118174246785
20
-3.96783742388581
30
0
41
1
10
34.0118174246785
20
-4.6535501881732
30
0
41
1
10
34.0118174246785
20
-5.33926295246059
30
0
0
SPLINE
5
1BF
100
AcDbEntity
8
1
62
256
6
ByLayer
370
-1
48
1
60
0
100
AcDbSpline
70
4
71
3
72
8
73
4
40
0
40
0
40
0
40
0
40
1
40
1
40
1
40
1
41
1
10
37.3279176347352
20
-5.76007233428066
30
0
41
1
10
37.2629635191373
20
-5.7399705104377
30
0
41
1
10
37.1982248825945
20
-5.71868186765929
30
0
41
1
10
37.1336933260098
20
-5.69621504443069
30
0
0
SPLINE
5
1C0
100
AcDbEntity
8
1
62
256
6
ByLayer
370
-1
48
1
60
0
100
AcDbSpline
70
4
71
3
72
27
73
23
40
0
40
0
40
0
40
0
40
0.250000000000007
40
0.250000000000007
40
0.312500000000008
40
0.312500000000008
40
0.375000000000009
40
0.375000000000009
40
0.500000000000008
40
0.500000000000008
40
0.562500000000007
40
0.562500000000007
40
0.625000000000007
40
0.625000000000007
40
0.750000000000006
40
0.750000000000006
40
0.812500000000004
40
0.812500000000004
40
0.875000000000003
40
0.937500000000001
40
0.937500000000001
40
1
40
1
40
1
40
1
41
1
10
98.377108019025
20
3.60475378093832
30
0
41
1
10
98.6229119523094
20
3.44402571486015
30
0
41
1
10
98.8395367412276
20
3.30518647277807
30
0
41
1
10
99.0543763900468
20
3.14295942203506
30
0
41
1
10
99.0944488491824
20
3.1110844442573
30
0
41
1
10
99.1669325241318
20
3.04914687621832
30
0
41
1
10
99.1995397428665
20
3.01894125036006
30
0
41
1
10
99.2858503620329
20
2.93000891222573
30
0
41
1
10
99.3281044785134
20
2.87292950767053
30
0
41
1
10
99.3652080069504
20
2.78881345762505
30
0
41
1
10
99.3730900437494
20
2.7611080752267
30
0
41
1
10
99.3794878825903
20
2.70721766798556
30
0
41
1
10
99.3780789138171
20
2.680884496777
30
0
41
1
10
99.360127323236
20
2.60358504480345
30
0
41
1
10
99.3298973582395
20
2.55425144693572
30
0
41
1
10
99.2568851669396
20
2.48421620874191
30
0
41
1
10
99.2279811706552
20
2.46165544524092
30
0
41
1
10
99.1624362134798
20
2.41900672988942
30
0
41
1
10
99.0889367050191
20
2.3786092995411
30
0
41
1
10
99.0005453326485
20
2.34317582688743
30
0
41
1
10
98.905116453727
20
2.31054557025922
30
0
41
1
10
98.8537315195585
20
2.29559648761804
30
0
41
1
10
98.7993455950362
20
2.28233337038873
30
0
0
SPLINE
5
1C1
100
AcDbEntity
8
1
62
256
6
ByLayer
370
-1
48
1
60
0
100
AcDbSpline
70
4
71
3
72
14
73
10
40
0
40
0
40
0
40
0
40
0.412371044525994
40
0.412371044525994
40
0.618556566788992
40
0.618556566788992
40
0.82474208905199
40
0.82474208905199
40
1
40
1
40
1
40
1
41
1
10
102.184069640871
20
6.96191902084675
30
0
41
1
10
102.201683437494
20
6.80359958278584
30
0
41
1
10
102.245643612081
20
6.6460736048025
30
0
41
1
10
102.358437768939
20
6.41345838138352
30
0
41
1
10
102.403805487024
20
6.33728313370068
30
0
41
1
10
102.509293347734
20
6.19226612859958
30
0
41
1
10
102.569633908995
20
6.12285876059761
30
0
41
1
10
102.69775661512
20
6.00181507273459
30
0
41
1
10
102.761634018873
20
5.95047288388176
30
0
41
1
10
102.83062757142
20
5.90413431081487
30
0
0
SPLINE
5
1C2
100
AcDbEntity
8
1
62
256
6
ByLayer
370
-1
48
1
60
0
100
AcDbSpline
70
4
71
3
72
12
73
8
40
0
40
0
40
0
40
0
40
0.23664116228577
40
0.23664116228577
40
0.618320581142886
40
0.618320581142886
40
1
40
1
40
1
40
1
41
1
10
102.250433255884
20
7.55572123715916
30
0
41
1
10
102.234810509929
20
7.51180874135889
30
0
41
1
10
102.221687383928
20
7.46717736551571
30
0
41
1
10
102.193651475719
20
7.34867324879153
30
0
41
1
10
102.182580007308
20
7.27364393308508
30
0
41
1
10
102.173345080092
20
7.11961766754635
30
0
41
1
10
102.17526274256
20
7.04107873987724
30
0
41
1
10
102.184069640871
20
6.96191902084675
30
0
0
SPLINE
5
1C3
100
AcDbEntity
8
1
62
256
6
ByLayer
370
-1
48
1
60
0
100
AcDbSpline
70
4
71
3
72
18
73
14
40
0
40
0
40
0
40
0
40
0.14568765175117
40
0.29137530350234
40
0.437062955253509
40
0.509906781129094
40
0.582750607004679
40
0.655594432880264
40
0.728438258755849
40
0.801282084631434
40
0.874125910507019
40
0.946969736382604
40
1
40
1
40
1
40
1
41
1
10
94.1879525343042
20
6.63999999999984
30
0
41
1
10
93.9046732364606
20
6.62761976948153
30
0
41
1
10
93.3380555600044
20
6.6004812271911
30
0
41
1
10
92.4878984492338
20
6.55271371726883
30
0
41
1
10
91.7794115664152
20
6.50716173635658
30
0
41
1
10
91.2127991880509
20
6.46735599853426
30
0
41
1
10
90.7882391441574
20
6.43585811284996
30
0
41
1
10
90.3636419127671
20
6.40272474307196
30
0
41
1
10
89.9382440776104
20
6.36792086811136
30
0
41
1
10
89.5128241568816
20
6.3314766463331
30
0
41
1
10
89.0876940583649
20
6.2934063029642
30
0
41
1
10
88.7013798870739
20
6.25732558831362
30
0
41
1
10
88.4567139406918
20
6.23366899841446
30
0
41
1
10
88.3536252818735
20
6.22355908786332
30
0
0
SPLINE
5
1C4
100
AcDbEntity
8
1
62
256
6
ByLayer
370
-1
48
1
60
0
100
AcDbSpline
70
4
71
3
72
16
73
12
40
0
40
0
40
0
40
0
40
0.249999999999999
40
0.249999999999999
40
0.499999999999999
40
0.499999999999999
40
0.749999999999998
40
0.749999999999998
40
0.874999999999999
40
0.874999999999999
40
1
40
1
40
1
40
1
41
1
10
11.8943375672974
20
23.6665017920809
30
0
41
1
10
11.878892303015
20
23.6860254491252
30
0
41
1
10
11.8604037172646
20
23.7049589195931
30
0
41
1
10
11.8151421892069
20
23.7414301198899
30
0
41
1
10
11.7882878950994
20
23.7590955179201
30
0
41
1
10
11.7218733396747
20
23.7919356634173
30
0
41
1
10
11.6822221825146
20
23.8071882416308
30
0
41
1
10
11.6094109295818
20
23.8248834464053
30
0
41
1
10
11.5822992776727
20
23.8299908115613
30
0
41
1
10
11.5243601613892
20
23.8370993498304
30
0
41
1
10
11.4930267682389
20
23.8391299750505
30
0
41
1
10
11.4613248654053
20
23.8391299750505
30
0
0
SPLINE
5
1C5
100
AcDbEntity
8
1
62
256
6
ByLayer
370
-1
48
1
60
0
100
AcDbSpline
70
4
71
4
72
19
73
14
40
0
40
0
40
0
40
0
40
0
40
0.481170005382492
40
0.481170005382492
40
0.481170005382492
40
0.721755008073737
40
0.721755008073737
40
0.721755008073737
40
0.962340010764983
40
0.962340010764983
40
0.962340010764983
40
1
40
1
40
1
40
1
40
1
41
1
10
39.5183629653067
20
2.7109449889775
30
0
41
1
10
39.5183629653067
20
1.99994417767007
30
0
41
0.974581796258695
10
39.4333606582129
20
0.861488137756035
30
0
41
0.974581796258695
10
39.2135628453627
20
-0.576265323364775
30
0
41
0.987290898129347
10
38.8153238941388
20
-2.56245941167954
30
0
41
0.993645449064674
10
38.6739198555767
20
-3.18396098858143
30
0
41
1
10
38.5318003394349
20
-3.7340726433892
30
0
41
1
10
38.2681996605701
20
-4.65013617936754
30
0
41
0.993645449064674
10
38.1260801444283
20
-5.08781034551444
30
0
41
0.987290898129347
10
37.9846761058662
20
-5.44912174257507
30
0
41
0.982391390806458
10
37.8323708000158
20
-5.74808871837759
30
0
41
0.981780153108121
10
37.8119267432255
20
-5.78614250929339
30
0
41
0.981228942279442
10
37.7917807543956
20
-5.82150283731895
30
0
41
0.980743339306401
10
37.7719688328566
20
-5.85408581252639
30
0
0
SPLINE
5
1C6
100
AcDbEntity
8
1
62
256
6
ByLayer
370
-1
48
1
60
0
100
AcDbSpline
70
4
71
3
72
21
73
17
40
0
40
0
40
0
40
0
40
0.250000000000008
40
0.250000000000008
40
0.312500000000002
40
0.312500000000002
40
0.374999999999996
40
0.374999999999996
40
0.499999999999995
40
0.624999999999994
40
0.624999999999994
40
0.687499999999993
40
0.687499999999993
40
0.749999999999992
40
0.749999999999992
40
1
40
1
40
1
40
1
41
1
10
94.1400469030198
20
3.17691679108361
30
0
41
1
10
94.4186990753659
20
3.04063160120896
30
0
41
1
10
94.6989207577889
20
2.91435480802153
30
0
41
1
10
95.0511114222649
20
2.76871114790961
30
0
41
1
10
95.1216464755916
20
2.74020045468774
30
0
41
1
10
95.262914257839
20
2.68443959902328
30
0
41
1
10
95.3338827692312
20
2.65710202341921
30
0
41
1
10
95.545125178545
20
2.57777045252618
30
0
41
1
10
95.8218809159406
20
2.47925958741035
30
0
41
1
10
96.0891164284943
20
2.39486073518131
30
0
41
1
10
96.2859277564269
20
2.33692063453233
30
0
41
1
10
96.3509274820294
20
2.31850266316968
30
0
41
1
10
96.4796918217621
20
2.28349754999979
30
0
41
1
10
96.5435473601156
20
2.26689328377233
30
0
41
1
10
96.8554101331683
20
2.18959513345305
30
0
41
1
10
97.0848507834656
20
2.14487251446462
30
0
41
1
10
97.2944201758985
20
2.11711357694804
30
0
0
SPLINE
5
1C7
100
AcDbEntity
8
1
62
256
6
ByLayer
370
-1
48
1
60
0
100
AcDbSpline
70
4
71
3
72
18
73
14
40
0
40
0
40
0
40
0
40
0.0415764294974122
40
0.0415764294974122
40
0.361050952998275
40
0.361050952998275
40
0.520788214748707
40
0.520788214748707
40
0.680525476499138
40
0.680525476499138
40
0.840262738249569
40
0.840262738249569
40
1
40
1
40
1
40
1
41
1
10
101.470675495316
20
3.47242949373097
30
0
41
1
10
101.465529109816
20
3.46843513005103
30
0
41
1
10
101.460383450696
20
3.4644917187635
30
0
41
1
10
101.415713660378
20
3.43068248375136
30
0
41
1
10
101.375949804375
20
3.40353807336103
30
0
41
1
10
101.319151931643
20
3.36813044959049
30
0
41
1
10
101.300766438798
20
3.35724807562221
30
0
41
1
10
101.265775509952
20
3.33750148264451
30
0
41
1
10
101.249167397826
20
3.32864541899522
30
0
41
1
10
101.219931298242
20
3.31386602112906
30
0
41
1
10
101.207156365494
20
3.30785545487055
30
0
41
1
10
101.187307011854
20
3.29937739587783
30
0
41
1
10
101.180570696332
20
3.29706280010072
30
0
41
1
10
101.178028474227
20
3.29706280010072
30
0
0
SPLINE
5
1C8
100
AcDbEntity
8
1
62
256
6
ByLayer
370
-1
48
1
60
0
100
AcDbSpline
70
4
71
3
72
8
73
4
40
0
40
0
40
0
40
0
40
1
40
1
40
1
40
1
41
1
10
28.9458090406302
20
1.46081678955295
30
0
41
1
10
28.6518064655341
20
1.75474213845507
30
0
41
1
10
28.3717409087342
20
2.07856987857372
30
0
41
1
10
28.1033236082913
20
2.43117276826493
30
0
0
SPLINE
5
1C9
100
AcDbEntity
8
1
62
256
6
ByLayer
370
-1
48
1
60
0
100
AcDbSpline
70
4
71
3
72
8
73
4
40
0
40
0
40
0
40
0
40
1
40
1
40
1
40
1
41
1
10
97.8667282226793
20
3.81520725450557
30
0
41
1
10
98.0402159399204
20
3.73366880744064
30
0
41
1
10
98.2107200134327
20
3.66405695510653
30
0
41
1
10
98.3771080190268
20
3.60475378093787
30
0
0
SPLINE
5
1CA
100
AcDbEntity
8
1
62
256
6
ByLayer
370
-1
48
1
60
0
100
AcDbSpline
70
4
71
4
72
10
73
5
40
0
40
0
40
0
40
0
40
0
40
1
40
1
40
1
40
1
40
1
41
1
10
94.1879525343042
20
6.63999999999984
30
0
41
1
10
94.187952534317
20
7.61447170672812
30
0
41
1
10
94.1879525343263
20
8.58894341345643
30
0
41
1
10
94.1879525343329
20
9.56341512018471
30
0
41
1
10
94.1879525343377
20
10.537886826913
30
0
0
SPLINE
5
1CB
100
AcDbEntity
8
1
62
256
6
ByLayer
370
-1
48
1
60
0
100
AcDbSpline
70
4
71
3
72
8
73
4
40
0
40
0
40
0
40
0
40
1
40
1
40
1
40
1
41
1
10
26.5
20
10.5775283093406
30
0
41
1
10
26.3027084116138
20
10.3670065894622
30
0
41
1
10
26.1416037213126
20
10.1373018533109
30
0
41
1
10
26.0157853790299
20
9.88620122095759
30
0
0
SPLINE
5
1CC
100
AcDbEntity
8
1
62
256
6
ByLayer
370
-1
48
1
60
0
100
AcDbSpline
70
4
71
3
72
14
73
10
40
0
40
0
40
0
40
0
40
0.0705200632830254
40
0.0705200632830254
40
0.38034670885535
40
0.38034670885535
40
0.690173354427675
40
0.690173354427675
40
1
40
1
40
1
40
1
41
1
10
105.692507077965
20
3.62146877089921
30
0
41
1
10
105.692034851574
20
3.61405016180319
30
0
41
1
10
105.691533187534
20
3.60683563808541
30
0
41
1
10
105.688695730841
20
3.56901685307503
30
0
41
1
10
105.685854294636
20
3.54208696941143
30
0
41
1
10
105.679728933193
20
3.4990347017206
30
0
41
1
10
105.676382964652
20
3.48236603910596
30
0
41
1
10
105.669445309059
20
3.45994566921911
30
0
41
1
10
105.665913748953
20
3.45428879391918
30
0
41
1
10
105.662374234327
20
3.45425607822526
30
0
0
SPLINE
5
1CD
100
AcDbEntity
8
1
62
256
6
ByLayer
370
-1
48
1
60
0
100
AcDbSpline
70
4
71
3
72
8
73
4
40
0
40
0
40
0
40
0
40
1
40
1
40
1
40
1
41
1
10
97.4421397694043
20
4.01332743988289
30
0
41
1
10
97.5878060072444
20
3.94581685334191
30
0
41
1
10
97.7293741650805
20
3.8797630440034
30
0
41
1
10
97.8667282226793
20
3.81520725450557
30
0
0
SPLINE
5
1CE
100
AcDbEntity
8
1
62
256
6
ByLayer
370
-1
48
1
60
0
100
AcDbSpline
70
4
71
3
72
8
73
4
40
0
40
0
40
0
40
0
40
1
40
1
40
1
40
1
41
1
10
31.8183629653062
20
7.81713817625354
30
0
41
1
10
34.4158427172885
20
6.11433834316597
30
0
41
1
10
36.9740703500471
20
4.40369969843283
30
0
41
1
10
39.5183629653038
20
2.71094498897816
30
0
0
SPLINE
5
1CF
100
AcDbEntity
8
1
62
256
6
ByLayer
370
-1
48
1
60
0
100
AcDbSpline
70
4
71
3
72
10
73
6
40
0
40
0
40
0
40
0
40
0.5
40
0.5
40
1
40
1
40
1
40
1
41
1
10
99.1128197095533
20
7.23881754885812
30
0
41
1
10
99.1156568467547
20
7.23881754885812
30
0
41
1
10
99.1209629320544
20
7.24168649893443
30
0
41
1
10
99.1361252728268
20
7.25249438593895
30
0
41
1
10
99.1460774575418
20
7.26051474553759
30
0
41
1
10
99.1579777479355
20
7.27050074488051
30
0
0
SPLINE
5
1D0
100
AcDbEntity
8
1
62
256
6
ByLayer
370
-1
48
1
60
0
100
AcDbSpline
70
4
71
3
72
8
73
4
40
0
40
0
40
0
40
0
40
1
40
1
40
1
40
1
41
1
10
98.799345595036
20
2.28233337038867
30
0
41
1
10
98.5379550079404
20
2.21858794306095
30
0
41
1
10
98.2844207665545
20
2.16605779052907
30
0
41
1
10
98.0400402784145
20
2.12213107040364
30
0
0
SPLINE
5
1D1
100
AcDbEntity
8
1
62
256
6
ByLayer
370
-1
48
1
60
0
100
AcDbSpline
70
4
71
3
72
14
73
10
40
0
40
0
40
0
40
0
40
0.499999999999999
40
0.499999999999999
40
0.749999999999999
40
0.749999999999999
40
0.875
40
0.875
40
1
40
1
40
1
40
1
41
1
10
27.3118174246784
20
3.53772723167029
30
0
41
1
10
27.1110381861516
20
3.92317310160161
30
0
41
1
10
26.9438253288674
20
4.31853095949742
30
0
41
1
10
26.7383444464212
20
4.91994908572974
30
0
41
1
10
26.6775008488355
20
5.12182300096569
30
0
41
1
10
26.5981651325835
20
5.42578704842956
30
0
41
1
10
26.5737169077595
20
5.52729864794381
30
0
41
1
10
26.5290326334552
20
5.73051428671624
30
0
41
1
10
26.5087370497622
20
5.8325549249376
30
0
41
1
10
26.4908619909064
20
5.93380354463628
30
0
0
SPLINE
5
1D2
100
AcDbEntity
8
1
62
256
6
ByLayer
370
-1
48
1
60
0
100
AcDbSpline
70
4
71
3
72
10
73
6
40
0
40
0
40
0
40
0
40
0.5
40
0.5
40
1
40
1
40
1
40
1
41
1
10
28.9458094872746
20
1.46081801636731
30
0
41
1
10
29.7985540858538
20
0.668754715790101
30
0
41
1
10
30.6501598697556
20
-0.122536076372341
30
0
41
1
10
32.3416342589552
20
-1.70435237666948
30
0
41
1
10
33.1813144607669
20
-2.49480086306022
30
0
41
1
10
34.0118174246785
20
-3.28212465959842
30
0
0
SPLINE
5
1D3
100
AcDbEntity
8
1
62
256
6
ByLayer
370
-1
48
1
60
0
100
AcDbSpline
70
4
71
3
72
16
73
12
40
0
40
0
40
0
40
0
40
0.211848344365624
40
0.211848344365624
40
0.474565562910416
40
0.474565562910416
40
0.605924172182812
40
0.605924172182812
40
0.737282781455208
40
0.737282781455208
40
1
40
1
40
1
40
1
41
1
10
63.8059648409364
20
10.5999679129302
30
0
41
1
10
65.4569362624025
20
10.6001968548902
30
0
41
1
10
67.1042477095274
20
10.5374573543231
30
0
41
1
10
70.7965770656765
20
10.2582263481797
30
0
41
1
10
72.8422710928639
20
10.0087733416872
30
0
41
1
10
75.9244096584372
20
9.49991113522645
30
0
41
1
10
76.9544326945105
20
9.30769622368254
30
0
41
1
10
79.0186753814437
20
8.87991886693931
30
0
41
1
10
80.048881344235
20
8.64524746255935
30
0
41
1
10
83.1369379885486
20
7.88375450914057
30
0
41
1
10
85.1923074435106
20
7.2994377239358
30
0
41
1
10
87.2526002483203
20
6.65307084690673
30
0
0
SPLINE
5
1D4
100
AcDbEntity
8
1
62
256
6
ByLayer
370
-1
48
1
60
0
100
AcDbSpline
70
4
71
3
72
16
73
12
40
0
40
0
40
0
40
0
40
0.124999999999999
40
0.124999999999999
40
0.249999999999998
40
0.249999999999998
40
0.499999999999999
40
0.499999999999999
40
0.749999999999999
40
0.749999999999999
40
1
40
1
40
1
40
1
41
1
10
11.4613248654052
20
7.52966679426495
30
0
41
1
10
11.4930777586346
20
7.52966679426495
30
0
41
1
10
11.523990670531
20
7.53597576299637
30
0
41
1
10
11.5824040005111
20
7.55857361750097
30
0
41
1
10
11.6089650834003
20
7.57431556968103
30
0
41
1
10
11.6829561422921
20
7.63070347545332
30
0
41
1
10
11.7219265489987
20
7.67774765104224
30
0
41
1
10
11.7882603826481
20
7.77866338250448
30
0
41
1
10
11.8148780607233
20
7.83191947486037
30
0
41
1
10
11.8602443227467
20
7.9417232788818
30
0
41
1
10
11.8788862370738
20
7.99846916820698
30
0
41
1
10
11.8943375672975
20
8.05584836782762
30
0
0
SPLINE
5
1D5
100
AcDbEntity
8
1
62
256
6
ByLayer
370
-1
48
1
60
0
100
AcDbSpline
70
4
71
3
72
10
73
6
40
0
40
0
40
0
40
0
40
0.5
40
0.5
40
1
40
1
40
1
40
1
41
1
10
94.1879525343042
20
10.5378868269119
30
0
41
1
10
94.4636090895223
20
10.5465475566475
30
0
41
1
10
94.728421479029
20
10.5567868252058
30
0
41
1
10
95.2373842881872
20
10.5764365595358
30
0
41
1
10
95.4819432961258
20
10.585881477455
30
0
41
1
10
95.7149174090239
20
10.5922693559937
30
0
0
SPLINE
5
1D6
100
AcDbEntity
8
1
62
256
6
ByLayer
370
-1
48
1
60
0
100
AcDbSpline
70
4
71
2
72
6
73
3
40
0
40
0
40
0
40
1
40
1
40
1
41
1
10
37.1336933260098
20
-5.69621507782716
30
0
41
1
10
37.1336933260098
20
-6.19382239745718
30
0
41
1
10
37.1336933260098
20
-6.69142971708717
30
0
0
SPLINE
5
1D7
100
AcDbEntity
8
1
62
256
6
ByLayer
370
-1
48
1
60
0
100
AcDbSpline
70
4
71
3
72
8
73
4
40
0
40
0
40
0
40
0
40
1
40
1
40
1
40
1
41
1
10
88.0965314328819
20
6.35601234632063
30
0
41
1
10
87.8176877590875
20
6.45046855282675
30
0
41
1
10
87.5362358474735
20
6.5497498509809
30
0
41
1
10
87.2526002483204
20
6.65307084690673
30
0
0
SPLINE
5
1D8
100
AcDbEntity
8
1
62
256
6
ByLayer
370
-1
48
1
60
0
100
AcDbSpline
70
4
71
3
72
16
73
12
40
0
40
0
40
0
40
0
40
0.124999999999997
40
0.124999999999997
40
0.249999999999994
40
0.249999999999994
40
0.499999999999998
40
0.499999999999998
40
0.749999999999999
40
0.749999999999999
40
1
40
1
40
1
40
1
41
1
10
11.4613248654051
20
-23.8391299750503
30
0
41
1
10
11.4930777586346
20
-23.8391299750504
30
0
41
1
10
11.523990670531
20
-23.8371392949586
30
0
41
1
10
11.582404000511
20
-23.829983326401
30
0
41
1
10
11.6089650834003
20
-23.824989671385
30
0
41
1
10
11.6829561422921
20
-23.8070141183761
30
0
41
1
10
11.7219265489987
20
-23.7919105160783
30
0
41
1
10
11.7882603826481
20
-23.7591079584198
30
0
41
1
10
11.8148780607232
20
-23.7416171457992
30
0
41
1
10
11.8602443227467
20
-23.7051129235882
30
0
41
1
10
11.8788862370738
20
-23.6860331168062
30
0
41
1
10
11.8943375672975
20
-23.6665017920809
30
0
0
SPLINE
5
1D9
100
AcDbEntity
8
1
62
256
6
ByLayer
370
-1
48
1
60
0
100
AcDbSpline
70
4
71
3
72
22
73
18
40
0
40
0
40
0
40
0
40
0.125
40
0.125
40
0.25
40
0.25
40
0.375
40
0.375
40
0.5
40
0.5
40
0.625
40
0.625
40
0.75
40
0.75
40
0.875
40
0.875
40
1
40
1
40
1
40
1
41
1
10
99.3705404169777
20
3.37347728912616
30
0
41
1
10
99.3763257526307
20
3.37347728912616
30
0
41
1
10
99.3645655774185
20
3.38504593199201
30
0
41
1
10
99.3232654233499
20
3.4221571643518
30
0
41
1
10
99.2941950442706
20
3.44771599473856
30
0
41
1
10
99.232339937063
20
3.50654369971457
30
0
41
1
10
99.1991129902233
20
3.54008186512746
30
0
41
1
10
99.1317079842551
20
3.61485270050275
30
0
41
1
10
99.0978141755294
20
3.65576869996227
30
0
41
1
10
99.0323923156573
20
3.7432628661501
30
0
41
1
10
99.000654542758
20
3.79004360795324
30
0
41
1
10
98.9400386312024
20
3.89025703364865
30
0
41
1
10
98.9109820133844
20
3.94412802764819
30
0
41
1
10
98.8582201597428
20
4.05591251325754
30
0
41
1
10
98.834299395301
20
4.1140887288702
30
0
41
1
10
98.7918063218131
20
4.23559669525042
30
0
41
1
10
98.7732604582456
20
4.29919202572339
30
0
41
1
10
98.7582848276355
20
4.36277526250942
30
0
0
SPLINE
5
1DA
100
AcDbEntity
8
1
62
256
6
ByLayer
370
-1
48
1
60
0
100
AcDbSpline
70
4
71
1
72
4
73
2
40
0
40
0
40
1
40
1
41
1
10
39.5183629653038
20
2.71094498897816
30
0
41
1
10
39.518362965304
20
6.6887853097418
30
0
0
SPLINE
5
1DB
100
AcDbEntity
8
1
62
256
6
ByLayer
370
-1
48
1
60
0
100
AcDbSpline
70
4
71
3
72
27
73
23
40
0
40
0
40
0
40
0
40
0.0643204372556841
40
0.116302635185924
40
0.142293734151044
40
0.168284833116164
40
0.194275932081283
40
0.220267031046403
40
0.272249228976643
40
0.324231426906883
40
0.350222525872003
40
0.376213624837123
40
0.402204723802242
40
0.428195822767363
40
0.480178020697602
40
0.532160218627842
40
0.558151317592961
40
0.584142416558082
40
0.597137966040642
40
0.688106812418561
40
0.792071208279041
40
1
40
1
40
1
40
1
41
1
10
56.5310078233729
20
0.368908803899615
30
0
41
1
10
56.1660707260278
20
0.424636614185289
30
0
41
1
10
55.5062300863205
20
0.525305428461934
30
0
41
1
10
54.6990129529569
20
0.648125593890541
30
0
41
1
10
54.1093151984646
20
0.737274391435022
30
0
41
1
10
53.6671438563284
20
0.803726965193732
30
0
41
1
10
53.2249911980047
20
0.869737071907764
30
0
41
1
10
52.6352050288912
20
0.957344959576347
30
0
41
1
10
51.8974760059494
20
1.06654175789032
30
0
41
1
10
51.1596902180842
20
1.17579374931586
30
0
41
1
10
50.5702964054291
20
1.2624510571458
30
0
41
1
10
50.1287517878534
20
1.3267447584654
30
0
41
1
10
49.6868463085048
20
1.3905108079513
30
0
41
1
10
49.0970124990556
20
1.47508076400078
30
0
41
1
10
48.3600958097613
20
1.57968665044436
30
0
41
1
10
47.6230045980879
20
1.6827814113455
30
0
41
1
10
47.0331850502444
20
1.76439354686841
30
0
41
1
10
46.6646405907425
20
1.81494252967559
30
0
41
1
10
45.9277260190086
20
1.91511781646753
30
0
41
1
10
44.7485938352959
20
2.07236650834827
30
0
41
1
10
42.4642080795593
20
2.36513756193423
30
0
41
1
10
40.696315730932
20
2.57721989485103
30
0
41
1
10
39.5183629653067
20
2.7109449889775
30
0
0
SPLINE
5
1DC
100
AcDbEntity
8
1
62
256
6
ByLayer
370
-1
48
1
60
0
100
AcDbSpline
70
4
71
3
72
16
73
12
40
0
40
0
40
0
40
0
40
0.250000000000003
40
0.250000000000003
40
0.500000000000005
40
0.500000000000005
40
0.750000000000005
40
0.750000000000005
40
0.875000000000003
40
0.875000000000003
40
1
40
1
40
1
40
1
41
1
10
11.8943375672974
20
-8.05584836782768
30
0
41
1
10
11.878892303015
20
-7.99849169434904
30
0
41
1
10
11.8604037172646
20
-7.94218253951249
30
0
41
1
10
11.8151421892069
20
-7.83248598676798
30
0
41
1
10
11.7882878950994
20
-7.7787017964302
30
0
41
1
10
11.7218733396747
20
-7.67767014498884
30
0
41
1
10
11.6822221825146
20
-7.63015704912686
30
0
41
1
10
11.6094109295817
20
-7.57464889660886
30
0
41
1
10
11.5822992776726
20
-7.55854989603577
30
0
41
1
10
11.5243601613892
20
-7.53610198950833
30
0
41
1
10
11.4930267682388
20
-7.52966679426467
30
0
41
1
10
11.4613248654053
20
-7.52966679426467
30
0
0
SPLINE
5
1DD
100
AcDbEntity
8
1
62
256
6
ByLayer
370
-1
48
1
60
0
100
AcDbSpline
70
4
71
3
72
8
73
4
40
0
40
0
40
0
40
0
40
1
40
1
40
1
40
1
41
1
10
38
20
7.32685744007392
30
0
41
1
10
38.5140050736201
20
7.13188035528961
30
0
41
1
10
39.019539061453
20
6.91912429947988
30
0
41
1
10
39.518362965304
20
6.68878530974183
30
0
0
SPLINE
5
1DE
100
AcDbEntity
8
1
62
256
6
ByLayer
370
-1
48
1
60
0
100
AcDbSpline
70
4
71
3
72
18
73
14
40
0
40
0
40
0
40
0
40
0.177777861978213
40
0.177777861978213
40
0.355555723956427
40
0.355555723956427
40
0.53333358593464
40
0.53333358593464
40
0.711111447912853
40
0.711111447912853
40
0.888889309891067
40
0.888889309891067
40
1
40
1
40
1
40
1
41
1
10
39.5183629653067
20
2.71094498897753
30
0
41
1
10
39.1842332195963
20
2.47718420522867
30
0
41
1
10
38.826021906786
20
2.15948229550949
30
0
41
1
10
38.106537803183
20
1.39619742397863
30
0
41
1
10
37.7454612945658
20
0.950822693612707
30
0
41
1
10
37.066101770882
20
-0.0113151318734879
30
0
41
1
10
36.7480040916199
20
-0.527815746551795
30
0
41
1
10
36.1950239286421
20
-1.566648840222
30
0
41
1
10
35.9602923032273
20
-2.08869791556595
30
0
41
1
10
35.6039005450264
20
-3.07233098834263
30
0
41
1
10
35.4823376393358
20
-3.53364664122339
30
0
41
1
10
35.3892625638262
20
-4.18652687884631
30
0
41
1
10
35.3785882023075
20
-4.41428976716722
30
0
41
1
10
35.392929290095
20
-4.61345189998818
30
0
0
SPLINE
5
1DF
100
AcDbEntity
8
1
62
256
6
ByLayer
370
-1
48
1
60
0
100
AcDbSpline
70
4
71
3
72
8
73
4
40
0
40
0
40
0
40
0
40
1
40
1
40
1
40
1
41
1
10
38
20
-6.91888133739565
30
0
41
1
10
37.7121721141836
20
-6.83083825151368
30
0
41
1
10
37.4232375304975
20
-6.75511229756691
30
0
41
1
10
37.1336933260098
20
-6.69142971708737
30
0
0
SPLINE
5
1E0
100
AcDbEntity
8
1
62
256
6
ByLayer
370
-1
48
1
60
0
100
AcDbSpline
70
4
71
3
72
14
73
10
40
0
40
0
40
0
40
0
40
0.0868146872094707
40
0.283438438146041
40
0.480062189082611
40
0.67668594001918
40
0.87330969095575
40
0.971621566424035
40
1
40
1
40
1
40
1
41
1
10
99.486955352736
20
4.11031519305226
30
0
41
1
10
99.4870325032406
20
4.10829670431175
30
0
41
1
10
99.4872939200226
20
4.10170707237552
30
0
41
1
10
99.4878214628878
20
4.09054986309746
30
0
41
1
10
99.4887380572553
20
4.07685125304434
30
0
41
1
10
99.4899165754582
20
4.06317259252907
30
0
41
1
10
99.4911115622321
20
4.05179804893299
30
0
41
1
10
99.4919772149307
20
4.04432282206389
30
0
41
1
10
99.4923241554896
20
4.04139550707794
30
0
41
1
10
99.492402175569
20
4.04073989733917
30
0
0
SPLINE
5
1E1
100
AcDbEntity
8
1
62
256
6
ByLayer
370
-1
48
1
60
0
100
AcDbSpline
70
4
71
3
72
12
73
8
40
0
40
0
40
0
40
0
40
0.036693770555479
40
0.110794249743519
40
0.40719616649568
40
0.70359808324784
40
1
40
1
40
1
40
1
41
1
10
99.2795917199799
20
10.0705067792915
30
0
41
1
10
99.2808604684811
20
10.0342770193022
30
0
41
1
10
99.2846508623103
20
9.92488638284269
30
0
41
1
10
99.2986541055662
20
9.52284424051086
30
0
41
1
10
99.3215469018783
20
8.86438380829503
30
0
41
1
10
99.3520927787192
20
7.98643516207889
30
0
41
1
10
99.3724540909161
20
7.40113622969111
30
0
41
1
10
99.3826347470146
20
7.10848676349718
30
0
0
SPLINE
5
1E2
100
AcDbEntity
8
1
62
256
6
ByLayer
370
-1
48
1
60
0
100
AcDbSpline
70
4
71
3
72
15
73
11
40
0
40
0
40
0
40
0
40
0.0512135155737993
40
0.195204619948458
40
0.339195724323117
40
0.627177933072434
40
0.771169037447092
40
0.915160141821751
40
0.98715569400908
40
1
40
1
40
1
40
1
41
1
10
99.8145982919883
20
10.7530494213935
30
0
41
1
10
99.8129888100559
20
10.7528564207997
30
0
41
1
10
99.8068565393733
20
10.7521136743398
30
0
41
1
10
99.7962211787876
20
10.7508071379741
30
0
41
1
10
99.778169031684
20
10.7485704079448
30
0
41
1
10
99.7600615264242
20
10.7463388804183
30
0
41
1
10
99.7417335223615
20
10.744085777684
30
0
41
1
10
99.7304711029113
20
10.7426964322063
30
0
41
1
10
99.7235392329572
20
10.7418355057358
30
0
41
1
10
99.720995573362
20
10.7415119561549
30
0
41
1
10
99.7206110531374
20
10.7414628414951
30
0
0
SPLINE
5
1E3
100
AcDbEntity
8
1
62
256
6
ByLayer
370
-1
48
1
60
0
100
AcDbSpline
70
4
71
3
72
14
73
10
40
0
40
0
40
0
40
0
40
0.0128443058604752
40
0.0848398580566994
40
0.228830962449148
40
0.372822066841596
40
0.660804275626493
40
0.94878648441139
40
1
40
1
40
1
40
1
41
1
10
106.709855572927
20
4.19899080477282
30
0
41
1
10
106.70987755873
20
4.19937927961379
30
0
41
1
10
106.710021655232
20
4.20194900535381
30
0
41
1
10
106.710393673619
20
4.20895045892829
30
0
41
1
10
106.710988734054
20
4.22032527534873
30
0
41
1
10
106.711949298558
20
4.23883564127354
30
0
41
1
10
106.713142429773
20
4.26169571504579
30
0
41
1
10
106.714194920267
20
4.28152995132871
30
0
41
1
10
106.714734201073
20
4.29229031847788
30
0
41
1
10
106.714813727107
20
4.29391547581767
30
0
0
SPLINE
5
1E4
100
AcDbEntity
8
1
62
256
6
ByLayer
370
-1
48
1
60
0
100
AcDbSpline
70
4
71
3
72
77
73
73
40
0
40
0
40
0
40
0
40
0.125
40
0.25
40
0.375
40
0.40625
40
0.421875
40
0.423828125
40
0.42578125
40
0.427734375
40
0.4296875
40
0.43359375
40
0.435546875
40
0.4375
40
0.44140625
40
0.4453125
40
0.447265625
40
0.44921875
40
0.4501953125
40
0.451171875
40
0.453125
40
0.4609375
40
0.46875
40
0.47265625
40
0.474609375
40
0.47607421875
40
0.4765625
40
0.4775390625
40
0.478515625
40
0.4794921875
40
0.48046875
40
0.482421875
40
0.484375
40
0.4921875
40
0.5
40
0.5078125
40
0.515625
40
0.517578125
40
0.51953125
40
0.5205078125
40
0.521484375
40
0.5224609375
40
0.5234375
40
0.52392578125
40
0.525390625
40
0.52734375
40
0.53125
40
0.5390625
40
0.54296875
40
0.546875
40
0.5478515625
40
0.548828125
40
0.5498046875
40
0.55078125
40
0.552734375
40
0.5546875
40
0.55859375
40
0.560546875
40
0.5625
40
0.5634765625
40
0.564453125
40
0.56640625
40
0.568359375
40
0.5703125
40
0.572265625
40
0.57421875
40
0.578125
40
0.59375
40
0.625
40
0.75
40
0.875
40
1
40
1
40
1
40
1
41
1
10
103.074556896304
20
4.51663420470106
30
0
41
1
10
102.851544072228
20
4.50881667722561
30
0
41
1
10
102.405518424078
20
4.49318162227471
30
0
41
1
10
101.736479951852
20
4.46972903984832
30
0
41
1
10
101.234701097682
20
4.45213960302854
30
0
41
1
10
100.928058464579
20
4.44139050274978
30
0
41
1
10
100.840944080174
20
4.43833678107967
30
0
41
1
10
100.806098326413
20
4.43711529241165
30
0
41
1
10
100.795644600284
20
4.43674884581122
30
0
41
1
10
100.785190874156
20
4.43638239921083
30
0
41
1
10
100.771252572651
20
4.4358938037436
30
0
41
1
10
100.757314271146
20
4.43540520827639
30
0
41
1
10
100.743375969641
20
4.43491661280916
30
0
41
1
10
100.729437668137
20
4.43442801734196
30
0
41
1
10
100.712014791256
20
4.43381727300792
30
0
41
1
10
100.694592104895
20
4.4332060292088
30
0
41
1
10
100.680654184429
20
4.43271643481143
30
0
41
1
10
100.671943103213
20
4.43241012614737
30
0
41
1
10
100.664974323974
20
4.43216485445683
30
0
41
1
10
100.658005606654
20
4.43191942044015
30
0
41
1
10
100.638841909087
20
4.43124375579151
30
0
41
1
10
100.607484845927
20
4.43013362754431
30
0
41
1
10
100.572635434187
20
4.42892172860601
30
0
41
1
10
100.548230603631
20
4.42810025059251
30
0
41
1
10
100.535162760099
20
4.4276439904163
30
0
41
1
10
100.528199324937
20
4.42738470872999
30
0
41
1
10
100.522980692324
20
4.42717990853785
30
0
41
1
10
100.518634575295
20
4.42700204941377
30
0
41
1
10
100.513558535989
20
4.42684926737357
30
0
41
1
10
100.508756709364
20
4.42682929082647
30
0
41
1
10
100.502463463721
20
4.42699911472826
30
0
41
1
10
100.494320836936
20
4.42761610323984
30
0
41
1
10
100.474286801254
20
4.4304709460794
30
0
41
1
10
100.44386059902
20
4.44020223481499
30
0
41
1
10
100.407052363771
20
4.46550999549922
30
0
41
1
10
100.379334707904
20
4.50060344657379
30
0
41
1
10
100.367541639808
20
4.53039265175673
30
0
41
1
10
100.363307084614
20
4.55025508211236
30
0
41
1
10
100.362125940232
20
4.5583658626696
30
0
41
1
10
100.361518180046
20
4.56465591258291
30
0
41
1
10
100.361203073606
20
4.56946573321062
30
0
41
1
10
100.361000816909
20
4.57455940749003
30
0
41
1
10
100.36087439782
20
4.57892390544134
30
0
41
1
10
100.360713888292
20
4.58416399763732
30
0
41
1
10
100.360485809457
20
4.59115509119388
30
0
41
1
10
100.360027659544
20
4.60427272466029
30
0
41
1
10
100.3591416232
20
4.62876840508807
30
0
41
1
10
100.358160322664
20
4.65675388744063
30
0
41
1
10
100.35719223206
20
4.68473532781152
30
0
41
1
10
100.356649240601
20
4.70047441084179
30
0
41
1
10
100.356286481832
20
4.71096736677293
30
0
41
1
10
100.35610495911
20
4.7162138885968
30
0
41
1
10
100.355923302607
20
4.72146045135511
30
0
41
1
10
100.355680928303
20
4.72845591904689
30
0
41
1
10
100.355377673748
20
4.73720034137821
30
0
41
1
10
100.354891956819
20
4.751191573049
30
0
41
1
10
100.354405628319
20
4.76518299184858
30
0
41
1
10
100.353918994034
20
4.77917450421253
30
0
41
1
10
100.3536147839
20
4.78791921893259
30
0
41
1
10
100.353371415793
20
4.79491499070863
30
0
41
1
10
100.353128047686
20
4.80191076248468
30
0
41
1
10
100.352823837552
20
4.81065547720473
30
0
41
1
10
100.352458785392
20
4.82114913486879
30
0
41
1
10
100.352093733231
20
4.83164279253285
30
0
41
1
10
100.351728681071
20
4.8421364501969
30
0
41
1
10
100.351241944857
20
4.856127993749
30
0
41
1
10
100.349903420269
20
4.89460473851724
30
0
41
1
10
100.346739634878
20
4.98554977160578
30
0
41
1
10
100.336031438171
20
5.29336372975166
30
0
41
1
10
100.318508934469
20
5.79705929762673
30
0
41
1
10
100.295145596199
20
6.46865338812685
30
0
41
1
10
100.279570037353
20
6.91638278179357
30
0
41
1
10
100.271782257929
20
7.14024747862695
30
0
0
SPLINE
5
1E5
100
AcDbEntity
8
1
62
256
6
ByLayer
370
-1
48
1
60
0
100
AcDbSpline
70
4
71
3
72
36
73
32
40
0
40
0
40
0
40
0
40
0.015625
40
0.0234375
40
0.03125
40
0.03515625
40
0.0390625
40
0.046875
40
0.0625
40
0.125
40
0.1875
40
0.203125
40
0.21875
40
0.25
40
0.3125
40
0.375
40
0.4375
40
0.5
40
0.53125
40
0.546875
40
0.5625
40
0.625
40
0.65625
40
0.6875
40
0.75
40
0.8125
40
0.84375
40
0.859375
40
0.875
40
0.9375
40
1
40
1
40
1
40
1
41
1
10
103.074556896304
20
4.51663420470106
30
0
41
1
10
103.074729641709
20
4.51166852763487
30
0
41
1
10
103.07509415799
20
4.50404130116166
30
0
41
1
10
103.075753622155
20
4.4945774913414
30
0
41
1
10
103.076221207452
20
4.48918269853098
30
0
41
1
10
103.07661646689
20
4.48510159803936
30
0
41
1
10
103.077015818517
20
4.48094921774108
30
0
41
1
10
103.07770673673
20
4.47373217935717
30
0
41
1
10
103.079886738192
20
4.45099670298416
30
0
41
1
10
103.083449730955
20
4.41381513667008
30
0
41
1
10
103.087013278996
20
4.37665170904035
30
0
41
1
10
103.089390943292
20
4.35182860599585
30
0
41
1
10
103.09096713505
20
4.33542481859007
30
0
41
1
10
103.093646887991
20
4.30599580521539
30
0
41
1
10
103.097299263787
20
4.26157183763888
30
0
41
1
10
103.101310765129
20
4.20536564982814
30
0
41
1
10
103.104883234999
20
4.14705221138226
30
0
41
1
10
103.10746037745
20
4.09743221772609
30
0
41
1
10
103.109025318348
20
4.06273530925875
30
0
41
1
10
103.10987005998
20
4.04266591893452
30
0
41
1
10
103.11114999437
20
4.01253172310436
30
0
41
1
10
103.11264094923
20
3.97735875931141
30
0
41
1
10
103.11434686454
20
3.93714381433281
30
0
41
1
10
103.116042794958
20
3.89702202945327
30
0
41
1
10
103.117860681116
20
3.84648602281933
30
0
41
1
10
103.119302635301
20
3.79603989823752
30
0
41
1
10
103.12010202876
20
3.7610845603761
30
0
41
1
10
103.120496101852
20
3.74122606930186
30
0
41
1
10
103.121068342849
20
3.71144772576
30
0
41
1
10
103.12193919729
20
3.66673160966494
30
0
41
1
10
103.122710513916
20
3.62699475108764
30
0
41
1
10
103.123096172229
20
3.60712632179897
30
0
0
SPLINE
5
1E6
100
AcDbEntity
8
1
62
256
6
ByLayer
370
-1
48
1
60
0
100
AcDbSpline
70
4
71
3
72
12
73
8
40
0
40
0
40
0
40
0
40
0.0366937705554792
40
0.110794249743519
40
0.40719616649568
40
0.70359808324784
40
1
40
1
40
1
40
1
41
1
10
106.714175907391
20
4.39985568620008
30
0
41
1
10
106.71290715889
20
4.43608544618937
30
0
41
1
10
106.709116765061
20
4.54547608264889
30
0
41
1
10
106.695113521805
20
4.94751822498068
30
0
41
1
10
106.672220725493
20
5.60597865719652
30
0
41
1
10
106.641674848652
20
6.48392730341266
30
0
41
1
10
106.621313536455
20
7.06922623580047
30
0
41
1
10
106.611132880356
20
7.36187570199436
30
0
0
SPLINE
5
1E7
100
AcDbEntity
8
1
62
256
6
ByLayer
370
-1
48
1
60
0
100
AcDbSpline
70
4
71
3
72
77
73
73
40
0
40
0
40
0
40
0
40
0.125
40
0.25
40
0.375
40
0.40625
40
0.421875
40
0.423828125
40
0.42578125
40
0.427734375
40
0.4296875
40
0.43359375
40
0.435546875
40
0.4375
40
0.44140625
40
0.4453125
40
0.447265625
40
0.44921875
40
0.4501953125
40
0.451171875
40
0.453125
40
0.4609375
40
0.46875
40
0.47265625
40
0.474609375
40
0.47607421875
40
0.4765625
40
0.4775390625
40
0.478515625
40
0.4794921875
40
0.48046875
40
0.482421875
40
0.484375
40
0.4921875
40
0.5
40
0.5078125
40
0.515625
40
0.517578125
40
0.51953125
40
0.5205078125
40
0.521484375
40
0.5224609375
40
0.5234375
40
0.52392578125
40
0.525390625
40
0.52734375
40
0.53125
40
0.5390625
40
0.54296875
40
0.546875
40
0.5478515625
40
0.548828125
40
0.5498046875
40
0.55078125
40
0.552734375
40
0.5546875
40
0.55859375
40
0.560546875
40
0.5625
40
0.5634765625
40
0.564453125
40
0.56640625
40
0.568359375
40
0.5703125
40
0.572265625
40
0.57421875
40
0.578125
40
0.59375
40
0.625
40
0.75
40
0.875
40
1
40
1
40
1
40
1
41
1
10
102.885411891257
20
9.95372826079048
30
0
41
1
10
103.108424715333
20
9.96154578826594
30
0
41
1
10
103.554450363483
20
9.97718084321687
30
0
41
1
10
104.223488835709
20
10.0006334256432
30
0
41
1
10
104.725267689879
20
10.018222862463
30
0
41
1
10
105.031910322982
20
10.0289719627418
30
0
41
1
10
105.119024707387
20
10.0320256844119
30
0
41
1
10
105.153870461149
20
10.0332471730799
30
0
41
1
10
105.164324187277
20
10.0336136196803
30
0
41
1
10
105.174777913406
20
10.0339800662807
30
0
41
1
10
105.18871621491
20
10.0344686617479
30
0
41
1
10
105.202654516415
20
10.0349572572152
30
0
41
1
10
105.21659281792
20
10.0354458526824
30
0
41
1
10
105.230531119424
20
10.0359344481496
30
0
41
1
10
105.247953996305
20
10.0365451924836
30
0
41
1
10
105.265376682666
20
10.0371564362827
30
0
41
1
10
105.279314603132
20
10.0376460306801
30
0
41
1
10
105.288025684348
20
10.0379523393442
30
0
41
1
10
105.294994463587
20
10.0381976110347
30
0
41
1
10
105.301963180907
20
10.0384430450514
30
0
41
1
10
105.321126878474
20
10.0391187097
30
0
41
1
10
105.352483941635
20
10.0402288379472
30
0
41
1
10
105.387333353374
20
10.0414407368855
30
0
41
1
10
105.411738183931
20
10.0422622148991
30
0
41
1
10
105.424806027462
20
10.0427184750752
30
0
41
1
10
105.431769462624
20
10.0429777567616
30
0
41
1
10
105.436988095238
20
10.0431825569537
30
0
41
1
10
105.441334212266
20
10.0433604160778
30
0
41
1
10
105.446410251572
20
10.043513198118
30
0
41
1
10
105.451212078198
20
10.0435331746651
30
0
41
1
10
105.45750532384
20
10.0433633507633
30
0
41
1
10
105.465647950625
20
10.0427463622517
30
0
41
1
10
105.485681986307
20
10.0398915194121
30
0
41
1
10
105.516108188541
20
10.0301602306766
30
0
41
1
10
105.55291642379
20
10.0048524699924
30
0
41
1
10
105.580634079658
20
9.96975901891776
30
0
41
1
10
105.592427147753
20
9.93996981373485
30
0
41
1
10
105.596661702947
20
9.92010738337919
30
0
41
1
10
105.597842847329
20
9.91199660282194
30
0
41
1
10
105.598450607515
20
9.90570655290864
30
0
41
1
10
105.598765713955
20
9.90089673228093
30
0
41
1
10
105.598967970652
20
9.89580305800152
30
0
41
1
10
105.599094389741
20
9.89143856005023
30
0
41
1
10
105.599254899269
20
9.88619846785426
30
0
41
1
10
105.599482978104
20
9.87920737429769
30
0
41
1
10
105.599941128017
20
9.86608974083126
30
0
41
1
10
105.600827164362
20
9.84159406040348
30
0
41
1
10
105.601808464897
20
9.81360857805092
30
0
41
1
10
105.602776555501
20
9.78562713768002
30
0
41
1
10
105.60331954696
20
9.76988805464975
30
0
41
1
10
105.60368230573
20
9.75939509871861
30
0
41
1
10
105.603863828451
20
9.75414857689475
30
0
41
1
10
105.604045484954
20
9.74890201413643
30
0
41
1
10
105.604287859259
20
9.74190654644468
30
0
41
1
10
105.604591113813
20
9.73316212411333
30
0
41
1
10
105.605076830742
20
9.71917089244255
30
0
41
1
10
105.605563159242
20
9.70517947364297
30
0
41
1
10
105.606049793527
20
9.69118796127901
30
0
41
1
10
105.606354003661
20
9.68244324655896
30
0
41
1
10
105.606597371768
20
9.67544747478294
30
0
41
1
10
105.606840739875
20
9.66845170300689
30
0
41
1
10
105.607144950009
20
9.65970698828684
30
0
41
1
10
105.607510002169
20
9.64921333062276
30
0
41
1
10
105.60787505433
20
9.6387196729587
30
0
41
1
10
105.60824010649
20
9.62822601529464
30
0
41
1
10
105.608726842704
20
9.61423447174255
30
0
41
1
10
105.610065367292
20
9.57575772697433
30
0
41
1
10
105.613229152683
20
9.48481269388577
30
0
41
1
10
105.62393734939
20
9.17699873573989
30
0
41
1
10
105.641459853092
20
8.67330316786482
30
0
41
1
10
105.664823191362
20
8.00170907736472
30
0
41
1
10
105.680398750208
20
7.55397968369797
30
0
41
1
10
105.688186529632
20
7.3301149868646
30
0
0
SPLINE
5
1E8
100
AcDbEntity
8
1
62
256
6
ByLayer
370
-1
48
1
60
0
100
AcDbSpline
70
4
71
3
72
36
73
32
40
0
40
0
40
0
40
0
40
0.015625
40
0.0234375
40
0.03125
40
0.03515625
40
0.0390625
40
0.046875
40
0.0625
40
0.125
40
0.1875
40
0.203125
40
0.21875
40
0.25
40
0.3125
40
0.375
40
0.4375
40
0.5
40
0.53125
40
0.546875
40
0.5625
40
0.625
40
0.65625
40
0.6875
40
0.75
40
0.8125
40
0.84375
40
0.859375
40
0.875
40
0.9375
40
1
40
1
40
1
40
1
41
1
10
105.688186529632
20
7.3301149868646
30
0
41
1
10
105.693133310798
20
7.33028839212881
30
0
41
1
10
105.700830694572
20
7.33055474074635
30
0
41
1
10
105.710588729972
20
7.33088522426757
30
0
41
1
10
105.71624290583
20
7.33107361458377
30
0
41
1
10
105.720561763084
20
7.33121612975333
30
0
41
1
10
105.724953241418
20
7.33136113406854
30
0
41
1
10
105.732582669501
20
7.33161315860238
30
0
41
1
10
105.756620712837
20
7.33240709893207
30
0
41
1
10
105.795930316761
20
7.33370550783869
30
0
41
1
10
105.835223037307
20
7.33500328332846
30
0
41
1
10
105.861465801981
20
7.33587012518794
30
0
41
1
10
105.878812706705
20
7.33644295806673
30
0
41
1
10
105.909785713595
20
7.33747064185917
30
0
41
1
10
105.956147594464
20
7.33902196099081
30
0
41
1
10
106.014196107682
20
7.34098472431936
30
0
41
1
10
106.073831514544
20
7.3430210744616
30
0
41
1
10
106.124113656941
20
7.34475384282223
30
0
41
1
10
106.159036442018
20
7.3459654855649
30
0
41
1
10
106.179176032233
20
7.34666632411825
30
0
41
1
10
106.20942718779
20
7.34771863342465
30
0
41
1
10
106.244733669662
20
7.34894690038561
30
0
41
1
10
106.285102507045
20
7.35035123720934
30
0
41
1
10
106.325371794783
20
7.3517523208107
30
0
41
1
10
106.375775342004
20
7.35351707704942
30
0
41
1
10
106.425716544035
20
7.35527869453767
30
0
41
1
10
106.460122237454
20
7.35649936183364
30
0
41
1
10
106.479608399154
20
7.3571928356229
30
0
41
1
10
106.508809742502
20
7.35823271829358
30
0
41
1
10
106.552670975592
20
7.35979423947629
30
0
41
1
10
106.591645578768
20
7.36118188115501
30
0
41
1
10
106.611132880356
20
7.36187570199436
30
0
0
SPLINE
5
1E9
100
AcDbEntity
8
1
62
256
6
ByLayer
370
-1
48
1
60
0
100
AcDbSpline
70
4
71
3
72
12
73
8
40
0
40
0
40
0
40
0
40
0.126690309034712
40
0.323314059973843
40
0.716561561852106
40
0.913185312791237
40
1
40
1
40
1
40
1
41
1
10
105.926957166416
20
10.9673130344339
30
0
41
1
10
105.924024260499
20
10.9674576528457
30
0
41
1
10
105.916535289271
20
10.9678107679233
30
0
41
1
10
105.899936078401
20
10.9683984980273
30
0
41
1
10
105.881694441723
20
10.9685278790641
30
0
41
1
10
105.866013603832
20
10.9681754565561
30
0
41
1
10
105.859446802851
20
10.96797756319
30
0
41
1
10
105.857435511549
20
10.9679140170876
30
0
0
SPLINE
5
1EA
100
AcDbEntity
8
1
62
256
6
ByLayer
370
-1
48
1
60
0
100
AcDbSpline
70
4
71
3
72
14
73
10
40
0
40
0
40
0
40
0
40
0.0128443058606307
40
0.0848398580568546
40
0.228830962449302
40
0.37282206684175
40
0.660804275626646
40
0.948786484411541
40
1
40
1
40
1
40
1
41
1
10
106.021520620429
20
10.9623359409106
30
0
41
1
10
106.021133623852
20
10.9623580106957
30
0
41
1
10
106.018573676694
20
10.9625026576227
30
0
41
1
10
106.011598865765
20
10.9628760970599
30
0
41
1
10
106.000267333955
20
10.963473430529
30
0
41
1
10
105.981827405561
20
10.9644376642335
30
0
41
1
10
105.959054321271
20
10.9656353530154
30
0
41
1
10
105.939295560245
20
10.9666918638527
30
0
41
1
10
105.928576139542
20
10.9672332046239
30
0
41
1
10
105.926957166416
20
10.9673130344339
30
0
0
SPLINE
5
1EB
100
AcDbEntity
8
1
62
256
6
ByLayer
370
-1
48
1
60
0
100
AcDbSpline
70
4
71
3
72
41
73
37
40
0
40
0
40
0
40
0
40
0.0080831369865669
40
0.0179214742470157
40
0.0277598115074644
40
0.0671131605492592
40
0.106466509591054
40
0.185173207674644
40
0.224526556716439
40
0.244203231237336
40
0.258960737128009
40
0.263879905758234
40
0.273718243018682
40
0.283556580279131
40
0.29339491753958
40
0.303233254800028
40
0.322909929320926
40
0.342586603841823
40
0.421293301925413
40
0.500000000009003
40
0.578706698092592
40
0.657413396176182
40
0.67709007069708
40
0.696766745217977
40
0.706605082478426
40
0.716443419738874
40
0.726281756999323
40
0.736120094259772
40
0.741039262889996
40
0.755796768780669
40
0.775473443301567
40
0.814826792343362
40
0.893533490426951
40
0.972240188510541
40
0.991916863031438
40
1
40
1
40
1
40
1
41
1
10
106.273156574222
20
3.72889962399495
30
0
41
1
10
106.274927386171
20
3.7291258093054
30
0
41
1
10
106.278826427321
20
3.72963345275303
30
0
41
1
10
106.284793421088
20
3.73046403441524
30
0
41
1
10
106.297407219009
20
3.73237227795653
30
0
41
1
10
106.316402027116
20
3.73591251953121
30
0
41
1
10
106.35029801145
20
3.74412881753099
30
0
41
1
10
106.384260097652
20
3.75522044907737
30
0
41
1
10
106.413604222461
20
3.76758631467405
30
0
41
1
10
106.429162478273
20
3.77491492817421
30
0
41
1
10
106.437400232075
20
3.77904121327549
30
0
41
1
10
106.443549741558
20
3.78222879126284
30
0
41
1
10
106.448655683495
20
3.78494305633612
30
0
41
1
10
106.454750908926
20
3.78829260650346
30
0
41
1
10
106.460812163444
20
3.79173430069565
30
0
41
1
10
106.468845786894
20
3.79644570091207
30
0
41
1
10
106.478792558839
20
3.80256387097145
30
0
41
1
10
106.502326931643
20
3.81797541356391
30
0
41
1
10
106.536237480309
20
3.84380519836165
30
0
41
1
10
106.577547691479
20
3.88340362257878
30
0
41
1
10
106.614017684364
20
3.9275328644969
30
0
41
1
10
106.637321018107
20
3.96329182072787
30
0
41
1
10
106.650994841383
20
3.98793359834397
30
0
41
1
10
106.65638103138
20
3.99832082491975
30
0
41
1
10
106.660502672991
20
4.00669414191702
30
0
41
1
10
106.663500106865
20
4.01300380858214
30
0
41
1
10
106.666403601263
20
4.01934106521321
30
0
41
1
10
106.66874477858
20
4.02464336325139
30
0
41
1
10
106.671483523541
20
4.03102367994489
30
0
41
1
10
106.675009457051
20
4.03956059232019
30
0
41
1
10
106.6812071097
20
4.05565145247908
30
0
41
1
10
106.691448968771
20
4.08589851239884
30
0
41
1
10
106.702265760424
20
4.12937661615985
30
0
41
1
10
106.707721667683
20
4.16810676075528
30
0
41
1
10
106.70939419294
20
4.19109913319824
30
0
41
1
10
106.709754322796
20
4.19720178079868
30
0
41
1
10
106.709855572926
20
4.19899080476085
30
0
0
SPLINE
5
1EC
100
AcDbEntity
8
1
62
256
6
ByLayer
370
-1
48
1
60
0
100
AcDbSpline
70
4
71
3
72
12
73
8
40
0
40
0
40
0
40
0
40
0.0366937705554811
40
0.110794249743521
40
0.407196166495681
40
0.70359808324784
40
1
40
1
40
1
40
1
41
1
10
100.172347536853
20
3.50368968714111
30
0
41
1
10
100.208439431667
20
3.50496328205537
30
0
41
1
10
100.317413803729
20
3.50876815457329
30
0
41
1
10
100.717926054329
20
3.52282488794344
30
0
41
1
10
101.373880845806
20
3.54580513101837
30
0
41
1
10
102.248488632363
20
3.57646768814647
30
0
41
1
10
102.831560325607
20
3.59690677724814
30
0
41
1
10
103.123096172229
20
3.60712632179897
30
0
0
SPLINE
5
1ED
100
AcDbEntity
8
1
62
256
6
ByLayer
370
-1
48
1
60
0
100
AcDbSpline
70
4
71
3
72
8
73
4
40
0
40
0
40
0
40
0
40
1
40
1
40
1
40
1
41
1
10
100.172347515291
20
3.50369030284165
30
0
41
1
10
100.160342649299
20
3.5032694823345
30
0
41
1
10
100.148337019736
20
3.50287061117732
30
0
41
1
10
100.13633070626
20
3.50249369201663
30
0
0
SPLINE
5
1EE
100
AcDbEntity
8
1
62
256
6
ByLayer
370
-1
48
1
60
0
100
AcDbSpline
70
4
71
3
72
8
73
4
40
0
40
0
40
0
40
0
40
1
40
1
40
1
40
1
41
1
10
99.8839104552356
20
10.7584718136356
30
0
41
1
10
99.8959137528832
20
10.7589365315342
30
0
41
1
10
99.9079178937559
20
10.75937930288
30
0
41
1
10
99.9199227982051
20
10.7598001247352
30
0
0
SPLINE
5
1EF
100
AcDbEntity
8
1
62
256
6
ByLayer
370
-1
48
1
60
0
100
AcDbSpline
70
4
71
3
72
12
73
8
40
0
40
0
40
0
40
0
40
0.126690309034512
40
0.323314059973644
40
0.716561561851909
40
0.913185312791041
40
1
40
1
40
1
40
1
41
1
10
106.714813727107
20
4.29391547581767
30
0
41
1
10
106.714957795202
20
4.29685958495912
30
0
41
1
10
106.71530956657
20
4.30437716284013
30
0
41
1
10
106.715895060183
20
4.32103977999958
30
0
41
1
10
106.716023948886
20
4.33935109676545
30
0
41
1
10
106.715672867452
20
4.35509183291046
30
0
41
1
10
106.71547572713
20
4.36168371800406
30
0
41
1
10
106.71541242284
20
4.36370269211196
30
0
0
SPLINE
5
1F0
100
AcDbEntity
8
1
62
256
6
ByLayer
370
-1
48
1
60
0
100
AcDbSpline
70
4
71
3
72
14
73
10
40
0
40
0
40
0
40
0
40
0.012844305860471
40
0.0848398580566946
40
0.228830962449142
40
0.372822066841589
40
0.660804275626483
40
0.948786484411378
40
1
40
1
40
1
40
1
41
1
10
99.283912054444
20
10.2713716607187
30
0
41
1
10
99.2838900686411
20
10.2709831858777
30
0
41
1
10
99.2837459721393
20
10.2684134601378
30
0
41
1
10
99.2833739537519
20
10.2614120065633
30
0
41
1
10
99.282778893317
20
10.2500371901428
30
0
41
1
10
99.2818183288129
20
10.231526824218
30
0
41
1
10
99.2806251975984
20
10.2086667504458
30
0
41
1
10
99.2795727071038
20
10.1888325141628
30
0
41
1
10
99.2790334262977
20
10.1780721470137
30
0
41
1
10
99.2789539002642
20
10.1764469896739
30
0
0
SPLINE
5
1F1
100
AcDbEntity
8
1
62
256
6
ByLayer
370
-1
48
1
60
0
100
AcDbSpline
70
4
71
3
72
8
73
4
40
0
40
0
40
0
40
0
40
1
40
1
40
1
40
1
41
1
10
106.109857172136
20
3.71189065185598
30
0
41
1
10
106.097853874488
20
3.7114259339574
30
0
41
1
10
106.085849733615
20
3.71098316261154
30
0
41
1
10
106.073844829166
20
3.7105623407563
30
0
0
SPLINE
5
1F2
100
AcDbEntity
8
1
62
256
6
ByLayer
370
-1
48
1
60
0
100
AcDbSpline
70
4
71
3
72
8
73
4
40
0
40
0
40
0
40
0
40
1
40
1
40
1
40
1
41
1
10
105.82142011208
20
10.9666721626499
30
0
41
1
10
105.833424978072
20
10.9670929831571
30
0
41
1
10
105.845430607635
20
10.9674918543143
30
0
41
1
10
105.857436921111
20
10.9678687734749
30
0
0
SPLINE
5
1F3
100
AcDbEntity
8
1
62
256
6
ByLayer
370
-1
48
1
60
0
100
AcDbSpline
70
4
71
3
72
41
73
37
40
0
40
0
40
0
40
0
40
0.0080831369865705
40
0.0179214742470196
40
0.0277598115074686
40
0.0671131605492646
40
0.106466509591061
40
0.185173207674653
40
0.224526556716449
40
0.244203231237347
40
0.25896073712802
40
0.263879905758245
40
0.273718243018694
40
0.283556580279143
40
0.293394917539592
40
0.303233254800041
40
0.322909929320939
40
0.342586603841837
40
0.421293301925429
40
0.500000000009021
40
0.578706698092613
40
0.657413396176205
40
0.677090070697103
40
0.696766745218001
40
0.70660508247845
40
0.716443419738899
40
0.726281756999348
40
0.736120094259797
40
0.741039262890022
40
0.755796768780695
40
0.775473443301594
40
0.81482679234339
40
0.893533490426982
40
0.972240188510574
40
0.991916863031472
40
1
40
1
40
1
40
1
41
1
10
106.48982296234
20
10.523968822975
30
0
41
1
10
106.489597637733
20
10.5257463991377
30
0
41
1
10
106.489091926022
20
10.5296603339915
30
0
41
1
10
106.488264504973
20
10.5356501207053
30
0
41
1
10
106.486363522875
20
10.5483121012852
30
0
41
1
10
106.482836752988
20
10.5673794664734
30
0
41
1
10
106.474651720483
20
10.6014049279609
30
0
41
1
10
106.463602295943
20
10.635496743815
30
0
41
1
10
106.451283486199
20
10.6649529584142
30
0
41
1
10
106.443982760285
20
10.6805706442356
30
0
41
1
10
106.439872176945
20
10.6888398649186
30
0
41
1
10
106.436696728654
20
10.6950128645287
30
0
41
1
10
106.433992792179
20
10.7001383103349
30
0
41
1
10
106.430655988061
20
10.7062568185362
30
0
41
1
10
106.427227390554
20
10.7123412260616
30
0
41
1
10
106.422533918638
20
10.7204055366487
30
0
41
1
10
106.416439030063
20
10.730390303646
30
0
41
1
10
106.401086133043
20
10.7540145739309
30
0
41
1
10
106.375354638374
20
10.7880546553844
30
0
41
1
10
106.335906898117
20
10.8295226648502
30
0
41
1
10
106.291945581287
20
10.8661319671826
30
0
41
1
10
106.25632269868
20
10.8895243158746
30
0
41
1
10
106.231774690468
20
10.903250370934
30
0
41
1
10
106.221426990425
20
10.9086571353018
30
0
41
1
10
106.213085536427
20
10.9127945209144
30
0
41
1
10
106.206799879948
20
10.9158034044986
30
0
41
1
10
106.200486738492
20
10.9187179897735
30
0
41
1
10
106.195204617299
20
10.9210681100076
30
0
41
1
10
106.188848579636
20
10.92381731653
30
0
41
1
10
106.18034415279
20
10.9273567185327
30
0
41
1
10
106.164314523212
20
10.9335780452077
30
0
41
1
10
106.134182562487
20
10.943859026517
30
0
41
1
10
106.090869906037
20
10.9547171365569
30
0
41
1
10
106.052287141335
20
10.9601938844948
30
0
41
1
10
106.029382261811
20
10.9618727985275
30
0
41
1
10
106.023302836627
20
10.9622343040207
30
0
41
1
10
106.021520620441
20
10.96233594091
30
0
0
SPLINE
5
1F4
100
AcDbEntity
8
1
62
256
6
ByLayer
370
-1
48
1
60
0
100
AcDbSpline
70
4
71
3
72
12
73
8
40
0
40
0
40
0
40
0
40
0.126690309034519
40
0.323314059973644
40
0.716561561851896
40
0.913185312791021
40
1
40
1
40
1
40
1
41
1
10
99.2789539002642
20
10.1764469896739
30
0
41
1
10
99.2788098321691
20
10.1735028805324
30
0
41
1
10
99.278458060801
20
10.1659853026514
30
0
41
1
10
99.2778725671875
20
10.149322685492
30
0
41
1
10
99.2777436784846
20
10.1310113687261
30
0
41
1
10
99.2780947599185
20
10.1152706325811
30
0
41
1
10
99.2782919002406
20
10.1086787474875
30
0
41
1
10
99.278355204531
20
10.1066597733796
30
0
0
SPLINE
5
1F5
100
AcDbEntity
8
1
62
256
6
ByLayer
370
-1
48
1
60
0
100
AcDbSpline
70
4
71
3
72
15
73
11
40
0
40
0
40
0
40
0
40
0.051213515573823
40
0.195204619948479
40
0.339195724323135
40
0.627177933072448
40
0.771169037447104
40
0.915160141821761
40
0.987155694009089
40
1
40
1
40
1
40
1
41
1
10
106.501365451802
20
10.4296225681524
30
0
41
1
10
106.501173185634
20
10.4312381980443
30
0
41
1
10
106.500433265548
20
10.4373938930047
30
0
41
1
10
106.499131700948
20
10.44806987894
30
0
41
1
10
106.496903482352
20
10.4661909823129
30
0
41
1
10
106.494680446461
20
10.4843676553012
30
0
41
1
10
106.492435917463
20
10.5027656693618
30
0
41
1
10
106.491051858864
20
10.5140711094247
30
0
41
1
10
106.490194208479
20
10.5210294579959
30
0
41
1
10
106.489871890102
20
10.5235828339575
30
0
41
1
10
106.489822962338
20
10.5239688229869
30
0
0
SPLINE
5
1F6
100
AcDbEntity
8
1
62
256
6
ByLayer
370
-1
48
1
60
0
100
AcDbSpline
70
4
71
3
72
14
73
10
40
0
40
0
40
0
40
0
40
0.0868146872093113
40
0.283438438145925
40
0.480062189082539
40
0.676685940019153
40
0.873309690955767
40
0.971621566424074
40
1
40
1
40
1
40
1
41
1
10
106.109858794675
20
3.71184541528669
30
0
41
1
10
106.111869602457
20
3.7119228604937
30
0
41
1
10
106.118434158854
20
3.71218527584534
30
0
41
1
10
106.129548911582
20
3.71271483383853
30
0
41
1
10
106.143195394288
20
3.71363492944766
30
0
41
1
10
106.156822003371
20
3.71481794939857
30
0
41
1
10
106.168153263394
20
3.71601750082783
30
0
41
1
10
106.175600044768
20
3.71688646017907
30
0
41
1
10
106.178516220437
20
3.71723472599462
30
0
41
1
10
106.179169335383
20
3.71731304409801
30
0
0
SPLINE
5
1F7
100
AcDbEntity
8
1
62
256
6
ByLayer
370
-1
48
1
60
0
100
AcDbSpline
70
4
71
3
72
8
73
4
40
0
40
0
40
0
40
0
40
1
40
1
40
1
40
1
41
1
10
99.4870004171665
20
4.11031682178978
30
0
41
1
10
99.4865374676598
20
4.12236597008436
30
0
41
1
10
99.4860963811927
20
4.13441596482514
30
0
41
1
10
99.4856771606916
20
4.14646672605906
30
0
0
SPLINE
5
1F8
100
AcDbEntity
8
1
62
256
6
ByLayer
370
-1
48
1
60
0
100
AcDbSpline
70
4
71
3
72
14
73
10
40
0
40
0
40
0
40
0
40
0.0868146872096233
40
0.283438438146184
40
0.480062189082746
40
0.676685940019307
40
0.873309690955868
40
0.971621566424148
40
1
40
1
40
1
40
1
41
1
10
99.8839088326959
20
10.7585170502049
30
0
41
1
10
99.8818980249145
20
10.7584396049979
30
0
41
1
10
99.8753334685172
20
10.7581771896462
30
0
41
1
10
99.8642187157889
20
10.757647631653
30
0
41
1
10
99.8505722330827
20
10.7567275360439
30
0
41
1
10
99.8369456240004
20
10.755544516093
30
0
41
1
10
99.8256143639768
20
10.7543449646637
30
0
41
1
10
99.8181675826027
20
10.7534760053125
30
0
41
1
10
99.8152514069341
20
10.7531277394969
30
0
41
1
10
99.8145982919883
20
10.7530494213935
30
0
0
SPLINE
5
1F9
100
AcDbEntity
8
1
62
256
6
ByLayer
370
-1
48
1
60
0
100
AcDbSpline
70
4
71
3
72
77
73
73
40
0
40
0
40
0
40
0
40
0.125
40
0.25
40
0.375
40
0.40625
40
0.421875
40
0.423828125
40
0.42578125
40
0.427734375
40
0.4296875
40
0.43359375
40
0.435546875
40
0.4375
40
0.44140625
40
0.4453125
40
0.447265625
40
0.44921875
40
0.4501953125
40
0.451171875
40
0.453125
40
0.4609375
40
0.46875
40
0.47265625
40
0.474609375
40
0.47607421875
40
0.4765625
40
0.4775390625
40
0.478515625
40
0.4794921875
40
0.48046875
40
0.482421875
40
0.484375
40
0.4921875
40
0.5
40
0.5078125
40
0.515625
40
0.517578125
40
0.51953125
40
0.5205078125
40
0.521484375
40
0.5224609375
40
0.5234375
40
0.52392578125
40
0.525390625
40
0.52734375
40
0.53125
40
0.5390625
40
0.54296875
40
0.546875
40
0.5478515625
40
0.548828125
40
0.5498046875
40
0.55078125
40
0.552734375
40
0.5546875
40
0.55859375
40
0.560546875
40
0.5625
40
0.5634765625
40
0.564453125
40
0.56640625
40
0.568359375
40
0.5703125
40
0.572265625
40
0.57421875
40
0.578125
40
0.59375
40
0.625
40
0.75
40
0.875
40
1
40
1
40
1
40
1
41
1
10
100.271782257929
20
7.14024747862695
30
0
41
1
10
100.263994478506
20
7.36411217546032
30
0
41
1
10
100.24841891966
20
7.81184156912704
30
0
41
1
10
100.22505558139
20
8.48343565962713
30
0
41
1
10
100.207533077688
20
8.98713122750223
30
0
41
1
10
100.196824880981
20
9.29494518564809
30
0
41
1
10
100.193782779643
20
9.38239233284864
30
0
41
1
10
100.192565939109
20
9.41737119172885
30
0
41
1
10
100.192200886948
20
9.4278648493929
30
0
41
1
10
100.191835834788
20
9.43835850705699
30
0
41
1
10
100.191349098574
20
9.45235005060906
30
0
41
1
10
100.19086236236
20
9.46634159416115
30
0
41
1
10
100.190375626146
20
9.48033313771325
30
0
41
1
10
100.189888889932
20
9.49432468126531
30
0
41
1
10
100.189280469664
20
9.51181411070542
30
0
41
1
10
100.188671551832
20
9.52930334889808
30
0
41
1
10
100.18818382049
20
9.5432945099553
30
0
41
1
10
100.187878677423
20
9.55203886608638
30
0
41
1
10
100.187634339065
20
9.55903426492992
30
0
41
1
10
100.187389838999
20
9.56602960161803
30
0
41
1
10
100.186716745458
20
9.58526650139683
30
0
41
1
10
100.185610841584
20
9.61674334344428
30
0
41
1
10
100.184403554287
20
9.6517258742754
30
0
41
1
10
100.183585202245
20
9.67622392731965
30
0
41
1
10
100.183130678277
20
9.68934168789053
30
0
41
1
10
100.182872383236
20
9.69633172224329
30
0
41
1
10
100.18266836237
20
9.70157028918584
30
0
41
1
10
100.182491180054
20
9.70593300767479
30
0
41
1
10
100.182338979395
20
9.71102843662666
30
0
41
1
10
100.182319078865
20
9.71584860544988
30
0
41
1
10
100.182488256536
20
9.72216589026803
30
0
41
1
10
100.183102897219
20
9.73033962056437
30
0
41
1
10
100.18594687652
20
9.75045018300895
30
0
41
1
10
100.195641134764
20
9.78099260839227
30
0
41
1
10
100.220852591778
20
9.81794144511974
30
0
41
1
10
100.255812501677
20
9.84576497792997
30
0
41
1
10
100.28548834994
20
9.85760309362962
30
0
41
1
10
100.305275197752
20
9.86185382413666
30
0
41
1
10
100.31335511434
20
9.86303948029803
30
0
41
1
10
100.319621228715
20
9.86364956202988
30
0
41
1
10
100.324412746523
20
9.8639658721246
30
0
41
1
10
100.329487037834
20
9.86416890140967
30
0
41
1
10
100.333834927553
20
9.86429580339922
30
0
41
1
10
100.339055079616
20
9.86445692604744
30
0
41
1
10
100.346019569951
20
9.86468587610608
30
0
41
1
10
100.359087286861
20
9.86514577607758
30
0
41
1
10
100.38348975383
20
9.86603519693716
30
0
41
1
10
100.411368742973
20
9.86702024588121
30
0
41
1
10
100.439243705515
20
9.86799203443402
30
0
41
1
10
100.454922896583
20
9.86853710003217
30
0
41
1
10
100.465375923649
20
9.86890124448132
30
0
41
1
10
100.470602480873
20
9.86908346059036
30
0
41
1
10
100.475829078876
20
9.86926581099155
30
0
41
1
10
100.482797926701
20
9.86950911112629
30
0
41
1
10
100.491509073866
20
9.8698135240636
30
0
41
1
10
100.505447064676
20
9.87030109635248
30
0
41
1
10
100.519385241903
20
9.87078928254837
30
0
41
1
10
100.533323512338
20
9.87127777569776
30
0
41
1
10
100.542034950779
20
9.87158314786475
30
0
41
1
10
100.549004101531
20
9.87182744559837
30
0
41
1
10
100.555973252283
20
9.87207174333199
30
0
41
1
10
100.564684690724
20
9.87237711549901
30
0
41
1
10
100.575138416852
20
9.8727435620994
30
0
41
1
10
100.585592142981
20
9.87311000869983
30
0
41
1
10
100.596045869109
20
9.87347645530022
30
0
41
1
10
100.609984170614
20
9.87396505076745
30
0
41
1
10
100.648314499752
20
9.87530868830228
30
0
41
1
10
100.738913459532
20
9.8784845588392
30
0
41
1
10
101.045556092636
20
9.88923365911796
30
0
41
1
10
101.547334946806
20
9.90682309593774
30
0
41
1
10
102.216373419031
20
9.9302756783641
30
0
41
1
10
102.662399067182
20
9.94591073331503
30
0
41
1
10
102.885411891257
20
9.95372826079048
30
0
0
SPLINE
5
1FA
100
AcDbEntity
8
1
62
256
6
ByLayer
370
-1
48
1
60
0
100
AcDbSpline
70
4
71
3
72
41
73
37
40
0
40
0
40
0
40
0
40
0.0080831369865694
40
0.0179214742470185
40
0.0277598115074675
40
0.0671131605492636
40
0.10646650959106
40
0.185173207674652
40
0.224526556716448
40
0.244203231237346
40
0.258960737128019
40
0.263879905758244
40
0.273718243018693
40
0.283556580279142
40
0.293394917539591
40
0.30323325480004
40
0.322909929320938
40
0.342586603841836
40
0.421293301925428
40
0.500000000009021
40
0.578706698092613
40
0.657413396176205
40
0.677090070697103
40
0.696766745218001
40
0.70660508247845
40
0.716443419738899
40
0.726281756999348
40
0.736120094259797
40
0.741039262890022
40
0.755796768780696
40
0.775473443301594
40
0.81482679234339
40
0.893533490426982
40
0.972240188510574
40
0.991916863031472
40
1
40
1
40
1
40
1
41
1
10
99.5039446650314
20
3.94639364251657
30
0
41
1
10
99.5041699896384
20
3.94461606635383
30
0
41
1
10
99.5046757013494
20
3.94070213150002
30
0
41
1
10
99.5055031223976
20
3.93471234478625
30
0
41
1
10
99.5074041044961
20
3.92205036420637
30
0
41
1
10
99.5109308743828
20
3.90298299901812
30
0
41
1
10
99.5191159068882
20
3.8689575375306
30
0
41
1
10
99.5301653314279
20
3.83486572167658
30
0
41
1
10
99.5424841411726
20
3.80540950707731
30
0
41
1
10
99.5497848670858
20
3.78979182125593
30
0
41
1
10
99.5538954504265
20
3.781522600573
30
0
41
1
10
99.5570708987173
20
3.77534960096287
30
0
41
1
10
99.5597748351925
20
3.77022415515663
30
0
41
1
10
99.5631116393102
20
3.76410564695539
30
0
41
1
10
99.5665402368169
20
3.75802123942989
30
0
41
1
10
99.5712337087331
20
3.74995692884284
30
0
41
1
10
99.5773285973083
20
3.7399721618456
30
0
41
1
10
99.5926814943283
20
3.71634789156065
30
0
41
1
10
99.6184129889967
20
3.68230781010718
30
0
41
1
10
99.6578607292546
20
3.64083980064137
30
0
41
1
10
99.7018220460842
20
3.60423049830897
30
0
41
1
10
99.7374449286908
20
3.58083814961694
30
0
41
1
10
99.7619929369035
20
3.5671120945575
30
0
41
1
10
99.7723406369461
20
3.56170533018977
30
0
41
1
10
99.7806820909443
20
3.55756794457719
30
0
41
1
10
99.7869677474228
20
3.55455906099292
30
0
41
1
10
99.7932808888791
20
3.55164447571809
30
0
41
1
10
99.7985630100725
20
3.54929435548394
30
0
41
1
10
99.8049190477347
20
3.54654514896157
30
0
41
1
10
99.813423474581
20
3.5430057469589
30
0
41
1
10
99.829453104159
20
3.53678442028382
30
0
41
1
10
99.859585064884
20
3.52650343897451
30
0
41
1
10
99.9028977213337
20
3.51564532893465
30
0
41
1
10
99.9414804860361
20
3.51016858099675
30
0
41
1
10
99.9643853655603
20
3.50848966696407
30
0
41
1
10
99.9704647907442
20
3.50812816147086
30
0
41
1
10
99.97224700693
20
3.5080265245816
30
0
0
SPLINE
5
1FB
100
AcDbEntity
8
1
62
256
6
ByLayer
370
-1
48
1
60
0
100
AcDbSpline
70
4
71
3
72
12
73
8
40
0
40
0
40
0
40
0
40
0.29640191675216
40
0.59280383350432
40
0.88920575025648
40
0.963306229444519
40
1
40
1
40
1
40
1
41
1
10
106.611132880356
20
7.36187570199436
30
0
41
1
10
106.600952224258
20
7.65452516818826
30
0
41
1
10
106.580590912061
20
8.23982410057607
30
0
41
1
10
106.550052825582
20
9.11777301987678
30
0
41
1
10
106.527132763004
20
9.77623249629653
30
0
41
1
10
106.51316357277
20
10.1782758323285
30
0
41
1
10
106.509343065466
20
10.2876654131854
30
0
41
1
10
106.508091080047
20
10.3238957607904
30
0
0
SPLINE
5
1FC
100
AcDbEntity
8
1
62
256
6
ByLayer
370
-1
48
1
60
0
100
AcDbSpline
70
4
71
3
72
14
73
10
40
0
40
0
40
0
40
0
40
0.0128443058606995
40
0.0848398580569193
40
0.228830962449359
40
0.372822066841798
40
0.660804275626678
40
0.948786484411557
40
1
40
1
40
1
40
1
41
1
10
99.9722470069419
20
3.50802652458091
30
0
41
1
10
99.9726340035188
20
3.50800445479581
30
0
41
1
10
99.9751939506766
20
3.50785980786884
30
0
41
1
10
99.9821687616065
20
3.50748636843161
30
0
41
1
10
99.9935002934162
20
3.50688903496251
30
0
41
1
10
100.01194022181
20
3.505924801258
30
0
41
1
10
100.0347133061
20
3.5047271124761
30
0
41
1
10
100.054472067126
20
3.50367060163885
30
0
41
1
10
100.065191487829
20
3.50312926086764
30
0
41
1
10
100.066810460955
20
3.50304943105763
30
0
0
SPLINE
5
1FD
100
AcDbEntity
8
1
62
256
6
ByLayer
370
-1
48
1
60
0
100
AcDbSpline
70
4
71
3
72
36
73
32
40
0
40
0
40
0
40
0
40
0.015625
40
0.0234375
40
0.03125
40
0.03515625
40
0.0390625
40
0.046875
40
0.0625
40
0.125
40
0.1875
40
0.203125
40
0.21875
40
0.25
40
0.3125
40
0.375
40
0.4375
40
0.5
40
0.53125
40
0.546875
40
0.5625
40
0.625
40
0.65625
40
0.6875
40
0.75
40
0.8125
40
0.84375
40
0.859375
40
0.875
40
0.9375
40
1
40
1
40
1
40
1
41
1
10
100.271782257929
20
7.14024747862695
30
0
41
1
10
100.266835476764
20
7.14007407336274
30
0
41
1
10
100.25933645539
20
7.13980772474523
30
0
41
1
10
100.250238896457
20
7.13947724122397
30
0
41
1
10
100.245144544325
20
7.13928885090778
30
0
41
1
10
100.241332260235
20
7.13914633573825
30
0
41
1
10
100.237450580093
20
7.139001331423
30
0
41
1
10
100.230700857429
20
7.13874930688917
30
0
41
1
10
100.209440978722
20
7.13795536655948
30
0
41
1
10
100.174670424188
20
7.13665695765289
30
0
41
1
10
100.139919125599
20
7.13535918216309
30
0
41
1
10
100.116704602987
20
7.13449234030361
30
0
41
1
10
100.101368775626
20
7.13391950742482
30
0
41
1
10
100.073707728328
20
7.13289182363241
30
0
41
1
10
100.031559767262
20
7.13134050450074
30
0
41
1
10
99.9776236678859
20
7.12937774117219
30
0
41
1
10
99.9210759983331
20
7.12734139102997
30
0
41
1
10
99.8724957915308
20
7.12560862266932
30
0
41
1
10
99.8382888240966
20
7.12439697992664
30
0
41
1
10
99.8184423738425
20
7.1236961413733
30
0
41
1
10
99.7886544771643
20
7.1226438320669
30
0
41
1
10
99.7538827189429
20
7.12141556510593
30
0
41
1
10
99.7141277263829
20
7.12001122828221
30
0
41
1
10
99.674458795371
20
7.11861014468084
30
0
41
1
10
99.6241749388486
20
7.11684538844216
30
0
41
1
10
99.573607817184
20
7.11508377095387
30
0
41
1
10
99.5383688661078
20
7.11386310365791
30
0
41
1
10
99.5182891807673
20
7.11316962986865
30
0
41
1
10
99.4881604682068
20
7.11212974719797
30
0
41
1
10
99.4429297857508
20
7.11056822601526
30
0
41
1
10
99.40273309326
20
7.10918058433654
30
0
41
1
10
99.3826347470146
20
7.10848676349721
30
0
0
SPLINE
5
1FE
100
AcDbEntity
8
1
62
256
6
ByLayer
370
-1
48
1
60
0
100
AcDbSpline
70
4
71
3
72
8
73
4
40
0
40
0
40
0
40
0
40
1
40
1
40
1
40
1
41
1
10
99.2795923333376
20
10.0705068009353
30
0
41
1
10
99.2791731141795
20
10.0825575235649
30
0
41
1
10
99.2787757608475
20
10.0946090126827
30
0
41
1
10
99.278400275978
20
10.1066611883262
30
0
0
SPLINE
5
1FF
100
AcDbEntity
8
1
62
256
6
ByLayer
370
-1
48
1
60
0
100
AcDbSpline
70
4
71
3
72
36
73
32
40
0
40
0
40
0
40
0
40
0.0625
40
0.125
40
0.140625
40
0.15625
40
0.1875
40
0.25
40
0.3125
40
0.34375
40
0.375
40
0.4375
40
0.453125
40
0.46875
40
0.5
40
0.5625
40
0.625
40
0.6875
40
0.75
40
0.78125
40
0.796875
40
0.8125
40
0.875
40
0.9375
40
0.953125
40
0.9609375
40
0.96484375
40
0.96875
40
0.9765625
40
0.984375
40
1
40
1
40
1
40
1
41
1
10
102.870671455142
20
10.8632361436926
30
0
41
1
10
102.871668158113
20
10.8433677144039
30
0
41
1
10
102.873661564053
20
10.8036308558266
30
0
41
1
10
102.875901867859
20
10.7589147397315
30
0
41
1
10
102.877401478069
20
10.7291363961897
30
0
41
1
10
102.878389074801
20
10.7092779051154
30
0
41
1
10
102.880021725918
20
10.6743225672541
30
0
41
1
10
102.882089599737
20
10.6238764426722
30
0
41
1
10
102.883787795196
20
10.5733404360383
30
0
41
1
10
102.884883368888
20
10.5332186511587
30
0
41
1
10
102.885975439375
20
10.4930037061801
30
0
41
1
10
102.886931670584
20
10.4578307423872
30
0
41
1
10
102.887748346097
20
10.427696546557
30
0
41
1
10
102.888299947767
20
10.4076271562328
30
0
41
1
10
102.889149071022
20
10.3729302477655
30
0
41
1
10
102.890024277878
20
10.3233102541093
30
0
41
1
10
102.890509010439
20
10.2649968156634
30
0
41
1
10
102.890408097939
20
10.2087906278527
30
0
41
1
10
102.889846553932
20
10.1643666602762
30
0
41
1
10
102.889214347281
20
10.1349376469015
30
0
41
1
10
102.888779461677
20
10.1185338594957
30
0
41
1
10
102.88812888391
20
10.0937107564512
30
0
41
1
10
102.887151009993
20
10.0565473288215
30
0
41
1
10
102.886174953368
20
10.0193657625074
30
0
41
1
10
102.8855767902
20
9.99663028613438
30
0
41
1
10
102.885388002995
20
9.98941324775046
30
0
41
1
10
102.885277556428
20
9.98526086745218
30
0
41
1
10
102.885166242703
20
9.98117976696057
30
0
41
1
10
102.885074004274
20
9.97578497415014
30
0
41
1
10
102.885072991973
20
9.96632116432991
30
0
41
1
10
102.885239145853
20
9.95869393785668
30
0
41
1
10
102.885411891257
20
9.95372826079048
30
0
0
SPLINE
5
200
100
AcDbEntity
8
1
62
256
6
ByLayer
370
-1
48
1
60
0
100
AcDbSpline
70
4
71
3
72
12
73
8
40
0
40
0
40
0
40
0
40
0.29640191675216
40
0.59280383350432
40
0.88920575025648
40
0.96330622944452
40
1
40
1
40
1
40
1
41
1
10
99.3826347470146
20
7.10848676349721
30
0
41
1
10
99.392815403113
20
6.81583729730329
30
0
41
1
10
99.41317671531
20
6.2305383649155
30
0
41
1
10
99.4437148017892
20
5.35258944561477
30
0
41
1
10
99.4666348643673
20
4.69412996919502
30
0
41
1
10
99.4806040546014
20
4.29208663316308
30
0
41
1
10
99.4844245619045
20
4.18269705230614
30
0
41
1
10
99.485676547324
20
4.14646670470111
30
0
0
SPLINE
5
201
100
AcDbEntity
8
1
62
256
6
ByLayer
370
-1
48
1
60
0
100
AcDbSpline
70
4
71
3
72
77
73
73
40
0
40
0
40
0
40
0
40
0.125
40
0.25
40
0.375
40
0.40625
40
0.421875
40
0.423828125
40
0.42578125
40
0.427734375
40
0.4296875
40
0.43359375
40
0.435546875
40
0.4375
40
0.44140625
40
0.4453125
40
0.447265625
40
0.44921875
40
0.4501953125
40
0.451171875
40
0.453125
40
0.4609375
40
0.46875
40
0.47265625
40
0.474609375
40
0.47607421875
40
0.4765625
40
0.4775390625
40
0.478515625
40
0.4794921875
40
0.48046875
40
0.482421875
40
0.484375
40
0.4921875
40
0.5
40
0.5078125
40
0.515625
40
0.517578125
40
0.51953125
40
0.5205078125
40
0.521484375
40
0.5224609375
40
0.5234375
40
0.52392578125
40
0.525390625
40
0.52734375
40
0.53125
40
0.5390625
40
0.54296875
40
0.546875
40
0.5478515625
40
0.548828125
40
0.5498046875
40
0.55078125
40
0.552734375
40
0.5546875
40
0.55859375
40
0.560546875
40
0.5625
40
0.5634765625
40
0.564453125
40
0.56640625
40
0.568359375
40
0.5703125
40
0.572265625
40
0.57421875
40
0.578125
40
0.59375
40
0.625
40
0.75
40
0.875
40
1
40
1
40
1
40
1
41
1
10
105.688186529632
20
7.3301149868646
30
0
41
1
10
105.695974309055
20
7.10625029003126
30
0
41
1
10
105.711549867901
20
6.65852089636451
30
0
41
1
10
105.734913206171
20
5.98692680586441
30
0
41
1
10
105.752435709873
20
5.48323123798934
30
0
41
1
10
105.76314390658
20
5.17541727984346
30
0
41
1
10
105.766186007918
20
5.08797013264291
30
0
41
1
10
105.767402848453
20
5.0529912737627
30
0
41
1
10
105.767767900613
20
5.04249761609864
30
0
41
1
10
105.768132952773
20
5.03200395843459
30
0
41
1
10
105.768619688987
20
5.01801241488249
30
0
41
1
10
105.769106425201
20
5.0040208713304
30
0
41
1
10
105.769593161415
20
4.99002932777833
30
0
41
1
10
105.770079897629
20
4.97603778422624
30
0
41
1
10
105.770688317897
20
4.95854835478613
30
0
41
1
10
105.771297235729
20
4.94105911659346
30
0
41
1
10
105.771784967071
20
4.92706795553627
30
0
41
1
10
105.772090110139
20
4.91832359940517
30
0
41
1
10
105.772334448496
20
4.91132820056163
30
0
41
1
10
105.772578948562
20
4.90433286387352
30
0
41
1
10
105.773252042103
20
4.88509596409472
30
0
41
1
10
105.774357945977
20
4.85361912204726
30
0
41
1
10
105.775565233274
20
4.81863659121618
30
0
41
1
10
105.776383585316
20
4.79413853817189
30
0
41
1
10
105.776838109284
20
4.78102077760104
30
0
41
1
10
105.777096404326
20
4.77403074324826
30
0
41
1
10
105.777300425191
20
4.76879217630571
30
0
41
1
10
105.777477607508
20
4.76442945781679
30
0
41
1
10
105.777629808166
20
4.75933402886491
30
0
41
1
10
105.777649708696
20
4.75451386004167
30
0
41
1
10
105.777480531026
20
4.74819657522352
30
0
41
1
10
105.776865890342
20
4.74002284492718
30
0
41
1
10
105.774021911041
20
4.7199122824826
30
0
41
1
10
105.764327652797
20
4.68936985709931
30
0
41
1
10
105.739116195783
20
4.6524210203718
30
0
41
1
10
105.704156285885
20
4.6245974875616
30
0
41
1
10
105.674480437621
20
4.61275937186193
30
0
41
1
10
105.654693589809
20
4.60850864135489
30
0
41
1
10
105.646613673221
20
4.60732298519352
30
0
41
1
10
105.640347558847
20
4.6067129034617
30
0
41
1
10
105.635556041038
20
4.60639659336695
30
0
41
1
10
105.630481749727
20
4.60619356408188
30
0
41
1
10
105.626133860009
20
4.60606666209233
30
0
41
1
10
105.620913707945
20
4.60590553944411
30
0
41
1
10
105.613949217611
20
4.6056765893855
30
0
41
1
10
105.6008815007
20
4.60521668941396
30
0
41
1
10
105.576479033732
20
4.60432726855438
30
0
41
1
10
105.548600044588
20
4.60334221961037
30
0
41
1
10
105.520725082046
20
4.60237043105752
30
0
41
1
10
105.505045890978
20
4.6018253654594
30
0
41
1
10
105.494592863912
20
4.60146122101023
30
0
41
1
10
105.489366306688
20
4.60127900490119
30
0
41
1
10
105.484139708685
20
4.6010966545
30
0
41
1
10
105.47717086086
20
4.60085335436529
30
0
41
1
10
105.468459713695
20
4.60054894142795
30
0
41
1
10
105.454521722885
20
4.60006136913907
30
0
41
1
10
105.440583545658
20
4.59957318294317
30
0
41
1
10
105.426645275223
20
4.59908468979378
30
0
41
1
10
105.417933836783
20
4.59877931762679
30
0
41
1
10
105.41096468603
20
4.59853501989318
30
0
41
1
10
105.403995535278
20
4.59829072215956
30
0
41
1
10
105.395284096838
20
4.59798534999257
30
0
41
1
10
105.384830370709
20
4.59761890339215
30
0
41
1
10
105.37437664458
20
4.59725245679172
30
0
41
1
10
105.363922918452
20
4.59688601019133
30
0
41
1
10
105.349984616947
20
4.59639741472409
30
0
41
1
10
105.311654287809
20
4.59505377718926
30
0
41
1
10
105.221055328029
20
4.59187790665237
30
0
41
1
10
104.914412694925
20
4.58112880637361
30
0
41
1
10
104.412633840756
20
4.56353936955381
30
0
41
1
10
103.74359536853
20
4.54008678712745
30
0
41
1
10
103.297569720379
20
4.52445173217652
30
0
41
1
10
103.074556896304
20
4.51663420470106
30
0
0
SPLINE
5
202
100
AcDbEntity
8
1
62
256
6
ByLayer
370
-1
48
1
60
0
100
AcDbSpline
70
4
71
3
72
15
73
11
40
0
40
0
40
0
40
0
40
0.051213515573798
40
0.195204619948453
40
0.339195724323108
40
0.627177933072418
40
0.771169037447073
40
0.915160141821729
40
0.987155694009056
40
1
40
1
40
1
40
1
41
1
10
99.492402175569
20
4.04073989733917
30
0
41
1
10
99.4925944417373
20
4.03912426744731
30
0
41
1
10
99.4933343618227
20
4.03296857248685
30
0
41
1
10
99.4946359264231
20
4.02229258655154
30
0
41
1
10
99.4968641450193
20
4.00417148317868
30
0
41
1
10
99.4990871809098
20
3.98599481019036
30
0
41
1
10
99.501331709908
20
3.96759679612973
30
0
41
1
10
99.5027157685068
20
3.95629135606683
30
0
41
1
10
99.5035734188921
20
3.94933300749565
30
0
41
1
10
99.5038957372692
20
3.94677963153401
30
0
41
1
10
99.5039446650328
20
3.94639364250466
30
0
0
SPLINE
5
203
100
AcDbEntity
8
1
62
256
6
ByLayer
370
-1
48
1
60
0
100
AcDbSpline
70
4
71
3
72
12
73
8
40
0
40
0
40
0
40
0
40
0.0366937705554854
40
0.110794249743525
40
0.407196166495683
40
0.703598083247842
40
1
40
1
40
1
40
1
41
1
10
105.821420090518
20
10.9666727783505
30
0
41
1
10
105.785328195704
20
10.9653991834362
30
0
41
1
10
105.676353823642
20
10.9615943109183
30
0
41
1
10
105.275841573042
20
10.9475375775481
30
0
41
1
10
104.619886781565
20
10.9245573344732
30
0
41
1
10
103.745278995008
20
10.8938947773451
30
0
41
1
10
103.162207301764
20
10.8734556882434
30
0
41
1
10
102.870671455142
20
10.8632361436926
30
0
0
SPLINE
5
204
100
AcDbEntity
8
1
62
256
6
ByLayer
370
-1
48
1
60
0
100
AcDbSpline
70
4
71
3
72
8
73
4
40
0
40
0
40
0
40
0
40
1
40
1
40
1
40
1
41
1
10
106.506767210205
20
10.3600456437018
30
0
41
1
10
106.507230159711
20
10.3479964954072
30
0
41
1
10
106.507671246178
20
10.3359465006664
30
0
41
1
10
106.50809046668
20
10.3238957394325
30
0
0
SPLINE
5
205
100
AcDbEntity
8
1
62
256
6
ByLayer
370
-1
48
1
60
0
100
AcDbSpline
70
4
71
3
72
41
73
37
40
0
40
0
40
0
40
0
40
0.0080831369865847
40
0.0179214742470332
40
0.0277598115074817
40
0.0671131605492759
40
0.10646650959107
40
0.185173207674658
40
0.224526556716452
40
0.244203231237349
40
0.258960737128022
40
0.263879905758246
40
0.273718243018695
40
0.283556580279143
40
0.293394917539592
40
0.30323325480004
40
0.322909929320938
40
0.342586603841835
40
0.421293301925423
40
0.500000000009011
40
0.578706698092599
40
0.657413396176188
40
0.677090070697085
40
0.696766745217982
40
0.70660508247843
40
0.716443419738879
40
0.726281756999327
40
0.736120094259776
40
0.74103926289
40
0.755796768780673
40
0.77547344330157
40
0.814826792343364
40
0.893533490426952
40
0.97224018851054
40
0.991916863031438
40
1
40
1
40
1
40
1
41
1
10
99.7206110531493
20
10.7414628414966
30
0
41
1
10
99.7188402412005
20
10.7412366561861
30
0
41
1
10
99.7149412000504
20
10.7407290127385
30
0
41
1
10
99.7089742062834
20
10.7398984310763
30
0
41
1
10
99.6963604083625
20
10.737990187535
30
0
41
1
10
99.6773656002553
20
10.7344499459603
30
0
41
1
10
99.6434696159214
20
10.7262336479606
30
0
41
1
10
99.6095075297193
20
10.7151420164142
30
0
41
1
10
99.5801634049097
20
10.7027761508175
30
0
41
1
10
99.5646051490979
20
10.6954475373173
30
0
41
1
10
99.5563673952962
20
10.6913212522161
30
0
41
1
10
99.5502178858133
20
10.6881336742287
30
0
41
1
10
99.5451119438758
20
10.6854194091555
30
0
41
1
10
99.5390167184454
20
10.6820698589881
30
0
41
1
10
99.5329554639275
20
10.6786281647959
30
0
41
1
10
99.5249218404769
20
10.6739167645795
30
0
41
1
10
99.5149750685326
20
10.6677985945201
30
0
41
1
10
99.4914406957284
20
10.6523870519276
30
0
41
1
10
99.4575301470619
20
10.6265572671299
30
0
41
1
10
99.4162199358916
20
10.5869588429128
30
0
41
1
10
99.3797499430072
20
10.5428296009947
30
0
41
1
10
99.3564466092643
20
10.5070706447637
30
0
41
1
10
99.3427727859884
20
10.4824288671476
30
0
41
1
10
99.3373865959914
20
10.4720416405718
30
0
41
1
10
99.3332649543802
20
10.4636683235745
30
0
41
1
10
99.3302675205064
20
10.4573586569094
30
0
41
1
10
99.3273640261085
20
10.4510214002784
30
0
41
1
10
99.3250228487913
20
10.4457191022402
30
0
41
1
10
99.3222841038298
20
10.4393387855466
30
0
41
1
10
99.3187581703203
20
10.4308018731714
30
0
41
1
10
99.3125605176715
20
10.4147110130125
30
0
41
1
10
99.3023186586
20
10.3844639530927
30
0
41
1
10
99.291501866947
20
10.3409858493317
30
0
41
1
10
99.2860459596884
20
10.3022557047363
30
0
41
1
10
99.2843734344306
20
10.2792633322933
30
0
41
1
10
99.2840133045749
20
10.2731606846929
30
0
41
1
10
99.2839120544447
20
10.2713716607307
30
0
0
SPLINE
5
206
100
AcDbEntity
8
1
62
256
6
ByLayer
370
-1
48
1
60
0
100
AcDbSpline
70
4
71
3
72
12
73
8
40
0
40
0
40
0
40
0
40
0.296401916752162
40
0.592803833504324
40
0.889205750256486
40
0.963306229444526
40
1
40
1
40
1
40
1
41
1
10
102.870671455143
20
10.8632361436926
30
0
41
1
10
102.579135608521
20
10.8530165991417
30
0
41
1
10
101.996063915277
20
10.8325775100401
30
0
41
1
10
101.121455856675
20
10.8019227730316
30
0
41
1
10
100.465502017357
20
10.778915159538
30
0
41
1
10
100.064988577599
20
10.7648926092665
30
0
41
1
10
99.9560152571227
20
10.7610575082462
30
0
41
1
10
99.9199227769285
20
10.7598007404458
30
0
0
SPLINE
5
207
100
AcDbEntity
8
1
62
256
6
ByLayer
370
-1
48
1
60
0
100
AcDbSpline
70
4
71
3
72
14
73
10
40
0
40
0
40
0
40
0
40
0.0868146872094595
40
0.283438438146029
40
0.480062189082599
40
0.676685940019169
40
0.873309690955739
40
0.971621566424024
40
1
40
1
40
1
40
1
41
1
10
106.506812274635
20
10.3600472724393
30
0
41
1
10
106.50673512413
20
10.3620657611798
30
0
41
1
10
106.506473707348
20
10.3686553931161
30
0
41
1
10
106.505946164483
20
10.3798126023941
30
0
41
1
10
106.505029570116
20
10.3935112124472
30
0
41
1
10
106.503851051913
20
10.4071898729625
30
0
41
1
10
106.502656065139
20
10.4185644165585
30
0
41
1
10
106.50179041244
20
10.4260396434277
30
0
41
1
10
106.501443471881
20
10.4289669584136
30
0
41
1
10
106.501365451802
20
10.4296225681524
30
0
0
SPLINE
5
208
100
AcDbEntity
8
1
62
256
6
ByLayer
370
-1
48
1
60
0
100
AcDbSpline
70
4
71
3
72
12
73
8
40
0
40
0
40
0
40
0
40
0.126690309034547
40
0.323314059973708
40
0.716561561852029
40
0.91318531279119
40
1
40
1
40
1
40
1
41
1
10
100.066810460955
20
3.50304943105763
30
0
41
1
10
100.069743366872
20
3.50290481264585
30
0
41
1
10
100.0772323381
20
3.50255169756821
30
0
41
1
10
100.09383154897
20
3.50196396746429
30
0
41
1
10
100.112073185648
20
3.50183458642744
30
0
41
1
10
100.127754023539
20
3.50218700893541
30
0
41
1
10
100.13432082452
20
3.50238490230152
30
0
41
1
10
100.136332115822
20
3.50244844840395
30
0
0
SPLINE
5
209
100
AcDbEntity
8
1
62
256
6
ByLayer
370
-1
48
1
60
0
100
AcDbSpline
70
4
71
3
72
8
73
4
40
0
40
0
40
0
40
0
40
1
40
1
40
1
40
1
41
1
10
106.714175294033
20
4.39985566455621
30
0
41
1
10
106.714594513192
20
4.38780494192662
30
0
41
1
10
106.714991866524
20
4.37575345280885
30
0
41
1
10
106.715367351393
20
4.36370127716538
30
0
0
SPLINE
5
20A
100
AcDbEntity
8
1
62
256
6
ByLayer
370
-1
48
1
60
0
100
AcDbSpline
70
4
71
3
72
12
73
8
40
0
40
0
40
0
40
0
40
0.29640191675216
40
0.59280383350432
40
0.88920575025648
40
0.963306229444519
40
1
40
1
40
1
40
1
41
1
10
103.123096172229
20
3.60712632179897
30
0
41
1
10
103.41463201885
20
3.61734586634981
30
0
41
1
10
103.997703712094
20
3.63778495545151
30
0
41
1
10
104.872311770696
20
3.66843969245994
30
0
41
1
10
105.528265610014
20
3.6914473059536
30
0
41
1
10
105.928779049772
20
3.70546985622502
30
0
41
1
10
106.037752370248
20
3.70930495724539
30
0
41
1
10
106.073844850443
20
3.71056172504575
30
0
0
SPLINE
5
20B
100
AcDbEntity
8
1
62
256
6
ByLayer
370
-1
48
1
60
0
100
AcDbSpline
70
4
71
3
72
15
73
11
40
0
40
0
40
0
40
0
40
0.0512135155737646
40
0.195204619948441
40
0.339195724323117
40
0.62717793307247
40
0.771169037447146
40
0.915160141821822
40
0.987155694009161
40
1
40
1
40
1
40
1
41
1
10
106.179169335383
20
3.71731304409801
30
0
41
1
10
106.180778817315
20
3.71750604469187
30
0
41
1
10
106.186911087998
20
3.71824879115181
30
0
41
1
10
106.197546448583
20
3.71955532751741
30
0
41
1
10
106.215598595687
20
3.72179205754674
30
0
41
1
10
106.233706100947
20
3.72402358507321
30
0
41
1
10
106.25203410501
20
3.72627668780751
30
0
41
1
10
106.26329652446
20
3.72766603328526
30
0
41
1
10
106.270228394414
20
3.72852695975573
30
0
41
1
10
106.272772054009
20
3.7288505093367
30
0
41
1
10
106.273156574234
20
3.72889962399646
30
0
0
SPLINE
5
20C
100
AcDbEntity
8
1
62
256
6
ByLayer
370
-1
48
1
60
0
100
AcDbSpline
70
4
71
3
72
18
73
14
40
0
40
0
40
0
40
0
40
0.201652115391572
40
0.201652115391572
40
0.403304230783145
40
0.403304230783145
40
0.604956346174717
40
0.604956346174717
40
0.705782403870503
40
0.705782403870503
40
0.806608461566289
40
0.806608461566289
40
1
40
1
40
1
40
1
41
1
10
106.143602586364
20
0.326633507827211
30
0
41
1
10
106.140805319504
20
0.341971645886929
30
0
41
1
10
106.137054405976
20
0.357904810443074
30
0
41
1
10
106.126527121487
20
0.391658869463924
30
0
41
1
10
106.119744968728
20
0.409601038259524
30
0
41
1
10
106.100770525363
20
0.448220111595219
30
0
41
1
10
106.088479497443
20
0.469151534385247
30
0
41
1
10
106.062847341154
20
0.502028711115202
30
0
41
1
10
106.052820717516
20
0.513479457025426
30
0
41
1
10
106.030975794908
20
0.535204350941541
30
0
41
1
10
106.018987314814
20
0.545637000401342
30
0
41
1
10
105.983984867468
20
0.572466661726963
30
0
41
1
10
105.961189471687
20
0.585650583758962
30
0
41
1
10
105.940411781323
20
0.595693556719823
30
0
0
SPLINE
5
20D
100
AcDbEntity
8
1
62
256
6
ByLayer
370
-1
48
1
60
0
100
AcDbSpline
70
4
71
3
72
22
73
18
40
0
40
0
40
0
40
0
40
0.124999999999998
40
0.124999999999998
40
0.249999999999995
40
0.249999999999995
40
0.374999999999993
40
0.374999999999993
40
0.437499999999992
40
0.437499999999992
40
0.499999999999992
40
0.499999999999992
40
0.624999999999994
40
0.624999999999994
40
0.749999999999996
40
0.749999999999996
40
1
40
1
40
1
40
1
41
1
10
106.542785247089
20
-5.74468893451402
30
0
41
1
10
106.559729471808
20
-5.74347136738467
30
0
41
1
10
106.577232225216
20
-5.74126439275506
30
0
41
1
10
106.614009672134
20
-5.73371153431893
30
0
41
1
10
106.633420248623
20
-5.72837423469747
30
0
41
1
10
106.674688305204
20
-5.7120071924945
30
0
41
1
10
106.696820837918
20
-5.70089891810895
30
0
41
1
10
106.730844974075
20
-5.67639806851406
30
0
41
1
10
106.742566681113
20
-5.66663924432984
30
0
41
1
10
106.764475741872
20
-5.64497836893446
30
0
41
1
10
106.774821677608
20
-5.63290623879408
30
0
41
1
10
106.801673955273
20
-5.59620741822545
30
0
41
1
10
106.814152615145
20
-5.57139867425406
30
0
41
1
10
106.832088727004
20
-5.52602810266006
30
0
41
1
10
106.837900080867
20
-5.50481020290297
30
0
41
1
10
106.850446593482
20
-5.44423018292881
30
0
41
1
10
106.852366663573
20
-5.40833375499503
30
0
41
1
10
106.851780922266
20
-5.37418333116688
30
0
0
SPLINE
5
20E
100
AcDbEntity
8
1
62
256
6
ByLayer
370
-1
48
1
60
0
100
AcDbSpline
70
4
71
3
72
10
73
6
40
0
40
0
40
0
40
0
40
0.5
40
0.5
40
1
40
1
40
1
40
1
41
1
10
106.766913364991
20
-3.66254366440452
30
0
41
1
10
106.77033347702
20
-3.59942024940184
30
0
41
1
10
106.76528416422
20
-3.53603722746937
30
0
41
1
10
106.737492780892
20
-3.40936819566693
30
0
41
1
10
106.715465479376
20
-3.3492172889724
30
0
41
1
10
106.685662982492
20
-3.29211381362219
30
0
0
SPLINE
5
20F
100
AcDbEntity
8
1
62
256
6
ByLayer
370
-1
48
1
60
0
100
AcDbSpline
70
4
71
3
72
8
73
4
40
0
40
0
40
0
40
0
40
1
40
1
40
1
40
1
41
1
10
106.672761053374
20
-3.26654492910234
30
0
41
1
10
106.676906875792
20
-3.2750515232577
30
0
41
1
10
106.681256407679
20
-3.28367053663183
30
0
41
1
10
106.685662982492
20
-3.29211381362217
30
0
0
SPLINE
5
210
100
AcDbEntity
8
1
62
256
6
ByLayer
370
-1
48
1
60
0
100
AcDbSpline
70
4
71
3
72
8
73
4
40
0
40
0
40
0
40
0
40
1
40
1
40
1
40
1
41
1
10
106.766913364991
20
-3.66254366440455
30
0
41
1
10
106.766212639908
20
-3.67547662095308
30
0
41
1
10
106.765632065311
20
-3.68849604616884
30
0
41
1
10
106.765173495486
20
-3.7016032745239
30
0
0
SPLINE
5
211
100
AcDbEntity
8
1
62
256
6
ByLayer
370
-1
48
1
60
0
100
AcDbSpline
70
4
71
3
72
16
73
12
40
0
40
0
40
0
40
0
40
0.25
40
0.25
40
0.5
40
0.5
40
0.75
40
0.75
40
0.875
40
0.875
40
1
40
1
40
1
40
1
41
1
10
106.227261156903
20
-0.132088083284202
30
0
41
1
10
106.232311965194
20
-0.159782972173389
30
0
41
1
10
106.237875951129
20
-0.188658683294079
30
0
41
1
10
106.250588482663
20
-0.249841852332764
30
0
41
1
10
106.257716189023
20
-0.282124459847722
30
0
41
1
10
106.274863957907
20
-0.35302981412832
30
0
41
1
10
106.284857033359
20
-0.391625870125608
30
0
41
1
10
106.303823871835
20
-0.457118060992883
30
0
41
1
10
106.310847506384
20
-0.480296680356872
30
0
41
1
10
106.326382212437
20
-0.528791396767303
30
0
41
1
10
106.335079916149
20
-0.554653778692796
30
0
41
1
10
106.34442403217
20
-0.580955481902038
30
0
0
SPLINE
5
212
100
AcDbEntity
8
1
62
256
6
ByLayer
370
-1
48
1
60
0
100
AcDbSpline
70
4
71
3
72
20
73
16
40
0
40
0
40
0
40
0
40
0.0625000000000003
40
0.0625000000000003
40
0.125000000000001
40
0.125000000000001
40
0.250000000000001
40
0.250000000000001
40
0.375000000000001
40
0.375000000000001
40
0.5
40
0.5
40
0.75
40
0.75
40
1
40
1
40
1
40
1
41
1
10
106.742147481438
20
-4.35975217057836
30
0
41
1
10
106.741144594953
20
-4.38841751542537
30
0
41
1
10
106.740747609477
20
-4.41750965705813
30
0
41
1
10
106.741023330193
20
-4.47330970117105
30
0
41
1
10
106.741665692189
20
-4.49981462092143
30
0
41
1
10
106.744624352646
20
-4.57647675927154
30
0
41
1
10
106.747818941362
20
-4.62155637866738
30
0
41
1
10
106.755173048951
20
-4.70593930120199
30
0
41
1
10
106.759367899553
20
-4.74500278036999
30
0
41
1
10
106.768149192879
20
-4.81869539219198
30
0
41
1
10
106.77277174558
20
-4.85353730595759
30
0
41
1
10
106.78705343849
20
-4.95448449396594
30
0
41
1
10
106.797116832478
20
-5.0170957535428
30
0
41
1
10
106.8177395858
20
-5.13803158378644
30
0
41
1
10
106.828318068794
20
-5.19624887953046
30
0
41
1
10
106.839023530545
20
-5.25307406137097
30
0
0
SPLINE
5
213
100
AcDbEntity
8
1
62
256
6
ByLayer
370
-1
48
1
60
0
100
AcDbSpline
70
4
71
3
72
10
73
6
40
0
40
0
40
0
40
0
40
0.5
40
0.5
40
1
40
1
40
1
40
1
41
1
10
106.367836762062
20
-0.723718325619132
30
0
41
1
10
106.36827279973
20
-0.701671241718458
30
0
41
1
10
106.366910887347
20
-0.678759048079286
30
0
41
1
10
106.35941198477
20
-0.630682146855634
30
0
41
1
10
106.353236399843
20
-0.605760426383085
30
0
41
1
10
106.34442403217
20
-0.580955481902038
30
0
0
SPLINE
5
214
100
AcDbEntity
8
1
62
256
6
ByLayer
370
-1
48
1
60
0
100
AcDbSpline
70
4
71
3
72
8
73
4
40
0
40
0
40
0
40
0
40
1
40
1
40
1
40
1
41
1
10
106.367836762062
20
-0.723718325617455
30
0
41
1
10
106.366941946905
20
-0.768962271992166
30
0
41
1
10
106.367458135188
20
-0.820648870405392
30
0
41
1
10
106.370339412899
20
-0.87552437909585
30
0
0
SPLINE
5
215
100
AcDbEntity
8
1
62
256
6
ByLayer
370
-1
48
1
60
0
100
AcDbSpline
70
4
71
3
72
8
73
4
40
0
40
0
40
0
40
0
40
1
40
1
40
1
40
1
41
1
10
106.851780922266
20
-5.3741833311669
30
0
41
1
10
106.851050972247
20
-5.33162511946733
30
0
41
1
10
106.846268315859
20
-5.29152978168102
30
0
41
1
10
106.839023530545
20
-5.25307406137094
30
0
0
SPLINE
5
216
100
AcDbEntity
8
SK1
62
256
6
ByLayer
370
-1
48
1
60
0
100
AcDbSpline
70
4
71
3
72
24
73
20
40
0
40
0
40
0
40
0
40
0.249999999999999
40
0.249999999999999
40
0.499999999999999
40
0.499999999999999
40
0.624999999999999
40
0.624999999999999
40
0.749999999999999
40
0.749999999999999
40
0.812499999999999
40
0.812499999999999
40
0.874999999999999
40
0.874999999999999
40
0.906249999999999
40
0.906249999999999
40
0.937499999999999
40
0.937499999999999
40
1
40
1
40
1
40
1
41
1
10
-1.30710678118655
20
3.80474436172742
30
0
41
1
10
-1.27820587151987
20
3.96162549630972
30
0
41
1
10
-1.24528283058905
20
4.11647986205287
30
0
41
1
10
-1.16690330055033
20
4.42150599832851
30
0
41
1
10
-1.1216394818185
20
4.57210526807785
30
0
41
1
10
-1.03683410576141
20
4.78923689203188
30
0
41
1
10
-1.00570960409644
20
4.86025318303473
30
0
41
1
10
-0.93330125313895
20
4.99796819311584
30
0
41
1
10
-0.892788793638914
20
5.06495158421586
30
0
41
1
10
-0.812720410511901
20
5.15791908023726
30
0
41
1
10
-0.783582064742575
20
5.18655692653388
30
0
41
1
10
-0.715621550866786
20
5.23468180965574
30
0
41
1
10
-0.675209143574591
20
5.2544383674574
30
0
41
1
10
-0.609749014159945
20
5.26408079733798
30
0
41
1
10
-0.587593321752848
20
5.26395175835981
30
0
41
1
10
-0.543797506156182
20
5.25694068357137
30
0
41
1
10
-0.522881824241551
20
5.25022122084911
30
0
41
1
10
-0.463662442339768
20
5.22330778036215
30
0
41
1
10
-0.430108854220066
20
5.19751789940321
30
0
41
1
10
-0.400000000000006
20
5.16866682996363
30
0
0
SPLINE
5
217
100
AcDbEntity
8
SK1
62
256
6
ByLayer
370
-1
48
1
60
0
100
AcDbSpline
70
4
71
3
72
28
73
24
40
0
40
0
40
0
40
0
40
0.0624999999999978
40
0.0624999999999978
40
0.0937499999999973
40
0.0937499999999973
40
0.124999999999997
40
0.124999999999997
40
0.156249999999996
40
0.156249999999996
40
0.187499999999996
40
0.187499999999996
40
0.249999999999995
40
0.249999999999995
40
0.312499999999995
40
0.312499999999995
40
0.374999999999994
40
0.374999999999994
40
0.499999999999996
40
0.499999999999996
40
0.749999999999998
40
0.749999999999998
40
1
40
1
40
1
40
1
41
1
10
-0.400000000000034
20
-5.16866679574528
30
0
41
1
10
-0.429667984858526
20
-5.19709542919747
30
0
41
1
10
-0.463222617053248
20
-5.22280908416965
30
0
41
1
10
-0.52069073499743
20
-5.2493656202553
30
0
41
1
10
-0.541319982680051
20
-5.2562280629663
30
0
41
1
10
-0.584167147180267
20
-5.26367853666855
30
0
41
1
10
-0.606263827599633
20
-5.26419006417308
30
0
41
1
10
-0.649499715320417
20
-5.25856600648308
30
0
41
1
10
-0.670470103516493
20
-5.25251038934852
30
0
41
1
10
-0.709851682998163
20
-5.23586408036579
30
0
41
1
10
-0.728052830987394
20
-5.22546765124821
30
0
41
1
10
-0.779626594601126
20
-5.19004145070292
30
0
41
1
10
-0.809163918582101
20
-5.16149505705718
30
0
41
1
10
-0.862207736531758
20
-5.10093998422238
30
0
41
1
10
-0.886005967364127
20
-5.06835849703066
30
0
41
1
10
-0.929332938802958
20
-5.00192246546092
30
0
41
1
10
-0.948980336228743
20
-4.96788084943088
30
0
41
1
10
-1.00396571473226
20
-4.86405782935998
30
0
41
1
10
-1.03542015821515
20
-4.79260544067262
30
0
41
1
10
-1.12107140298599
20
-4.57404740423686
30
0
41
1
10
-1.16650547510207
20
-4.42291937415834
30
0
41
1
10
-1.24510539876221
20
-4.11730652712239
30
0
41
1
10
-1.27812387419789
20
-3.96207335277512
30
0
41
1
10
-1.30710678118655
20
-3.80474664113271
30
0
0
SPLINE
5
218
100
AcDbEntity
8
SK1
62
256
6
ByLayer
370
-1
48
1
60
0
100
AcDbSpline
70
4
71
3
72
16
73
12
40
0
40
0
40
0
40
0
40
0.210347437860711
40
0.210347437860711
40
0.420694875721422
40
0.420694875721422
40
0.631042313582132
40
0.631042313582132
40
0.841389751442843
40
0.841389751442843
40
1
40
1
40
1
40
1
41
1
10
-2.19999999999999
20
15.0247809138928
30
0
41
1
10
-2.19999999999999
20
15.3464281768119
30
0
41
1
10
-2.19999985369779
20
15.6408309205943
30
0
41
1
10
-2.19999861013468
20
16.1716311372165
30
0
41
1
10
-2.19999751318201
20
16.4085994471238
30
0
41
1
10
-2.19999332922319
20
16.81967937675
30
0
41
1
10
-2.19999025395853
20
16.9939820524753
30
0
41
1
10
-2.19998056068692
20
17.2730608970185
30
0
41
1
10
-2.19997397016539
20
17.377934512455
30
0
41
1
10
-2.19995735784335
20
17.492383089682
30
0
41
1
10
-2.19994857701479
20
17.5191239927057
30
0
41
1
10
-2.19993753438075
20
17.5200999009104
30
0
0
SPLINE
5
219
100
AcDbEntity
8
SK1
62
256
6
ByLayer
370
-1
48
1
60
0
100
AcDbSpline
70
4
71
3
72
14
73
10
40
0
40
0
40
0
40
0
40
0.158271111546177
40
0.158271111546177
40
0.368703333659632
40
0.368703333659632
40
0.579135555773089
40
0.579135555773089
40
1
40
1
40
1
40
1
41
1
10
-2.19993758659487
20
-17.5200998509081
30
0
41
1
10
-2.19994859698866
20
-17.5190520156497
30
0
41
1
10
-2.19995735145554
20
-17.4923613558623
30
0
41
1
10
-2.19997395241097
20
-17.37814676901
30
0
41
1
10
-2.19998054803548
20
-17.2733105000759
30
0
41
1
10
-2.19999024684913
20
-16.994301647152
30
0
41
1
10
-2.19999332411427
20
-16.820033747135
30
0
41
1
10
-2.19999960456138
20
-16.2034150671494
30
0
41
1
10
-2.20000000000005
20
-15.6672998594695
30
0
41
1
10
-2.20000000000005
20
-15.0247808645597
30
0
0
SPLINE
5
21A
100
AcDbEntity
8
SK1
62
256
6
ByLayer
370
-1
48
1
60
0
100
AcDbSpline
70
4
71
3
72
24
73
20
40
0
40
0
40
0
40
0
40
0.250000000000001
40
0.250000000000001
40
0.375000000000001
40
0.375000000000001
40
0.437500000000001
40
0.437500000000001
40
0.500000000000001
40
0.500000000000001
40
0.625000000000001
40
0.625000000000001
40
0.750000000000001
40
0.750000000000001
40
0.812500000000001
40
0.812500000000001
40
0.875
40
0.875
40
1
40
1
40
1
40
1
41
1
10
-1.30710678118655
20
3.80474436172742
30
0
41
1
10
-1.41816180194488
20
3.20191082262588
30
0
41
1
10
-1.51742460563804
20
2.58660830647122
30
0
41
1
10
-1.62712751713187
20
1.6369256404862
30
0
41
1
10
-1.6570129896302
20
1.31584300840137
30
0
41
1
10
-1.68795529356487
20
0.825841257997496
30
0
41
1
10
-1.69596975522452
20
0.660458756170897
30
0
41
1
10
-1.70663247810879
20
0.331065538121066
30
0
41
1
10
-1.70932931448368
20
0.166863930724105
30
0
41
1
10
-1.70943014065867
20
-0.324256820765584
30
0
41
1
10
-1.69876152571632
20
-0.649683250610991
30
0
41
1
10
-1.6585118317669
20
-1.29689910929389
30
0
41
1
10
-1.62900241775955
20
-1.61869699531221
30
0
41
1
10
-1.57385204849132
20
-2.09905529777984
30
0
41
1
10
-1.55367435654514
20
-2.25852307528237
30
0
41
1
10
-1.51060288083744
20
-2.57419592633738
30
0
41
1
10
-1.48766444543867
20
-2.73071961056408
30
0
41
1
10
-1.41544165724093
20
-3.1967524121109
30
0
41
1
10
-1.3627454758165
20
-3.50272542326081
30
0
41
1
10
-1.30710678118663
20
-3.80474664113297
30
0
0
SPLINE
5
21B
100
AcDbEntity
8
SK1
62
256
6
ByLayer
370
-1
48
1
60
0
100
AcDbSpline
70
4
71
3
72
41
73
37
40
0
40
0
40
0
40
0
40
0.0035862615420455
40
0.0346121196537849
40
0.0656379777655244
40
0.0966638358772639
40
0.127689693989003
40
0.158715552100743
40
0.189741410212482
40
0.220767268324222
40
0.251793126435961
40
0.282818984547701
40
0.31384484265944
40
0.34487070077118
40
0.375896558882919
40
0.406922416994659
40
0.437948275106398
40
0.468974133218138
40
0.499999991329877
40
0.531025849441616
40
0.562051707553356
40
0.593077565665095
40
0.624103423776835
40
0.655129281888574
40
0.686155140000314
40
0.717180998112053
40
0.748206856223793
40
0.779232714335532
40
0.810258572447272
40
0.841284430559011
40
0.872310288670751
40
0.90333614678249
40
0.93436200489423
40
0.965387863005969
40
0.996413721117709
40
1
40
1
40
1
40
1
41
1
10
-2.20000000000005
20
-10.2416915120173
30
0
41
1
10
-2.20000000000005
20
-10.2098170446237
30
0
41
1
10
-2.20000000000005
20
-9.90198508684045
30
0
41
1
10
-2.20000000000005
20
-9.3149808480191
30
0
41
1
10
-2.20000000000005
20
-8.48421552667966
30
0
41
1
10
-2.20000000000005
20
-7.66447545612931
30
0
41
1
10
-2.20000000000005
20
-6.86437716583347
30
0
41
1
10
-2.20000000000005
20
-6.09147129549578
30
0
41
1
10
-2.20000000000005
20
-5.35199475664402
30
0
41
1
10
-2.20000000000005
20
-4.6506671110304
30
0
41
1
10
-2.20000000000005
20
-3.99054255831777
30
0
41
1
10
-2.20000000000005
20
-3.37292400688881
30
0
41
1
10
-2.20000000000005
20
-2.79733805829036
30
0
41
1
10
-2.20000000000005
20
-2.26158054799637
30
0
41
1
10
-2.20000000000005
20
-1.76181929549949
30
0
41
1
10
-2.20000000000005
20
-1.29276519791185
30
0
41
1
10
-2.20000000000005
20
-0.847888335032877
30
0
41
1
10
-2.20000000000005
20
-0.419689842123091
30
0
41
1
10
-2.20000000000005
20
8.86504949E-08
30
0
41
1
10
-2.20000000000005
20
0.419689487520998
30
0
41
1
10
-2.20000000000005
20
0.847888498250114
30
0
41
1
10
-2.20000000000005
20
1.29276489964477
30
0
41
1
10
-2.20000000000005
20
1.7618194185427
30
0
41
1
10
-2.20000000000005
20
2.26158035409029
30
0
41
1
10
-2.20000000000005
20
2.79733812098013
30
0
41
1
10
-2.20000000000005
20
3.37292395003561
30
0
41
1
10
-2.20000000000005
20
3.99054254934384
30
0
41
1
10
-2.20000000000005
20
4.65066720377908
30
0
41
1
10
-2.20000000000005
20
5.35199467517899
30
0
41
1
10
-2.20000000000005
20
6.091471528607
30
0
41
1
10
-2.20000000000005
20
6.86437702157369
30
0
41
1
10
-2.20000000000005
20
7.66447580005692
30
0
41
1
10
-2.20000000000005
20
8.48421533830793
30
0
41
1
10
-2.20000000000005
20
9.31498125757835
30
0
41
1
10
-2.20000000000005
20
9.90198521620806
30
0
41
1
10
-2.20000000000005
20
10.2098173562835
30
0
41
1
10
-2.20000000000005
20
10.2416919827236
30
0
0
SPLINE
5
21C
100
AcDbEntity
8
SK1
62
256
6
ByLayer
370
-1
48
1
60
0
100
AcDbSpline
70
4
71
3
72
73
73
69
40
0
40
0
40
0
40
0
40
0.0018466563416122
40
0.0173088927479062
40
0.0327711291542003
40
0.0482333655604943
40
0.0636956019667884
40
0.0791578383730825
40
0.0946200747793766
40
0.110082311185671
40
0.125544547591965
40
0.141006783998259
40
0.156469020404553
40
0.171931256810847
40
0.187393493217141
40
0.202855729623435
40
0.218317966029729
40
0.233780202436023
40
0.249242438842317
40
0.264704675248611
40
0.280166911654905
40
0.295629148061199
40
0.311091384467493
40
0.326553620873787
40
0.342015857280081
40
0.357478093686376
40
0.37294033009267
40
0.388402566498963
40
0.403864802905258
40
0.419327039311552
40
0.434789275717846
40
0.45025151212414
40
0.465713748530434
40
0.481175984936728
40
0.496638221343022
40
0.512100457749316
40
0.52756269415561
40
0.543024930561904
40
0.558487166968198
40
0.573949403374492
40
0.589411639780786
40
0.60487387618708
40
0.620336112593374
40
0.635798348999668
40
0.651260585405963
40
0.666722821812257
40
0.682185058218551
40
0.697647294624845
40
0.713109531031139
40
0.728571767437433
40
0.744034003843727
40
0.759496240250021
40
0.774958476656315
40
0.790420713062609
40
0.805882949468903
40
0.821345185875197
40
0.836807422281491
40
0.852269658687785
40
0.867731895094079
40
0.883194131500373
40
0.898656367906667
40
0.914118604312962
40
0.929580840719256
40
0.94504307712555
40
0.960505313531844
40
0.975967549938138
40
0.991429786344432
40
1
40
1
40
1
40
1
41
1
10
-28.5004731679065
20
16.5843275730954
30
0
41
1
10
-28.5004731679065
20
16.5890126467407
30
0
41
1
10
-28.5004731679065
20
16.6325284257403
30
0
41
1
10
-28.5004731679065
20
16.7076779742402
30
0
41
1
10
-28.5004731679065
20
16.7910009100058
30
0
41
1
10
-28.5004731679065
20
16.8457973580111
30
0
41
1
10
-28.5004731679065
20
16.8661113679711
30
0
41
1
10
-28.5004731679065
20
16.8457932960415
30
0
41
1
10
-28.5004731679065
20
16.7787920295583
30
0
41
1
10
-28.5004731679065
20
16.6594441325878
30
0
41
1
10
-28.5004731679065
20
16.4827618905288
30
0
41
1
10
-28.5004731679065
20
16.2446845781523
30
0
41
1
10
-28.5004731679065
20
15.9423067030317
30
0
41
1
10
-28.5004731679065
20
15.5740550609709
30
0
41
1
10
-28.5004731679065
20
15.1398218356871
30
0
41
1
10
-28.5004731679065
20
14.6410360299331
30
0
41
1
10
-28.5004731679065
20
14.0806798361698
30
0
41
1
10
-28.5004731679065
20
13.4632415716312
30
0
41
1
10
-28.5004731679065
20
12.7946107775085
30
0
41
1
10
-28.5004731679065
20
12.0819181856553
30
0
41
1
10
-28.5004731679065
20
11.3333237326369
30
0
41
1
10
-28.5004731679065
20
10.557766572068
30
0
41
1
10
-28.5004731679065
20
9.76467681695502
30
0
41
1
10
-28.5004731679065
20
8.96367263859335
30
0
41
1
10
-28.5004731679065
20
8.16423852984713
30
0
41
1
10
-28.5004731679065
20
7.37541494914311
30
0
41
1
10
-28.5004731679065
20
6.60549138939066
30
0
41
1
10
-28.5004731679065
20
5.8617355376129
30
0
41
1
10
-28.5004731679065
20
5.15014758540386
30
0
41
1
10
-28.5004731679065
20
4.47527023543961
30
0
41
1
10
-28.5004731679065
20
3.84004176429181
30
0
41
1
10
-28.5004731679065
20
3.24571625932083
30
0
41
1
10
-28.5004731679065
20
2.69183828529168
30
0
41
1
10
-28.5004731679065
20
2.1762862832866
30
0
41
1
10
-28.5004731679065
20
1.69537351492639
30
0
41
1
10
-28.5004731679065
20
1.24400909015813
30
0
41
1
10
-28.5004731679065
20
0.815910920503427
30
0
41
1
10
-28.5004731679065
20
0.403861164287036
30
0
41
1
10
-28.5004731679065
20
8.53071356E-08
30
0
41
1
10
-28.5004731679065
20
-0.403861505515493
30
0
41
1
10
-28.5004731679065
20
-0.815910763441764
30
0
41
1
10
-28.5004731679065
20
-1.24400937717618
30
0
41
1
10
-28.5004731679065
20
-1.69537339652359
30
0
41
1
10
-28.5004731679065
20
-2.17628646987959
30
0
41
1
10
-28.5004731679065
20
-2.69183822496618
30
0
41
1
10
-28.5004731679065
20
-3.24571631402978
30
0
41
1
10
-28.5004731679065
20
-3.84004177292724
30
0
41
1
10
-28.5004731679065
20
-4.47527014618882
30
0
41
1
10
-28.5004731679065
20
-5.15014766379645
30
0
41
1
10
-28.5004731679065
20
-5.86173531329328
30
0
41
1
10
-28.5004731679065
20
-6.60549152820971
30
0
41
1
10
-28.5004731679065
20
-7.37541461818645
30
0
41
1
10
-28.5004731679065
20
-8.16423871111448
30
0
41
1
10
-28.5004731679065
20
-8.96367224448034
30
0
41
1
10
-28.5004731679065
20
-9.7646770167907
30
0
41
1
10
-28.5004731679065
20
-10.5577661668381
30
0
41
1
10
-28.5004731679065
20
-11.3333239249002
30
0
41
1
10
-28.5004731679065
20
-12.0819178218314
30
0
41
1
10
-28.5004731679066
20
-12.7946109377403
30
0
41
1
10
-28.5004731679065
20
-13.4632412945279
30
0
41
1
10
-28.5004731679065
20
-14.0806799452205
30
0
41
1
10
-28.5004731679065
20
-14.6410358708332
30
0
41
1
10
-28.5004731679065
20
-15.1398218825485
30
0
41
1
10
-28.5004731679065
20
-15.5740550326248
30
0
41
1
10
-28.5004731679065
20
-15.942306686368
30
0
41
1
10
-28.5004731679065
20
-16.2446846731531
30
0
41
1
10
-28.5004731679065
20
-16.4473889041335
30
0
41
1
10
-28.5004731679065
20
-16.5460150988219
30
0
41
1
10
-28.5004731679065
20
-16.5781578642455
30
0
0
SPLINE
5
21D
100
AcDbEntity
8
SK1
62
256
6
ByLayer
370
-1
48
1
60
0
100
AcDbSpline
70
4
71
3
72
14
73
10
40
0
40
0
40
0
40
0
40
0.103575740797296
40
0.255914577449049
40
0.408253414100803
40
0.560592250752556
40
0.71293108740431
40
0.865269924056063
40
1
40
1
40
1
40
1
41
1
10
-2.20000000000007
20
-15.0247808645595
30
0
41
1
10
-2.20000000000007
20
-14.8954704309983
30
0
41
1
10
-2.20000000000007
20
-14.5640748657259
30
0
41
1
10
-2.20000000000007
20
-13.9908991973699
30
0
41
1
10
-2.20000000000007
20
-13.2960635543425
30
0
41
1
10
-2.20000000000007
20
-12.5554382231013
30
0
41
1
10
-2.20000000000005
20
-11.7775050699617
30
0
41
1
10
-2.20000000000005
20
-11.0026045240097
30
0
41
1
10
-2.20000000000005
20
-10.4855729233141
30
0
41
1
10
-2.20000000000005
20
-10.2416915120173
30
0
0
SPLINE
5
21E
100
AcDbEntity
8
SK1
62
256
6
ByLayer
370
-1
48
1
60
0
100
AcDbSpline
70
4
71
3
72
55
73
51
40
0
40
0
40
0
40
0
40
0.0062775012573531
40
0.0126613089357194
40
0.0191232697818637
40
0.0256662793522084
40
0.0322931269629453
40
0.0390064974303054
40
0.0458089731241909
40
0.0527030362844448
40
0.0799449905108921
40
0.107583238447754
40
0.13575835294179
40
0.164603058751932
40
0.202129412012159
40
0.239329534934397
40
0.276480867496972
40
0.305761011009882
40
0.334078182863713
40
0.361588636350909
40
0.388462699905797
40
0.407109179836815
40
0.424749139711478
40
0.441462471957735
40
0.457343060265476
40
0.472500270267925
40
0.487059777984498
40
0.501163246872389
40
0.526004663243565
40
0.55256157549392
40
0.581450206504122
40
0.613151093044372
40
0.630954144632316
40
0.64901272851322
40
0.667378043361945
40
0.686098771418574
40
0.705220880617515
40
0.724787510200316
40
0.752608175837835
40
0.78040622909796
40
0.808298399156769
40
0.836400242390352
40
0.86516719041797
40
0.893276376997011
40
0.920859940116942
40
0.94805767994199
40
0.961722893460246
40
0.975026986728544
40
0.987991265044174
40
1
40
1
40
1
40
1
41
1
10
-30
20
-15.9412563553943
30
0
41
1
10
-30
20
-15.9413511254957
30
0
41
1
10
-30
20
-15.9388915971213
30
0
41
1
10
-30
20
-15.9273804000157
30
0
41
1
10
-30
20
-15.9079788422216
30
0
41
1
10
-30
20
-15.8807063718935
30
0
41
1
10
-30
20
-15.8455619478377
30
0
41
1
10
-30
20
-15.8025510336339
30
0
41
1
10
-30
20
-15.751654237556
30
0
41
1
10
-30
20
-15.6354614488172
30
0
41
1
10
-30
20
-15.4072734112923
30
0
41
1
10
-30
20
-14.9910393954625
30
0
41
1
10
-30
20
-14.4612492653321
30
0
41
1
10
-30
20
-13.75980362743
30
0
41
1
10
-30
20
-12.8634986274155
30
0
41
1
10
-30
20
-11.739852996921
30
0
41
1
10
-30
20
-10.5610442122656
30
0
41
1
10
-30
20
-9.38065337957798
30
0
41
1
10
-30
20
-8.23841077858418
30
0
41
1
10
-30
20
-7.04971673261991
30
0
41
1
10
-30
20
-5.93280908256415
30
0
41
1
10
-30
20
-4.92269022344595
30
0
41
1
10
-30
20
-4.04473490583857
30
0
41
1
10
-30
20
-3.18409230622029
30
0
41
1
10
-30
20
-2.34074423568492
30
0
41
1
10
-30
20
-1.51461138812482
30
0
41
1
10
-30
20
-0.705662651942646
30
0
41
1
10
-30
20
0.291624376544149
30
0
41
1
10
-30
20
1.51125027171196
30
0
41
1
10
-30
20
2.95678912159335
30
0
41
1
10
-30
20
4.44757052085859
30
0
41
1
10
-30
20
5.71060973941567
30
0
41
1
10
-30
20
6.74763296214297
30
0
41
1
10
-30
20
7.54747447616455
30
0
41
1
10
-30
20
8.32687796284489
30
0
41
1
10
-30
20
9.08577238570726
30
0
41
1
10
-30
20
9.82413283315879
30
0
41
1
10
-30
20
10.6371602934683
30
0
41
1
10
-30
20
11.4981281374076
30
0
41
1
10
-30
20
12.3723486056914
30
0
41
1
10
-30
20
13.1641616656871
30
0
41
1
10
-30
20
13.876053967975
30
0
41
1
10
-30
20
14.499744874278
30
0
41
1
10
-30
20
15.0213498104851
30
0
41
1
10
-30
20
15.4299810664198
30
0
41
1
10
-30
20
15.6772442440077
30
0
41
1
10
-30
20
15.8176211683846
30
0
41
1
10
-29.9999999999999
20
15.8924972054746
30
0
41
1
10
-30
20
15.9350483205466
30
0
41
1
10
-30
20
15.9432323678841
30
0
41
1
10
-29.9999999999999
20
15.9423143992143
30
0
0
SPLINE
5
21F
100
AcDbEntity
8
SK1
62
256
6
ByLayer
370
-1
48
1
60
0
100
AcDbSpline
70
4
71
3
72
30
73
26
40
0
40
0
40
0
40
0
40
0.0056618334178372
40
0.0508667587544733
40
0.0960716840911094
40
0.141276609427746
40
0.186481534764382
40
0.231686460101018
40
0.276891385437654
40
0.32209631077429
40
0.367301236110926
40
0.412506161447562
40
0.457711086784198
40
0.502916012120834
40
0.54812093745747
40
0.593325862794106
40
0.638530788130742
40
0.683735713467378
40
0.728940638804015
40
0.774145564140651
40
0.819350489477287
40
0.864555414813923
40
0.909760340150559
40
0.954965265487195
40
1
40
1
40
1
40
1
41
1
10
-0.400000000000034
20
-5.16866679574528
30
0
41
1
10
-0.400000000000034
20
-5.1981823917107
30
0
41
1
10
-0.400000000000034
20
-5.46426938707833
30
0
41
1
10
-0.400000000000034
20
-5.98219146197602
30
0
41
1
10
-0.400000000000034
20
-6.74713361247495
30
0
41
1
10
-0.400000000000034
20
-7.53968849279406
30
0
41
1
10
-0.400000000000034
20
-8.35230648563555
30
0
41
1
10
-0.400000000000034
20
-9.17636769820604
30
0
41
1
10
-0.400000000000034
20
-10.0024728331477
30
0
41
1
10
-0.400000000000034
20
-10.8207538150476
30
0
41
1
10
-0.400000000000034
20
-11.6212070931939
30
0
41
1
10
-0.400000000000063
20
-12.3940190774915
30
0
41
1
10
-0.400000000000063
20
-13.1298916243886
30
0
41
1
10
-0.400000000000063
20
-13.8203332490725
30
0
41
1
10
-0.400000000000063
20
-14.4579281585871
30
0
41
1
10
-0.400000000000063
20
-15.0365497976464
30
0
41
1
10
-0.400000000000063
20
-15.5515337877379
30
0
41
1
10
-0.400000000000063
20
-15.9997825456108
30
0
41
1
10
-0.400000000000063
20
-16.379817481596
30
0
41
1
10
-0.400000000000063
20
-16.6917603323907
30
0
41
1
10
-0.400000000000034
20
-16.9372586651848
30
0
41
1
10
-0.400000000000034
20
-17.1193485969266
30
0
41
1
10
-0.400000000000034
20
-17.2422669751987
30
0
41
1
10
-0.400000000000006
20
-17.3111334405948
30
0
41
1
10
-0.400000000000063
20
-17.3250933682472
30
0
41
1
10
-0.400000000000063
20
-17.3251497957615
30
0
0
SPLINE
5
220
100
AcDbEntity
8
SK1
62
256
6
ByLayer
370
-1
48
1
60
0
100
AcDbSpline
70
4
71
3
72
14
73
10
40
0
40
0
40
0
40
0
40
0.134730002442921
40
0.287068852256708
40
0.439407702070496
40
0.591746551884283
40
0.74408540169807
40
0.896424251511857
40
1
40
1
40
1
40
1
41
1
10
-2.20000000000005
20
10.2416919827236
30
0
41
1
10
-2.20000000000005
20
10.4855732776028
30
0
41
1
10
-2.20000000000005
20
11.0026050713461
30
0
41
1
10
-2.20000000000005
20
11.777504870163
30
0
41
1
10
-2.20000000000002
20
12.5554386011843
30
0
41
1
10
-2.20000000000002
20
13.2960633878308
30
0
41
1
10
-2.20000000000002
20
13.9908994853336
30
0
41
1
10
-2.20000000000002
20
14.5640747934518
30
0
41
1
10
-2.20000000000002
20
14.8954704523347
30
0
41
1
10
-2.20000000000002
20
15.0247809138928
30
0
0
SPLINE
5
221
100
AcDbEntity
8
SK1
62
256
6
ByLayer
370
-1
48
1
60
0
100
AcDbSpline
70
4
71
3
72
30
73
26
40
0
40
0
40
0
40
0
40
0.0450445944181809
40
0.0902490530668534
40
0.135453511715526
40
0.180657970364199
40
0.225862429012871
40
0.271066887661544
40
0.316271346310216
40
0.361475804958888
40
0.406680263607561
40
0.451884722256234
40
0.497089180904906
40
0.542293639553579
40
0.587498098202251
40
0.632702556850924
40
0.677907015499596
40
0.723111474148269
40
0.768315932796941
40
0.813520391445614
40
0.858724850094286
40
0.903929308742959
40
0.949133767391631
40
0.994338226040304
40
1
40
1
40
1
40
1
41
1
10
-0.399999999999977
20
17.3251498299723
30
0
41
1
10
-0.399999999999977
20
17.3250962939262
30
0
41
1
10
-0.399999999999949
20
17.3111377072256
30
0
41
1
10
-0.399999999999977
20
17.2422674474922
30
0
41
1
10
-0.399999999999977
20
17.1193484069474
30
0
41
1
10
-0.399999999999977
20
16.9372587367204
30
0
41
1
10
-0.400000000000006
20
16.6917602356259
30
0
41
1
10
-0.400000000000006
20
16.3798174953022
30
0
41
1
10
-0.400000000000006
20
15.9997825770269
30
0
41
1
10
-0.400000000000006
20
15.5515337348698
30
0
41
1
10
-0.400000000000006
20
15.0365499649754
30
0
41
1
10
-0.400000000000006
20
14.4579280405673
30
0
41
1
10
-0.400000000000006
20
13.8203335391023
30
0
41
1
10
-0.400000000000006
20
13.1298914527523
30
0
41
1
10
-0.400000000000006
20
12.39401945775
30
0
41
1
10
-0.400000000000034
20
11.6212068879994
30
0
41
1
10
-0.400000000000034
20
10.8207542384819
30
0
41
1
10
-0.400000000000034
20
10.00247262006
30
0
41
1
10
-0.400000000000034
20
9.17636811026827
30
0
41
1
10
-0.400000000000034
20
8.35230629219913
30
0
41
1
10
-0.400000000000034
20
7.53968883941312
30
0
41
1
10
-0.400000000000034
20
6.74713346409783
30
0
41
1
10
-0.400000000000034
20
5.98219169787032
30
0
41
1
10
-0.400000000000034
20
5.46426940201667
30
0
41
1
10
-0.400000000000034
20
5.19818241873483
30
0
41
1
10
-0.400000000000034
20
5.16866682996368
30
0
0
SPLINE
5
222
100
AcDbEntity
8
SK1
62
256
6
ByLayer
370
-1
48
1
60
0
100
AcDbSpline
70
4
71
3
72
79
73
75
40
0
40
0
40
0
40
0
40
0.0074030717402288
40
0.0214772707656333
40
0.0355514697910377
40
0.0496256688164421
40
0.0636998678418466
40
0.077774066867251
40
0.0918482658926555
40
0.10592246491806
40
0.119996663943464
40
0.134070862968869
40
0.148145061994273
40
0.162219261019678
40
0.176293460045082
40
0.190367659070487
40
0.204441858095891
40
0.218516057121295
40
0.2325902561467
40
0.246664455172104
40
0.260738654197509
40
0.274812853222913
40
0.288887052248318
40
0.302961251273722
40
0.317035450299127
40
0.331109649324531
40
0.345183848349935
40
0.35925804737534
40
0.373332246400744
40
0.387406445426149
40
0.401480644451553
40
0.415554843476958
40
0.429629042502362
40
0.443703241527767
40
0.457777440553171
40
0.471851639578576
40
0.48592583860398
40
0.500000037629384
40
0.514074236654789
40
0.528148435680193
40
0.542222634705598
40
0.556296833731002
40
0.570371032756407
40
0.584445231781811
40
0.598519430807215
40
0.61259362983262
40
0.626667828858024
40
0.640742027883429
40
0.654816226908833
40
0.668890425934238
40
0.682964624959642
40
0.697038823985047
40
0.711113023010451
40
0.725187222035856
40
0.73926142106126
40
0.753335620086664
40
0.767409819112069
40
0.781484018137473
40
0.795558217162878
40
0.809632416188282
40
0.823706615213687
40
0.837780814239091
40
0.851855013264496
40
0.8659292122899
40
0.880003411315304
40
0.894077610340709
40
0.908151809366113
40
0.922226008391518
40
0.936300207416922
40
0.950374406442327
40
0.964448605467731
40
0.978522804493135
40
0.99259700351854
40
1
40
1
40
1
40
1
41
1
10
-1.99999999999997
20
17.1116144559991
30
0
41
1
10
-1.99999999999997
20
17.1306737746498
30
0
41
1
10
-1.99999999999997
20
17.1831798978529
30
0
41
1
10
-1.99999999999997
20
17.2550395308993
30
0
41
1
10
-1.99999999999997
20
17.3112459497451
30
0
41
1
10
-1.99999999999997
20
17.3321089735132
30
0
41
1
10
-1.99999999999997
20
17.311218988921
30
0
41
1
10
-1.99999999999997
20
17.2422674474922
30
0
41
1
10
-1.99999999999997
20
17.1193484069474
30
0
41
1
10
-1.99999999999997
20
16.9372587367204
30
0
41
1
10
-1.99999999999997
20
16.6917602356259
30
0
41
1
10
-1.99999999999997
20
16.3798174953022
30
0
41
1
10
-1.99999999999997
20
15.9997825770269
30
0
41
1
10
-1.99999999999997
20
15.5515337348698
30
0
41
1
10
-1.99999999999997
20
15.0365499649754
30
0
41
1
10
-1.99999999999997
20
14.4579280405673
30
0
41
1
10
-1.99999999999997
20
13.8203335391023
30
0
41
1
10
-2
20
13.1298914527523
30
0
41
1
10
-2
20
12.39401945775
30
0
41
1
10
-2.00000000000003
20
11.6212068879994
30
0
41
1
10
-2.00000000000003
20
10.8207542384819
30
0
41
1
10
-2.00000000000003
20
10.00247262006
30
0
41
1
10
-2.00000000000003
20
9.17636811026827
30
0
41
1
10
-2.00000000000003
20
8.35230629219913
30
0
41
1
10
-2.00000000000003
20
7.53968883941312
30
0
41
1
10
-2.00000000000003
20
6.74713346409783
30
0
41
1
10
-2.00000000000003
20
5.98219169787032
30
0
41
1
10
-2.00000000000003
20
5.25109264883253
30
0
41
1
10
-2.00000000000003
20
4.55854550233684
30
0
41
1
10
-2.00000000000003
20
3.90758262960779
30
0
41
1
10
-2.00000000000003
20
3.29948777527221
30
0
41
1
10
-2.00000000000003
20
2.73375387844547
30
0
41
1
10
-2.00000000000003
20
2.20813463136872
30
0
41
1
10
-2.00000000000003
20
1.71876156390923
30
0
41
1
10
-2.00000000000003
20
1.26029526086333
30
0
41
1
10
-2.00000000000003
20
0.826158476850765
30
0
41
1
10
-2.00000000000003
20
0.408799134273892
30
0
41
1
10
-2.00000000000003
20
2.402494488E-07
30
0
41
1
10
-2.00000000000003
20
-0.408799553455736
30
0
41
1
10
-2.00000000000003
20
-0.82615842677356
30
0
41
1
10
-2.00000000000003
20
-1.26029551010325
30
0
41
1
10
-2.00000000000003
20
-1.71876142586774
30
0
41
1
10
-2.00000000000003
20
-2.20813448047156
30
0
41
1
10
-2.00000000000003
20
-2.7337537633878
30
0
41
1
10
-2.00000000000003
20
-3.29948825001514
30
0
41
1
10
-2.00000000000003
20
-3.9075826619212
30
0
41
1
10
-2.00000000000003
20
-4.55854530449344
30
0
41
1
10
-2.00000000000003
20
-5.25109273249788
30
0
41
1
10
-2.00000000000003
20
-5.98219146197602
30
0
41
1
10
-2.00000000000003
20
-6.74713361247495
30
0
41
1
10
-2.00000000000003
20
-7.53968849279406
30
0
41
1
10
-2.00000000000003
20
-8.35230648563552
30
0
41
1
10
-2.00000000000003
20
-9.17636769820604
30
0
41
1
10
-2.00000000000003
20
-10.0024728331477
30
0
41
1
10
-2.00000000000003
20
-10.8207538150476
30
0
41
1
10
-2.00000000000003
20
-11.6212070931939
30
0
41
1
10
-2.00000000000006
20
-12.3940190774915
30
0
41
1
10
-2.00000000000006
20
-13.1298916243886
30
0
41
1
10
-2.00000000000003
20
-13.8203332490725
30
0
41
1
10
-2.00000000000003
20
-14.4579281585871
30
0
41
1
10
-2.00000000000003
20
-15.0365497976464
30
0
41
1
10
-2.00000000000003
20
-15.5515337877379
30
0
41
1
10
-2.00000000000003
20
-15.9997825456108
30
0
41
1
10
-2.00000000000003
20
-16.379817481596
30
0
41
1
10
-2.00000000000003
20
-16.6917603323907
30
0
41
1
10
-2.00000000000003
20
-16.9372586651848
30
0
41
1
10
-2.00000000000003
20
-17.1193485969266
30
0
41
1
10
-2.00000000000003
20
-17.2422669751987
30
0
41
1
10
-2.00000000000003
20
-17.3112199736996
30
0
41
1
10
-2.00000000000003
20
-17.3321088799281
30
0
41
1
10
-2.00000000000003
20
-17.3112453434672
30
0
41
1
10
-2.00000000000003
20
-17.2550397180126
30
0
41
1
10
-2
20
-17.1831802761866
30
0
41
1
10
-2
20
-17.1306742495823
30
0
41
1
10
-2.00000000000003
20
-17.1116151083863
30
0
0
SPLINE
5
223
100
AcDbEntity
8
SK1
62
256
6
ByLayer
370
-1
48
1
60
0
100
AcDbSpline
70
4
71
3
72
24
73
20
40
0
40
0
40
0
40
0
40
0.250000000000001
40
0.250000000000001
40
0.500000000000002
40
0.500000000000002
40
0.625000000000002
40
0.625000000000002
40
0.750000000000003
40
0.750000000000003
40
0.812500000000003
40
0.812500000000003
40
0.875000000000004
40
0.875000000000004
40
0.906250000000003
40
0.906250000000003
40
0.937500000000002
40
0.937500000000002
40
1
40
1
40
1
40
1
41
1
10
-0.200000000000046
20
-5.88142397393344
30
0
41
1
10
-0.200000000000046
20
-5.81371009654848
30
0
41
1
10
-0.201340439454953
20
-5.74574546022151
30
0
41
1
10
-0.207833121644739
20
-5.60923509045296
30
0
41
1
10
-0.212902754690077
20
-5.54059458280554
30
0
41
1
10
-0.225634072984661
20
-5.4374091810827
30
0
41
1
10
-0.230734364014495
20
-5.40303508817371
30
0
41
1
10
-0.243774490552681
20
-5.33441922744203
30
0
41
1
10
-0.251620111359472
20
-5.30011582455157
30
0
41
1
10
-0.267750793190515
20
-5.24965195775641
30
0
41
1
10
-0.273885609564587
20
-5.23293996762811
30
0
41
1
10
-0.288755383055644
20
-5.20074556117078
30
0
41
1
10
-0.297542372526635
20
-5.18480467715821
30
0
41
1
10
-0.315067245397358
20
-5.16447225710797
30
0
41
1
10
-0.321786064568897
20
-5.15820797099255
30
0
41
1
10
-0.33727307780353
20
-5.14902898284879
30
0
41
1
10
-0.346051494737054
20
-5.14633288727399
30
0
41
1
10
-0.372567411829238
20
-5.14665884649861
30
0
41
1
10
-0.387659424580988
20
-5.15684173594229
30
0
41
1
10
-0.400000000000063
20
-5.168666795745
30
0
0
SPLINE
5
224
100
AcDbEntity
8
SK1
62
256
6
ByLayer
370
-1
48
1
60
0
100
AcDbSpline
70
4
71
3
72
79
73
75
40
0
40
0
40
0
40
0
40
0.0067087495126086
40
0.020802785376137
40
0.0348968212396655
40
0.0489908571031939
40
0.0630848929667223
40
0.0771789288302507
40
0.0912729646937791
40
0.105367000557307
40
0.119461036420836
40
0.133555072284364
40
0.147649108147893
40
0.161743144011421
40
0.17583717987495
40
0.189931215738478
40
0.204025251602006
40
0.218119287465535
40
0.232213323329063
40
0.246307359192592
40
0.26040139505612
40
0.274495430919648
40
0.288589466783177
40
0.302683502646705
40
0.316777538510233
40
0.330871574373762
40
0.34496561023729
40
0.359059646100819
40
0.373153681964347
40
0.387247717827875
40
0.401341753691404
40
0.415435789554932
40
0.429529825418461
40
0.443623861281989
40
0.457717897145518
40
0.471811933009046
40
0.485905968872574
40
0.500000004736103
40
0.514094040599631
40
0.52818807646316
40
0.542282112326688
40
0.556376148190216
40
0.570470184053745
40
0.584564219917273
40
0.598658255780802
40
0.61275229164433
40
0.626846327507858
40
0.640940363371387
40
0.655034399234915
40
0.669128435098444
40
0.683222470961972
40
0.6973165068255
40
0.711410542689029
40
0.725504578552557
40
0.739598614416086
40
0.753692650279614
40
0.767786686143142
40
0.781880722006671
40
0.795974757870199
40
0.810068793733728
40
0.824162829597256
40
0.838256865460784
40
0.852350901324313
40
0.866444937187841
40
0.88053897305137
40
0.894633008914898
40
0.908727044778427
40
0.922821080641955
40
0.936915116505483
40
0.951009152369012
40
0.96510318823254
40
0.979197224096068
40
0.993291259959597
40
1
40
1
40
1
40
1
41
1
10
-3
20
-17.2891030015314
30
0
41
1
10
-3
20
-17.3064425240888
30
0
41
1
10
-3
20
-17.3576824674137
30
0
41
1
10
-3
20
-17.4290648746259
30
0
41
1
10
-3
20
-17.4859427971309
30
0
41
1
10
-3
20
-17.5070292572437
30
0
41
1
10
-3
20
-17.4859401738945
30
0
41
1
10
-3.00000000000003
20
-17.4163913620312
30
0
41
1
10
-3.00000000000003
20
-17.2925088911448
30
0
41
1
10
-3.00000000000003
20
-17.1091123896189
30
0
41
1
10
-3.00000000000003
20
-16.8619882313057
30
0
41
1
10
-3.00000000000003
20
-16.5481197778907
30
0
41
1
10
-3.00000000000003
20
-16.1658744357057
30
0
41
1
10
-3.00000000000003
20
-15.7151402778227
30
0
41
1
10
-3.00000000000003
20
-15.1974002275414
30
0
41
1
10
-3.00000000000003
20
-14.6157505856349
30
0
41
1
10
-3.00000000000003
20
-13.9748490556261
30
0
41
1
10
-3.00000000000003
20
-13.2808105172309
30
0
41
1
10
-3.00000000000003
20
-12.5410348198394
30
0
41
1
10
-3
20
-11.763994099502
30
0
41
1
10
-3
20
-10.9589648821141
30
0
41
1
10
-3
20
-10.1357380738661
30
0
41
1
10
-3
20
-9.30429484700929
30
0
41
1
10
-3
20
-8.47448256671282
30
0
41
1
10
-3
20
-7.6556828892094
30
0
41
1
10
-3
20
-6.85650245921596
30
0
41
1
10
-3
20
-6.08448325445985
30
0
41
1
10
-3
20
-5.34585503158101
30
0
41
1
10
-3
20
-4.64533193812392
30
0
41
1
10
-3
20
-3.9859646700211
30
0
41
1
10
-3
20
-3.36905464097902
30
0
41
1
10
-3
20
-2.79412899561987
30
0
41
1
10
-3
20
-2.25898609800083
30
0
41
1
10
-3
20
-1.75979816383233
30
0
41
1
10
-3
20
-1.29128215780307
30
0
41
1
10
-3
20
-0.846915650735156
30
0
41
1
10
-3
20
-0.41920838047011
30
0
41
1
10
-3
20
8.85488021E-08
30
0
41
1
10
-3
20
0.419208026274788
30
0
41
1
10
-3
20
0.84691581376515
30
0
41
1
10
-3
20
1.29128185987813
30
0
41
1
10
-3
20
1.75979828673439
30
0
41
1
10
-3
20
2.25898590431717
30
0
41
1
10
-3
20
2.79412905823773
30
0
41
1
10
-3
20
3.36905458419105
30
0
41
1
10
-3
20
3.98596466105747
30
0
41
1
10
-3
20
4.64533203076618
30
0
41
1
10
-3
20
5.34585495020943
30
0
41
1
10
-3
20
6.08448348730366
30
0
41
1
10
-3
20
6.85650231512167
30
0
41
1
10
-3
20
7.65568323274246
30
0
41
1
10
-3
20
8.47448237855718
30
0
41
1
10
-3
20
9.3042952560987
30
0
41
1
10
-3
20
10.1357378664365
30
0
41
1
10
-3
20
10.9589653027428
30
0
41
1
10
-3
20
11.7639938999324
30
0
41
1
10
-2.99999999999997
20
12.5410351974886
30
0
41
1
10
-2.99999999999997
20
13.2808103509102
30
0
41
1
10
-2.99999999999997
20
13.9748493432595
30
0
41
1
10
-2.99999999999997
20
14.6157504724401
30
0
41
1
10
-2.99999999999997
20
15.1974003926871
30
0
41
1
10
-2.99999999999997
20
15.7151402291805
30
0
41
1
10
-2.99999999999997
20
16.1658744651289
30
0
41
1
10
-2.99999999999997
20
16.5481197951877
30
0
41
1
10
-2.99999999999997
20
16.8619881326948
30
0
41
1
10
-2.99999999999997
20
17.1091124641426
30
0
41
1
10
-2.99999999999997
20
17.2925086916609
30
0
41
1
10
-2.99999999999997
20
17.4163918494222
30
0
41
1
10
-2.99999999999997
20
17.4859391868839
30
0
41
1
10
-2.99999999999994
20
17.5070293524766
30
0
41
1
10
-2.99999999999994
20
17.4859434032096
30
0
41
1
10
-2.99999999999994
20
17.4290646714908
30
0
41
1
10
-2.99999999999994
20
17.3576822652758
30
0
41
1
10
-2.99999999999994
20
17.3064424615151
30
0
41
1
10
-2.99999999999992
20
17.2891029987731
30
0
0
SPLINE
5
225
100
AcDbEntity
8
SK1
62
256
6
ByLayer
370
-1
48
1
60
0
100
AcDbSpline
70
4
71
3
72
26
73
22
40
0
40
0
40
0
40
0
40
0.0312500000000011
40
0.0312500000000011
40
0.0625000000000023
40
0.0625000000000023
40
0.0937500000000034
40
0.0937500000000034
40
0.125000000000004
40
0.125000000000004
40
0.187500000000004
40
0.187500000000004
40
0.250000000000004
40
0.250000000000004
40
0.375000000000003
40
0.375000000000003
40
0.500000000000003
40
0.500000000000003
40
0.750000000000001
40
0.750000000000001
40
1
40
1
40
1
40
1
41
1
10
-0.400000000000034
20
5.16866682996297
30
0
41
1
10
-0.39379156107097
20
5.16271774597109
30
0
41
1
10
-0.387065759690273
20
5.15737775419612
30
0
41
1
10
-0.371847789302336
20
5.14918868455118
30
0
41
1
10
-0.363364114486188
20
5.14648591129571
30
0
41
1
10
-0.345795239221502
20
5.14639178859295
30
0
41
1
10
-0.336814123758302
20
5.14920763371799
30
0
41
1
10
-0.321282558839755
20
5.15860582383482
30
0
41
1
10
-0.314550028521779
20
5.16497907632953
30
0
41
1
10
-0.296944139903985
20
5.18569897355047
30
0
41
1
10
-0.288179942609275
20
5.20182093101974
30
0
41
1
10
-0.273356478254499
20
5.23426931143496
30
0
41
1
10
-0.267307193501125
20
5.25091131490998
30
0
41
1
10
-0.251274285749361
20
5.30146995854872
30
0
41
1
10
-0.243428614732437
20
5.33601274127312
30
0
41
1
10
-0.230497441696428
20
5.40451867267049
30
0
41
1
10
-0.225449336351801
20
5.43874947226385
30
0
41
1
10
-0.212850463115558
20
5.54134062553351
30
0
41
1
10
-0.207811804454735
20
5.60959926072471
30
0
41
1
10
-0.201341575126975
20
5.74580650530868
30
0
41
1
10
-0.200000000000046
20
5.81380202900655
30
0
41
1
10
-0.200000000000046
20
5.88142452370542
30
0
0
LINE
5
45
100
AcDbEntity
8
80
62
256
6
ByLayer
370
-1
48
1
60
0
100
AcDbLine
10
0
20
0
30
0
11
-7
21
0
31
0
39
0
210
0
220
0
230
1
0
LINE
5
46
100
AcDbEntity
8
81
62
256
6
ByLayer
370
-1
48
1
60
0
100
AcDbLine
10
107
20
0
30
0
11
114
21
0
31
0
39
0
210
0
220
0
230
1
0
LINE
5
47
100
AcDbEntity
8
1
62
256
6
ByLayer
370
-1
48
1
60
0
100
AcDbLine
10
19.4
20
25
30
0
11
0.3
21
25
31
0
39
0
210
0
220
0
230
1
0
LINE
5
49
100
AcDbEntity
8
1
62
256
6
ByLayer
370
-1
48
1
60
0
100
AcDbLine
10
0.3
20
-25
30
0
11
19.4
21
-25
31
0
39
0
210
0
220
0
230
1
0
LINE
5
4A
100
AcDbEntity
8
1
62
256
6
ByLayer
370
-1
48
1
60
0
100
AcDbLine
10
0.3
20
25
30
0
11
0
21
24.7
31
0
39
0
210
0
220
0
230
1
0
LINE
5
4B
100
AcDbEntity
8
1
62
256
6
ByLayer
370
-1
48
1
60
0
100
AcDbLine
10
0
20
-24.7
30
0
11
0.3
21
-25
31
0
39
0
210
0
220
0
230
1
0
LINE
5
4C
100
AcDbEntity
8
1
62
256
6
ByLayer
370
-1
48
1
60
0
100
AcDbLine
10
19.4
20
-25
30
0
11
19.7
21
-24.7
31
0
39
0
210
0
220
0
230
1
0
LINE
5
4D
100
AcDbEntity
8
1
62
256
6
ByLayer
370
-1
48
1
60
0
100
AcDbLine
10
19.7
20
24.7
30
0
11
19.4
21
25
31
0
39
0
210
0
220
0
230
1
0
LINE
5
4E
100
AcDbEntity
8
1
62
256
6
ByLayer
370
-1
48
1
60
0
100
AcDbLine
10
19.7
20
-16
30
0
11
20
21
-16
31
0
39
0
210
0
220
0
230
1
0
LINE
5
4F
100
AcDbEntity
8
1
62
256
6
ByLayer
370
-1
48
1
60
0
100
AcDbLine
10
20
20
16
30
0
11
19.7
21
16
31
0
39
0
210
0
220
0
230
1
0
LINE
5
50
100
AcDbEntity
8
1
62
256
6
ByLayer
370
-1
48
1
60
0
100
AcDbLine
10
24.9
20
-16
30
0
11
25.025882
21
-15.903407
31
0
39
0
210
0
220
0
230
1
0
LINE
5
51
100
AcDbEntity
8
1
62
256
6
ByLayer
370
-1
48
1
60
0
100
AcDbLine
10
25.025882
20
15.903407
30
0
11
24.9
21
16
31
0
39
0
210
0
220
0
230
1
0
LINE
5
52
100
AcDbEntity
8
1
62
256
6
ByLayer
370
-1
48
1
60
0
100
AcDbLine
10
20.1
20
16
30
0
11
20
21
15.9
31
0
39
0
210
0
220
0
230
1
0
LINE
5
53
100
AcDbEntity
8
1
62
256
6
ByLayer
370
-1
48
1
60
0
100
AcDbLine
10
20
20
-15.9
30
0
11
20.1
21
-16
31
0
39
0
210
0
220
0
230
1
0
LINE
5
54
100
AcDbEntity
8
1
62
256
6
ByLayer
370
-1
48
1
60
0
100
AcDbLine
10
24.9
20
16
30
0
11
20.1
21
16
31
0
39
0
210
0
220
0
230
1
0
LINE
5
55
100
AcDbEntity
8
1
62
256
6
ByLayer
370
-1
48
1
60
0
100
AcDbLine
10
20.1
20
-16
30
0
11
24.9
21
-16
31
0
39
0
210
0
220
0
230
1
0
LINE
5
56
100
AcDbEntity
8
1
62
256
6
ByLayer
370
-1
48
1
60
0
100
AcDbLine
10
25.025882
20
-15.903407
30
0
11
25.243045
21
-15.092945
31
0
39
0
210
0
220
0
230
1
0
LINE
5
57
100
AcDbEntity
8
1
62
256
6
ByLayer
370
-1
48
1
60
0
100
AcDbLine
10
25.243045
20
15.092945
30
0
11
25.025882
21
15.903407
31
0
39
0
210
0
220
0
230
1
0
LINE
5
58
100
AcDbEntity
8
1
62
256
6
ByLayer
370
-1
48
1
60
0
100
AcDbLine
10
26.015785
20
-14.5
30
0
11
26.5
21
-14.5
31
0
39
0
210
0
220
0
230
1
0
LINE
5
59
100
AcDbEntity
8
1
62
256
6
ByLayer
370
-1
48
1
60
0
100
AcDbLine
10
26.5
20
14.5
30
0
11
26.015785
21
14.5
31
0
39
0
210
0
220
0
230
1
0
LINE
5
5A
100
AcDbEntity
8
1
62
256
6
ByLayer
370
-1
48
1
60
0
100
AcDbLine
10
63.815331
20
10.6
30
0
11
38
21
10.6
31
0
39
0
210
0
220
0
230
1
0
LINE
5
5B
100
AcDbEntity
8
1
62
256
6
ByLayer
370
-1
48
1
60
0
100
AcDbLine
10
98.997297
20
10.6
30
0
11
96.907937
21
10.6
31
0
39
0
210
0
220
0
230
1
0
LINE
5
5C
100
AcDbEntity
8
1
62
256
6
ByLayer
370
-1
48
1
60
0
100
AcDbLine
10
38
20
-10.6
30
0
11
60.563317
21
-10.6
31
0
39
0
210
0
220
0
230
1
0
LINE
5
5D
100
AcDbEntity
8
SK4
62
256
6
ByLayer
370
-1
48
0.05
60
0
100
AcDbLine
10
107
20
0
30
0
11
-30
21
0
31
0
39
0
210
0
220
0
230
1
0
LINE
5
5F
100
AcDbEntity
8
4
62
256
6
ByLayer
370
-1
48
0.05
60
0
100
AcDbLine
10
107
20
0
30
0
11
0
21
0
31
0
39
0
210
0
220
0
230
1
0
LINE
5
61
100
AcDbEntity
8
1
62
256
6
ByLayer
370
-1
48
1
60
0
100
AcDbLine
10
97.21159
20
4.120154
30
0
11
97.893905
21
3.815207
31
0
39
0
210
0
220
0
230
1
0
LINE
5
62
100
AcDbEntity
8
1
62
256
6
ByLayer
370
-1
48
1
60
0
100
AcDbLine
10
98.402766
20
-10.595246
30
0
11
106.082654
21
-10.595246
31
0
39
0
210
0
220
0
230
1
0
LINE
5
63
100
AcDbEntity
8
1
62
256
6
ByLayer
370
-1
48
1
60
0
100
AcDbLine
10
105.683461
20
3.445015
30
0
11
105.51282
21
3.454256
31
0
39
0
210
0
220
0
230
1
0
LINE
5
64
100
AcDbEntity
8
1
62
256
6
ByLayer
370
-1
48
1
60
0
100
AcDbLine
10
99.157978
20
7.270501
30
0
11
99.308018
21
7.270501
31
0
39
0
210
0
220
0
230
1
0
LINE
5
65
100
AcDbEntity
8
1
62
256
6
ByLayer
370
-1
48
1
60
0
100
AcDbLine
10
101.02853
20
3.297063
30
0
11
105.51282
21
3.454256
31
0
39
0
210
0
220
0
230
1
0
LINE
5
66
100
AcDbEntity
8
1
62
256
6
ByLayer
370
-1
48
1
60
0
100
AcDbLine
10
8.538675
20
23.83913
30
0
11
11.461325
21
23.83913
31
0
39
0
210
0
220
0
230
1
0
LINE
5
67
100
AcDbEntity
8
1
62
256
6
ByLayer
370
-1
48
1
60
0
100
AcDbLine
10
11.461325
20
-23.83913
30
0
11
11.461325
21
-7.529667
31
0
39
0
210
0
220
0
230
1
0
LINE
5
68
100
AcDbEntity
8
1
62
256
6
ByLayer
370
-1
48
1
60
0
100
AcDbLine
10
98.670408
20
6.088911
30
0
11
98.897013
21
6.088911
31
0
39
0
210
0
220
0
230
1
0
LINE
5
69
100
AcDbEntity
8
1
62
256
6
ByLayer
370
-1
48
1
60
0
100
AcDbLine
10
105.883499
20
0.61527
30
0
11
105.892247
21
0.614965
31
0
39
0
210
0
220
0
230
1
0
LINE
5
6A
100
AcDbEntity
8
1
62
256
6
ByLayer
370
-1
48
1
60
0
100
AcDbLine
10
26.5
20
5.820503
30
0
11
26.5
21
-14.5
31
0
39
0
210
0
220
0
230
1
0
LINE
5
6B
100
AcDbEntity
8
1
62
256
6
ByLayer
370
-1
48
1
60
0
100
AcDbLine
10
94.187953
20
6.64
30
0
11
95.757406
21
6.64
31
0
39
0
210
0
220
0
230
1
0
LINE
5
6C
100
AcDbEntity
8
1
62
256
6
ByLayer
370
-1
48
1
60
0
100
AcDbLine
10
99.085569
20
7.238818
30
0
11
98.978462
21
10.597797
31
0
39
0
210
0
220
0
230
1
0
LINE
5
6D
100
AcDbEntity
8
1
62
256
6
ByLayer
370
-1
48
1
60
0
100
AcDbLine
10
105.934986
20
0.592317
30
0
11
105.892247
21
0.614965
31
0
39
0
210
0
220
0
230
1
0
LINE
5
6E
100
AcDbEntity
8
1
62
256
6
ByLayer
370
-1
48
1
60
0
100
AcDbLine
10
25.243045
20
-15.092945
30
0
11
25.243045
21
15.092945
31
0
39
0
210
0
220
0
230
1
0
LINE
5
6F
100
AcDbEntity
8
1
62
256
6
ByLayer
370
-1
48
1
60
0
100
AcDbLine
10
105.933912
20
0.589094
30
0
11
105.869011
21
0.591356
31
0
39
0
210
0
220
0
230
1
0
LINE
5
70
100
AcDbEntity
8
1
62
256
6
ByLayer
370
-1
48
1
60
0
100
AcDbLine
10
97.046737
20
6.794089
30
0
11
95.714917
21
7.045051
31
0
39
0
210
0
220
0
230
1
0
LINE
5
71
100
AcDbEntity
8
1
62
256
6
ByLayer
370
-1
48
1
60
0
100
AcDbLine
10
38
20
10.6
30
0
11
38
21
7.326857
31
0
39
0
210
0
220
0
230
1
0
LINE
5
72
100
AcDbEntity
8
1
62
256
6
ByLayer
370
-1
48
1
60
0
100
AcDbLine
10
11.461325
20
7.529667
30
0
11
11.461325
21
23.83913
31
0
39
0
210
0
220
0
230
1
0
LINE
5
73
100
AcDbEntity
8
1
62
256
6
ByLayer
370
-1
48
1
60
0
100
AcDbLine
10
8.105662
20
8.055848
30
0
11
8.105662
21
23.666502
31
0
39
0
210
0
220
0
230
1
0
LINE
5
74
100
AcDbEntity
8
1
62
256
6
ByLayer
370
-1
48
1
60
0
100
AcDbLine
10
105.662086
20
-5.13118
30
0
11
105.386549
21
-5.008408
31
0
39
0
210
0
220
0
230
1
0
LINE
5
75
100
AcDbEntity
8
1
62
256
6
ByLayer
370
-1
48
1
60
0
100
AcDbLine
10
105.934986
20
0.592317
30
0
11
105.933912
21
0.589094
31
0
39
0
210
0
220
0
230
1
0
LINE
5
76
100
AcDbEntity
8
1
62
256
6
ByLayer
370
-1
48
1
60
0
100
AcDbLine
10
97.893905
20
3.815207
30
0
11
97.866728
21
3.815207
31
0
39
0
210
0
220
0
230
1
0
LINE
5
77
100
AcDbEntity
8
1
62
256
6
ByLayer
370
-1
48
1
60
0
100
AcDbLine
10
104.863184
20
1.215825
30
0
11
105.683461
21
3.445015
31
0
39
0
210
0
220
0
230
1
0
LINE
5
78
100
AcDbEntity
8
1
62
256
6
ByLayer
370
-1
48
1
60
0
100
AcDbLine
10
105.857091
20
0.053574
30
0
11
106.140514
21
-5.344354
31
0
39
0
210
0
220
0
230
1
0
LINE
5
79
100
AcDbEntity
8
1
62
256
6
ByLayer
370
-1
48
1
60
0
100
AcDbLine
10
11.894338
20
-23.666502
30
0
11
11.894338
21
-8.055848
31
0
39
0
210
0
220
0
230
1
0
LINE
5
7A
100
AcDbEntity
8
1
62
256
6
ByLayer
370
-1
48
1
60
0
100
AcDbLine
10
0
20
-24.7
30
0
11
0
21
24.7
31
0
39
0
210
0
220
0
230
1
0
LINE
5
7B
100
AcDbEntity
8
1
62
256
6
ByLayer
370
-1
48
1
60
0
100
AcDbLine
10
99.005656
20
10.599571
30
0
11
99.11282
21
7.238818
31
0
39
0
210
0
220
0
230
1
0
LINE
5
7C
100
AcDbEntity
8
1
62
256
6
ByLayer
370
-1
48
1
60
0
100
AcDbLine
10
19.7
20
-24.7
30
0
11
19.7
21
24.7
31
0
39
0
210
0
220
0
230
1
0
LINE
5
7D
100
AcDbEntity
8
1
62
256
6
ByLayer
370
-1
48
1
60
0
100
AcDbLine
10
26.015785
20
14.5
30
0
11
26.015785
21
9.886201
31
0
39
0
210
0
220
0
230
1
0
LINE
5
7E
100
AcDbEntity
8
1
62
256
6
ByLayer
370
-1
48
1
60
0
100
AcDbLine
10
11.461325
20
7.529667
30
0
11
8.538675
21
7.529667
31
0
39
0
210
0
220
0
230
1
0
LINE
5
7F
100
AcDbEntity
8
1
62
256
6
ByLayer
370
-1
48
1
60
0
100
AcDbLine
10
105.893039
20
3.442121
30
0
11
105.683461
21
3.445015
31
0
39
0
210
0
220
0
230
1
0
LINE
5
80
100
AcDbEntity
8
1
62
256
6
ByLayer
370
-1
48
1
60
0
100
AcDbLine
10
8.538675
20
-23.83913
30
0
11
8.538675
21
-7.529667
31
0
39
0
210
0
220
0
230
1
0
LINE
5
81
100
AcDbEntity
8
1
62
256
6
ByLayer
370
-1
48
1
60
0
100
AcDbLine
10
11.894338
20
8.055848
30
0
11
11.894338
21
23.666502
31
0
39
0
210
0
220
0
230
1
0
LINE
5
82
100
AcDbEntity
8
1
62
256
6
ByLayer
370
-1
48
1
60
0
100
AcDbLine
10
98.897013
20
6.088911
30
0
11
98.941631
21
4.689627
31
0
39
0
210
0
220
0
230
1
0
LINE
5
83
100
AcDbEntity
8
1
62
256
6
ByLayer
370
-1
48
1
60
0
100
AcDbLine
10
98.715026
20
4.689627
30
0
11
98.941631
21
4.689627
31
0
39
0
210
0
220
0
230
1
0
LINE
5
84
100
AcDbEntity
8
1
62
256
6
ByLayer
370
-1
48
1
60
0
100
AcDbLine
10
20.1
20
16
30
0
11
20.1
21
-16
31
0
39
0
210
0
220
0
230
1
0
LINE
5
85
100
AcDbEntity
8
1
62
256
6
ByLayer
370
-1
48
1
60
0
100
AcDbLine
10
106.140514
20
-5.344354
30
0
11
105.889108
21
-5.232335
31
0
39
0
210
0
220
0
230
1
0
LINE
5
86
100
AcDbEntity
8
1
62
256
6
ByLayer
370
-1
48
1
60
0
100
AcDbLine
10
98.28778
20
4.546044
30
0
11
96.155282
21
5.49912
31
0
39
0
210
0
220
0
230
1
0
LINE
5
87
100
AcDbEntity
8
1
62
256
6
ByLayer
370
-1
48
1
60
0
100
AcDbLine
10
99.84987
20
0.916278
30
0
11
100.490856
21
3.121403
31
0
39
0
210
0
220
0
230
1
0
LINE
5
88
100
AcDbEntity
8
1
62
256
6
ByLayer
370
-1
48
1
60
0
100
AcDbLine
10
95.714917
20
10.592269
30
0
11
95.714917
21
7.045051
31
0
39
0
210
0
220
0
230
1
0
LINE
5
89
100
AcDbEntity
8
1
62
256
6
ByLayer
370
-1
48
1
60
0
100
AcDbLine
10
0.3
20
-25
30
0
11
0.3
21
25
31
0
39
0
210
0
220
0
230
1
0
LINE
5
8A
100
AcDbEntity
8
1
62
256
6
ByLayer
370
-1
48
1
60
0
100
AcDbLine
10
99.320172
20
3.373477
30
0
11
99.37054
21
3.373477
31
0
39
0
210
0
220
0
230
1
0
LINE
5
8B
100
AcDbEntity
8
1
62
256
6
ByLayer
370
-1
48
1
60
0
100
AcDbLine
10
8.538675
20
7.529667
30
0
11
8.538675
21
23.83913
31
0
39
0
210
0
220
0
230
1
0
LINE
5
8C
100
AcDbEntity
8
1
62
256
6
ByLayer
370
-1
48
1
60
0
100
AcDbLine
10
97.046737
20
6.794089
30
0
11
97.046737
21
10.599895
31
0
39
0
210
0
220
0
230
1
0
LINE
5
8D
100
AcDbEntity
8
1
62
256
6
ByLayer
370
-1
48
1
60
0
100
AcDbLine
10
8.538675
20
-7.529667
30
0
11
11.461325
21
-7.529667
31
0
39
0
210
0
220
0
230
1
0
LINE
5
8E
100
AcDbEntity
8
1
62
256
6
ByLayer
370
-1
48
1
60
0
100
AcDbLine
10
11.461325
20
-23.83913
30
0
11
8.538675
21
-23.83913
31
0
39
0
210
0
220
0
230
1
0
LINE
5
8F
100
AcDbEntity
8
1
62
256
6
ByLayer
370
-1
48
1
60
0
100
AcDbLine
10
105.51282
20
3.454256
30
0
11
105.662319
21
3.454256
31
0
39
0
210
0
220
0
230
1
0
LINE
5
90
100
AcDbEntity
8
1
62
256
6
ByLayer
370
-1
48
1
60
0
100
AcDbLine
10
26.5
20
14.5
30
0
11
26.5
21
10.577528
31
0
39
0
210
0
220
0
230
1
0
LINE
5
91
100
AcDbEntity
8
1
62
256
6
ByLayer
370
-1
48
1
60
0
100
AcDbLine
10
105.855867
20
0.078031
30
0
11
104.908107
21
0.500327
31
0
39
0
210
0
220
0
230
1
0
LINE
5
92
100
AcDbEntity
8
1
62
256
6
ByLayer
370
-1
48
1
60
0
100
AcDbLine
10
105.934986
20
0.592317
30
0
11
106.035538
21
3.639384
31
0
39
0
210
0
220
0
230
1
0
LINE
5
93
100
AcDbEntity
8
1
62
256
6
ByLayer
370
-1
48
1
60
0
100
AcDbLine
10
24.9
20
16
30
0
11
24.9
21
-16
31
0
39
0
210
0
220
0
230
1
0
LINE
5
94
100
AcDbEntity
8
1
62
256
6
ByLayer
370
-1
48
1
60
0
100
AcDbLine
10
38
20
-10.6
30
0
11
38
21
-6.918881
31
0
39
0
210
0
220
0
230
1
0
LINE
5
95
100
AcDbEntity
8
1
62
256
6
ByLayer
370
-1
48
1
60
0
100
AcDbLine
10
19.4
20
-25
30
0
11
19.4
21
25
31
0
39
0
210
0
220
0
230
1
0
LINE
5
96
100
AcDbEntity
8
1
62
256
6
ByLayer
370
-1
48
1
60
0
100
AcDbLine
10
106.140514
20
-5.344354
30
0
11
106.129306
21
-5.470712
31
0
39
0
210
0
220
0
230
1
0
LINE
5
97
100
AcDbEntity
8
1
62
256
6
ByLayer
370
-1
48
1
60
0
100
AcDbLine
10
97.29442
20
2.117114
30
0
11
97.1004
21
1.449645
31
0
39
0
210
0
220
0
230
1
0
LINE
5
98
100
AcDbEntity
8
1
62
256
6
ByLayer
370
-1
48
1
60
0
100
AcDbLine
10
106.082654
20
-10.595246
30
0
11
106.474451
21
-6.177994
31
0
39
0
210
0
220
0
230
1
0
LINE
5
99
100
AcDbEntity
8
1
62
256
6
ByLayer
370
-1
48
1
60
0
100
AcDbLine
10
25.025882
20
15.903407
30
0
11
25.025882
21
-15.903407
31
0
39
0
210
0
220
0
230
1
0
LINE
5
9A
100
AcDbEntity
8
1
62
256
6
ByLayer
370
-1
48
1
60
0
100
AcDbLine
10
105.662374
20
3.454256
30
0
11
105.893039
21
3.442121
31
0
39
0
210
0
220
0
230
1
0
LINE
5
9B
100
AcDbEntity
8
1
62
256
6
ByLayer
370
-1
48
1
60
0
100
AcDbLine
10
106.474451
20
-6.177994
30
0
11
106.146563
21
-6.138387
31
0
39
0
210
0
220
0
230
1
0
LINE
5
9C
100
AcDbEntity
8
1
62
256
6
ByLayer
370
-1
48
1
60
0
100
AcDbLine
10
26.015785
20
6.895422
30
0
11
26.015785
21
-14.5
31
0
39
0
210
0
220
0
230
1
0
LINE
5
9D
100
AcDbEntity
8
1
62
256
6
ByLayer
370
-1
48
1
60
0
100
AcDbLine
10
99.085569
20
7.238818
30
0
11
99.11282
21
7.238818
31
0
39
0
210
0
220
0
230
1
0
LINE
5
9E
100
AcDbEntity
8
1
62
256
6
ByLayer
370
-1
48
1
60
0
100
AcDbLine
10
98.670408
20
6.088911
30
0
11
98.715026
21
4.689627
31
0
39
0
210
0
220
0
230
1
0
LINE
5
9F
100
AcDbEntity
8
1
62
256
6
ByLayer
370
-1
48
1
60
0
100
AcDbLine
10
20
20
16
30
0
11
20
21
-16
31
0
39
0
210
0
220
0
230
1
0
LINE
5
A0
100
AcDbEntity
8
1
62
256
6
ByLayer
370
-1
48
1
60
0
100
AcDbLine
10
8.105662
20
-23.666502
30
0
11
8.105662
21
-8.055848
31
0
39
0
210
0
220
0
230
1
0
LINE
5
A1
100
AcDbEntity
8
1
62
256
6
ByLayer
370
-1
48
1
60
0
100
AcDbLine
10
106.787905
20
4.262336
30
0
11
106.717914
21
4.26122
31
0
39
0
210
0
220
0
230
1
0
LINE
5
A2
100
AcDbEntity
8
1
62
256
6
ByLayer
370
-1
48
1
60
0
100
AcDbLine
10
99.91803
20
10.829491
30
0
11
99.919923
21
10.7598
31
0
39
0
210
0
220
0
230
1
0
LINE
5
A3
100
AcDbEntity
8
1
62
256
6
ByLayer
370
-1
48
1
60
0
100
AcDbLine
10
99.809211
20
3.436621
30
0
11
99.824306
21
3.504567
31
0
39
0
210
0
220
0
230
1
0
LINE
5
A4
100
AcDbEntity
8
1
62
256
6
ByLayer
370
-1
48
1
60
0
100
AcDbLine
10
106.578048
20
10.326329
30
0
11
106.50809
21
10.323896
31
0
39
0
210
0
220
0
230
1
0
LINE
5
A5
100
AcDbEntity
8
1
62
256
6
ByLayer
370
-1
48
1
60
0
100
AcDbLine
10
105.819527
20
11.036363
30
0
11
105.82142
21
10.966672
31
0
39
0
210
0
220
0
230
1
0
LINE
5
A6
100
AcDbEntity
8
1
62
256
6
ByLayer
370
-1
48
1
60
0
100
AcDbLine
10
99.207946
20
10.159037
30
0
11
99.27686
21
10.160837
31
0
39
0
210
0
220
0
230
1
0
LINE
5
A7
100
AcDbEntity
8
1
62
256
6
ByLayer
370
-1
48
1
60
0
100
AcDbLine
10
99.210698
20
10.068073
30
0
11
99.279592
21
10.070507
31
0
39
0
210
0
220
0
230
1
0
LINE
5
A8
100
AcDbEntity
8
1
62
256
6
ByLayer
370
-1
48
1
60
0
100
AcDbLine
10
106.076801
20
3.640871
30
0
11
106.073845
21
3.710562
31
0
39
0
210
0
220
0
230
1
0
LINE
5
A9
100
AcDbEntity
8
1
62
256
6
ByLayer
370
-1
48
1
60
0
100
AcDbLine
10
106.789181
20
4.102283
30
0
11
106.719181
21
4.102283
31
0
39
0
210
0
220
0
230
1
0
LINE
5
AA
100
AcDbEntity
8
1
62
256
6
ByLayer
370
-1
48
1
60
0
100
AcDbLine
10
99.420359
20
4.053098
30
0
11
99.489228
21
4.056166
31
0
39
0
210
0
220
0
230
1
0
LINE
5
AB
100
AcDbEntity
8
1
62
256
6
ByLayer
370
-1
48
1
60
0
100
AcDbLine
10
99.553011
20
10.801241
30
0
11
99.57279
21
10.734555
31
0
39
0
210
0
220
0
230
1
0
LINE
5
AC
100
AcDbEntity
8
1
62
256
6
ByLayer
370
-1
48
1
60
0
100
AcDbLine
10
106.784133
20
4.402289
30
0
11
106.714175
21
4.399856
31
0
39
0
210
0
220
0
230
1
0
LINE
5
AD
100
AcDbEntity
8
1
62
256
6
ByLayer
370
-1
48
1
60
0
100
AcDbLine
10
106.572086
20
10.466206
30
0
11
106.502186
21
10.462455
31
0
39
0
210
0
220
0
230
1
0
LINE
5
AE
100
AcDbEntity
8
1
62
256
6
ByLayer
370
-1
48
1
60
0
100
AcDbLine
10
99.444926
20
3.77762
30
0
11
99.510827
21
3.798008
31
0
39
0
210
0
220
0
230
1
0
LINE
5
AF
100
AcDbEntity
8
1
62
256
6
ByLayer
370
-1
48
1
60
0
100
AcDbLine
10
106.375289
20
3.656743
30
0
11
106.369912
21
3.726307
31
0
39
0
210
0
220
0
230
1
0
LINE
5
B0
100
AcDbEntity
8
1
62
256
6
ByLayer
370
-1
48
1
60
0
100
AcDbLine
10
106.16739
20
3.644461
30
0
11
106.163802
21
3.714127
31
0
39
0
210
0
220
0
230
1
0
LINE
5
B1
100
AcDbEntity
8
1
62
256
6
ByLayer
370
-1
48
1
60
0
100
AcDbLine
10
100.175304
20
3.433999
30
0
11
100.172348
21
3.50369
31
0
39
0
210
0
220
0
230
1
0
LINE
5
B2
100
AcDbEntity
8
1
62
256
6
ByLayer
370
-1
48
1
60
0
100
AcDbLine
10
105.910145
20
11.039125
30
0
11
105.911406
21
10.969415
31
0
39
0
210
0
220
0
230
1
0
LINE
5
B3
100
AcDbEntity
8
1
62
256
6
ByLayer
370
-1
48
1
60
0
100
AcDbLine
10
100.035883
20
3.430213
30
0
11
100.03424
21
3.499937
31
0
39
0
210
0
220
0
230
1
0
LINE
5
B4
100
AcDbEntity
8
1
62
256
6
ByLayer
370
-1
48
1
60
0
100
AcDbLine
10
105.819527
20
11.036363
30
0
11
99.91803
21
10.829491
31
0
39
0
210
0
220
0
230
1
0
LINE
5
B5
100
AcDbEntity
8
1
62
256
6
ByLayer
370
-1
48
1
60
0
100
AcDbLine
10
106.118392
20
11.041431
30
0
11
106.11786
21
10.971697
31
0
39
0
210
0
220
0
230
1
0
LINE
5
B6
100
AcDbEntity
8
1
62
256
6
ByLayer
370
-1
48
1
60
0
100
AcDbLine
10
106.562236
20
10.625958
30
0
11
106.492405
21
10.621094
31
0
39
0
210
0
220
0
230
1
0
LINE
5
B7
100
AcDbEntity
8
1
62
256
6
ByLayer
370
-1
48
1
60
0
100
AcDbLine
10
106.784133
20
4.402289
30
0
11
106.578048
21
10.326329
31
0
39
0
210
0
220
0
230
1
0
LINE
5
B8
100
AcDbEntity
8
1
62
256
6
ByLayer
370
-1
48
1
60
0
100
AcDbLine
10
106.18562
20
11.033742
30
0
11
106.169462
21
10.965795
31
0
39
0
210
0
220
0
230
1
0
LINE
5
B9
100
AcDbEntity
8
1
62
256
6
ByLayer
370
-1
48
1
60
0
100
AcDbLine
10
99.432595
20
3.844404
30
0
11
99.501362
21
3.849269
31
0
39
0
210
0
220
0
230
1
0
LINE
5
BA
100
AcDbEntity
8
1
62
256
6
ByLayer
370
-1
48
1
60
0
100
AcDbLine
10
100.175304
20
3.433999
30
0
11
106.076801
21
3.640871
31
0
39
0
210
0
220
0
230
1
0
LINE
5
BB
100
AcDbEntity
8
1
62
256
6
ByLayer
370
-1
48
1
60
0
100
AcDbLine
10
99.210698
20
10.068073
30
0
11
99.416783
21
4.144033
31
0
39
0
210
0
220
0
230
1
0
LINE
5
BC
100
AcDbEntity
8
1
62
256
6
ByLayer
370
-1
48
1
60
0
100
AcDbLine
10
106.574472
20
10.417265
30
0
11
106.504539
21
10.414197
31
0
39
0
210
0
220
0
230
1
0
LINE
5
BD
100
AcDbEntity
8
1
62
256
6
ByLayer
370
-1
48
1
60
0
100
AcDbLine
10
106.44182
20
3.669121
30
0
11
106.420978
21
3.735808
31
0
39
0
210
0
220
0
230
1
0
LINE
5
BE
100
AcDbEntity
8
1
62
256
6
ByLayer
370
-1
48
1
60
0
100
AcDbLine
10
106.786885
20
4.311325
30
0
11
106.716908
21
4.309526
31
0
39
0
210
0
220
0
230
1
0
LINE
5
BF
100
AcDbEntity
8
1
62
256
6
ByLayer
370
-1
48
1
60
0
100
AcDbLine
10
106.216145
20
3.646857
30
0
11
106.211877
21
3.716489
31
0
39
0
210
0
220
0
230
1
0
LINE
5
C0
100
AcDbEntity
8
1
62
256
6
ByLayer
370
-1
48
1
60
0
100
AcDbLine
10
99.827441
20
10.825901
30
0
11
99.829965
21
10.756235
31
0
39
0
210
0
220
0
230
1
0
LINE
5
C1
100
AcDbEntity
8
1
62
256
6
ByLayer
370
-1
48
1
60
0
100
AcDbLine
10
105.958948
20
11.04015
30
0
11
105.959528
21
10.970425
31
0
39
0
210
0
220
0
230
1
0
LINE
5
C2
100
AcDbEntity
8
1
62
256
6
ByLayer
370
-1
48
1
60
0
100
AcDbLine
10
99.876439
20
3.428932
30
0
11
99.875908
21
3.498665
31
0
39
0
210
0
220
0
230
1
0
LINE
5
C3
100
AcDbEntity
8
1
62
256
6
ByLayer
370
-1
48
1
60
0
100
AcDbLine
10
99.619542
20
10.813619
30
0
11
99.623856
21
10.744055
31
0
39
0
210
0
220
0
230
1
0
LINE
5
C4
100
AcDbEntity
8
1
62
256
6
ByLayer
370
-1
48
1
60
0
100
AcDbLine
10
106.781521
20
4.034798
30
0
11
106.713302
21
4.050485
31
0
39
0
210
0
220
0
230
1
0
LINE
5
C5
100
AcDbEntity
8
1
62
256
6
ByLayer
370
-1
48
1
60
0
100
AcDbLine
10
100.084686
20
3.431237
30
0
11
100.082362
21
3.500947
31
0
39
0
210
0
220
0
230
1
0
LINE
5
C6
100
AcDbEntity
8
1
62
256
6
ByLayer
370
-1
48
1
60
0
100
AcDbLine
10
99.206926
20
10.208026
30
0
11
99.275854
21
10.209142
31
0
39
0
210
0
220
0
230
1
0
LINE
5
C7
100
AcDbEntity
8
1
62
256
6
ByLayer
370
-1
48
1
60
0
100
AcDbLine
10
106.549906
20
10.692743
30
0
11
106.482941
21
10.672354
31
0
39
0
210
0
220
0
230
1
0
LINE
5
C8
100
AcDbEntity
8
1
62
256
6
ByLayer
370
-1
48
1
60
0
100
AcDbLine
10
99.20565
20
10.368079
30
0
11
99.274587
21
10.368079
31
0
39
0
210
0
220
0
230
1
0
LINE
5
C9
100
AcDbEntity
8
1
62
256
6
ByLayer
370
-1
48
1
60
0
100
AcDbLine
10
99.422746
20
4.004157
30
0
11
99.491582
21
4.007907
31
0
39
0
210
0
220
0
230
1
0
LINE
5
CA
100
AcDbEntity
8
1
62
256
6
ByLayer
370
-1
48
1
60
0
100
AcDbLine
10
99.778686
20
10.823506
30
0
11
99.78189
21
10.753873
31
0
39
0
210
0
220
0
230
1
0
LINE
5
CB
100
AcDbEntity
8
1
62
256
6
ByLayer
370
-1
48
1
60
0
100
AcDbLine
10
99.416783
20
4.144033
30
0
11
99.485677
21
4.146467
31
0
39
0
210
0
220
0
230
1
0
LINE
5
CC
100
AcDbEntity
8
1
62
256
6
ByLayer
370
-1
48
1
60
0
100
AcDbLine
10
99.21331
20
10.435564
30
0
11
99.280466
21
10.419878
31
0
39
0
210
0
220
0
230
1
0
LINE
5
CD
100
AcDbEntity
8
1
62
256
6
ByLayer
370
-1
48
1
60
0
100
AcDbLine
10
106.593428
20
-0.791111
30
0
11
106.367837
21
-0.723718
31
0
39
0
210
0
220
0
230
1
0
LINE
5
CE
100
AcDbEntity
8
1
62
256
6
ByLayer
370
-1
48
1
60
0
100
AcDbLine
10
106.128466
20
-2.376114
30
0
11
106.028603
21
-2.381338
31
0
39
0
210
0
220
0
230
1
0
LINE
5
CF
100
AcDbEntity
8
1
62
256
6
ByLayer
370
-1
48
1
60
0
100
AcDbLine
10
106.028603
20
-2.381338
30
0
11
105.948134
21
-0.848771
31
0
39
0
210
0
220
0
230
1
0
LINE
5
D0
100
AcDbEntity
8
1
62
256
6
ByLayer
370
-1
48
1
60
0
100
AcDbLine
10
106.113873
20
-6.01618
30
0
11
106.615171
21
-5.834063
31
0
39
0
210
0
220
0
230
1
0
LINE
5
D1
100
AcDbEntity
8
1
62
256
6
ByLayer
370
-1
48
1
60
0
100
AcDbLine
10
106.943856
20
-5.38251
30
0
11
106.999695
21
-3.786467
31
0
39
0
210
0
220
0
230
1
0
LINE
5
D2
100
AcDbEntity
8
1
62
256
6
ByLayer
370
-1
48
1
60
0
100
AcDbLine
10
106.41956
20
-4.299669
30
0
11
106.742147
21
-4.359752
31
0
39
0
210
0
220
0
230
1
0
LINE
5
D3
100
AcDbEntity
8
1
62
256
6
ByLayer
370
-1
48
1
60
0
100
AcDbLine
10
106.450808
20
-2.408091
30
0
11
106.370339
21
-0.875524
31
0
39
0
210
0
220
0
230
1
0
LINE
5
D4
100
AcDbEntity
8
1
62
256
6
ByLayer
370
-1
48
1
60
0
100
AcDbLine
10
106.683779
20
-2.511896
30
0
11
106.593428
21
-0.791111
31
0
39
0
210
0
220
0
230
1
0
LINE
5
D5
100
AcDbEntity
8
1
62
256
6
ByLayer
370
-1
48
1
60
0
100
AcDbLine
10
106.999695
20
-3.786467
30
0
11
106.766913
21
-3.662544
31
0
39
0
210
0
220
0
230
1
0
LINE
5
D6
100
AcDbEntity
8
1
62
256
6
ByLayer
370
-1
48
1
60
0
100
AcDbLine
10
106.128466
20
-2.376114
30
0
11
106.450808
21
-2.408091
31
0
39
0
210
0
220
0
230
1
0
LINE
5
D7
100
AcDbEntity
8
1
62
256
6
ByLayer
370
-1
48
1
60
0
100
AcDbLine
10
106.542785
20
-5.744689
30
0
11
106.110895
21
-5.775723
31
0
39
0
210
0
220
0
230
1
0
LINE
5
D8
100
AcDbEntity
8
1
62
256
6
ByLayer
370
-1
48
1
60
0
100
AcDbLine
10
106.41956
20
-4.299669
30
0
11
106.442586
21
-3.64152
31
0
39
0
210
0
220
0
230
1
0
LINE
5
D9
100
AcDbEntity
8
1
62
256
6
ByLayer
370
-1
48
1
60
0
100
AcDbLine
10
106.114046
20
-4.840316
30
0
11
106.256375
21
-4.689718
31
0
39
0
210
0
220
0
230
1
0
LINE
5
DA
100
AcDbEntity
8
1
62
256
6
ByLayer
370
-1
48
1
60
0
100
AcDbLine
10
106.370339
20
-0.875524
30
0
11
106.047997
21
-0.843547
31
0
39
0
210
0
220
0
230
1
0
LINE
5
DB
100
AcDbEntity
8
1
62
256
6
ByLayer
370
-1
48
1
60
0
100
AcDbLine
10
106.143603
20
0.326634
30
0
11
106.227261
21
-0.132088
31
0
39
0
210
0
220
0
230
1
0
LINE
5
DC
100
AcDbEntity
8
1
62
256
6
ByLayer
370
-1
48
1
60
0
100
AcDbLine
10
105.882025
20
-0.421256
30
0
11
106.227261
21
-0.132088
31
0
39
0
210
0
220
0
230
1
0
LINE
5
DD
100
AcDbEntity
8
1
62
256
6
ByLayer
370
-1
48
1
60
0
100
AcDbLine
10
106.196194
20
0.362003
30
0
11
106.143603
21
0.326634
31
0
39
0
210
0
220
0
230
1
0
LINE
5
DE
100
AcDbEntity
8
1
62
256
6
ByLayer
370
-1
48
1
60
0
100
AcDbLine
10
106.442586
20
-3.64152
30
0
11
106.765173
21
-3.701603
31
0
39
0
210
0
220
0
230
1
0
LINE
5
DF
100
AcDbEntity
8
1
62
256
6
ByLayer
370
-1
48
1
60
0
100
AcDbLine
10
106.256375
20
-4.689718
30
0
11
106.851781
21
-5.374183
31
0
39
0
210
0
220
0
230
1
0
LINE
5
E0
100
AcDbEntity
8
1
62
256
6
ByLayer
370
-1
48
1
60
0
100
AcDbLine
10
106.683779
20
-2.511896
30
0
11
106.450808
21
-2.408091
31
0
39
0
210
0
220
0
230
1
0
LINE
5
E1
100
AcDbEntity
8
1
62
256
6
ByLayer
370
-1
48
1
60
0
100
AcDbLine
10
106.563959
20
-0.64654
30
0
11
106.344424
21
-0.580955
31
0
39
0
210
0
220
0
230
1
0
LINE
5
E2
100
AcDbEntity
8
1
62
256
6
ByLayer
370
-1
48
1
60
0
100
AcDbLine
10
106.765173
20
-3.701603
30
0
11
106.742147
21
-4.359752
31
0
39
0
210
0
220
0
230
1
0
LINE
5
E3
100
AcDbEntity
8
1
62
256
6
ByLayer
370
-1
48
1
60
0
100
AcDbLine
10
106.31962
20
-4.296186
30
0
11
106.342646
21
-3.638037
31
0
39
0
210
0
220
0
230
1
0
LINE
5
E4
100
AcDbEntity
8
1
62
256
6
ByLayer
370
-1
48
1
60
0
100
AcDbLine
10
106.128466
20
-2.376114
30
0
11
106.047997
21
-0.843547
31
0
39
0
210
0
220
0
230
1
0
LINE
5
E5
100
AcDbEntity
8
1
62
256
6
ByLayer
370
-1
48
1
60
0
100
AcDbLine
10
106.106811
20
-4.702512
30
0
11
106.183633
21
-4.621227
31
0
39
0
210
0
220
0
230
1
0
LINE
5
E6
100
AcDbEntity
8
1
62
256
6
ByLayer
370
-1
48
1
60
0
100
AcDbLine
10
106.563959
20
-0.64654
30
0
11
106.196194
21
0.362003
31
0
39
0
210
0
220
0
230
1
0
LINE
5
E7
100
AcDbEntity
8
1
62
256
6
ByLayer
370
-1
48
1
60
0
100
AcDbLine
10
106.169547
20
-3.625899
30
0
11
106.146521
21
-4.284048
31
0
39
0
210
0
220
0
230
1
0
LINE
5
E8
100
AcDbEntity
8
1
62
256
6
ByLayer
370
-1
48
1
60
0
100
AcDbLine
10
106.382498
20
-3.358643
30
0
11
106.672761
21
-3.266545
31
0
39
0
210
0
220
0
230
1
0
LINE
5
E9
100
AcDbEntity
8
1
62
256
6
ByLayer
370
-1
48
1
60
0
100
AcDbLine
10
106.893882
20
-3.303562
30
0
11
106.685663
21
-3.292114
31
0
39
0
210
0
220
0
230
1
0
LINE
5
EA
100
AcDbEntity
8
1
62
256
6
ByLayer
370
-1
48
1
60
0
100
AcDbLine
10
106.615171
20
-5.834063
30
0
11
106.542785
21
-5.744689
31
0
39
0
210
0
220
0
230
1
0
LINE
5
EB
100
AcDbEntity
8
1
62
256
6
ByLayer
370
-1
48
1
60
0
100
AcDbLine
10
106.943856
20
-5.38251
30
0
11
106.839024
21
-5.253074
31
0
39
0
210
0
220
0
230
1
0
LINE
5
EC
100
AcDbEntity
8
SK1
62
256
6
ByLayer
370
-1
48
1
60
0
100
AcDbLine
10
-0.2
20
17.833485
30
0
11
-0.2
21
5.881425
31
0
39
0
210
0
220
0
230
1
0
LINE
5
EE
100
AcDbEntity
8
SK1
62
256
6
ByLayer
370
-1
48
1
60
0
100
AcDbLine
10
-1.307107
20
3.804744
30
0
11
-1.307107
21
-3.804747
31
0
39
0
210
0
220
0
230
1
0
LINE
5
EF
100
AcDbEntity
8
SK1
62
256
6
ByLayer
370
-1
48
1
60
0
100
AcDbLine
10
-0.2
20
-5.881424
30
0
11
-0.2
21
-17.833485
31
0
39
0
210
0
220
0
230
1
0
MTEXT
5
226
100
AcDbEntity
8
SK6
62
256
6
ByLayer
370
-1
48
1
60
0
100
AcDbMText
10
0.79375
20
-80.79375
30
0
210
0
220
0
230
1
1
\W00.727;\fsimplex.shx,bigfont.shx;880-D2200C5-03 
40
3.175
41
0
44
1.084337
50
0
71
7
72
5
7
DEFAULT
0
DIMENSION
5
256
100
AcDbEntity
8
SK2
62
256
6
ByLayer
370
-3
48
1
60
0
100
AcDbDimension
2
DimnDraft3D1
10
107
20
-63.81875
30
0
11
38.5
21
-63.81875
31
0
70
32
71
5
72
1
41
1
210
0
220
0
230
1
3
Standard
100
AcDbAlignedDimension
13
-30
23
-4.0875
33
0
14
107
24
-12.5875
34
0
50
0
100
AcDbRotatedDimension
1001
ACAD
1000
DSTYLE
1002
{
1070
   279
1070
     0
1070
   172
1070
     1
1070
   173
1070
     1
1070
   340
1005
227
1070
   271
1070
     1
1070
   272
1070
     2
1070
    77
1070
     1
1070
    73
1070
     0
1070
   171
1070
     3
1070
   274
1070
     4
1070
   177
1070
   150
1070
   176
1070
     9
1070
   178
1070
    43
1070
    78
1070
     8
1070
    48
1040
-0.005
1070
    41
1041
4.175
1070
   147
1041
2.25
1070
    42
1041
1.5875
1070
    44
1041
3.175
1070
   140
1041
4.5
1070
   343
1005
0
1070
   344
1005
0
1002
}
0
DIMENSION
5
260
100
AcDbEntity
8
SK2
62
256
6
ByLayer
370
-3
48
1
60
0
100
AcDbDimension
2
DimnDraft3D2
10
0
20
-51.85
30
0
11
-15
21
-51.85
31
0
70
32
71
5
72
1
41
1
210
0
220
0
230
1
3
Standard
100
AcDbAlignedDimension
13
-30
23
-4.0875
33
0
14
0
24
-26.5875
34
0
50
0
100
AcDbRotatedDimension
1001
ACAD
1000
DSTYLE
1002
{
1070
   279
1070
     0
1070
   172
1070
     1
1070
   173
1070
     1
1070
   340
1005
227
1070
   271
1070
     1
1070
   272
1070
     2
1070
    77
1070
     1
1070
    73
1070
     0
1070
   171
1070
     3
1070
   274
1070
     4
1070
   177
1070
   150
1070
   176
1070
     9
1070
   178
1070
    43
1070
    78
1070
     8
1070
    48
1040
-0.005
1070
    41
1041
4.175
1070
   147
1041
2.25
1070
    42
1041
1.5875
1070
    44
1041
3.175
1070
   140
1041
4.5
1070
   343
1005
0
1070
   344
1005
0
1002
}
0
DIMENSION
5
26B
100
AcDbEntity
8
2
62
256
6
ByLayer
370
-3
48
1
60
0
100
AcDbDimension
2
DimnDraft3D3
10
107
20
-51.85
30
0
11
53.5
21
-51.85
31
0
70
32
71
5
72
1
41
1
210
0
220
0
230
1
3
Standard
100
AcDbAlignedDimension
13
0
23
-26.5875
33
0
14
107
24
-12.5875
34
0
50
0
100
AcDbRotatedDimension
1001
ACAD
1000
DSTYLE
1002
{
1070
   279
1070
     0
1070
   172
1070
     1
1070
   173
1070
     1
1070
   340
1005
227
1070
   271
1070
     1
1070
   272
1070
     2
1070
    77
1070
     1
1070
    73
1070
     0
1070
   171
1070
     3
1070
   274
1070
     4
1070
   177
1070
   150
1070
   176
1070
     9
1070
   178
1070
    43
1070
    78
1070
     8
1070
    48
1040
-0.005
1070
    41
1041
4.175
1070
   147
1041
2.25
1070
    42
1041
1.5875
1070
    44
1041
3.175
1070
   140
1041
4.5
1070
   343
1005
0
1070
   344
1005
0
1002
}
0
DIMENSION
5
275
100
AcDbEntity
8
SK2
62
256
6
ByLayer
370
-3
48
1
60
0
100
AcDbDimension
2
DimnDraft3D4
10
107
20
-41.85
30
0
11
72.5
21
-41.85
31
0
70
32
71
5
72
1
41
1
210
0
220
0
230
1
3
Standard
100
AcDbAlignedDimension
13
38
23
-11.5875
33
0
14
107
24
-12.5875
34
0
50
0
100
AcDbRotatedDimension
1001
ACAD
1000
DSTYLE
1002
{
1070
   279
1070
     0
1070
   172
1070
     1
1070
   173
1070
     1
1070
   340
1005
227
1070
   271
1070
     1
1070
   272
1070
     2
1070
    77
1070
     1
1070
    73
1070
     0
1070
   171
1070
     3
1070
   274
1070
     4
1070
   177
1070
   150
1070
   176
1070
     9
1070
   178
1070
    43
1070
    78
1070
     8
1070
    48
1040
-0.005
1070
    41
1041
4.175
1070
   147
1041
2.25
1070
    42
1041
1.5875
1070
    44
1041
3.175
1070
   140
1041
4.5
1070
   343
1005
0
1070
   344
1005
0
1002
}
0
DIMENSION
5
280
100
AcDbEntity
8
SK2
62
256
6
ByLayer
370
-3
48
1
60
0
100
AcDbDimension
2
DimnDraft3D5
10
-52.084264
20
25
30
0
11
-52.284264
21
4.121053
31
0
70
33
71
5
72
1
41
1
210
0
220
0
230
1
3
Standard
100
AcDbAlignedDimension
13
-1.5875
23
-25
33
0
14
-1.5875
24
25
34
0
1001
ACAD
1000
DSTYLE
1002
{
1070
   279
1070
     0
1070
    74
1070
     0
1070
   173
1070
     1
1070
   340
1005
227
1070
   271
1070
     1
1070
   272
1070
     2
1070
    77
1070
     1
1070
    73
1070
     0
1070
   171
1070
     3
1070
   274
1070
     4
1070
   177
1070
   150
1070
   176
1070
     9
1070
   178
1070
    43
1070
    78
1070
     8
1070
    48
1040
-0.005
1070
    41
1041
4.175
1070
   147
1041
2.25
1070
    42
1041
1.5875
1070
    44
1041
3.175
1070
   140
1041
4.5
1070
   343
1005
0
1070
   344
1005
0
1002
}
0
DIMENSION
5
28B
100
AcDbEntity
8
2
62
256
6
ByLayer
370
-3
48
1
60
0
100
AcDbDimension
2
DimnDraft3D6
10
137.15
20
-11
30
0
11
130.6
21
4.121053
31
0
70
33
71
5
72
1
41
1
210
0
220
0
230
1
3
Standard
100
AcDbAlignedDimension
13
108.5875
23
11
33
0
14
108.5875
24
-11
34
0
1001
ACAD
1000
DSTYLE
1002
{
1070
   279
1070
     0
1070
    74
1070
     0
1070
   173
1070
     1
1070
   340
1005
227
1070
   271
1070
     2
1070
   272
1070
     2
1070
    77
1070
     1
1070
    73
1070
     0
1070
   171
1070
     3
1070
   274
1070
     4
1070
   177
1070
   150
1070
   176
1070
     9
1070
   178
1070
    43
1070
    78
1070
     8
1070
    48
1040
-0.005
1070
    41
1041
4.175
1070
   147
1041
2.25
1070
    42
1041
1.5875
1070
    44
1041
3.175
1070
   140
1041
4.5
1070
   343
1005
0
1070
   344
1005
0
1002
}
0
ENDSEC
0
SECTION
2
OBJECTS
0
DICTIONARY
5
2bc
330
0
100
AcDbDictionary
280
0
281
1
3
ACAD_GROUP
350
2bd
3
ACAD_MLINESTYLE
350
2be
0
DICTIONARY
5
2bd
330
0
100
AcDbDictionary
280
0
281
1
0
DICTIONARY
5
2be
330
0
100
AcDbDictionary
280
0
281
1
3
Standard
350
18
0
MLINESTYLE
5
18
330
2be
100
AcDbMlineStyle
2
Standard
70
0
3

62
256
51
90
52
90
71
2
49
-0.5
62
256
6
ByLayer
49
0.5
62
256
6
ByLayer
0
RASTERVARIABLES
5
2aa
330

100
AcDbRasterVariables
90
0
70
1
71
1
72
1
0
ENDSEC
0
EOF
