0
SECTION
2
HEADER
9
$ACADVER
1
AC1015
9
$DWGCODEPAGE
3
ANSI_1252
9
$HANDSEED
5
2c5
9
$ANGBASE
50
0
9
$ANGDIR
70
0
9
$ATTMODE
70
1
9
$AUNITS
70
0
9
$AUPREC
70
0
9
$CECOLOR
62
256
9
$CELTSCALE
40
1
9
$CELTYPE
6
ByLayer
9
$CELWEIGHT
370
-1
9
$CLAYER
8
0
9
$CMLJUST
70
0
9
$CMLSCALE
40
1
9
$CMLSTYLE
2
Standard
9
$DIMSTYLE
2
Standard
9
$TEXTSIZE
40
0.2
9
$TEXTSTYLE
7
Standard
9
$LUNITS
70
2
9
$LUPREC
70
4
9
$EXTNAMES
290
1
9
$INSUNITS
70
4
9
$LTSCALE
40
1
9
$LWDISPLAY
290
0
9
$PDMODE
70
0
9
$PDSIZE
40
0
9
$PLINEGEN
70
0
0
ENDSEC
0
SECTION
2
CLASSES
0
CLASS
1
RASTERVARIABLES
2
AcDbRasterVariables
3
ISM
90
0
280
0
281
0
0
ENDSEC
0
SECTION
2
TABLES
0
TABLE
2
VPORT
5
2bb
100
AcDbSymbolTable
0
VPORT
5
1
100
AcDbSymbolTableRecord
100
AcDbViewportTableRecord
2
*Active
70
0
10
0
20
0
11
1
21
1
12
-1
22
1
13
0
23
0
14
0.5
24
0.5
15
10
25
10
16
0
26
0
36
1
17
0
27
0
37
0
0
ENDTAB
0
TABLE
2
LTYPE
5
2bc
100
AcDbSymbolTable
0
LTYPE
5
14
100
AcDbSymbolTableRecord
100
AcDbLinetypeTableRecord
70
0
2
ByBlock
3

72
65
73
0
40
0
0
LTYPE
5
15
100
AcDbSymbolTableRecord
100
AcDbLinetypeTableRecord
70
0
2
ByLayer
3

72
65
73
0
40
0
0
LTYPE
5
16
100
AcDbSymbolTableRecord
100
AcDbLinetypeTableRecord
70
0
2
CONTINUOUS
3
Solid line
72
65
73
0
40
0
0
LTYPE
5
3B
100
AcDbSymbolTableRecord
100
AcDbLinetypeTableRecord
70
0
2
DASHED
3
__ __ __ __ __ __ __ __ __
72
65
73
2
40
25.72
49
12.86
74
0
49
-12.86
74
0
0
LTYPE
5
3C
100
AcDbSymbolTableRecord
100
AcDbLinetypeTableRecord
70
0
2
HIDDEN
3
_ _ _ _ _ _ _ _ _ _ _ _ _ _ _
72
65
73
2
40
0.5
49
0.25
74
0
49
-0.25
74
0
0
LTYPE
5
3D
100
AcDbSymbolTableRecord
100
AcDbLinetypeTableRecord
70
0
2
PHANTOM
3
____ _ _ ____ _ _ _____ _ _ ____
72
65
73
6
40
50.5
49
18
74
0
49
-6.5
74
0
49
6.5
74
0
49
-6.5
74
0
49
6.5
74
0
49
-6.5
74
0
0
LTYPE
5
3E
100
AcDbSymbolTableRecord
100
AcDbLinetypeTableRecord
70
0
2
CENTER
3
____ _ ____ _ ____ _ ____
72
65
73
4
40
47.5
49
22
74
0
49
-8.5
74
0
49
8.5
74
0
49
-8.5
74
0
0
LTYPE
5
3F
100
AcDbSymbolTableRecord
100
AcDbLinetypeTableRecord
70
0
2
DOT
3
.........................
72
65
73
2
40
10
49
0
74
0
49
-10
74
0
0
LTYPE
5
40
100
AcDbSymbolTableRecord
100
AcDbLinetypeTableRecord
70
0
2
DASHDOT
3
_._._._._._._._._._._._._._._._.
72
65
73
4
40
70
49
31
74
0
49
-13
74
0
49
13
74
0
49
-13
74
0
0
ENDTAB
0
TABLE
2
LAYER
5
2bd
100
AcDbSymbolTable
0
LAYER
5
10
100
AcDbSymbolTableRecord
100
AcDbLayerTableRecord
2
0
70
0
62
7
6
CONTINUOUS
290
1
370
-3
390
0
0
LAYER
5
42
100
AcDbSymbolTableRecord
100
AcDbLayerTableRecord
2
81
70
0
62
-3
6
CONTINUOUS
290
1
370
-3
390
0
0
LAYER
5
44
100
AcDbSymbolTableRecord
100
AcDbLayerTableRecord
2
80
70
0
62
-6
6
CONTINUOUS
290
1
370
-3
390
0
0
LAYER
5
48
100
AcDbSymbolTableRecord
100
AcDbLayerTableRecord
2
1
70
0
62
4
6
CONTINUOUS
290
1
370
-3
390
0
0
LAYER
5
63
100
AcDbSymbolTableRecord
100
AcDbLayerTableRecord
2
4
70
0
62
-2
6
CENTER
290
1
370
-3
390
0
0
LAYER
5
254
100
AcDbSymbolTableRecord
100
AcDbLayerTableRecord
2
2
70
0
62
7
6
CONTINUOUS
290
1
370
-3
390
0
0
LAYER
5
2a7
100
AcDbSymbolTableRecord
100
AcDbLayerTableRecord
2
SK1
70
0
62
4
6
CONTINUOUS
290
1
370
-3
390
0
0
LAYER
5
2a8
100
AcDbSymbolTableRecord
100
AcDbLayerTableRecord
2
SK4
70
0
62
2
6
CENTER
290
1
370
-3
390
0
0
LAYER
5
2a9
100
AcDbSymbolTableRecord
100
AcDbLayerTableRecord
2
SK6
70
0
62
5
6
CONTINUOUS
290
1
370
-3
390
0
0
LAYER
5
2aa
100
AcDbSymbolTableRecord
100
AcDbLayerTableRecord
2
SK2
70
0
62
7
6
CONTINUOUS
290
1
370
-3
390
0
0
ENDTAB
0
TABLE
2
STYLE
5
2be
100
AcDbSymbolTable
0
STYLE
5
11
100
AcDbSymbolTableRecord
100
AcDbTextStyleTableRecord
2
Standard
3
txt
70
0
71
0
40
0
41
1
42
0
50
0
0
STYLE
5
218
100
AcDbSymbolTableRecord
100
AcDbTextStyleTableRecord
2
DEFAULT
3
simplex.shx
70
0
71
0
40
0
41
1
42
0
50
0
0
STYLE
5
23B
100
AcDbSymbolTableRecord
100
AcDbTextStyleTableRecord
2
DWGDirectTextStyle
3
SIMPLEX
70
0
71
0
40
0
41
1
42
0
50
0
0
ENDTAB
0
TABLE
2
DIMSTYLE
5
2bf
100
AcDbSymbolTable
100
AcDbDimStyleTable
0
DIMSTYLE
105
27
100
AcDbSymbolTableRecord
100
AcDbDimStyleTableRecord
2
Standard
70
0
3
<>
41
0.18
42
0.0625
44
0.18
140
0.18
147
0.09
73
0
74
0
77
1
271
2
275
0
278
52
280
0
340
11
0
ENDTAB
0
TABLE
2
VIEW
5
2c0
100
AcDbSymbolTable
0
ENDTAB
0
TABLE
2
UCS
5
2c1
100
AcDbSymbolTable
0
ENDTAB
0
TABLE
2
APPID
5
2c2
100
AcDbSymbolTable
0
APPID
5
12
100
AcDbSymbolTableRecord
100
AcDbRegAppTableRecord
2
ACAD
70
0
0
ENDTAB
0
TABLE
2
BLOCK_RECORD
5
2c3
100
AcDbSymbolTable
0
BLOCK_RECORD
5
1F
100
AcDbSymbolTableRecord
100
AcDbBlockTableRecord
2
*Model_Space
340
0
70
0
0
BLOCK_RECORD
5
1B
100
AcDbSymbolTableRecord
100
AcDbBlockTableRecord
2
*Paper_Space
340
0
70
0
0
BLOCK_RECORD
5
23
100
AcDbSymbolTableRecord
100
AcDbBlockTableRecord
2
*Paper_Space0
340
0
70
0
0
BLOCK_RECORD
5
23D
100
AcDbSymbolTableRecord
100
AcDbBlockTableRecord
2
DimnDraft3D1
340
0
70
0
0
BLOCK_RECORD
5
248
100
AcDbSymbolTableRecord
100
AcDbBlockTableRecord
2
DimnDraft3D2
340
0
70
0
0
BLOCK_RECORD
5
252
100
AcDbSymbolTableRecord
100
AcDbBlockTableRecord
2
DimnDraft3D3
340
0
70
0
0
BLOCK_RECORD
5
25D
100
AcDbSymbolTableRecord
100
AcDbBlockTableRecord
2
DimnDraft3D4
340
0
70
0
0
BLOCK_RECORD
5
267
100
AcDbSymbolTableRecord
100
AcDbBlockTableRecord
2
DimnDraft3D5
340
0
70
0
0
BLOCK_RECORD
5
272
100
AcDbSymbolTableRecord
100
AcDbBlockTableRecord
2
DimnDraft3D6
340
0
70
0
0
BLOCK_RECORD
5
27D
100
AcDbSymbolTableRecord
100
AcDbBlockTableRecord
2
DimnDraft3D7
340
0
70
0
0
ENDTAB
0
ENDSEC
0
SECTION
2
BLOCKS
0
BLOCK
5
20
100
AcDbEntity
8
0
100
AcDbBlockBegin
2
*Model_Space
70
0
10
0
20
0
30
0
3
*Model_Space
0
ENDBLK
5
21
100
AcDbEntity
8
0
100
AcDbBlockEnd
0
BLOCK
5
1C
100
AcDbEntity
8
0
100
AcDbBlockBegin
2
*Paper_Space
70
0
10
0
20
0
30
0
3
*Paper_Space
0
ENDBLK
5
1D
100
AcDbEntity
8
0
100
AcDbBlockEnd
0
BLOCK
5
24
100
AcDbEntity
8
0
100
AcDbBlockBegin
2
*Paper_Space0
70
0
10
0
20
0
30
0
3
*Paper_Space0
0
ENDBLK
5
25
100
AcDbEntity
8
0
100
AcDbBlockEnd
0
BLOCK
5
245
100
AcDbEntity
8
0
100
AcDbBlockBegin
2
DimnDraft3D1
70
0
10
0
20
0
30
0
3
DimnDraft3D1
0
MTEXT
5
23E
100
AcDbEntity
8
SK2
62
256
6
ByLayer
370
-1
48
1
60
0
100
AcDbMText
10
23.669737
20
-51.7758
30
0
210
0
220
0
230
1
1
\W01.000;\fsimplex.shx,bigfont.shx;(174) 
40
4.5
41
0
44
1.084337
50
0
71
7
72
5
7
DEFAULT
0
LINE
5
240
100
AcDbEntity
8
SK2
62
256
6
ByLayer
370
-1
48
1
60
0
100
AcDbLine
10
-56
20
-14.0875
30
0
11
-56
21
-58.04455
31
0
39
0
210
0
220
0
230
1
0
LINE
5
241
100
AcDbEntity
8
SK2
62
256
6
ByLayer
370
-1
48
1
60
0
100
AcDbLine
10
118
20
-11.3375
30
0
11
118
21
-58.04455
31
0
39
0
210
0
220
0
230
1
0
LINE
5
242
100
AcDbEntity
8
SK2
62
256
6
ByLayer
370
-1
48
1
60
0
100
AcDbLine
10
-56
20
-54.86955
30
0
11
118
21
-54.86955
31
0
39
0
210
0
220
0
230
1
0
SOLID
5
243
100
AcDbEntity
8
SK2
62
256
6
ByLayer
370
-1
48
1
60
0
100
AcDbTrace
10
-56
20
-54.86955
30
0
11
-51.825003
21
-53.943975
31
0
12
-51.824997
22
-55.795125
32
0
13
-56
23
-54.86955
33
0
39
0
210
0
220
0
230
1
0
SOLID
5
244
100
AcDbEntity
8
SK2
62
256
6
ByLayer
370
-1
48
1
60
0
100
AcDbTrace
10
118
20
-54.86955
30
0
11
113.825003
21
-55.795125
31
0
12
113.824997
22
-53.943975
32
0
13
118
23
-54.86955
33
0
39
0
210
0
220
0
230
1
0
ENDBLK
5
246
100
AcDbEntity
8
0
100
AcDbBlockEnd
0
BLOCK
5
24F
100
AcDbEntity
8
0
100
AcDbBlockBegin
2
DimnDraft3D2
70
0
10
0
20
0
30
0
3
DimnDraft3D2
0
MTEXT
5
249
100
AcDbEntity
8
SK2
62
256
6
ByLayer
370
-1
48
1
60
0
100
AcDbMText
10
-29.503947
20
-41.7758
30
0
210
0
220
0
230
1
1
\W01.000;\fsimplex.shx,bigfont.shx;56 
40
4.5
41
0
44
1.084337
50
0
71
7
72
5
7
DEFAULT
0
LINE
5
24A
100
AcDbEntity
8
SK2
62
256
6
ByLayer
370
-1
48
1
60
0
100
AcDbLine
10
-56
20
-14.0875
30
0
11
-56
21
-46.0758
31
0
39
0
210
0
220
0
230
1
0
LINE
5
24B
100
AcDbEntity
8
SK2
62
256
6
ByLayer
370
-1
48
1
60
0
100
AcDbLine
10
0
20
-17.5875
30
0
11
0
21
-46.0758
31
0
39
0
210
0
220
0
230
1
0
LINE
5
24C
100
AcDbEntity
8
SK2
62
256
6
ByLayer
370
-1
48
1
60
0
100
AcDbLine
10
-56
20
-42.9008
30
0
11
0
21
-42.9008
31
0
39
0
210
0
220
0
230
1
0
SOLID
5
24D
100
AcDbEntity
8
SK2
62
256
6
ByLayer
370
-1
48
1
60
0
100
AcDbTrace
10
-56
20
-42.9008
30
0
11
-51.825003
21
-41.975225
31
0
12
-51.824997
22
-43.826375
32
0
13
-56
23
-42.9008
33
0
39
0
210
0
220
0
230
1
0
SOLID
5
24E
100
AcDbEntity
8
SK2
62
256
6
ByLayer
370
-1
48
1
60
0
100
AcDbTrace
10
0
20
-42.9008
30
0
11
-4.174997
21
-43.826375
31
0
12
-4.175003
22
-41.975225
32
0
13
0
23
-42.9008
33
0
39
0
210
0
220
0
230
1
0
ENDBLK
5
250
100
AcDbEntity
8
0
100
AcDbBlockEnd
0
BLOCK
5
25A
100
AcDbEntity
8
0
100
AcDbBlockBegin
2
DimnDraft3D3
70
0
10
0
20
0
30
0
3
DimnDraft3D3
0
MTEXT
5
253
100
AcDbEntity
8
2
62
256
6
ByLayer
370
-1
48
1
60
0
100
AcDbMText
10
56.969079
20
-41.7758
30
0
210
0
220
0
230
1
1
\W01.000;\fsimplex.shx,bigfont.shx;118 
40
4.5
41
0
44
1.084337
50
0
71
7
72
5
7
DEFAULT
0
LINE
5
255
100
AcDbEntity
8
2
62
256
6
ByLayer
370
-1
48
1
60
0
100
AcDbLine
10
0
20
-17.5875
30
0
11
0
21
-46.0758
31
0
39
0
210
0
220
0
230
1
0
LINE
5
256
100
AcDbEntity
8
2
62
256
6
ByLayer
370
-1
48
1
60
0
100
AcDbLine
10
118
20
-11.3375
30
0
11
118
21
-46.0758
31
0
39
0
210
0
220
0
230
1
0
LINE
5
257
100
AcDbEntity
8
2
62
256
6
ByLayer
370
-1
48
1
60
0
100
AcDbLine
10
0
20
-42.9008
30
0
11
118
21
-42.9008
31
0
39
0
210
0
220
0
230
1
0
SOLID
5
258
100
AcDbEntity
8
2
62
256
6
ByLayer
370
-1
48
1
60
0
100
AcDbTrace
10
0
20
-42.9008
30
0
11
4.174997
21
-41.975225
31
0
12
4.175003
22
-43.826375
32
0
13
0
23
-42.9008
33
0
39
0
210
0
220
0
230
1
0
SOLID
5
259
100
AcDbEntity
8
2
62
256
6
ByLayer
370
-1
48
1
60
0
100
AcDbTrace
10
118
20
-42.9008
30
0
11
113.825003
21
-43.826375
31
0
12
113.824997
22
-41.975225
32
0
13
118
23
-42.9008
33
0
39
0
210
0
220
0
230
1
0
ENDBLK
5
25B
100
AcDbEntity
8
0
100
AcDbBlockEnd
0
BLOCK
5
264
100
AcDbEntity
8
0
100
AcDbBlockBegin
2
DimnDraft3D4
70
0
10
0
20
0
30
0
3
DimnDraft3D4
0
MTEXT
5
25E
100
AcDbEntity
8
SK2
62
256
6
ByLayer
370
-1
48
1
60
0
100
AcDbMText
10
65.469079
20
-31.7758
30
0
210
0
220
0
230
1
1
\W01.000;\fsimplex.shx,bigfont.shx;101 
40
4.5
41
0
44
1.084337
50
0
71
7
72
5
7
DEFAULT
0
LINE
5
25F
100
AcDbEntity
8
SK2
62
256
6
ByLayer
370
-1
48
1
60
0
100
AcDbLine
10
17
20
-11.5875
30
0
11
17
21
-36.0758
31
0
39
0
210
0
220
0
230
1
0
LINE
5
260
100
AcDbEntity
8
SK2
62
256
6
ByLayer
370
-1
48
1
60
0
100
AcDbLine
10
118
20
-11.3375
30
0
11
118
21
-36.0758
31
0
39
0
210
0
220
0
230
1
0
LINE
5
261
100
AcDbEntity
8
SK2
62
256
6
ByLayer
370
-1
48
1
60
0
100
AcDbLine
10
17
20
-32.9008
30
0
11
118
21
-32.9008
31
0
39
0
210
0
220
0
230
1
0
SOLID
5
262
100
AcDbEntity
8
SK2
62
256
6
ByLayer
370
-1
48
1
60
0
100
AcDbTrace
10
17
20
-32.9008
30
0
11
21.174997
21
-31.975225
31
0
12
21.175003
22
-33.826375
32
0
13
17
23
-32.9008
33
0
39
0
210
0
220
0
230
1
0
SOLID
5
263
100
AcDbEntity
8
SK2
62
256
6
ByLayer
370
-1
48
1
60
0
100
AcDbTrace
10
118
20
-32.9008
30
0
11
113.825003
21
-33.826375
31
0
12
113.824997
22
-31.975225
32
0
13
118
23
-32.9008
33
0
39
0
210
0
220
0
230
1
0
ENDBLK
5
265
100
AcDbEntity
8
0
100
AcDbBlockEnd
0
BLOCK
5
26F
100
AcDbEntity
8
0
100
AcDbBlockBegin
2
DimnDraft3D5
70
0
10
0
20
0
30
0
3
DimnDraft3D5
0
MTEXT
5
268
100
AcDbEntity
8
SK2
62
256
6
ByLayer
370
-1
48
1
60
0
100
AcDbMText
10
-66.975
20
5.246053
30
0
210
0
220
0
230
1
1
\W01.000;\fsimplex.shx,bigfont.shx;25 
40
4.5
41
0
44
1.084337
50
90
71
7
72
5
7
DEFAULT
0
MTEXT
5
269
100
AcDbEntity
8
SK2
62
256
6
ByLayer
370
-1
48
1
60
0
100
AcDbMText
10
-66.975
20
-8.253947
30
0
210
0
220
0
230
1
1
\W01.000;\fsimplex.shx,bigfont.shx;%%c 
40
4.5
41
0
44
1.084337
50
90
71
7
72
5
7
DEFAULT
0
LINE
5
26A
100
AcDbEntity
8
SK2
62
256
6
ByLayer
370
-1
48
1
60
0
100
AcDbLine
10
-57.5875
20
12.5
30
0
11
-67.9
21
12.5
31
0
39
0
210
0
220
0
230
1
0
LINE
5
26B
100
AcDbEntity
8
SK2
62
256
6
ByLayer
370
-1
48
1
60
0
100
AcDbLine
10
-57.5875
20
-12.5
30
0
11
-67.9
21
-12.5
31
0
39
0
210
0
220
0
230
1
0
LINE
5
26C
100
AcDbEntity
8
SK2
62
256
6
ByLayer
370
-1
48
1
60
0
100
AcDbLine
10
-64.725
20
23.75
30
0
11
-64.725
21
-23.75
31
0
39
0
210
0
220
0
230
1
0
SOLID
5
26D
100
AcDbEntity
8
SK2
62
256
6
ByLayer
370
-1
48
1
60
0
100
AcDbTrace
10
-64.725
20
12.5
30
0
11
-65.650575
21
16.674997
31
0
12
-63.799425
22
16.675003
32
0
13
-64.725
23
12.5
33
0
39
0
210
0
220
0
230
1
0
SOLID
5
26E
100
AcDbEntity
8
SK2
62
256
6
ByLayer
370
-1
48
1
60
0
100
AcDbTrace
10
-64.725
20
-12.5
30
0
11
-63.799425
21
-16.674997
31
0
12
-65.650575
22
-16.675003
32
0
13
-64.725
23
-12.5
33
0
39
0
210
0
220
0
230
1
0
ENDBLK
5
270
100
AcDbEntity
8
0
100
AcDbBlockEnd
0
BLOCK
5
27A
100
AcDbEntity
8
0
100
AcDbBlockBegin
2
DimnDraft3D6
70
0
10
0
20
0
30
0
3
DimnDraft3D6
0
MTEXT
5
273
100
AcDbEntity
8
SK2
62
256
6
ByLayer
370
-1
48
1
60
0
100
AcDbMText
10
-76.975
20
5.246053
30
0
210
0
220
0
230
1
1
\W01.000;\fsimplex.shx,bigfont.shx;32 
40
4.5
41
0
44
1.084337
50
90
71
7
72
5
7
DEFAULT
0
MTEXT
5
274
100
AcDbEntity
8
SK2
62
256
6
ByLayer
370
-1
48
1
60
0
100
AcDbMText
10
-76.975
20
-8.253947
30
0
210
0
220
0
230
1
1
\W01.000;\fsimplex.shx,bigfont.shx;%%c 
40
4.5
41
0
44
1.084337
50
90
71
7
72
5
7
DEFAULT
0
LINE
5
275
100
AcDbEntity
8
SK2
62
256
6
ByLayer
370
-1
48
1
60
0
100
AcDbLine
10
-1.5875
20
-16
30
0
11
-77.9
21
-16
31
0
39
0
210
0
220
0
230
1
0
LINE
5
276
100
AcDbEntity
8
SK2
62
256
6
ByLayer
370
-1
48
1
60
0
100
AcDbLine
10
-1.5875
20
16
30
0
11
-77.9
21
16
31
0
39
0
210
0
220
0
230
1
0
LINE
5
277
100
AcDbEntity
8
SK2
62
256
6
ByLayer
370
-1
48
1
60
0
100
AcDbLine
10
-74.725
20
-16
30
0
11
-74.725
21
16
31
0
39
0
210
0
220
0
230
1
0
SOLID
5
278
100
AcDbEntity
8
SK2
62
256
6
ByLayer
370
-1
48
1
60
0
100
AcDbTrace
10
-74.725
20
-16
30
0
11
-75.650575
21
-11.825003
31
0
12
-73.799425
22
-11.824997
32
0
13
-74.725
23
-16
33
0
39
0
210
0
220
0
230
1
0
SOLID
5
279
100
AcDbEntity
8
SK2
62
256
6
ByLayer
370
-1
48
1
60
0
100
AcDbTrace
10
-74.725
20
16
30
0
11
-73.799425
21
11.825003
31
0
12
-75.650575
22
11.824997
32
0
13
-74.725
23
16
33
0
39
0
210
0
220
0
230
1
0
ENDBLK
5
27B
100
AcDbEntity
8
0
100
AcDbBlockEnd
0
BLOCK
5
285
100
AcDbEntity
8
0
100
AcDbBlockBegin
2
DimnDraft3D7
70
0
10
0
20
0
30
0
3
DimnDraft3D7
0
MTEXT
5
27E
100
AcDbEntity
8
2
62
256
6
ByLayer
370
-1
48
1
60
0
100
AcDbMText
10
142.725
20
-29.938816
30
0
210
0
220
0
230
1
1
\W01.000;\fsimplex.shx,bigfont.shx;19.5 
40
4.5
41
0
44
1.084337
50
90
71
7
72
5
7
DEFAULT
0
MTEXT
5
27F
100
AcDbEntity
8
2
62
256
6
ByLayer
370
-1
48
1
60
0
100
AcDbMText
10
142.725
20
-43.438816
30
0
210
0
220
0
230
1
1
\W01.000;\fsimplex.shx,bigfont.shx;%%c 
40
4.5
41
0
44
1.084337
50
90
71
7
72
5
7
DEFAULT
0
LINE
5
280
100
AcDbEntity
8
2
62
256
6
ByLayer
370
-1
48
1
60
0
100
AcDbLine
10
119.5875
20
9.75
30
0
11
148.15
21
9.75
31
0
39
0
210
0
220
0
230
1
0
LINE
5
281
100
AcDbEntity
8
2
62
256
6
ByLayer
370
-1
48
1
60
0
100
AcDbLine
10
119.5875
20
-9.75
30
0
11
148.15
21
-9.75
31
0
39
0
210
0
220
0
230
1
0
LINE
5
282
100
AcDbEntity
8
2
62
256
6
ByLayer
370
-1
48
1
60
0
100
AcDbLine
10
144.975
20
9.75
30
0
11
144.975
21
-44.563816
31
0
39
0
210
0
220
0
230
1
0
SOLID
5
283
100
AcDbEntity
8
2
62
256
6
ByLayer
370
-1
48
1
60
0
100
AcDbTrace
10
144.975
20
9.75
30
0
11
145.900575
21
5.575003
31
0
12
144.049425
22
5.574997
32
0
13
144.975
23
9.75
33
0
39
0
210
0
220
0
230
1
0
SOLID
5
284
100
AcDbEntity
8
2
62
256
6
ByLayer
370
-1
48
1
60
0
100
AcDbTrace
10
144.975
20
-9.75
30
0
11
144.049425
21
-5.575003
31
0
12
145.900575
22
-5.574997
32
0
13
144.975
23
-9.75
33
0
39
0
210
0
220
0
230
1
0
ENDBLK
5
286
100
AcDbEntity
8
0
100
AcDbBlockEnd
0
ENDSEC
0
SECTION
2
ENTITIES
0
ARC
5
F7
100
AcDbEntity
8
SK1
62
256
6
ByLayer
370
-1
48
1
60
0
100
AcDbCircle
39
0
10
1.382165
20
12.65
30
0
40
0.4
210
0
220
0
230
-1
100
AcDbArc
50
270
51
295
0
ARC
5
F8
100
AcDbEntity
8
SK1
62
256
6
ByLayer
370
-1
48
1
60
0
100
AcDbCircle
39
0
10
1.382165
20
-12.65
30
0
40
0.4
210
0
220
0
230
-1
100
AcDbArc
50
65
51
90
0
ARC
5
F9
100
AcDbEntity
8
SK1
62
256
6
ByLayer
370
-1
48
1
60
0
100
AcDbCircle
39
0
10
0.15
20
12.65
30
0
40
0.4
210
0
220
0
230
-1
100
AcDbArc
50
247.975687
51
270
0
ARC
5
FA
100
AcDbEntity
8
SK1
62
256
6
ByLayer
370
-1
48
1
60
0
100
AcDbCircle
39
0
10
0.15
20
-12.65
30
0
40
0.4
210
0
220
0
230
-1
100
AcDbArc
50
90
51
112.024313
0
ARC
5
FB
100
AcDbEntity
8
SK1
62
256
6
ByLayer
370
-1
48
1
60
0
100
AcDbCircle
39
0
10
53.894506
20
12.89675
30
0
40
0.8
210
0
220
0
230
-1
100
AcDbArc
50
250.982048
51
321
0
ARC
5
FC
100
AcDbEntity
8
SK1
62
256
6
ByLayer
370
-1
48
1
60
0
100
AcDbCircle
39
0
10
53.894506
20
-12.89675
30
0
40
0.8
210
0
220
0
230
-1
100
AcDbArc
50
39
51
109.017952
0
ELLIPSE
5
FD
100
AcDbEntity
8
1
62
256
6
ByLayer
370
-1
48
1
60
0
100
AcDbEllipse
10
117.035072
20
-0.316436
30
0
11
-0.0380401255358125
21
0.601647666418388
31
0
210
0
220
0
230
-1
40
0.117632
41
-1.48074663562106
42
-1.32098444299804
0
ELLIPSE
5
FE
100
AcDbEntity
8
1
62
256
6
ByLayer
370
-1
48
1
60
0
100
AcDbEllipse
10
114.898784
20
6.523156
30
0
11
1.46431667789534E-15
21
1.25
31
0
210
0
220
0
230
1
40
0.996195
41
0
42
1.01571642045175
0
ELLIPSE
5
FF
100
AcDbEntity
8
1
62
256
6
ByLayer
370
-1
48
1
60
0
100
AcDbEllipse
10
114.898784
20
6.523156
30
0
11
1.2885986765479E-15
21
1.1
31
0
210
0
220
0
230
1
40
0.996195
41
-2.42668389129718
42
0
0
ELLIPSE
5
100
100
AcDbEntity
8
1
62
256
6
ByLayer
370
-1
48
1
60
0
100
AcDbEllipse
10
114.898784
20
6.523156
30
0
11
1.2885986765479E-15
21
1.1
31
0
210
0
220
0
230
1
40
0.996195
41
0
42
1.57079634372637
0
ELLIPSE
5
101
100
AcDbEntity
8
1
62
256
6
ByLayer
370
-1
48
1
60
0
100
AcDbEllipse
10
114.898784
20
6.523156
30
0
11
1.2885986765479E-15
21
1.1
31
0
210
0
220
0
230
1
40
0.996195
41
1.5707962760005
42
1.74584211605793
0
ELLIPSE
5
102
100
AcDbEntity
8
1
62
256
6
ByLayer
370
-1
48
1
60
0
100
AcDbEllipse
10
44.332138
20
0
30
0
11
-168.064818669135
21
-9.13872295457787
31
0
210
0
220
0
230
-1
40
0.014313
41
-2.01100692929252
42
-1.97427731507104
0
ELLIPSE
5
103
100
AcDbEntity
8
1
62
256
6
ByLayer
370
-1
48
1
60
0
100
AcDbEllipse
10
108.591985
20
5.710984
30
0
11
-0.556066641984651
21
-3.8601541277094
31
0
210
0
220
0
230
1
40
0.192708
41
0.474090959184293
42
1.19646329252647
0
ELLIPSE
5
104
100
AcDbEntity
8
1
62
256
6
ByLayer
370
-1
48
1
60
0
100
AcDbEllipse
10
106.209728
20
4.178529
30
0
11
-10.556103557995
21
0.555313260390086
31
0
210
0
220
0
230
-1
40
0.000323
41
-3.13637849282015
42
-3.13545939067994
0
ELLIPSE
5
105
100
AcDbEntity
8
1
62
256
6
ByLayer
370
-1
48
1
60
0
100
AcDbEllipse
10
118.01175
20
0
30
0
11
-21.5035728197094
21
9.15773793911246
31
0
210
0
220
0
230
-1
40
0.108448
41
-1.11696821254496
42
-0.610393123203372
0
ELLIPSE
5
106
100
AcDbEntity
8
1
62
256
6
ByLayer
370
-1
48
1
60
0
100
AcDbEllipse
10
108.591985
20
5.710984
30
0
11
-0.556066641984651
21
-3.8601541277094
31
0
210
0
220
0
230
1
40
0.192708
41
1.2289718701025
42
1.59854931471341
0
ELLIPSE
5
107
100
AcDbEntity
8
1
62
256
6
ByLayer
370
-1
48
1
60
0
100
AcDbEllipse
10
109.613607
20
0
30
0
11
-47.6272153140722
21
-5.39663829300661E-14
31
0
210
0
220
0
230
-1
40
0.198416
41
1.51817960507308
42
1.56763037060047
0
ELLIPSE
5
108
100
AcDbEntity
8
1
62
256
6
ByLayer
370
-1
48
1
60
0
100
AcDbEllipse
10
114.72822
20
-1.97202
30
0
11
1.2
21
0
31
0
210
0
220
0
230
1
40
0.996917
41
0.0632242022292571
42
3.14159243441241
0
ELLIPSE
5
109
100
AcDbEntity
8
1
62
256
6
ByLayer
370
-1
48
1
60
0
100
AcDbEllipse
10
112.207143
20
7.303915
30
0
11
-0.57998016278271
21
-0.61833692662941
31
0
210
0
220
0
230
-1
40
0.04503
41
-0.739916138373805
42
-0.421202239070318
0
ELLIPSE
5
10A
100
AcDbEntity
8
1
62
256
6
ByLayer
370
-1
48
1
60
0
100
AcDbEllipse
10
116.967357
20
4.21342
30
0
11
-0.0350190587725038
21
0.602621197343523
31
0
210
0
220
0
230
-1
40
0.117086
41
2.32225178512246
42
-3.13316878081845
0
ELLIPSE
5
10B
100
AcDbEntity
8
1
62
256
6
ByLayer
370
-1
48
1
60
0
100
AcDbEllipse
10
112.085948
20
5.779203
30
0
11
-0.599637270106163
21
-0.0208601126465927
31
0
210
0
220
0
230
1
40
0.003042
41
0.0872135714661165
42
1.13795433213007
0
ELLIPSE
5
10C
100
AcDbEntity
8
1
62
256
6
ByLayer
370
-1
48
1
60
0
100
AcDbEllipse
10
111.847099
20
-1E-06
30
0
11
-0.305975349461276
21
9.44996276124504
31
0
210
0
220
0
230
-1
40
0.087398
41
-0.0335848603186937
42
-0.0005255966799915
0
ELLIPSE
5
10D
100
AcDbEntity
8
1
62
256
6
ByLayer
370
-1
48
1
60
0
100
AcDbEllipse
10
109.364734
20
5.81
30
0
11
1.17145334231628E-16
21
0.1
31
0
210
0
220
0
230
1
40
0.980878
41
3.00122346881658
42
-1.5707963267949
0
ELLIPSE
5
10E
100
AcDbEntity
8
1
62
256
6
ByLayer
370
-1
48
1
60
0
100
AcDbEllipse
10
114.72822
20
-2.352547
30
0
11
-1.1
21
1.1117029605906E-15
31
0
210
0
220
0
230
1
40
0.996917
41
-2.96723467011757
42
-0.174456906816537
0
ELLIPSE
5
10F
100
AcDbEntity
8
1
62
256
6
ByLayer
370
-1
48
1
60
0
100
AcDbEllipse
10
117.962816
20
0
30
0
11
-0.755941233217731
21
-9.44950606033005
31
0
210
0
220
0
230
-1
40
0.127813
41
0.0376227644621449
42
1.08490206517933
0
ELLIPSE
5
110
100
AcDbEntity
8
1
62
256
6
ByLayer
370
-1
48
1
60
0
100
AcDbEllipse
10
117.264351
20
-4.799757
30
0
11
-0.056906219397271
21
-0.65799140193898
31
0
210
0
220
0
230
-1
40
0.116725
41
0.0197262659369193
42
1.59052259273234
0
ELLIPSE
5
111
100
AcDbEntity
8
1
62
256
6
ByLayer
370
-1
48
1
60
0
100
AcDbEllipse
10
101.228492
20
6.749278
30
0
11
-10.0251976801942
21
5.28506253019509
31
0
210
0
220
0
230
-1
40
0.093774
41
-2.25170919948081
42
-1.51906847577199
0
ELLIPSE
5
112
100
AcDbEntity
8
1
62
256
6
ByLayer
370
-1
48
1
60
0
100
AcDbEllipse
10
112.873489
20
4.631094
30
0
11
-1.4470236532442E-15
21
-1.35
31
0
210
0
220
0
230
1
40
0.996195
41
-1.53588974175501
42
-0.146913134865279
0
ELLIPSE
5
113
100
AcDbEntity
8
1
62
256
6
ByLayer
370
-1
48
1
60
0
100
AcDbEllipse
10
112.916127
20
4.631094
30
0
11
-1.17794646133824
21
-1.04893007471867
31
0
210
0
220
0
230
-1
40
0.721468
41
-1.26712593957089
42
-0.133853100320903
0
ELLIPSE
5
114
100
AcDbEntity
8
1
62
256
6
ByLayer
370
-1
48
1
60
0
100
AcDbEllipse
10
117.270706
20
0
30
0
11
-0.553171126163227
21
9.44977316569846
31
0
210
0
220
0
230
-1
40
0.118364
41
-1.53069169954578
42
-1.38103543456997
0
ELLIPSE
5
115
100
AcDbEntity
8
1
62
256
6
ByLayer
370
-1
48
1
60
0
100
AcDbEllipse
10
117.269165
20
0
30
0
11
-0.59316473444851
21
9.44974076930181
31
0
210
0
220
0
230
-1
40
0.118004
41
-2.03905917144966
42
-1.53021337468577
0
ELLIPSE
5
116
100
AcDbEntity
8
1
62
256
6
ByLayer
370
-1
48
1
60
0
100
AcDbEllipse
10
112.623465
20
5.805378
30
0
11
1.58146201212697E-15
21
1.35
31
0
210
0
220
0
230
1
40
0.996195
41
0.86305605237593
42
1.60570291183479
0
ELLIPSE
5
117
100
AcDbEntity
8
1
62
256
6
ByLayer
370
-1
48
1
60
0
100
AcDbEllipse
10
110.892681
20
9.444208
30
0
11
6.09155738004463E-15
21
5.2
31
0
210
0
220
0
230
1
40
0.996195
41
2.84288509911114
42
-3.10668606854991
0
ELLIPSE
5
118
100
AcDbEntity
8
1
62
256
6
ByLayer
370
-1
48
1
60
0
100
AcDbEllipse
10
117.034644
20
-0.316421
30
0
11
-0.0354913510633997
21
0.601562102688474
31
0
210
0
220
0
230
-1
40
0.118009
41
-1.32144903985347
42
0.0895850964788916
0
ELLIPSE
5
119
100
AcDbEntity
8
1
62
256
6
ByLayer
370
-1
48
1
60
0
100
AcDbEllipse
10
112.664316
20
4.631094
30
0
11
1.58146201212697E-15
21
1.35
31
0
210
0
220
0
230
1
40
0.996195
41
1.60570291183479
42
1.85093280967831
0
ELLIPSE
5
11A
100
AcDbEntity
8
1
62
256
6
ByLayer
370
-1
48
1
60
0
100
AcDbEllipse
10
107.581136
20
-1.3E-05
30
0
11
-108.014067539359
21
-4.06429491452463E-07
31
0
210
0
220
0
230
-1
40
0.087489
41
1.59598963101359
42
1.60721100417317
0
ELLIPSE
5
11B
100
AcDbEntity
8
1
62
256
6
ByLayer
370
-1
48
1
60
0
100
AcDbEllipse
10
112.832639
20
5.805378
30
0
11
-1.4470236532442E-15
21
-1.35
31
0
210
0
220
0
230
1
40
0.996195
41
-2.26960617922759
42
-1.53588974175501
0
ELLIPSE
5
11C
100
AcDbEntity
8
1
62
256
6
ByLayer
370
-1
48
1
60
0
100
AcDbEllipse
10
112.126799
20
4.604919
30
0
11
-0.599637270106163
21
-0.0208601126465927
31
0
210
0
220
0
230
1
40
0.003042
41
0.0872135714656276
42
1.13795433213004
0
ELLIPSE
5
11D
100
AcDbEntity
8
1
62
256
6
ByLayer
370
-1
48
1
60
0
100
AcDbEllipse
10
116.970241
20
-5.748489
30
0
11
-0.0793422087739679
21
1.26776078994996
31
0
210
0
220
0
230
-1
40
0.115608
41
-0.224559409355141
42
0.380323718117285
0
ELLIPSE
5
11E
100
AcDbEntity
8
1
62
256
6
ByLayer
370
-1
48
1
60
0
100
AcDbEllipse
10
116.803028
20
-5.728754
30
0
11
-0.0978478949133686
21
-1.24711165635421
31
0
210
0
220
0
230
-1
40
0.127208
41
-2.77731439046613
42
2.90098778924156
0
ELLIPSE
5
11F
100
AcDbEntity
8
1
62
256
6
ByLayer
370
-1
48
1
60
0
100
AcDbEllipse
10
110.815455
20
5.81
30
0
11
-4.57446471336819
21
-3.31335946311609
31
0
210
0
220
0
230
-1
40
0.489872
41
-1.29650632647802
42
-1.22405887311719
0
ELLIPSE
5
120
100
AcDbEntity
8
1
62
256
6
ByLayer
370
-1
48
1
60
0
100
AcDbEllipse
10
114.885711
20
6.523156
30
0
11
1.46431667789534E-15
21
1.25
31
0
210
0
220
0
230
1
40
0.996195
41
-1.80160505545351
42
0
0
ELLIPSE
5
121
100
AcDbEntity
8
1
62
256
6
ByLayer
370
-1
48
1
60
0
100
AcDbEllipse
10
114.885711
20
6.523156
30
0
11
1.46431667789534E-15
21
1.25
31
0
210
0
220
0
230
1
40
0.996195
41
0
42
0.963290731159637
0
ELLIPSE
5
122
100
AcDbEntity
8
1
62
256
6
ByLayer
370
-1
48
1
60
0
100
AcDbEllipse
10
109.02076
20
3.449792
30
0
11
-6.30608693752415
21
-0.198383079360869
31
0
210
0
220
0
230
-1
40
0.010629
41
-1.89662346411669
42
-1.88741291748655
0
ELLIPSE
5
123
100
AcDbEntity
8
1
62
256
6
ByLayer
370
-1
48
1
60
0
100
AcDbEllipse
10
11.2
20
0.635213
30
0
11
-5
21
5.05319527541181E-15
31
0
210
0
220
0
230
1
40
0.88759
41
-1.68755133328287
42
-0.235628498607094
0
ELLIPSE
5
124
100
AcDbEntity
8
1
62
256
6
ByLayer
370
-1
48
1
60
0
100
AcDbEllipse
10
111.003744
20
4.247376
30
0
11
0.0280261150489236
21
-0.799508934831416
31
0
210
0
220
0
230
1
40
0.087103
41
0.0630727813209288
42
1.56774302595898
0
ELLIPSE
5
125
100
AcDbEntity
8
1
62
256
6
ByLayer
370
-1
48
1
60
0
100
AcDbEllipse
10
110.822957
20
9.444208
30
0
11
-6.43121623664089E-15
21
-6
31
0
210
0
220
0
230
1
40
0.996195
41
-0.0939063046732642
42
-1.68645175828557E-06
0
ELLIPSE
5
126
100
AcDbEntity
8
1
62
256
6
ByLayer
370
-1
48
1
60
0
100
AcDbEllipse
10
115.129747
20
6.523156
30
0
11
1.2885986765479E-15
21
1.1
31
0
210
0
220
0
230
1
40
0.996195
41
0.105635868485064
42
1.57079627600051
0
ELLIPSE
5
127
100
AcDbEntity
8
1
62
256
6
ByLayer
370
-1
48
1
60
0
100
AcDbEllipse
10
115.129747
20
6.523156
30
0
11
1.2885986765479E-15
21
1.1
31
0
210
0
220
0
230
1
40
0.996195
41
1.57079627600051
42
2.71855746899424
0
ELLIPSE
5
128
100
AcDbEntity
8
1
62
256
6
ByLayer
370
-1
48
1
60
0
100
AcDbEllipse
10
111.412007
20
0
30
0
11
-74.6950855473934
21
0.753421577498131
31
0
210
0
220
0
230
-1
40
0.126112
41
-1.54799413186467
42
-1.51710610965406
0
ELLIPSE
5
129
100
AcDbEntity
8
1
62
256
6
ByLayer
370
-1
48
1
60
0
100
AcDbEllipse
10
114.72822
20
-1.97202
30
0
11
-1.10000000000001
21
1.11170296059061E-15
31
0
210
0
220
0
230
1
40
0.996917
41
3.14159220643694
42
-2.02482986798326E-16
0
ELLIPSE
5
12A
100
AcDbEntity
8
1
62
256
6
ByLayer
370
-1
48
1
60
0
100
AcDbEllipse
10
114.72822
20
-1.97202
30
0
11
-1.10000000000001
21
1.11170296059061E-15
31
0
210
0
220
0
230
1
40
0.996917
41
0
42
1.6553244411678
0
ELLIPSE
5
12B
100
AcDbEntity
8
1
62
256
6
ByLayer
370
-1
48
1
60
0
100
AcDbEllipse
10
116.867764
20
-3.43308
30
0
11
-0.59120224503834
21
5.97492078288119E-16
31
0
210
0
220
0
230
1
40
0.996917
41
3.10668606854989
42
-2.71005519262056
0
ELLIPSE
5
12C
100
AcDbEntity
8
1
62
256
6
ByLayer
370
-1
48
1
60
0
100
AcDbEllipse
10
116.867764
20
-3.43308
30
0
11
-0.49120224503834
21
4.96428172779883E-16
31
0
210
0
220
0
230
1
40
0.996917
41
3.10668606854988
42
-2.71005519262056
0
ELLIPSE
5
12D
100
AcDbEntity
8
1
62
256
6
ByLayer
370
-1
48
1
60
0
100
AcDbEllipse
10
119.712196
20
-2.119458
30
0
11
-2.81352115015638
21
2.84345435664829E-15
31
0
210
0
220
0
230
1
40
0.996917
41
0.394970502278597
42
0.431537460969237
0
ELLIPSE
5
12E
100
AcDbEntity
8
1
62
256
6
ByLayer
370
-1
48
1
60
0
100
AcDbEllipse
10
117.461611
20
-4.715661
30
0
11
0.500000000000144
21
0
31
0
210
0
220
0
230
1
40
0.996917
41
-1.22173047639544
42
-0.0349065850401099
0
ELLIPSE
5
12F
100
AcDbEntity
8
1
62
256
6
ByLayer
370
-1
48
1
60
0
100
AcDbEllipse
10
117.313934
20
-3.212567
30
0
11
-0.181566402711963
21
-0.0838668075357429
31
0
210
0
220
0
230
1
40
0.071266
41
0.4906922677781
42
1.53788981897468
0
ELLIPSE
5
130
100
AcDbEntity
8
1
62
256
6
ByLayer
370
-1
48
1
60
0
100
AcDbEllipse
10
114.878496
20
-2.571813
30
0
11
1.25
21
0
31
0
210
0
220
0
230
1
40
0.996917
41
1.28854364210873
42
2.89095229547494
0
ELLIPSE
5
131
100
AcDbEntity
8
1
62
256
6
ByLayer
370
-1
48
1
60
0
100
AcDbEllipse
10
116.853886
20
-3.829268
30
0
11
-0.49120224503834
21
4.96428172779883E-16
31
0
210
0
220
0
230
1
40
0.996917
41
2.29977787734963
42
3.10668606854989
0
ELLIPSE
5
132
100
AcDbEntity
8
1
62
256
6
ByLayer
370
-1
48
1
60
0
100
AcDbEllipse
10
117.344789
20
-3.830666
30
0
11
-0.199877411459051
21
0.00700145616491039
31
0
210
0
220
0
230
1
40
0.078411
41
0.526345418649194
42
1.5735429698458
0
ELLIPSE
5
133
100
AcDbEntity
8
1
62
256
6
ByLayer
370
-1
48
1
60
0
100
AcDbEllipse
10
117.000305
20
-3.602324
30
0
11
1.00000000000004
21
0
31
0
210
0
220
0
230
1
40
0.996917
41
-0.0349065850401072
42
0.44184594049253
0
ELLIPSE
5
134
100
AcDbEntity
8
1
62
256
6
ByLayer
370
-1
48
1
60
0
100
AcDbEllipse
10
119.712196
20
-2.323452
30
0
11
2.00000000000009
21
0
31
0
210
0
220
0
230
1
40
0.996917
41
-3.08923277501295
42
-2.69974671309689
0
ELLIPSE
5
135
100
AcDbEntity
8
1
62
256
6
ByLayer
370
-1
48
1
60
0
100
AcDbEllipse
10
116.853886
20
-3.821422
30
0
11
0.317997164281453
21
0
31
0
210
0
220
0
230
1
40
0.996917
41
-0.340736875057145
42
-0.0349065850399047
0
ELLIPSE
5
136
100
AcDbEntity
8
1
62
256
6
ByLayer
370
-1
48
1
60
0
100
AcDbEllipse
10
116.51751
20
-1.007462
30
0
11
-0.49120224503834
21
4.96428172779883E-16
31
0
210
0
220
0
230
1
40
0.996917
41
-3.08923277602998
42
-2.89461999450606
0
ELLIPSE
5
137
100
AcDbEntity
8
1
62
256
6
ByLayer
370
-1
48
1
60
0
100
AcDbEllipse
10
119.712196
20
-2.127304
30
0
11
2.64031606939949
21
0
31
0
210
0
220
0
230
1
40
0.996917
41
-3.08923277525973
42
-2.71005519262056
0
ELLIPSE
5
138
100
AcDbEntity
8
1
62
256
6
ByLayer
370
-1
48
1
60
0
100
AcDbEllipse
10
117.13945
20
-1.004916
30
0
11
0.49999999999999
21
0
31
0
210
0
220
0
230
1
40
0.996917
41
0.0523598775598221
42
0.349065850399583
0
ELLIPSE
5
139
100
AcDbEntity
8
1
62
256
6
ByLayer
370
-1
48
1
60
0
100
AcDbEllipse
10
114.878496
20
-2.619288
30
0
11
1.25
21
0
31
0
210
0
220
0
230
1
40
0.996917
41
1.13323161392044
42
2.87053274355023
0
ELLIPSE
5
13A
100
AcDbEntity
8
1
62
256
6
ByLayer
370
-1
48
1
60
0
100
AcDbEllipse
10
117.181081
20
-4.178812
30
0
11
-0.132993144458099
21
0.149374775404507
31
0
210
0
220
0
230
1
40
0.052262
41
1.5220261892079
42
1.62942896444692
0
ELLIPSE
5
13B
100
AcDbEntity
8
1
62
256
6
ByLayer
370
-1
48
1
60
0
100
AcDbEllipse
10
116.853886
20
-3.829268
30
0
11
-0.591202245038341
21
5.97492078288121E-16
31
0
210
0
220
0
230
1
40
0.996917
41
2.29977787734967
42
3.10668606854989
0
ELLIPSE
5
13C
100
AcDbEntity
8
1
62
256
6
ByLayer
370
-1
48
1
60
0
100
AcDbEllipse
10
116.840089
20
-0.184963
30
0
11
0.500000000000144
21
0
31
0
210
0
220
0
230
1
40
0.996917
41
0.349065850399472
42
1.17570736054603
0
ELLIPSE
5
13D
100
AcDbEntity
8
1
62
256
6
ByLayer
370
-1
48
1
60
0
100
AcDbEllipse
10
119.712196
20
-2.127304
30
0
11
2.54031606939949
21
0
31
0
210
0
220
0
230
1
40
0.996917
41
-3.0892327752294
42
-2.71005519262056
0
ELLIPSE
5
13E
100
AcDbEntity
8
1
62
256
6
ByLayer
370
-1
48
1
60
0
100
AcDbEllipse
10
116.867764
20
-3.425234
30
0
11
0.317997164281453
21
0
31
0
210
0
220
0
230
1
40
0.996917
41
-0.0349065850398907
42
0.431537460969256
0
ELLIPSE
5
13F
100
AcDbEntity
8
1
62
256
6
ByLayer
370
-1
48
1
60
0
100
AcDbEllipse
10
117.358667
20
-3.434478
30
0
11
-0.199877411459051
21
0.00700145616491039
31
0
210
0
220
0
230
1
40
0.078411
41
0.52634541864911
42
1.57354296984573
0
ELLIPSE
5
140
100
AcDbEntity
8
1
62
256
6
ByLayer
370
-1
48
1
60
0
100
AcDbEllipse
10
119.712196
20
-2.20184
30
0
11
2.19031606939965
21
0
31
0
210
0
220
0
230
1
40
0.996917
41
-3.08923277510136
42
-2.71005519262056
0
ELLIPSE
5
141
100
AcDbEntity
8
1
62
256
6
ByLayer
370
-1
48
1
60
0
100
AcDbEllipse
10
116.51751
20
-1.007462
30
0
11
-0.59120224503834
21
5.97492078288119E-16
31
0
210
0
220
0
230
1
40
0.996917
41
-3.08923277602998
42
-2.47146672521936
0
ELLIPSE
5
142
100
AcDbEntity
8
1
62
256
6
ByLayer
370
-1
48
1
60
0
100
AcDbEllipse
10
114.878496
20
-2.571813
30
0
11
1.35
21
0
31
0
210
0
220
0
230
1
40
0.996917
41
1.85353942513309
42
2.48696289997321
0
ELLIPSE
5
143
100
AcDbEntity
8
1
62
256
6
ByLayer
370
-1
48
1
60
0
100
AcDbEllipse
10
107.743714
20
8.74607
30
0
11
-1.07186937277348E-14
21
-9.99999999999999
31
0
210
0
220
0
230
1
40
0.996195
41
1.60570291183479
42
1.61480354075299
0
ELLIPSE
5
144
100
AcDbEntity
8
1
62
256
6
ByLayer
370
-1
48
1
60
0
100
AcDbEllipse
10
121.682508
20
9.185674
30
0
11
1.16445136866418E-14
21
9.94022831811422
31
0
210
0
220
0
230
1
40
0.996195
41
1.57079632679489
42
1.58680228982978
0
ELLIPSE
5
145
100
AcDbEntity
8
1
62
256
6
ByLayer
370
-1
48
1
60
0
100
AcDbEllipse
10
117.194661
20
9.315292
30
0
11
5.15706934637614E-16
21
0.440228318114594
31
0
210
0
220
0
230
1
40
0.996195
41
-1.27409035395587
42
-0.226892802759294
0
ELLIPSE
5
146
100
AcDbEntity
8
1
62
256
6
ByLayer
370
-1
48
1
60
0
100
AcDbEllipse
10
117.385194
20
9.373766
30
0
11
2.81416266174359E-16
21
0.240228318114594
31
0
210
0
220
0
230
1
40
0.996195
41
-1.50098315671512
42
-1.27409035395586
0
ELLIPSE
5
147
100
AcDbEntity
8
1
62
256
6
ByLayer
370
-1
48
1
60
0
100
AcDbEllipse
10
112.880441
20
4.350192
30
0
11
-5.35934686386771E-15
21
-5.00000000000028
31
0
210
0
220
0
230
1
40
0.996195
41
1.58680228982978
42
1.59660228291657
0
ELLIPSE
5
148
100
AcDbEntity
8
1
62
256
6
ByLayer
370
-1
48
1
60
0
100
AcDbEllipse
10
116.863204
20
4.489805
30
0
11
-5.35934686386771E-15
21
-5.00000000000028
31
0
210
0
220
0
230
1
40
0.996195
41
-1.52678911283679
42
-1.51698911975
0
ELLIPSE
5
149
100
AcDbEntity
8
1
62
256
6
ByLayer
370
-1
48
1
60
0
100
AcDbEllipse
10
116.75325
20
13.800267
30
0
11
-1.07186937277344E-14
21
-9.99999999999964
31
0
210
0
220
0
230
1
40
0.996195
41
0.0538072070448962
42
0.069813170079785
0
ELLIPSE
5
14A
100
AcDbEntity
8
1
62
256
6
ByLayer
370
-1
48
1
60
0
100
AcDbEllipse
10
121.8389
20
4.70977
30
0
11
1.16445136866421E-14
21
9.9402283181145
31
0
210
0
220
0
230
1
40
0.996195
41
1.60934209589405
42
1.61480354075299
0
ELLIPSE
5
14B
100
AcDbEntity
8
1
62
256
6
ByLayer
370
-1
48
1
60
0
100
AcDbEllipse
10
107.901125
20
4.221177
30
0
11
-1.07186937277348E-14
21
-9.99999999999999
31
0
210
0
220
0
230
1
40
0.996195
41
1.59660228291658
42
1.60570291183479
0
ELLIPSE
5
14C
100
AcDbEntity
8
1
62
256
6
ByLayer
370
-1
48
1
60
0
100
AcDbEllipse
10
117.020677
20
8.807503
30
0
11
5.78724697506073E-15
21
4.94022831811449
31
0
210
0
220
0
230
1
40
0.996195
41
-3.09758543963168
42
-3.0877854465449
0
ELLIPSE
5
14D
100
AcDbEntity
8
1
62
256
6
ByLayer
370
-1
48
1
60
0
100
AcDbEllipse
10
121.681488
20
9.234663
30
0
11
1.16445136866421E-14
21
9.9402283181145
31
0
210
0
220
0
230
1
40
0.996195
41
1.59660228291658
42
1.6020637394685
0
ELLIPSE
5
14E
100
AcDbEntity
8
1
62
256
6
ByLayer
370
-1
48
1
60
0
100
AcDbEllipse
10
112.019876
20
9.185674
30
0
11
-3.21560811832048E-16
21
-0.300000000000003
31
0
210
0
220
0
230
1
40
0.996195
41
-1.79768912955412
42
-1.5707963267949
0
ELLIPSE
5
14F
100
AcDbEntity
8
1
62
256
6
ByLayer
370
-1
48
1
60
0
100
AcDbEllipse
10
107.899649
20
4.270166
30
0
11
1.16445136866418E-14
21
9.94022831811422
31
0
210
0
220
0
230
1
40
0.996195
41
-1.5707963267949
42
-1.55479036376002
0
ELLIPSE
5
150
100
AcDbEntity
8
1
62
256
6
ByLayer
370
-1
48
1
60
0
100
AcDbEllipse
10
112.196963
20
4.082073
30
0
11
2.81416266174359E-16
21
0.240228318114594
31
0
210
0
220
0
230
1
40
0.996195
41
1.64060949687468
42
1.86750229963393
0
ELLIPSE
5
151
100
AcDbEntity
8
1
62
256
6
ByLayer
370
-1
48
1
60
0
100
AcDbEllipse
10
117.427313
20
4.123895
30
0
11
-3.21560811832048E-16
21
-0.300000000000003
31
0
210
0
220
0
230
1
40
0.996195
41
0.069813170079752
42
0.296705972839007
0
ELLIPSE
5
152
100
AcDbEntity
8
1
62
256
6
ByLayer
370
-1
48
1
60
0
100
AcDbEllipse
10
117.288283
20
-0.18881
30
0
11
1.16445136866421E-14
21
9.9402283181145
31
0
210
0
220
0
230
1
40
0.996195
41
0.0258059561216875
42
0.0312674126735985
0
ELLIPSE
5
153
100
AcDbEntity
8
1
62
256
6
ByLayer
370
-1
48
1
60
0
100
AcDbEllipse
10
112.387497
20
4.140548
30
0
11
5.15706934637614E-16
21
0.440228318114594
31
0
210
0
220
0
230
1
40
0.996195
41
1.86750229963392
42
2.9146998508305
0
ELLIPSE
5
154
100
AcDbEntity
8
1
62
256
6
ByLayer
370
-1
48
1
60
0
100
AcDbEllipse
10
107.743258
20
8.74607
30
0
11
1.16445136866421E-14
21
9.9402283181145
31
0
210
0
220
0
230
1
40
0.996195
41
-1.53225055769574
42
-1.52678911283681
0
ELLIPSE
5
155
100
AcDbEntity
8
1
62
256
6
ByLayer
370
-1
48
1
60
0
100
AcDbEllipse
10
112.780609
20
-0.346822
30
0
11
1.16445136866421E-14
21
9.9402283181145
31
0
210
0
220
0
230
1
40
0.996195
41
0.0385457690991531
42
0.0440072139580895
0
ELLIPSE
5
156
100
AcDbEntity
8
1
62
256
6
ByLayer
370
-1
48
1
60
0
100
AcDbEllipse
10
117.159758
20
4.809526
30
0
11
5.78724697506073E-15
21
4.94022831811449
31
0
210
0
220
0
230
1
40
0.996195
41
0.0160059630348814
42
0.0258059561216713
0
ELLIPSE
5
157
100
AcDbEntity
8
1
62
256
6
ByLayer
370
-1
48
1
60
0
100
AcDbEllipse
10
117.160214
20
4.809526
30
0
11
-5.35934686386771E-15
21
-5.00000000000028
31
0
210
0
220
0
230
1
40
0.996195
41
-3.12558669055491
42
-3.11578669746812
0
ELLIPSE
5
158
100
AcDbEntity
8
1
62
256
6
ByLayer
370
-1
48
1
60
0
100
AcDbEllipse
10
117.426857
20
4.123895
30
0
11
2.81416266174359E-16
21
0.240228318114594
31
0
210
0
220
0
230
1
40
0.996195
41
-3.07177948351007
42
-2.8448866807508
0
ELLIPSE
5
159
100
AcDbEntity
8
1
62
256
6
ByLayer
370
-1
48
1
60
0
100
AcDbEllipse
10
117.563194
20
4.270166
30
0
11
-3.21560811832048E-16
21
-0.300000000000003
31
0
210
0
220
0
230
1
40
0.996195
41
1.34390352403567
42
1.5707963267949
0
ELLIPSE
5
15A
100
AcDbEntity
8
1
62
256
6
ByLayer
370
-1
48
1
60
0
100
AcDbEllipse
10
117.369061
20
4.315156
30
0
11
-5.35934686386747E-16
21
-0.500000000000006
31
0
210
0
220
0
230
1
40
0.996195
41
0.296705972839008
42
1.3439035240356
0
ELLIPSE
5
15B
100
AcDbEntity
8
1
62
256
6
ByLayer
370
-1
48
1
60
0
100
AcDbEllipse
10
107.900105
20
4.270166
30
0
11
-1.07186937277344E-14
21
-9.99999999999964
31
0
210
0
220
0
230
1
40
0.996195
41
1.57079632679489
42
1.58680228982978
0
ELLIPSE
5
15C
100
AcDbEntity
8
1
62
256
6
ByLayer
370
-1
48
1
60
0
100
AcDbEllipse
10
112.155301
20
9.331944
30
0
11
2.81416266174359E-16
21
0.240228318114594
31
0
210
0
220
0
230
1
40
0.996195
41
0.0698131700797844
42
0.296705972839077
0
ELLIPSE
5
15D
100
AcDbEntity
8
1
62
256
6
ByLayer
370
-1
48
1
60
0
100
AcDbEllipse
10
112.214008
20
9.140684
30
0
11
-5.35934686386747E-16
21
-0.500000000000006
31
0
210
0
220
0
230
1
40
0.996195
41
-2.84488668075075
42
-1.79768912955417
0
ELLIPSE
5
15E
100
AcDbEntity
8
1
62
256
6
ByLayer
370
-1
48
1
60
0
100
AcDbEllipse
10
112.293875
20
13.644649
30
0
11
1.16445136866421E-14
21
9.9402283181145
31
0
210
0
220
0
230
1
40
0.996195
41
-3.1157866974681
42
-3.11032524091619
0
ELLIPSE
5
15F
100
AcDbEntity
8
1
62
256
6
ByLayer
370
-1
48
1
60
0
100
AcDbEllipse
10
121.836969
20
4.758711
30
0
11
-1.07186937277344E-14
21
-9.99999999999964
31
0
210
0
220
0
230
1
40
0.996195
41
-1.51698911975
42
-1.50098315671511
0
ELLIPSE
5
160
100
AcDbEntity
8
1
62
256
6
ByLayer
370
-1
48
1
60
0
100
AcDbEllipse
10
112.213552
20
9.140684
30
0
11
5.15706934637614E-16
21
0.440228318114594
31
0
210
0
220
0
230
1
40
0.996195
41
0.296705972839039
42
1.34390352403561
0
ELLIPSE
5
161
100
AcDbEntity
8
1
62
256
6
ByLayer
370
-1
48
1
60
0
100
AcDbEllipse
10
114.837634
20
6.72792
30
0
11
-1.69826236850985E-15
21
-1.58439303486727
31
0
210
0
220
0
230
1
40
0.996195
41
0
42
6.28318530717959
0
ELLIPSE
5
162
100
AcDbEntity
8
1
62
256
6
ByLayer
370
-1
48
1
60
0
100
AcDbEllipse
10
112.342677
20
13.645674
30
0
11
1.16445136866418E-14
21
9.94022831811422
31
0
210
0
220
0
230
1
40
0.996195
41
3.14159265358979
42
-3.12558669055491
0
ELLIPSE
5
163
100
AcDbEntity
8
1
62
256
6
ByLayer
370
-1
48
1
60
0
100
AcDbEllipse
10
117.195117
20
9.315292
30
0
11
-5.35934686386747E-16
21
-0.500000000000006
31
0
210
0
220
0
230
1
40
0.996195
41
1.8675022996339
42
2.91469985083048
0
ELLIPSE
5
164
100
AcDbEntity
8
1
62
256
6
ByLayer
370
-1
48
1
60
0
100
AcDbEllipse
10
112.829364
20
-0.344427
30
0
11
1.16445136866418E-14
21
9.94022831811422
31
0
210
0
220
0
230
1
40
0.996195
41
0.0538072070448971
42
0.0698131700797874
0
ELLIPSE
5
165
100
AcDbEntity
8
1
62
256
6
ByLayer
370
-1
48
1
60
0
100
AcDbEllipse
10
121.681944
20
9.234663
30
0
11
-1.07186937277348E-14
21
-9.99999999999999
31
0
210
0
220
0
230
1
40
0.996195
41
-1.54499037067321
42
-1.53588974175501
0
ELLIPSE
5
166
100
AcDbEntity
8
1
62
256
6
ByLayer
370
-1
48
1
60
0
100
AcDbEllipse
10
116.862748
20
4.489805
30
0
11
5.78724697506073E-15
21
4.94022831811449
31
0
210
0
220
0
230
1
40
0.996195
41
1.61480354075301
42
1.62460353383979
0
ELLIPSE
5
167
100
AcDbEntity
8
1
62
256
6
ByLayer
370
-1
48
1
60
0
100
AcDbEllipse
10
117.239936
20
-0.189834
30
0
11
-1.07186937277344E-14
21
-9.99999999999964
31
0
210
0
220
0
230
1
40
0.996195
41
3.14159265358979
42
-3.12558669055491
0
ELLIPSE
5
168
100
AcDbEntity
8
1
62
256
6
ByLayer
370
-1
48
1
60
0
100
AcDbEllipse
10
116.801549
20
13.802662
30
0
11
1.16445136866421E-14
21
9.9402283181145
31
0
210
0
220
0
230
1
40
0.996195
41
-3.10304688449064
42
-3.0975854396317
0
ELLIPSE
5
169
100
AcDbEntity
8
1
62
256
6
ByLayer
370
-1
48
1
60
0
100
AcDbEllipse
10
112.294331
20
13.644649
30
0
11
-1.07186937277348E-14
21
-9.99999999999999
31
0
210
0
220
0
230
1
40
0.996195
41
0.0258059561216878
42
0.0349065850398896
0
ELLIPSE
5
16A
100
AcDbEntity
8
1
62
256
6
ByLayer
370
-1
48
1
60
0
100
AcDbEllipse
10
121.839355
20
4.70977
30
0
11
-1.07186937277348E-14
21
-9.99999999999999
31
0
210
0
220
0
230
1
40
0.996195
41
-1.53588974175501
42
-1.52678911283681
0
ELLIPSE
5
16B
100
AcDbEntity
8
1
62
256
6
ByLayer
370
-1
48
1
60
0
100
AcDbEllipse
10
116.802005
20
13.802662
30
0
11
-1.07186937277348E-14
21
-9.99999999999999
31
0
210
0
220
0
230
1
40
0.996195
41
0.0349065850398881
42
0.0440072139580896
0
ELLIPSE
5
16C
100
AcDbEntity
8
1
62
256
6
ByLayer
370
-1
48
1
60
0
100
AcDbEllipse
10
112.387952
20
4.140548
30
0
11
-5.35934686386747E-16
21
-0.500000000000006
31
0
210
0
220
0
230
1
40
0.996195
41
-1.27409035395586
42
-0.226892802759318
0
ELLIPSE
5
16D
100
AcDbEntity
8
1
62
256
6
ByLayer
370
-1
48
1
60
0
100
AcDbEllipse
10
117.288739
20
-0.18881
30
0
11
-1.07186937277348E-14
21
-9.99999999999999
31
0
210
0
220
0
230
1
40
0.996195
41
-3.1157866974681
42
-3.1066860685499
0
ELLIPSE
5
16E
100
AcDbEntity
8
1
62
256
6
ByLayer
370
-1
48
1
60
0
100
AcDbEllipse
10
112.829819
20
-0.344427
30
0
11
-1.07186937277344E-14
21
-9.99999999999964
31
0
210
0
220
0
230
1
40
0.996195
41
-3.0877854465449
42
-3.07177948351001
0
ELLIPSE
5
16F
100
AcDbEntity
8
1
62
256
6
ByLayer
370
-1
48
1
60
0
100
AcDbEllipse
10
112.155756
20
9.331944
30
0
11
-3.21560811832048E-16
21
-0.300000000000003
31
0
210
0
220
0
230
1
40
0.996195
41
-3.07177948351004
42
-2.84488668075075
0
ELLIPSE
5
170
100
AcDbEntity
8
1
62
256
6
ByLayer
370
-1
48
1
60
0
100
AcDbEllipse
10
115.000708
20
6.72792
30
0
11
1.46431667789534E-15
21
1.25
31
0
210
0
220
0
230
1
40
0.996195
41
0.0349500371117705
42
1.57079634872777
0
ELLIPSE
5
171
100
AcDbEntity
8
1
62
256
6
ByLayer
370
-1
48
1
60
0
100
AcDbEllipse
10
115.000708
20
6.72792
30
0
11
1.46431667789534E-15
21
1.25
31
0
210
0
220
0
230
1
40
0.996195
41
1.57079634872777
42
3.1168526777092
0
ELLIPSE
5
172
100
AcDbEntity
8
1
62
256
6
ByLayer
370
-1
48
1
60
0
100
AcDbEllipse
10
117.368605
20
4.315156
30
0
11
5.15706934637614E-16
21
0.440228318114594
31
0
210
0
220
0
230
1
40
0.996195
41
-2.84488668075078
42
-1.79768912955418
0
ELLIPSE
5
173
100
AcDbEntity
8
1
62
256
6
ByLayer
370
-1
48
1
60
0
100
AcDbEllipse
10
107.90067
20
4.221177
30
0
11
1.16445136866421E-14
21
9.9402283181145
31
0
210
0
220
0
230
1
40
0.996195
41
-1.54499037067321
42
-1.5395289141213
0
ELLIPSE
5
174
100
AcDbEntity
8
1
62
256
6
ByLayer
370
-1
48
1
60
0
100
AcDbEllipse
10
114.817578
20
6.72792
30
0
11
-1.77841723412775E-15
21
-1.65917347701247
31
0
210
0
220
0
230
1
40
0.996195
41
2.21551000470675
42
0
0
ELLIPSE
5
175
100
AcDbEntity
8
1
62
256
6
ByLayer
370
-1
48
1
60
0
100
AcDbEllipse
10
114.817578
20
6.72792
30
0
11
-1.77841723412775E-15
21
-1.65917347701247
31
0
210
0
220
0
230
1
40
0.996195
41
0
42
0.926082326066339
0
ELLIPSE
5
176
100
AcDbEntity
8
1
62
256
6
ByLayer
370
-1
48
1
60
0
100
AcDbEllipse
10
117.23948
20
9.510166
30
0
11
2.81416266174359E-16
21
0.240228318114594
31
0
210
0
220
0
230
1
40
0.996195
41
-0.226892802759214
42
5.93815652555542E-14
0
ELLIPSE
5
177
100
AcDbEntity
8
1
62
256
6
ByLayer
370
-1
48
1
60
0
100
AcDbEllipse
10
114.774103
20
6.72792
30
0
11
1.98450509329016E-15
21
1.69405389152441
31
0
210
0
220
0
230
1
40
0.996195
41
0
42
6.28318530717959
0
ELLIPSE
5
178
100
AcDbEntity
8
1
62
256
6
ByLayer
370
-1
48
1
60
0
100
AcDbEllipse
10
116.702629
20
9.105647
30
0
11
-5.35934686386771E-15
21
-5.00000000000028
31
0
210
0
220
0
230
1
40
0.996195
41
-1.55479036376002
42
-1.54499037067323
0
ELLIPSE
5
179
100
AcDbEntity
8
1
62
256
6
ByLayer
370
-1
48
1
60
0
100
AcDbEllipse
10
112.781064
20
-0.346822
30
0
11
-1.07186937277348E-14
21
-9.99999999999999
31
0
210
0
220
0
230
1
40
0.996195
41
-3.1066860685499
42
-3.0975854396317
0
ELLIPSE
5
17A
100
AcDbEntity
8
1
62
256
6
ByLayer
370
-1
48
1
60
0
100
AcDbEllipse
10
117.562738
20
4.270166
30
0
11
2.81416266174359E-16
21
0.240228318114594
31
0
210
0
220
0
230
1
40
0.996195
41
-1.79768912955412
42
-1.5707963267949
0
ELLIPSE
5
17B
100
AcDbEntity
8
1
62
256
6
ByLayer
370
-1
48
1
60
0
100
AcDbEllipse
10
112.343133
20
3.945674
30
0
11
-3.21560811832048E-16
21
-0.300000000000003
31
0
210
0
220
0
230
1
40
0.996195
41
-0.226892802759267
42
0
0
ELLIPSE
5
17C
100
AcDbEntity
8
1
62
256
6
ByLayer
370
-1
48
1
60
0
100
AcDbEllipse
10
112.01942
20
9.185674
30
0
11
2.81416266174359E-16
21
0.240228318114594
31
0
210
0
220
0
230
1
40
0.996195
41
1.34390352403567
42
1.5707963267949
0
ELLIPSE
5
17D
100
AcDbEntity
8
1
62
256
6
ByLayer
370
-1
48
1
60
0
100
AcDbEllipse
10
107.745645
20
8.697129
30
0
11
1.16445136866418E-14
21
9.94022831811422
31
0
210
0
220
0
230
1
40
0.996195
41
-1.51698911975
42
-1.50098315671511
0
ELLIPSE
5
17E
100
AcDbEntity
8
1
62
256
6
ByLayer
370
-1
48
1
60
0
100
AcDbEllipse
10
116.752794
20
13.800267
30
0
11
1.16445136866418E-14
21
9.94022831811422
31
0
210
0
220
0
230
1
40
0.996195
41
-3.0877854465449
42
-3.07177948351001
0
ELLIPSE
5
17F
100
AcDbEntity
8
1
62
256
6
ByLayer
370
-1
48
1
60
0
100
AcDbEllipse
10
112.719409
20
8.966035
30
0
11
5.78724697506073E-15
21
4.94022831811449
31
0
210
0
220
0
230
1
40
0.996195
41
-1.52678911283679
42
-1.51698911975
0
ELLIPSE
5
180
100
AcDbEntity
8
1
62
256
6
ByLayer
370
-1
48
1
60
0
100
AcDbEllipse
10
121.836513
20
4.758711
30
0
11
1.16445136866418E-14
21
9.94022831811422
31
0
210
0
220
0
230
1
40
0.996195
41
1.62460353383979
42
1.64060949687468
0
ELLIPSE
5
181
100
AcDbEntity
8
1
62
256
6
ByLayer
370
-1
48
1
60
0
100
AcDbEllipse
10
112.422855
20
8.646314
30
0
11
-5.35934686386771E-15
21
-5.00000000000028
31
0
210
0
220
0
230
1
40
0.996195
41
0.016005963034881
42
0.0258059561216707
0
ELLIPSE
5
182
100
AcDbEntity
8
1
62
256
6
ByLayer
370
-1
48
1
60
0
100
AcDbEllipse
10
112.343133
20
13.645674
30
0
11
-1.07186937277344E-14
21
-9.99999999999964
31
0
210
0
220
0
230
1
40
0.996195
41
0
42
0.0160059630348808
0
ELLIPSE
5
183
100
AcDbEntity
8
1
62
256
6
ByLayer
370
-1
48
1
60
0
100
AcDbEllipse
10
117.23948
20
-0.189834
30
0
11
1.16445136866418E-14
21
9.94022831811422
31
0
210
0
220
0
230
1
40
0.996195
41
0
42
0.0160059630348834
0
ELLIPSE
5
184
100
AcDbEntity
8
1
62
256
6
ByLayer
370
-1
48
1
60
0
100
AcDbEllipse
10
116.702173
20
9.105647
30
0
11
5.78724697506073E-15
21
4.94022831811449
31
0
210
0
220
0
230
1
40
0.996195
41
1.58680228982978
42
1.59660228291657
0
ELLIPSE
5
185
100
AcDbEntity
8
1
62
256
6
ByLayer
370
-1
48
1
60
0
100
AcDbEllipse
10
112.342677
20
3.945674
30
0
11
2.81416266174359E-16
21
0.240228318114594
31
0
210
0
220
0
230
1
40
0.996195
41
2.91469985083058
42
-3.14159265358973
0
ELLIPSE
5
186
100
AcDbEntity
8
1
62
256
6
ByLayer
370
-1
48
1
60
0
100
AcDbEllipse
10
114.939256
20
6.72792
30
0
11
-1.33983671596685E-15
21
-1.25
31
0
210
0
220
0
230
1
40
0.996195
41
3.14149442776612
42
0
0
ELLIPSE
5
187
100
AcDbEntity
8
1
62
256
6
ByLayer
370
-1
48
1
60
0
100
AcDbEllipse
10
114.939256
20
6.72792
30
0
11
-1.33983671596685E-15
21
-1.25
31
0
210
0
220
0
230
1
40
0.996195
41
0
42
0.0349505431244582
0
ELLIPSE
5
188
100
AcDbEntity
8
1
62
256
6
ByLayer
370
-1
48
1
60
0
100
AcDbEllipse
10
121.682964
20
9.185674
30
0
11
-1.07186937277344E-14
21
-9.99999999999964
31
0
210
0
220
0
230
1
40
0.996195
41
-1.5707963267949
42
-1.55479036376002
0
ELLIPSE
5
189
100
AcDbEntity
8
1
62
256
6
ByLayer
370
-1
48
1
60
0
100
AcDbEllipse
10
112.422399
20
8.646314
30
0
11
5.78724697506073E-15
21
4.94022831811449
31
0
210
0
220
0
230
1
40
0.996195
41
-3.12558669055491
42
-3.11578669746812
0
ELLIPSE
5
18A
100
AcDbEntity
8
1
62
256
6
ByLayer
370
-1
48
1
60
0
100
AcDbEllipse
10
112.719865
20
8.966035
30
0
11
-5.35934686386771E-15
21
-5.00000000000028
31
0
210
0
220
0
230
1
40
0.996195
41
1.614803540753
42
1.62460353383979
0
ELLIPSE
5
18B
100
AcDbEntity
8
1
62
256
6
ByLayer
370
-1
48
1
60
0
100
AcDbEllipse
10
112.561936
20
4.648337
30
0
11
-5.35934686386771E-15
21
-5.00000000000028
31
0
210
0
220
0
230
1
40
0.996195
41
-3.09758543963169
42
-3.08778544654489
0
ELLIPSE
5
18C
100
AcDbEntity
8
1
62
256
6
ByLayer
370
-1
48
1
60
0
100
AcDbEllipse
10
112.561481
20
4.648337
30
0
11
5.78724697506073E-15
21
4.94022831811449
31
0
210
0
220
0
230
1
40
0.996195
41
0.0440072139581066
42
0.0538072070448955
0
ELLIPSE
5
18D
100
AcDbEntity
8
1
62
256
6
ByLayer
370
-1
48
1
60
0
100
AcDbEllipse
10
117.021133
20
8.807503
30
0
11
-5.35934686386771E-15
21
-5.00000000000028
31
0
210
0
220
0
230
1
40
0.996195
41
0.0440072139581072
42
0.0538072070448957
0
ELLIPSE
5
18E
100
AcDbEntity
8
1
62
256
6
ByLayer
370
-1
48
1
60
0
100
AcDbEllipse
10
117.38565
20
9.373766
30
0
11
-3.21560811832048E-16
21
-0.300000000000003
31
0
210
0
220
0
230
1
40
0.996195
41
1.64060949687463
42
1.8675022996339
0
ELLIPSE
5
18F
100
AcDbEntity
8
1
62
256
6
ByLayer
370
-1
48
1
60
0
100
AcDbEllipse
10
112.879985
20
4.350192
30
0
11
5.78724697506073E-15
21
4.94022831811449
31
0
210
0
220
0
230
1
40
0.996195
41
-1.55479036376002
42
-1.54499037067323
0
ELLIPSE
5
190
100
AcDbEntity
8
1
62
256
6
ByLayer
370
-1
48
1
60
0
100
AcDbEllipse
10
107.7461
20
8.697129
30
0
11
-1.07186937277344E-14
21
-9.99999999999964
31
0
210
0
220
0
230
1
40
0.996195
41
1.62460353383979
42
1.64060949687468
0
ELLIPSE
5
191
100
AcDbEntity
8
1
62
256
6
ByLayer
370
-1
48
1
60
0
100
AcDbEllipse
10
112.197419
20
4.082073
30
0
11
-3.21560811832048E-16
21
-0.300000000000003
31
0
210
0
220
0
230
1
40
0.996195
41
-1.50098315671517
42
-1.27409035395589
0
ELLIPSE
5
192
100
AcDbEntity
8
1
62
256
6
ByLayer
370
-1
48
1
60
0
100
AcDbEllipse
10
117.239936
20
9.510166
30
0
11
-3.21560811832048E-16
21
-0.300000000000003
31
0
210
0
220
0
230
1
40
0.996195
41
2.91469985083052
42
3.14159265358979
0
POINT
5
41
100
AcDbEntity
8
81
62
256
6
ByLayer
370
-1
48
1
60
0
100
AcDbPoint
10
118
20
0
30
0
39
0
210
0
220
0
230
1
50
360
0
POINT
5
43
100
AcDbEntity
8
80
62
256
6
ByLayer
370
-1
48
1
60
0
100
AcDbPoint
10
0
20
0
30
0
39
0
210
0
220
0
230
1
50
360
0
SPLINE
5
193
100
AcDbEntity
8
1
62
256
6
ByLayer
370
-1
48
1
60
0
100
AcDbSpline
70
4
71
3
72
18
73
14
40
0
40
0
40
0
40
0
40
0.0924868142191505
40
0.187383462899522
40
0.283422076795029
40
0.379240460302068
40
0.473494864834144
40
0.566290222662306
40
0.654340604686972
40
0.74120507414716
40
0.827225717945666
40
0.913090415297666
40
1
40
1
40
1
40
1
41
1
10
17
20
9.61499999999998
30
0
41
1
10
16.5606564968398
20
9.61547814869613
30
0
41
1
10
15.684051583704
20
9.68692522556032
30
0
41
1
10
14.3833720725127
20
10.0149459975724
30
0
41
1
10
13.1432349586409
20
10.5613845520641
30
0
41
1
10
12.0196155370233
20
11.3106460303403
30
0
41
1
10
11.0305850916756
20
12.215190914195
30
0
41
1
10
10.2907156188314
20
13.2811355537386
30
0
41
1
10
9.44776792666042
20
14.2226889186036
30
0
41
1
10
8.47360083060451
20
14.9805652795014
30
0
41
1
10
7.39398913251014
20
15.5539856330126
30
0
41
1
10
6.22095888327664
20
15.9174148712649
30
0
41
1
10
5.41471965462455
20
15.9984169633448
30
0
41
1
10
5.00000000000003
20
16
30
0
0
SPLINE
5
194
100
AcDbEntity
8
1
62
256
6
ByLayer
370
-1
48
1
60
0
100
AcDbSpline
70
4
71
3
72
17
73
13
40
0
40
0
40
0
40
0
40
0.09213860400854
40
0.183197405537381
40
0.274549028341599
40
0.366940829678463
40
0.460722867357809
40
0.553259073513402
40
0.665175199278703
40
0.778405465466149
40
0.890721608902272
40
1
40
1
40
1
40
1
41
1
10
4.99999999999997
20
-16
30
0
41
1
10
5.44026406312224
20
-15.9980128679652
30
0
41
1
10
6.2939565952766
20
-15.9070977418513
30
0
41
1
10
7.53284083672477
20
-15.4997643380821
30
0
41
1
10
8.6602037125954
20
-14.8577661770189
30
0
41
1
10
9.6748300032439
20
-14.0202680997468
30
0
41
1
10
10.4761475099612
20
-12.9790375964135
30
0
41
1
10
11.347735051666
20
-11.8770530986972
30
0
41
1
10
12.5189701836903
20
-10.9276614039328
30
0
41
1
10
13.922922606961
20
-10.1720020368424
30
0
41
1
10
15.4451999022417
20
-9.71566685205636
30
0
41
1
10
16.4790364404433
20
-9.61593151649558
30
0
41
1
10
17
20
-9.61500000000004
30
0
0
SPLINE
5
195
100
AcDbEntity
8
1
62
256
6
ByLayer
370
-1
48
1
60
0
100
AcDbSpline
70
4
71
3
72
20
73
16
40
0
40
0
40
0
40
0
40
0.0347374990023663
40
0.120502631827162
40
0.206067200958288
40
0.29114571000304
40
0.375628898564947
40
0.45957879634162
40
0.543191442056215
40
0.626736727364843
40
0.710411131649117
40
0.794456105681971
40
0.879037736605654
40
0.96418874914106
40
1
40
1
40
1
40
1
41
1
10
114.910276340232
20
7.96697627107227
30
0
41
1
10
114.954792841765
20
7.97256620352627
30
0
41
1
10
115.107894348699
20
7.98114263875556
30
0
41
1
10
115.368496935679
20
7.91356907174233
30
0
41
1
10
115.662355200744
20
7.76094444767628
30
0
41
1
10
115.905586052592
20
7.53152006533148
30
0
41
1
10
116.080469491173
20
7.24703774975674
30
0
41
1
10
116.175126788689
20
6.92655932108664
30
0
41
1
10
116.183461237366
20
6.59305359654283
30
0
41
1
10
116.10546189236
20
6.2696087662687
30
0
41
1
10
115.947001878072
20
5.97837789817851
30
0
41
1
10
115.719049803261
20
5.73902960245758
30
0
41
1
10
115.437358613322
20
5.56776829252604
30
0
41
1
10
115.18132176132
20
5.49424582456848
30
0
41
1
10
115.028059387512
20
5.48030113682259
30
0
41
1
10
114.982129151596
20
5.4786710637872
30
0
0
SPLINE
5
196
100
AcDbEntity
8
1
62
256
6
ByLayer
370
-1
48
1
60
0
100
AcDbSpline
70
4
71
3
72
13
73
9
40
0
40
0
40
0
40
0
40
0.0560578056447305
40
0.272867879788967
40
0.488683234971913
40
0.70327285197234
40
0.916756224932077
40
1
40
1
40
1
40
1
41
1
10
113.676295192776
20
-2.27375584894335
30
0
41
1
10
113.684921442968
20
-2.24644545837691
30
0
41
1
10
113.7317475705
20
-2.11478222273414
30
0
41
1
10
113.846186682579
20
-1.89346528403553
30
0
41
1
10
114.0762085904
20
-1.65000737591819
30
0
41
1
10
114.360682624209
20
-1.47509487518607
30
0
41
1
10
114.617472207916
20
-1.39963561925109
30
0
41
1
10
114.769518865538
20
-1.38392268123445
30
0
41
1
10
114.812721685418
20
-1.38164011065823
30
0
0
SPLINE
5
197
100
AcDbEntity
8
1
62
256
6
ByLayer
370
-1
48
1
60
0
100
AcDbSpline
70
4
71
3
72
10
73
6
40
0
40
0
40
0
40
0
40
0.168188472290513
40
0.693136513613797
40
1
40
1
40
1
40
1
41
1
10
114.812721685418
20
-1.38164011065823
30
0
41
1
10
114.847925900451
20
-1.37981268216819
30
0
41
1
10
114.992239161047
20
-1.37826275483886
30
0
41
1
10
115.201064012903
20
-1.41232226651493
30
0
41
1
10
115.363343600766
20
-1.47518733363015
30
0
41
1
10
115.42101887518
20
-1.50273998720979
30
0
0
SPLINE
5
198
100
AcDbEntity
8
1
62
256
6
ByLayer
370
-1
48
1
60
0
100
AcDbSpline
70
4
71
3
72
8
73
4
40
0
40
0
40
0
40
0
40
1
40
1
40
1
40
1
41
1
10
17.1535112489107
20
-8.52272989599845
30
0
41
1
10
17.1022259443902
20
-8.51887096714344
30
0
41
1
10
17.0510465065391
20
-8.51468781201092
30
0
41
1
10
17
20
-8.51017724285023
30
0
0
SPLINE
5
199
100
AcDbEntity
8
1
62
256
6
ByLayer
370
-1
48
1
60
0
100
AcDbSpline
70
4
71
3
72
18
73
14
40
0
40
0
40
0
40
0
40
0.25
40
0.25
40
0.375
40
0.375
40
0.5
40
0.5
40
0.75
40
0.75
40
0.875
40
0.875
40
1
40
1
40
1
40
1
41
1
10
17
20
4.01842873636144
30
0
41
1
10
16.5356581191011
20
4.13990094153016
30
0
41
1
10
16.0709839250847
20
4.2624629207798
30
0
41
1
10
15.3751152409399
20
4.45420487995708
30
0
41
1
10
15.1432518580119
20
4.51950707280204
30
0
41
1
10
14.6877543420519
20
4.65186824414786
30
0
41
1
10
14.4631661545553
20
4.71918476794147
30
0
41
1
10
13.7992651140118
20
4.92629842532293
30
0
41
1
10
13.3697478334155
20
5.07119307153979
30
0
41
1
10
12.7476304841213
20
5.30662479098459
30
0
41
1
10
12.5455959777444
20
5.38754046041046
30
0
41
1
10
12.1546786148958
20
5.55441268058271
30
0
41
1
10
11.9654051132115
20
5.64051427902734
30
0
41
1
10
11.7824496253892
20
5.7298375431981
30
0
0
SPLINE
5
19A
100
AcDbEntity
8
1
62
256
6
ByLayer
370
-1
48
1
60
0
100
AcDbSpline
70
4
71
3
72
10
73
6
40
0
40
0
40
0
40
0
40
0.431406349325836
40
0.862812698651671
40
1
40
1
40
1
40
1
41
1
10
105.182876253987
20
5.25999999999988
30
0
41
1
10
104.728114831063
20
5.24807576976321
30
0
41
1
10
103.818572741217
20
5.22299925006496
30
0
41
1
10
102.76434459136
20
5.19096361095632
30
0
41
1
10
102.164967834738
20
5.17160137476381
30
0
41
1
10
102.020356084268
20
5.16686233269275
30
0
0
SPLINE
5
19B
100
AcDbEntity
8
1
62
256
6
ByLayer
370
-1
48
1
60
0
100
AcDbSpline
70
4
71
3
72
8
73
4
40
0
40
0
40
0
40
0
40
1
40
1
40
1
40
1
41
1
10
11.7824496253894
20
5.04295001540163
30
0
41
1
10
13.8576081743812
20
3.90485440323448
30
0
41
1
10
15.9248170941092
20
2.76986353631361
30
0
41
1
10
17.9824496253881
20
1.64145357251309
30
0
0
SPLINE
5
19C
100
AcDbEntity
8
1
62
256
6
ByLayer
370
-1
48
1
60
0
100
AcDbSpline
70
4
71
3
72
8
73
4
40
0
40
0
40
0
40
0
40
1
40
1
40
1
40
1
41
1
10
11.7824496253884
20
5.04295001539469
30
0
41
1
10
11.7824496253884
20
5.27191252466076
30
0
41
1
10
11.7824496253884
20
5.50087503392686
30
0
41
1
10
11.7824496253884
20
5.72983754319293
30
0
0
SPLINE
5
19D
100
AcDbEntity
8
1
62
256
6
ByLayer
370
-1
48
1
60
0
100
AcDbSpline
70
4
71
3
72
16
73
12
40
0
40
0
40
0
40
0
40
0.25
40
0.25
40
0.375
40
0.375
40
0.5
40
0.5
40
0.75
40
0.75
40
1
40
1
40
1
40
1
41
1
10
22
20
-8.92359880674297
30
0
41
1
10
25.7930037045415
20
-9.18953769147473
30
0
41
1
10
29.5829231867099
20
-9.37290313686574
30
0
41
1
10
35.2695191073463
20
-9.51727858001914
30
0
41
1
10
37.1653424118371
20
-9.54371661830533
30
0
41
1
10
40.9585775517466
20
-9.5531916861222
30
0
41
1
10
42.8558862056304
20
-9.53622463989674
30
0
41
1
10
48.5439999816214
20
-9.42124656670072
30
0
41
1
10
52.3335000289572
20
-9.25907088407811
30
0
41
1
10
59.9140291532138
20
-8.773049034792
30
0
41
1
10
63.7048506567418
20
-8.44869448825625
30
0
41
1
10
67.5000000000001
20
-8.05084161192426
30
0
0
SPLINE
5
19E
100
AcDbEntity
8
1
62
256
6
ByLayer
370
-1
48
1
60
0
100
AcDbSpline
70
4
71
3
72
8
73
4
40
0
40
0
40
0
40
0
40
1
40
1
40
1
40
1
41
1
10
110.969385419428
20
3.44729969736565
30
0
41
1
10
110.991564602426
20
3.44003390727761
30
0
41
1
10
111.013187911494
20
3.43278189419905
30
0
41
1
10
111.034233737399
20
3.42551994125296
30
0
0
SPLINE
5
19F
100
AcDbEntity
8
1
62
256
6
ByLayer
370
-1
48
1
60
0
100
AcDbSpline
70
4
71
2
72
6
73
3
40
0
40
0
40
0
40
1
40
1
40
1
41
1
10
8.04121118389941
20
-2.77173136108183
30
0
41
1
10
8.04121118389946
20
-4.2359938365677
30
0
41
1
10
8.04121118389949
20
-5.70025631205354
30
0
0
SPLINE
5
1A0
100
AcDbEntity
8
1
62
256
6
ByLayer
370
-1
48
1
60
0
100
AcDbSpline
70
4
71
3
72
12
73
8
40
0
40
0
40
0
40
0
40
0.25
40
0.25
40
0.5
40
0.5
40
1
40
1
40
1
40
1
41
1
10
15.2449955843516
20
-7.53321983501414
30
0
41
1
10
15.3698889487737
20
-7.59278535231397
30
0
41
1
10
15.4994362706459
20
-7.64719631567215
30
0
41
1
10
15.7618432431717
20
-7.74333718872029
30
0
41
1
10
15.8953883097794
20
-7.78542773370665
30
0
41
1
10
16.3030630002456
20
-7.89419576844847
30
0
41
1
10
16.5841775380975
20
-7.9435504361
30
0
41
1
10
16.8752556746737
20
-7.96880606024342
30
0
0
SPLINE
5
1A1
100
AcDbEntity
8
1
62
256
6
ByLayer
370
-1
48
1
60
0
100
AcDbSpline
70
4
71
3
72
20
73
16
40
0
40
0
40
0
40
0
40
0.0749447208695531
40
0.0749447208695531
40
0.177728640772936
40
0.177728640772936
40
0.383296480579701
40
0.383296480579701
40
0.588864320386466
40
0.588864320386466
40
0.691648240289849
40
0.691648240289849
40
0.794432160193232
40
0.794432160193232
40
1
40
1
40
1
40
1
41
1
10
107.402586528347
20
2.58762057089038
30
0
41
1
10
107.414374736375
20
2.63242529804972
30
0
41
1
10
107.425221173795
20
2.67973693343205
30
0
41
1
10
107.448325150059
20
2.79646133131246
30
0
41
1
10
107.459696595084
20
2.86777320274683
30
0
41
1
10
107.487738112879
20
3.09275942205386
30
0
41
1
10
107.498415214865
20
3.25741012350972
30
0
41
1
10
107.501431130317
20
3.61599126221773
30
0
41
1
10
107.4936907781
20
3.80528684407648
30
0
41
1
10
107.466989080351
20
4.1010549927631
30
0
41
1
10
107.455554896577
20
4.20171339660507
30
0
41
1
10
107.427150288933
20
4.40700485254774
30
0
41
1
10
107.410101469861
20
4.5120403585957
30
0
41
1
10
107.350246062081
20
4.82963331519366
30
0
41
1
10
107.299086264442
20
5.04411712735896
30
0
41
1
10
107.233900999088
20
5.25999999998464
30
0
0
SPLINE
5
1A2
100
AcDbEntity
8
1
62
256
6
ByLayer
370
-1
48
1
60
0
100
AcDbSpline
70
4
71
4
72
10
73
5
40
0
40
0
40
0
40
0
40
0
40
1
40
1
40
1
40
1
40
1
41
0.986575170300747
10
105.142613151522
20
3.66094468863116
30
0
41
0.990785780466802
10
105.163483096684
20
4.05734174470283
30
0
41
0.995783840167413
10
105.176918134393
20
4.46834263377965
30
0
41
1
10
105.182876253987
20
4.87601890413302
30
0
41
1
10
105.182876253987
20
5.25999999999985
30
0
0
SPLINE
5
1A3
100
AcDbEntity
8
1
62
256
6
ByLayer
370
-1
48
1
60
0
100
AcDbSpline
70
4
71
3
72
14
73
10
40
0
40
0
40
0
40
0
40
0.0705200632844743
40
0.0705200632844743
40
0.380346708856316
40
0.380346708856316
40
0.690173354428158
40
0.690173354428158
40
1
40
1
40
1
40
1
41
1
10
116.795819593537
20
3.79041842003613
30
0
41
1
10
116.795347367147
20
3.78299981093991
30
0
41
1
10
116.794845703107
20
3.77578528722199
30
0
41
1
10
116.792008246414
20
3.73796650221146
30
0
41
1
10
116.789166810209
20
3.71103661854786
30
0
41
1
10
116.783041448765
20
3.66798435085704
30
0
41
1
10
116.779695480225
20
3.65131568824239
30
0
41
1
10
116.772757824631
20
3.62889531835558
30
0
41
1
10
116.769226264525
20
3.62323844305564
30
0
41
1
10
116.7656867499
20
3.62320572736169
30
0
0
SPLINE
5
1A4
100
AcDbEntity
8
1
62
256
6
ByLayer
370
-1
48
1
60
0
100
AcDbSpline
70
4
71
3
72
8
73
4
40
0
40
0
40
0
40
0
40
1
40
1
40
1
40
1
41
1
10
107.233900999134
20
5.25999999999988
30
0
41
1
10
107.158736518179
20
5.50893239261873
30
0
41
1
10
107.10877568775
20
5.76508113963615
30
0
41
1
10
107.10877568775
20
6.03398418214005
30
0
0
SPLINE
5
1A5
100
AcDbEntity
8
1
62
256
6
ByLayer
370
-1
48
1
60
0
100
AcDbSpline
70
4
71
3
72
8
73
4
40
0
40
0
40
0
40
0
40
1
40
1
40
1
40
1
41
1
10
110.787434044133
20
2.57647749424362
30
0
41
1
10
110.612265285278
20
2.49150105880832
30
0
41
1
10
110.432348531481
20
2.41265103264513
30
0
41
1
10
110.248761832017
20
2.34074732937714
30
0
0
SPLINE
5
1A6
100
AcDbEntity
8
1
62
256
6
ByLayer
370
-1
48
1
60
0
100
AcDbSpline
70
4
71
3
72
32
73
28
40
0
40
0
40
0
40
0
40
0.124999999999999
40
0.124999999999999
40
0.187499999999998
40
0.187499999999998
40
0.218749999999997
40
0.218749999999997
40
0.249999999999996
40
0.249999999999996
40
0.374999999999994
40
0.374999999999994
40
0.437499999999993
40
0.437499999999993
40
0.453124999999993
40
0.453124999999993
40
0.468749999999993
40
0.468749999999993
40
0.499999999999993
40
0.499999999999993
40
0.624999999999995
40
0.624999999999995
40
0.749999999999997
40
0.749999999999997
40
0.874999999999998
40
0.874999999999998
40
1
40
1
40
1
40
1
41
1
10
8.04121118389946
20
-5.70025631205351
30
0
41
1
10
8.2451436935979
20
-5.94903869711845
30
0
41
1
10
8.45204843671678
20
-6.17314435972966
30
0
41
1
10
8.76815725681689
20
-6.46843420767729
30
0
41
1
10
8.87449228763447
20
-6.56001481662557
30
0
41
1
10
9.03569768898129
20
-6.68613756308463
30
0
41
1
10
9.0897174478622
20
-6.72629955612848
30
0
41
1
10
9.19838103532888
20
-6.80263994660706
30
0
41
1
10
9.25301359721675
20
-6.83879447457753
30
0
41
1
10
9.52493448854142
20
-7.00723973361517
30
0
41
1
10
9.74079396792902
20
-7.10479968170526
30
0
41
1
10
10.0627475698907
20
-7.18464730786744
30
0
41
1
10
10.1701288516005
20
-7.20003299189185
30
0
41
1
10
10.3022287661541
20
-7.20294160510485
30
0
41
1
10
10.3285542355234
20
-7.20271149995054
30
0
41
1
10
10.3810126022244
20
-7.20057521598474
30
0
41
1
10
10.407112148436
20
-7.1984129675393
30
0
41
1
10
10.4853999575999
20
-7.19150691169315
30
0
41
1
10
10.5375189054017
20
-7.18588719319996
30
0
41
1
10
10.8004680887337
20
-7.17385829498008
30
0
41
1
10
11.0165512148669
20
-7.20206514227107
30
0
41
1
10
11.4550924297177
20
-7.30285603761843
30
0
41
1
10
11.6780414691509
20
-7.37582706870816
30
0
41
1
10
12.1240412037762
20
-7.54449962029989
30
0
41
1
10
12.3473845710402
20
-7.6402875610176
30
0
41
1
10
12.7942255925942
20
-7.84122994414915
30
0
41
1
10
13.0177290098579
20
-7.94646475271188
30
0
41
1
10
13.2412111838996
20
-8.05207978535802
30
0
0
SPLINE
5
1A7
100
AcDbEntity
8
1
62
256
6
ByLayer
370
-1
48
1
60
0
100
AcDbSpline
70
4
71
2
72
6
73
3
40
0
40
0
40
0
40
1
40
1
40
1
41
1
10
17.1535112487959
20
-7.99343639534843
30
0
41
1
10
17.1535112487959
20
-8.25808314567084
30
0
41
1
10
17.1535112487959
20
-8.52272989599328
30
0
0
SPLINE
5
1A8
100
AcDbEntity
8
1
62
256
6
ByLayer
370
-1
48
1
60
0
100
AcDbSpline
70
4
71
3
72
8
73
4
40
0
40
0
40
0
40
0
40
1
40
1
40
1
40
1
41
1
10
109.560216358459
20
9.44999959727377
30
0
41
1
10
109.817311107844
20
9.45007592974039
30
0
41
1
10
110.064466440398
20
9.44969124355168
30
0
41
1
10
110.302079061781
20
9.44700119511603
30
0
0
SPLINE
5
1A9
100
AcDbEntity
8
1
62
256
6
ByLayer
370
-1
48
1
60
0
100
AcDbSpline
70
4
71
3
72
10
73
6
40
0
40
0
40
0
40
0
40
0.5
40
0.5
40
1
40
1
40
1
40
1
41
1
10
109.613952525251
20
-9.4002910753043
30
0
41
1
10
109.906880369692
20
-9.40408833549267
30
0
41
1
10
110.191991950126
20
-9.41033611379657
30
0
41
1
10
110.747288071251
20
-9.42463319951224
30
0
41
1
10
111.017472608999
20
-9.43270426007024
30
0
41
1
10
111.279837485371
20
-9.43918487824959
30
0
0
SPLINE
5
1AA
100
AcDbEntity
8
1
62
256
6
ByLayer
370
-1
48
1
60
0
100
AcDbSpline
70
4
71
3
72
28
73
24
40
0
40
0
40
0
40
0
40
0.109193158557347
40
0.109193158557347
40
0.287354526845877
40
0.287354526845877
40
0.376435210990143
40
0.376435210990143
40
0.465515895134408
40
0.465515895134408
40
0.554596579278673
40
0.554596579278673
40
0.643677263422938
40
0.643677263422938
40
0.732757947567204
40
0.732757947567204
40
0.821838631711469
40
0.821838631711469
40
0.910919315855735
40
0.910919315855735
40
0.955459657927867
40
0.955459657927867
40
1
40
1
40
1
40
1
41
1
10
76.2722286162426
20
-6.78512671622795
30
0
41
1
10
74.1199044078789
20
-7.05257355610789
30
0
41
1
10
71.9674499223477
20
-7.30142501658923
30
0
41
1
10
66.3054944873966
20
-7.89789791327905
30
0
41
1
10
62.796347765947
20
-8.20921821166675
30
0
41
1
10
57.5298211680027
20
-8.57230424077193
30
0
41
1
10
55.7734442970693
20
-8.67626826479108
30
0
41
1
10
52.2614209016694
20
-8.84975404563187
30
0
41
1
10
50.5059451773534
20
-8.91926541940828
30
0
41
1
10
46.9954525001206
20
-9.02274791214114
30
0
41
1
10
45.240442473638
20
-9.05661219085258
30
0
41
1
10
41.7302165140386
20
-9.08688967736552
30
0
41
1
10
39.9749902032499
20
-9.08334686835829
30
0
41
1
10
36.4635719664691
20
-9.04012601822728
30
0
41
1
10
34.7073329736253
20
-9.00074545382563
30
0
41
1
10
31.1963535028016
20
-8.88953002477336
30
0
41
1
10
29.4412117780544
20
-8.81774909126327
30
0
41
1
10
25.9310576271189
20
-8.64055766432895
30
0
41
1
10
24.1760942945703
20
-8.53345437820056
30
0
41
1
10
21.5431344386085
20
-8.34809044665744
30
0
41
1
10
20.665392643585
20
-8.28242375554512
30
0
41
1
10
18.9096564688119
20
-8.14376706559619
30
0
41
1
10
18.0316651098159
20
-8.0708014054176
30
0
41
1
10
17.1535112487959
20
-7.99343639534311
30
0
0
SPLINE
5
1AB
100
AcDbEntity
8
1
62
256
6
ByLayer
370
-1
48
1
60
0
100
AcDbSpline
70
4
71
3
72
20
73
16
40
0
40
0
40
0
40
0
40
0.125000000000001
40
0.125000000000001
40
0.250000000000003
40
0.250000000000003
40
0.500000000000002
40
0.500000000000002
40
0.625000000000002
40
0.625000000000002
40
0.750000000000001
40
0.750000000000001
40
0.875000000000001
40
0.875000000000001
40
1
40
1
40
1
40
1
41
1
10
111.138846185517
20
2.75539809676218
30
0
41
1
10
111.193023617404
20
2.78428746692799
30
0
41
1
10
111.240424099786
20
2.81364802469713
30
0
41
1
10
111.321496137425
20
2.87332368479352
30
0
41
1
10
111.355293289039
20
2.90385379999864
30
0
41
1
10
111.432997011349
20
2.99453847274114
30
0
41
1
10
111.454649530012
20
3.05423680188844
30
0
41
1
10
111.441090057172
20
3.142626666035
30
0
41
1
10
111.42877942977
20
3.17151831459481
30
0
41
1
10
111.389404638389
20
3.22736501383369
30
0
41
1
10
111.362322158032
20
3.25445540386858
30
0
41
1
10
111.293302984357
20
3.3069630510922
30
0
41
1
10
111.251029923002
20
3.33252885272157
30
0
41
1
10
111.152745795073
20
3.38099492482323
30
0
41
1
10
111.096853361004
20
3.40391277020837
30
0
41
1
10
111.034233737399
20
3.42551994125296
30
0
0
SPLINE
5
1AC
100
AcDbEntity
8
1
62
256
6
ByLayer
370
-1
48
1
60
0
100
AcDbSpline
70
4
71
3
72
18
73
14
40
0
40
0
40
0
40
0
40
0.125
40
0.125
40
0.249999999999999
40
0.249999999999999
40
0.374999999999999
40
0.374999999999999
40
0.5
40
0.5
40
0.75
40
0.75
40
1
40
1
40
1
40
1
41
1
10
22
20
2.99720512462187
30
0
41
1
10
23.8968005435634
20
2.63979558505841
30
0
41
1
10
25.7931783945788
20
2.27795239760084
30
0
41
1
10
29.584527640722
20
1.54259811224628
30
0
41
1
10
31.4796751212028
20
1.1699477046254
30
0
41
1
10
35.2707341023232
20
0.423906156210791
30
0
41
1
10
37.1666079653488
20
0.0503325031277484
30
0
41
1
10
40.9599758021196
20
-0.693088303838721
30
0
41
1
10
42.8573008675342
20
-1.06327400417388
30
0
41
1
10
48.5452620933064
20
-2.16108476831607
30
0
41
1
10
52.3345458558357
20
-2.87559211651984
30
0
41
1
10
59.9142342964296
20
-4.23775747674458
30
0
41
1
10
63.7047394810681
20
-4.88480707958504
30
0
41
1
10
67.5
20
-5.47914226074633
30
0
0
SPLINE
5
1AD
100
AcDbEntity
8
1
62
256
6
ByLayer
370
-1
48
1
60
0
100
AcDbSpline
70
4
71
3
72
8
73
4
40
0
40
0
40
0
40
0
40
1
40
1
40
1
40
1
41
1
10
110.262487603961
20
3.47064383257543
30
0
41
1
10
110.516779310451
20
3.44538761431835
30
0
41
1
10
110.753732340584
20
3.43978099202394
30
0
41
1
10
110.969385419428
20
3.44729969736565
30
0
0
SPLINE
5
1AE
100
AcDbEntity
8
1
62
256
6
ByLayer
370
-1
48
1
60
0
100
AcDbSpline
70
4
71
3
72
8
73
4
40
0
40
0
40
0
40
0
40
1
40
1
40
1
40
1
41
1
10
9.11214920529719
20
-3.86055000909923
30
0
41
1
10
10.4900729602602
20
-4.7163353868182
30
0
41
1
10
11.8683109888933
20
-5.55226182473703
30
0
41
1
10
13.2412111838996
20
-6.35469313544829
30
0
0
SPLINE
5
1AF
100
AcDbEntity
8
1
62
256
6
ByLayer
370
-1
48
1
60
0
100
AcDbSpline
70
4
71
3
72
14
73
10
40
0
40
0
40
0
40
0
40
0.25
40
0.25
40
0.5
40
0.5
40
0.75
40
0.75
40
1
40
1
40
1
40
1
41
1
10
111.540689959044
20
9.44994680282809
30
0
41
1
10
111.544843571098
20
9.45010630068745
30
0
41
1
10
111.554518617114
20
9.44990288086541
30
0
41
1
10
111.584512629288
20
9.44889438810051
30
0
41
1
10
111.605131423242
20
9.44807581913628
30
0
41
1
10
111.655178503215
20
9.44609619520105
30
0
41
1
10
111.685031198343
20
9.44492018216843
30
0
41
1
10
111.75297206261
20
9.44249677376374
30
0
41
1
10
111.790424314758
20
9.44127201590473
30
0
41
1
10
111.831402904172
20
9.44015684831632
30
0
0
SPLINE
5
1B0
100
AcDbEntity
8
1
62
256
6
ByLayer
370
-1
48
1
60
0
100
AcDbSpline
70
4
71
3
72
22
73
18
40
0
40
0
40
0
40
0
40
0.125
40
0.125
40
0.25
40
0.25
40
0.375
40
0.375
40
0.5
40
0.5
40
0.625
40
0.625
40
0.75
40
0.75
40
0.875
40
0.875
40
1
40
1
40
1
40
1
41
1
10
111.894998515097
20
3.47813034320961
30
0
41
1
10
111.900131580976
20
3.47813034320961
30
0
41
1
10
111.894898603211
20
3.48423942495083
30
0
41
1
10
111.869304098437
20
3.50691655105169
30
0
41
1
10
111.849811074078
20
3.52291296907703
30
0
41
1
10
111.803864123291
20
3.5628634773438
30
0
41
1
10
111.777495085271
20
3.58675926276916
30
0
41
1
10
111.72293439548
20
3.64072320894596
30
0
41
1
10
111.694470609479
20
3.67098563422388
30
0
41
1
10
111.636851328334
20
3.7387613834978
30
0
41
1
10
111.607846799284
20
3.77615370583587
30
0
41
1
10
111.552151015752
20
3.85647063096962
30
0
41
1
10
111.525210041192
20
3.89965375654938
30
0
41
1
10
111.473953985937
20
3.99318356718336
30
0
41
1
10
111.449734682311
20
4.04356489381365
30
0
41
1
10
111.406949397862
20
4.14740698746596
30
0
41
1
10
111.388046931428
20
4.20142357398095
30
0
41
1
10
111.37187862834
20
4.25783631267157
30
0
0
SPLINE
5
1B1
100
AcDbEntity
8
1
62
256
6
ByLayer
370
-1
48
1
60
0
100
AcDbSpline
70
4
71
3
72
22
73
18
40
0
40
0
40
0
40
0
40
0.125
40
0.125
40
0.25
40
0.25
40
0.375
40
0.375
40
0.5
40
0.5
40
0.625
40
0.625
40
0.75
40
0.75
40
0.875
40
0.875
40
1
40
1
40
1
40
1
41
1
10
17.982449625391
20
1.64145357251269
30
0
41
1
10
17.5811084585818
20
1.55408171863459
30
0
41
1
10
17.1689311086099
20
1.37931483789546
30
0
41
1
10
16.3680878347569
20
0.874149354566384
30
0
41
1
10
15.9795868363001
20
0.543854785604935
30
0
41
1
10
15.2690144547416
20
-0.23595038599035
30
0
41
1
10
14.9470894067036
20
-0.685300395780445
30
0
41
1
10
14.4052517316436
20
-1.65363652177229
30
0
41
1
10
14.1854506905102
20
-2.17242321912192
30
0
41
1
10
13.8721792771401
20
-3.22236333774268
30
0
41
1
10
13.7787734199245
20
-3.75330053465984
30
0
41
1
10
13.7286607610182
20
-4.76890669429474
30
0
41
1
10
13.7719642795136
20
-5.25336650338377
30
0
41
1
10
13.9905439849612
20
-6.12249202470596
30
0
41
1
10
14.1657751576744
20
-6.50697874948921
30
0
41
1
10
14.6289109144957
20
-7.13365184244026
30
0
41
1
10
14.9167201205646
20
-7.37570915373874
30
0
41
1
10
15.2449955135384
20
-7.53321980103703
30
0
0
SPLINE
5
1B2
100
AcDbEntity
8
1
62
256
6
ByLayer
370
-1
48
1
60
0
100
AcDbSpline
70
4
71
3
72
12
73
8
40
0
40
0
40
0
40
0
40
0.500000000000001
40
0.500000000000001
40
0.75
40
0.75
40
1
40
1
40
1
40
1
41
1
10
9.1121489609267
20
-3.86055233492175
30
0
41
1
10
8.93304671284349
20
-3.74418702039219
30
0
41
1
10
8.75849452236756
20
-3.60038801037877
30
0
41
1
10
8.50260299201142
20
-3.34496473971782
30
0
41
1
10
8.41830536376156
20
-3.25314784962873
30
0
41
1
10
8.25167659407541
20
-3.05572122846621
30
0
41
1
10
8.16968444335984
20
-2.95045581170595
30
0
41
1
10
8.08985741096294
20
-2.83967947715826
30
0
0
SPLINE
5
1B3
100
AcDbEntity
8
1
62
256
6
ByLayer
370
-1
48
1
60
0
100
AcDbSpline
70
4
71
3
72
8
73
4
40
0
40
0
40
0
40
0
40
1
40
1
40
1
40
1
41
1
10
17.1535112487959
20
-8.52272989599007
30
0
41
1
10
18.7690991591352
20
-8.67062684879556
30
0
41
1
10
20.3844935978825
20
-8.80448373136352
30
0
41
1
10
22
20
-8.92359880674297
30
0
0
SPLINE
5
1B4
100
AcDbEntity
8
1
62
256
6
ByLayer
370
-1
48
1
60
0
100
AcDbSpline
70
4
71
3
72
8
73
4
40
0
40
0
40
0
40
0
40
1
40
1
40
1
40
1
41
1
10
110.969385419428
20
3.44729969736565
30
0
41
1
10
110.974985437579
20
3.44747965906234
30
0
41
1
10
110.980584896924
20
3.44766746838277
30
0
41
1
10
110.986183797715
20
3.44786312359344
30
0
0
SPLINE
5
1B5
100
AcDbEntity
8
1
62
256
6
ByLayer
370
-1
48
1
60
0
100
AcDbSpline
70
4
71
3
72
8
73
4
40
0
40
0
40
0
40
0
40
1
40
1
40
1
40
1
41
1
10
17.9824496253885
20
3.74100241963646
30
0
41
1
10
19.3216106846847
20
3.49680357786715
30
0
41
1
10
20.6606722864609
20
3.24828168120115
30
0
41
1
10
22
20
2.99720512462187
30
0
0
SPLINE
5
1B6
100
AcDbEntity
8
1
62
256
6
ByLayer
370
-1
48
1
60
0
100
AcDbSpline
70
4
71
3
72
16
73
12
40
0
40
0
40
0
40
0
40
0.249999999999999
40
0.249999999999999
40
0.499999999999999
40
0.499999999999999
40
0.624999999999999
40
0.624999999999999
40
0.749999999999999
40
0.749999999999999
40
1
40
1
40
1
40
1
41
1
10
67.4999999999999
20
9.27121193069613
30
0
41
1
10
70.1940716481926
20
9.1691730212583
30
0
41
1
10
72.8864061158719
20
9.02356344320052
30
0
41
1
10
78.2712083556974
20
8.65075725609361
30
0
41
1
10
80.9637049460822
20
8.42371243742326
30
0
41
1
10
85.0047239094797
20
8.02803332497774
30
0
41
1
10
86.3523297133543
20
7.88690826359118
30
0
41
1
10
89.0468573495621
20
7.58731235900049
30
0
41
1
10
90.3938739917794
20
7.42883619873348
30
0
41
1
10
94.4345940552431
20
6.9287894555662
30
0
41
1
10
97.1279721642521
20
6.56261260053267
30
0
41
1
10
99.8219757735345
20
6.1673667971402
30
0
0
SPLINE
5
1B7
100
AcDbEntity
8
1
62
256
6
ByLayer
370
-1
48
1
60
0
100
AcDbSpline
70
4
71
3
72
14
73
10
40
0
40
0
40
0
40
0
40
0.0733803568985932
40
0.0733803568985932
40
0.536690178449297
40
0.536690178449297
40
0.768345089224648
40
0.768345089224648
40
1
40
1
40
1
40
1
41
1
10
84.8487687556336
20
8.04045535081119
30
0
41
1
10
85.3462602364137
20
8.0912495008703
30
0
41
1
10
85.8437915679283
20
8.14077528125947
30
0
41
1
10
89.4829805319462
20
8.4935174353391
30
0
41
1
10
92.6225342681759
20
8.74645676100755
30
0
41
1
10
97.3316504935286
20
9.04219685490298
30
0
41
1
10
98.9016004970192
20
9.12643920412089
30
0
41
1
10
102.041705873976
20
9.26673576229612
30
0
41
1
10
103.612056763319
20
9.32250624998153
30
0
41
1
10
105.182876254025
20
9.36368207965947
30
0
0
SPLINE
5
1B8
100
AcDbEntity
8
1
62
256
6
ByLayer
370
-1
48
1
60
0
100
AcDbSpline
70
4
71
3
72
16
73
12
40
0
40
0
40
0
40
0
40
0.249999999999999
40
0.249999999999999
40
0.374999999999999
40
0.374999999999999
40
0.499999999999999
40
0.499999999999999
40
0.75
40
0.75
40
1
40
1
40
1
40
1
41
1
10
110.248761832017
20
2.34074732937708
30
0
41
1
10
110.113147715829
20
2.28763260375808
30
0
41
1
10
109.95112590125
20
2.24503534783577
30
0
41
1
10
109.678727134031
20
2.20182614502073
30
0
41
1
10
109.582878875447
20
2.19089398815379
30
0
41
1
10
109.382249871846
20
2.17713168016562
30
0
41
1
10
109.279192084485
20
2.1744178756862
30
0
41
1
10
108.963271268226
20
2.17940950288821
30
0
41
1
10
108.743425230555
20
2.20021353143267
30
0
41
1
10
108.291813200178
20
2.28180514828452
30
0
41
1
10
108.064790316778
20
2.34167845405059
30
0
41
1
10
107.83803616756
20
2.42204903913731
30
0
0
SPLINE
5
1B9
100
AcDbEntity
8
1
62
256
6
ByLayer
370
-1
48
1
60
0
100
AcDbSpline
70
4
71
3
72
8
73
4
40
0
40
0
40
0
40
0
40
1
40
1
40
1
40
1
41
1
10
107.1542967277
20
2.69185652432697
30
0
41
1
10
107.385112096819
20
2.5917221116494
30
0
41
1
10
107.613020346186
20
2.50180349249547
30
0
41
1
10
107.83803616756
20
2.42204903913725
30
0
0
SPLINE
5
1BA
100
AcDbEntity
8
1
62
256
6
ByLayer
370
-1
48
1
60
0
100
AcDbSpline
70
4
71
3
72
14
73
10
40
0
40
0
40
0
40
0
40
0.410088052504339
40
0.410088052504339
40
0.61513207875651
40
0.61513207875651
40
0.820176105008681
40
0.820176105008681
40
1
40
1
40
1
40
1
41
1
10
114.07597814915
20
6.4812763552315
30
0
41
1
10
114.092324705038
20
6.34216423994584
30
0
41
1
10
114.131562230001
20
6.20303428755548
30
0
41
1
10
114.232179659084
20
5.99661737254647
30
0
41
1
10
114.272481710525
20
5.92910880599547
30
0
41
1
10
114.366629082687
20
5.79985729056949
30
0
41
1
10
114.42067224827
20
5.73768496070684
30
0
41
1
10
114.537376921374
20
5.62751876661238
30
0
41
1
10
114.596699959448
20
5.58009656046013
30
0
41
1
10
114.661270471108
20
5.53733817113061
30
0
0
SPLINE
5
1BB
100
AcDbEntity
8
1
62
256
6
ByLayer
370
-1
48
1
60
0
100
AcDbSpline
70
4
71
3
72
10
73
6
40
0
40
0
40
0
40
0
40
0.141630209239905
40
0.141630209239905
40
1
40
1
40
1
40
1
41
1
10
114.071192047034
20
6.72026370618596
30
0
41
1
10
114.07031967423
20
6.7091818318581
30
0
41
1
10
114.069600271262
20
6.6980645639014
30
0
41
1
10
114.065612076936
20
6.61935400630966
30
0
41
1
10
114.067804871205
20
6.55083241287434
30
0
41
1
10
114.07597814915
20
6.4812763552315
30
0
0
SPLINE
5
1BC
100
AcDbEntity
8
1
62
256
6
ByLayer
370
-1
48
1
60
0
100
AcDbSpline
70
4
71
3
72
41
73
37
40
0
40
0
40
0
40
0
40
0.0507161572577073
40
0.101432314515415
40
0.126790393144268
40
0.152148471773122
40
0.177506550401976
40
0.20286462903083
40
0.228222707659683
40
0.253580786288537
40
0.278938864917391
40
0.304296943546244
40
0.329655022175098
40
0.355013100803952
40
0.380371179432806
40
0.405729258061659
40
0.431087336690513
40
0.456445415319367
40
0.481803493948221
40
0.507161572577074
40
0.532519651205928
40
0.557877729834782
40
0.583235808463635
40
0.608593887092489
40
0.659310044350196
40
0.710026201607904
40
0.760742358865611
40
0.786100437494465
40
0.798779476808892
40
0.811458516123319
40
0.824137555437746
40
0.836816594752172
40
0.862174673381026
40
0.912890830638733
40
0.963606987896441
40
1
40
1
40
1
40
1
41
1
10
11.7824496253894
20
5.04295001540163
30
0
41
1
10
11.6761921570908
20
5.00736391563853
30
0
41
1
10
11.4582468806102
20
4.92339089490793
30
0
41
1
10
11.1747492043575
20
4.78442678825616
30
0
41
1
10
10.9432313963651
20
4.65210444624043
30
0
41
1
10
10.7678098976157
20
4.54224001634717
30
0
41
1
10
10.5911819468515
20
4.42170576803821
30
0
41
1
10
10.4140041845083
20
4.29061811014824
30
0
41
1
10
10.2369332510222
20
4.14909345151196
30
0
41
1
10
10.0606806219034
20
3.99742580090793
30
0
41
1
10
9.8859577726619
20
3.83590916711472
30
0
41
1
10
9.71349755664218
20
3.66501557925216
30
0
41
1
10
9.54403282718874
20
3.48521706644004
30
0
41
1
10
9.3782797156662
20
3.29715082740646
30
0
41
1
10
9.21695435343904
20
3.10145406087958
30
0
41
1
10
9.06071684695064
20
2.89890091962698
30
0
41
1
10
8.91022730264436
20
2.69026555641636
30
0
41
1
10
8.76605347367229
20
2.47641984790405
30
0
41
1
10
8.62876311318647
20
2.2582356707463
30
0
41
1
10
8.49880318897252
20
2.03663503985101
30
0
41
1
10
8.37662066881614
20
1.81253997012595
30
0
41
1
10
8.26252283698813
20
1.5868728077742
30
0
41
1
10
8.15681697775929
20
1.36055589899888
30
0
41
1
10
8.02728029133877
20
1.05910182875238
30
0
41
1
10
7.88714622388213
20
0.685040387455615
30
0
41
1
10
7.75400219977374
20
0.246899190438199
30
0
41
1
10
7.67151485613599
20
-0.104764551333403
30
0
41
1
10
7.62797168936183
20
-0.34195639245209
30
0
41
1
10
7.60703896541176
20
-0.474427116058138
30
0
41
1
10
7.59320812358388
20
-0.572718096188879
30
0
41
1
10
7.58114014120764
20
-0.670418686831539
30
0
41
1
10
7.56738026432043
20
-0.800487191984132
30
0
41
1
10
7.54936699466259
20
-1.02912895676212
30
0
41
1
10
7.54225039933672
20
-1.35555069896802
30
0
41
1
10
7.56427944631085
20
-1.70467517239936
30
0
41
1
10
7.59555476189237
20
-1.91903036323106
30
0
41
1
10
7.61174697664458
20
-2.00706667479867
30
0
0
SPLINE
5
1BD
100
AcDbEntity
8
1
62
256
6
ByLayer
370
-1
48
1
60
0
100
AcDbSpline
70
4
71
3
72
8
73
4
40
0
40
0
40
0
40
0
40
1
40
1
40
1
40
1
41
1
10
13.2412111838996
20
-6.35469313544829
30
0
41
1
10
13.2412111838996
20
-6.92048868541821
30
0
41
1
10
13.2412111838996
20
-7.4862842353881
30
0
41
1
10
13.2412111838996
20
-8.05207978535802
30
0
0
SPLINE
5
1BE
100
AcDbEntity
8
1
62
256
6
ByLayer
370
-1
48
1
60
0
100
AcDbSpline
70
4
71
3
72
22
73
18
40
0
40
0
40
0
40
0
40
0.266020848137
40
0.266020848137
40
0.532041696274
40
0.532041696274
40
0.59854690830825
40
0.59854690830825
40
0.6650521203425
40
0.6650521203425
40
0.798062544411001
40
0.798062544411001
40
0.864567756445252
40
0.864567756445252
40
0.931072968479502
40
0.931072968479502
40
1
40
1
40
1
40
1
41
1
10
8.04121118389949
20
-2.7717313611503
30
0
41
1
10
7.85159213416674
20
-2.50822771091035
30
0
41
1
10
7.6868218950936
20
-2.2376861714524
30
0
41
1
10
7.40074774658925
20
-1.69291105596162
30
0
41
1
10
7.2794079519725
20
-1.41842986156368
30
0
41
1
10
7.155214572266
20
-1.08234654794876
30
0
41
1
10
7.13176990843519
20
-1.01550474833203
30
0
41
1
10
7.08777451804059
20
-0.882934095287311
30
0
41
1
10
7.06723588423049
20
-0.817213731658313
30
0
41
1
10
7.01079809409865
20
-0.624592627296664
30
0
41
1
10
6.97979947183623
20
-0.50148453454949
30
0
41
1
10
6.94398081311678
20
-0.32807074205499
30
0
41
1
10
6.93382790605821
20
-0.272147510268582
30
0
41
1
10
6.9173136851191
20
-0.1646685982885
30
0
41
1
10
6.9109355372313
20
-0.112874156691873
30
0
41
1
10
6.90220913303983
20
-0.0138326196377534
30
0
41
1
10
6.89999415650669
20
0.0331083166893222
30
0
41
1
10
6.89999679978945
20
0.0765930817921685
30
0
0
SPLINE
5
1BF
100
AcDbEntity
8
1
62
256
6
ByLayer
370
-1
48
1
60
0
100
AcDbSpline
70
4
71
3
72
12
73
8
40
0
40
0
40
0
40
0
40
0.499999999999991
40
0.499999999999991
40
0.749999999999995
40
0.749999999999995
40
1
40
1
40
1
40
1
41
1
10
105.182876253987
20
9.36368207965882
30
0
41
1
10
105.534074100697
20
9.36949448935303
30
0
41
1
10
105.871712392177
20
9.38140874456241
30
0
41
1
10
106.358647364896
20
9.40258943502795
30
0
41
1
10
106.51867783348
20
9.41021555655726
30
0
41
1
10
106.823800337134
20
9.42460460815002
30
0
41
1
10
106.969600058558
20
9.43139296033459
30
0
41
1
10
107.10877568775
20
9.43692176365568
30
0
0
SPLINE
5
1C0
100
AcDbEntity
8
1
62
256
6
ByLayer
370
-1
48
1
60
0
100
AcDbSpline
70
4
71
3
72
10
73
6
40
0
40
0
40
0
40
0
40
0.406615963298951
40
0.406615963298951
40
1
40
1
40
1
40
1
41
1
10
57.9134001346674
20
9.48476653605644
30
0
41
1
10
59.2123297143271
20
9.48006419677367
30
0
41
1
10
60.5113293738234
20
9.46556434534529
30
0
41
1
10
63.7063820084384
20
9.40556824045953
30
0
41
1
10
65.6026767572292
20
9.34884735104819
30
0
41
1
10
67.5000000000001
20
9.27121193069647
30
0
0
SPLINE
5
1C1
100
AcDbEntity
8
1
62
256
6
ByLayer
370
-1
48
1
60
0
100
AcDbSpline
70
4
71
3
72
20
73
16
40
0
40
0
40
0
40
0
40
0.0625000000000075
40
0.0625000000000075
40
0.125000000000015
40
0.125000000000015
40
0.250000000000017
40
0.250000000000017
40
0.375000000000021
40
0.375000000000021
40
0.500000000000025
40
0.500000000000025
40
0.750000000000012
40
0.750000000000012
40
1
40
1
40
1
40
1
41
1
10
109.08102749721
20
4.19977334095648
30
0
41
1
10
109.0854598171
20
4.16778394221939
30
0
41
1
10
109.097028271608
20
4.13726693870362
30
0
41
1
10
109.125770714482
20
4.08054592839505
30
0
41
1
10
109.143387926448
20
4.05364815699039
30
0
41
1
10
109.200265142307
20
3.97786016717777
30
0
41
1
10
109.243765759467
20
3.93299088411413
30
0
41
1
10
109.336040123223
20
3.84969905542874
30
0
41
1
10
109.385305522916
20
3.81129106648186
30
0
41
1
10
109.486260877876
20
3.74117249261929
30
0
41
1
10
109.538022397208
20
3.70940211422837
30
0
41
1
10
109.696313599667
20
3.62273349896248
30
0
41
1
10
109.805797524428
20
3.57637747709615
30
0
41
1
10
110.031833350139
20
3.50574575609312
30
0
41
1
10
110.146767552519
20
3.48213713259784
30
0
41
1
10
110.262487603961
20
3.47064383257498
30
0
0
SPLINE
5
1C2
100
AcDbEntity
8
1
62
256
6
ByLayer
370
-1
48
1
60
0
100
AcDbSpline
70
4
71
3
72
14
73
10
40
0
40
0
40
0
40
0
40
0.25
40
0.25
40
0.5
40
0.5
40
0.75
40
0.75
40
1
40
1
40
1
40
1
41
1
10
113.713751558371
20
3.71039572495684
30
0
41
1
10
113.684435105774
20
3.68125170761402
30
0
41
1
10
113.655143009366
20
3.65493205821144
30
0
41
1
10
113.597679854369
20
3.60746024063991
30
0
41
1
10
113.569468688716
20
3.58629284277492
30
0
41
1
10
113.516290907621
20
3.54955541167954
30
0
41
1
10
113.491669160026
20
3.53425817222237
30
0
41
1
10
113.453069998799
20
3.51257547559104
30
0
41
1
10
113.439712096284
20
3.50647173074759
30
0
41
1
10
113.435534391489
20
3.50647173074759
30
0
0
SPLINE
5
1C3
100
AcDbEntity
8
1
62
256
6
ByLayer
370
-1
48
1
60
0
100
AcDbSpline
70
4
71
3
72
20
73
16
40
0
40
0
40
0
40
0
40
0.125000000000001
40
0.125000000000001
40
0.187500000000001
40
0.187500000000001
40
0.250000000000002
40
0.250000000000002
40
0.375000000000002
40
0.375000000000002
40
0.500000000000002
40
0.500000000000002
40
0.750000000000001
40
0.750000000000001
40
1
40
1
40
1
40
1
41
1
10
8.04121118389952
20
-5.70025631205348
30
0
41
1
10
7.8903336689113
20
-5.53609672219648
30
0
41
1
10
7.76323388586067
20
-5.34666486504312
30
0
41
1
10
7.59740526571068
20
-5.03605300157517
30
0
41
1
10
7.54635881211513
20
-4.92799419296392
30
0
41
1
10
7.45166955340903
20
-4.70384097251869
30
0
41
1
10
7.40824457582036
20
-4.58815323206474
30
0
41
1
10
7.28964068616426
20
-4.23660482444939
30
0
41
1
10
7.22515180350035
20
-3.99433464034942
30
0
41
1
10
7.11737709900871
20
-3.49747339417433
30
0
41
1
10
7.07417170441659
20
-3.24283996963598
30
0
41
1
10
6.9691036884108
20
-2.46318661045842
30
0
41
1
10
6.93312881597666
20
-1.9379502750057
30
0
41
1
10
6.89680736687262
20
-0.880050847429004
30
0
41
1
10
6.8969230272138
20
-0.347205177348997
30
0
41
1
10
6.90574793060543
20
0.188925005050549
30
0
0
SPLINE
5
1C4
100
AcDbEntity
8
1
62
256
6
ByLayer
370
-1
48
1
60
0
100
AcDbSpline
70
4
71
3
72
10
73
6
40
0
40
0
40
0
40
0
40
0.5
40
0.5
40
1
40
1
40
1
40
1
41
1
10
109.106432111496
20
4.31607596298318
30
0
41
1
10
109.09490097672
20
4.29870580050988
30
0
41
1
10
109.086692404944
20
4.27919139555885
30
0
41
1
10
109.078507730157
20
4.23964857219642
30
0
41
1
10
109.078324854593
20
4.21927913341673
30
0
41
1
10
109.081027497198
20
4.1997733409554
30
0
0
SPLINE
5
1C5
100
AcDbEntity
8
1
62
256
6
ByLayer
370
-1
48
1
60
0
100
AcDbSpline
70
4
71
3
72
8
73
4
40
0
40
0
40
0
40
0
40
1
40
1
40
1
40
1
41
1
10
8.04121118389946
20
-2.77173136115025
30
0
41
1
10
8.05739150908499
20
-2.79448005786131
30
0
41
1
10
8.07360748101155
20
-2.81712937573749
30
0
41
1
10
8.08985741096723
20
-2.83967947716422
30
0
0
SPLINE
5
1C6
100
AcDbEntity
8
1
62
256
6
ByLayer
370
-1
48
1
60
0
100
AcDbSpline
70
4
71
4
72
13
73
8
40
0
40
0
40
0
40
0
40
0
40
0.586498184136253
40
0.586498184136253
40
0.586498184136253
40
1
40
1
40
1
40
1
40
1
41
1
10
17.982449625391
20
1.64145357251272
30
0
41
1
10
17.982449625391
20
1.03337791601891
30
0
41
0.942809041582064
10
17.8794861054381
20
-0.598702283108584
30
0
41
1
10
17.6059270399085
20
-3.09277445014635
30
0
41
1
10
17.2548142053323
20
-5.90368171444507
30
0
41
0.97157183201445
10
17.0805600739188
20
-7.15205426337026
30
0
41
0.974844066267399
10
16.9477616299753
20
-7.83281805941741
30
0
41
0.985159765898839
10
16.8752556746731
20
-7.96880606024323
30
0
0
SPLINE
5
1C7
100
AcDbEntity
8
1
62
256
6
ByLayer
370
-1
48
1
60
0
100
AcDbSpline
70
4
71
3
72
8
73
4
40
0
40
0
40
0
40
0
40
1
40
1
40
1
40
1
41
1
10
17
20
4.01842873636144
30
0
41
1
10
17.3294056108959
20
3.93225596669223
30
0
41
1
10
17.6568560726523
20
3.83976205268021
30
0
41
1
10
17.9824496253882
20
3.74100241963652
30
0
0
SPLINE
5
1C8
100
AcDbEntity
8
1
62
256
6
ByLayer
370
-1
48
1
60
0
100
AcDbSpline
70
4
71
3
72
17
73
13
40
0
40
0
40
0
40
0
40
0.0154705166422262
40
0.179558763868522
40
0.343647011094818
40
0.425691134707965
40
0.507735258321113
40
0.671823505547409
40
0.753867629160557
40
0.835911752773704
40
0.917955876386852
40
1
40
1
40
1
40
1
41
1
10
35.0476055658321
20
0.467992174488984
30
0
41
1
10
34.9596023238429
20
0.474352779198767
30
0
41
1
10
33.9381824981305
20
0.548161581317288
30
0
41
1
10
31.9831452419963
20
0.689049418594863
30
0
41
1
10
29.6491912350414
20
0.855686643254899
30
0
41
1
10
27.7822035278462
20
0.987073502401387
30
0
41
1
10
25.9156179346794
20
1.11628163736677
30
0
41
1
10
24.049009456206
20
1.24209365470142
30
0
41
1
10
22.1817591870472
20
1.36621420487674
30
0
41
1
10
20.7812020020601
20
1.45882813600849
30
0
41
1
10
19.3810875312028
20
1.55085937685422
30
0
41
1
10
18.4484478143801
20
1.61150611878364
30
0
41
1
10
17.982449625391
20
1.64145357251272
30
0
0
SPLINE
5
1C9
100
AcDbEntity
8
1
62
256
6
ByLayer
370
-1
48
1
60
0
100
AcDbSpline
70
4
71
3
72
77
73
73
40
-0.0312500000000048
40
-0.0312500000000048
40
0
40
0
40
0.0312499999999993
40
0.0312499999999993
40
0.0624999999999985
40
0.0624999999999985
40
0.0937499999999978
40
0.0937499999999978
40
0.124999999999997
40
0.124999999999997
40
0.156249999999996
40
0.156249999999996
40
0.171874999999994
40
0.171874999999994
40
0.187499999999991
40
0.187499999999991
40
0.218749999999986
40
0.218749999999986
40
0.249999999999981
40
0.249999999999981
40
0.281249999999976
40
0.281249999999976
40
0.312499999999971
40
0.312499999999971
40
0.328124999999968
40
0.328124999999968
40
0.343749999999966
40
0.343749999999966
40
0.374999999999966
40
0.374999999999966
40
0.406249999999965
40
0.406249999999965
40
0.437499999999965
40
0.437499999999965
40
0.468749999999964
40
0.468749999999964
40
0.499999999999964
40
0.499999999999964
40
0.531249999999963
40
0.531249999999963
40
0.562499999999963
40
0.562499999999963
40
0.593749999999963
40
0.593749999999963
40
0.624999999999962
40
0.624999999999962
40
0.656249999999962
40
0.656249999999962
40
0.687499999999961
40
0.687499999999961
40
0.718749999999961
40
0.718749999999961
40
0.749999999999961
40
0.749999999999961
40
0.765624999999963
40
0.765624999999963
40
0.781249999999966
40
0.796874999999968
40
0.796874999999968
40
0.812499999999971
40
0.812499999999971
40
0.843749999999975
40
0.843749999999975
40
0.87499999999998
40
0.87499999999998
40
0.906249999999985
40
0.906249999999985
40
0.93749999999999
40
0.93749999999999
40
0.968749999999995
40
0.968749999999995
40
1
40
1
40
1.03125
40
1.03125
41
1
10
113.533930739314
20
-2.0069271438328
30
0
41
1
10
113.525798921936
20
-1.84868788754278
30
0
41
1
10
113.52924742426
20
-1.77022437407774
30
0
41
1
10
113.550903181055
20
-1.61460313854414
30
0
41
1
10
113.569399894122
20
-1.53666857238341
30
0
41
1
10
113.6210884735
20
-1.38626098713681
30
0
41
1
10
113.653917707269
20
-1.31428630925967
30
0
41
1
10
113.733605410261
20
-1.17689009618587
30
0
41
1
10
113.781082599258
20
-1.1109371971915
30
0
41
1
10
113.886710804336
20
-0.991454414217998
30
0
41
1
10
113.945056395264
20
-0.937291139304619
30
0
41
1
10
114.04106285501
20
-0.864655147923827
30
0
41
1
10
114.074646616177
20
-0.841814048075207
30
0
41
1
10
114.143240878989
20
-0.80007235817942
30
0
41
1
10
114.178390386209
20
-0.781045625370297
30
0
41
1
10
114.28634847193
20
-0.729402710398688
30
0
41
1
10
114.362009258112
20
-0.702077982028499
30
0
41
1
10
114.518759880453
20
-0.66300621988546
30
0
41
1
10
114.597888550857
20
-0.651667360733626
30
0
41
1
10
114.757605753424
20
-0.644886065892706
30
0
41
1
10
114.839077429184
20
-0.649674973801325
30
0
41
1
10
114.997277695285
20
-0.675257420705066
30
0
41
1
10
115.074412867883
20
-0.695845957862076
30
0
41
1
10
115.187142816004
20
-0.738508249864935
30
0
41
1
10
115.224378375027
20
-0.754804405676083
30
0
41
1
10
115.296264750379
20
-0.790709268919585
30
0
41
1
10
115.33108039255
20
-0.810361091921379
30
0
41
1
10
115.432219658566
20
-0.874292824931814
30
0
41
1
10
115.495547288874
20
-0.923771968887763
30
0
41
1
10
115.611865763018
20
-1.03527266367479
30
0
41
1
10
115.663528043979
20
-1.09591078808205
30
0
41
1
10
115.754406577651
20
-1.22647872482864
30
0
41
1
10
115.7938844271
20
-1.29722444885488
30
0
41
1
10
115.857374305975
20
-1.44286343044885
30
0
41
1
10
115.881757949354
20
-1.51799384962479
30
0
41
1
10
115.91603515346
20
-1.67274416201988
30
0
41
1
10
115.925678547786
20
-1.75210192182337
30
0
41
1
10
115.929870861355
20
-1.90881085584741
30
0
41
1
10
115.924628219353
20
-1.98696499927729
30
0
41
1
10
115.899195160467
20
-2.1428723618738
30
0
41
1
10
115.879365514291
20
-2.21837197815336
30
0
41
1
10
115.826210448898
20
-2.36443801019971
30
0
41
1
10
115.792523143756
20
-2.43562611937676
30
0
41
1
10
115.712378889283
20
-2.57022478280405
30
0
41
1
10
115.666477216432
20
-2.63297431825532
30
0
41
1
10
115.562974909434
20
-2.74950034086007
30
0
41
1
10
115.504600234721
20
-2.8038060285522
30
0
41
1
10
115.379301542646
20
-2.89917292465194
30
0
41
1
10
115.312498528543
20
-2.94043427781256
30
0
41
1
10
115.170233011831
20
-3.00975119422827
30
0
41
1
10
115.094014639114
20
-3.03783537863731
30
0
41
1
10
114.93972800161
20
-3.07724943467804
30
0
41
1
10
114.860932459335
20
-3.08908390758859
30
0
41
1
10
114.74014088707
20
-3.0945057987222
30
0
41
1
10
114.699487258755
20
-3.09420569568187
30
0
41
1
10
114.619393350565
20
-3.08946399631256
30
0
41
1
10
114.539984703399
20
-3.08061866886911
30
0
41
1
10
114.461918362734
20
-3.06372274591942
30
0
41
1
10
114.384528313454
20
-3.0427589395494
30
0
41
1
10
114.346066616691
20
-3.03017803339097
30
0
41
1
10
114.234299682694
20
-2.98721771872007
30
0
41
1
10
114.163715287902
20
-2.9514936446856
30
0
41
1
10
114.030036983127
20
-2.86636814370903
30
0
41
1
10
113.967359776648
20
-2.81700942468254
30
0
41
1
10
113.854232509658
20
-2.70882224916554
30
0
41
1
10
113.802867585286
20
-2.6492701691538
30
0
41
1
10
113.711961199638
20
-2.5208933476124
30
0
41
1
10
113.673247288047
20
-2.45336430363994
30
0
41
1
10
113.608684930359
20
-2.31180393929475
30
0
41
1
10
113.582707583947
20
-2.23708155951621
30
0
41
1
10
113.545407098466
20
-2.08461746690446
30
0
41
1
10
113.533930739314
20
-2.0069271438328
30
0
41
1
10
113.525798921936
20
-1.84868788754278
30
0
0
SPLINE
5
1CA
100
AcDbEntity
8
1
62
256
6
ByLayer
370
-1
48
1
60
0
100
AcDbSpline
70
4
71
3
72
14
73
10
40
0
40
0
40
0
40
0
40
0.500000000000001
40
0.500000000000001
40
0.625000000000001
40
0.625000000000001
40
0.75
40
0.75
40
1
40
1
40
1
40
1
41
1
10
13.2412111838996
20
-6.35469313544829
30
0
41
1
10
13.5141554831935
20
-6.51445452487098
30
0
41
1
10
13.8206741089287
20
-6.6962570037532
30
0
41
1
10
14.24098576116
20
-6.94681095095748
30
0
41
1
10
14.3269458988226
20
-6.99803457144867
30
0
41
1
10
14.5026962252138
20
-7.10241593451858
30
0
41
1
10
14.5925900711748
20
-7.15563270033704
30
0
41
1
10
14.8655012634036
20
-7.31610878349764
30
0
41
1
10
15.0525300773137
20
-7.4246854132281
30
0
41
1
10
15.2449955944968
20
-7.53321959799806
30
0
0
SPLINE
5
1CB
100
AcDbEntity
8
1
62
256
6
ByLayer
370
-1
48
1
60
0
100
AcDbSpline
70
4
71
3
72
8
73
4
40
0
40
0
40
0
40
0
40
1
40
1
40
1
40
1
41
1
10
16.8752556746737
20
-7.96880606024334
30
0
41
1
10
16.9676368508373
20
-7.97678792983083
30
0
41
1
10
17.0603895129475
20
-7.98498342473144
30
0
41
1
10
17.1535112489106
20
-7.9934363953536
30
0
0
SPLINE
5
1CC
100
AcDbEntity
8
1
62
256
6
ByLayer
370
-1
48
1
60
0
100
AcDbSpline
70
4
71
3
72
18
73
14
40
0
40
0
40
0
40
0
40
0.250000000000001
40
0.250000000000001
40
0.375
40
0.375
40
0.5
40
0.5
40
0.75
40
0.75
40
0.875
40
0.875
40
1
40
1
40
1
40
1
41
1
10
13.2412111838996
20
-8.05207978535802
30
0
41
1
10
13.4666917955257
20
-8.14612882981399
30
0
41
1
10
13.7173065580079
20
-8.20936799982266
30
0
41
1
10
14.1297146063815
20
-8.28070342285332
30
0
41
1
10
14.2733122902749
20
-8.30044096581739
30
0
41
1
10
14.5731200092119
20
-8.33462897207011
30
0
41
1
10
14.7299851294052
20
-8.3491089478153
30
0
41
1
10
15.2107052944457
20
-8.38763959063473
30
0
41
1
10
15.5469148505159
20
-8.40728772715207
30
0
41
1
10
16.0755191746178
20
-8.44067245775059
30
0
41
1
10
16.2559184242528
20
-8.45241692010748
30
0
41
1
10
16.6248289007387
20
-8.47890366291432
30
0
41
1
10
16.8113741413702
20
-8.49350989304469
30
0
41
1
10
17
20
-8.51017724285023
30
0
0
SPLINE
5
1CD
100
AcDbEntity
8
1
62
256
6
ByLayer
370
-1
48
1
60
0
100
AcDbSpline
70
4
71
3
72
12
73
8
40
0
40
0
40
0
40
0
40
0.5
40
0.5
40
0.75
40
0.75
40
1
40
1
40
1
40
1
41
1
10
110.438410230698
20
1.37576274171883
30
0
41
1
10
109.963760330492
20
1.34704337949648
30
0
41
1
10
109.495420146635
20
1.37807812239436
30
0
41
1
10
108.802369849165
20
1.51379889607989
30
0
41
1
10
108.571719865535
20
1.57459416203727
30
0
41
1
10
108.123132001582
20
1.7250514780857
30
0
41
1
10
107.90452273514
20
1.81466624075065
30
0
41
1
10
107.691772690216
20
1.91887215480432
30
0
0
SPLINE
5
1CE
100
AcDbEntity
8
1
62
256
6
ByLayer
370
-1
48
1
60
0
100
AcDbSpline
70
4
71
3
72
10
73
6
40
0
40
0
40
0
40
0
40
0.5
40
0.5
40
1
40
1
40
1
40
1
41
1
10
111.628917909348
20
6.68303759776498
30
0
41
1
10
111.632332631899
20
6.68303759776498
30
0
41
1
10
111.639300111234
20
6.68735909591686
30
0
41
1
10
111.659700187993
20
6.7032909423846
30
0
41
1
10
111.67319380506
20
6.71495010118645
30
0
41
1
10
111.68923838289
20
6.7289436388098
30
0
0
SPLINE
5
1CF
100
AcDbEntity
8
1
62
256
6
ByLayer
370
-1
48
1
60
0
100
AcDbSpline
70
4
71
3
72
22
73
18
40
0
40
0
40
0
40
0
40
0.25
40
0.25
40
0.375
40
0.375
40
0.5
40
0.5
40
0.625
40
0.625
40
0.75
40
0.75
40
0.875000000000001
40
0.875000000000001
40
0.9375
40
0.9375
40
1
40
1
40
1
40
1
41
1
10
67.5
20
-5.47914226074633
30
0
41
1
10
70.818757189038
20
-6.00632007025266
30
0
41
1
10
74.1349806850687
20
-6.49509826077741
30
0
41
1
10
79.1100127912419
20
-7.15346933646444
30
0
41
1
10
80.7685473195913
20
-7.36025504318422
30
0
41
1
10
84.0866380796755
20
-7.74668450439947
30
0
41
1
10
85.7465801185845
20
-7.92644671648537
30
0
41
1
10
89.0654355667283
20
-8.25841657160598
30
0
41
1
10
90.7241369053392
20
-8.41064125636271
30
0
41
1
10
94.0410365652313
20
-8.685099151516
30
0
41
1
10
95.6992231319473
20
-8.80741105416976
30
0
41
1
10
99.0154011793617
20
-9.02139042181565
30
0
41
1
10
100.673531109093
20
-9.11278374461978
30
0
41
1
10
103.161356851425
20
-9.22571862612062
30
0
41
1
10
103.990695589
20
-9.25939758559184
30
0
41
1
10
105.649486537984
20
-9.31876238634447
30
0
41
1
10
106.478944125689
20
-9.34442543922049
30
0
41
1
10
107.308660163622
20
-9.36591225382111
30
0
0
SPLINE
5
1D0
100
AcDbEntity
8
1
62
256
6
ByLayer
370
-1
48
1
60
0
100
AcDbSpline
70
4
71
3
72
20
73
16
40
0
40
0
40
0
40
0
40
0.249999999999995
40
0.249999999999995
40
0.374999999999996
40
0.374999999999996
40
0.499999999999996
40
0.499999999999996
40
0.624999999999997
40
0.624999999999997
40
0.749999999999998
40
0.749999999999998
40
0.874999999999999
40
0.874999999999999
40
1
40
1
40
1
40
1
41
1
10
110.302079061781
20
5.80999999999995
30
0
41
1
10
110.302079061781
20
5.66367722939574
30
0
41
1
10
110.280211406683
20
5.52109094866719
30
0
41
1
10
110.214990484646
20
5.31275098329192
30
0
41
1
10
110.18781534483
20
5.24477911995984
30
0
41
1
10
110.124228570981
20
5.11524264465089
30
0
41
1
10
110.087659508708
20
5.05313791467029
30
0
41
1
10
110.00481892661
20
4.93433974594274
30
0
41
1
10
109.958248634551
20
4.87746833816877
30
0
41
1
10
109.858382190495
20
4.7730891906927
30
0
41
1
10
109.804784577725
20
4.7250590671529
30
0
41
1
10
109.690262315884
20
4.63731573951563
30
0
41
1
10
109.628752544332
20
4.59732638045332
30
0
41
1
10
109.501625677983
20
4.52813032347007
30
0
41
1
10
109.435958836973
20
4.49874002219246
30
0
41
1
10
109.368221329908
20
4.47447638431873
30
0
0
SPLINE
5
1D1
100
AcDbEntity
8
1
62
256
6
ByLayer
370
-1
48
1
60
0
100
AcDbSpline
70
4
71
3
72
12
73
8
40
0
40
0
40
0
40
0
40
0.5
40
0.5
40
0.75
40
0.75
40
1
40
1
40
1
40
1
41
1
10
109.368221329908
20
4.47447638431879
30
0
41
1
10
109.319479106015
20
4.45701687450028
30
0
41
1
10
109.270880612298
20
4.43772115502259
30
0
41
1
10
109.201962359947
20
4.40087544914809
30
0
41
1
10
109.179714792267
20
4.38722615897839
30
0
41
1
10
109.139146555676
20
4.3556089807806
30
0
41
1
10
109.120401237743
20
4.33711864414286
30
0
41
1
10
109.106432111497
20
4.31607596298247
30
0
0
SPLINE
5
1D2
100
AcDbEntity
8
1
62
256
6
ByLayer
370
-1
48
1
60
0
100
AcDbSpline
70
4
71
3
72
54
73
50
40
0
40
0
40
0
40
0
40
0.0625000000000023
40
0.0625000000000023
40
0.125000000000005
40
0.125000000000005
40
0.140625000000005
40
0.140625000000005
40
0.156250000000005
40
0.156250000000005
40
0.187500000000006
40
0.187500000000006
40
0.218750000000006
40
0.218750000000006
40
0.250000000000006
40
0.250000000000006
40
0.312500000000007
40
0.312500000000007
40
0.343750000000007
40
0.343750000000007
40
0.375000000000007
40
0.375000000000007
40
0.437500000000007
40
0.437500000000007
40
0.468750000000006
40
0.468750000000006
40
0.500000000000006
40
0.500000000000006
40
0.531250000000006
40
0.531250000000006
40
0.562500000000005
40
0.562500000000005
40
0.625000000000004
40
0.625000000000004
40
0.656250000000004
40
0.656250000000004
40
0.687500000000003
40
0.687500000000003
40
0.750000000000002
40
0.750000000000002
40
0.781250000000002
40
0.781250000000002
40
0.812500000000002
40
0.812500000000002
40
0.875000000000001
40
0.875000000000001
40
0.937500000000001
40
0.937500000000001
40
1
40
1
40
1
40
1
41
1
10
11.7824496253885
20
5.7298375431929
30
0
41
1
10
11.5745833899636
20
5.83347009724605
30
0
41
1
10
11.3781271712194
20
5.92856406659663
30
0
41
1
10
11.0067081119293
20
6.10881936985095
30
0
41
1
10
10.8317414790406
20
6.19393448195513
30
0
41
1
10
10.6261149697976
20
6.29754221368586
30
0
41
1
10
10.5856457659268
20
6.31812233157365
30
0
41
1
10
10.5060190399711
20
6.35908012533309
30
0
41
1
10
10.4668277081703
20
6.37944618438411
30
0
41
1
10
10.3486560243265
20
6.4389227802931
30
0
41
1
10
10.2680290169054
20
6.4758383749371
30
0
41
1
10
10.1008513209806
20
6.54216400451611
30
0
41
1
10
10.0146907483966
20
6.57173427112537
30
0
41
1
10
9.83880280780591
20
6.62244699424767
30
0
41
1
10
9.74890498945263
20
6.64366322841627
30
0
41
1
10
9.47373241483641
20
6.69366814199071
30
0
41
1
10
9.28298609836628
20
6.70893240125989
30
0
41
1
10
8.98726089722226
20
6.69819400728198
30
0
41
1
10
8.88726587765194
20
6.68891076918607
30
0
41
1
10
8.68858108160174
20
6.6586037715781
30
0
41
1
10
8.58940257325838
20
6.6375765136934
30
0
41
1
10
8.29316950831981
20
6.55608789678863
30
0
41
1
10
8.0973840355982
20
6.4773530035302
30
0
41
1
10
7.80984195826653
20
6.31763800707245
30
0
41
1
10
7.71518290270117
20
6.2573818492732
30
0
41
1
10
7.53360104783181
20
6.12586772243657
30
0
41
1
10
7.44601407591128
20
6.05427031586964
30
0
41
1
10
7.27760431413648
20
5.89956596863121
30
0
41
1
10
7.19678037015521
20
5.81645967013284
30
0
41
1
10
7.04235106824046
20
5.63868220760332
30
0
41
1
10
6.9683861426978
20
5.54347778954872
30
0
41
1
10
6.76085302918619
20
5.24396809635323
30
0
41
1
10
6.64284775499831
20
5.02831913312872
30
0
41
1
10
6.49558943913874
20
4.68302271198658
30
0
41
1
10
6.45145464972052
20
4.56415741994169
30
0
41
1
10
6.37345998051836
20
4.31956266012841
30
0
41
1
10
6.34011192688328
20
4.19547995164447
30
0
41
1
10
6.25614398776307
20
3.81825567502477
30
0
41
1
10
6.22150150633229
20
3.56018397121568
30
0
41
1
10
6.20022949511912
20
3.16371494821888
30
0
41
1
10
6.19834097091646
20
3.03003927346589
30
0
41
1
10
6.20456634268561
20
2.76417713726116
30
0
41
1
10
6.21263725721829
20
2.6314070354461
30
0
41
1
10
6.25096555521401
20
2.23351493858263
30
0
41
1
10
6.29527980928611
20
1.96881539208405
30
0
41
1
10
6.41923624417913
20
1.44011097540846
30
0
41
1
10
6.49751872963162
20
1.18193848958046
30
0
41
1
10
6.68168326292417
20
0.677228076826054
30
0
41
1
10
6.78764004419355
20
0.430537075676995
30
0
41
1
10
6.90574793060543
20
0.188925005050521
30
0
0
SPLINE
5
1D3
100
AcDbEntity
8
1
62
256
6
ByLayer
370
-1
48
1
60
0
100
AcDbSpline
70
4
71
1
72
4
73
2
40
0
40
0
40
1
40
1
41
1
10
17.9824496253881
20
1.64145357251309
30
0
41
1
10
17.9824496253882
20
3.74100241963652
30
0
0
SPLINE
5
1D4
100
AcDbEntity
8
1
62
256
6
ByLayer
370
-1
48
1
60
0
100
AcDbSpline
70
4
71
4
72
10
73
5
40
0
40
0
40
0
40
0
40
0
40
1
40
1
40
1
40
1
40
1
41
1
10
105.182876253987
20
5.25999999999985
30
0
41
1
10
105.182876254003
20
6.28592051991475
30
0
41
1
10
105.182876254013
20
7.31184103982966
30
0
41
1
10
105.18287625402
20
8.33776155974456
30
0
41
1
10
105.182876254025
20
9.36368207965947
30
0
0
SPLINE
5
1D5
100
AcDbEntity
8
1
62
256
6
ByLayer
370
-1
48
1
60
0
100
AcDbSpline
70
4
71
3
72
10
73
6
40
0
40
0
40
0
40
0
40
0.863604578779868
40
0.863604578779868
40
1
40
1
40
1
40
1
41
1
10
67.5
20
-8.05084161192426
30
0
41
1
10
70.300902936391
20
-7.76485494058591
30
0
41
1
10
73.1000418587909
20
-7.43834401625676
30
0
41
1
10
76.3412576910713
20
-7.01978051265101
30
0
41
1
10
76.7833450837308
20
-6.96182180529789
30
0
41
1
10
77.2254387932836
20
-6.90301790796735
30
0
0
SPLINE
5
1D6
100
AcDbEntity
8
1
62
256
6
ByLayer
370
-1
48
1
60
0
100
AcDbSpline
70
4
71
3
72
8
73
4
40
0
40
0
40
0
40
0
40
1
40
1
40
1
40
1
41
1
10
100.215200790084
20
6.08369241721928
30
0
41
1
10
100.085278080328
20
6.11058551921738
30
0
41
1
10
99.9541998738491
20
6.13847975253012
30
0
41
1
10
99.8219757735365
20
6.16736679713875
30
0
0
SPLINE
5
1D7
100
AcDbEntity
8
1
62
256
6
ByLayer
370
-1
48
1
60
0
100
AcDbSpline
70
4
71
3
72
8
73
4
40
0
40
0
40
0
40
0
40
1
40
1
40
1
40
1
41
1
10
117.732404472027
20
-3.13559288904105
30
0
41
1
10
117.729065092641
20
-3.12877367864732
30
0
41
1
10
117.725812087114
20
-3.12193559984908
30
0
41
1
10
117.722680063867
20
-3.11515496504467
30
0
0
SPLINE
5
1D8
100
AcDbEntity
8
1
62
256
6
ByLayer
370
-1
48
1
60
0
100
AcDbSpline
70
4
71
3
72
12
73
8
40
0
40
0
40
0
40
0
40
0.24999999999999
40
0.24999999999999
40
0.499999999999979
40
0.499999999999979
40
1
40
1
40
1
40
1
41
1
10
117.163270249035
20
0.145453580805253
30
0
41
1
10
117.180366053278
20
0.128475938184323
30
0
41
1
10
117.195653234405
20
0.109592471603065
30
0
41
1
10
117.219500908543
20
0.0739822115367303
30
0
41
1
10
117.228209989055
20
0.0575458230314894
30
0
41
1
10
117.249053677196
20
0.01162618632884
30
0
41
1
10
117.255946332897
20
-0.0138838128737575
30
0
41
1
10
117.260631413762
20
-0.0376954788225703
30
0
0
SPLINE
5
1D9
100
AcDbEntity
8
1
62
256
6
ByLayer
370
-1
48
1
60
0
100
AcDbSpline
70
4
71
3
72
12
73
8
40
0
40
0
40
0
40
0
40
0.250000000000006
40
0.250000000000006
40
0.500000000000011
40
0.500000000000011
40
1
40
1
40
1
40
1
41
1
10
117.732404472027
20
-3.13559288904105
30
0
41
1
10
117.746538435205
20
-3.16445527856487
30
0
41
1
10
117.758889127768
20
-3.19415729357979
30
0
41
1
10
117.779909989626
20
-3.25529260077215
30
0
41
1
10
117.788598317483
20
-3.28693463851872
30
0
41
1
10
117.808199469959
20
-3.38161051145022
30
0
41
1
10
117.813098862107
20
-3.44538805890588
30
0
41
1
10
117.809760062704
20
-3.50906142486446
30
0
0
SPLINE
5
1DA
100
AcDbEntity
8
1
62
256
6
ByLayer
370
-1
48
1
60
0
100
AcDbSpline
70
4
71
3
72
8
73
4
40
0
40
0
40
0
40
0
40
1
40
1
40
1
40
1
41
1
10
117.808392598347
20
-3.54036222485289
30
0
41
1
10
117.808759922375
20
-3.52987586685015
30
0
41
1
10
117.809215729604
20
-3.51944225837448
30
0
41
1
10
117.809760062704
20
-3.50906142486448
30
0
0
SPLINE
5
1DB
100
AcDbEntity
8
1
62
256
6
ByLayer
370
-1
48
1
60
0
100
AcDbSpline
70
4
71
3
72
12
73
8
40
0
40
0
40
0
40
0
40
0.250000000000024
40
0.250000000000024
40
0.500000000000049
40
0.500000000000049
40
1
40
1
40
1
40
1
41
1
10
117.7608681154
20
-5.00576499646985
30
0
41
1
10
117.744188401349
20
-5.02315744661658
30
0
41
1
10
117.72494384397
20
-5.0380957362151
30
0
41
1
10
117.687727414191
20
-5.06037845205313
30
0
41
1
10
117.670122773791
20
-5.06794670271324
30
0
41
1
10
117.620291447313
20
-5.08496806029285
30
0
41
1
10
117.591737747885
20
-5.08888378953708
30
0
41
1
10
117.564760177369
20
-5.09047168614097
30
0
0
SPLINE
5
1DC
100
AcDbEntity
8
1
62
256
6
ByLayer
370
-1
48
1
60
0
100
AcDbSpline
70
4
71
3
72
16
73
12
40
0
40
0
40
0
40
0
40
0.250000000000001
40
0.250000000000001
40
0.500000000000001
40
0.500000000000001
40
0.750000000000002
40
0.750000000000002
40
0.875000000000001
40
0.875000000000001
40
1
40
1
40
1
40
1
41
1
10
117.854373509002
20
-4.58558495346716
30
0
41
1
10
117.859377258797
20
-4.61435349682822
30
0
41
1
10
117.862991867215
20
-4.64408178815282
30
0
41
1
10
117.866143423952
20
-4.70623788206194
30
0
41
1
10
117.865753343965
20
-4.7386222117504
30
0
41
1
10
117.857933869739
20
-4.80786605398319
30
0
41
1
10
117.850661667157
20
-4.84469771105998
30
0
41
1
10
117.828729983715
20
-4.90347907437629
30
0
41
1
10
117.819634009162
20
-4.923494964002
30
0
41
1
10
117.795134542483
20
-4.96495032120572
30
0
41
1
10
117.779843160628
20
-4.98597913400499
30
0
41
1
10
117.7608681154
20
-5.00576499646985
30
0
0
SPLINE
5
1DD
100
AcDbEntity
8
1
62
256
6
ByLayer
370
-1
48
1
60
0
100
AcDbSpline
70
4
71
3
72
12
73
8
40
0
40
0
40
0
40
0
40
0.40835348815608
40
0.40835348815608
40
0.70417674407804
40
0.70417674407804
40
1
40
1
40
1
40
1
41
1
10
116.975915951255
20
0.254337671920638
30
0
41
1
10
116.998499479442
20
0.247613952243626
30
0
41
1
10
117.022258315906
20
0.238804317845364
30
0
41
1
10
117.065539680352
20
0.217962877766041
30
0
41
1
10
117.084271395479
20
0.207553024941205
30
0
41
1
10
117.123601048262
20
0.180882137327188
30
0
41
1
10
117.143821854551
20
0.164767553192206
30
0
41
1
10
117.163270249035
20
0.145453580805253
30
0
0
SPLINE
5
1DE
100
AcDbEntity
8
1
62
256
6
ByLayer
370
-1
48
1
60
0
100
AcDbSpline
70
4
71
3
72
8
73
4
40
0
40
0
40
0
40
0
40
1
40
1
40
1
40
1
41
1
10
117.431171038288
20
-0.75568409026414
30
0
41
1
10
117.449238235704
20
-0.805259405308249
30
0
41
1
10
117.456108336401
20
-0.854415292575851
30
0
41
1
10
117.455212945081
20
-0.897680599747787
30
0
0
SPLINE
5
1DF
100
AcDbEntity
8
1
62
256
6
ByLayer
370
-1
48
1
60
0
100
AcDbSpline
70
4
71
3
72
14
73
10
40
0
40
0
40
0
40
0
40
0.25
40
0.25
40
0.5
40
0.5
40
0.75
40
0.75
40
1
40
1
40
1
40
1
41
1
10
117.431171038291
20
-0.755684090264396
30
0
41
1
10
117.41600389147
20
-0.714066341553433
30
0
41
1
10
117.402548095554
20
-0.67345486901155
30
0
41
1
10
117.380570898972
20
-0.601668033470673
30
0
41
1
10
117.371647867856
20
-0.569478202411062
30
0
41
1
10
117.3565500506
20
-0.511331821276571
30
0
41
1
10
117.350221907814
20
-0.48477164699554
30
0
41
1
10
117.339078849081
20
-0.435088278498029
30
0
41
1
10
117.334292725384
20
-0.412075045838975
30
0
41
1
10
117.329982920657
20
-0.390170700229845
30
0
0
SPLINE
5
1E0
100
AcDbEntity
8
1
62
256
6
ByLayer
370
-1
48
1
60
0
100
AcDbSpline
70
4
71
3
72
10
73
6
40
0
40
0
40
0
40
0
40
0.500000000000001
40
0.500000000000001
40
1
40
1
40
1
40
1
41
1
10
117.457422757584
20
-1.0328909868953
30
0
41
1
10
117.456127391744
20
-1.00825012866866
30
0
41
1
10
117.455361326259
20
-0.984716991143216
30
0
41
1
10
117.454691255161
20
-0.939454836492217
30
0
41
1
10
117.454797061025
20
-0.917776116663703
30
0
41
1
10
117.455212945081
20
-0.897680599747247
30
0
0
SPLINE
5
1E1
100
AcDbEntity
8
1
62
256
6
ByLayer
370
-1
48
1
60
0
100
AcDbSpline
70
4
71
3
72
16
73
12
40
0
40
0
40
0
40
0
40
0.249999999999999
40
0.249999999999999
40
0.499999999999999
40
0.499999999999999
40
0.749999999999998
40
0.749999999999998
40
0.874999999999999
40
0.874999999999999
40
1
40
1
40
1
40
1
41
1
10
117.854373509002
20
-4.58558495347057
30
0
41
1
10
117.847266707729
20
-4.54472513253646
30
0
41
1
10
117.840293264469
20
-4.50263132496806
30
0
41
1
10
117.826804512774
20
-4.41420450261725
30
0
41
1
10
117.820260855782
20
-4.36784810710387
30
0
41
1
10
117.808172062751
20
-4.26725964075732
30
0
41
1
10
117.802534953431
20
-4.2130405734502
30
0
41
1
10
117.796402555455
20
-4.11997369645087
30
0
41
1
10
117.794733408249
20
-4.08634765708521
30
0
41
1
10
117.793083757834
20
-4.01412128184967
30
0
41
1
10
117.79317039192
20
-3.97492542793228
30
0
41
1
10
117.794514610796
20
-3.93655069803342
30
0
0
SPLINE
5
1E2
100
AcDbEntity
8
1
62
256
6
ByLayer
370
-1
48
1
60
0
100
AcDbSpline
70
4
71
3
72
48
73
44
40
0
40
0
40
0
40
0
40
0.015625
40
0.0234375
40
0.02734375
40
0.029296875
40
0.0302734375
40
0.03125
40
0.03173828125
40
0.046875
40
0.0625
40
0.125
40
0.1875
40
0.25
40
0.3125
40
0.375
40
0.390625
40
0.40625
40
0.4140625
40
0.421875
40
0.4375
40
0.5
40
0.5625
40
0.59375
40
0.6015625
40
0.60546875
40
0.609375
40
0.6171875
40
0.625
40
0.65625
40
0.671875
40
0.6796875
40
0.6875
40
0.71875
40
0.75
40
0.78125
40
0.7890625
40
0.79296875
40
0.796875
40
0.8046875
40
0.8125
40
0.875
40
1
40
1
40
1
40
1
41
1
10
116.887242236631
20
6.80199415225397
30
0
41
1
10
116.891734301928
20
6.80215161783482
30
0
41
1
10
116.898677149297
20
6.80239213383226
30
0
41
1
10
116.906457253142
20
6.8026565845984
30
0
41
1
10
116.91019064172
20
6.80278220159454
30
0
41
1
10
116.912002446522
20
6.80284283492955
30
0
41
1
10
116.913032260732
20
6.80287720599071
30
0
41
1
10
116.913676639332
20
6.80289870110062
30
0
41
1
10
116.918069107349
20
6.80304526826362
30
0
41
1
10
116.926336958821
20
6.80332114727622
30
0
41
1
10
116.95101132806
20
6.80414447370447
30
0
41
1
10
116.988216659686
20
6.80538592926123
30
0
41
1
10
117.037823768521
20
6.80704120333689
30
0
41
1
10
117.087430877356
20
6.80869647741255
30
0
41
1
10
117.137037986191
20
6.81035175148821
30
0
41
1
10
117.174233420477
20
6.81159286798226
30
0
41
1
10
117.199056769575
20
6.81242118314552
30
0
41
1
10
117.209389934359
20
6.81276597540085
30
0
41
1
10
117.217624794697
20
6.81304072420437
30
0
41
1
10
117.225903671105
20
6.81331750835983
30
0
41
1
10
117.248993812974
20
6.81409154939172
30
0
41
1
10
117.28831899948
20
6.81542144258313
30
0
41
1
10
117.33359358708
20
6.81697271393614
30
0
41
1
10
117.363134242071
20
6.81799427031569
30
0
41
1
10
117.375622229596
20
6.81842774112562
30
0
41
1
10
117.380135914245
20
6.81858459286124
30
0
41
1
10
117.384675463322
20
6.81874247249698
30
0
41
1
10
117.390384132502
20
6.81894107775554
30
0
41
1
10
117.404067853161
20
6.81941710400122
30
0
41
1
10
117.420029201679
20
6.81997235333031
30
0
41
1
10
117.43599963256
20
6.82052795057763
30
0
41
1
10
117.445110566431
20
6.82084485909343
30
0
41
1
10
117.458764550322
20
6.82132054759035
30
0
41
1
10
117.479274538084
20
6.82203775407777
30
0
41
1
10
117.506483976585
20
6.82299493645118
30
0
41
1
10
117.526635707774
20
6.82370819288383
30
0
41
1
10
117.538808410299
20
6.82414067694924
30
0
41
1
10
117.543211097933
20
6.82429730273418
30
0
41
1
10
117.547612586215
20
6.82445399070875
30
0
41
1
10
117.553121098092
20
6.82465012149729
30
0
41
1
10
117.575149544317
20
6.82543441659223
30
0
41
1
10
117.630220659878
20
6.82739515432959
30
0
41
1
10
117.683088930818
20
6.82927746255746
30
0
41
1
10
117.718334444777
20
6.83053233470935
30
0
0
SPLINE
5
1E3
100
AcDbEntity
8
1
62
256
6
ByLayer
370
-1
48
1
60
0
100
AcDbSpline
70
4
71
3
72
13
73
9
40
0
40
0
40
0
40
0
40
0.312317913031036
40
0.624635826062072
40
0.936953739093108
40
0.975993478221987
40
0.994903351862538
40
1
40
1
40
1
40
1
41
1
10
114.688856858041
20
9.6663570566821
30
0
41
1
10
114.45421895404
20
9.65813202178143
30
0
41
1
10
113.984943146036
20
9.64168195198005
30
0
41
1
10
113.28102943403
20
9.61700684727802
30
0
41
1
10
112.782423888026
20
9.59952864811407
30
0
41
1
10
112.50424965418
20
9.5897774836908
30
0
41
1
10
112.456884319382
20
9.58811713161145
30
0
41
1
10
112.438848697892
20
9.58748502276694
30
0
41
1
10
112.435019686283
20
9.58735083090139
30
0
0
SPLINE
5
1E4
100
AcDbEntity
8
1
62
256
6
ByLayer
370
-1
48
1
60
0
100
AcDbSpline
70
4
71
3
72
79
73
75
40
0
40
0
40
0
40
0
40
0.0017245864916194
40
0.0039792263717469
40
0.0084885061320018
40
0.0129977858922567
40
0.0220163454127665
40
0.0310349049332763
40
0.0671091430153155
40
0.139257619179394
40
0.211406095343472
40
0.220424654863982
40
0.224933934624237
40
0.228315894444428
40
0.229443214384492
40
0.231697854264619
40
0.233952494144747
40
0.237334453964938
40
0.238461773905002
40
0.240716413785129
40
0.242971053665257
40
0.247480333425512
40
0.249734973305639
40
0.256498892946021
40
0.265517452466531
40
0.283554571507551
40
0.29257313102806
40
0.31962880958959
40
0.355703047671629
40
0.391777285753668
40
0.409814404794688
40
0.427851523835708
40
0.445888642876727
40
0.463925761917747
40
0.481962880958766
40
0.499999999999786
40
0.518037119040805
40
0.536074238081825
40
0.554111357122844
40
0.572148476163864
40
0.590185595204882
40
0.608222714245903
40
0.626259833286923
40
0.644296952327942
40
0.662334071368962
40
0.680371190409984
40
0.716445428492021
40
0.725463988012531
40
0.734482547533042
40
0.751392346633996
40
0.75251966657406
40
0.754774306454187
40
0.757028946334315
40
0.76041090615451
40
0.76153822609457
40
0.763792865974699
40
0.766047505854825
40
0.769429465675018
40
0.77055678561508
40
0.771684105555142
40
0.775066065375337
40
0.779575345135589
40
0.784084624895844
40
0.788593904656099
40
0.824668142738138
40
0.860742380820178
40
0.932890856984256
40
0.968965095066295
40
0.987002214107315
40
0.991511493867571
40
0.994893453687761
40
0.996020773627825
40
0.998275413507952
40
1
40
1
40
1
40
1
41
1
10
117.611960633802
20
9.34925853804336
30
0
41
1
10
117.611913238369
20
9.34959486462589
30
0
41
1
10
117.611804284312
20
9.3503652943522
30
0
41
1
10
117.611572058349
20
9.35198612743235
30
0
41
1
10
117.611258800968
20
9.35410195334268
30
0
41
1
10
117.61074142268
20
9.35745713467361
30
0
41
1
10
117.610053470046
20
9.36168500137242
30
0
41
1
10
117.608275357855
20
9.3718879960457
30
0
41
1
10
117.603761317256
20
9.39401496535379
30
0
41
1
10
117.594257696737
20
9.42828850193683
30
0
41
1
10
117.5831659909
20
9.45720417060275
30
0
41
1
10
117.576007936181
20
9.4731529564323
30
0
41
1
10
117.574563660588
20
9.47629321983595
30
0
41
1
10
117.573783590502
20
9.47796559053259
30
0
41
1
10
117.573194345775
20
9.47921879354342
30
0
41
1
10
117.572700689119
20
9.48026245108306
30
0
41
1
10
117.572004682971
20
9.48172228150406
30
0
41
1
10
117.57140287326
20
9.48297215675339
30
0
41
1
10
117.570796880591
20
9.48422087480986
30
0
41
1
10
117.57028927307
20
9.48526074352432
30
0
41
1
10
117.569471528362
20
9.486922949453
30
0
41
1
10
117.568645429245
20
9.48858273826943
30
0
41
1
10
117.567393762763
20
9.49106867255387
30
0
41
1
10
117.565702632516
20
9.4943764772423
30
0
41
1
10
117.562458903858
20
9.50055530404404
30
0
41
1
10
117.558865992495
20
9.50710080433961
30
0
41
1
10
117.553278107966
20
9.51684329294716
30
0
41
1
10
117.545476896731
20
9.52969166433348
30
0
41
1
10
117.533922398986
20
9.54696742267888
30
0
41
1
10
117.522580439049
20
9.56219742395484
30
0
41
1
10
117.51302598805
20
9.57405747590545
30
0
41
1
10
117.505625168174
20
9.5827808381033
30
0
41
1
10
117.497994826573
20
9.59132282130605
30
0
41
1
10
117.490142341537
20
9.5996749447109
30
0
41
1
10
117.482075091361
20
9.60782872751506
30
0
41
1
10
117.473800454336
20
9.61577568891573
30
0
41
1
10
117.465325808757
20
9.62350734811014
30
0
41
1
10
117.456660097256
20
9.63101690825431
30
0
41
1
10
117.447812262469
20
9.63829757250423
30
0
41
1
10
117.438791247029
20
9.64534254401588
30
0
41
1
10
117.429605993571
20
9.65214502594526
30
0
41
1
10
117.420266524724
20
9.65870022768146
30
0
41
1
10
117.410782863118
20
9.66500335861355
30
0
41
1
10
117.401165031381
20
9.67104962813053
30
0
41
1
10
117.391423052142
20
9.67683424562148
30
0
41
1
10
117.378282291519
20
9.68419471680949
30
0
41
1
10
117.366603814798
20
9.69016809579463
30
0
41
1
10
117.356491288878
20
9.69494800952253
30
0
41
1
10
117.349935529541
20
9.6979470993804
30
0
41
1
10
117.344834448404
20
9.70017102902327
30
0
41
1
10
117.34099710457
20
9.70178779537946
30
0
41
1
10
117.339930581481
20
9.70223423120217
30
0
41
1
10
117.338436363906
20
9.70285426391064
30
0
41
1
10
117.337154468938
20
9.7033803864538
30
0
41
1
10
117.335871695199
20
9.70390224043865
30
0
41
1
10
117.334802174283
20
9.70433445063819
30
0
41
1
10
117.333303855778
20
9.70493456340802
30
0
41
1
10
117.332018548617
20
9.70544360736145
30
0
41
1
10
117.330946795599
20
9.70586425061967
30
0
41
1
10
117.32987471501
20
9.70628311367824
30
0
41
1
10
117.328158351559
20
9.70694759735207
30
0
41
1
10
117.325795961558
20
9.70784754927513
30
0
41
1
10
117.323215993392
20
9.70881221115135
30
0
41
1
10
117.314607263455
20
9.7119707146436
30
0
41
1
10
117.299909024646
20
9.71690366670242
30
0
41
1
10
117.272134434974
20
9.72474524133824
30
0
41
1
10
117.244356128118
20
9.73044594772111
30
0
41
1
10
117.220336481056
20
9.73365167436316
30
0
41
1
10
117.209224398837
20
9.73474348059807
30
0
41
1
10
117.204379502907
20
9.73515179363005
30
0
41
1
10
117.202681710962
20
9.73528581316822
30
0
41
1
10
117.201396167323
20
9.73538324521226
30
0
41
1
10
117.200417432065
20
9.73545512337279
30
0
41
1
10
117.199644203392
20
9.73551048473448
30
0
41
1
10
117.199306666652
20
9.73553448436027
30
0
0
SPLINE
5
1E5
100
AcDbEntity
8
1
62
256
6
ByLayer
370
-1
48
1
60
0
100
AcDbSpline
70
4
71
3
72
22
73
18
40
0
40
0
40
0
40
0
40
0.0178234039223439
40
0.0278216291114606
40
0.0378198543005773
40
0.112806543218953
40
0.187793232137328
40
0.337766609974078
40
0.497738212999945
40
0.657709816025812
40
0.817681419051679
40
0.897667220564613
40
0.977653022077546
40
0.982652134672105
40
0.987651247266663
40
0.99764947245578
40
1
40
1
40
1
40
1
41
1
10
112.315903603507
20
9.5787883186492
30
0
41
1
10
112.315094114632
20
9.57867521806807
30
0
41
1
10
112.313830586522
20
9.57849778705881
30
0
41
1
10
112.312112923652
20
9.57825571839288
30
0
41
1
10
112.30779902225
20
9.57764698722565
30
0
41
1
10
112.300533508611
20
9.57662181921569
30
0
41
1
10
112.286910681731
20
9.57469978660495
30
0
41
1
10
112.269428068268
20
9.57223338009467
30
0
41
1
10
112.248085657028
20
9.56922244227698
30
0
41
1
10
112.226289151931
20
9.5661474419525
30
0
41
1
10
112.208125397684
20
9.56358494168208
30
0
41
1
10
112.193543843791
20
9.5615261360866
30
0
41
1
10
112.186071374944
20
9.56047260241735
30
0
41
1
10
112.182027261204
20
9.55990348315359
30
0
41
1
10
112.181131368725
20
9.5597773125005
30
0
41
1
10
112.180360344528
20
9.55966844673281
30
0
41
1
10
112.179818145293
20
9.55959153770809
30
0
41
1
10
112.179715168335
20
9.55957691503042
30
0
0
SPLINE
5
1E6
100
AcDbEntity
8
1
62
256
6
ByLayer
370
-1
48
1
60
0
100
AcDbSpline
70
4
71
3
72
14
73
10
40
0
40
0
40
0
40
0
40
0.0050966481374819
40
0.0240065217780322
40
0.0435263913424716
40
0.0630462609069109
40
0.375364173937941
40
0.68768208696897
40
1
40
1
40
1
40
1
41
1
10
112.639463730394
20
3.7104761190009
30
0
41
1
10
112.643292739854
20
3.71061037264008
30
0
41
1
10
112.66132835337
20
3.71124271068064
30
0
41
1
10
112.694028819169
20
3.71238899807869
30
0
41
1
10
112.737565149013
20
3.71391512760127
30
0
41
1
10
113.001532791015
20
3.72316829186454
30
0
41
1
10
113.485473468019
20
3.7401324263472
30
0
41
1
10
114.189387180025
20
3.76480753104923
30
0
41
1
10
114.658662988028
20
3.78125760085058
30
0
41
1
10
114.89330089203
20
3.78948263575128
30
0
0
SPLINE
5
1E7
100
AcDbEntity
8
1
62
256
6
ByLayer
370
-1
48
1
60
0
100
AcDbSpline
70
4
71
3
72
48
73
44
40
0
40
0
40
0
40
0
40
0.015625
40
0.0234375
40
0.02734375
40
0.029296875
40
0.0302734375
40
0.03125
40
0.03173828125
40
0.046875
40
0.0625
40
0.125
40
0.1875
40
0.25
40
0.3125
40
0.375
40
0.390625
40
0.40625
40
0.4140625
40
0.421875
40
0.4375
40
0.5
40
0.5625
40
0.59375
40
0.6015625
40
0.60546875
40
0.609375
40
0.6171875
40
0.625
40
0.65625
40
0.671875
40
0.6796875
40
0.6875
40
0.71875
40
0.75
40
0.78125
40
0.7890625
40
0.79296875
40
0.796875
40
0.8046875
40
0.8125
40
0.875
40
1
40
1
40
1
40
1
41
1
10
114.847895924835
20
4.60670925677729
30
0
41
1
10
114.848052791212
20
4.60220003252078
30
0
41
1
10
114.848373971251
20
4.59531255549996
30
0
41
1
10
114.848873457517
20
4.5877396763795
30
0
41
1
10
114.849148473396
20
4.58414247626158
30
0
41
1
10
114.849290976456
20
4.58240616472267
30
0
41
1
10
114.849374517922
20
4.5814219063094
30
0
41
1
10
114.849427112738
20
4.58080636689837
30
0
41
1
10
114.849784427147
20
4.57660923249568
30
0
41
1
10
114.850457028971
20
4.56870909121511
30
0
41
1
10
114.85246432504
20
4.54513210708092
30
0
41
1
10
114.85549103325
20
4.5095814713184
30
0
41
1
10
114.859526644195
20
4.46218062363499
30
0
41
1
10
114.863562255141
20
4.41477977595162
30
0
41
1
10
114.867597866087
20
4.36737892826821
30
0
41
1
10
114.870624011722
20
4.33183800199168
30
0
41
1
10
114.872642942343
20
4.30811815917798
30
0
41
1
10
114.873483600861
20
4.29824460082494
30
0
41
1
10
114.874154327439
20
4.29037682449771
30
0
41
1
10
114.87481303463
20
4.28245076331748
30
0
41
1
10
114.876592983964
20
4.26028512827719
30
0
41
1
10
114.879304762662
20
4.22220197000863
30
0
41
1
10
114.881871160586
20
4.17777937063283
30
0
41
1
10
114.883287255977
20
4.14852582340498
30
0
41
1
10
114.883841320058
20
4.13611284350199
30
0
41
1
10
114.884036705614
20
4.13162119747213
30
0
41
1
10
114.884229656389
20
4.12710011623503
30
0
41
1
10
114.884470506521
20
4.12141280574775
30
0
41
1
10
114.885048706246
20
4.10778119760693
30
0
41
1
10
114.88572343607
20
4.09188093718436
30
0
41
1
10
114.886397669689
20
4.0759707136869
30
0
41
1
10
114.886783767008
20
4.0668956411611
30
0
41
1
10
114.887341528557
20
4.05327370487967
30
0
41
1
10
114.888106040684
20
4.03273559824893
30
0
41
1
10
114.888963206079
20
4.0053254813667
30
0
41
1
10
114.889478210944
20
3.98490048950541
30
0
41
1
10
114.889744156175
20
3.97251576626772
30
0
41
1
10
114.889834765385
20
3.96803059061881
30
0
41
1
10
114.889922463094
20
3.9635436340929
30
0
41
1
10
114.890031280777
20
3.95792718315559
30
0
41
1
10
114.890467228944
20
3.93546791016834
30
0
41
1
10
114.891557099362
20
3.87931972770022
30
0
41
1
10
114.892603374963
20
3.82541747253086
30
0
41
1
10
114.89330089203
20
3.78948263575126
30
0
0
SPLINE
5
1E8
100
AcDbEntity
8
1
62
256
6
ByLayer
370
-1
48
1
60
0
100
AcDbSpline
70
4
71
3
72
22
73
18
40
0
40
0
40
0
40
0
40
0.0023505275439687
40
0.0123487527330884
40
0.0223469779222081
40
0.0623398786786869
40
0.102332779435157
40
0.182318580948123
40
0.262304382461076
40
0.342290183974038
40
0.662233390025868
40
0.812206767862664
40
0.957493477642046
40
0.962180145699459
40
0.972178370888574
40
0.982176596077698
40
1
40
1
40
1
40
1
41
1
10
117.199306666653
20
9.73553448436024
30
0
41
1
10
117.199202924397
20
9.73554186066931
30
0
41
1
10
117.198656701444
20
9.73558061596725
30
0
41
1
10
117.197656166333
20
9.73565096440976
30
0
41
1
10
117.194941550482
20
9.73584053660201
30
0
41
1
10
117.190850752816
20
9.73612683416508
30
0
41
1
10
117.183540085968
20
9.73663972622009
30
0
41
1
10
117.174359396917
20
9.73728519327619
30
0
41
1
10
117.163368089683
20
9.7380571316256
30
0
41
1
10
117.141410994839
20
9.73959838620655
30
0
41
1
10
117.116251823665
20
9.74136440708051
30
0
41
1
10
117.088105000913
20
9.74334014293331
30
0
41
1
10
117.074381787622
20
9.74430363211223
30
0
41
1
10
117.06706272506
20
9.74481760237612
30
0
41
1
10
117.065933416342
20
9.74489690806027
30
0
41
1
10
117.064203116012
20
9.74501811126856
30
0
41
1
10
117.062930335929
20
9.74510663412164
30
0
41
1
10
117.062114959452
20
9.74516277641087
30
0
0
SPLINE
5
1E9
100
AcDbEntity
8
1
62
256
6
ByLayer
370
-1
48
1
60
0
100
AcDbSpline
70
4
71
3
72
22
73
18
40
0
40
0
40
0
40
0
40
0.0178234039225441
40
0.0278216291116584
40
0.0378198543007726
40
0.112806543219129
40
0.187793232137486
40
0.3377666099742
40
0.497738213000028
40
0.657709816025855
40
0.817681419051683
40
0.897667220564597
40
0.977653022077511
40
0.982652134672068
40
0.987651247266625
40
0.997649472455739
40
1
40
1
40
1
40
1
41
1
10
117.266254146564
20
3.87705137378413
30
0
41
1
10
117.267063635439
20
3.87716447436529
30
0
41
1
10
117.26832716355
20
3.87734190537455
30
0
41
1
10
117.270044826419
20
3.87758397404051
30
0
41
1
10
117.274358727821
20
3.87819270520771
30
0
41
1
10
117.281624241461
20
3.87921787321767
30
0
41
1
10
117.29524706834
20
3.8811399058284
30
0
41
1
10
117.312729681803
20
3.88360631233869
30
0
41
1
10
117.334072093044
20
3.88661725015641
30
0
41
1
10
117.35586859814
20
3.88969225048086
30
0
41
1
10
117.374032352387
20
3.89225475075128
30
0
41
1
10
117.388613906281
20
3.89431355634679
30
0
41
1
10
117.396086375127
20
3.89536709001601
30
0
41
1
10
117.400130488867
20
3.89593620927977
30
0
41
1
10
117.401026381347
20
3.89606237993286
30
0
41
1
10
117.401797405543
20
3.89617124570054
30
0
41
1
10
117.402339604779
20
3.89624815472527
30
0
41
1
10
117.402442581736
20
3.89626277740294
30
0
0
SPLINE
5
1EA
100
AcDbEntity
8
1
62
256
6
ByLayer
370
-1
48
1
60
0
100
AcDbSpline
70
4
71
3
72
13
73
9
40
0
40
0
40
0
40
0
40
0.312317913031033
40
0.624635826062066
40
0.936953739093099
40
0.975993478221978
40
0.994903351862529
40
1
40
1
40
1
40
1
41
1
10
117.718334444777
20
6.83053233470932
30
0
41
1
10
117.710140708617
20
7.06606651738596
30
0
41
1
10
117.693753236298
20
7.53713488273925
30
0
41
1
10
117.669172027819
20
8.24373743076919
30
0
41
1
10
117.65176033848
20
8.74424756895706
30
0
41
1
10
117.642046280181
20
9.02348438318504
30
0
41
1
10
117.640392246242
20
9.07103064586786
30
0
41
1
10
117.639762542763
20
9.0891351605016
30
0
41
1
10
117.639628861538
20
9.09297879831337
30
0
0
SPLINE
5
1EB
100
AcDbEntity
8
1
62
256
6
ByLayer
370
-1
48
1
60
0
100
AcDbSpline
70
4
71
3
72
8
73
4
40
0
40
0
40
0
40
0
40
1
40
1
40
1
40
1
41
1
10
111.943852224217
20
4.32671099214497
30
0
41
1
10
111.943389318527
20
4.33876014224285
30
0
41
1
10
111.94294825397
20
4.35081013785856
30
0
41
1
10
111.942529033465
20
4.36286089919926
30
0
0
SPLINE
5
1EC
100
AcDbEntity
8
1
62
256
6
ByLayer
370
-1
48
1
60
0
100
AcDbSpline
70
4
71
3
72
8
73
4
40
0
40
0
40
0
40
0
40
1
40
1
40
1
40
1
41
1
10
112.399007345599
20
9.58602244029095
30
0
41
1
10
112.411010645043
20
9.58648711420508
30
0
41
1
10
112.423014786787
20
9.58692986355754
30
0
41
1
10
112.435019691343
20
9.58735068541651
30
0
0
SPLINE
5
1ED
100
AcDbEntity
8
1
62
256
6
ByLayer
370
-1
48
1
60
0
100
AcDbSpline
70
4
71
3
72
23
73
19
40
0
40
0
40
0
40
0
40
0.036549907921735
40
0.0695172064382628
40
0.102484504954791
40
0.135451803471318
40
0.168419101987846
40
0.234353699020901
40
0.300288296053942
40
0.366222893087012
40
0.498092087153123
40
0.629961281219226
40
0.761830475285345
40
0.827765072318396
40
0.893699669351456
40
0.926666967867983
40
0.959634266384511
40
1
40
1
40
1
40
1
41
1
10
111.785317465121
20
9.00763091953036
30
0
41
1
10
111.785247898721
20
9.00661284601651
30
0
41
1
10
111.785117250477
20
9.00467650842427
30
0
41
1
10
111.784932445221
20
9.00182162983157
30
0
41
1
10
111.784763057031
20
8.99906593386299
30
0
41
1
10
111.784604442343
20
8.99630924859895
30
0
41
1
10
111.784406807632
20
8.99263250384769
30
0
41
1
10
111.784184773765
20
8.98803467965024
30
0
41
1
10
111.783955269592
20
8.98251518936837
30
0
41
1
10
111.783699021196
20
8.97515354031714
30
0
41
1
10
111.783472958913
20
8.96594799958262
30
0
41
1
10
111.783355532585
20
8.95489862153536
30
0
41
1
10
111.783383536624
20
8.94569095048419
30
0
41
1
10
111.783480046824
20
8.93832635101202
30
0
41
1
10
111.783573645569
20
8.93372483751637
30
0
41
1
10
111.783669933665
20
8.93004487578699
30
0
41
1
10
111.783757325865
20
8.92707877882708
30
0
41
1
10
111.783823785688
20
8.92503256889987
30
0
41
1
10
111.783861454508
20
8.92390619207072
30
0
0
SPLINE
5
1EE
100
AcDbEntity
8
1
62
256
6
ByLayer
370
-1
48
1
60
0
100
AcDbSpline
70
4
71
3
72
153
73
149
40
0
40
0
40
0
40
0
40
0.125
40
0.25
40
0.375
40
0.3828125
40
0.390625
40
0.398193359375
40
0.4019775390625
40
0.405643463134766
40
0.40576171875
40
0.406005859375
40
0.40625
40
0.4072265625
40
0.40771484375
40
0.408203125
40
0.4091796875
40
0.41015625
40
0.412109375
40
0.4140625
40
0.416015625
40
0.4169921875
40
0.41796875
40
0.4189453125
40
0.41943359375
40
0.419921875
40
0.42041015625
40
0.4208984375
40
0.421875
40
0.422119140625
40
0.42236328125
40
0.422477722167969
40
0.426025390625
40
0.4296875
40
0.4375
40
0.439453125
40
0.44140625
40
0.443359375
40
0.4443359375
40
0.4453125
40
0.445556640625
40
0.44580078125
40
0.446044921875
40
0.4462890625
40
0.4464111328125
40
0.44677734375
40
0.447265625
40
0.44921875
40
0.453125
40
0.4609375
40
0.46484375
40
0.46875
40
0.46923828125
40
0.4697265625
40
0.47021484375
40
0.4705810546875
40
0.470703125
40
0.4708251953125
40
0.47119140625
40
0.471435546875
40
0.4716796875
40
0.4718017578125
40
0.47216796875
40
0.472412109375
40
0.47265625
40
0.4727783203125
40
0.474609375
40
0.4755859375
40
0.4765625
40
0.48046875
40
0.482421875
40
0.484375
40
0.486328125
40
0.48828125
40
0.490234375
40
0.4921875
40
0.494140625
40
0.49609375
40
0.498046875
40
0.5
40
0.501953125
40
0.50390625
40
0.505859375
40
0.5078125
40
0.509765625
40
0.51171875
40
0.515625
40
0.51953125
40
0.5224609375
40
0.5234375
40
0.525390625
40
0.5263671875
40
0.527099609375
40
0.52734375
40
0.52783203125
40
0.528076171875
40
0.5283203125
40
0.5284423828125
40
0.52880859375
40
0.529052734375
40
0.529296875
40
0.5294189453125
40
0.52978515625
40
0.5302734375
40
0.53125
40
0.5390625
40
0.546875
40
0.55078125
40
0.5517578125
40
0.552734375
40
0.55322265625
40
0.5537109375
40
0.553955078125
40
0.55419921875
40
0.554443359375
40
0.5545654296875
40
0.5546875
40
0.556640625
40
0.55859375
40
0.5625
40
0.56640625
40
0.5703125
40
0.573974609375
40
0.5758056640625
40
0.57763671875
40
0.577880859375
40
0.578125
40
0.5791015625
40
0.57958984375
40
0.580078125
40
0.5810546875
40
0.58203125
40
0.5859375
40
0.587890625
40
0.58984375
40
0.5908203125
40
0.591796875
40
0.5927734375
40
0.59375
40
0.593994140625
40
0.59423828125
40
0.594380187988281
40
0.601806640625
40
0.609375
40
0.625
40
0.75
40
0.875
40
1
40
1
40
1
40
1
41
1
10
114.847895924835
20
4.60670925677729
30
0
41
1
10
114.674471716853
20
4.60063001664196
30
0
41
1
10
114.327623300888
20
4.58847153637129
30
0
41
1
10
113.807350676941
20
4.57023381596531
30
0
41
1
10
113.449663247977
20
4.5576953831862
30
0
41
1
10
113.254561013997
20
4.55085623803396
30
0
41
1
10
113.222382694157
20
4.54972825402447
30
0
41
1
10
113.195793240394
20
4.54879618302715
30
0
41
1
10
113.1749567198
20
4.54806577627627
30
0
41
1
10
113.164456425957
20
4.54769769728372
30
0
41
1
10
113.158867559879
20
4.54750178427153
30
0
41
1
10
113.158026054476
20
4.5474722860055
30
0
41
1
10
113.155993739539
20
4.54740104491017
30
0
41
1
10
113.153622705445
20
4.54731793029893
30
0
41
1
10
113.150912952195
20
4.54722294217183
30
0
41
1
10
113.148203198945
20
4.5471279540447
30
0
41
1
10
113.144816007383
20
4.54700921888582
30
0
41
1
10
113.139396500884
20
4.54681924263159
30
0
41
1
10
113.13262211776
20
4.5465817723138
30
0
41
1
10
113.12449285801
20
4.54629680793246
30
0
41
1
10
113.117718474886
20
4.54605933761468
30
0
41
1
10
113.112298968387
20
4.54586936136045
30
0
41
1
10
113.108234338512
20
4.54572687916976
30
0
41
1
10
113.10484714695
20
4.54560814401088
30
0
41
1
10
113.1021373937
20
4.54551315588375
30
0
41
1
10
113.100105078763
20
4.54544191478843
30
0
41
1
10
113.098072763826
20
4.5453706736931
30
0
41
1
10
113.095363010576
20
4.54527568556597
30
0
41
1
10
113.092991976482
20
4.54519257095475
30
0
41
1
10
113.090959661545
20
4.54512132985943
30
0
41
1
10
113.090123448628
20
4.54509201711707
30
0
41
1
10
113.084703942129
20
4.54490204086284
30
0
41
1
10
113.074542367442
20
4.54454583538615
30
0
41
1
10
113.053700554361
20
4.5438152431116
30
0
41
1
10
113.03507100077
20
4.54316219973768
30
0
41
1
10
113.018812481271
20
4.54259227097498
30
0
41
1
10
113.01068302403
20
4.54230729278876
30
0
41
1
10
113.003908147174
20
4.54206978795878
30
0
41
1
10
112.998487949452
20
4.5418797633875
30
0
41
1
10
112.995438958628
20
4.54177286550669
30
0
41
1
10
112.993406236363
20
4.5417015959388
30
0
41
1
10
112.992389862501
20
4.54166596026508
30
0
41
1
10
112.991373475525
20
4.54163032367464
30
0
41
1
10
112.990526475128
20
4.54160062572953
30
0
41
1
10
112.989510064236
20
4.54156498746738
30
0
41
1
10
112.988154830942
20
4.54151746847236
30
0
41
1
10
112.984258436893
20
4.54138084448846
30
0
41
1
10
112.975448529581
20
4.54107190874606
30
0
41
1
10
112.95646919726
20
4.54040621878315
30
0
41
1
10
112.934765892239
20
4.53964454674195
30
0
41
1
10
112.913095425165
20
4.53888517009995
30
0
41
1
10
112.901602672938
20
4.53848312714498
30
0
41
1
10
112.894851408038
20
4.53824727280985
30
0
41
1
10
112.892823981037
20
4.53817637338523
30
0
41
1
10
112.890961191626
20
4.53811108064778
30
0
41
1
10
112.889596825767
20
4.53806292327906
30
0
41
1
10
112.888738826356
20
4.53803245649394
30
0
41
1
10
112.887877885132
20
4.53800178407371
30
0
41
1
10
112.886842955964
20
4.5379648988972
30
0
41
1
10
112.885655929399
20
4.53792356877247
30
0
41
1
10
112.884828472921
20
4.53789571224524
30
0
41
1
10
112.883861793802
20
4.53786440578222
30
0
41
1
10
112.882925232763
20
4.53783632321145
30
0
41
1
10
112.88185503319
20
4.5378099915942
30
0
41
1
10
112.881095258345
20
4.53779551737062
30
0
41
1
10
112.878350552565
20
4.53775689146408
30
0
41
1
10
112.874624738519
20
4.53780142780153
30
0
41
1
10
112.86973011233
20
4.5380420232984
30
0
41
1
10
112.862086331916
20
4.53861447798596
30
0
41
1
10
112.853047377223
20
4.53987339930779
30
0
41
1
10
112.842658007996
20
4.5421790183716
30
0
41
1
10
112.834863187624
20
4.54435572325616
30
0
41
1
10
112.827092347991
20
4.54699398339471
30
0
41
1
10
112.819390005565
20
4.55009336877322
30
0
41
1
10
112.811800676812
20
4.55365344937766
30
0
41
1
10
112.804363711592
20
4.55766725580747
30
0
41
1
10
112.797118459763
20
4.5621278186621
30
0
41
1
10
112.790103424449
20
4.56701849588208
30
0
41
1
10
112.783357108773
20
4.57232264540787
30
0
41
1
10
112.776913699716
20
4.5780149658132
30
0
41
1
10
112.770807384255
20
4.58407015567164
30
0
41
1
10
112.765065690901
20
4.59045574594978
30
0
41
1
10
112.759716148168
20
4.59713926761418
30
0
41
1
10
112.754777980242
20
4.60408332550671
30
0
41
1
10
112.750270411313
20
4.61125052446928
30
0
41
1
10
112.744847345903
20
4.62105242079571
30
0
41
1
10
112.739193366006
20
4.63366805493988
30
0
41
1
10
112.734649676925
20
4.64775135645624
30
0
41
1
10
112.732355012929
20
4.65799521816811
30
0
41
1
10
112.731048638268
20
4.66563705228111
30
0
41
1
10
112.73038200616
20
4.67070412924659
30
0
41
1
10
112.729946537569
20
4.67538437299544
30
0
41
1
10
112.72977292906
20
4.67785177794204
30
0
41
1
10
112.729667753832
20
4.67968780195307
30
0
41
1
10
112.729610135777
20
4.68090418328393
30
0
41
1
10
112.729559134757
20
4.68215201760091
30
0
41
1
10
112.729528790859
20
4.68295316272292
30
0
41
1
10
112.729492653921
20
4.68394098961261
30
0
41
1
10
112.729456838937
20
4.68495878997564
30
0
41
1
10
112.729415324371
20
4.68616676132464
30
0
41
1
10
112.729385748989
20
4.68703250568447
30
0
41
1
10
112.729350260073
20
4.68806607055348
30
0
41
1
10
112.729302943974
20
4.68943567113445
30
0
41
1
10
112.729214231538
20
4.69198554098938
30
0
41
1
10
112.728764768221
20
4.70485988652439
30
0
41
1
10
112.727960447265
20
4.72796098673464
30
0
41
1
10
112.727014171375
20
4.75519382369441
30
0
41
1
10
112.726399095037
20
4.77288483392385
30
0
41
1
10
112.726115214082
20
4.78104842511706
30
0
41
1
10
112.725996930417
20
4.78444969373976
30
0
41
1
10
112.725902303521
20
4.78717058443368
30
0
41
1
10
112.725843161725
20
4.78887109195318
30
0
41
1
10
112.725795848296
20
4.79023147002283
30
0
41
1
10
112.725760363229
20
4.7912517399902
30
0
41
1
10
112.725730792342
20
4.79210195396578
30
0
41
1
10
112.725707135635
20
4.79278211874197
30
0
41
1
10
112.725600680457
20
4.795842841313
30
0
41
1
10
112.725405512716
20
4.80145387569917
30
0
41
1
10
112.725027005811
20
4.8123350868741
30
0
41
1
10
112.724553872468
20
4.82593560720869
30
0
41
1
10
112.723986112457
20
4.84225623161024
30
0
41
1
10
112.723430180778
20
4.8582368430034
30
0
41
1
10
112.722974789936
20
4.87132734382544
30
0
41
1
10
112.722619939929
20
4.8815277340764
30
0
41
1
10
112.722430686591
20
4.88696794221025
30
0
41
1
10
112.722318317422
20
4.89019806578972
30
0
41
1
10
112.722247347421
20
4.8922381438399
30
0
41
1
10
112.722164549086
20
4.89461823489845
30
0
41
1
10
112.722069922417
20
4.89733833896537
30
0
41
1
10
112.721975295749
20
4.90005844303229
30
0
41
1
10
112.721857012413
20
4.90345857311596
30
0
41
1
10
112.721573132407
20
4.9116188853167
30
0
41
1
10
112.721241939067
20
4.92113924955092
30
0
41
1
10
112.720863432392
20
4.93201966581861
30
0
41
1
10
112.720626865721
20
4.93881992598591
30
0
41
1
10
112.720437612384
20
4.94426013411976
30
0
41
1
10
112.720295672381
20
4.94834029022013
30
0
41
1
10
112.720153732378
20
4.95242044632053
30
0
41
1
10
112.720047277376
20
4.95548056339581
30
0
41
1
10
112.719976307374
20
4.957520641446
30
0
41
1
10
112.719945775488
20
4.95839830002384
30
0
41
1
10
112.719567268814
20
4.96927871629151
30
0
41
1
10
112.718833912132
20
4.99035952281017
30
0
41
1
10
112.71735041732
20
5.03300352930304
30
0
41
1
10
112.710170618839
20
5.23939142538066
30
0
41
1
10
112.697301391908
20
5.60932557848187
30
0
41
1
10
112.679133071534
20
6.13158555933063
30
0
41
1
10
112.667020857951
20
6.47975887989648
30
0
41
1
10
112.66096475116
20
6.65384554017942
30
0
0
SPLINE
5
1EF
100
AcDbEntity
8
1
62
256
6
ByLayer
370
-1
48
1
60
0
100
AcDbSpline
70
4
71
3
72
48
73
44
40
0
40
0
40
0
40
0
40
0.015625
40
0.0234375
40
0.02734375
40
0.029296875
40
0.0302734375
40
0.03125
40
0.03173828125
40
0.046875
40
0.0625
40
0.125
40
0.1875
40
0.25
40
0.3125
40
0.375
40
0.390625
40
0.40625
40
0.4140625
40
0.421875
40
0.4375
40
0.5
40
0.5625
40
0.59375
40
0.6015625
40
0.60546875
40
0.609375
40
0.6171875
40
0.625
40
0.65625
40
0.671875
40
0.6796875
40
0.6875
40
0.71875
40
0.75
40
0.78125
40
0.7890625
40
0.79296875
40
0.796875
40
0.8046875
40
0.8125
40
0.875
40
1
40
1
40
1
40
1
41
1
10
112.66096475116
20
6.65384554017942
30
0
41
1
10
112.656472685863
20
6.65368807459856
30
0
41
1
10
112.64969299705
20
6.65344755860113
30
0
41
1
10
112.642384976836
20
6.65318310783499
30
0
41
1
10
112.638951342043
20
6.65305749083885
30
0
41
1
10
112.637303738147
20
6.65299685750384
30
0
41
1
10
112.636372526331
20
6.65296248644265
30
0
41
1
10
112.635790510736
20
6.65294099133277
30
0
41
1
10
112.631820652674
20
6.65279442416977
30
0
41
1
10
112.624348346431
20
6.65251854515716
30
0
41
1
10
112.602048182486
20
6.65169521872889
30
0
41
1
10
112.568422804392
20
6.65045376317215
30
0
41
1
10
112.523588966932
20
6.64879848909649
30
0
41
1
10
112.478755129473
20
6.64714321502083
30
0
41
1
10
112.433921292013
20
6.64548794094517
30
0
41
1
10
112.400305361655
20
6.64424682445113
30
0
41
1
10
112.377869547452
20
6.64341850928784
30
0
41
1
10
112.368530739271
20
6.64307371703254
30
0
41
1
10
112.361089925483
20
6.64279896822902
30
0
41
1
10
112.353577001643
20
6.64252218407356
30
0
41
1
10
112.332504567297
20
6.64174814304167
30
0
41
1
10
112.295953273095
20
6.64041824985026
30
0
41
1
10
112.252720744748
20
6.63886697849725
30
0
41
1
10
112.223976942441
20
6.63784542211766
30
0
41
1
10
112.211733440433
20
6.63741195130777
30
0
41
1
10
112.207298017161
20
6.63725509957214
30
0
41
1
10
112.202829811922
20
6.63709721993641
30
0
41
1
10
112.197207143994
20
6.63689861467785
30
0
41
1
10
112.183731393141
20
6.63642258843217
30
0
41
1
10
112.168013231396
20
6.63586733910307
30
0
41
1
10
112.152284301689
20
6.63531174185576
30
0
41
1
10
112.14331415729
20
6.63499483333996
30
0
41
1
10
112.129827939779
20
6.63451914484304
30
0
41
1
10
112.109418021672
20
6.63380193835562
30
0
41
1
10
112.082015833949
20
6.63284475598221
30
0
41
1
10
112.061473027936
20
6.63213149954956
30
0
41
1
10
112.048970539208
20
6.63169901548414
30
0
41
1
10
112.044437010439
20
6.63154238969918
30
0
41
1
10
112.039898734118
20
6.63138570172464
30
0
41
1
10
112.034217088703
20
6.63118957093607
30
0
41
1
10
112.011497917582
20
6.63040527584116
30
0
41
1
10
111.954699989779
20
6.62844453810379
30
0
41
1
10
111.900173979088
20
6.62656222987593
30
0
41
1
10
111.863823305295
20
6.62530735772404
30
0
0
SPLINE
5
1F0
100
AcDbEntity
8
1
62
256
6
ByLayer
370
-1
48
1
60
0
100
AcDbSpline
70
4
71
3
72
153
73
149
40
0
40
0
40
0
40
0
40
0.125
40
0.25
40
0.375
40
0.3828125
40
0.390625
40
0.398193359375
40
0.4019775390625
40
0.405643463134766
40
0.40576171875
40
0.406005859375
40
0.40625
40
0.4072265625
40
0.40771484375
40
0.408203125
40
0.4091796875
40
0.41015625
40
0.412109375
40
0.4140625
40
0.416015625
40
0.4169921875
40
0.41796875
40
0.4189453125
40
0.41943359375
40
0.419921875
40
0.42041015625
40
0.4208984375
40
0.421875
40
0.422119140625
40
0.42236328125
40
0.422477722167969
40
0.426025390625
40
0.4296875
40
0.4375
40
0.439453125
40
0.44140625
40
0.443359375
40
0.4443359375
40
0.4453125
40
0.445556640625
40
0.44580078125
40
0.446044921875
40
0.4462890625
40
0.4464111328125
40
0.44677734375
40
0.447265625
40
0.44921875
40
0.453125
40
0.4609375
40
0.46484375
40
0.46875
40
0.46923828125
40
0.4697265625
40
0.47021484375
40
0.4705810546875
40
0.470703125
40
0.4708251953125
40
0.47119140625
40
0.471435546875
40
0.4716796875
40
0.4718017578125
40
0.47216796875
40
0.472412109375
40
0.47265625
40
0.4727783203125
40
0.474609375
40
0.4755859375
40
0.4765625
40
0.48046875
40
0.482421875
40
0.484375
40
0.486328125
40
0.48828125
40
0.490234375
40
0.4921875
40
0.494140625
40
0.49609375
40
0.498046875
40
0.5
40
0.501953125
40
0.50390625
40
0.505859375
40
0.5078125
40
0.509765625
40
0.51171875
40
0.515625
40
0.51953125
40
0.5224609375
40
0.5234375
40
0.525390625
40
0.5263671875
40
0.527099609375
40
0.52734375
40
0.52783203125
40
0.528076171875
40
0.5283203125
40
0.5284423828125
40
0.52880859375
40
0.529052734375
40
0.529296875
40
0.5294189453125
40
0.52978515625
40
0.5302734375
40
0.53125
40
0.5390625
40
0.546875
40
0.55078125
40
0.5517578125
40
0.552734375
40
0.55322265625
40
0.5537109375
40
0.553955078125
40
0.55419921875
40
0.554443359375
40
0.5545654296875
40
0.5546875
40
0.556640625
40
0.55859375
40
0.5625
40
0.56640625
40
0.5703125
40
0.573974609375
40
0.5758056640625
40
0.57763671875
40
0.577880859375
40
0.578125
40
0.5791015625
40
0.57958984375
40
0.580078125
40
0.5810546875
40
0.58203125
40
0.5859375
40
0.587890625
40
0.58984375
40
0.5908203125
40
0.591796875
40
0.5927734375
40
0.59375
40
0.593994140625
40
0.59423828125
40
0.594380187988281
40
0.601806640625
40
0.609375
40
0.625
40
0.75
40
0.875
40
1
40
1
40
1
40
1
41
1
10
112.66096475116
20
6.65384554017942
30
0
41
1
10
112.654908644369
20
6.82793220046233
30
0
41
1
10
112.642796430787
20
7.17610552102818
30
0
41
1
10
112.624628110413
20
7.69836550187696
30
0
41
1
10
112.612137390156
20
8.05741923871048
30
0
41
1
10
112.605324270016
20
8.25326673152878
30
0
41
1
10
112.604200578326
20
8.28556796732346
30
0
41
1
10
112.60327205414
20
8.31225898848012
30
0
41
1
10
112.602544426807
20
8.33317510119781
30
0
41
1
10
112.602177748467
20
8.34371550445715
30
0
41
1
10
112.601982580963
20
8.34932571909516
30
0
41
1
10
112.601953194946
20
8.35017043891281
30
0
41
1
10
112.601882224945
20
8.352210516963
30
0
41
1
10
112.60179942661
20
8.35459060802157
30
0
41
1
10
112.601704799941
20
8.35731071208849
30
0
41
1
10
112.601610173273
20
8.36003081615542
30
0
41
1
10
112.601491889937
20
8.36343094623905
30
0
41
1
10
112.6013026366
20
8.3688711543729
30
0
41
1
10
112.601066069928
20
8.37567141454019
30
0
41
1
10
112.600782189922
20
8.38383172674097
30
0
41
1
10
112.600545623251
20
8.39063198690826
30
0
41
1
10
112.600356369913
20
8.39607219504211
30
0
41
1
10
112.600214429911
20
8.40015235114248
30
0
41
1
10
112.600096146575
20
8.40355248122614
30
0
41
1
10
112.600001519906
20
8.40627258529307
30
0
41
1
10
112.599930549905
20
8.40831266334325
30
0
41
1
10
112.599859579903
20
8.41035274139344
30
0
41
1
10
112.599764953235
20
8.41307284546036
30
0
41
1
10
112.5996821549
20
8.4154529365189
30
0
41
1
10
112.599611184898
20
8.41749301456912
30
0
41
1
10
112.5995819837
20
8.41833242168352
30
0
41
1
10
112.599392730362
20
8.42377262981736
30
0
41
1
10
112.599037880355
20
8.43397302006829
30
0
41
1
10
112.598310068205
20
8.45489444548926
30
0
41
1
10
112.597659509858
20
8.47359516094934
30
0
41
1
10
112.597091749846
20
8.48991578535086
30
0
41
1
10
112.596807856088
20
8.4980762957984
30
0
41
1
10
112.596571255036
20
8.50487705158258
30
0
41
1
10
112.596381953565
20
8.51031795358006
30
0
41
1
10
112.596275462463
20
8.51337859105308
30
0
41
1
10
112.596204464098
20
8.51541907798722
30
0
41
1
10
112.596168964028
20
8.5164393342319
30
0
41
1
10
112.596133463046
20
8.51745960364141
30
0
41
1
10
112.59610387811
20
8.51830983944268
30
0
41
1
10
112.596068375463
20
8.51933013285864
30
0
41
1
10
112.596021037292
20
8.52069054292366
30
0
41
1
10
112.595884933203
20
8.52460182056456
30
0
41
1
10
112.595577173055
20
8.53344538029182
30
0
41
1
10
112.594914016243
20
8.55249721057859
30
0
41
1
10
112.594155242594
20
8.57428341869868
30
0
41
1
10
112.593398755609
20
8.59603666343665
30
0
41
1
10
112.592998242549
20
8.60757331611038
30
0
41
1
10
112.592763285711
20
8.61435036974569
30
0
41
1
10
112.59269265608
20
8.61638554118869
30
0
41
1
10
112.592627611801
20
8.61825544615235
30
0
41
1
10
112.592579637686
20
8.61962502366708
30
0
41
1
10
112.592549286836
20
8.62048630049617
30
0
41
1
10
112.592518731134
20
8.62135053037588
30
0
41
1
10
112.592481986316
20
8.62238941280495
30
0
41
1
10
112.592440813465
20
8.62358097361874
30
0
41
1
10
112.59241306294
20
8.62441159084642
30
0
41
1
10
112.592381875608
20
8.62538196252208
30
0
41
1
10
112.5923538999
20
8.62632210107225
30
0
41
1
10
112.592327668482
20
8.62739638863411
30
0
41
1
10
112.592313249338
20
8.62815906569568
30
0
41
1
10
112.592274770414
20
8.63091425580615
30
0
41
1
10
112.592319137278
20
8.63465430185579
30
0
41
1
10
112.592558817236
20
8.63956762472162
30
0
41
1
10
112.593129093561
20
8.64724060313492
30
0
41
1
10
112.594383224307
20
8.65631408516728
30
0
41
1
10
112.596680069794
20
8.66674314009629
30
0
41
1
10
112.598848491659
20
8.6745677354163
30
0
41
1
10
112.601476712422
20
8.68236825839398
30
0
41
1
10
112.604564303703
20
8.69010002251684
30
0
41
1
10
112.608110837126
20
8.69771834127246
30
0
41
1
10
112.61210936981
20
8.70518371449182
30
0
41
1
10
112.616552958877
20
8.71245664200589
30
0
41
1
10
112.621425025593
20
8.71949847361526
30
0
41
1
10
112.626708991229
20
8.72627055912045
30
0
41
1
10
112.632379650636
20
8.73273858095391
30
0
41
1
10
112.638411798669
20
8.73886822154802
30
0
41
1
10
112.644773089848
20
8.74463184723689
30
0
41
1
10
112.651431178695
20
8.75000182435471
30
0
41
1
10
112.658348812351
20
8.7549588552796
30
0
41
1
10
112.665488737958
20
8.75948364238965
30
0
41
1
10
112.675253335109
20
8.76492742302869
30
0
41
1
10
112.687820962957
20
8.7706030002106
30
0
41
1
10
112.701850673259
20
8.77516404544559
30
0
41
1
10
112.712055553984
20
8.77746747468541
30
0
41
1
10
112.719668308611
20
8.77877883948483
30
0
41
1
10
112.724716103819
20
8.77944801801897
30
0
41
1
10
112.729378537828
20
8.77988515002951
30
0
41
1
10
112.731836553553
20
8.78005942169509
30
0
41
1
10
112.733665590939
20
8.78016499867576
30
0
41
1
10
112.734877343571
20
8.78022283682242
30
0
41
1
10
112.736120429502
20
8.78027403265716
30
0
41
1
10
112.736918526025
20
8.78030449246452
30
0
41
1
10
112.737902593935
20
8.78034076743961
30
0
41
1
10
112.738916521261
20
8.7803767192305
30
0
41
1
10
112.740119895914
20
8.78041839237622
30
0
41
1
10
112.740982345855
20
8.78044808073145
30
0
41
1
10
112.742011977698
20
8.78048370520941
30
0
41
1
10
112.743376366535
20
8.78053120204754
30
0
41
1
10
112.745916533365
20
8.78062025335055
30
0
41
1
10
112.758741888129
20
8.78107143354458
30
0
41
1
10
112.781755081678
20
8.78187882687615
30
0
41
1
10
112.808884289472
20
8.78282871738659
30
0
41
1
10
112.826507980066
20
8.7834461432156
30
0
41
1
10
112.83464050633
20
8.78373110854974
30
0
41
1
10
112.838028832099
20
8.78384984403945
30
0
41
1
10
112.840739368982
20
8.78394483239515
30
0
41
1
10
112.842433405557
20
8.78400420010317
30
0
41
1
10
112.843788606977
20
8.78405169426148
30
0
41
1
10
112.84480499451
20
8.78408731487625
30
0
41
1
10
112.845651973164
20
8.7841169987187
30
0
41
1
10
112.846329549708
20
8.78414074579078
30
0
41
1
10
112.849378625306
20
8.78424760760973
30
0
41
1
10
112.854968308012
20
8.78444352086012
30
0
41
1
10
112.865808112893
20
8.78482347359954
30
0
41
1
10
112.879356879142
20
8.78529841423511
30
0
41
1
10
112.89561539864
20
8.78586834299782
30
0
41
1
10
112.911535198983
20
8.7864263982446
30
0
41
1
10
112.924575886497
20
8.78688352860635
30
0
41
1
10
112.934737461183
20
8.78723973408302
30
0
41
1
10
112.940156967683
20
8.78742971033725
30
0
41
1
10
112.943374799667
20
8.7875425087382
30
0
41
1
10
112.945407114604
20
8.78761374983353
30
0
41
1
10
112.947778148698
20
8.78769686444477
30
0
41
1
10
112.950487901947
20
8.78779185257187
30
0
41
1
10
112.953197655197
20
8.787886840699
30
0
41
1
10
112.956584846759
20
8.78800557585788
30
0
41
1
10
112.964714106508
20
8.78829054023922
30
0
41
1
10
112.974198242882
20
8.78862299868413
30
0
41
1
10
112.985037255881
20
8.7890029511926
30
0
41
1
10
112.991811639006
20
8.78924042151039
30
0
41
1
10
112.997231145505
20
8.78943039776459
30
0
41
1
10
113.00129577538
20
8.78957287995527
30
0
41
1
10
113.005360405254
20
8.78971536214596
30
0
41
1
10
113.00840887766
20
8.78982222378895
30
0
41
1
10
113.010441192597
20
8.78989346488427
30
0
41
1
10
113.011315511419
20
8.78992411339718
30
0
41
1
10
113.022154524418
20
8.79030406590564
30
0
41
1
10
113.043155112104
20
8.79104022389078
30
0
41
1
10
113.085636845277
20
8.79252938541171
30
0
41
1
10
113.2912393731
20
8.79973660955653
30
0
41
1
10
113.659765815063
20
8.81265499484411
30
0
41
1
10
114.18003843901
20
8.83089271525009
30
0
41
1
10
114.526886854974
20
8.84305119552076
30
0
41
1
10
114.700311062957
20
8.84913043565606
30
0
0
SPLINE
5
1F1
100
AcDbEntity
8
1
62
256
6
ByLayer
370
-1
48
1
60
0
100
AcDbSpline
70
4
71
3
72
14
73
10
40
0
40
0
40
0
40
0
40
0.005096648137471
40
0.0240065217780215
40
0.0435263913424611
40
0.0630462609069007
40
0.375364173937934
40
0.687682086968967
40
1
40
1
40
1
40
1
41
1
10
111.785117432193
20
8.88775381116719
30
0
41
1
10
111.785251174957
20
8.88391017551263
30
0
41
1
10
111.78588110676
20
8.86580566888259
30
0
41
1
10
111.787023032189
20
8.83298029261704
30
0
41
1
10
111.788543354328
20
8.78927766106571
30
0
41
1
10
111.797761307507
20
8.52430170555448
30
0
41
1
10
111.814660888337
20
8.03851245378391
30
0
41
1
10
111.839242096816
20
7.33190990575397
30
0
41
1
10
111.855629569135
20
6.86084154040068
30
0
41
1
10
111.863823305295
20
6.62530735772404
30
0
0
SPLINE
5
1F2
100
AcDbEntity
8
1
62
256
6
ByLayer
370
-1
48
1
60
0
100
AcDbSpline
70
4
71
3
72
8
73
4
40
0
40
0
40
0
40
0
40
1
40
1
40
1
40
1
41
1
10
117.183150404473
20
3.86981725214244
30
0
41
1
10
117.171147105029
20
3.86935257822827
30
0
41
1
10
117.159142963284
20
3.86890982887582
30
0
41
1
10
117.147138058729
20
3.86848900701685
30
0
0
SPLINE
5
1F3
100
AcDbEntity
8
1
62
256
6
ByLayer
370
-1
48
1
60
0
100
AcDbSpline
70
4
71
3
72
14
73
10
40
0
40
0
40
0
40
0
40
0.0050966481374712
40
0.0240065217780218
40
0.0435263913424613
40
0.0630462609069009
40
0.375364173937934
40
0.687682086968967
40
1
40
1
40
1
40
1
41
1
10
117.797040317878
20
4.56808588126617
30
0
41
1
10
117.796906575115
20
4.57192951692073
30
0
41
1
10
117.796276643311
20
4.59003402355077
30
0
41
1
10
117.795134717883
20
4.62285939981632
30
0
41
1
10
117.793614395744
20
4.66656203136765
30
0
41
1
10
117.784396442564
20
4.93153798687888
30
0
41
1
10
117.767496861735
20
5.41732723864945
30
0
41
1
10
117.742915653256
20
6.12392978667938
30
0
41
1
10
117.726528180937
20
6.59499815203267
30
0
41
1
10
117.718334444777
20
6.83053233470932
30
0
0
SPLINE
5
1F4
100
AcDbEntity
8
1
62
256
6
ByLayer
370
-1
48
1
60
0
100
AcDbSpline
70
4
71
3
72
19
73
15
40
0
40
0
40
0
40
0
40
0.0403657336157041
40
0.10630033064875
40
0.172234927681795
40
0.238169524714841
40
0.370038718780932
40
0.501907912847023
40
0.765646300979205
40
0.831580898012251
40
0.897515495045296
40
0.930482793561819
40
0.963450092078342
40
1
40
1
40
1
40
1
41
1
10
117.183152756275
20
3.86975302001096
30
0
41
1
10
117.184274741188
20
3.86979387148747
30
0
41
1
10
117.187229072386
20
3.86990430621162
30
0
41
1
10
117.192014415422
20
3.87010427794724
30
0
41
1
10
117.197509654699
20
3.87037698748924
30
0
41
1
10
117.20483509033
20
3.870794073117
30
0
41
1
10
117.213987332803
20
3.87140832524781
30
0
41
1
10
117.228617102502
20
3.87259279643445
30
0
41
1
10
117.241394623848
20
3.87389848036912
30
0
41
1
10
117.252323461463
20
3.8752018413455
30
0
41
1
10
117.256872309088
20
3.87577812419602
30
0
41
1
10
117.260507917885
20
3.87626058907708
30
0
41
1
10
117.263332113563
20
3.87664479462762
30
0
41
1
10
117.265247270373
20
3.87691069454092
30
0
41
1
10
117.266254146564
20
3.87705137378413
30
0
0
SPLINE
5
1F5
100
AcDbEntity
8
1
62
256
6
ByLayer
370
-1
48
1
60
0
100
AcDbSpline
70
4
71
3
72
22
73
18
40
0
40
0
40
0
40
0
40
0.002350527544136
40
0.0123487527332515
40
0.022346977922367
40
0.062339878678829
40
0.102332779435282
40
0.182318580948215
40
0.262304382461135
40
0.342290183974063
40
0.66223339002576
40
0.812206767862492
40
0.957493477641813
40
0.962180145699225
40
0.972178370888336
40
0.982176596077456
40
1
40
1
40
1
40
1
41
1
10
112.382851083419
20
3.72030520807311
30
0
41
1
10
112.382954825674
20
3.72029783176404
30
0
41
1
10
112.383501048627
20
3.72025907646611
30
0
41
1
10
112.384501583738
20
3.7201887280236
30
0
41
1
10
112.387216199589
20
3.71999915583135
30
0
41
1
10
112.391306997255
20
3.71971285826828
30
0
41
1
10
112.398617664103
20
3.71919996621327
30
0
41
1
10
112.407798353154
20
3.71855449915717
30
0
41
1
10
112.418789660389
20
3.71778256080776
30
0
41
1
10
112.440746755232
20
3.71624130622683
30
0
41
1
10
112.465905926407
20
3.71447528535285
30
0
41
1
10
112.494052749158
20
3.71249954950005
30
0
41
1
10
112.507775962449
20
3.71153606032112
30
0
41
1
10
112.515095025011
20
3.71102209005724
30
0
41
1
10
112.51622433373
20
3.71094278437309
30
0
41
1
10
112.51795463406
20
3.71082158116479
30
0
41
1
10
112.519227414143
20
3.71073305831172
30
0
41
1
10
112.52004279062
20
3.71067691602246
30
0
0
SPLINE
5
1F6
100
AcDbEntity
8
1
62
256
6
ByLayer
370
-1
48
1
60
0
100
AcDbSpline
70
4
71
3
72
8
73
4
40
0
40
0
40
0
40
0
40
1
40
1
40
1
40
1
41
1
10
111.785117577124
20
8.88775381624882
30
0
41
1
10
111.784698357967
20
8.89980453886949
30
0
41
1
10
111.784300982721
20
8.91185602721018
30
0
41
1
10
111.783925454019
20
8.92390820146861
30
0
0
SPLINE
5
1F7
100
AcDbEntity
8
1
62
256
6
ByLayer
370
-1
48
1
60
0
100
AcDbSpline
70
4
71
3
72
48
73
44
40
0
40
0
40
0
40
0
40
0.125
40
0.1875
40
0.1953125
40
0.203125
40
0.20703125
40
0.2109375
40
0.21875
40
0.25
40
0.28125
40
0.3125
40
0.3203125
40
0.328125
40
0.34375
40
0.375
40
0.3828125
40
0.390625
40
0.39453125
40
0.3984375
40
0.40625
40
0.4375
40
0.5
40
0.5625
40
0.578125
40
0.5859375
40
0.59375
40
0.609375
40
0.625
40
0.6875
40
0.75
40
0.8125
40
0.875
40
0.9375
40
0.953125
40
0.96826171875
40
0.96875
40
0.9697265625
40
0.970703125
40
0.97265625
40
0.9765625
40
0.984375
40
1
40
1
40
1
40
1
41
1
10
114.688856858041
20
9.6663570566821
30
0
41
1
10
114.690659534943
20
9.6304222199025
30
0
41
1
10
114.693363550296
20
9.57651996473314
30
0
41
1
10
114.696180232955
20
9.52037178226502
30
0
41
1
10
114.697306906018
20
9.49791250927777
30
0
41
1
10
114.697588857239
20
9.49229605834046
30
0
41
1
10
114.697813342988
20
9.48780910181455
30
0
41
1
10
114.698034793332
20
9.48332392616564
30
0
41
1
10
114.698630524766
20
9.47093920292795
30
0
41
1
10
114.699536604455
20
9.45051421106666
30
0
41
1
10
114.700586519071
20
9.42310409418442
30
0
41
1
10
114.701250961544
20
9.40256598755371
30
0
41
1
10
114.701640956712
20
9.38894405127226
30
0
41
1
10
114.70188626456
20
9.37986897874646
30
0
41
1
10
114.702318997005
20
9.363958755249
30
0
41
1
10
114.702750540056
20
9.34805849482643
30
0
41
1
10
114.703120769975
20
9.33442688668561
30
0
41
1
10
114.703275618855
20
9.32873957619833
30
0
41
1
10
114.703397225792
20
9.32421849496123
30
0
41
1
10
114.703514349971
20
9.31972684893137
30
0
41
1
10
114.703823928535
20
9.30731386902838
30
0
41
1
10
114.704443171242
20
9.27806032180052
30
0
41
1
10
114.704967509913
20
9.23363772242473
30
0
41
1
10
114.704905396307
20
9.19555456415617
30
0
41
1
10
114.704667638118
20
9.17338892911587
30
0
41
1
10
114.704560392742
20
9.16546286793564
30
0
41
1
10
114.704437072768
20
9.15759509160841
30
0
41
1
10
114.704283374683
20
9.14772153325538
30
0
41
1
10
114.70391477041
20
9.12400169044167
30
0
41
1
10
114.703361412117
20
9.08846076416515
30
0
41
1
10
114.702623751687
20
9.04105991648177
30
0
41
1
10
114.701886091258
20
8.99365906879837
30
0
41
1
10
114.701148430828
20
8.94625822111496
30
0
41
1
10
114.700595185506
20
8.91070758535244
30
0
41
1
10
114.700228276282
20
8.88713060121825
30
0
41
1
10
114.700105332877
20
8.87923045993767
30
0
41
1
10
114.70004003733
20
8.87503332553499
30
0
41
1
10
114.700030269142
20
8.87441778612396
30
0
41
1
10
114.700015208214
20
8.87343352771069
30
0
41
1
10
114.699993510368
20
8.87169721617178
30
0
41
1
10
114.69996877246
20
8.86810001605389
30
0
41
1
10
114.699996175096
20
8.8605271369334
30
0
41
1
10
114.70015419658
20
8.85363965991257
30
0
41
1
10
114.700311062957
20
8.84913043565606
30
0
0
SPLINE
5
1F8
100
AcDbEntity
8
1
62
256
6
ByLayer
370
-1
48
1
60
0
100
AcDbSpline
70
4
71
3
72
14
73
10
40
0
40
0
40
0
40
0
40
0.0050966481374561
40
0.0240065217780069
40
0.0435263913424468
40
0.0630462609068866
40
0.375364173937924
40
0.687682086968962
40
1
40
1
40
1
40
1
41
1
10
116.942694019678
20
9.74536357343246
30
0
41
1
10
116.938865010217
20
9.74522931979328
30
0
41
1
10
116.920829396701
20
9.74459698175272
30
0
41
1
10
116.888128930902
20
9.74345069435466
30
0
41
1
10
116.844592601058
20
9.74192456483209
30
0
41
1
10
116.580624959056
20
9.73267140056882
30
0
41
1
10
116.096684282052
20
9.71570726608616
30
0
41
1
10
115.392770570047
20
9.69103216138413
30
0
41
1
10
114.923494762043
20
9.67458209158278
30
0
41
1
10
114.688856858041
20
9.6663570566821
30
0
0
SPLINE
5
1F9
100
AcDbEntity
8
1
62
256
6
ByLayer
370
-1
48
1
60
0
100
AcDbSpline
70
4
71
3
72
153
73
149
40
0
40
0
40
0
40
0
40
0.125
40
0.25
40
0.375
40
0.3828125
40
0.390625
40
0.398193359375
40
0.4019775390625
40
0.405643463134766
40
0.40576171875
40
0.406005859375
40
0.40625
40
0.4072265625
40
0.40771484375
40
0.408203125
40
0.4091796875
40
0.41015625
40
0.412109375
40
0.4140625
40
0.416015625
40
0.4169921875
40
0.41796875
40
0.4189453125
40
0.41943359375
40
0.419921875
40
0.42041015625
40
0.4208984375
40
0.421875
40
0.422119140625
40
0.42236328125
40
0.422477722167969
40
0.426025390625
40
0.4296875
40
0.4375
40
0.439453125
40
0.44140625
40
0.443359375
40
0.4443359375
40
0.4453125
40
0.445556640625
40
0.44580078125
40
0.446044921875
40
0.4462890625
40
0.4464111328125
40
0.44677734375
40
0.447265625
40
0.44921875
40
0.453125
40
0.4609375
40
0.46484375
40
0.46875
40
0.46923828125
40
0.4697265625
40
0.47021484375
40
0.4705810546875
40
0.470703125
40
0.4708251953125
40
0.47119140625
40
0.471435546875
40
0.4716796875
40
0.4718017578125
40
0.47216796875
40
0.472412109375
40
0.47265625
40
0.4727783203125
40
0.474609375
40
0.4755859375
40
0.4765625
40
0.48046875
40
0.482421875
40
0.484375
40
0.486328125
40
0.48828125
40
0.490234375
40
0.4921875
40
0.494140625
40
0.49609375
40
0.498046875
40
0.5
40
0.501953125
40
0.50390625
40
0.505859375
40
0.5078125
40
0.509765625
40
0.51171875
40
0.515625
40
0.51953125
40
0.5224609375
40
0.5234375
40
0.525390625
40
0.5263671875
40
0.527099609375
40
0.52734375
40
0.52783203125
40
0.528076171875
40
0.5283203125
40
0.5284423828125
40
0.52880859375
40
0.529052734375
40
0.529296875
40
0.5294189453125
40
0.52978515625
40
0.5302734375
40
0.53125
40
0.5390625
40
0.546875
40
0.55078125
40
0.5517578125
40
0.552734375
40
0.55322265625
40
0.5537109375
40
0.553955078125
40
0.55419921875
40
0.554443359375
40
0.5545654296875
40
0.5546875
40
0.556640625
40
0.55859375
40
0.5625
40
0.56640625
40
0.5703125
40
0.573974609375
40
0.5758056640625
40
0.57763671875
40
0.577880859375
40
0.578125
40
0.5791015625
40
0.57958984375
40
0.580078125
40
0.5810546875
40
0.58203125
40
0.5859375
40
0.587890625
40
0.58984375
40
0.5908203125
40
0.591796875
40
0.5927734375
40
0.59375
40
0.593994140625
40
0.59423828125
40
0.594380187988281
40
0.601806640625
40
0.609375
40
0.625
40
0.75
40
0.875
40
1
40
1
40
1
40
1
41
1
10
116.887242236631
20
6.80199415225394
30
0
41
1
10
116.893298343423
20
6.62790749197103
30
0
41
1
10
116.905410557005
20
6.27973417140518
30
0
41
1
10
116.923578877379
20
5.75747419055639
30
0
41
1
10
116.936069597636
20
5.39842045372288
30
0
41
1
10
116.942882717776
20
5.20257296090458
30
0
41
1
10
116.944006409466
20
5.1702717251099
30
0
41
1
10
116.944934933651
20
5.14358070395323
30
0
41
1
10
116.945662560984
20
5.12266459123555
30
0
41
1
10
116.946029239325
20
5.11212418797621
30
0
41
1
10
116.946224406829
20
5.10651397333819
30
0
41
1
10
116.946253792845
20
5.10566925352055
30
0
41
1
10
116.946324762847
20
5.10362917547036
30
0
41
1
10
116.946407561182
20
5.10124908441179
30
0
41
1
10
116.94650218785
20
5.09852898034487
30
0
41
1
10
116.946596814519
20
5.09580887627794
30
0
41
1
10
116.946715097855
20
5.09240874619431
30
0
41
1
10
116.946904351192
20
5.08696853806046
30
0
41
1
10
116.947140917864
20
5.08016827789316
30
0
41
1
10
116.947424797869
20
5.07200796569239
30
0
41
1
10
116.947661364541
20
5.0652077055251
30
0
41
1
10
116.947850617878
20
5.05976749739125
30
0
41
1
10
116.947992557881
20
5.05568734129088
30
0
41
1
10
116.948110841217
20
5.05228721120722
30
0
41
1
10
116.948205467886
20
5.04956710714029
30
0
41
1
10
116.948276437887
20
5.04752702909011
30
0
41
1
10
116.948347407888
20
5.04548695103992
30
0
41
1
10
116.948442034557
20
5.042766846973
30
0
41
1
10
116.948524832892
20
5.04038675591445
30
0
41
1
10
116.948595802893
20
5.03834667786424
30
0
41
1
10
116.948625004092
20
5.03750727074984
30
0
41
1
10
116.948814257429
20
5.03206706261602
30
0
41
1
10
116.949169107437
20
5.02186667236506
30
0
41
1
10
116.949896919587
20
5.0009452469441
30
0
41
1
10
116.950547477934
20
4.98224453148401
30
0
41
1
10
116.951115237945
20
4.9659239070825
30
0
41
1
10
116.951399131703
20
4.95776339663496
30
0
41
1
10
116.951635732756
20
4.95096264085078
30
0
41
1
10
116.951825034226
20
4.9455217388533
30
0
41
1
10
116.951931525328
20
4.94246110138027
30
0
41
1
10
116.952002523694
20
4.94042061444614
30
0
41
1
10
116.952038023763
20
4.93940035820145
30
0
41
1
10
116.952073524746
20
4.93838008879194
30
0
41
1
10
116.952103109681
20
4.93752985299068
30
0
41
1
10
116.952138612329
20
4.93650955957472
30
0
41
1
10
116.9521859505
20
4.9351491495097
30
0
41
1
10
116.952322054588
20
4.9312378718688
30
0
41
1
10
116.952629814737
20
4.92239431214153
30
0
41
1
10
116.953292971549
20
4.90334248185476
30
0
41
1
10
116.954051745198
20
4.88155627373467
30
0
41
1
10
116.954808232182
20
4.85980302899671
30
0
41
1
10
116.955208745243
20
4.84826637632298
30
0
41
1
10
116.955443702081
20
4.84148932268766
30
0
41
1
10
116.955514331711
20
4.83945415124467
30
0
41
1
10
116.95557937599
20
4.83758424628101
30
0
41
1
10
116.955627350106
20
4.83621466876627
30
0
41
1
10
116.955657700956
20
4.83535339193719
30
0
41
1
10
116.955688256658
20
4.83448916205748
30
0
41
1
10
116.955725001475
20
4.83345027962841
30
0
41
1
10
116.955766174326
20
4.83225871881461
30
0
41
1
10
116.955793924851
20
4.83142810158694
30
0
41
1
10
116.955825112184
20
4.83045772991127
30
0
41
1
10
116.955853087892
20
4.82951759136111
30
0
41
1
10
116.955879319309
20
4.82844330379925
30
0
41
1
10
116.955893738454
20
4.82768062673767
30
0
41
1
10
116.955932217377
20
4.82492543662721
30
0
41
1
10
116.955887850514
20
4.82118539057757
30
0
41
1
10
116.955648170556
20
4.81627206771174
30
0
41
1
10
116.955077894231
20
4.80859908929844
30
0
41
1
10
116.953823763485
20
4.79952560726608
30
0
41
1
10
116.951526917998
20
4.78909655233707
30
0
41
1
10
116.949358496132
20
4.78127195701705
30
0
41
1
10
116.94673027537
20
4.77347143403938
30
0
41
1
10
116.943642684089
20
4.76573966991651
30
0
41
1
10
116.940096150666
20
4.7581213511609
30
0
41
1
10
116.936097617981
20
4.75065597794153
30
0
41
1
10
116.931654028915
20
4.74338305042747
30
0
41
1
10
116.926781962198
20
4.7363412188181
30
0
41
1
10
116.921497996563
20
4.72956913331291
30
0
41
1
10
116.915827337155
20
4.72310111147945
30
0
41
1
10
116.909795189122
20
4.71697147088534
30
0
41
1
10
116.903433897943
20
4.71120784519647
30
0
41
1
10
116.896775809096
20
4.70583786807865
30
0
41
1
10
116.889858175441
20
4.70088083715376
30
0
41
1
10
116.882718249834
20
4.6963560500437
30
0
41
1
10
116.872953652682
20
4.69091226940466
30
0
41
1
10
116.860386024835
20
4.68523669222276
30
0
41
1
10
116.846356314533
20
4.68067564698777
30
0
41
1
10
116.836151433807
20
4.67837221774795
30
0
41
1
10
116.82853867918
20
4.67706085294853
30
0
41
1
10
116.823490883972
20
4.67639167441439
30
0
41
1
10
116.818828449964
20
4.67595454240384
30
0
41
1
10
116.816370434238
20
4.67578027073827
30
0
41
1
10
116.814541396853
20
4.6756746937576
30
0
41
1
10
116.81332964422
20
4.67561685561094
30
0
41
1
10
116.812086558289
20
4.6755656597762
30
0
41
1
10
116.811288461767
20
4.67553519996883
30
0
41
1
10
116.810304393856
20
4.67549892499378
30
0
41
1
10
116.809290466531
20
4.67546297320285
30
0
41
1
10
116.808087091878
20
4.67542130005714
30
0
41
1
10
116.807224641937
20
4.67539161170191
30
0
41
1
10
116.806195010094
20
4.67535598722395
30
0
41
1
10
116.804830621257
20
4.67530849038582
30
0
41
1
10
116.802290454426
20
4.67521943908281
30
0
41
1
10
116.789465099663
20
4.6747682588888
30
0
41
1
10
116.766451906114
20
4.67396086555721
30
0
41
1
10
116.73932269832
20
4.67301097504679
30
0
41
1
10
116.721699007726
20
4.67239354921776
30
0
41
1
10
116.713566481462
20
4.67210858388361
30
0
41
1
10
116.710178155693
20
4.67198984839391
30
0
41
1
10
116.70746761881
20
4.67189486003821
30
0
41
1
10
116.705773582234
20
4.67183549233019
30
0
41
1
10
116.704418380814
20
4.67178799817188
30
0
41
1
10
116.703401993282
20
4.67175237755711
30
0
41
1
10
116.702555014627
20
4.67172269371466
30
0
41
1
10
116.701877438083
20
4.67169894664258
30
0
41
1
10
116.698828362486
20
4.67159208482363
30
0
41
1
10
116.69323867978
20
4.67139617157324
30
0
41
1
10
116.682398874898
20
4.67101621883381
30
0
41
1
10
116.66885010865
20
4.67054127819824
30
0
41
1
10
116.652591589151
20
4.66997134943554
30
0
41
1
10
116.636671788809
20
4.66941329418876
30
0
41
1
10
116.623631101295
20
4.66895616382701
30
0
41
1
10
116.613469526608
20
4.66859995835034
30
0
41
1
10
116.608050020109
20
4.66840998209611
30
0
41
1
10
116.604832188125
20
4.66829718369516
30
0
41
1
10
116.602799873188
20
4.66822594259983
30
0
41
1
10
116.600428839094
20
4.66814282798859
30
0
41
1
10
116.597719085844
20
4.66804783986149
30
0
41
1
10
116.595009332595
20
4.66795285173436
30
0
41
1
10
116.591622141033
20
4.66783411657548
30
0
41
1
10
116.583492881283
20
4.66754915219414
30
0
41
1
10
116.574008744909
20
4.66721669374923
30
0
41
1
10
116.56316973191
20
4.66683674124076
30
0
41
1
10
116.556395348786
20
4.66659927092297
30
0
41
1
10
116.550975842287
20
4.66640929466877
30
0
41
1
10
116.546911212412
20
4.66626681247809
30
0
41
1
10
116.542846582538
20
4.6661243302874
30
0
41
1
10
116.539798110132
20
4.66601746864441
30
0
41
1
10
116.537765795194
20
4.66594622754909
30
0
41
1
10
116.536891476372
20
4.66591557903618
30
0
41
1
10
116.526052463373
20
4.66553562652771
30
0
41
1
10
116.505051875688
20
4.66479946854258
30
0
41
1
10
116.462570142514
20
4.66331030702165
30
0
41
1
10
116.256967614692
20
4.65610308287683
30
0
41
1
10
115.888441172729
20
4.64318469758925
30
0
41
1
10
115.368168548782
20
4.62494697718327
30
0
41
1
10
115.021320132817
20
4.6127884969126
30
0
41
1
10
114.847895924835
20
4.60670925677729
30
0
0
SPLINE
5
1FA
100
AcDbEntity
8
1
62
256
6
ByLayer
370
-1
48
1
60
0
100
AcDbSpline
70
4
71
3
72
8
73
4
40
0
40
0
40
0
40
0
40
1
40
1
40
1
40
1
41
1
10
117.638305525855
20
9.12912870028839
30
0
41
1
10
117.638768431544
20
9.11707955019051
30
0
41
1
10
117.639209496102
20
9.1050295545748
30
0
41
1
10
117.639628716607
20
9.0929787932341
30
0
0
SPLINE
5
1FB
100
AcDbEntity
8
1
62
256
6
ByLayer
370
-1
48
1
60
0
100
AcDbSpline
70
4
71
3
72
19
73
15
40
0
40
0
40
0
40
0
40
0.0403657336152864
40
0.106300330648335
40
0.172234927681384
40
0.238169524714433
40
0.370038718780531
40
0.501907912846629
40
0.765646300978825
40
0.831580898011875
40
0.897515495044923
40
0.930482793561448
40
0.963450092077973
40
1
40
1
40
1
40
1
41
1
10
112.399004993796
20
9.5860866724224
30
0
41
1
10
112.397883008883
20
9.58604582094588
30
0
41
1
10
112.394928677685
20
9.58593538622173
30
0
41
1
10
112.39014333465
20
9.58573541448615
30
0
41
1
10
112.384648095373
20
9.58546270494412
30
0
41
1
10
112.377322659741
20
9.58504561931636
30
0
41
1
10
112.368170417269
20
9.58443136718554
30
0
41
1
10
112.35354064757
20
9.58324689599891
30
0
41
1
10
112.340763126224
20
9.58194121206424
30
0
41
1
10
112.329834288609
20
9.58063785108786
30
0
41
1
10
112.325285440983
20
9.58006156823734
30
0
41
1
10
112.321649832186
20
9.57957910335628
30
0
41
1
10
112.318825636509
20
9.57919489780573
30
0
41
1
10
112.316910479699
20
9.57892899789243
30
0
41
1
10
112.315903603507
20
9.5787883186492
30
0
0
SPLINE
5
1FC
100
AcDbEntity
8
1
62
256
6
ByLayer
370
-1
48
1
60
0
100
AcDbSpline
70
4
71
3
72
153
73
149
40
0
40
0
40
0
40
0
40
0.125
40
0.25
40
0.375
40
0.3828125
40
0.390625
40
0.398193359375
40
0.4019775390625
40
0.405643463134766
40
0.40576171875
40
0.406005859375
40
0.40625
40
0.4072265625
40
0.40771484375
40
0.408203125
40
0.4091796875
40
0.41015625
40
0.412109375
40
0.4140625
40
0.416015625
40
0.4169921875
40
0.41796875
40
0.4189453125
40
0.41943359375
40
0.419921875
40
0.42041015625
40
0.4208984375
40
0.421875
40
0.422119140625
40
0.42236328125
40
0.422477722167969
40
0.426025390625
40
0.4296875
40
0.4375
40
0.439453125
40
0.44140625
40
0.443359375
40
0.4443359375
40
0.4453125
40
0.445556640625
40
0.44580078125
40
0.446044921875
40
0.4462890625
40
0.4464111328125
40
0.44677734375
40
0.447265625
40
0.44921875
40
0.453125
40
0.4609375
40
0.46484375
40
0.46875
40
0.46923828125
40
0.4697265625
40
0.47021484375
40
0.4705810546875
40
0.470703125
40
0.4708251953125
40
0.47119140625
40
0.471435546875
40
0.4716796875
40
0.4718017578125
40
0.47216796875
40
0.472412109375
40
0.47265625
40
0.4727783203125
40
0.474609375
40
0.4755859375
40
0.4765625
40
0.48046875
40
0.482421875
40
0.484375
40
0.486328125
40
0.48828125
40
0.490234375
40
0.4921875
40
0.494140625
40
0.49609375
40
0.498046875
40
0.5
40
0.501953125
40
0.50390625
40
0.505859375
40
0.5078125
40
0.509765625
40
0.51171875
40
0.515625
40
0.51953125
40
0.5224609375
40
0.5234375
40
0.525390625
40
0.5263671875
40
0.527099609375
40
0.52734375
40
0.52783203125
40
0.528076171875
40
0.5283203125
40
0.5284423828125
40
0.52880859375
40
0.529052734375
40
0.529296875
40
0.5294189453125
40
0.52978515625
40
0.5302734375
40
0.53125
40
0.5390625
40
0.546875
40
0.55078125
40
0.5517578125
40
0.552734375
40
0.55322265625
40
0.5537109375
40
0.553955078125
40
0.55419921875
40
0.554443359375
40
0.5545654296875
40
0.5546875
40
0.556640625
40
0.55859375
40
0.5625
40
0.56640625
40
0.5703125
40
0.573974609375
40
0.5758056640625
40
0.57763671875
40
0.577880859375
40
0.578125
40
0.5791015625
40
0.57958984375
40
0.580078125
40
0.5810546875
40
0.58203125
40
0.5859375
40
0.587890625
40
0.58984375
40
0.5908203125
40
0.591796875
40
0.5927734375
40
0.59375
40
0.593994140625
40
0.59423828125
40
0.594380187988281
40
0.601806640625
40
0.609375
40
0.625
40
0.75
40
0.875
40
1
40
1
40
1
40
1
41
1
10
114.700311062957
20
8.84913043565606
30
0
41
1
10
114.873735270939
20
8.8552096757914
30
0
41
1
10
115.220583686904
20
8.86736815606207
30
0
41
1
10
115.740856310851
20
8.88560587646805
30
0
41
1
10
116.098543739814
20
8.89814430924716
30
0
41
1
10
116.293645973794
20
8.9049834543994
30
0
41
1
10
116.325824293635
20
8.90611143840889
30
0
41
1
10
116.352413747398
20
8.90704350940621
30
0
41
1
10
116.373250267992
20
8.90777391615708
30
0
41
1
10
116.383750561835
20
8.90814199514966
30
0
41
1
10
116.389339427912
20
8.90833790816183
30
0
41
1
10
116.390180933316
20
8.90836740642786
30
0
41
1
10
116.392213248253
20
8.90843864752318
30
0
41
1
10
116.394584282347
20
8.90852176213443
30
0
41
1
10
116.397294035597
20
8.90861675026153
30
0
41
1
10
116.400003788846
20
8.90871173838866
30
0
41
1
10
116.403390980408
20
8.90883047354754
30
0
41
1
10
116.408810486908
20
8.90902044980177
30
0
41
1
10
116.415584870032
20
8.90925792011956
30
0
41
1
10
116.423714129781
20
8.90954288450089
30
0
41
1
10
116.430488512906
20
8.90978035481868
30
0
41
1
10
116.435908019405
20
8.90997033107291
30
0
41
1
10
116.43997264928
20
8.91011281326359
30
0
41
1
10
116.443359840842
20
8.91023154842247
30
0
41
1
10
116.446069594091
20
8.9103265365496
30
0
41
1
10
116.448101909029
20
8.91039777764493
30
0
41
1
10
116.450134223966
20
8.91046901874026
30
0
41
1
10
116.452843977216
20
8.91056400686739
30
0
41
1
10
116.455215011309
20
8.9106471214786
30
0
41
1
10
116.457247326247
20
8.91071836257393
30
0
41
1
10
116.458083539163
20
8.91074767531629
30
0
41
1
10
116.463503045663
20
8.91093765157052
30
0
41
1
10
116.473664620349
20
8.91129385704721
30
0
41
1
10
116.49450643343
20
8.91202444932176
30
0
41
1
10
116.513135987022
20
8.91267749269568
30
0
41
1
10
116.529394506521
20
8.91324742145838
30
0
41
1
10
116.537523963762
20
8.91353239964459
30
0
41
1
10
116.544298840617
20
8.91376990447458
30
0
41
1
10
116.54971903834
20
8.91395992904586
30
0
41
1
10
116.552768029163
20
8.91406682692667
30
0
41
1
10
116.554800751429
20
8.91413809649455
30
0
41
1
10
116.55581712529
20
8.91417373216828
30
0
41
1
10
116.556833512267
20
8.91420936875872
30
0
41
1
10
116.557680512664
20
8.91423906670386
30
0
41
1
10
116.558696923556
20
8.91427470496598
30
0
41
1
10
116.56005215685
20
8.91432222396099
30
0
41
1
10
116.563948550898
20
8.9144588479449
30
0
41
1
10
116.572758458211
20
8.9147677836873
30
0
41
1
10
116.591737790531
20
8.91543347365021
30
0
41
1
10
116.613441095552
20
8.9161951456914
30
0
41
1
10
116.635111562626
20
8.91695452233341
30
0
41
1
10
116.646604314854
20
8.91735656528837
30
0
41
1
10
116.653355579754
20
8.9175924196235
30
0
41
1
10
116.655383006755
20
8.91766331904813
30
0
41
1
10
116.657245796166
20
8.91772861178558
30
0
41
1
10
116.658610162025
20
8.9177767691543
30
0
41
1
10
116.659468161435
20
8.91780723593942
30
0
41
1
10
116.66032910266
20
8.91783790835964
30
0
41
1
10
116.661364031827
20
8.91787479353616
30
0
41
1
10
116.662551058392
20
8.91791612366089
30
0
41
1
10
116.663378514871
20
8.91794398018811
30
0
41
1
10
116.664345193989
20
8.91797528665114
30
0
41
1
10
116.665281755028
20
8.91800336922191
30
0
41
1
10
116.666351954602
20
8.91802970083916
30
0
41
1
10
116.667111729447
20
8.91804417506273
30
0
41
1
10
116.669856435227
20
8.91808280096927
30
0
41
1
10
116.673582249272
20
8.91803826463183
30
0
41
1
10
116.678476875461
20
8.91779766913498
30
0
41
1
10
116.686120655875
20
8.9172252144474
30
0
41
1
10
116.695159610569
20
8.91596629312559
30
0
41
1
10
116.705548979795
20
8.91366067406176
30
0
41
1
10
116.713343800168
20
8.9114839691772
30
0
41
1
10
116.721114639801
20
8.90884570903864
30
0
41
1
10
116.728816982227
20
8.90574632366014
30
0
41
1
10
116.73640631098
20
8.9021862430557
30
0
41
1
10
116.7438432762
20
8.89817243662588
30
0
41
1
10
116.751088528029
20
8.89371187377125
30
0
41
1
10
116.758103563343
20
8.88882119655128
30
0
41
1
10
116.764849879018
20
8.88351704702549
30
0
41
1
10
116.771293288076
20
8.87782472662016
30
0
41
1
10
116.777399603537
20
8.87176953676172
30
0
41
1
10
116.78314129689
20
8.86538394648358
30
0
41
1
10
116.788490839624
20
8.85870042481918
30
0
41
1
10
116.793429007549
20
8.85175636692665
30
0
41
1
10
116.797936576479
20
8.84458916796407
30
0
41
1
10
116.803359641889
20
8.83478727163765
30
0
41
1
10
116.809013621786
20
8.82217163749348
30
0
41
1
10
116.813557310867
20
8.80808833597712
30
0
41
1
10
116.815851974863
20
8.79784447426525
30
0
41
1
10
116.817158349523
20
8.79020264015224
30
0
41
1
10
116.817824981631
20
8.78513556318677
30
0
41
1
10
116.818260450222
20
8.78045531943795
30
0
41
1
10
116.818434058732
20
8.77798791449132
30
0
41
1
10
116.81853923396
20
8.77615189048029
30
0
41
1
10
116.818596852015
20
8.77493550914943
30
0
41
1
10
116.818647853034
20
8.77368767483244
30
0
41
1
10
116.818678196933
20
8.77288652971043
30
0
41
1
10
116.818714333871
20
8.77189870282075
30
0
41
1
10
116.818750148854
20
8.77088090245772
30
0
41
1
10
116.818791663421
20
8.76967293110872
30
0
41
1
10
116.818821238803
20
8.76880718674889
30
0
41
1
10
116.818856727719
20
8.76777362187988
30
0
41
1
10
116.818904043817
20
8.76640402129891
30
0
41
1
10
116.818992756253
20
8.76385415144398
30
0
41
1
10
116.819442219571
20
8.75097980590897
30
0
41
1
10
116.820246540527
20
8.72787870569871
30
0
41
1
10
116.821192816417
20
8.70064586873895
30
0
41
1
10
116.821807892754
20
8.6829548585095
30
0
41
1
10
116.822091773709
20
8.67479126731629
30
0
41
1
10
116.822210057375
20
8.6713899986936
30
0
41
1
10
116.822304684271
20
8.66866910799968
30
0
41
1
10
116.822363826067
20
8.66696860048017
30
0
41
1
10
116.822411139496
20
8.66560822241055
30
0
41
1
10
116.822446624563
20
8.66458795244316
30
0
41
1
10
116.82247619545
20
8.66373773846757
30
0
41
1
10
116.822499852157
20
8.66305757369139
30
0
41
1
10
116.822606307334
20
8.65999685112035
30
0
41
1
10
116.822801475076
20
8.65438581673422
30
0
41
1
10
116.82317998198
20
8.64350460555926
30
0
41
1
10
116.823653115323
20
8.62990408522467
30
0
41
1
10
116.824220875335
20
8.61358346082312
30
0
41
1
10
116.824776807013
20
8.59760284942996
30
0
41
1
10
116.825232197856
20
8.58451234860792
30
0
41
1
10
116.825587047863
20
8.57431195835696
30
0
41
1
10
116.8257763012
20
8.56887175022311
30
0
41
1
10
116.825888670369
20
8.56564162664367
30
0
41
1
10
116.825959640371
20
8.56360154859345
30
0
41
1
10
116.826042438706
20
8.56122145753491
30
0
41
1
10
116.826137065374
20
8.55850135346799
30
0
41
1
10
116.826231692043
20
8.55578124940106
30
0
41
1
10
116.826349975379
20
8.5523811193174
30
0
41
1
10
116.826633855385
20
8.54422080711666
30
0
41
1
10
116.826965048725
20
8.53470044288244
30
0
41
1
10
116.827343555399
20
8.52382002661474
30
0
41
1
10
116.827580122071
20
8.51701976644745
30
0
41
1
10
116.827769375408
20
8.5115795583136
30
0
41
1
10
116.827911315411
20
8.50749940221323
30
0
41
1
10
116.828053255414
20
8.50341924611286
30
0
41
1
10
116.828159710416
20
8.50035912903755
30
0
41
1
10
116.828230680418
20
8.49831905098736
30
0
41
1
10
116.828261212304
20
8.49744139240951
30
0
41
1
10
116.828639718978
20
8.48656097614185
30
0
41
1
10
116.82937307566
20
8.46548016962322
30
0
41
1
10
116.830856570472
20
8.42283616313031
30
0
41
1
10
116.838036368953
20
8.2164482670527
30
0
41
1
10
116.850905595884
20
7.84651411395149
30
0
41
1
10
116.869073916258
20
7.32425413310273
30
0
41
1
10
116.88118612984
20
6.97608081253688
30
0
41
1
10
116.887242236631
20
6.80199415225394
30
0
0
SPLINE
5
1FD
100
AcDbEntity
8
1
62
256
6
ByLayer
370
-1
48
1
60
0
100
AcDbSpline
70
4
71
3
72
22
73
18
40
0
40
0
40
0
40
0
40
0.0178234039225491
40
0.0278216291116635
40
0.037819854300778
40
0.112806543219136
40
0.187793232137495
40
0.337766609974212
40
0.497738213000043
40
0.657709816025875
40
0.817681419051706
40
0.897667220564622
40
0.977653022077538
40
0.982652134672095
40
0.987651247266652
40
0.997649472455767
40
1
40
1
40
1
40
1
41
1
10
117.63109893223
20
9.21254988517339
30
0
41
1
10
117.630986262031
20
9.21336246616457
30
0
41
1
10
117.6308095062
20
9.21463082074746
30
0
41
1
10
117.630568358678
20
9.21635504481003
30
0
41
1
10
117.629961943917
20
9.22068542461429
30
0
41
1
10
117.628940676981
20
9.22797869133547
30
0
41
1
10
117.627025958284
20
9.24165355520068
30
0
41
1
10
117.624568937196
20
9.25920294940687
30
0
41
1
10
117.621569456905
20
9.28062688519103
30
0
41
1
10
117.618506157886
20
9.30250664939612
30
0
41
1
10
117.615953408702
20
9.3207397862337
30
0
41
1
10
117.613902437484
20
9.33537703929417
30
0
41
1
10
117.612852912828
20
9.34287805175794
30
0
41
1
10
117.612285959235
20
9.34693761335515
30
0
41
1
10
117.612160268699
20
9.34783692799863
30
0
41
1
10
117.612051817199
20
9.34861089738214
30
0
41
1
10
117.611975200836
20
9.34915516773077
30
0
41
1
10
117.611960633802
20
9.34925853804336
30
0
0
SPLINE
5
1FE
100
AcDbEntity
8
1
62
256
6
ByLayer
370
-1
48
1
60
0
100
AcDbSpline
70
4
71
3
72
8
73
4
40
0
40
0
40
0
40
0
40
1
40
1
40
1
40
1
41
1
10
117.797040172947
20
4.56808587618457
30
0
41
1
10
117.797459392105
20
4.55603515356387
30
0
41
1
10
117.79785676735
20
4.54398366522318
30
0
41
1
10
117.798232296052
20
4.53193149096475
30
0
0
SPLINE
5
1FF
100
AcDbEntity
8
1
62
256
6
ByLayer
370
-1
48
1
60
0
100
AcDbSpline
70
4
71
3
72
8
73
4
40
0
40
0
40
0
40
0
40
1
40
1
40
1
40
1
41
1
10
112.639463725331
20
3.71047626448569
30
0
41
1
10
112.627458859348
20
3.71005544397886
30
0
41
1
10
112.615453230559
20
3.70965655082458
30
0
41
1
10
112.603446918463
20
3.70927958766427
30
0
0
SPLINE
5
200
100
AcDbEntity
8
1
62
256
6
ByLayer
370
-1
48
1
60
0
100
AcDbSpline
70
4
71
3
72
19
73
15
40
0
40
0
40
0
40
0
40
0.0403657336154846
40
0.106300330648539
40
0.172234927681594
40
0.238169524714648
40
0.370038718780757
40
0.501907912846866
40
0.765646300979083
40
0.831580898012138
40
0.897515495045192
40
0.93048279356172
40
0.963450092078247
40
1
40
1
40
1
40
1
41
1
10
111.943788236508
20
4.32670863135911
30
0
41
1
10
111.943828932532
20
4.32558236064611
30
0
41
1
10
111.943938947019
20
4.32261674438314
30
0
41
1
10
111.944138157802
20
4.31781312211422
30
0
41
1
10
111.944409829602
20
4.31229689191591
30
0
41
1
10
111.944825328093
20
4.30494347431068
30
0
41
1
10
111.945437242809
20
4.29575627175845
30
0
41
1
10
111.946617206725
20
4.28107061871597
30
0
41
1
10
111.947917922138
20
4.26824428931437
30
0
41
1
10
111.949216323432
20
4.25727370531499
30
0
41
1
10
111.949790413353
20
4.25270748183067
30
0
41
1
10
111.950271042309
20
4.24905798559862
30
0
41
1
10
111.950653785841
20
4.24622300195264
30
0
41
1
10
111.950918673925
20
4.24430052955458
30
0
41
1
10
111.951058817841
20
4.24328980725994
30
0
0
SPLINE
5
201
100
AcDbEntity
8
1
62
256
6
ByLayer
370
-1
48
1
60
0
100
AcDbSpline
70
4
71
3
72
13
73
9
40
0
40
0
40
0
40
0
40
0.312317913031031
40
0.624635826062063
40
0.936953739093094
40
0.975993478221973
40
0.994903351862524
40
1
40
1
40
1
40
1
41
1
10
114.89330089203
20
3.78948263575126
30
0
41
1
10
115.127938796032
20
3.79770767065196
30
0
41
1
10
115.597214604036
20
3.81415774045331
30
0
41
1
10
116.301128316041
20
3.83883284515534
30
0
41
1
10
116.799733862045
20
3.85631104431928
30
0
41
1
10
117.077908095891
20
3.86606220874256
30
0
41
1
10
117.12527343069
20
3.8677225608219
30
0
41
1
10
117.14330905218
20
3.86835466966642
30
0
41
1
10
117.147138063789
20
3.86848886153197
30
0
0
SPLINE
5
202
100
AcDbEntity
8
1
62
256
6
ByLayer
370
-1
48
1
60
0
100
AcDbSpline
70
4
71
3
72
22
73
18
40
0
40
0
40
0
40
0
40
0.002350527544032
40
0.01234875273315
40
0.0223469779222679
40
0.0623398786787399
40
0.102332779435203
40
0.182318580948156
40
0.262304382461095
40
0.342290183974043
40
0.662233390025819
40
0.812206767862589
40
0.957493477641946
40
0.962180145699359
40
0.972178370888472
40
0.982176596077595
40
1
40
1
40
1
40
1
41
1
10
117.787248631458
20
4.31049301566838
30
0
41
1
10
117.787255979698
20
4.3105971542025
30
0
41
1
10
117.78729458752
20
4.31114546363827
30
0
41
1
10
117.787364668265
20
4.31214982063079
30
0
41
1
10
117.787553519078
20
4.31487480587322
30
0
41
1
10
117.787838727192
20
4.31898122972214
30
0
41
1
10
117.788349667538
20
4.32631982212996
30
0
41
1
10
117.788992678397
20
4.3355355799213
30
0
41
1
10
117.789761679288
20
4.34656887216403
30
0
41
1
10
117.79129706893
20
4.36860983954259
30
0
41
1
10
117.793056369562
20
4.39386511466387
30
0
41
1
10
117.795024587143
20
4.42211945370582
30
0
41
1
10
117.795984409955
20
4.43589508744162
30
0
41
1
10
117.796496424407
20
4.44324210763361
30
0
41
1
10
117.796575428309
20
4.4443757301282
30
0
41
1
10
117.796696170302
20
4.44611263992414
30
0
41
1
10
117.796784356299
20
4.44739028182056
30
0
41
1
10
117.79684028495
20
4.44820877290297
30
0
0
SPLINE
5
203
100
AcDbEntity
8
1
62
256
6
ByLayer
370
-1
48
1
60
0
100
AcDbSpline
70
4
71
3
72
22
73
18
40
0
40
0
40
0
40
0
40
0.0023505275440093
40
0.0123487527331274
40
0.0223469779222455
40
0.0623398786787179
40
0.102332779435181
40
0.182318580948135
40
0.262304382461075
40
0.342290183974025
40
0.662233390025804
40
0.812206767862575
40
0.957493477641934
40
0.962180145699347
40
0.97217837088846
40
0.982176596077583
40
1
40
1
40
1
40
1
41
1
10
111.794909118614
20
9.14534667676497
30
0
41
1
10
111.794901770374
20
9.14524253823086
30
0
41
1
10
111.794863162552
20
9.14469422879509
30
0
41
1
10
111.794793081806
20
9.14368987180256
30
0
41
1
10
111.794604230993
20
9.14096488656014
30
0
41
1
10
111.794319022879
20
9.13685846271122
30
0
41
1
10
111.793808082533
20
9.1295198703034
30
0
41
1
10
111.793165071674
20
9.12030411251206
30
0
41
1
10
111.792396070783
20
9.10927082026933
30
0
41
1
10
111.790860681141
20
9.08722985289077
30
0
41
1
10
111.78910138051
20
9.06197457776949
30
0
41
1
10
111.787133162928
20
9.03372023872757
30
0
41
1
10
111.786173340117
20
9.01994460499174
30
0
41
1
10
111.785661325665
20
9.01259758479975
30
0
41
1
10
111.785582321763
20
9.01146396230516
30
0
41
1
10
111.785461579769
20
9.00972705250922
30
0
41
1
10
111.785373393772
20
9.0084494106128
30
0
41
1
10
111.785317465121
20
9.00763091953039
30
0
0
SPLINE
5
204
100
AcDbEntity
8
1
62
256
6
ByLayer
370
-1
48
1
60
0
100
AcDbSpline
70
4
71
3
72
79
73
75
40
0
40
0
40
0
40
0
40
0.0017245864916256
40
0.003979226371753
40
0.0084885061320079
40
0.0129977858922628
40
0.0220163454127727
40
0.0310349049332825
40
0.0671091430153217
40
0.1392576191794
40
0.211406095343479
40
0.220424654863989
40
0.224933934624243
40
0.228315894444435
40
0.229443214384498
40
0.231697854264626
40
0.233952494144753
40
0.237334453964944
40
0.238461773905008
40
0.240716413785136
40
0.242971053665263
40
0.247480333425518
40
0.249734973305646
40
0.256498892946028
40
0.265517452466538
40
0.283554571507557
40
0.292573131028067
40
0.319628809589597
40
0.355703047671636
40
0.391777285753675
40
0.409814404794695
40
0.427851523835714
40
0.445888642876734
40
0.463925761917754
40
0.481962880958773
40
0.499999999999793
40
0.518037119040813
40
0.536074238081832
40
0.554111357122852
40
0.572148476163871
40
0.590185595204889
40
0.608222714245911
40
0.62625983328693
40
0.64429695232795
40
0.66233407136897
40
0.680371190409991
40
0.716445428492029
40
0.725463988012537
40
0.734482547533049
40
0.751392346634004
40
0.752519666574068
40
0.754774306454195
40
0.757028946334323
40
0.760410906154517
40
0.761538226094578
40
0.763792865974707
40
0.766047505854832
40
0.769429465675026
40
0.770556785615087
40
0.771684105555149
40
0.775066065375344
40
0.779575345135597
40
0.784084624895852
40
0.788593904656107
40
0.824668142738146
40
0.860742380820186
40
0.932890856984264
40
0.968965095066303
40
0.987002214107323
40
0.991511493867578
40
0.994893453687768
40
0.996020773627833
40
0.99827541350796
40
1
40
1
40
1
40
1
41
1
10
111.97019711627
20
4.10658115439
30
0
41
1
10
111.970244511703
20
4.1062448278075
30
0
41
1
10
111.970353465759
20
4.10547439808116
30
0
41
1
10
111.970585691722
20
4.103853565001
30
0
41
1
10
111.970898949104
20
4.10173773909068
30
0
41
1
10
111.971416327391
20
4.09838255775975
30
0
41
1
10
111.972104280025
20
4.09415469106094
30
0
41
1
10
111.973882392217
20
4.08395169638766
30
0
41
1
10
111.978396432815
20
4.06182472707957
30
0
41
1
10
111.987900053334
20
4.02755119049652
30
0
41
1
10
111.998991759171
20
3.99863552183061
30
0
41
1
10
112.006149813891
20
3.98268673600109
30
0
41
1
10
112.007594089484
20
3.97954647259741
30
0
41
1
10
112.008374159569
20
3.97787410190077
30
0
41
1
10
112.008963404297
20
3.97662089888993
30
0
41
1
10
112.009457060953
20
3.97557724135029
30
0
41
1
10
112.010153067101
20
3.9741174109293
30
0
41
1
10
112.010754876812
20
3.97286753567997
30
0
41
1
10
112.011360869481
20
3.97161881762349
30
0
41
1
10
112.011868477001
20
3.97057894890904
30
0
41
1
10
112.012686221709
20
3.96891674298036
30
0
41
1
10
112.013512320826
20
3.96725695416393
30
0
41
1
10
112.014763987308
20
3.96477101987949
30
0
41
1
10
112.016455117555
20
3.96146321519106
30
0
41
1
10
112.019698846213
20
3.95528438838932
30
0
41
1
10
112.023291757577
20
3.94873888809374
30
0
41
1
10
112.028879642106
20
3.9389963994862
30
0
41
1
10
112.03668085334
20
3.92614802809987
30
0
41
1
10
112.048235351085
20
3.90887226975448
30
0
41
1
10
112.059577311022
20
3.89364226847852
30
0
41
1
10
112.069131762022
20
3.88178221652791
30
0
41
1
10
112.076532581897
20
3.87305885433005
30
0
41
1
10
112.084162923499
20
3.86451687112731
30
0
41
1
10
112.092015408534
20
3.85616474772246
30
0
41
1
10
112.100082658711
20
3.84801096491833
30
0
41
1
10
112.108357295735
20
3.84006400351765
30
0
41
1
10
112.116831941315
20
3.83233234432322
30
0
41
1
10
112.125497652815
20
3.82482278417905
30
0
41
1
10
112.134345487603
20
3.81754211992913
30
0
41
1
10
112.143366503042
20
3.81049714841748
30
0
41
1
10
112.1525517565
20
3.8036946664881
30
0
41
1
10
112.161891225347
20
3.79713946475189
30
0
41
1
10
112.171374886954
20
3.79083633381981
30
0
41
1
10
112.180992718691
20
3.78479006430282
30
0
41
1
10
112.190734697929
20
3.77900544681188
30
0
41
1
10
112.203875458553
20
3.77164497562387
30
0
41
1
10
112.215553935274
20
3.76567159663872
30
0
41
1
10
112.225666461193
20
3.76089168291082
30
0
41
1
10
112.232222220531
20
3.75789259305296
30
0
41
1
10
112.237323301667
20
3.75566866341009
30
0
41
1
10
112.241160645502
20
3.7540518970539
30
0
41
1
10
112.24222716859
20
3.75360546123119
30
0
41
1
10
112.243721386165
20
3.75298542852272
30
0
41
1
10
112.245003281133
20
3.75245930597956
30
0
41
1
10
112.246286054872
20
3.75193745199471
30
0
41
1
10
112.247355575789
20
3.7515052417952
30
0
41
1
10
112.248853894293
20
3.75090512902534
30
0
41
1
10
112.250139201455
20
3.75039608507191
30
0
41
1
10
112.251210954473
20
3.74997544181369
30
0
41
1
10
112.252283035061
20
3.74955657875515
30
0
41
1
10
112.253999398512
20
3.74889209508129
30
0
41
1
10
112.256361788513
20
3.74799214315823
30
0
41
1
10
112.25894175668
20
3.747027481282
30
0
41
1
10
112.267550486617
20
3.74386897778976
30
0
41
1
10
112.282248725426
20
3.73893602573094
30
0
41
1
10
112.310023315097
20
3.73109445109512
30
0
41
1
10
112.337801621954
20
3.72539374471225
30
0
41
1
10
112.361821269015
20
3.7221880180702
30
0
41
1
10
112.372933351235
20
3.72109621183529
30
0
41
1
10
112.377778247164
20
3.72068789880331
30
0
41
1
10
112.379476039109
20
3.72055387926514
30
0
41
1
10
112.380761582748
20
3.7204564472211
30
0
41
1
10
112.381740318007
20
3.72038456906057
30
0
41
1
10
112.382513546679
20
3.72032920769888
30
0
41
1
10
112.382851083419
20
3.72030520807309
30
0
0
SPLINE
5
205
100
AcDbEntity
8
1
62
256
6
ByLayer
370
-1
48
1
60
0
100
AcDbSpline
70
4
71
3
72
19
73
15
40
0
40
0
40
0
40
0
40
0.0403657336155083
40
0.106300330648565
40
0.172234927681621
40
0.238169524714678
40
0.37003871878079
40
0.501907912846903
40
0.765646300979129
40
0.831580898012185
40
0.897515495045242
40
0.93048279356177
40
0.963450092078298
40
1
40
1
40
1
40
1
41
1
10
117.638369513564
20
9.12913106107422
30
0
41
1
10
117.638328817539
20
9.13025733178725
30
0
41
1
10
117.638218803053
20
9.13322294805022
30
0
41
1
10
117.63801959227
20
9.13802657031914
30
0
41
1
10
117.63774792047
20
9.14354280051745
30
0
41
1
10
117.637332421979
20
9.15089621812271
30
0
41
1
10
117.636720507263
20
9.16008342067491
30
0
41
1
10
117.635540543347
20
9.17476907371739
30
0
41
1
10
117.634239827934
20
9.18759540311899
30
0
41
1
10
117.632941426639
20
9.19856598711837
30
0
41
1
10
117.632367336719
20
9.20313221060272
30
0
41
1
10
117.631886707762
20
9.20678170683473
30
0
41
1
10
117.63150396423
20
9.20961669048071
30
0
41
1
10
117.631239076146
20
9.21153916287878
30
0
41
1
10
117.63109893223
20
9.21254988517342
30
0
0
SPLINE
5
206
100
AcDbEntity
8
1
62
256
6
ByLayer
370
-1
48
1
60
0
100
AcDbSpline
70
4
71
3
72
8
73
4
40
0
40
0
40
0
40
0
40
1
40
1
40
1
40
1
41
1
10
116.94269402474
20
9.74536342794767
30
0
41
1
10
116.954698890723
20
9.7457842484545
30
0
41
1
10
116.966704519512
20
9.74618314160878
30
0
41
1
10
116.978710831609
20
9.74656010476909
30
0
0
SPLINE
5
207
100
AcDbEntity
8
1
62
256
6
ByLayer
370
-1
48
1
60
0
100
AcDbSpline
70
4
71
3
72
13
73
9
40
0
40
0
40
0
40
0
40
0.312317913031033
40
0.624635826062066
40
0.9369537390931
40
0.975993478221979
40
0.99490335186253
40
1
40
1
40
1
40
1
41
1
10
111.863823305295
20
6.62530735772404
30
0
41
1
10
111.872017041454
20
6.3897731750474
30
0
41
1
10
111.888404513774
20
5.91870480969411
30
0
41
1
10
111.912985722253
20
5.21210226166417
30
0
41
1
10
111.930397411592
20
4.71159212347629
30
0
41
1
10
111.940111469891
20
4.43235530924832
30
0
41
1
10
111.941765503829
20
4.38480904656549
30
0
41
1
10
111.942395207309
20
4.36670453193176
30
0
41
1
10
111.942528888534
20
4.36286089411999
30
0
0
SPLINE
5
208
100
AcDbEntity
8
1
62
256
6
ByLayer
370
-1
48
1
60
0
100
AcDbSpline
70
4
71
3
72
22
73
18
40
0
40
0
40
0
40
0
40
0.0178234039225451
40
0.0278216291116599
40
0.0378198543007747
40
0.112806543219135
40
0.187793232137496
40
0.337766609974218
40
0.497738213000055
40
0.657709816025891
40
0.817681419051728
40
0.897667220564646
40
0.977653022077564
40
0.982652134672122
40
0.987651247266679
40
0.997649472455794
40
1
40
1
40
1
40
1
41
1
10
111.951058817842
20
4.24328980725997
30
0
41
1
10
111.951171488041
20
4.24247722626879
30
0
41
1
10
111.951348243871
20
4.2412088716859
30
0
41
1
10
111.951589391393
20
4.23948464762333
30
0
41
1
10
111.952195806155
20
4.23515426781907
30
0
41
1
10
111.953217073091
20
4.22786100109789
30
0
41
1
10
111.955131791787
20
4.21418613723267
30
0
41
1
10
111.957588812876
20
4.19663674302652
30
0
41
1
10
111.960588293166
20
4.17521280724233
30
0
41
1
10
111.963651592186
20
4.15333304303724
30
0
41
1
10
111.966204341369
20
4.13509990619966
30
0
41
1
10
111.968255312588
20
4.12046265313919
30
0
41
1
10
111.969304837243
20
4.11296164067542
30
0
41
1
10
111.969871790837
20
4.10890207907821
30
0
41
1
10
111.969997481372
20
4.10800276443473
30
0
41
1
10
111.970105932873
20
4.10722879505121
30
0
41
1
10
111.970182549236
20
4.10668452470259
30
0
41
1
10
111.97019711627
20
4.10658115439
30
0
0
SPLINE
5
209
100
AcDbEntity
8
1
62
256
6
ByLayer
370
-1
48
1
60
0
100
AcDbSpline
70
4
71
3
72
79
73
75
40
0
40
0
40
0
40
0
40
0.0017245864916317
40
0.0039792263717591
40
0.008488506132014
40
0.0129977858922688
40
0.0220163454127786
40
0.0310349049332883
40
0.0671091430153272
40
0.139257619179405
40
0.211406095343483
40
0.220424654863992
40
0.224933934624247
40
0.228315894444438
40
0.229443214384502
40
0.231697854264629
40
0.233952494144757
40
0.237334453964948
40
0.238461773905012
40
0.240716413785139
40
0.242971053665267
40
0.247480333425522
40
0.249734973305649
40
0.256498892946031
40
0.265517452466541
40
0.28355457150756
40
0.29257313102807
40
0.319628809589599
40
0.355703047671638
40
0.391777285753677
40
0.409814404794697
40
0.427851523835716
40
0.445888642876735
40
0.463925761917755
40
0.481962880958774
40
0.499999999999794
40
0.518037119040814
40
0.536074238081833
40
0.554111357122852
40
0.572148476163872
40
0.590185595204889
40
0.608222714245911
40
0.626259833286929
40
0.64429695232795
40
0.662334071368969
40
0.68037119040999
40
0.716445428492027
40
0.725463988012535
40
0.734482547533047
40
0.751392346634002
40
0.752519666574066
40
0.754774306454194
40
0.757028946334321
40
0.760410906154514
40
0.761538226094576
40
0.763792865974706
40
0.766047505854829
40
0.769429465675024
40
0.770556785615086
40
0.771684105555147
40
0.775066065375342
40
0.779575345135595
40
0.78408462489585
40
0.788593904656105
40
0.824668142738144
40
0.860742380820183
40
0.932890856984261
40
0.9689650950663
40
0.987002214107319
40
0.991511493867574
40
0.994893453687763
40
0.996020773627829
40
0.998275413507956
40
1
40
1
40
1
40
1
41
1
10
117.402442581736
20
3.89626277740294
30
0
41
1
10
117.402777628495
20
3.89631035387907
30
0
41
1
10
117.403545126503
20
3.89641972412213
30
0
41
1
10
117.405159791824
20
3.89665283715095
30
0
41
1
10
117.407267566378
20
3.89696729112481
30
0
41
1
10
117.410609980231
20
3.89748664571323
30
0
41
1
10
117.414821758621
20
3.89817722621413
30
0
41
1
10
117.424985927819
20
3.89996213050568
30
0
41
1
10
117.447028697328
20
3.90449341400574
30
0
41
1
10
117.481171812757
20
3.9140333368116
30
0
41
1
10
117.509977448574
20
3.92516741116268
30
0
41
1
10
117.525865544458
20
3.93235280848856
30
0
41
1
10
117.528993858212
20
3.93380260097967
30
0
41
1
10
117.530659865033
20
3.93458565080613
30
0
41
1
10
117.531908299228
20
3.93517714635274
30
0
41
1
10
117.532947985336
20
3.9356726886968
30
0
41
1
10
117.534402260661
20
3.93637135347535
30
0
41
1
10
117.535647379758
20
3.93697546200167
30
0
41
1
10
117.536891346065
20
3.93758376946431
30
0
41
1
10
117.537927257765
20
3.9380933159631
30
0
41
1
10
117.539583138498
20
3.9389141843227
30
0
41
1
10
117.541236611317
20
3.9397434390043
30
0
41
1
10
117.543713085871
20
3.94099988664905
30
0
41
1
10
117.547008303364
20
3.94269747673894
30
0
41
1
10
117.553163617864
20
3.94595359591304
30
0
41
1
10
117.559684210555
20
3.94956023161416
30
0
41
1
10
117.569389626052
20
3.95516946095447
30
0
41
1
10
117.582189105507
20
3.96300047154875
30
0
41
1
10
117.599399124376
20
3.97459910559803
30
0
41
1
10
117.614571170899
20
3.98598438997934
30
0
41
1
10
117.626386091771
20
3.99557533742942
30
0
41
1
10
117.635076258942
20
4.00300442723429
30
0
41
1
10
117.64358573732
20
4.01066391550143
30
0
41
1
10
117.651906078374
20
4.01854639575404
30
0
41
1
10
117.660028833572
20
4.02664446151547
30
0
41
1
10
117.667945554386
20
4.03495070630905
30
0
41
1
10
117.675647792283
20
4.04345772365801
30
0
41
1
10
117.683128776283
20
4.05215653676873
30
0
41
1
10
117.690381735408
20
4.06103816884752
30
0
41
1
10
117.697399898676
20
4.07009364310068
30
0
41
1
10
117.704176495108
20
4.07931398273459
30
0
41
1
10
117.710706752322
20
4.08868912683519
30
0
41
1
10
117.716985897938
20
4.09820901448845
30
0
41
1
10
117.723009159574
20
4.10786358478035
30
0
41
1
10
117.728771764849
20
4.11764277679688
30
0
41
1
10
117.736104227222
20
4.13083373299128
30
0
41
1
10
117.742054875697
20
4.14255681959577
30
0
41
1
10
117.74681660041
20
4.15270797372156
30
0
41
1
10
117.749804277825
20
4.15928877499491
30
0
41
1
10
117.752019744745
20
4.16440934143264
30
0
41
1
10
117.753630358817
20
4.16826134329719
30
0
41
1
10
117.754075095816
20
4.16933194033061
30
0
41
1
10
117.754692769113
20
4.17083186557392
30
0
41
1
10
117.755216889601
20
4.17211865717249
30
0
41
1
10
117.755736757774
20
4.17340633089847
30
0
41
1
10
117.756167323283
20
4.17447993721132
30
0
41
1
10
117.756765152443
20
4.17598397904922
30
0
41
1
10
117.75727225933
20
4.17727419587544
30
0
41
1
10
117.757691301914
20
4.17835004281548
30
0
41
1
10
117.758108571072
20
4.17942621857785
30
0
41
1
10
117.758770526185
20
4.18114913825818
30
0
41
1
10
117.759667053519
20
4.18352055220541
30
0
41
1
10
117.760628044566
20
4.18611037543079
30
0
41
1
10
117.763774528999
20
4.19475198931806
30
0
41
1
10
117.768688709686
20
4.20950637301138
30
0
41
1
10
117.776500444763
20
4.23738705710315
30
0
41
1
10
117.782179458236
20
4.26527147257934
30
0
41
1
10
117.785372986121
20
4.28938287079012
30
0
41
1
10
117.786460637703
20
4.30053739935849
30
0
41
1
10
117.786867396981
20
4.30540080200342
30
0
41
1
10
117.787000906534
20
4.30710507923791
30
0
41
1
10
117.78709796782
20
4.30839553344447
30
0
41
1
10
117.787169572463
20
4.30937800731263
30
0
41
1
10
117.787224723157
20
4.31015418959345
30
0
41
1
10
117.787248631458
20
4.31049301566861
30
0
0
SPLINE
5
20A
100
AcDbEntity
8
1
62
256
6
ByLayer
370
-1
48
1
60
0
100
AcDbSpline
70
4
71
3
72
79
73
75
40
0
40
0
40
0
40
0
40
0.0017245864916542
40
0.0039792263717816
40
0.0084885061320363
40
0.0129977858922911
40
0.0220163454128006
40
0.0310349049333101
40
0.0671091430153481
40
0.139257619179424
40
0.2114060953435
40
0.22042465486401
40
0.224933934624265
40
0.228315894444455
40
0.229443214384519
40
0.231697854264647
40
0.233952494144774
40
0.237334453964965
40
0.238461773905029
40
0.240716413785156
40
0.242971053665283
40
0.247480333425538
40
0.249734973305666
40
0.256498892946048
40
0.265517452466557
40
0.283554571507576
40
0.292573131028086
40
0.319628809589614
40
0.355703047671652
40
0.39177728575369
40
0.409814404794709
40
0.427851523835728
40
0.445888642876747
40
0.463925761917766
40
0.481962880958785
40
0.499999999999804
40
0.518037119040823
40
0.536074238081842
40
0.554111357122861
40
0.57214847616388
40
0.590185595204898
40
0.608222714245918
40
0.626259833286937
40
0.644296952327956
40
0.662334071368975
40
0.680371190409996
40
0.716445428492032
40
0.725463988012542
40
0.734482547533053
40
0.751392346634006
40
0.75251966657407
40
0.754774306454197
40
0.757028946334325
40
0.76041090615452
40
0.76153822609458
40
0.763792865974709
40
0.766047505854834
40
0.769429465675027
40
0.770556785615089
40
0.771684105555152
40
0.775066065375346
40
0.779575345135599
40
0.784084624895853
40
0.788593904656108
40
0.824668142738146
40
0.860742380820184
40
0.93289085698426
40
0.968965095066298
40
0.987002214107317
40
0.991511493867573
40
0.994893453687763
40
0.996020773627827
40
0.998275413507954
40
1
40
1
40
1
40
1
41
1
10
112.179715168335
20
9.55957691503042
30
0
41
1
10
112.179380121577
20
9.55952933855428
30
0
41
1
10
112.178612623568
20
9.55941996831123
30
0
41
1
10
112.176997958247
20
9.55918685528241
30
0
41
1
10
112.174890183693
20
9.55887240130855
30
0
41
1
10
112.17154776984
20
9.55835304672013
30
0
41
1
10
112.167335991451
20
9.55766246621923
30
0
41
1
10
112.157171822253
20
9.55587756192767
30
0
41
1
10
112.135129052743
20
9.55134627842762
30
0
41
1
10
112.100985937314
20
9.54180635562176
30
0
41
1
10
112.072180301497
20
9.53067228127068
30
0
41
1
10
112.056292205613
20
9.5234868839448
30
0
41
1
10
112.05316389186
20
9.52203709145368
30
0
41
1
10
112.051497885039
20
9.52125404162723
30
0
41
1
10
112.050249450843
20
9.52066254608062
30
0
41
1
10
112.049209764736
20
9.52016700373656
30
0
41
1
10
112.04775548941
20
9.51946833895801
30
0
41
1
10
112.046510370314
20
9.51886423043169
30
0
41
1
10
112.045266404006
20
9.51825592296905
30
0
41
1
10
112.044230492306
20
9.51774637647026
30
0
41
1
10
112.042574611573
20
9.51692550811069
30
0
41
1
10
112.040921138754
20
9.51609625342908
30
0
41
1
10
112.0384446642
20
9.51483980578431
30
0
41
1
10
112.035149446707
20
9.51314221569442
30
0
41
1
10
112.028994132207
20
9.50988609652032
30
0
41
1
10
112.022473539516
20
9.5062794608192
30
0
41
1
10
112.012768124019
20
9.50067023147892
30
0
41
1
10
111.999968644565
20
9.4928392208846
30
0
41
1
10
111.982758625696
20
9.48124058683533
30
0
41
1
10
111.967586579173
20
9.46985530245402
30
0
41
1
10
111.9557716583
20
9.46026435500397
30
0
41
1
10
111.947081491129
20
9.45283526519907
30
0
41
1
10
111.938572012752
20
9.44517577693196
30
0
41
1
10
111.930251671698
20
9.43729329667931
30
0
41
1
10
111.922128916499
20
9.42919523091788
30
0
41
1
10
111.914212195686
20
9.42088898612431
30
0
41
1
10
111.906509957789
20
9.41238196877535
30
0
41
1
10
111.899028973788
20
9.40368315566462
30
0
41
1
10
111.891776014664
20
9.39480152358584
30
0
41
1
10
111.884757851396
20
9.38574604933268
30
0
41
1
10
111.877981254964
20
9.37652570969877
30
0
41
1
10
111.871450997749
20
9.36715056559817
30
0
41
1
10
111.865171852133
20
9.35763067794491
30
0
41
1
10
111.859148590497
20
9.34797610765301
30
0
41
1
10
111.853385985222
20
9.33819691563647
30
0
41
1
10
111.846053522849
20
9.32500595944208
30
0
41
1
10
111.840102874375
20
9.31328287283759
30
0
41
1
10
111.835341149662
20
9.3031317187118
30
0
41
1
10
111.832353472246
20
9.29655091743845
30
0
41
1
10
111.830138005327
20
9.29143035100071
30
0
41
1
10
111.828527391255
20
9.2875783491362
30
0
41
1
10
111.828082654255
20
9.28650775210275
30
0
41
1
10
111.827464980958
20
9.28500782685944
30
0
41
1
10
111.82694086047
20
9.28372103526087
30
0
41
1
10
111.826420992297
20
9.28243336153488
30
0
41
1
10
111.825990426788
20
9.28135975522204
30
0
41
1
10
111.825392597629
20
9.27985571338414
30
0
41
1
10
111.824885490741
20
9.27856549655792
30
0
41
1
10
111.824466448157
20
9.27748964961788
30
0
41
1
10
111.824049178999
20
9.27641347385551
30
0
41
1
10
111.823387223886
20
9.27469055417518
30
0
41
1
10
111.822490696552
20
9.27231914022795
30
0
41
1
10
111.821529705506
20
9.26972931700257
30
0
41
1
10
111.818383221073
20
9.26108770311529
30
0
41
1
10
111.813469040386
20
9.24633331942198
30
0
41
1
10
111.805657305309
20
9.21845263533021
30
0
41
1
10
111.799978291835
20
9.19056821985401
30
0
41
1
10
111.796784763951
20
9.16645682164324
30
0
41
1
10
111.795697112368
20
9.15530229307487
30
0
41
1
10
111.79529035309
20
9.15043889042994
30
0
41
1
10
111.795156843537
20
9.14873461319544
30
0
41
1
10
111.795059782251
20
9.14744415898889
30
0
41
1
10
111.794988177609
20
9.14646168512073
30
0
41
1
10
111.794933026914
20
9.14568550283991
30
0
41
1
10
111.794909118614
20
9.14534667676475
30
0
0
SPLINE
5
20B
100
AcDbEntity
8
1
62
256
6
ByLayer
370
-1
48
1
60
0
100
AcDbSpline
70
4
71
3
72
23
73
19
40
0
40
0
40
0
40
0
40
0.0365499079218212
40
0.0695172064383454
40
0.10248450495487
40
0.135451803471394
40
0.168419101987918
40
0.234353699020967
40
0.300288296054
40
0.366222893087064
40
0.498092087153161
40
0.62996128121925
40
0.761830475285355
40
0.827765072318399
40
0.893699669351452
40
0.926666967867976
40
0.9596342663845
40
1
40
1
40
1
40
1
41
1
10
117.062114959452
20
9.74516277641089
30
0
41
1
10
117.061100760015
20
9.74523260854335
30
0
41
1
10
117.059171790772
20
9.74536375584245
30
0
41
1
10
117.056327775854
20
9.7455492670253
30
0
41
1
10
117.053582566141
20
9.74571930224988
30
0
41
1
10
117.050836370897
20
9.74587852282042
30
0
41
1
10
117.047173617269
20
9.74607691246393
30
0
41
1
10
117.042593289181
20
9.74629979446385
30
0
41
1
10
117.037094802226
20
9.74653017530565
30
0
41
1
10
117.029761166472
20
9.74678740252929
30
0
41
1
10
117.020590655599
20
9.74701432833373
30
0
41
1
10
117.009583323771
20
9.74713220321135
30
0
41
1
10
117.000410690688
20
9.74710409220123
30
0
41
1
10
116.99307411574
20
9.74700721334725
30
0
41
1
10
116.988490112393
20
9.74691325707084
30
0
41
1
10
116.984824154029
20
9.74681660116994
30
0
41
1
10
116.981869343963
20
9.74672887514583
30
0
41
1
10
116.979830920483
20
9.7466621614571
30
0
41
1
10
116.978708829857
20
9.74662434874804
30
0
0
SPLINE
5
20C
100
AcDbEntity
8
1
62
256
6
ByLayer
370
-1
48
1
60
0
100
AcDbSpline
70
4
71
3
72
23
73
19
40
0
40
0
40
0
40
0
40
0.0365499079217463
40
0.069517206438274
40
0.102484504954802
40
0.135451803471329
40
0.168419101987857
40
0.234353699020913
40
0.300288296053953
40
0.366222893087023
40
0.498092087153134
40
0.629961281219238
40
0.761830475285356
40
0.827765072318408
40
0.893699669351467
40
0.926666967867995
40
0.959634266384522
40
1
40
1
40
1
40
1
41
1
10
117.79684028495
20
4.448208772903
30
0
41
1
10
117.79690985135
20
4.44922684641685
30
0
41
1
10
117.797040499594
20
4.45116318400909
30
0
41
1
10
117.797225304851
20
4.45401806260179
30
0
41
1
10
117.79739469304
20
4.45677375857036
30
0
41
1
10
117.797553307728
20
4.45953044383441
30
0
41
1
10
117.797750942439
20
4.46320718858567
30
0
41
1
10
117.797972976306
20
4.46780501278312
30
0
41
1
10
117.798202480479
20
4.47332450306499
30
0
41
1
10
117.798458728876
20
4.48068615211622
30
0
41
1
10
117.798684791159
20
4.48989169285073
30
0
41
1
10
117.798802217487
20
4.50094107089799
30
0
41
1
10
117.798774213448
20
4.51014874194917
30
0
41
1
10
117.798677703247
20
4.51751334142136
30
0
41
1
10
117.798584104502
20
4.52211485491699
30
0
41
1
10
117.798487816407
20
4.52579481664637
30
0
41
1
10
117.798400424207
20
4.52876091360628
30
0
41
1
10
117.798333964384
20
4.53080712353349
30
0
41
1
10
117.798296295563
20
4.53193350036264
30
0
0
SPLINE
5
20D
100
AcDbEntity
8
1
62
256
6
ByLayer
370
-1
48
1
60
0
100
AcDbSpline
70
4
71
3
72
23
73
19
40
0
40
0
40
0
40
0
40
0.0365499079216859
40
0.0695172064382133
40
0.102484504954741
40
0.135451803471268
40
0.168419101987795
40
0.23435369902085
40
0.30028829605389
40
0.366222893086959
40
0.498092087153069
40
0.629961281219171
40
0.761830475285288
40
0.827765072318339
40
0.893699669351397
40
0.926666967867924
40
0.959634266384452
40
1
40
1
40
1
40
1
41
1
10
112.52004279062
20
3.71067691602246
30
0
41
1
10
112.521056990056
20
3.71060708389001
30
0
41
1
10
112.5229859593
20
3.71047593659091
30
0
41
1
10
112.525829974217
20
3.71029042540806
30
0
41
1
10
112.528575183931
20
3.71012039018348
30
0
41
1
10
112.531321379175
20
3.70996116961294
30
0
41
1
10
112.534984132803
20
3.70976277996942
30
0
41
1
10
112.539564460891
20
3.70953989796951
30
0
41
1
10
112.545062947846
20
3.70930951712771
30
0
41
1
10
112.5523965836
20
3.70905228990407
30
0
41
1
10
112.561567094472
20
3.70882536409962
30
0
41
1
10
112.5725744263
20
3.70870748922201
30
0
41
1
10
112.581747059383
20
3.70873560023213
30
0
41
1
10
112.589083634331
20
3.70883247908611
30
0
41
1
10
112.593667637679
20
3.70892643536254
30
0
41
1
10
112.597333596043
20
3.70902309126342
30
0
41
1
10
112.600288406108
20
3.70911081728752
30
0
41
1
10
112.602326829589
20
3.70917753097626
30
0
41
1
10
112.603448920214
20
3.70921534368531
30
0
0
SPLINE
5
20E
100
AcDbEntity
8
SK1
62
256
6
ByLayer
370
-1
48
1
60
0
100
AcDbSpline
70
4
71
3
72
8
73
4
40
0
40
0
40
0
40
0
40
1
40
1
40
1
40
1
41
1
10
-54.516222729729
20
-6.81204395564961
30
0
41
1
10
-54.5439393896427
20
-6.87431425928901
30
0
41
1
10
-54.5718676648179
20
-6.93646419260506
30
0
41
1
10
-54.6
20
-6.99849805315392
30
0
0
SPLINE
5
20F
100
AcDbEntity
8
SK1
62
256
6
ByLayer
370
-1
48
1
60
0
100
AcDbSpline
70
4
71
3
72
8
73
4
40
0
40
0
40
0
40
0
40
1
40
1
40
1
40
1
41
1
10
-52.6000000000004
20
-6.99849805315466
30
0
41
1
10
-52.9473802440142
20
-6.78469639798683
30
0
41
1
10
-53.292222119692
20
-6.56578790669792
30
0
41
1
10
-53.6338144512151
20
-6.34034179467449
30
0
0
SPLINE
5
210
100
AcDbEntity
8
SK1
62
256
6
ByLayer
370
-1
48
1
60
0
100
AcDbSpline
70
4
71
3
72
20
73
16
40
0
40
0
40
0
40
0
40
0.125000000000007
40
0.125000000000007
40
0.250000000000015
40
0.250000000000015
40
0.312500000000018
40
0.312500000000018
40
0.375000000000022
40
0.375000000000022
40
0.500000000000012
40
0.500000000000012
40
0.750000000000006
40
0.750000000000006
40
1
40
1
40
1
40
1
41
1
10
-53.6338144512145
20
-6.34034179467375
30
0
41
1
10
-53.6736405326374
20
-6.31405714368671
30
0
41
1
10
-53.7174596238937
20
-6.2918915268643
30
0
41
1
10
-53.8100286430817
20
-6.26230917234659
30
0
41
1
10
-53.858409060093
20
-6.25510537770515
30
0
41
1
10
-53.930507607687
20
-6.25719119578449
30
0
41
1
10
-53.9548847131618
20
-6.26004287846277
30
0
41
1
10
-54.0024268232708
20
-6.26975628298462
30
0
41
1
10
-54.025531470073
20
-6.27654559824734
30
0
41
1
10
-54.0930893921825
20
-6.30200607369946
30
0
41
1
10
-54.136092797726
20
-6.32609087475549
30
0
41
1
10
-54.2534188607808
20
-6.41013429612562
30
0
41
1
10
-54.3194596979378
20
-6.48308041368765
30
0
41
1
10
-54.4306544823114
20
-6.63915672058906
30
0
41
1
10
-54.4771151388184
20
-6.72418194167685
30
0
41
1
10
-54.5162227297291
20
-6.81204395564961
30
0
0
SPLINE
5
211
100
AcDbEntity
8
SK1
62
256
6
ByLayer
370
-1
48
1
60
0
100
AcDbSpline
70
4
71
3
72
8
73
4
40
0
40
0
40
0
40
0
40
1
40
1
40
1
40
1
41
1
10
-56.0000000000001
20
4.99854728896315
30
0
41
1
10
-55.7019755215914
20
5.68400902895925
30
0
41
1
10
-55.3641473109835
20
6.34826454962635
30
0
41
1
10
-55
20
6.99849805315404
30
0
0
SPLINE
5
212
100
AcDbEntity
8
SK1
62
256
6
ByLayer
370
-1
48
1
60
0
100
AcDbSpline
70
4
71
3
72
8
73
4
40
0
40
0
40
0
40
0
40
1
40
1
40
1
40
1
41
1
10
-54.6
20
6.99849805315404
30
0
41
1
10
-54.5718676648179
20
6.93646419260517
30
0
41
1
10
-54.5439393896427
20
6.87431425928909
30
0
41
1
10
-54.516222729729
20
6.81204395564973
30
0
0
SPLINE
5
213
100
AcDbEntity
8
SK1
62
256
6
ByLayer
370
-1
48
1
60
0
100
AcDbSpline
70
4
71
3
72
8
73
4
40
0
40
0
40
0
40
0
40
1
40
1
40
1
40
1
41
1
10
-53.6338144512151
20
6.34034179467457
30
0
41
1
10
-53.2922221196919
20
6.56578790669803
30
0
41
1
10
-52.9473802440142
20
6.78469639798695
30
0
41
1
10
-52.6000000000004
20
6.99849805315478
30
0
0
SPLINE
5
214
100
AcDbEntity
8
SK1
62
256
6
ByLayer
370
-1
48
1
60
0
100
AcDbSpline
70
4
71
3
72
8
73
4
40
0
40
0
40
0
40
0
40
1
40
1
40
1
40
1
41
1
10
-55
20
-6.99849805315392
30
0
41
1
10
-55.3648529633576
20
-6.34700451336727
30
0
41
1
10
-55.7026345426883
20
-5.68249326840734
30
0
41
1
10
-56
20
-4.99854728896301
30
0
0
SPLINE
5
215
100
AcDbEntity
8
SK1
62
256
6
ByLayer
370
-1
48
1
60
0
100
AcDbSpline
70
4
71
3
72
20
73
16
40
0
40
0
40
0
40
0
40
0.25
40
0.25
40
0.375
40
0.375
40
0.5
40
0.5
40
0.625
40
0.625
40
0.75
40
0.75
40
0.875
40
0.875
40
1
40
1
40
1
40
1
41
1
10
-54.5162227297291
20
6.81204395564973
30
0
41
1
10
-54.4772709483907
20
6.72453199501689
30
0
41
1
10
-54.4306845518237
20
6.63914767831511
30
0
41
1
10
-54.3469265709005
20
6.52165950363116
30
0
41
1
10
-54.3163253277688
20
6.4838456686486
30
0
41
1
10
-54.2501041764424
20
6.41421731653315
30
0
41
1
10
-54.2145625265326
20
6.38236090680323
30
0
41
1
10
-54.1369222939179
20
6.32662557921188
30
0
41
1
10
-54.0940013611407
20
6.30244517653043
30
0
41
1
10
-54.0037548865671
20
6.26824500575401
30
0
41
1
10
-53.9556146989167
20
6.25796898452336
30
0
41
1
10
-53.8582046255659
20
6.25504848254033
30
0
41
1
10
-53.8099490429816
20
6.26234710426348
30
0
41
1
10
-53.7177558858445
20
6.29178438547694
30
0
41
1
10
-53.6739857261288
20
6.31382932086129
30
0
41
1
10
-53.6338144512151
20
6.3403417946746
30
0
0
SPLINE
5
216
100
AcDbEntity
8
SK1
62
256
6
ByLayer
370
-1
48
1
60
0
100
AcDbSpline
70
4
71
3
72
68
73
64
40
0
40
0
40
0
40
0
40
0.015625
40
0.015625
40
0.0312499999999999
40
0.0312499999999999
40
0.0468749999999999
40
0.0468749999999999
40
0.0624999999999998
40
0.0624999999999998
40
0.0781249999999998
40
0.0781249999999998
40
0.0937499999999997
40
0.0937499999999997
40
0.125
40
0.125
40
0.15625
40
0.15625
40
0.1875
40
0.1875
40
0.25
40
0.25
40
0.28125
40
0.28125
40
0.3125
40
0.3125
40
0.375
40
0.375
40
0.4375
40
0.4375
40
0.46875
40
0.46875
40
0.5
40
0.5
40
0.5625
40
0.5625
40
0.625
40
0.625
40
0.6875
40
0.6875
40
0.75
40
0.75
40
0.8125
40
0.8125
40
0.84375
40
0.84375
40
0.859375
40
0.859375
40
0.875
40
0.875
40
0.90625
40
0.90625
40
0.921875
40
0.921875
40
0.9375
40
0.9375
40
0.953125
40
0.953125
40
0.96875
40
0.96875
40
0.984375
40
0.984375
40
1
40
1
40
1
40
1
41
1
10
-6.5
20
-6.99849805315398
30
0
41
1
10
-6.4096424095903
20
-6.99849805315398
30
0
41
1
10
-6.31887533751086
20
-6.9924669932976
30
0
41
1
10
-6.13726564177031
20
-6.96792032412691
30
0
41
1
10
-6.04880117468585
20
-6.94974705973743
30
0
41
1
10
-5.87614107362342
20
-6.90252164638767
30
0
41
1
10
-5.79194795071362
20
-6.87346297167917
30
0
41
1
10
-5.62761370230606
20
-6.80484072991021
30
0
41
1
10
-5.54890965383427
20
-6.76585529638666
30
0
41
1
10
-5.39867973784189
20
-6.68016521734489
30
0
41
1
10
-5.32694157755157
20
-6.63336290342139
30
0
41
1
10
-5.18947718430641
20
-6.53250060019133
30
0
41
1
10
-5.12348684568531
20
-6.47818603126365
30
0
41
1
10
-4.93566988154686
20
-6.30674027670506
30
0
41
1
10
-4.82518003213681
20
-6.18267595320251
30
0
41
1
10
-4.62603001440084
20
-5.91868980815966
30
0
41
1
10
-4.53721391214785
20
-5.77825879287735
30
0
41
1
10
-4.37814656673874
20
-5.48542007115435
30
0
41
1
10
-4.30877871567313
20
-5.33483042069352
30
0
41
1
10
-4.12354082750574
20
-4.87237000918773
30
0
41
1
10
-4.03020120532329
20
-4.54989217457512
30
0
41
1
10
-3.91807144557504
20
-4.04887624586692
30
0
41
1
10
-3.88552668802802
20
-3.87909831441809
30
0
41
1
10
-3.82866773565829
20
-3.53847076026688
30
0
41
1
10
-3.80422767364425
20
-3.36705941807358
30
0
41
1
10
-3.74020579920568
20
-2.84975913582008
30
0
41
1
10
-3.70977205452269
20
-2.5008195214777
30
0
41
1
10
-3.66416163751657
20
-1.79552608157809
30
0
41
1
10
-3.64903771748126
20
-1.43916908464092
30
0
41
1
10
-3.63426182330713
20
-0.899256752194447
30
0
41
1
10
-3.63068669313998
20
-0.718167674817778
30
0
41
1
10
-3.62598899859142
20
-0.357375695924361
30
0
41
1
10
-3.62485343662013
20
-0.177302953433326
30
0
41
1
10
-3.62488496014578
20
0.361962578325034
30
0
41
1
10
-3.62938260517049
20
0.720207066315254
30
0
41
1
10
-3.64887950283875
20
1.43414621185846
30
0
41
1
10
-3.66385562324439
20
1.78984138878459
30
0
41
1
10
-3.70956223321124
20
2.49851694715909
30
0
41
1
10
-3.74045671775656
20
2.85271919963691
30
0
41
1
10
-3.82645737175278
20
3.54573152185978
30
0
41
1
10
-3.88145968550236
20
3.88575414429386
30
0
41
1
10
-4.03051920995767
20
4.55084385300148
30
0
41
1
10
-4.12523349261875
20
4.87761469840365
30
0
41
1
10
-4.31105593218689
20
5.33999328729007
30
0
41
1
10
-4.38041029850672
20
5.4899128326384
30
0
41
1
10
-4.49888437250004
20
5.70752713951083
30
0
41
1
10
-4.54079549132547
20
5.77885043055693
30
0
41
1
10
-4.63023926406612
20
5.91883578995851
30
0
41
1
10
-4.67776791395602
20
5.98743717509882
30
0
41
1
10
-4.82792587490127
20
6.18597359029033
30
0
41
1
10
-4.93858588995937
20
6.30966494075429
30
0
41
1
10
-5.12522766477915
20
6.47964028567972
30
0
41
1
10
-5.19131964832849
20
6.53397024553271
30
0
41
1
10
-5.32929892448178
20
6.63497116118225
30
0
41
1
10
-5.40112275258878
20
6.68167605293547
30
0
41
1
10
-5.55102867370906
20
6.76694298534821
30
0
41
1
10
-5.62910582891868
20
6.80551115138627
30
0
41
1
10
-5.79238720600742
20
6.87359848794483
30
0
41
1
10
-5.87738605118548
20
6.90291103819595
30
0
41
1
10
-6.04966564042599
20
6.94993403370722
30
0
41
1
10
-6.13756051826556
20
6.96792637087054
30
0
41
1
10
-6.31709499624006
20
6.99225989008042
30
0
41
1
10
-6.40924253974518
20
6.99849805315398
30
0
41
1
10
-6.5
20
6.99849805315398
30
0
0
LINE
5
45
100
AcDbEntity
8
80
62
256
6
ByLayer
370
-1
48
1
60
0
100
AcDbLine
10
0
20
0
30
0
11
-7
21
0
31
0
39
0
210
0
220
0
230
1
0
LINE
5
46
100
AcDbEntity
8
81
62
256
6
ByLayer
370
-1
48
1
60
0
100
AcDbLine
10
118
20
0
30
0
11
125
21
0
31
0
39
0
210
0
220
0
230
1
0
LINE
5
47
100
AcDbEntity
8
1
62
256
6
ByLayer
370
-1
48
1
60
0
100
AcDbLine
10
5
20
16
30
0
11
0.2
21
16
31
0
39
0
210
0
220
0
230
1
0
LINE
5
49
100
AcDbEntity
8
1
62
256
6
ByLayer
370
-1
48
1
60
0
100
AcDbLine
10
0.2
20
-16
30
0
11
5
21
-16
31
0
39
0
210
0
220
0
230
1
0
LINE
5
4A
100
AcDbEntity
8
1
62
256
6
ByLayer
370
-1
48
1
60
0
100
AcDbLine
10
0.2
20
16
30
0
11
0
21
15.8
31
0
39
0
210
0
220
0
230
1
0
LINE
5
4B
100
AcDbEntity
8
1
62
256
6
ByLayer
370
-1
48
1
60
0
100
AcDbLine
10
0
20
-15.8
30
0
11
0.2
21
-16
31
0
39
0
210
0
220
0
230
1
0
LINE
5
4C
100
AcDbEntity
8
1
62
256
6
ByLayer
370
-1
48
1
60
0
100
AcDbLine
10
57.913569
20
9.484764
30
0
11
22
21
9.615
31
0
39
0
210
0
220
0
230
1
0
LINE
5
4D
100
AcDbEntity
8
1
62
256
6
ByLayer
370
-1
48
1
60
0
100
AcDbLine
10
22
20
9.615
30
0
11
17
21
9.615
31
0
39
0
210
0
220
0
230
1
0
LINE
5
4E
100
AcDbEntity
8
1
62
256
6
ByLayer
370
-1
48
1
60
0
100
AcDbLine
10
17
20
-9.615
30
0
11
22
21
-9.615
31
0
39
0
210
0
220
0
230
1
0
LINE
5
4F
100
AcDbEntity
8
1
62
256
6
ByLayer
370
-1
48
1
60
0
100
AcDbLine
10
22
20
-9.615
30
0
11
40.590514
21
-9.547584
31
0
39
0
210
0
220
0
230
1
0
LINE
5
50
100
AcDbEntity
8
1
62
256
6
ByLayer
370
-1
48
1
60
0
100
AcDbLine
10
111.548981
20
9.45
30
0
11
109.55651
21
9.45
31
0
39
0
210
0
220
0
230
1
0
LINE
5
51
100
AcDbEntity
8
SK1
62
256
6
ByLayer
370
-1
48
1
60
0
100
AcDbLine
10
-2
20
12.49675
30
0
11
-52.6
21
12.49675
31
0
39
0
210
0
220
0
230
1
0
LINE
5
53
100
AcDbEntity
8
SK1
62
256
6
ByLayer
370
-1
48
1
60
0
100
AcDbLine
10
-52.6
20
-12.49675
30
0
11
-2
21
-12.49675
31
0
39
0
210
0
220
0
230
1
0
LINE
5
54
100
AcDbEntity
8
SK1
62
256
6
ByLayer
370
-1
48
1
60
0
100
AcDbLine
10
-2
20
-12.49675
30
0
11
-1.551212
21
-12.287477
31
0
39
0
210
0
220
0
230
1
0
LINE
5
55
100
AcDbEntity
8
SK1
62
256
6
ByLayer
370
-1
48
1
60
0
100
AcDbLine
10
-1.551212
20
12.287477
30
0
11
-2
21
12.49675
31
0
39
0
210
0
220
0
230
1
0
LINE
5
56
100
AcDbEntity
8
SK1
62
256
6
ByLayer
370
-1
48
1
60
0
100
AcDbLine
10
-0.15
20
12.25
30
0
11
-1.382165
21
12.25
31
0
39
0
210
0
220
0
230
1
0
LINE
5
57
100
AcDbEntity
8
SK1
62
256
6
ByLayer
370
-1
48
1
60
0
100
AcDbLine
10
-1.382165
20
-12.25
30
0
11
-0.15
21
-12.25
31
0
39
0
210
0
220
0
230
1
0
LINE
5
58
100
AcDbEntity
8
SK1
62
256
6
ByLayer
370
-1
48
1
60
0
100
AcDbLine
10
-54.6
20
12.49675
30
0
11
-55
21
12.49675
31
0
39
0
210
0
220
0
230
1
0
LINE
5
59
100
AcDbEntity
8
SK1
62
256
6
ByLayer
370
-1
48
1
60
0
100
AcDbLine
10
-55
20
-12.49675
30
0
11
-54.6
21
-12.49675
31
0
39
0
210
0
220
0
230
1
0
LINE
5
5A
100
AcDbEntity
8
SK1
62
256
6
ByLayer
370
-1
48
1
60
0
100
AcDbLine
10
-55
20
12.49675
30
0
11
-56
21
11.49675
31
0
39
0
210
0
220
0
230
1
0
LINE
5
5B
100
AcDbEntity
8
SK1
62
256
6
ByLayer
370
-1
48
1
60
0
100
AcDbLine
10
-56
20
-11.49675
30
0
11
-55
21
-12.49675
31
0
39
0
210
0
220
0
230
1
0
LINE
5
5C
100
AcDbEntity
8
SK1
62
256
6
ByLayer
370
-1
48
1
60
0
100
AcDbLine
10
-54.6
20
-12.49675
30
0
11
-54.516223
21
-12.393294
31
0
39
0
210
0
220
0
230
1
0
LINE
5
5D
100
AcDbEntity
8
SK1
62
256
6
ByLayer
370
-1
48
1
60
0
100
AcDbLine
10
-54.516223
20
12.393294
30
0
11
-54.6
21
12.49675
31
0
39
0
210
0
220
0
230
1
0
LINE
5
5E
100
AcDbEntity
8
SK1
62
256
6
ByLayer
370
-1
48
1
60
0
100
AcDbLine
10
-52.6
20
12.49675
30
0
11
-53.633814
21
12.140417
31
0
39
0
210
0
220
0
230
1
0
LINE
5
5F
100
AcDbEntity
8
SK1
62
256
6
ByLayer
370
-1
48
1
60
0
100
AcDbLine
10
-53.633814
20
-12.140417
30
0
11
-52.6
21
-12.49675
31
0
39
0
210
0
220
0
230
1
0
LINE
5
60
100
AcDbEntity
8
SK4
62
256
6
ByLayer
370
-1
48
0.05
60
0
100
AcDbLine
10
118
20
0
30
0
11
-56
21
0
31
0
39
0
210
0
220
0
230
1
0
LINE
5
62
100
AcDbEntity
8
4
62
256
6
ByLayer
370
-1
48
0.05
60
0
100
AcDbLine
10
118
20
0
30
0
11
0
21
0
31
0
39
0
210
0
220
0
230
1
0
LINE
5
64
100
AcDbEntity
8
1
62
256
6
ByLayer
370
-1
48
1
60
0
100
AcDbLine
10
111.320272
20
4.583979
30
0
11
111.529446
21
4.583979
31
0
39
0
210
0
220
0
230
1
0
LINE
5
65
100
AcDbEntity
8
1
62
256
6
ByLayer
370
-1
48
1
60
0
100
AcDbLine
10
111.279421
20
5.758263
30
0
11
111.320272
21
4.583979
31
0
39
0
210
0
220
0
230
1
0
LINE
5
66
100
AcDbEntity
8
1
62
256
6
ByLayer
370
-1
48
1
60
0
100
AcDbLine
10
117.194807
20
-4.711194
30
0
11
116.961165
21
-0.266787
31
0
39
0
210
0
220
0
230
1
0
LINE
5
67
100
AcDbEntity
8
1
62
256
6
ByLayer
370
-1
48
1
60
0
100
AcDbLine
10
116.957091
20
-0.172031
30
0
11
116.130913
21
0.313455
31
0
39
0
210
0
220
0
230
1
0
LINE
5
68
100
AcDbEntity
8
1
62
256
6
ByLayer
370
-1
48
1
60
0
100
AcDbLine
10
22
20
9.615
30
0
11
22
21
2.997205
31
0
39
0
210
0
220
0
230
1
0
LINE
5
69
100
AcDbEntity
8
1
62
256
6
ByLayer
370
-1
48
1
60
0
100
AcDbLine
10
5
20
16
30
0
11
5
21
-16
31
0
39
0
210
0
220
0
230
1
0
LINE
5
6A
100
AcDbEntity
8
1
62
256
6
ByLayer
370
-1
48
1
60
0
100
AcDbLine
10
116.067929
20
1.718155
30
0
11
116.792153
21
3.613674
31
0
39
0
210
0
220
0
230
1
0
LINE
5
6B
100
AcDbEntity
8
1
62
256
6
ByLayer
370
-1
48
1
60
0
100
AcDbLine
10
116.765687
20
3.623206
30
0
11
117.00178
21
3.610785
31
0
39
0
210
0
220
0
230
1
0
LINE
5
6C
100
AcDbEntity
8
1
62
256
6
ByLayer
370
-1
48
1
60
0
100
AcDbLine
10
116.994437
20
0.283494
30
0
11
117.005646
21
0.283104
31
0
39
0
210
0
220
0
230
1
0
LINE
5
6D
100
AcDbEntity
8
1
62
256
6
ByLayer
370
-1
48
1
60
0
100
AcDbLine
10
111.849711
20
3.47813
30
0
11
111.894999
21
3.47813
31
0
39
0
210
0
220
0
230
1
0
LINE
5
6E
100
AcDbEntity
8
1
62
256
6
ByLayer
370
-1
48
1
60
0
100
AcDbLine
10
107.108776
20
9.436922
30
0
11
107.108776
21
6.033984
31
0
39
0
210
0
220
0
230
1
0
LINE
5
6F
100
AcDbEntity
8
1
62
256
6
ByLayer
370
-1
48
1
60
0
100
AcDbLine
10
107.838036
20
2.422049
30
0
11
107.691773
21
1.918872
31
0
39
0
210
0
220
0
230
1
0
LINE
5
70
100
AcDbEntity
8
1
62
256
6
ByLayer
370
-1
48
1
60
0
100
AcDbLine
10
110.43841
20
1.375763
30
0
11
110.787434
21
2.576477
31
0
39
0
210
0
220
0
230
1
0
LINE
5
71
100
AcDbEntity
8
1
62
256
6
ByLayer
370
-1
48
1
60
0
100
AcDbLine
10
117.028429
20
0.250927
30
0
11
117.032224
21
0.265243
31
0
39
0
210
0
220
0
230
1
0
LINE
5
72
100
AcDbEntity
8
1
62
256
6
ByLayer
370
-1
48
1
60
0
100
AcDbLine
10
17
20
9.615
30
0
11
17
21
4.018429
31
0
39
0
210
0
220
0
230
1
0
LINE
5
73
100
AcDbEntity
8
1
62
256
6
ByLayer
370
-1
48
1
60
0
100
AcDbLine
10
105.182876
20
5.26
30
0
11
107.233901
21
5.26
31
0
39
0
210
0
220
0
230
1
0
LINE
5
74
100
AcDbEntity
8
1
62
256
6
ByLayer
370
-1
48
1
60
0
100
AcDbLine
10
113.286036
20
3.506472
30
0
11
116.616133
21
3.623205
31
0
39
0
210
0
220
0
230
1
0
LINE
5
75
100
AcDbEntity
8
1
62
256
6
ByLayer
370
-1
48
1
60
0
100
AcDbLine
10
111.689238
20
6.728944
30
0
11
111.801093
21
6.728944
31
0
39
0
210
0
220
0
230
1
0
LINE
5
76
100
AcDbEntity
8
1
62
256
6
ByLayer
370
-1
48
1
60
0
100
AcDbLine
10
111.371879
20
4.257836
30
0
11
111.073468
21
4.247376
31
0
39
0
210
0
220
0
230
1
0
LINE
5
77
100
AcDbEntity
8
1
62
256
6
ByLayer
370
-1
48
1
60
0
100
AcDbLine
10
17
20
-9.615
30
0
11
17
21
-8.510177
31
0
39
0
210
0
220
0
230
1
0
LINE
5
78
100
AcDbEntity
8
1
62
256
6
ByLayer
370
-1
48
1
60
0
100
AcDbLine
10
110.302079
20
9.447001
30
0
11
110.302079
21
5.81
31
0
39
0
210
0
220
0
230
1
0
LINE
5
79
100
AcDbEntity
8
1
62
256
6
ByLayer
370
-1
48
1
60
0
100
AcDbLine
10
117.508607
20
-5.535969
30
0
11
117.205941
21
-5.457489
31
0
39
0
210
0
220
0
230
1
0
LINE
5
7A
100
AcDbEntity
8
1
62
256
6
ByLayer
370
-1
48
1
60
0
100
AcDbLine
10
117.161981
20
-9.439185
30
0
11
117.508607
21
-5.535969
31
0
39
0
210
0
220
0
230
1
0
LINE
5
7B
100
AcDbEntity
8
1
62
256
6
ByLayer
370
-1
48
1
60
0
100
AcDbLine
10
0
20
15.8
30
0
11
0
21
-15.8
31
0
39
0
210
0
220
0
230
1
0
LINE
5
7C
100
AcDbEntity
8
1
62
256
6
ByLayer
370
-1
48
1
60
0
100
AcDbLine
10
111.849711
20
3.47813
30
0
11
111.041289
21
3.449792
31
0
39
0
210
0
220
0
230
1
0
LINE
5
7D
100
AcDbEntity
8
1
62
256
6
ByLayer
370
-1
48
1
60
0
100
AcDbLine
10
117.194807
20
-4.711194
30
0
11
116.950975
21
-4.567911
31
0
39
0
210
0
220
0
230
1
0
LINE
5
7E
100
AcDbEntity
8
1
62
256
6
ByLayer
370
-1
48
1
60
0
100
AcDbLine
10
116.860254
20
-4.514601
30
0
11
116.541814
21
-4.327477
31
0
39
0
210
0
220
0
230
1
0
LINE
5
7F
100
AcDbEntity
8
1
62
256
6
ByLayer
370
-1
48
1
60
0
100
AcDbLine
10
109.351011
20
5.710984
30
0
11
107.108776
21
6.033984
31
0
39
0
210
0
220
0
230
1
0
LINE
5
80
100
AcDbEntity
8
1
62
256
6
ByLayer
370
-1
48
1
60
0
100
AcDbLine
10
67.5
20
9.271212
30
0
11
67.5
21
-5.479142
31
0
39
0
210
0
220
0
230
1
0
LINE
5
81
100
AcDbEntity
8
1
62
256
6
ByLayer
370
-1
48
1
60
0
100
AcDbLine
10
111.488595
20
5.758263
30
0
11
111.529446
21
4.583979
31
0
39
0
210
0
220
0
230
1
0
LINE
5
82
100
AcDbEntity
8
1
62
256
6
ByLayer
370
-1
48
1
60
0
100
AcDbLine
10
111.279421
20
5.758263
30
0
11
111.488595
21
5.758263
31
0
39
0
210
0
220
0
230
1
0
LINE
5
83
100
AcDbEntity
8
1
62
256
6
ByLayer
370
-1
48
1
60
0
100
AcDbLine
10
111.034234
20
3.42552
30
0
11
111.041289
21
3.449792
31
0
39
0
210
0
220
0
230
1
0
LINE
5
84
100
AcDbEntity
8
1
62
256
6
ByLayer
370
-1
48
1
60
0
100
AcDbLine
10
111.279837
20
-9.439185
30
0
11
117.161981
21
-9.439185
31
0
39
0
210
0
220
0
230
1
0
LINE
5
85
100
AcDbEntity
8
1
62
256
6
ByLayer
370
-1
48
1
60
0
100
AcDbLine
10
111.601594
20
6.683038
30
0
11
111.513564
21
9.443735
31
0
39
0
210
0
220
0
230
1
0
LINE
5
86
100
AcDbEntity
8
1
62
256
6
ByLayer
370
-1
48
1
60
0
100
AcDbLine
10
109.462822
20
5.81
30
0
11
110.302079
21
5.81
31
0
39
0
210
0
220
0
230
1
0
LINE
5
87
100
AcDbEntity
8
1
62
256
6
ByLayer
370
-1
48
1
60
0
100
AcDbLine
10
117.028429
20
0.250927
30
0
11
116.978428
21
0.252668
31
0
39
0
210
0
220
0
230
1
0
LINE
5
88
100
AcDbEntity
8
1
62
256
6
ByLayer
370
-1
48
1
60
0
100
AcDbLine
10
111.601594
20
6.683038
30
0
11
111.628918
21
6.683038
31
0
39
0
210
0
220
0
230
1
0
LINE
5
89
100
AcDbEntity
8
1
62
256
6
ByLayer
370
-1
48
1
60
0
100
AcDbLine
10
117.005646
20
0.283104
30
0
11
117.032224
21
0.265243
31
0
39
0
210
0
220
0
230
1
0
LINE
5
8A
100
AcDbEntity
8
1
62
256
6
ByLayer
370
-1
48
1
60
0
100
AcDbLine
10
0.2
20
16
30
0
11
0.2
21
-16
31
0
39
0
210
0
220
0
230
1
0
LINE
5
8B
100
AcDbEntity
8
1
62
256
6
ByLayer
370
-1
48
1
60
0
100
AcDbLine
10
22
20
-9.615
30
0
11
22
21
-8.923599
31
0
39
0
210
0
220
0
230
1
0
LINE
5
8C
100
AcDbEntity
8
1
62
256
6
ByLayer
370
-1
48
1
60
0
100
AcDbLine
10
117.032224
20
0.265243
30
0
11
117.142863
21
3.8085
31
0
39
0
210
0
220
0
230
1
0
LINE
5
8D
100
AcDbEntity
8
1
62
256
6
ByLayer
370
-1
48
1
60
0
100
AcDbLine
10
111.54069
20
9.449947
30
0
11
111.628918
21
6.683038
31
0
39
0
210
0
220
0
230
1
0
LINE
5
8E
100
AcDbEntity
8
1
62
256
6
ByLayer
370
-1
48
1
60
0
100
AcDbLine
10
117.188684
20
-4.780137
30
0
11
117.194807
21
-4.711194
31
0
39
0
210
0
220
0
230
1
0
LINE
5
8F
100
AcDbEntity
8
1
62
256
6
ByLayer
370
-1
48
1
60
0
100
AcDbLine
10
116.792153
20
3.613674
30
0
11
116.616133
21
3.623205
31
0
39
0
210
0
220
0
230
1
0
LINE
5
90
100
AcDbEntity
8
1
62
256
6
ByLayer
370
-1
48
1
60
0
100
AcDbLine
10
109.462822
20
9.449953
30
0
11
109.462822
21
5.81
31
0
39
0
210
0
220
0
230
1
0
LINE
5
91
100
AcDbEntity
8
1
62
256
6
ByLayer
370
-1
48
1
60
0
100
AcDbLine
10
116.616133
20
3.623205
30
0
11
116.765632
21
3.623205
31
0
39
0
210
0
220
0
230
1
0
LINE
5
92
100
AcDbEntity
8
1
62
256
6
ByLayer
370
-1
48
1
60
0
100
AcDbLine
10
117.00178
20
3.610785
30
0
11
116.792153
21
3.613674
31
0
39
0
210
0
220
0
230
1
0
LINE
5
93
100
AcDbEntity
8
1
62
256
6
ByLayer
370
-1
48
1
60
0
100
AcDbLine
10
117.714937
20
-2.427801
30
0
11
117.524882
21
-2.316119
31
0
39
0
210
0
220
0
230
1
0
LINE
5
94
100
AcDbEntity
8
1
62
256
6
ByLayer
370
-1
48
1
60
0
100
AcDbLine
10
117.609296
20
-0.834434
30
0
11
117.309935
21
-0.01448
31
0
39
0
210
0
220
0
230
1
0
LINE
5
95
100
AcDbEntity
8
1
62
256
6
ByLayer
370
-1
48
1
60
0
100
AcDbLine
10
117.638765
20
-0.978829
30
0
11
117.455213
21
-0.897681
31
0
39
0
210
0
220
0
230
1
0
LINE
5
96
100
AcDbEntity
8
1
62
256
6
ByLayer
370
-1
48
1
60
0
100
AcDbLine
10
117.794515
20
-3.936551
30
0
11
117.808393
21
-3.540362
31
0
39
0
210
0
220
0
230
1
0
LINE
5
97
100
AcDbEntity
8
1
62
256
6
ByLayer
370
-1
48
1
60
0
100
AcDbLine
10
117.524882
20
-2.316119
30
0
11
117.457423
21
-1.032891
31
0
39
0
210
0
220
0
230
1
0
LINE
5
98
100
AcDbEntity
8
1
62
256
6
ByLayer
370
-1
48
1
60
0
100
AcDbLine
10
117.444728
20
-3.849837
30
0
11
117.458606
21
-3.453649
31
0
39
0
210
0
220
0
230
1
0
LINE
5
99
100
AcDbEntity
8
1
62
256
6
ByLayer
370
-1
48
1
60
0
100
AcDbLine
10
117.714937
20
-2.427801
30
0
11
117.638765
21
-0.978829
31
0
39
0
210
0
220
0
230
1
0
LINE
5
9A
100
AcDbEntity
8
1
62
256
6
ByLayer
370
-1
48
1
60
0
100
AcDbLine
10
117.344789
20
-3.846358
30
0
11
117.358667
21
-3.45017
31
0
39
0
210
0
220
0
230
1
0
LINE
5
9B
100
AcDbEntity
8
1
62
256
6
ByLayer
370
-1
48
1
60
0
100
AcDbLine
10
117.309935
20
-0.01448
30
0
11
117.260631
21
-0.037695
31
0
39
0
210
0
220
0
230
1
0
LINE
5
9C
100
AcDbEntity
8
1
62
256
6
ByLayer
370
-1
48
1
60
0
100
AcDbLine
10
117.808393
20
-3.540362
30
0
11
117.458606
21
-3.453649
31
0
39
0
210
0
220
0
230
1
0
LINE
5
9D
100
AcDbEntity
8
1
62
256
6
ByLayer
370
-1
48
1
60
0
100
AcDbLine
10
117.632621
20
-5.184059
30
0
11
117.56476
21
-5.090472
31
0
39
0
210
0
220
0
230
1
0
LINE
5
9E
100
AcDbEntity
8
1
62
256
6
ByLayer
370
-1
48
1
60
0
100
AcDbLine
10
117.075499
20
-2.265062
30
0
11
117.008039
21
-0.981833
31
0
39
0
210
0
220
0
230
1
0
LINE
5
9F
100
AcDbEntity
8
1
62
256
6
ByLayer
370
-1
48
1
60
0
100
AcDbLine
10
117.175362
20
-2.259844
30
0
11
117.107902
21
-0.976616
31
0
39
0
210
0
220
0
230
1
0
LINE
5
A0
100
AcDbEntity
8
1
62
256
6
ByLayer
370
-1
48
1
60
0
100
AcDbLine
10
117.72268
20
-3.115155
30
0
11
117.404767
21
-3.186561
31
0
39
0
210
0
220
0
230
1
0
LINE
5
A1
100
AcDbEntity
8
1
62
256
6
ByLayer
370
-1
48
1
60
0
100
AcDbLine
10
117.904268
20
-3.176033
30
0
11
117.732404
21
-3.135593
31
0
39
0
210
0
220
0
230
1
0
LINE
5
A2
100
AcDbEntity
8
1
62
256
6
ByLayer
370
-1
48
1
60
0
100
AcDbLine
10
117.168244
20
-4.205932
30
0
11
117.181081
21
-4.194504
31
0
39
0
210
0
220
0
230
1
0
LINE
5
A3
100
AcDbEntity
8
1
62
256
6
ByLayer
370
-1
48
1
60
0
100
AcDbLine
10
117.185567
20
-3.436298
30
0
11
117.171689
21
-3.832486
31
0
39
0
210
0
220
0
230
1
0
LINE
5
A4
100
AcDbEntity
8
1
62
256
6
ByLayer
370
-1
48
1
60
0
100
AcDbLine
10
116.998778
20
-0.9823
30
0
11
117.008039
21
-0.981833
31
0
39
0
210
0
220
0
230
1
0
LINE
5
A5
100
AcDbEntity
8
1
62
256
6
ByLayer
370
-1
48
1
60
0
100
AcDbLine
10
117.066237
20
-2.265529
30
0
11
117.075499
21
-2.265062
31
0
39
0
210
0
220
0
230
1
0
LINE
5
A6
100
AcDbEntity
8
1
62
256
6
ByLayer
370
-1
48
1
60
0
100
AcDbLine
10
117.999695
20
-3.637116
30
0
11
117.80976
21
-3.509061
31
0
39
0
210
0
220
0
230
1
0
LINE
5
A7
100
AcDbEntity
8
1
62
256
6
ByLayer
370
-1
48
1
60
0
100
AcDbLine
10
117.175362
20
-2.259844
30
0
11
117.075499
21
-2.265062
31
0
39
0
210
0
220
0
230
1
0
LINE
5
A8
100
AcDbEntity
8
1
62
256
6
ByLayer
370
-1
48
1
60
0
100
AcDbLine
10
117.329983
20
-0.390171
30
0
11
117.260631
21
-0.037695
31
0
39
0
210
0
220
0
230
1
0
LINE
5
A9
100
AcDbEntity
8
1
62
256
6
ByLayer
370
-1
48
1
60
0
100
AcDbLine
10
117.961306
20
-4.733057
30
0
11
117.854374
21
-4.585585
31
0
39
0
210
0
220
0
230
1
0
LINE
5
AA
100
AcDbEntity
8
1
62
256
6
ByLayer
370
-1
48
1
60
0
100
AcDbLine
10
117.169577
20
-5.113732
30
0
11
117.56476
21
-5.090472
31
0
39
0
210
0
220
0
230
1
0
LINE
5
AB
100
AcDbEntity
8
1
62
256
6
ByLayer
370
-1
48
1
60
0
100
AcDbLine
10
117.174995
20
-5.350107
30
0
11
117.632621
21
-5.184059
31
0
39
0
210
0
220
0
230
1
0
LINE
5
AC
100
AcDbEntity
8
1
62
256
6
ByLayer
370
-1
48
1
60
0
100
AcDbLine
10
117.329983
20
-0.390171
30
0
11
116.978819
21
-0.602557
31
0
39
0
210
0
220
0
230
1
0
LINE
5
AD
100
AcDbEntity
8
1
62
256
6
ByLayer
370
-1
48
1
60
0
100
AcDbLine
10
117.457423
20
-1.032891
30
0
11
117.107902
21
-0.976616
31
0
39
0
210
0
220
0
230
1
0
LINE
5
AE
100
AcDbEntity
8
1
62
256
6
ByLayer
370
-1
48
1
60
0
100
AcDbLine
10
117.524882
20
-2.316119
30
0
11
117.175362
21
-2.259844
31
0
39
0
210
0
220
0
230
1
0
LINE
5
AF
100
AcDbEntity
8
1
62
256
6
ByLayer
370
-1
48
1
60
0
100
AcDbLine
10
117.174951
20
-4.333623
30
0
11
117.247692
21
-4.268859
31
0
39
0
210
0
220
0
230
1
0
LINE
5
B0
100
AcDbEntity
8
1
62
256
6
ByLayer
370
-1
48
1
60
0
100
AcDbLine
10
117.16327
20
0.145454
30
0
11
116.956015
21
0.020105
31
0
39
0
210
0
220
0
230
1
0
LINE
5
B1
100
AcDbEntity
8
1
62
256
6
ByLayer
370
-1
48
1
60
0
100
AcDbLine
10
117.961306
20
-4.733057
30
0
11
117.999695
21
-3.637116
31
0
39
0
210
0
220
0
230
1
0
LINE
5
B2
100
AcDbEntity
8
1
62
256
6
ByLayer
370
-1
48
1
60
0
100
AcDbLine
10
117.760868
20
-5.005765
30
0
11
117.247692
21
-4.268859
31
0
39
0
210
0
220
0
230
1
0
LINE
5
B3
100
AcDbEntity
8
1
62
256
6
ByLayer
370
-1
48
1
60
0
100
AcDbLine
10
117.794515
20
-3.936551
30
0
11
117.444728
21
-3.849837
31
0
39
0
210
0
220
0
230
1
0
LINE
5
B4
100
AcDbEntity
8
1
62
256
6
ByLayer
370
-1
48
1
60
0
100
AcDbLine
10
117.609296
20
-0.834434
30
0
11
117.431171
21
-0.755684
31
0
39
0
210
0
220
0
230
1
0
LINE
5
B5
100
AcDbEntity
8
1
62
256
6
ByLayer
370
-1
48
1
60
0
100
AcDbLine
10
117.67145
20
9.461478
30
0
11
117.614052
21
9.444002
31
0
39
0
210
0
220
0
230
1
0
LINE
5
B6
100
AcDbEntity
8
1
62
256
6
ByLayer
370
-1
48
1
60
0
100
AcDbLine
10
117.699592
20
9.095065
30
0
11
117.639629
21
9.092979
31
0
39
0
210
0
220
0
230
1
0
LINE
5
B7
100
AcDbEntity
8
1
62
256
6
ByLayer
370
-1
48
1
60
0
100
AcDbLine
10
117.149672
20
3.808754
30
0
11
117.147138
21
3.868489
31
0
39
0
210
0
220
0
230
1
0
LINE
5
B8
100
AcDbEntity
8
1
62
256
6
ByLayer
370
-1
48
1
60
0
100
AcDbLine
10
117.03169
20
9.807861
30
0
11
117.03277
21
9.748109
31
0
39
0
210
0
220
0
230
1
0
LINE
5
B9
100
AcDbEntity
8
1
62
256
6
ByLayer
370
-1
48
1
60
0
100
AcDbLine
10
111.899289
20
4.061146
30
0
11
111.958232
21
4.065316
31
0
39
0
210
0
220
0
230
1
0
LINE
5
BA
100
AcDbEntity
8
1
62
256
6
ByLayer
370
-1
48
1
60
0
100
AcDbLine
10
116.941072
20
9.805099
30
0
11
116.942694
21
9.745363
31
0
39
0
210
0
220
0
230
1
0
LINE
5
BB
100
AcDbEntity
8
1
62
256
6
ByLayer
370
-1
48
1
60
0
100
AcDbLine
10
112.068379
20
9.618836
30
0
11
112.085332
21
9.561676
31
0
39
0
210
0
220
0
230
1
0
LINE
5
BC
100
AcDbEntity
8
1
62
256
6
ByLayer
370
-1
48
1
60
0
100
AcDbLine
10
112.641998
20
3.650741
30
0
11
117.149672
21
3.808754
31
0
39
0
210
0
220
0
230
1
0
LINE
5
BD
100
AcDbEntity
8
1
62
256
6
ByLayer
370
-1
48
1
60
0
100
AcDbLine
10
117.854392
20
4.202681
30
0
11
117.795918
21
4.216126
31
0
39
0
210
0
220
0
230
1
0
LINE
5
BE
100
AcDbEntity
8
1
62
256
6
ByLayer
370
-1
48
1
60
0
100
AcDbLine
10
117.696016
20
9.186
30
0
11
117.636074
21
9.18337
31
0
39
0
210
0
220
0
230
1
0
LINE
5
BF
100
AcDbEntity
8
1
62
256
6
ByLayer
370
-1
48
1
60
0
100
AcDbLine
10
112.502577
20
3.646955
30
0
11
112.501168
21
3.706719
31
0
39
0
210
0
220
0
230
1
0
LINE
5
C0
100
AcDbEntity
8
1
62
256
6
ByLayer
370
-1
48
1
60
0
100
AcDbLine
10
112.342808
20
9.643496
30
0
11
112.344972
21
9.583782
31
0
39
0
210
0
220
0
230
1
0
LINE
5
C1
100
AcDbEntity
8
1
62
256
6
ByLayer
370
-1
48
1
60
0
100
AcDbLine
10
117.080492
20
9.808885
30
0
11
117.08099
21
9.749121
31
0
39
0
210
0
220
0
230
1
0
LINE
5
C2
100
AcDbEntity
8
1
62
256
6
ByLayer
370
-1
48
1
60
0
100
AcDbLine
10
111.911619
20
3.994362
30
0
11
111.968106
21
4.011837
31
0
39
0
210
0
220
0
230
1
0
LINE
5
C3
100
AcDbEntity
8
1
62
256
6
ByLayer
370
-1
48
1
60
0
100
AcDbLine
10
111.722293
20
9.025621
30
0
11
111.781374
21
9.026578
31
0
39
0
210
0
220
0
230
1
0
LINE
5
C4
100
AcDbEntity
8
1
62
256
6
ByLayer
370
-1
48
1
60
0
100
AcDbLine
10
117.44816
20
3.824626
30
0
11
117.443551
21
3.884252
31
0
39
0
210
0
220
0
230
1
0
LINE
5
C5
100
AcDbEntity
8
1
62
256
6
ByLayer
370
-1
48
1
60
0
100
AcDbLine
10
111.887053
20
4.26984
30
0
11
111.946084
21
4.272469
31
0
39
0
210
0
220
0
230
1
0
LINE
5
C6
100
AcDbEntity
8
1
62
256
6
ByLayer
370
-1
48
1
60
0
100
AcDbLine
10
117.239936
20
9.810166
30
0
11
117.23948
21
9.750394
31
0
39
0
210
0
220
0
230
1
0
LINE
5
C7
100
AcDbEntity
8
1
62
256
6
ByLayer
370
-1
48
1
60
0
100
AcDbLine
10
117.240261
20
3.812344
30
0
11
117.237186
21
3.872057
31
0
39
0
210
0
220
0
230
1
0
LINE
5
C8
100
AcDbEntity
8
1
62
256
6
ByLayer
370
-1
48
1
60
0
100
AcDbLine
10
117.860776
20
4.430219
30
0
11
117.800784
21
4.429262
31
0
39
0
210
0
220
0
230
1
0
LINE
5
C9
100
AcDbEntity
8
1
62
256
6
ByLayer
370
-1
48
1
60
0
100
AcDbLine
10
112.275905
20
3.653363
30
0
11
112.288844
21
3.711602
31
0
39
0
210
0
220
0
230
1
0
LINE
5
CA
100
AcDbEntity
8
1
62
256
6
ByLayer
370
-1
48
1
60
0
100
AcDbLine
10
112.641998
20
3.650741
30
0
11
112.639464
21
3.710476
31
0
39
0
210
0
220
0
230
1
0
LINE
5
CB
100
AcDbEntity
8
1
62
256
6
ByLayer
370
-1
48
1
60
0
100
AcDbLine
10
111.883477
20
4.360775
30
0
11
111.942529
21
4.362861
31
0
39
0
210
0
220
0
230
1
0
LINE
5
CC
100
AcDbEntity
8
1
62
256
6
ByLayer
370
-1
48
1
60
0
100
AcDbLine
10
111.726065
20
8.885668
30
0
11
111.883477
21
4.360775
31
0
39
0
210
0
220
0
230
1
0
LINE
5
CD
100
AcDbEntity
8
1
62
256
6
ByLayer
370
-1
48
1
60
0
100
AcDbLine
10
117.683781
20
9.394693
30
0
11
117.623926
21
9.390524
31
0
39
0
210
0
220
0
230
1
0
LINE
5
CE
100
AcDbEntity
8
1
62
256
6
ByLayer
370
-1
48
1
60
0
100
AcDbLine
10
112.294053
20
9.641101
30
0
11
112.2968
21
9.581415
31
0
39
0
210
0
220
0
230
1
0
LINE
5
CF
100
AcDbEntity
8
1
62
256
6
ByLayer
370
-1
48
1
60
0
100
AcDbLine
10
111.721017
20
9.185674
30
0
11
111.780106
21
9.185674
31
0
39
0
210
0
220
0
230
1
0
LINE
5
D0
100
AcDbEntity
8
1
62
256
6
ByLayer
370
-1
48
1
60
0
100
AcDbLine
10
112.134909
20
9.631214
30
0
11
112.138607
21
9.571588
31
0
39
0
210
0
220
0
230
1
0
LINE
5
D1
100
AcDbEntity
8
1
62
256
6
ByLayer
370
-1
48
1
60
0
100
AcDbLine
10
111.889439
20
4.220899
30
0
11
111.948442
21
4.224113
31
0
39
0
210
0
220
0
230
1
0
LINE
5
D2
100
AcDbEntity
8
1
62
256
6
ByLayer
370
-1
48
1
60
0
100
AcDbLine
10
112.433397
20
9.647086
30
0
11
112.43502
21
9.587351
31
0
39
0
210
0
220
0
230
1
0
LINE
5
D3
100
AcDbEntity
8
1
62
256
6
ByLayer
370
-1
48
1
60
0
100
AcDbLine
10
111.726065
20
8.885668
30
0
11
111.785118
21
8.887754
31
0
39
0
210
0
220
0
230
1
0
LINE
5
D4
100
AcDbEntity
8
1
62
256
6
ByLayer
370
-1
48
1
60
0
100
AcDbLine
10
112.343133
20
3.645674
30
0
11
112.342677
21
3.705445
31
0
39
0
210
0
220
0
230
1
0
LINE
5
D5
100
AcDbEntity
8
1
62
256
6
ByLayer
370
-1
48
1
60
0
100
AcDbLine
10
117.857004
20
4.570172
30
0
11
117.79704
21
4.568086
31
0
39
0
210
0
220
0
230
1
0
LINE
5
D6
100
AcDbEntity
8
1
62
256
6
ByLayer
370
-1
48
1
60
0
100
AcDbLine
10
111.723314
20
8.976632
30
0
11
111.782382
21
8.978174
31
0
39
0
210
0
220
0
230
1
0
LINE
5
D7
100
AcDbEntity
8
1
62
256
6
ByLayer
370
-1
48
1
60
0
100
AcDbLine
10
117.857004
20
4.570172
30
0
11
117.699592
21
9.095065
31
0
39
0
210
0
220
0
230
1
0
LINE
5
D8
100
AcDbEntity
8
1
62
256
6
ByLayer
370
-1
48
1
60
0
100
AcDbLine
10
117.307165
20
9.802477
30
0
11
117.293314
21
9.744237
31
0
39
0
210
0
220
0
230
1
0
LINE
5
D9
100
AcDbEntity
8
1
62
256
6
ByLayer
370
-1
48
1
60
0
100
AcDbLine
10
117.514691
20
3.837004
30
0
11
117.496826
21
3.894164
31
0
39
0
210
0
220
0
230
1
0
LINE
5
DA
100
AcDbEntity
8
1
62
256
6
ByLayer
370
-1
48
1
60
0
100
AcDbLine
10
112.55138
20
3.647979
30
0
11
112.549387
21
3.707731
31
0
39
0
210
0
220
0
230
1
0
LINE
5
DB
100
AcDbEntity
8
1
62
256
6
ByLayer
370
-1
48
1
60
0
100
AcDbLine
10
111.728677
20
9.253159
30
0
11
111.786239
21
9.239713
31
0
39
0
210
0
220
0
230
1
0
LINE
5
DC
100
AcDbEntity
8
1
62
256
6
ByLayer
370
-1
48
1
60
0
100
AcDbLine
10
116.941072
20
9.805099
30
0
11
112.433397
21
9.647086
31
0
39
0
210
0
220
0
230
1
0
LINE
5
DD
100
AcDbEntity
8
1
62
256
6
ByLayer
370
-1
48
1
60
0
100
AcDbLine
10
117.859756
20
4.479208
30
0
11
117.799775
21
4.477666
31
0
39
0
210
0
220
0
230
1
0
LINE
5
DE
100
AcDbEntity
8
1
62
256
6
ByLayer
370
-1
48
1
60
0
100
AcDbLine
10
117.862052
20
4.270166
30
0
11
117.802052
21
4.270166
31
0
39
0
210
0
220
0
230
1
0
LINE
5
DF
100
AcDbEntity
8
1
62
256
6
ByLayer
370
-1
48
1
60
0
100
AcDbLine
10
117.289016
20
3.814739
30
0
11
117.285358
21
3.874424
31
0
39
0
210
0
220
0
230
1
0
LINE
5
E0
100
AcDbEntity
8
1
62
256
6
ByLayer
370
-1
48
1
60
0
100
AcDbLine
10
117.69363
20
9.234941
30
0
11
117.633716
21
9.231727
31
0
39
0
210
0
220
0
230
1
0
LINE
5
E1
100
AcDbEntity
8
SK1
62
256
6
ByLayer
370
-1
48
1
60
0
100
AcDbLine
10
-6.5
20
-6.998498
30
0
11
-52.6
21
-6.998498
31
0
39
0
210
0
220
0
230
1
0
LINE
5
E2
100
AcDbEntity
8
SK1
62
256
6
ByLayer
370
-1
48
1
60
0
100
AcDbLine
10
-54.516223
20
-6.812044
30
0
11
-54.516223
21
-12.393294
31
0
39
0
210
0
220
0
230
1
0
LINE
5
E3
100
AcDbEntity
8
SK1
62
256
6
ByLayer
370
-1
48
1
60
0
100
AcDbLine
10
-54.516223
20
12.393294
30
0
11
-54.516223
21
6.812044
31
0
39
0
210
0
220
0
230
1
0
LINE
5
E4
100
AcDbEntity
8
SK1
62
256
6
ByLayer
370
-1
48
1
60
0
100
AcDbLine
10
-54.6
20
-6.998498
30
0
11
-55
21
-6.998498
31
0
39
0
210
0
220
0
230
1
0
LINE
5
E5
100
AcDbEntity
8
SK1
62
256
6
ByLayer
370
-1
48
1
60
0
100
AcDbLine
10
-54.6
20
-12.49675
30
0
11
-54.6
21
-6.998498
31
0
39
0
210
0
220
0
230
1
0
LINE
5
E6
100
AcDbEntity
8
SK1
62
256
6
ByLayer
370
-1
48
1
60
0
100
AcDbLine
10
-54.6
20
6.998498
30
0
11
-54.6
21
12.49675
31
0
39
0
210
0
220
0
230
1
0
LINE
5
E7
100
AcDbEntity
8
SK1
62
256
6
ByLayer
370
-1
48
1
60
0
100
AcDbLine
10
-0.15
20
12.25
30
0
11
-0.15
21
-12.25
31
0
39
0
210
0
220
0
230
1
0
LINE
5
E8
100
AcDbEntity
8
SK1
62
256
6
ByLayer
370
-1
48
1
60
0
100
AcDbLine
10
-6.5
20
6.998498
30
0
11
-6.5
21
-6.998498
31
0
39
0
210
0
220
0
230
1
0
LINE
5
E9
100
AcDbEntity
8
SK1
62
256
6
ByLayer
370
-1
48
1
60
0
100
AcDbLine
10
-55
20
6.998498
30
0
11
-54.6
21
6.998498
31
0
39
0
210
0
220
0
230
1
0
LINE
5
EA
100
AcDbEntity
8
SK1
62
256
6
ByLayer
370
-1
48
1
60
0
100
AcDbLine
10
-56
20
4.998547
30
0
11
-56
21
-4.998547
31
0
39
0
210
0
220
0
230
1
0
LINE
5
EB
100
AcDbEntity
8
SK1
62
256
6
ByLayer
370
-1
48
1
60
0
100
AcDbLine
10
-56
20
-4.998547
30
0
11
-56
21
-11.49675
31
0
39
0
210
0
220
0
230
1
0
LINE
5
EC
100
AcDbEntity
8
SK1
62
256
6
ByLayer
370
-1
48
1
60
0
100
AcDbLine
10
-56
20
11.49675
30
0
11
-56
21
4.998547
31
0
39
0
210
0
220
0
230
1
0
LINE
5
ED
100
AcDbEntity
8
SK1
62
256
6
ByLayer
370
-1
48
1
60
0
100
AcDbLine
10
-1.551212
20
12.287477
30
0
11
-1.551212
21
-12.287477
31
0
39
0
210
0
220
0
230
1
0
LINE
5
EE
100
AcDbEntity
8
SK1
62
256
6
ByLayer
370
-1
48
1
60
0
100
AcDbLine
10
-53.633814
20
-6.340342
30
0
11
-53.633814
21
-12.140417
31
0
39
0
210
0
220
0
230
1
0
LINE
5
EF
100
AcDbEntity
8
SK1
62
256
6
ByLayer
370
-1
48
1
60
0
100
AcDbLine
10
-53.633814
20
12.140417
30
0
11
-53.633814
21
6.340342
31
0
39
0
210
0
220
0
230
1
0
LINE
5
F0
100
AcDbEntity
8
SK1
62
256
6
ByLayer
370
-1
48
1
60
0
100
AcDbLine
10
-52.6
20
6.998498
30
0
11
-52.6
21
12.49675
31
0
39
0
210
0
220
0
230
1
0
LINE
5
F1
100
AcDbEntity
8
SK1
62
256
6
ByLayer
370
-1
48
1
60
0
100
AcDbLine
10
-52.6
20
-12.49675
30
0
11
-52.6
21
-6.998498
31
0
39
0
210
0
220
0
230
1
0
LINE
5
F2
100
AcDbEntity
8
SK1
62
256
6
ByLayer
370
-1
48
1
60
0
100
AcDbLine
10
-2
20
-12.49675
30
0
11
-2
21
12.49675
31
0
39
0
210
0
220
0
230
1
0
LINE
5
F3
100
AcDbEntity
8
SK1
62
256
6
ByLayer
370
-1
48
1
60
0
100
AcDbLine
10
-55
20
-6.998498
30
0
11
-55
21
-12.49675
31
0
39
0
210
0
220
0
230
1
0
LINE
5
F4
100
AcDbEntity
8
SK1
62
256
6
ByLayer
370
-1
48
1
60
0
100
AcDbLine
10
-55
20
12.49675
30
0
11
-55
21
6.998498
31
0
39
0
210
0
220
0
230
1
0
LINE
5
F5
100
AcDbEntity
8
SK1
62
256
6
ByLayer
370
-1
48
1
60
0
100
AcDbLine
10
-52.6
20
6.998498
30
0
11
-6.5
21
6.998498
31
0
39
0
210
0
220
0
230
1
0
LINE
5
F6
100
AcDbEntity
8
SK1
62
256
6
ByLayer
370
-1
48
1
60
0
100
AcDbLine
10
-1.382165
20
12.25
30
0
11
-1.382165
21
-12.25
31
0
39
0
210
0
220
0
230
1
0
MTEXT
5
217
100
AcDbEntity
8
SK6
62
256
6
ByLayer
370
-1
48
1
60
0
100
AcDbMText
10
0.79375
20
-80.79375
30
0
210
0
220
0
230
1
1
\W00.723;\fsimplex.shx,bigfont.shx;880-D1950L25-05 
40
3.175
41
0
44
1.084337
50
0
71
7
72
5
7
DEFAULT
0
DIMENSION
5
247
100
AcDbEntity
8
SK2
62
256
6
ByLayer
370
-3
48
1
60
0
100
AcDbDimension
2
DimnDraft3D1
10
118
20
-54.86955
30
0
11
31
21
-54.86955
31
0
70
32
71
5
72
1
41
1
210
0
220
0
230
1
3
Standard
100
AcDbAlignedDimension
13
-56
23
-14.0875
33
0
14
118
24
-11.3375
34
0
50
0
100
AcDbRotatedDimension
1001
ACAD
1000
DSTYLE
1002
{
1070
   279
1070
     0
1070
   172
1070
     1
1070
   173
1070
     1
1070
   340
1005
218
1070
   271
1070
     1
1070
   272
1070
     2
1070
    77
1070
     1
1070
    73
1070
     0
1070
   171
1070
     3
1070
   274
1070
     4
1070
   177
1070
   150
1070
   176
1070
     9
1070
   178
1070
    43
1070
    78
1070
     8
1070
    48
1040
-0.005
1070
    41
1041
4.175
1070
   147
1041
2.25
1070
    42
1041
1.5875
1070
    44
1041
3.175
1070
   140
1041
4.5
1070
   343
1005
0
1070
   344
1005
0
1002
}
0
DIMENSION
5
251
100
AcDbEntity
8
SK2
62
256
6
ByLayer
370
-3
48
1
60
0
100
AcDbDimension
2
DimnDraft3D2
10
0
20
-42.9008
30
0
11
-28
21
-42.9008
31
0
70
32
71
5
72
1
41
1
210
0
220
0
230
1
3
Standard
100
AcDbAlignedDimension
13
-56
23
-14.0875
33
0
14
0
24
-17.5875
34
0
50
0
100
AcDbRotatedDimension
1001
ACAD
1000
DSTYLE
1002
{
1070
   279
1070
     0
1070
   172
1070
     1
1070
   173
1070
     1
1070
   340
1005
218
1070
   271
1070
     1
1070
   272
1070
     2
1070
    77
1070
     1
1070
    73
1070
     0
1070
   171
1070
     3
1070
   274
1070
     4
1070
   177
1070
   150
1070
   176
1070
     9
1070
   178
1070
    43
1070
    78
1070
     8
1070
    48
1040
-0.005
1070
    41
1041
4.175
1070
   147
1041
2.25
1070
    42
1041
1.5875
1070
    44
1041
3.175
1070
   140
1041
4.5
1070
   343
1005
0
1070
   344
1005
0
1002
}
0
DIMENSION
5
25C
100
AcDbEntity
8
2
62
256
6
ByLayer
370
-3
48
1
60
0
100
AcDbDimension
2
DimnDraft3D3
10
118
20
-42.9008
30
0
11
59
21
-42.9008
31
0
70
32
71
5
72
1
41
1
210
0
220
0
230
1
3
Standard
100
AcDbAlignedDimension
13
0
23
-17.5875
33
0
14
118
24
-11.3375
34
0
50
0
100
AcDbRotatedDimension
1001
ACAD
1000
DSTYLE
1002
{
1070
   279
1070
     0
1070
   172
1070
     1
1070
   173
1070
     1
1070
   340
1005
218
1070
   271
1070
     1
1070
   272
1070
     2
1070
    77
1070
     1
1070
    73
1070
     0
1070
   171
1070
     3
1070
   274
1070
     4
1070
   177
1070
   150
1070
   176
1070
     9
1070
   178
1070
    43
1070
    78
1070
     8
1070
    48
1040
-0.005
1070
    41
1041
4.175
1070
   147
1041
2.25
1070
    42
1041
1.5875
1070
    44
1041
3.175
1070
   140
1041
4.5
1070
   343
1005
0
1070
   344
1005
0
1002
}
0
DIMENSION
5
266
100
AcDbEntity
8
SK2
62
256
6
ByLayer
370
-3
48
1
60
0
100
AcDbDimension
2
DimnDraft3D4
10
118
20
-32.9008
30
0
11
67.5
21
-32.9008
31
0
70
32
71
5
72
1
41
1
210
0
220
0
230
1
3
Standard
100
AcDbAlignedDimension
13
17
23
-11.5875
33
0
14
118
24
-11.3375
34
0
50
0
100
AcDbRotatedDimension
1001
ACAD
1000
DSTYLE
1002
{
1070
   279
1070
     0
1070
   172
1070
     1
1070
   173
1070
     1
1070
   340
1005
218
1070
   271
1070
     1
1070
   272
1070
     2
1070
    77
1070
     1
1070
    73
1070
     0
1070
   171
1070
     3
1070
   274
1070
     4
1070
   177
1070
   150
1070
   176
1070
     9
1070
   178
1070
    43
1070
    78
1070
     8
1070
    48
1040
-0.005
1070
    41
1041
4.175
1070
   147
1041
2.25
1070
    42
1041
1.5875
1070
    44
1041
3.175
1070
   140
1041
4.5
1070
   343
1005
0
1070
   344
1005
0
1002
}
0
DIMENSION
5
271
100
AcDbEntity
8
SK2
62
256
6
ByLayer
370
-3
48
1
60
0
100
AcDbDimension
2
DimnDraft3D5
10
-67.9
20
-12.5
30
0
11
-68.1
21
4.121053
31
0
70
33
71
5
72
1
41
1
210
0
220
0
230
1
3
Standard
100
AcDbAlignedDimension
13
-57.5875
23
12.5
33
0
14
-57.5875
24
-12.5
34
0
1001
ACAD
1000
DSTYLE
1002
{
1070
   279
1070
     0
1070
    74
1070
     0
1070
   173
1070
     1
1070
   340
1005
218
1070
   271
1070
     2
1070
   272
1070
     2
1070
    77
1070
     1
1070
    73
1070
     0
1070
   171
1070
     3
1070
   274
1070
     4
1070
   177
1070
   150
1070
   176
1070
     9
1070
   178
1070
    43
1070
    78
1070
     8
1070
    48
1040
-0.005
1070
    41
1041
4.175
1070
   147
1041
2.25
1070
    42
1041
1.5875
1070
    44
1041
3.175
1070
   140
1041
4.5
1070
   343
1005
0
1070
   344
1005
0
1002
}
0
DIMENSION
5
27C
100
AcDbEntity
8
SK2
62
256
6
ByLayer
370
-3
48
1
60
0
100
AcDbDimension
2
DimnDraft3D6
10
-77.9
20
16
30
0
11
-78.1
21
4.121053
31
0
70
33
71
5
72
1
41
1
210
0
220
0
230
1
3
Standard
100
AcDbAlignedDimension
13
-1.5875
23
-16
33
0
14
-1.5875
24
16
34
0
1001
ACAD
1000
DSTYLE
1002
{
1070
   279
1070
     0
1070
    74
1070
     0
1070
   173
1070
     1
1070
   340
1005
218
1070
   271
1070
     1
1070
   272
1070
     2
1070
    77
1070
     1
1070
    73
1070
     0
1070
   171
1070
     3
1070
   274
1070
     4
1070
   177
1070
   150
1070
   176
1070
     9
1070
   178
1070
    43
1070
    78
1070
     8
1070
    48
1040
-0.005
1070
    41
1041
4.175
1070
   147
1041
2.25
1070
    42
1041
1.5875
1070
    44
1041
3.175
1070
   140
1041
4.5
1070
   343
1005
0
1070
   344
1005
0
1002
}
0
DIMENSION
5
287
100
AcDbEntity
8
2
62
256
6
ByLayer
370
-3
48
1
60
0
100
AcDbDimension
2
DimnDraft3D7
10
148.15
20
-9.75
30
0
11
141.6
21
-31.063816
31
0
70
33
71
5
72
1
41
1
210
0
220
0
230
1
3
Standard
100
AcDbAlignedDimension
13
119.5875
23
9.75
33
0
14
119.5875
24
-9.75
34
0
1001
ACAD
1000
DSTYLE
1002
{
1070
   279
1070
     0
1070
    74
1070
     0
1070
   173
1070
     1
1070
   340
1005
218
1070
   271
1070
     2
1070
   272
1070
     2
1070
    77
1070
     1
1070
    73
1070
     0
1070
   171
1070
     3
1070
   274
1070
     4
1070
   177
1070
   150
1070
   176
1070
     9
1070
   178
1070
    43
1070
    78
1070
     8
1070
    48
1040
-0.005
1070
    41
1041
4.175
1070
   147
1041
2.25
1070
    42
1041
1.5875
1070
    44
1041
3.175
1070
   140
1041
4.5
1070
   343
1005
0
1070
   344
1005
0
1002
}
0
ENDSEC
0
SECTION
2
OBJECTS
0
DICTIONARY
5
2b8
330
0
100
AcDbDictionary
280
0
281
1
3
ACAD_GROUP
350
2b9
3
ACAD_MLINESTYLE
350
2ba
0
DICTIONARY
5
2b9
330
0
100
AcDbDictionary
280
0
281
1
0
DICTIONARY
5
2ba
330
0
100
AcDbDictionary
280
0
281
1
3
Standard
350
18
0
MLINESTYLE
5
18
330
2ba
100
AcDbMlineStyle
2
Standard
70
0
3

62
256
51
90
52
90
71
2
49
-0.5
62
256
6
ByLayer
49
0.5
62
256
6
ByLayer
0
RASTERVARIABLES
5
2a6
330

100
AcDbRasterVariables
90
0
70
1
71
1
72
1
0
ENDSEC
0
EOF
