0
SECTION
2
HEADER
9
$ACADVER
1
AC1015
9
$DWGCODEPAGE
3
ANSI_1252
9
$HANDSEED
5
2c2
9
$ANGBASE
50
0
9
$ANGDIR
70
0
9
$ATTMODE
70
1
9
$AUNITS
70
0
9
$AUPREC
70
0
9
$CECOLOR
62
256
9
$CELTSCALE
40
1
9
$CELTYPE
6
ByLayer
9
$CELWEIGHT
370
-1
9
$CLAYER
8
0
9
$CMLJUST
70
0
9
$CMLSCALE
40
1
9
$CMLSTYLE
2
Standard
9
$DIMSTYLE
2
Standard
9
$TEXTSIZE
40
0.2
9
$TEXTSTYLE
7
Standard
9
$LUNITS
70
2
9
$LUPREC
70
4
9
$EXTNAMES
290
1
9
$INSUNITS
70
4
9
$LTSCALE
40
1
9
$LWDISPLAY
290
0
9
$PDMODE
70
0
9
$PDSIZE
40
0
9
$PLINEGEN
70
0
0
ENDSEC
0
SECTION
2
CLASSES
0
CLASS
1
RASTERVARIABLES
2
AcDbRasterVariables
3
ISM
90
0
280
0
281
0
0
ENDSEC
0
SECTION
2
TABLES
0
TABLE
2
VPORT
5
2b8
100
AcDbSymbolTable
0
VPORT
5
1
100
AcDbSymbolTableRecord
100
AcDbViewportTableRecord
2
*Active
70
0
10
0
20
0
11
1
21
1
12
-1
22
1
13
0
23
0
14
0.5
24
0.5
15
10
25
10
16
0
26
0
36
1
17
0
27
0
37
0
0
ENDTAB
0
TABLE
2
LTYPE
5
2b9
100
AcDbSymbolTable
0
LTYPE
5
14
100
AcDbSymbolTableRecord
100
AcDbLinetypeTableRecord
70
0
2
ByBlock
3

72
65
73
0
40
0
0
LTYPE
5
15
100
AcDbSymbolTableRecord
100
AcDbLinetypeTableRecord
70
0
2
ByLayer
3

72
65
73
0
40
0
0
LTYPE
5
16
100
AcDbSymbolTableRecord
100
AcDbLinetypeTableRecord
70
0
2
CONTINUOUS
3
Solid line
72
65
73
0
40
0
0
LTYPE
5
3B
100
AcDbSymbolTableRecord
100
AcDbLinetypeTableRecord
70
0
2
DASHED
3
__ __ __ __ __ __ __ __ __
72
65
73
2
40
25.72
49
12.86
74
0
49
-12.86
74
0
0
LTYPE
5
3C
100
AcDbSymbolTableRecord
100
AcDbLinetypeTableRecord
70
0
2
HIDDEN
3
_ _ _ _ _ _ _ _ _ _ _ _ _ _ _
72
65
73
2
40
0.5
49
0.25
74
0
49
-0.25
74
0
0
LTYPE
5
3D
100
AcDbSymbolTableRecord
100
AcDbLinetypeTableRecord
70
0
2
PHANTOM
3
____ _ _ ____ _ _ _____ _ _ ____
72
65
73
6
40
50.5
49
18
74
0
49
-6.5
74
0
49
6.5
74
0
49
-6.5
74
0
49
6.5
74
0
49
-6.5
74
0
0
LTYPE
5
3E
100
AcDbSymbolTableRecord
100
AcDbLinetypeTableRecord
70
0
2
CENTER
3
____ _ ____ _ ____ _ ____
72
65
73
4
40
47.5
49
22
74
0
49
-8.5
74
0
49
8.5
74
0
49
-8.5
74
0
0
LTYPE
5
3F
100
AcDbSymbolTableRecord
100
AcDbLinetypeTableRecord
70
0
2
DOT
3
.........................
72
65
73
2
40
10
49
0
74
0
49
-10
74
0
0
LTYPE
5
40
100
AcDbSymbolTableRecord
100
AcDbLinetypeTableRecord
70
0
2
DASHDOT
3
_._._._._._._._._._._._._._._._.
72
65
73
4
40
70
49
31
74
0
49
-13
74
0
49
13
74
0
49
-13
74
0
0
ENDTAB
0
TABLE
2
LAYER
5
2ba
100
AcDbSymbolTable
0
LAYER
5
10
100
AcDbSymbolTableRecord
100
AcDbLayerTableRecord
2
0
70
0
62
7
6
CONTINUOUS
290
1
370
-3
390
0
0
LAYER
5
42
100
AcDbSymbolTableRecord
100
AcDbLayerTableRecord
2
81
70
0
62
-3
6
CONTINUOUS
290
1
370
-3
390
0
0
LAYER
5
44
100
AcDbSymbolTableRecord
100
AcDbLayerTableRecord
2
80
70
0
62
-6
6
CONTINUOUS
290
1
370
-3
390
0
0
LAYER
5
57
100
AcDbSymbolTableRecord
100
AcDbLayerTableRecord
2
1
70
0
62
4
6
CONTINUOUS
290
1
370
-3
390
0
0
LAYER
5
63
100
AcDbSymbolTableRecord
100
AcDbLayerTableRecord
2
4
70
0
62
-2
6
CENTER
290
1
370
-3
390
0
0
LAYER
5
251
100
AcDbSymbolTableRecord
100
AcDbLayerTableRecord
2
2
70
0
62
7
6
CONTINUOUS
290
1
370
-3
390
0
0
LAYER
5
2a4
100
AcDbSymbolTableRecord
100
AcDbLayerTableRecord
2
SK1
70
0
62
4
6
CONTINUOUS
290
1
370
-3
390
0
0
LAYER
5
2a5
100
AcDbSymbolTableRecord
100
AcDbLayerTableRecord
2
SK4
70
0
62
2
6
CENTER
290
1
370
-3
390
0
0
LAYER
5
2a6
100
AcDbSymbolTableRecord
100
AcDbLayerTableRecord
2
SK6
70
0
62
5
6
CONTINUOUS
290
1
370
-3
390
0
0
LAYER
5
2a7
100
AcDbSymbolTableRecord
100
AcDbLayerTableRecord
2
SK2
70
0
62
7
6
CONTINUOUS
290
1
370
-3
390
0
0
ENDTAB
0
TABLE
2
STYLE
5
2bb
100
AcDbSymbolTable
0
STYLE
5
11
100
AcDbSymbolTableRecord
100
AcDbTextStyleTableRecord
2
Standard
3
txt
70
0
71
0
40
0
41
1
42
0
50
0
0
STYLE
5
215
100
AcDbSymbolTableRecord
100
AcDbTextStyleTableRecord
2
DEFAULT
3
simplex.shx
70
0
71
0
40
0
41
1
42
0
50
0
0
STYLE
5
238
100
AcDbSymbolTableRecord
100
AcDbTextStyleTableRecord
2
DWGDirectTextStyle
3
SIMPLEX
70
0
71
0
40
0
41
1
42
0
50
0
0
ENDTAB
0
TABLE
2
DIMSTYLE
5
2bc
100
AcDbSymbolTable
100
AcDbDimStyleTable
0
DIMSTYLE
105
27
100
AcDbSymbolTableRecord
100
AcDbDimStyleTableRecord
2
Standard
70
0
3
<>
41
0.18
42
0.0625
44
0.18
140
0.18
147
0.09
73
0
74
0
77
1
271
2
275
0
278
52
280
0
340
11
0
ENDTAB
0
TABLE
2
VIEW
5
2bd
100
AcDbSymbolTable
0
ENDTAB
0
TABLE
2
UCS
5
2be
100
AcDbSymbolTable
0
ENDTAB
0
TABLE
2
APPID
5
2bf
100
AcDbSymbolTable
0
APPID
5
12
100
AcDbSymbolTableRecord
100
AcDbRegAppTableRecord
2
ACAD
70
0
0
ENDTAB
0
TABLE
2
BLOCK_RECORD
5
2c0
100
AcDbSymbolTable
0
BLOCK_RECORD
5
1F
100
AcDbSymbolTableRecord
100
AcDbBlockTableRecord
2
*Model_Space
340
0
70
0
0
BLOCK_RECORD
5
1B
100
AcDbSymbolTableRecord
100
AcDbBlockTableRecord
2
*Paper_Space
340
0
70
0
0
BLOCK_RECORD
5
23
100
AcDbSymbolTableRecord
100
AcDbBlockTableRecord
2
*Paper_Space0
340
0
70
0
0
BLOCK_RECORD
5
23A
100
AcDbSymbolTableRecord
100
AcDbBlockTableRecord
2
DimnDraft3D1
340
0
70
0
0
BLOCK_RECORD
5
245
100
AcDbSymbolTableRecord
100
AcDbBlockTableRecord
2
DimnDraft3D2
340
0
70
0
0
BLOCK_RECORD
5
24F
100
AcDbSymbolTableRecord
100
AcDbBlockTableRecord
2
DimnDraft3D3
340
0
70
0
0
BLOCK_RECORD
5
25A
100
AcDbSymbolTableRecord
100
AcDbBlockTableRecord
2
DimnDraft3D4
340
0
70
0
0
BLOCK_RECORD
5
264
100
AcDbSymbolTableRecord
100
AcDbBlockTableRecord
2
DimnDraft3D5
340
0
70
0
0
BLOCK_RECORD
5
26F
100
AcDbSymbolTableRecord
100
AcDbBlockTableRecord
2
DimnDraft3D6
340
0
70
0
0
BLOCK_RECORD
5
27A
100
AcDbSymbolTableRecord
100
AcDbBlockTableRecord
2
DimnDraft3D7
340
0
70
0
0
ENDTAB
0
ENDSEC
0
SECTION
2
BLOCKS
0
BLOCK
5
20
100
AcDbEntity
8
0
100
AcDbBlockBegin
2
*Model_Space
70
0
10
0
20
0
30
0
3
*Model_Space
0
ENDBLK
5
21
100
AcDbEntity
8
0
100
AcDbBlockEnd
0
BLOCK
5
1C
100
AcDbEntity
8
0
100
AcDbBlockBegin
2
*Paper_Space
70
0
10
0
20
0
30
0
3
*Paper_Space
0
ENDBLK
5
1D
100
AcDbEntity
8
0
100
AcDbBlockEnd
0
BLOCK
5
24
100
AcDbEntity
8
0
100
AcDbBlockBegin
2
*Paper_Space0
70
0
10
0
20
0
30
0
3
*Paper_Space0
0
ENDBLK
5
25
100
AcDbEntity
8
0
100
AcDbBlockEnd
0
BLOCK
5
242
100
AcDbEntity
8
0
100
AcDbBlockBegin
2
DimnDraft3D1
70
0
10
0
20
0
30
0
3
DimnDraft3D1
0
MTEXT
5
23B
100
AcDbEntity
8
SK2
62
256
6
ByLayer
370
-1
48
1
60
0
100
AcDbMText
10
21.906579
20
-51.7758
30
0
210
0
220
0
230
1
1
\W01.000;\fsimplex.shx,bigfont.shx;(170) 
40
4.5
41
0
44
1.084337
50
0
71
7
72
5
7
DEFAULT
0
LINE
5
23D
100
AcDbEntity
8
SK2
62
256
6
ByLayer
370
-1
48
1
60
0
100
AcDbLine
10
-56
20
-14.0875
30
0
11
-56
21
-58.04455
31
0
39
0
210
0
220
0
230
1
0
LINE
5
23E
100
AcDbEntity
8
SK2
62
256
6
ByLayer
370
-1
48
1
60
0
100
AcDbLine
10
114
20
-11.0875
30
0
11
114
21
-58.04455
31
0
39
0
210
0
220
0
230
1
0
LINE
5
23F
100
AcDbEntity
8
SK2
62
256
6
ByLayer
370
-1
48
1
60
0
100
AcDbLine
10
-56
20
-54.86955
30
0
11
114
21
-54.86955
31
0
39
0
210
0
220
0
230
1
0
SOLID
5
240
100
AcDbEntity
8
SK2
62
256
6
ByLayer
370
-1
48
1
60
0
100
AcDbTrace
10
-56
20
-54.86955
30
0
11
-51.825003
21
-53.943975
31
0
12
-51.824997
22
-55.795125
32
0
13
-56
23
-54.86955
33
0
39
0
210
0
220
0
230
1
0
SOLID
5
241
100
AcDbEntity
8
SK2
62
256
6
ByLayer
370
-1
48
1
60
0
100
AcDbTrace
10
114
20
-54.86955
30
0
11
109.825003
21
-55.795125
31
0
12
109.824997
22
-53.943975
32
0
13
114
23
-54.86955
33
0
39
0
210
0
220
0
230
1
0
ENDBLK
5
243
100
AcDbEntity
8
0
100
AcDbBlockEnd
0
BLOCK
5
24C
100
AcDbEntity
8
0
100
AcDbBlockBegin
2
DimnDraft3D2
70
0
10
0
20
0
30
0
3
DimnDraft3D2
0
MTEXT
5
246
100
AcDbEntity
8
SK2
62
256
6
ByLayer
370
-1
48
1
60
0
100
AcDbMText
10
-29.503947
20
-41.7758
30
0
210
0
220
0
230
1
1
\W01.000;\fsimplex.shx,bigfont.shx;56 
40
4.5
41
0
44
1.084337
50
0
71
7
72
5
7
DEFAULT
0
LINE
5
247
100
AcDbEntity
8
SK2
62
256
6
ByLayer
370
-1
48
1
60
0
100
AcDbLine
10
-56
20
-14.0875
30
0
11
-56
21
-46.0758
31
0
39
0
210
0
220
0
230
1
0
LINE
5
248
100
AcDbEntity
8
SK2
62
256
6
ByLayer
370
-1
48
1
60
0
100
AcDbLine
10
0
20
-17.5875
30
0
11
0
21
-46.0758
31
0
39
0
210
0
220
0
230
1
0
LINE
5
249
100
AcDbEntity
8
SK2
62
256
6
ByLayer
370
-1
48
1
60
0
100
AcDbLine
10
-56
20
-42.9008
30
0
11
0
21
-42.9008
31
0
39
0
210
0
220
0
230
1
0
SOLID
5
24A
100
AcDbEntity
8
SK2
62
256
6
ByLayer
370
-1
48
1
60
0
100
AcDbTrace
10
-56
20
-42.9008
30
0
11
-51.825003
21
-41.975225
31
0
12
-51.824997
22
-43.826375
32
0
13
-56
23
-42.9008
33
0
39
0
210
0
220
0
230
1
0
SOLID
5
24B
100
AcDbEntity
8
SK2
62
256
6
ByLayer
370
-1
48
1
60
0
100
AcDbTrace
10
0
20
-42.9008
30
0
11
-4.174997
21
-43.826375
31
0
12
-4.175003
22
-41.975225
32
0
13
0
23
-42.9008
33
0
39
0
210
0
220
0
230
1
0
ENDBLK
5
24D
100
AcDbEntity
8
0
100
AcDbBlockEnd
0
BLOCK
5
257
100
AcDbEntity
8
0
100
AcDbBlockBegin
2
DimnDraft3D3
70
0
10
0
20
0
30
0
3
DimnDraft3D3
0
MTEXT
5
250
100
AcDbEntity
8
2
62
256
6
ByLayer
370
-1
48
1
60
0
100
AcDbMText
10
54.732237
20
-41.7758
30
0
210
0
220
0
230
1
1
\W01.000;\fsimplex.shx,bigfont.shx;114 
40
4.5
41
0
44
1.084337
50
0
71
7
72
5
7
DEFAULT
0
LINE
5
252
100
AcDbEntity
8
2
62
256
6
ByLayer
370
-1
48
1
60
0
100
AcDbLine
10
0
20
-17.5875
30
0
11
0
21
-46.0758
31
0
39
0
210
0
220
0
230
1
0
LINE
5
253
100
AcDbEntity
8
2
62
256
6
ByLayer
370
-1
48
1
60
0
100
AcDbLine
10
114
20
-11.0875
30
0
11
114
21
-46.0758
31
0
39
0
210
0
220
0
230
1
0
LINE
5
254
100
AcDbEntity
8
2
62
256
6
ByLayer
370
-1
48
1
60
0
100
AcDbLine
10
0
20
-42.9008
30
0
11
114
21
-42.9008
31
0
39
0
210
0
220
0
230
1
0
SOLID
5
255
100
AcDbEntity
8
2
62
256
6
ByLayer
370
-1
48
1
60
0
100
AcDbTrace
10
0
20
-42.9008
30
0
11
4.174997
21
-41.975225
31
0
12
4.175003
22
-43.826375
32
0
13
0
23
-42.9008
33
0
39
0
210
0
220
0
230
1
0
SOLID
5
256
100
AcDbEntity
8
2
62
256
6
ByLayer
370
-1
48
1
60
0
100
AcDbTrace
10
114
20
-42.9008
30
0
11
109.825003
21
-43.826375
31
0
12
109.824997
22
-41.975225
32
0
13
114
23
-42.9008
33
0
39
0
210
0
220
0
230
1
0
ENDBLK
5
258
100
AcDbEntity
8
0
100
AcDbBlockEnd
0
BLOCK
5
261
100
AcDbEntity
8
0
100
AcDbBlockBegin
2
DimnDraft3D4
70
0
10
0
20
0
30
0
3
DimnDraft3D4
0
MTEXT
5
25B
100
AcDbEntity
8
SK2
62
256
6
ByLayer
370
-1
48
1
60
0
100
AcDbMText
10
63.496053
20
-31.7758
30
0
210
0
220
0
230
1
1
\W01.000;\fsimplex.shx,bigfont.shx;98 
40
4.5
41
0
44
1.084337
50
0
71
7
72
5
7
DEFAULT
0
LINE
5
25C
100
AcDbEntity
8
SK2
62
256
6
ByLayer
370
-1
48
1
60
0
100
AcDbLine
10
16
20
-11.5875
30
0
11
16
21
-36.0758
31
0
39
0
210
0
220
0
230
1
0
LINE
5
25D
100
AcDbEntity
8
SK2
62
256
6
ByLayer
370
-1
48
1
60
0
100
AcDbLine
10
114
20
-11.0875
30
0
11
114
21
-36.0758
31
0
39
0
210
0
220
0
230
1
0
LINE
5
25E
100
AcDbEntity
8
SK2
62
256
6
ByLayer
370
-1
48
1
60
0
100
AcDbLine
10
16
20
-32.9008
30
0
11
114
21
-32.9008
31
0
39
0
210
0
220
0
230
1
0
SOLID
5
25F
100
AcDbEntity
8
SK2
62
256
6
ByLayer
370
-1
48
1
60
0
100
AcDbTrace
10
16
20
-32.9008
30
0
11
20.174997
21
-31.975225
31
0
12
20.175003
22
-33.826375
32
0
13
16
23
-32.9008
33
0
39
0
210
0
220
0
230
1
0
SOLID
5
260
100
AcDbEntity
8
SK2
62
256
6
ByLayer
370
-1
48
1
60
0
100
AcDbTrace
10
114
20
-32.9008
30
0
11
109.825003
21
-33.826375
31
0
12
109.824997
22
-31.975225
32
0
13
114
23
-32.9008
33
0
39
0
210
0
220
0
230
1
0
ENDBLK
5
262
100
AcDbEntity
8
0
100
AcDbBlockEnd
0
BLOCK
5
26C
100
AcDbEntity
8
0
100
AcDbBlockBegin
2
DimnDraft3D5
70
0
10
0
20
0
30
0
3
DimnDraft3D5
0
MTEXT
5
265
100
AcDbEntity
8
SK2
62
256
6
ByLayer
370
-1
48
1
60
0
100
AcDbMText
10
-66.975
20
5.246053
30
0
210
0
220
0
230
1
1
\W01.000;\fsimplex.shx,bigfont.shx;25 
40
4.5
41
0
44
1.084337
50
90
71
7
72
5
7
DEFAULT
0
MTEXT
5
266
100
AcDbEntity
8
SK2
62
256
6
ByLayer
370
-1
48
1
60
0
100
AcDbMText
10
-66.975
20
-8.253947
30
0
210
0
220
0
230
1
1
\W01.000;\fsimplex.shx,bigfont.shx;%%c 
40
4.5
41
0
44
1.084337
50
90
71
7
72
5
7
DEFAULT
0
LINE
5
267
100
AcDbEntity
8
SK2
62
256
6
ByLayer
370
-1
48
1
60
0
100
AcDbLine
10
-57.5875
20
12.5
30
0
11
-67.9
21
12.5
31
0
39
0
210
0
220
0
230
1
0
LINE
5
268
100
AcDbEntity
8
SK2
62
256
6
ByLayer
370
-1
48
1
60
0
100
AcDbLine
10
-57.5875
20
-12.5
30
0
11
-67.9
21
-12.5
31
0
39
0
210
0
220
0
230
1
0
LINE
5
269
100
AcDbEntity
8
SK2
62
256
6
ByLayer
370
-1
48
1
60
0
100
AcDbLine
10
-64.725
20
23.75
30
0
11
-64.725
21
-23.75
31
0
39
0
210
0
220
0
230
1
0
SOLID
5
26A
100
AcDbEntity
8
SK2
62
256
6
ByLayer
370
-1
48
1
60
0
100
AcDbTrace
10
-64.725
20
12.5
30
0
11
-65.650575
21
16.674997
31
0
12
-63.799425
22
16.675003
32
0
13
-64.725
23
12.5
33
0
39
0
210
0
220
0
230
1
0
SOLID
5
26B
100
AcDbEntity
8
SK2
62
256
6
ByLayer
370
-1
48
1
60
0
100
AcDbTrace
10
-64.725
20
-12.5
30
0
11
-63.799425
21
-16.674997
31
0
12
-65.650575
22
-16.675003
32
0
13
-64.725
23
-12.5
33
0
39
0
210
0
220
0
230
1
0
ENDBLK
5
26D
100
AcDbEntity
8
0
100
AcDbBlockEnd
0
BLOCK
5
277
100
AcDbEntity
8
0
100
AcDbBlockBegin
2
DimnDraft3D6
70
0
10
0
20
0
30
0
3
DimnDraft3D6
0
MTEXT
5
270
100
AcDbEntity
8
SK2
62
256
6
ByLayer
370
-1
48
1
60
0
100
AcDbMText
10
-76.975
20
5.246053
30
0
210
0
220
0
230
1
1
\W01.000;\fsimplex.shx,bigfont.shx;32 
40
4.5
41
0
44
1.084337
50
90
71
7
72
5
7
DEFAULT
0
MTEXT
5
271
100
AcDbEntity
8
SK2
62
256
6
ByLayer
370
-1
48
1
60
0
100
AcDbMText
10
-76.975
20
-8.253947
30
0
210
0
220
0
230
1
1
\W01.000;\fsimplex.shx,bigfont.shx;%%c 
40
4.5
41
0
44
1.084337
50
90
71
7
72
5
7
DEFAULT
0
LINE
5
272
100
AcDbEntity
8
SK2
62
256
6
ByLayer
370
-1
48
1
60
0
100
AcDbLine
10
-1.5875
20
-16
30
0
11
-77.9
21
-16
31
0
39
0
210
0
220
0
230
1
0
LINE
5
273
100
AcDbEntity
8
SK2
62
256
6
ByLayer
370
-1
48
1
60
0
100
AcDbLine
10
-1.5875
20
16
30
0
11
-77.9
21
16
31
0
39
0
210
0
220
0
230
1
0
LINE
5
274
100
AcDbEntity
8
SK2
62
256
6
ByLayer
370
-1
48
1
60
0
100
AcDbLine
10
-74.725
20
-16
30
0
11
-74.725
21
16
31
0
39
0
210
0
220
0
230
1
0
SOLID
5
275
100
AcDbEntity
8
SK2
62
256
6
ByLayer
370
-1
48
1
60
0
100
AcDbTrace
10
-74.725
20
-16
30
0
11
-75.650575
21
-11.825003
31
0
12
-73.799425
22
-11.824997
32
0
13
-74.725
23
-16
33
0
39
0
210
0
220
0
230
1
0
SOLID
5
276
100
AcDbEntity
8
SK2
62
256
6
ByLayer
370
-1
48
1
60
0
100
AcDbTrace
10
-74.725
20
16
30
0
11
-73.799425
21
11.825003
31
0
12
-75.650575
22
11.824997
32
0
13
-74.725
23
16
33
0
39
0
210
0
220
0
230
1
0
ENDBLK
5
278
100
AcDbEntity
8
0
100
AcDbBlockEnd
0
BLOCK
5
282
100
AcDbEntity
8
0
100
AcDbBlockBegin
2
DimnDraft3D7
70
0
10
0
20
0
30
0
3
DimnDraft3D7
0
MTEXT
5
27B
100
AcDbEntity
8
2
62
256
6
ByLayer
370
-1
48
1
60
0
100
AcDbMText
10
138.725
20
-24.620395
30
0
210
0
220
0
230
1
1
\W01.000;\fsimplex.shx,bigfont.shx;19 
40
4.5
41
0
44
1.084337
50
90
71
7
72
5
7
DEFAULT
0
MTEXT
5
27C
100
AcDbEntity
8
2
62
256
6
ByLayer
370
-1
48
1
60
0
100
AcDbMText
10
138.725
20
-38.120395
30
0
210
0
220
0
230
1
1
\W01.000;\fsimplex.shx,bigfont.shx;%%c 
40
4.5
41
0
44
1.084337
50
90
71
7
72
5
7
DEFAULT
0
LINE
5
27D
100
AcDbEntity
8
2
62
256
6
ByLayer
370
-1
48
1
60
0
100
AcDbLine
10
115.5875
20
9.5
30
0
11
144.15
21
9.5
31
0
39
0
210
0
220
0
230
1
0
LINE
5
27E
100
AcDbEntity
8
2
62
256
6
ByLayer
370
-1
48
1
60
0
100
AcDbLine
10
115.5875
20
-9.5
30
0
11
144.15
21
-9.5
31
0
39
0
210
0
220
0
230
1
0
LINE
5
27F
100
AcDbEntity
8
2
62
256
6
ByLayer
370
-1
48
1
60
0
100
AcDbLine
10
140.975
20
9.5
30
0
11
140.975
21
-39.245395
31
0
39
0
210
0
220
0
230
1
0
SOLID
5
280
100
AcDbEntity
8
2
62
256
6
ByLayer
370
-1
48
1
60
0
100
AcDbTrace
10
140.975
20
9.5
30
0
11
141.900575
21
5.325003
31
0
12
140.049425
22
5.324997
32
0
13
140.975
23
9.5
33
0
39
0
210
0
220
0
230
1
0
SOLID
5
281
100
AcDbEntity
8
2
62
256
6
ByLayer
370
-1
48
1
60
0
100
AcDbTrace
10
140.975
20
-9.5
30
0
11
140.049425
21
-5.325003
31
0
12
141.900575
22
-5.324997
32
0
13
140.975
23
-9.5
33
0
39
0
210
0
220
0
230
1
0
ENDBLK
5
283
100
AcDbEntity
8
0
100
AcDbBlockEnd
0
ENDSEC
0
SECTION
2
ENTITIES
0
ARC
5
F5
100
AcDbEntity
8
SK1
62
256
6
ByLayer
370
-1
48
1
60
0
100
AcDbCircle
39
0
10
1.382165
20
12.65
30
0
40
0.4
210
0
220
0
230
-1
100
AcDbArc
50
270
51
295
0
ARC
5
F6
100
AcDbEntity
8
SK1
62
256
6
ByLayer
370
-1
48
1
60
0
100
AcDbCircle
39
0
10
1.382165
20
-12.65
30
0
40
0.4
210
0
220
0
230
-1
100
AcDbArc
50
65
51
90
0
ARC
5
F7
100
AcDbEntity
8
SK1
62
256
6
ByLayer
370
-1
48
1
60
0
100
AcDbCircle
39
0
10
0.15
20
12.65
30
0
40
0.4
210
0
220
0
230
-1
100
AcDbArc
50
247.975687
51
270
0
ARC
5
F8
100
AcDbEntity
8
SK1
62
256
6
ByLayer
370
-1
48
1
60
0
100
AcDbCircle
39
0
10
0.15
20
-12.65
30
0
40
0.4
210
0
220
0
230
-1
100
AcDbArc
50
90
51
112.024313
0
ARC
5
F9
100
AcDbEntity
8
SK1
62
256
6
ByLayer
370
-1
48
1
60
0
100
AcDbCircle
39
0
10
53.894506
20
12.89675
30
0
40
0.8
210
0
220
0
230
-1
100
AcDbArc
50
250.982048
51
321
0
ARC
5
FA
100
AcDbEntity
8
SK1
62
256
6
ByLayer
370
-1
48
1
60
0
100
AcDbCircle
39
0
10
53.894506
20
-12.89675
30
0
40
0.8
210
0
220
0
230
-1
100
AcDbArc
50
39
51
109.017952
0
ELLIPSE
5
FB
100
AcDbEntity
8
1
62
256
6
ByLayer
370
-1
48
1
60
0
100
AcDbEllipse
10
110.72822
20
-1.847405
30
0
11
1.2
21
0
31
0
210
0
220
0
230
1
40
0.996917
41
0.0629299654718017
42
3.14159243441241
0
ELLIPSE
5
FC
100
AcDbEntity
8
1
62
256
6
ByLayer
370
-1
48
1
60
0
100
AcDbEllipse
10
107.306622
20
0
30
0
11
-70.6880042615006
21
0.734181332871208
31
0
210
0
220
0
230
-1
40
0.129734
41
-1.54843486558711
42
-1.5156836496183
0
ELLIPSE
5
FD
100
AcDbEntity
8
1
62
256
6
ByLayer
370
-1
48
1
60
0
100
AcDbEllipse
10
113.95175
20
0
30
0
11
-0.735942787895911
21
-9.19951912752709
31
0
210
0
220
0
230
-1
40
0.127813
41
0.0367884522959156
42
1.08423961924241
0
ELLIPSE
5
FE
100
AcDbEntity
8
1
62
256
6
ByLayer
370
-1
48
1
60
0
100
AcDbEllipse
10
104.985573
20
0
30
0
11
-42.7176769262759
21
-4.840338650253E-14
31
0
210
0
220
0
230
-1
40
0.215368
41
1.53903004744325
42
1.593243077626
0
ELLIPSE
5
FF
100
AcDbEntity
8
1
62
256
6
ByLayer
370
-1
48
1
60
0
100
AcDbEllipse
10
106.825959
20
9.193951
30
0
11
-6.43121623664089E-15
21
-6
31
0
210
0
220
0
230
1
40
0.996195
41
-0.221438990667871
42
-5.14307763549068E-07
0
ELLIPSE
5
100
100
AcDbEntity
8
1
62
256
6
ByLayer
370
-1
48
1
60
0
100
AcDbEllipse
10
104.718977
20
4.443515
30
0
11
-0.326425640836806
21
-0.730374082922088
31
0
210
0
220
0
230
1
40
0.079621
41
0.483363928734034
42
1.60636616336575
0
ELLIPSE
5
101
100
AcDbEntity
8
1
62
256
6
ByLayer
370
-1
48
1
60
0
100
AcDbEllipse
10
113.275716
20
0
30
0
11
-0.577472545710392
21
9.19974762755555
31
0
210
0
220
0
230
-1
40
0.118004
41
-2.03972161738476
42
-1.51767775569489
0
ELLIPSE
5
102
100
AcDbEntity
8
1
62
256
6
ByLayer
370
-1
48
1
60
0
100
AcDbEllipse
10
112.801566
20
-5.625026
30
0
11
-0.0978865080977629
21
-1.24670427751497
31
0
210
0
220
0
230
-1
40
0.127245
41
-2.84057259531888
42
2.96426471486533
0
ELLIPSE
5
103
100
AcDbEntity
8
1
62
256
6
ByLayer
370
-1
48
1
60
0
100
AcDbEllipse
10
108.129801
20
4.354662
30
0
11
-0.599637270106163
21
-0.0208601126465933
31
0
210
0
220
0
230
1
40
0.003042
41
0.0872135714656276
42
1.13795433213007
0
ELLIPSE
5
104
100
AcDbEntity
8
1
62
256
6
ByLayer
370
-1
48
1
60
0
100
AcDbEllipse
10
113.035072
20
-0.191821
30
0
11
-0.0380401230317734
21
0.601647642263896
31
0
210
0
220
0
230
-1
40
0.117632
41
-1.48074664597395
42
-1.3209844471002
0
ELLIPSE
5
105
100
AcDbEntity
8
1
62
256
6
ByLayer
370
-1
48
1
60
0
100
AcDbEllipse
10
107.006746
20
3.997119
30
0
11
0.0280261150489236
21
-0.799508934831416
31
0
210
0
220
0
230
1
40
0.087103
41
-0.00305330083576589
42
1.56774302595898
0
ELLIPSE
5
106
100
AcDbEntity
8
1
62
256
6
ByLayer
370
-1
48
1
60
0
100
AcDbEllipse
10
101.16233
20
3.983531
30
0
11
-11.6065033501084
21
0.610572462882002
31
0
210
0
220
0
230
-1
40
0.000308
41
-3.13662002873758
42
-3.13574350322845
0
ELLIPSE
5
107
100
AcDbEntity
8
1
62
256
6
ByLayer
370
-1
48
1
60
0
100
AcDbEllipse
10
108.210145
20
7.053658
30
0
11
-0.579980162321606
21
-0.618336926108687
31
0
210
0
220
0
230
-1
40
0.04503
41
-0.739916138658236
42
-0.421202239189547
0
ELLIPSE
5
108
100
AcDbEntity
8
1
62
256
6
ByLayer
370
-1
48
1
60
0
100
AcDbEllipse
10
113.275902
20
0
30
0
11
-0.570347131775394
21
9.19975353832778
31
0
210
0
220
0
230
-1
40
0.11807
41
-1.517765045906
42
-1.39659641036383
0
ELLIPSE
5
109
100
AcDbEntity
8
1
62
256
6
ByLayer
370
-1
48
1
60
0
100
AcDbEllipse
10
10.5
20
0.744406
30
0
11
-4.99999999999999
21
5.0531952754118E-15
31
0
210
0
220
0
230
1
40
0.886885
41
-1.69112745177227
42
-0.228859350588967
0
ELLIPSE
5
10A
100
AcDbEntity
8
1
62
256
6
ByLayer
370
-1
48
1
60
0
100
AcDbEllipse
10
110.72822
20
-1.847405
30
0
11
-1.10000000000001
21
1.11170296059061E-15
31
0
210
0
220
0
230
1
40
0.996917
41
3.14159220643694
42
-2.02482986798326E-16
0
ELLIPSE
5
10B
100
AcDbEntity
8
1
62
256
6
ByLayer
370
-1
48
1
60
0
100
AcDbEllipse
10
110.72822
20
-1.847405
30
0
11
-1.10000000000001
21
1.11170296059061E-15
31
0
210
0
220
0
230
1
40
0.996917
41
0
42
1.6602336461431
0
ELLIPSE
5
10C
100
AcDbEntity
8
1
62
256
6
ByLayer
370
-1
48
1
60
0
100
AcDbEllipse
10
44.638387
20
0
30
0
11
-163.618657719565
21
-8.89695771910981
31
0
210
0
220
0
230
-1
40
0.014313
41
-1.99505491567314
42
-1.95747361261571
0
ELLIPSE
5
10D
100
AcDbEntity
8
1
62
256
6
ByLayer
370
-1
48
1
60
0
100
AcDbEllipse
10
113.034994
20
-0.191818
30
0
11
-0.0375736321642391
21
0.601632020563985
31
0
210
0
220
0
230
-1
40
0.117701
41
-1.32106921074902
42
0.0899649255726443
0
ELLIPSE
5
10E
100
AcDbEntity
8
1
62
256
6
ByLayer
370
-1
48
1
60
0
100
AcDbEllipse
10
113.264351
20
-4.675142
30
0
11
-0.0569062193978032
21
-0.657991401941777
31
0
210
0
220
0
230
-1
40
0.116725
41
0.0197262659372726
42
1.59052259272793
0
ELLIPSE
5
10F
100
AcDbEntity
8
1
62
256
6
ByLayer
370
-1
48
1
60
0
100
AcDbEllipse
10
108.876491
20
4.380836
30
0
11
-1.4470236532442E-15
21
-1.35
31
0
210
0
220
0
230
1
40
0.996195
41
-1.53588974175501
42
-0.146913134865276
0
ELLIPSE
5
110
100
AcDbEntity
8
1
62
256
6
ByLayer
370
-1
48
1
60
0
100
AcDbEllipse
10
113.469392
20
0
30
0
11
-20.9346952319725
21
8.9154697396941
31
0
210
0
220
0
230
-1
40
0.108448
41
-1.13262954604542
42
-0.61006205978756
0
ELLIPSE
5
111
100
AcDbEntity
8
1
62
256
6
ByLayer
370
-1
48
1
60
0
100
AcDbEllipse
10
107.985992
20
5.81
30
0
11
-4.7504757293088
21
-3.33983764059288
31
0
210
0
220
0
230
-1
40
0.463374
41
-1.16055187929776
42
-1.00426019807529
0
ELLIPSE
5
112
100
AcDbEntity
8
1
62
256
6
ByLayer
370
-1
48
1
60
0
100
AcDbEllipse
10
110.888713
20
6.272899
30
0
11
1.46431667789534E-15
21
1.25
31
0
210
0
220
0
230
1
40
0.996195
41
-1.80160505545351
42
0
0
ELLIPSE
5
113
100
AcDbEntity
8
1
62
256
6
ByLayer
370
-1
48
1
60
0
100
AcDbEllipse
10
110.888713
20
6.272899
30
0
11
1.46431667789534E-15
21
1.25
31
0
210
0
220
0
230
1
40
0.996195
41
0
42
0.963290731159636
0
ELLIPSE
5
114
100
AcDbEntity
8
1
62
256
6
ByLayer
370
-1
48
1
60
0
100
AcDbEllipse
10
107.84206
20
0
30
0
11
-0.297880741080253
21
9.19996307840378
31
0
210
0
220
0
230
-1
40
0.087398
41
-0.0345748196368281
42
-0.000616698739855982
0
ELLIPSE
5
115
100
AcDbEntity
8
1
62
256
6
ByLayer
370
-1
48
1
60
0
100
AcDbEllipse
10
96.598371
20
6.906259
30
0
11
-10.042792258123
21
5.21584266195718
31
0
210
0
220
0
230
-1
40
0.093491
41
-2.43068170416571
42
-1.58295852206273
0
ELLIPSE
5
116
100
AcDbEntity
8
1
62
256
6
ByLayer
370
-1
48
1
60
0
100
AcDbEllipse
10
108.626467
20
5.555121
30
0
11
1.58146201212697E-15
21
1.35
31
0
210
0
220
0
230
1
40
0.996195
41
0.863056052375929
42
1.60570291183479
0
ELLIPSE
5
117
100
AcDbEntity
8
1
62
256
6
ByLayer
370
-1
48
1
60
0
100
AcDbEllipse
10
112.973571
20
3.962994
30
0
11
-0.0370868081049402
21
0.602727055833174
31
0
210
0
220
0
230
-1
40
0.116777
41
2.32173512398665
42
-3.13280002945067
0
ELLIPSE
5
118
100
AcDbEntity
8
1
62
256
6
ByLayer
370
-1
48
1
60
0
100
AcDbEllipse
10
110.72822
20
-2.227932
30
0
11
-1.1
21
1.1117029605906E-15
31
0
210
0
220
0
230
1
40
0.996917
41
-2.96723467011757
42
-0.174456906816537
0
ELLIPSE
5
119
100
AcDbEntity
8
1
62
256
6
ByLayer
370
-1
48
1
60
0
100
AcDbEllipse
10
103.584142
20
1E-06
30
0
11
-105.156478238311
21
-1.19152772942178E-13
31
0
210
0
220
0
230
-1
40
0.087489
41
1.59324307813909
42
1.60820094496279
0
ELLIPSE
5
11A
100
AcDbEntity
8
1
62
256
6
ByLayer
370
-1
48
1
60
0
100
AcDbEllipse
10
108.919129
20
4.380836
30
0
11
-1.17794646133824
21
-1.04893007472013
31
0
210
0
220
0
230
-1
40
0.721468
41
-1.26712593956995
42
-0.13385310032044
0
ELLIPSE
5
11B
100
AcDbEntity
8
1
62
256
6
ByLayer
370
-1
48
1
60
0
100
AcDbEllipse
10
112.971581
20
-5.643463
30
0
11
-0.07915293310257
21
1.26566170629752
31
0
210
0
220
0
230
-1
40
0.115798
41
-0.161171809629166
42
0.317176187387926
0
ELLIPSE
5
11C
100
AcDbEntity
8
1
62
256
6
ByLayer
370
-1
48
1
60
0
100
AcDbEllipse
10
106.895683
20
9.193951
30
0
11
6.09155738004463E-15
21
5.2
31
0
210
0
220
0
230
1
40
0.996195
41
2.72271363311116
42
-3.10668606854991
0
ELLIPSE
5
11D
100
AcDbEntity
8
1
62
256
6
ByLayer
370
-1
48
1
60
0
100
AcDbEllipse
10
110.901786
20
6.272899
30
0
11
1.46431667789534E-15
21
1.25
31
0
210
0
220
0
230
1
40
0.996195
41
0
42
1.01581412355465
0
ELLIPSE
5
11E
100
AcDbEntity
8
1
62
256
6
ByLayer
370
-1
48
1
60
0
100
AcDbEllipse
10
108.835641
20
5.555121
30
0
11
-1.4470236532442E-15
21
-1.35
31
0
210
0
220
0
230
1
40
0.996195
41
-2.26960617922759
42
-1.53588974175501
0
ELLIPSE
5
11F
100
AcDbEntity
8
1
62
256
6
ByLayer
370
-1
48
1
60
0
100
AcDbEllipse
10
74.747479
20
9.942681
30
0
11
-31.192412988589
21
4.26487170653311
31
0
210
0
220
0
230
-1
40
0.123869
41
3.12465790070266
42
-2.82623130081379
0
ELLIPSE
5
120
100
AcDbEntity
8
1
62
256
6
ByLayer
370
-1
48
1
60
0
100
AcDbEllipse
10
110.901786
20
6.272899
30
0
11
1.2885986765479E-15
21
1.1
31
0
210
0
220
0
230
1
40
0.996195
41
-2.42668389129718
42
0
0
ELLIPSE
5
121
100
AcDbEntity
8
1
62
256
6
ByLayer
370
-1
48
1
60
0
100
AcDbEllipse
10
110.901786
20
6.272899
30
0
11
1.2885986765479E-15
21
1.1
31
0
210
0
220
0
230
1
40
0.996195
41
0
42
1.57079634372637
0
ELLIPSE
5
122
100
AcDbEntity
8
1
62
256
6
ByLayer
370
-1
48
1
60
0
100
AcDbEllipse
10
110.901786
20
6.272899
30
0
11
1.2885986765479E-15
21
1.1
31
0
210
0
220
0
230
1
40
0.996195
41
1.5707962760005
42
1.74584211605793
0
ELLIPSE
5
123
100
AcDbEntity
8
1
62
256
6
ByLayer
370
-1
48
1
60
0
100
AcDbEllipse
10
108.667318
20
4.380836
30
0
11
1.58146201212697E-15
21
1.35
31
0
210
0
220
0
230
1
40
0.996195
41
1.60570291183479
42
1.85093280967831
0
ELLIPSE
5
124
100
AcDbEntity
8
1
62
256
6
ByLayer
370
-1
48
1
60
0
100
AcDbEllipse
10
105.361624
20
5.710901
30
0
11
-0.534017634255054
21
-3.86326612677727
31
0
210
0
220
0
230
1
40
0.208644
41
0.332244696401068
42
0.927207937020693
0
ELLIPSE
5
125
100
AcDbEntity
8
1
62
256
6
ByLayer
370
-1
48
1
60
0
100
AcDbEllipse
10
111.132749
20
6.272899
30
0
11
1.2885986765479E-15
21
1.1
31
0
210
0
220
0
230
1
40
0.996195
41
0.105635868485064
42
1.57079627600051
0
ELLIPSE
5
126
100
AcDbEntity
8
1
62
256
6
ByLayer
370
-1
48
1
60
0
100
AcDbEllipse
10
111.132749
20
6.272899
30
0
11
1.2885986765479E-15
21
1.1
31
0
210
0
220
0
230
1
40
0.996195
41
1.57079627600051
42
2.73122229983095
0
ELLIPSE
5
127
100
AcDbEntity
8
1
62
256
6
ByLayer
370
-1
48
1
60
0
100
AcDbEllipse
10
108.08895
20
5.528946
30
0
11
-0.599637270106163
21
-0.0208601126465933
31
0
210
0
220
0
230
1
40
0.003042
41
0.0872135714661165
42
1.13795433213009
0
ELLIPSE
5
128
100
AcDbEntity
8
1
62
256
6
ByLayer
370
-1
48
1
60
0
100
AcDbEllipse
10
108.425401
20
8.396057
30
0
11
5.78724697506073E-15
21
4.94022831811449
31
0
210
0
220
0
230
1
40
0.996195
41
-3.12558669055492
42
-3.11578669746813
0
ELLIPSE
5
129
100
AcDbEntity
8
1
62
256
6
ByLayer
370
-1
48
1
60
0
100
AcDbEllipse
10
112.705631
20
8.85539
30
0
11
-5.35934686386771E-15
21
-5.00000000000028
31
0
210
0
220
0
230
1
40
0.996195
41
-1.55479036376002
42
-1.54499037067323
0
ELLIPSE
5
12A
100
AcDbEntity
8
1
62
256
6
ByLayer
370
-1
48
1
60
0
100
AcDbEllipse
10
117.68449
20
8.984406
30
0
11
1.16445136866421E-14
21
9.9402283181145
31
0
210
0
220
0
230
1
40
0.996195
41
1.59660228291659
42
1.6020637394685
0
ELLIPSE
5
12B
100
AcDbEntity
8
1
62
256
6
ByLayer
370
-1
48
1
60
0
100
AcDbEllipse
10
113.198119
20
9.065035
30
0
11
-5.35934686386747E-16
21
-0.500000000000006
31
0
210
0
220
0
230
1
40
0.996195
41
1.8675022996339
42
2.91469985083048
0
ELLIPSE
5
12C
100
AcDbEntity
8
1
62
256
6
ByLayer
370
-1
48
1
60
0
100
AcDbEllipse
10
112.866206
20
4.239548
30
0
11
-5.35934686386771E-15
21
-5.00000000000028
31
0
210
0
220
0
230
1
40
0.996195
41
-1.52678911283679
42
-1.51698911975
0
ELLIPSE
5
12D
100
AcDbEntity
8
1
62
256
6
ByLayer
370
-1
48
1
60
0
100
AcDbEllipse
10
108.390954
20
3.890291
30
0
11
-5.35934686386747E-16
21
-0.500000000000006
31
0
210
0
220
0
230
1
40
0.996195
41
-1.27409035395589
42
-0.226892802759316
0
ELLIPSE
5
12E
100
AcDbEntity
8
1
62
256
6
ByLayer
370
-1
48
1
60
0
100
AcDbEllipse
10
108.832821
20
-0.594684
30
0
11
-1.07186937277344E-14
21
-9.99999999999964
31
0
210
0
220
0
230
1
40
0.996195
41
-3.0877854465449
42
-3.07177948351001
0
ELLIPSE
5
12F
100
AcDbEntity
8
1
62
256
6
ByLayer
370
-1
48
1
60
0
100
AcDbEllipse
10
108.199965
20
3.831816
30
0
11
2.81416266174359E-16
21
0.240228318114594
31
0
210
0
220
0
230
1
40
0.996195
41
1.64060949687468
42
1.86750229963393
0
ELLIPSE
5
130
100
AcDbEntity
8
1
62
256
6
ByLayer
370
-1
48
1
60
0
100
AcDbEllipse
10
103.902651
20
4.019909
30
0
11
1.16445136866418E-14
21
9.94022831811422
31
0
210
0
220
0
230
1
40
0.996195
41
-1.5707963267949
42
-1.55479036376002
0
ELLIPSE
5
131
100
AcDbEntity
8
1
62
256
6
ByLayer
370
-1
48
1
60
0
100
AcDbEllipse
10
113.242482
20
-0.440091
30
0
11
1.16445136866418E-14
21
9.94022831811422
31
0
210
0
220
0
230
1
40
0.996195
41
0
42
0.0160059630348834
0
ELLIPSE
5
132
100
AcDbEntity
8
1
62
256
6
ByLayer
370
-1
48
1
60
0
100
AcDbEllipse
10
113.291741
20
-0.439067
30
0
11
-1.07186937277348E-14
21
-9.99999999999999
31
0
210
0
220
0
230
1
40
0.996195
41
-3.1157866974681
42
-3.1066860685499
0
ELLIPSE
5
133
100
AcDbEntity
8
1
62
256
6
ByLayer
370
-1
48
1
60
0
100
AcDbEllipse
10
113.242938
20
-0.440091
30
0
11
-1.07186937277344E-14
21
-9.99999999999964
31
0
210
0
220
0
230
1
40
0.996195
41
3.14159265358979
42
-3.12558669055491
0
ELLIPSE
5
134
100
AcDbEntity
8
1
62
256
6
ByLayer
370
-1
48
1
60
0
100
AcDbEllipse
10
108.21701
20
8.890426
30
0
11
-5.35934686386747E-16
21
-0.500000000000006
31
0
210
0
220
0
230
1
40
0.996195
41
-2.84488668075075
42
-1.79768912955417
0
ELLIPSE
5
135
100
AcDbEntity
8
1
62
256
6
ByLayer
370
-1
48
1
60
0
100
AcDbEllipse
10
112.756252
20
13.550009
30
0
11
-1.07186937277344E-14
21
-9.99999999999964
31
0
210
0
220
0
230
1
40
0.996195
41
0.0538072070448962
42
0.0698131700797835
0
ELLIPSE
5
136
100
AcDbEntity
8
1
62
256
6
ByLayer
370
-1
48
1
60
0
100
AcDbEllipse
10
110.942258
20
6.477663
30
0
11
-1.33983671596685E-15
21
-1.25
31
0
210
0
220
0
230
1
40
0.996195
41
3.14159240058226
42
0
0
ELLIPSE
5
137
100
AcDbEntity
8
1
62
256
6
ByLayer
370
-1
48
1
60
0
100
AcDbEllipse
10
110.942258
20
6.477663
30
0
11
-1.33983671596685E-15
21
-1.25
31
0
210
0
220
0
230
1
40
0.996195
41
0
42
0.0349505431244582
0
ELLIPSE
5
138
100
AcDbEntity
8
1
62
256
6
ByLayer
370
-1
48
1
60
0
100
AcDbEllipse
10
113.023679
20
8.557246
30
0
11
5.78724697506073E-15
21
4.94022831811449
31
0
210
0
220
0
230
1
40
0.996195
41
-3.09758543963169
42
-3.0877854465449
0
ELLIPSE
5
139
100
AcDbEntity
8
1
62
256
6
ByLayer
370
-1
48
1
60
0
100
AcDbEllipse
10
112.86575
20
4.239548
30
0
11
5.78724697506073E-15
21
4.94022831811449
31
0
210
0
220
0
230
1
40
0.996195
41
1.61480354075301
42
1.62460353383979
0
ELLIPSE
5
13A
100
AcDbEntity
8
1
62
256
6
ByLayer
370
-1
48
1
60
0
100
AcDbEllipse
10
111.00371
20
6.477663
30
0
11
1.46431667789534E-15
21
1.25
31
0
210
0
220
0
230
1
40
0.996195
41
0.0349500371117705
42
1.57079634872777
0
ELLIPSE
5
13B
100
AcDbEntity
8
1
62
256
6
ByLayer
370
-1
48
1
60
0
100
AcDbEllipse
10
111.00371
20
6.477663
30
0
11
1.46431667789534E-15
21
1.25
31
0
210
0
220
0
230
1
40
0.996195
41
1.57079634872777
42
3.1168526777092
0
ELLIPSE
5
13C
100
AcDbEntity
8
1
62
256
6
ByLayer
370
-1
48
1
60
0
100
AcDbEllipse
10
113.242482
20
9.259909
30
0
11
2.81416266174359E-16
21
0.240228318114594
31
0
210
0
220
0
230
1
40
0.996195
41
-0.226892802759214
42
5.93815652555542E-14
0
ELLIPSE
5
13D
100
AcDbEntity
8
1
62
256
6
ByLayer
370
-1
48
1
60
0
100
AcDbEllipse
10
113.16276
20
4.559269
30
0
11
5.78724697506073E-15
21
4.94022831811449
31
0
210
0
220
0
230
1
40
0.996195
41
0.0160059630348814
42
0.0258059561216713
0
ELLIPSE
5
13E
100
AcDbEntity
8
1
62
256
6
ByLayer
370
-1
48
1
60
0
100
AcDbEllipse
10
108.345679
20
3.695416
30
0
11
2.81416266174359E-16
21
0.240228318114594
31
0
210
0
220
0
230
1
40
0.996195
41
2.91469985083053
42
3.14159265358979
0
ELLIPSE
5
13F
100
AcDbEntity
8
1
62
256
6
ByLayer
370
-1
48
1
60
0
100
AcDbEllipse
10
103.74626
20
8.495813
30
0
11
1.16445136866421E-14
21
9.9402283181145
31
0
210
0
220
0
230
1
40
0.996195
41
-1.53225055769574
42
-1.52678911283681
0
ELLIPSE
5
140
100
AcDbEntity
8
1
62
256
6
ByLayer
370
-1
48
1
60
0
100
AcDbEllipse
10
108.784066
20
-0.597079
30
0
11
-1.07186937277348E-14
21
-9.99999999999999
31
0
210
0
220
0
230
1
40
0.996195
41
-3.1066860685499
42
-3.0975854396317
0
ELLIPSE
5
141
100
AcDbEntity
8
1
62
256
6
ByLayer
370
-1
48
1
60
0
100
AcDbEllipse
10
112.705175
20
8.85539
30
0
11
5.78724697506073E-15
21
4.94022831811449
31
0
210
0
220
0
230
1
40
0.996195
41
1.58680228982978
42
1.59660228291657
0
ELLIPSE
5
142
100
AcDbEntity
8
1
62
256
6
ByLayer
370
-1
48
1
60
0
100
AcDbEllipse
10
108.297333
20
13.394392
30
0
11
-1.07186937277348E-14
21
-9.99999999999999
31
0
210
0
220
0
230
1
40
0.996195
41
0.0258059561216878
42
0.0349065850398896
0
ELLIPSE
5
143
100
AcDbEntity
8
1
62
256
6
ByLayer
370
-1
48
1
60
0
100
AcDbEllipse
10
117.685966
20
8.935417
30
0
11
-1.07186937277344E-14
21
-9.99999999999964
31
0
210
0
220
0
230
1
40
0.996195
41
-1.5707963267949
42
-1.55479036376002
0
ELLIPSE
5
144
100
AcDbEntity
8
1
62
256
6
ByLayer
370
-1
48
1
60
0
100
AcDbEllipse
10
103.903672
20
3.97092
30
0
11
1.16445136866421E-14
21
9.9402283181145
31
0
210
0
220
0
230
1
40
0.996195
41
-1.54499037067321
42
-1.5395289141213
0
ELLIPSE
5
145
100
AcDbEntity
8
1
62
256
6
ByLayer
370
-1
48
1
60
0
100
AcDbEllipse
10
108.883443
20
4.099935
30
0
11
-5.35934686386771E-15
21
-5.00000000000028
31
0
210
0
220
0
230
1
40
0.996195
41
1.58680228982978
42
1.59660228291657
0
ELLIPSE
5
146
100
AcDbEntity
8
1
62
256
6
ByLayer
370
-1
48
1
60
0
100
AcDbEllipse
10
108.882987
20
4.099935
30
0
11
5.78724697506073E-15
21
4.94022831811449
31
0
210
0
220
0
230
1
40
0.996195
41
-1.55479036376002
42
-1.54499037067323
0
ELLIPSE
5
147
100
AcDbEntity
8
1
62
256
6
ByLayer
370
-1
48
1
60
0
100
AcDbEllipse
10
108.022422
20
8.935417
30
0
11
2.81416266174359E-16
21
0.240228318114594
31
0
210
0
220
0
230
1
40
0.996195
41
1.34390352403567
42
1.5707963267949
0
ELLIPSE
5
148
100
AcDbEntity
8
1
62
256
6
ByLayer
370
-1
48
1
60
0
100
AcDbEllipse
10
113.197663
20
9.065035
30
0
11
5.15706934637614E-16
21
0.440228318114594
31
0
210
0
220
0
230
1
40
0.996195
41
-1.27409035395587
42
-0.226892802759262
0
ELLIPSE
5
149
100
AcDbEntity
8
1
62
256
6
ByLayer
370
-1
48
1
60
0
100
AcDbEllipse
10
112.804551
20
13.552405
30
0
11
1.16445136866421E-14
21
9.9402283181145
31
0
210
0
220
0
230
1
40
0.996195
41
-3.10304688449064
42
-3.0975854396317
0
ELLIPSE
5
14A
100
AcDbEntity
8
1
62
256
6
ByLayer
370
-1
48
1
60
0
100
AcDbEllipse
10
108.564483
20
4.39808
30
0
11
5.78724697506073E-15
21
4.94022831811449
31
0
210
0
220
0
230
1
40
0.996195
41
0.0440072139581095
42
0.0538072070448983
0
ELLIPSE
5
14B
100
AcDbEntity
8
1
62
256
6
ByLayer
370
-1
48
1
60
0
100
AcDbEllipse
10
117.684946
20
8.984406
30
0
11
-1.07186937277348E-14
21
-9.99999999999999
31
0
210
0
220
0
230
1
40
0.996195
41
-1.54499037067321
42
-1.53588974175501
0
ELLIPSE
5
14C
100
AcDbEntity
8
1
62
256
6
ByLayer
370
-1
48
1
60
0
100
AcDbEllipse
10
113.371607
20
4.064899
30
0
11
5.15706934637614E-16
21
0.440228318114594
31
0
210
0
220
0
230
1
40
0.996195
41
-2.84488668075078
42
-1.79768912955418
0
ELLIPSE
5
14D
100
AcDbEntity
8
1
62
256
6
ByLayer
370
-1
48
1
60
0
100
AcDbEllipse
10
103.749102
20
8.446872
30
0
11
-1.07186937277344E-14
21
-9.99999999999964
31
0
210
0
220
0
230
1
40
0.996195
41
1.62460353383979
42
1.64060949687468
0
ELLIPSE
5
14E
100
AcDbEntity
8
1
62
256
6
ByLayer
370
-1
48
1
60
0
100
AcDbEllipse
10
113.291285
20
-0.439067
30
0
11
1.16445136866421E-14
21
9.9402283181145
31
0
210
0
220
0
230
1
40
0.996195
41
0.0258059561216904
42
0.0312674126736028
0
ELLIPSE
5
14F
100
AcDbEntity
8
1
62
256
6
ByLayer
370
-1
48
1
60
0
100
AcDbEllipse
10
103.746716
20
8.495813
30
0
11
-1.07186937277348E-14
21
-9.99999999999999
31
0
210
0
220
0
230
1
40
0.996195
41
1.60570291183479
42
1.61480354075299
0
ELLIPSE
5
150
100
AcDbEntity
8
1
62
256
6
ByLayer
370
-1
48
1
60
0
100
AcDbEllipse
10
117.839515
20
4.508454
30
0
11
1.16445136866418E-14
21
9.94022831811422
31
0
210
0
220
0
230
1
40
0.996195
41
1.62460353383979
42
1.64060949687468
0
ELLIPSE
5
151
100
AcDbEntity
8
1
62
256
6
ByLayer
370
-1
48
1
60
0
100
AcDbEllipse
10
108.216554
20
8.890426
30
0
11
5.15706934637614E-16
21
0.440228318114594
31
0
210
0
220
0
230
1
40
0.996195
41
0.296705972839016
42
1.34390352403561
0
ELLIPSE
5
152
100
AcDbEntity
8
1
62
256
6
ByLayer
370
-1
48
1
60
0
100
AcDbEllipse
10
108.832366
20
-0.594684
30
0
11
1.16445136866418E-14
21
9.94022831811422
31
0
210
0
220
0
230
1
40
0.996195
41
0.0538072070448956
42
0.0698131700797859
0
ELLIPSE
5
153
100
AcDbEntity
8
1
62
256
6
ByLayer
370
-1
48
1
60
0
100
AcDbEllipse
10
113.163216
20
4.559269
30
0
11
-5.35934686386771E-15
21
-5.00000000000028
31
0
210
0
220
0
230
1
40
0.996195
41
-3.12558669055492
42
-3.11578669746812
0
ELLIPSE
5
154
100
AcDbEntity
8
1
62
256
6
ByLayer
370
-1
48
1
60
0
100
AcDbEllipse
10
108.296877
20
13.394392
30
0
11
1.16445136866421E-14
21
9.9402283181145
31
0
210
0
220
0
230
1
40
0.996195
41
-3.1157866974681
42
-3.11032524091619
0
ELLIPSE
5
155
100
AcDbEntity
8
1
62
256
6
ByLayer
370
-1
48
1
60
0
100
AcDbEllipse
10
103.903107
20
4.019909
30
0
11
-1.07186937277344E-14
21
-9.99999999999964
31
0
210
0
220
0
230
1
40
0.996195
41
1.57079632679489
42
1.58680228982978
0
ELLIPSE
5
156
100
AcDbEntity
8
1
62
256
6
ByLayer
370
-1
48
1
60
0
100
AcDbEllipse
10
113.388652
20
9.123509
30
0
11
-3.21560811832048E-16
21
-0.300000000000003
31
0
210
0
220
0
230
1
40
0.996195
41
1.64060949687463
42
1.8675022996339
0
ELLIPSE
5
157
100
AcDbEntity
8
1
62
256
6
ByLayer
370
-1
48
1
60
0
100
AcDbEllipse
10
108.425857
20
8.396057
30
0
11
-5.35934686386771E-15
21
-5.00000000000028
31
0
210
0
220
0
230
1
40
0.996195
41
0.0160059630348781
42
0.0258059561216707
0
ELLIPSE
5
158
100
AcDbEntity
8
1
62
256
6
ByLayer
370
-1
48
1
60
0
100
AcDbEllipse
10
108.722411
20
8.715778
30
0
11
5.78724697506073E-15
21
4.94022831811449
31
0
210
0
220
0
230
1
40
0.996195
41
-1.52678911283679
42
-1.51698911975
0
ELLIPSE
5
159
100
AcDbEntity
8
1
62
256
6
ByLayer
370
-1
48
1
60
0
100
AcDbEllipse
10
108.722867
20
8.715778
30
0
11
-5.35934686386771E-15
21
-5.00000000000028
31
0
210
0
220
0
230
1
40
0.996195
41
1.614803540753
42
1.6246035338398
0
ELLIPSE
5
15A
100
AcDbEntity
8
1
62
256
6
ByLayer
370
-1
48
1
60
0
100
AcDbEllipse
10
117.841902
20
4.459513
30
0
11
1.16445136866421E-14
21
9.9402283181145
31
0
210
0
220
0
230
1
40
0.996195
41
1.60934209589405
42
1.61480354075299
0
ELLIPSE
5
15B
100
AcDbEntity
8
1
62
256
6
ByLayer
370
-1
48
1
60
0
100
AcDbEllipse
10
113.430315
20
3.873638
30
0
11
-3.21560811832048E-16
21
-0.300000000000003
31
0
210
0
220
0
230
1
40
0.996195
41
0.0698131700797505
42
0.296705972839008
0
ELLIPSE
5
15C
100
AcDbEntity
8
1
62
256
6
ByLayer
370
-1
48
1
60
0
100
AcDbEllipse
10
108.158758
20
9.081687
30
0
11
-3.21560811832048E-16
21
-0.300000000000003
31
0
210
0
220
0
230
1
40
0.996195
41
-3.07177948350999
42
-2.8448866807507
0
ELLIPSE
5
15D
100
AcDbEntity
8
1
62
256
6
ByLayer
370
-1
48
1
60
0
100
AcDbEllipse
10
108.158303
20
9.081687
30
0
11
2.81416266174359E-16
21
0.240228318114594
31
0
210
0
220
0
230
1
40
0.996195
41
0.0698131700797844
42
0.296705972838996
0
ELLIPSE
5
15E
100
AcDbEntity
8
1
62
256
6
ByLayer
370
-1
48
1
60
0
100
AcDbEllipse
10
112.805007
20
13.552405
30
0
11
-1.07186937277348E-14
21
-9.99999999999999
31
0
210
0
220
0
230
1
40
0.996195
41
0.0349065850398898
42
0.0440072139580896
0
ELLIPSE
5
15F
100
AcDbEntity
8
1
62
256
6
ByLayer
370
-1
48
1
60
0
100
AcDbEllipse
10
103.904127
20
3.97092
30
0
11
-1.07186937277348E-14
21
-9.99999999999999
31
0
210
0
220
0
230
1
40
0.996195
41
1.59660228291659
42
1.60570291183479
0
ELLIPSE
5
160
100
AcDbEntity
8
1
62
256
6
ByLayer
370
-1
48
1
60
0
100
AcDbEllipse
10
110.777105
20
6.477663
30
0
11
1.98450509329016E-15
21
1.69405389152441
31
0
210
0
220
0
230
1
40
0.996195
41
0
42
6.28318530717959
0
ELLIPSE
5
161
100
AcDbEntity
8
1
62
256
6
ByLayer
370
-1
48
1
60
0
100
AcDbEllipse
10
108.346135
20
3.695416
30
0
11
-3.21560811832048E-16
21
-0.300000000000003
31
0
210
0
220
0
230
1
40
0.996195
41
-0.226892802759225
42
4.75504451611787E-14
0
ELLIPSE
5
162
100
AcDbEntity
8
1
62
256
6
ByLayer
370
-1
48
1
60
0
100
AcDbEllipse
10
108.390499
20
3.890291
30
0
11
5.15706934637614E-16
21
0.440228318114594
31
0
210
0
220
0
230
1
40
0.996195
41
1.86750229963389
42
2.9146998508305
0
ELLIPSE
5
163
100
AcDbEntity
8
1
62
256
6
ByLayer
370
-1
48
1
60
0
100
AcDbEllipse
10
108.564938
20
4.39808
30
0
11
-5.35934686386771E-15
21
-5.00000000000028
31
0
210
0
220
0
230
1
40
0.996195
41
-3.09758543963169
42
-3.0877854465449
0
ELLIPSE
5
164
100
AcDbEntity
8
1
62
256
6
ByLayer
370
-1
48
1
60
0
100
AcDbEllipse
10
112.755796
20
13.550009
30
0
11
1.16445136866418E-14
21
9.94022831811422
31
0
210
0
220
0
230
1
40
0.996195
41
-3.0877854465449
42
-3.07177948351001
0
ELLIPSE
5
165
100
AcDbEntity
8
1
62
256
6
ByLayer
370
-1
48
1
60
0
100
AcDbEllipse
10
113.388196
20
9.123509
30
0
11
2.81416266174359E-16
21
0.240228318114594
31
0
210
0
220
0
230
1
40
0.996195
41
-1.50098315671512
42
-1.27409035395586
0
ELLIPSE
5
166
100
AcDbEntity
8
1
62
256
6
ByLayer
370
-1
48
1
60
0
100
AcDbEllipse
10
108.022878
20
8.935417
30
0
11
-3.21560811832048E-16
21
-0.300000000000003
31
0
210
0
220
0
230
1
40
0.996195
41
-1.79768912955412
42
-1.5707963267949
0
ELLIPSE
5
167
100
AcDbEntity
8
1
62
256
6
ByLayer
370
-1
48
1
60
0
100
AcDbEllipse
10
113.024135
20
8.557246
30
0
11
-5.35934686386771E-15
21
-5.00000000000028
31
0
210
0
220
0
230
1
40
0.996195
41
0.0440072139581072
42
0.0538072070448985
0
ELLIPSE
5
168
100
AcDbEntity
8
1
62
256
6
ByLayer
370
-1
48
1
60
0
100
AcDbEllipse
10
117.842357
20
4.459513
30
0
11
-1.07186937277348E-14
21
-9.99999999999999
31
0
210
0
220
0
230
1
40
0.996195
41
-1.53588974175501
42
-1.52678911283681
0
ELLIPSE
5
169
100
AcDbEntity
8
1
62
256
6
ByLayer
370
-1
48
1
60
0
100
AcDbEllipse
10
108.346135
20
13.395416
30
0
11
-1.07186937277344E-14
21
-9.99999999999964
31
0
210
0
220
0
230
1
40
0.996195
41
0
42
0.0160059630348808
0
ELLIPSE
5
16A
100
AcDbEntity
8
1
62
256
6
ByLayer
370
-1
48
1
60
0
100
AcDbEllipse
10
117.68551
20
8.935417
30
0
11
1.16445136866418E-14
21
9.94022831811422
31
0
210
0
220
0
230
1
40
0.996195
41
1.57079632679489
42
1.58680228982978
0
ELLIPSE
5
16B
100
AcDbEntity
8
1
62
256
6
ByLayer
370
-1
48
1
60
0
100
AcDbEllipse
10
113.242938
20
9.259909
30
0
11
-3.21560811832048E-16
21
-0.300000000000003
31
0
210
0
220
0
230
1
40
0.996195
41
2.91469985083057
42
3.14159265358979
0
ELLIPSE
5
16C
100
AcDbEntity
8
1
62
256
6
ByLayer
370
-1
48
1
60
0
100
AcDbEllipse
10
108.200421
20
3.831816
30
0
11
-3.21560811832048E-16
21
-0.300000000000003
31
0
210
0
220
0
230
1
40
0.996195
41
-1.50098315671517
42
-1.27409035395589
0
ELLIPSE
5
16D
100
AcDbEntity
8
1
62
256
6
ByLayer
370
-1
48
1
60
0
100
AcDbEllipse
10
103.748647
20
8.446872
30
0
11
1.16445136866418E-14
21
9.94022831811422
31
0
210
0
220
0
230
1
40
0.996195
41
-1.51698911975
42
-1.50098315671511
0
ELLIPSE
5
16E
100
AcDbEntity
8
1
62
256
6
ByLayer
370
-1
48
1
60
0
100
AcDbEllipse
10
110.840636
20
6.477663
30
0
11
-1.69826236850985E-15
21
-1.58439303486727
31
0
210
0
220
0
230
1
40
0.996195
41
0
42
6.28318530717959
0
ELLIPSE
5
16F
100
AcDbEntity
8
1
62
256
6
ByLayer
370
-1
48
1
60
0
100
AcDbEllipse
10
110.82058
20
6.477663
30
0
11
-1.77841723412775E-15
21
-1.65917347701247
31
0
210
0
220
0
230
1
40
0.996195
41
2.21551000470675
42
0
0
ELLIPSE
5
170
100
AcDbEntity
8
1
62
256
6
ByLayer
370
-1
48
1
60
0
100
AcDbEllipse
10
110.82058
20
6.477663
30
0
11
-1.77841723412775E-15
21
-1.65917347701247
31
0
210
0
220
0
230
1
40
0.996195
41
0
42
0.926082326066338
0
ELLIPSE
5
171
100
AcDbEntity
8
1
62
256
6
ByLayer
370
-1
48
1
60
0
100
AcDbEllipse
10
108.345679
20
13.395416
30
0
11
1.16445136866418E-14
21
9.94022831811422
31
0
210
0
220
0
230
1
40
0.996195
41
3.14159265358979
42
-3.12558669055491
0
ELLIPSE
5
172
100
AcDbEntity
8
1
62
256
6
ByLayer
370
-1
48
1
60
0
100
AcDbEllipse
10
113.372063
20
4.064899
30
0
11
-5.35934686386747E-16
21
-0.500000000000006
31
0
210
0
220
0
230
1
40
0.996195
41
0.296705972839008
42
1.34390352403562
0
ELLIPSE
5
173
100
AcDbEntity
8
1
62
256
6
ByLayer
370
-1
48
1
60
0
100
AcDbEllipse
10
108.783611
20
-0.597079
30
0
11
1.16445136866421E-14
21
9.9402283181145
31
0
210
0
220
0
230
1
40
0.996195
41
0.0385457690991545
42
0.0440072139580909
0
ELLIPSE
5
174
100
AcDbEntity
8
1
62
256
6
ByLayer
370
-1
48
1
60
0
100
AcDbEllipse
10
117.839971
20
4.508454
30
0
11
-1.07186937277344E-14
21
-9.99999999999964
31
0
210
0
220
0
230
1
40
0.996195
41
-1.51698911975
42
-1.50098315671511
0
ELLIPSE
5
175
100
AcDbEntity
8
1
62
256
6
ByLayer
370
-1
48
1
60
0
100
AcDbEllipse
10
113.566196
20
4.019909
30
0
11
-3.21560811832048E-16
21
-0.300000000000003
31
0
210
0
220
0
230
1
40
0.996195
41
1.34390352403567
42
1.5707963267949
0
ELLIPSE
5
176
100
AcDbEntity
8
1
62
256
6
ByLayer
370
-1
48
1
60
0
100
AcDbEllipse
10
113.429859
20
3.873638
30
0
11
2.81416266174359E-16
21
0.240228318114594
31
0
210
0
220
0
230
1
40
0.996195
41
-3.07177948351007
42
-2.84488668075072
0
ELLIPSE
5
177
100
AcDbEntity
8
1
62
256
6
ByLayer
370
-1
48
1
60
0
100
AcDbEllipse
10
113.56574
20
4.019909
30
0
11
2.81416266174359E-16
21
0.240228318114594
31
0
210
0
220
0
230
1
40
0.996195
41
-1.79768912955413
42
-1.5707963267949
0
ELLIPSE
5
178
100
AcDbEntity
8
1
62
256
6
ByLayer
370
-1
48
1
60
0
100
AcDbEllipse
10
112.853886
20
-3.704654
30
0
11
-0.591202245038341
21
5.97492078288121E-16
31
0
210
0
220
0
230
1
40
0.996917
41
2.29977787734964
42
3.10668606854989
0
ELLIPSE
5
179
100
AcDbEntity
8
1
62
256
6
ByLayer
370
-1
48
1
60
0
100
AcDbEllipse
10
115.712196
20
-2.00269
30
0
11
2.54031606939949
21
0
31
0
210
0
220
0
230
1
40
0.996917
41
-3.0892327752294
42
-2.71005519262056
0
ELLIPSE
5
17A
100
AcDbEntity
8
1
62
256
6
ByLayer
370
-1
48
1
60
0
100
AcDbEllipse
10
110.878496
20
-2.447198
30
0
11
1.35
21
0
31
0
210
0
220
0
230
1
40
0.996917
41
1.85353942513309
42
2.48696289997321
0
ELLIPSE
5
17B
100
AcDbEntity
8
1
62
256
6
ByLayer
370
-1
48
1
60
0
100
AcDbEllipse
10
110.878496
20
-2.447198
30
0
11
1.35
21
0
31
0
210
0
220
0
230
1
40
0.996917
41
3.14159234153352
42
-3.29972274782461E-16
0
ELLIPSE
5
17C
100
AcDbEntity
8
1
62
256
6
ByLayer
370
-1
48
1
60
0
100
AcDbEllipse
10
115.712196
20
-1.994844
30
0
11
-2.81352115015638
21
2.84345435664829E-15
31
0
210
0
220
0
230
1
40
0.996917
41
0.394970502278597
42
0.431537460969236
0
ELLIPSE
5
17D
100
AcDbEntity
8
1
62
256
6
ByLayer
370
-1
48
1
60
0
100
AcDbEllipse
10
112.51751
20
-0.882847
30
0
11
-0.59120224503834
21
5.97492078288119E-16
31
0
210
0
220
0
230
1
40
0.996917
41
-3.08923277602998
42
-2.47146672521936
0
ELLIPSE
5
17E
100
AcDbEntity
8
1
62
256
6
ByLayer
370
-1
48
1
60
0
100
AcDbEllipse
10
112.867764
20
-3.308465
30
0
11
-0.59120224503834
21
5.97492078288119E-16
31
0
210
0
220
0
230
1
40
0.996917
41
3.10668606854989
42
-2.71005519262057
0
ELLIPSE
5
17F
100
AcDbEntity
8
1
62
256
6
ByLayer
370
-1
48
1
60
0
100
AcDbEllipse
10
115.712196
20
-2.198837
30
0
11
2.00000000000009
21
0
31
0
210
0
220
0
230
1
40
0.996917
41
-3.08923277501295
42
-2.69974671309689
0
ELLIPSE
5
180
100
AcDbEntity
8
1
62
256
6
ByLayer
370
-1
48
1
60
0
100
AcDbEllipse
10
113.344789
20
-3.706052
30
0
11
-0.199877411459051
21
0.00700145616491039
31
0
210
0
220
0
230
1
40
0.078411
41
0.526345418649194
42
1.57354296984573
0
ELLIPSE
5
181
100
AcDbEntity
8
1
62
256
6
ByLayer
370
-1
48
1
60
0
100
AcDbEllipse
10
115.712196
20
-2.077226
30
0
11
2.19031606939965
21
0
31
0
210
0
220
0
230
1
40
0.996917
41
-3.08923277510136
42
-2.71005519262056
0
ELLIPSE
5
182
100
AcDbEntity
8
1
62
256
6
ByLayer
370
-1
48
1
60
0
100
AcDbEllipse
10
113.000305
20
-3.477709
30
0
11
1.00000000000004
21
0
31
0
210
0
220
0
230
1
40
0.996917
41
-0.0349065850401072
42
0.441845940492527
0
ELLIPSE
5
183
100
AcDbEntity
8
1
62
256
6
ByLayer
370
-1
48
1
60
0
100
AcDbEllipse
10
113.461611
20
-4.591046
30
0
11
0.500000000000144
21
0
31
0
210
0
220
0
230
1
40
0.996917
41
-1.22173047639544
42
-0.0349065850401081
0
ELLIPSE
5
184
100
AcDbEntity
8
1
62
256
6
ByLayer
370
-1
48
1
60
0
100
AcDbEllipse
10
112.840089
20
-0.060348
30
0
11
0.500000000000144
21
0
31
0
210
0
220
0
230
1
40
0.996917
41
0.34906585039947
42
1.17257392072189
0
ELLIPSE
5
185
100
AcDbEntity
8
1
62
256
6
ByLayer
370
-1
48
1
60
0
100
AcDbEllipse
10
113.313934
20
-3.087953
30
0
11
-0.181566402711963
21
-0.0838668075357429
31
0
210
0
220
0
230
1
40
0.071266
41
0.490692267777697
42
1.53788981897461
0
ELLIPSE
5
186
100
AcDbEntity
8
1
62
256
6
ByLayer
370
-1
48
1
60
0
100
AcDbEllipse
10
112.51751
20
-0.882847
30
0
11
-0.49120224503834
21
4.96428172779883E-16
31
0
210
0
220
0
230
1
40
0.996917
41
-3.08923277602998
42
-2.89461999450606
0
ELLIPSE
5
187
100
AcDbEntity
8
1
62
256
6
ByLayer
370
-1
48
1
60
0
100
AcDbEllipse
10
113.181081
20
-4.054197
30
0
11
-0.132993144458099
21
0.149374775404507
31
0
210
0
220
0
230
1
40
0.052262
41
1.52202618920783
42
1.62942896444685
0
ELLIPSE
5
188
100
AcDbEntity
8
1
62
256
6
ByLayer
370
-1
48
1
60
0
100
AcDbEllipse
10
110.878496
20
-2.494673
30
0
11
1.25
21
0
31
0
210
0
220
0
230
1
40
0.996917
41
1.13323161392044
42
2.87053274355023
0
ELLIPSE
5
189
100
AcDbEntity
8
1
62
256
6
ByLayer
370
-1
48
1
60
0
100
AcDbEllipse
10
110.878496
20
-2.494673
30
0
11
1.25
21
0
31
0
210
0
220
0
230
1
40
0.996917
41
-3.14159237122107
42
-3.56370056765057E-16
0
ELLIPSE
5
18A
100
AcDbEntity
8
1
62
256
6
ByLayer
370
-1
48
1
60
0
100
AcDbEllipse
10
110.878496
20
-2.447198
30
0
11
1.25
21
0
31
0
210
0
220
0
230
1
40
0.996917
41
1.28854364210873
42
2.89095229547494
0
ELLIPSE
5
18B
100
AcDbEntity
8
1
62
256
6
ByLayer
370
-1
48
1
60
0
100
AcDbEllipse
10
110.878496
20
-2.447198
30
0
11
1.25
21
0
31
0
210
0
220
0
230
1
40
0.996917
41
-3.14159237122107
42
-3.56370056765057E-16
0
ELLIPSE
5
18C
100
AcDbEntity
8
1
62
256
6
ByLayer
370
-1
48
1
60
0
100
AcDbEllipse
10
113.13945
20
-0.880302
30
0
11
0.49999999999999
21
0
31
0
210
0
220
0
230
1
40
0.996917
41
0.0523598775598204
42
0.349065850399583
0
ELLIPSE
5
18D
100
AcDbEntity
8
1
62
256
6
ByLayer
370
-1
48
1
60
0
100
AcDbEllipse
10
112.867764
20
-3.300619
30
0
11
0.317997164281453
21
0
31
0
210
0
220
0
230
1
40
0.996917
41
-0.0349065850398907
42
0.431537460969242
0
ELLIPSE
5
18E
100
AcDbEntity
8
1
62
256
6
ByLayer
370
-1
48
1
60
0
100
AcDbEllipse
10
112.853886
20
-3.696808
30
0
11
0.317997164281453
21
0
31
0
210
0
220
0
230
1
40
0.996917
41
-0.340736875057136
42
-0.0349065850398963
0
ELLIPSE
5
18F
100
AcDbEntity
8
1
62
256
6
ByLayer
370
-1
48
1
60
0
100
AcDbEllipse
10
113.358667
20
-3.309863
30
0
11
-0.199877411459051
21
0.00700145616491039
31
0
210
0
220
0
230
1
40
0.078411
41
0.52634541864911
42
1.5735429698458
0
ELLIPSE
5
190
100
AcDbEntity
8
1
62
256
6
ByLayer
370
-1
48
1
60
0
100
AcDbEllipse
10
112.853886
20
-3.704654
30
0
11
-0.49120224503834
21
4.96428172779883E-16
31
0
210
0
220
0
230
1
40
0.996917
41
2.29977787734966
42
3.10668606854989
0
ELLIPSE
5
191
100
AcDbEntity
8
1
62
256
6
ByLayer
370
-1
48
1
60
0
100
AcDbEllipse
10
115.712196
20
-2.00269
30
0
11
2.64031606939949
21
0
31
0
210
0
220
0
230
1
40
0.996917
41
-3.08923277525973
42
-2.71005519262056
0
ELLIPSE
5
192
100
AcDbEntity
8
1
62
256
6
ByLayer
370
-1
48
1
60
0
100
AcDbEllipse
10
112.867764
20
-3.308465
30
0
11
-0.49120224503834
21
4.96428172779883E-16
31
0
210
0
220
0
230
1
40
0.996917
41
3.10668606854989
42
-2.71005519262057
0
POINT
5
41
100
AcDbEntity
8
81
62
256
6
ByLayer
370
-1
48
1
60
0
100
AcDbPoint
10
114
20
0
30
0
39
0
210
0
220
0
230
1
50
360
0
POINT
5
43
100
AcDbEntity
8
80
62
256
6
ByLayer
370
-1
48
1
60
0
100
AcDbPoint
10
0
20
0
30
0
39
0
210
0
220
0
230
1
50
360
0
SPLINE
5
193
100
AcDbEntity
8
1
62
256
6
ByLayer
370
-1
48
1
60
0
100
AcDbSpline
70
4
71
3
72
20
73
16
40
0
40
0
40
0
40
0
40
0.0347374990023742
40
0.120502631827175
40
0.206067200958303
40
0.291145710003042
40
0.375628898564952
40
0.459578796341626
40
0.543191442056224
40
0.626736727364866
40
0.710411131649144
40
0.794456105681993
40
0.879037736605706
40
0.964188749141104
40
1
40
1
40
1
40
1
41
1
10
110.913278340232
20
7.71671919137134
30
0
41
1
10
110.957794841765
20
7.72230912382534
30
0
41
1
10
111.110896348699
20
7.73088555905463
30
0
41
1
10
111.371498935679
20
7.6633119920414
30
0
41
1
10
111.665357200744
20
7.51068736797532
30
0
41
1
10
111.908588052592
20
7.28126298563052
30
0
41
1
10
112.083471491173
20
6.99678067005581
30
0
41
1
10
112.178128788688
20
6.67630224138571
30
0
41
1
10
112.186463237366
20
6.34279651684187
30
0
41
1
10
112.10846389236
20
6.01935168656769
30
0
41
1
10
111.950003878072
20
5.72812081847755
30
0
41
1
10
111.722051803261
20
5.48877252275656
30
0
41
1
10
111.440360613322
20
5.31751121282505
30
0
41
1
10
111.18432376132
20
5.24398874486755
30
0
41
1
10
111.031061387512
20
5.23004405712166
30
0
41
1
10
110.985131151596
20
5.22841398408627
30
0
0
SPLINE
5
194
100
AcDbEntity
8
1
62
256
6
ByLayer
370
-1
48
1
60
0
100
AcDbSpline
70
4
71
3
72
18
73
14
40
0
40
0
40
0
40
0
40
0.11285256268409
40
0.228826468662904
40
0.345823798532537
40
0.461634210220453
40
0.574512878005238
40
0.649942589082001
40
0.724377809730376
40
0.796355053993674
40
0.865315638048568
40
0.932189094560928
40
1
40
1
40
1
40
1
41
1
10
16
20
9.36499999999998
30
0
41
1
10
15.4903032846249
20
9.36585540079616
30
0
41
1
10
14.4779435822909
20
9.46142904068793
30
0
41
1
10
12.9856284915824
20
9.89899540755687
30
0
41
1
10
11.6019399860459
20
10.6242973297203
30
0
41
1
10
10.383665151966
20
11.5880118901863
30
0
41
1
10
9.52884462838415
20
12.6476169281091
30
0
41
1
10
8.84677194656456
20
13.5989762615905
30
0
41
1
10
8.20204442727359
20
14.3506094025032
30
0
41
1
10
7.50789705854351
20
15.0171923900017
30
0
41
1
10
6.74809090356533
20
15.5532362138931
30
0
41
1
10
5.90249006701683
20
15.9172127293631
30
0
41
1
10
5.3097063896339
20
15.9963941678374
30
0
41
1
10
5.00000000000003
20
16
30
0
0
SPLINE
5
195
100
AcDbEntity
8
1
62
256
6
ByLayer
370
-1
48
1
60
0
100
AcDbSpline
70
4
71
3
72
17
73
13
40
0
40
0
40
0
40
0
40
0.0723902530928057
40
0.144011220264874
40
0.21827625570869
40
0.295960385356678
40
0.422140468753964
40
0.546471066206475
40
0.660372264683963
40
0.775305932192079
40
0.889176215868659
40
1
40
1
40
1
40
1
41
1
10
4.99999999999997
20
-16
30
0
41
1
10
5.33146444527313
20
-15.9952138523862
30
0
41
1
10
5.96429430674436
20
-15.9052603344
30
0
41
1
10
6.861732096884
20
-15.4912976446699
30
0
41
1
10
7.65939962543462
20
-14.8888773127563
30
0
41
1
10
8.53556580458215
20
-14.0058160714421
30
0
41
1
10
9.39674887980314
20
-12.8229309201574
30
0
41
1
10
10.4151767460131
20
-11.5483303344631
30
0
41
1
10
11.6735920661407
20
-10.5807330455722
30
0
41
1
10
13.0382779999623
20
-9.87980447461663
30
0
41
1
10
14.5055891587591
20
-9.45798359706944
30
0
41
1
10
15.499764491899
20
-9.36579506477358
30
0
41
1
10
16
20
-9.36500000000004
30
0
0
SPLINE
5
196
100
AcDbEntity
8
1
62
256
6
ByLayer
370
-1
48
1
60
0
100
AcDbSpline
70
4
71
3
72
13
73
9
40
0
40
0
40
0
40
0
40
0.0560578056572964
40
0.272867879798537
40
0.488683234978635
40
0.703272851976191
40
0.916756224933071
40
1
40
1
40
1
40
1
41
1
10
109.67629519277
20
-2.1491411822463
30
0
41
1
10
109.684921442963
20
-2.1218307916732
30
0
41
1
10
109.731747570497
20
-1.99016755602364
30
0
41
1
10
109.846186682579
20
-1.76885061731903
30
0
41
1
10
110.0762085904
20
-1.52539270920167
30
0
41
1
10
110.360682624209
20
-1.35048020846952
30
0
41
1
10
110.617472207916
20
-1.27502095253448
30
0
41
1
10
110.769518865538
20
-1.25930801451781
30
0
41
1
10
110.812721685419
20
-1.25702544394159
30
0
0
SPLINE
5
197
100
AcDbEntity
8
1
62
256
6
ByLayer
370
-1
48
1
60
0
100
AcDbSpline
70
4
71
3
72
10
73
6
40
0
40
0
40
0
40
0
40
0.168188472290502
40
0.69313651361368
40
1
40
1
40
1
40
1
41
1
10
110.812721685418
20
-1.25702544394159
30
0
41
1
10
110.847925900451
20
-1.25519801545155
30
0
41
1
10
110.992239161047
20
-1.25364808812222
30
0
41
1
10
111.201064012903
20
-1.2877075997983
30
0
41
1
10
111.363343600766
20
-1.35057266691359
30
0
41
1
10
111.42101887518
20
-1.37812532049321
30
0
0
SPLINE
5
198
100
AcDbEntity
8
1
62
256
6
ByLayer
370
-1
48
1
60
0
100
AcDbSpline
70
4
71
3
72
14
73
10
40
0
40
0
40
0
40
0
40
0.25
40
0.25
40
0.5
40
0.5
40
0.75
40
0.75
40
1
40
1
40
1
40
1
41
1
10
65
20
9.0101595418835
30
0
41
1
10
67.5642009791905
20
8.90845550730685
30
0
41
1
10
70.1268434995781
20
8.76618615219562
30
0
41
1
10
75.2518139245877
20
8.40473290466625
30
0
41
1
10
77.8141406791248
20
8.1856087739514
30
0
41
1
10
82.9408094972541
20
7.67575369046824
30
0
41
1
10
85.5052602137891
20
7.38498350941717
30
0
41
1
10
90.6312841526033
20
6.74061491706615
30
0
41
1
10
93.1938149800625
20
6.38698903205903
30
0
41
1
10
95.7571190209052
20
6.0065163319299
30
0
0
SPLINE
5
199
100
AcDbEntity
8
1
62
256
6
ByLayer
370
-1
48
1
60
0
100
AcDbSpline
70
4
71
1
72
4
73
2
40
0
40
0
40
1
40
1
41
1
10
17.0002047222853
20
1.63233809439322
30
0
41
1
10
17.0002047222854
20
3.68115054326805
30
0
0
SPLINE
5
19A
100
AcDbEntity
8
1
62
256
6
ByLayer
370
-1
48
1
60
0
100
AcDbSpline
70
4
71
3
72
8
73
4
40
0
40
0
40
0
40
0
40
1
40
1
40
1
40
1
41
1
10
104.202786787771
20
2.22772021723915
30
0
41
1
10
104.097295489918
20
2.26342397224352
30
0
41
1
10
103.993150094127
20
2.30119574764598
30
0
41
1
10
103.89028108704
20
2.34119787846242
30
0
0
SPLINE
5
19B
100
AcDbEntity
8
1
62
256
6
ByLayer
370
-1
48
1
60
0
100
AcDbSpline
70
4
71
4
72
10
73
5
40
0
40
0
40
0
40
0
40
0
40
1
40
1
40
1
40
1
40
1
41
1
10
101.49752578707
20
5.20999999999987
30
0
41
1
10
101.497525787085
20
6.18629847608267
30
0
41
1
10
101.497525787096
20
7.1625969521655
30
0
41
1
10
101.497525787103
20
8.1388954282483
30
0
41
1
10
101.497525787108
20
9.11519390433111
30
0
0
SPLINE
5
19C
100
AcDbEntity
8
1
62
256
6
ByLayer
370
-1
48
1
60
0
100
AcDbSpline
70
4
71
3
72
14
73
10
40
0
40
0
40
0
40
0
40
0.25
40
0.25
40
0.5
40
0.5
40
0.75
40
0.75
40
1
40
1
40
1
40
1
41
1
10
109.716753558371
20
3.46013864525591
30
0
41
1
10
109.687437105774
20
3.43099462791312
30
0
41
1
10
109.658145009366
20
3.40467497851051
30
0
41
1
10
109.600681854369
20
3.35720316093901
30
0
41
1
10
109.572470688716
20
3.33603576307399
30
0
41
1
10
109.519292907621
20
3.29929833197863
30
0
41
1
10
109.494671160026
20
3.28400109252144
30
0
41
1
10
109.456071998799
20
3.26231839589013
30
0
41
1
10
109.442714096285
20
3.25621465104666
30
0
41
1
10
109.438536391489
20
3.25621465104666
30
0
0
SPLINE
5
19D
100
AcDbEntity
8
1
62
256
6
ByLayer
370
-1
48
1
60
0
100
AcDbSpline
70
4
71
3
72
10
73
6
40
0
40
0
40
0
40
0
40
0.365096745238726
40
0.730193490477452
40
1
40
1
40
1
40
1
41
1
10
101.49752578707
20
5.20999999999987
30
0
41
1
10
101.056816561484
20
5.19828667797853
30
0
41
1
10
100.175380731441
20
5.1736297836728
30
0
41
1
10
98.9681897834326
20
5.13634917290853
30
0
41
1
10
98.2017778265199
20
5.11068749278559
30
0
41
1
10
97.8761045732654
20
5.09941482691852
30
0
0
SPLINE
5
19E
100
AcDbEntity
8
1
62
256
6
ByLayer
370
-1
48
1
60
0
100
AcDbSpline
70
4
71
3
72
18
73
14
40
0
40
0
40
0
40
0
40
0.25
40
0.25
40
0.374999999999999
40
0.374999999999999
40
0.499999999999999
40
0.499999999999999
40
0.749999999999999
40
0.749999999999999
40
0.875
40
0.875
40
1
40
1
40
1
40
1
41
1
10
16.0000000000001
20
3.97080851218291
30
0
41
1
10
15.5697243230374
20
4.08516516083583
30
0
41
1
10
15.138439780106
20
4.19935191106043
30
0
41
1
10
14.4913348416228
20
4.3756345344888
30
0
41
1
10
14.2757143546729
20
4.43523020894923
30
0
41
1
10
13.8510771478507
20
4.55536811968096
30
0
41
1
10
13.6412531484286
20
4.61612769399332
30
0
41
1
10
13.0196033794226
20
4.80199445975649
30
0
41
1
10
12.6155553582444
20
4.93064053983531
30
0
41
1
10
12.0270663667484
20
5.13740525666285
30
0
41
1
10
11.8340638880938
20
5.20859399248533
30
0
41
1
10
11.4595161760596
20
5.35473805892369
30
0
41
1
10
11.2772899097969
20
5.42992526663727
30
0
41
1
10
11.1002047222866
20
5.50773394170611
30
0
0
SPLINE
5
19F
100
AcDbEntity
8
1
62
256
6
ByLayer
370
-1
48
1
60
0
100
AcDbSpline
70
4
71
3
72
8
73
4
40
0
40
0
40
0
40
0
40
1
40
1
40
1
40
1
41
1
10
103.758804194565
20
5.20999999999989
30
0
41
1
10
103.680711142059
20
5.48450936188951
30
0
41
1
10
103.628819425907
20
5.76721033029273
30
0
41
1
10
103.628819425907
20
6.06392678420227
30
0
0
SPLINE
5
1A0
100
AcDbEntity
8
1
62
256
6
ByLayer
370
-1
48
1
60
0
100
AcDbSpline
70
4
71
3
72
16
73
12
40
0
40
0
40
0
40
0
40
0.250000000000008
40
0.250000000000008
40
0.500000000000016
40
0.500000000000016
40
0.625000000000012
40
0.625000000000012
40
0.750000000000008
40
0.750000000000008
40
1
40
1
40
1
40
1
41
1
10
101.49752578707
20
9.11519390433045
30
0
41
1
10
101.695549533329
20
9.11858790518241
30
0
41
1
10
101.889155378766
20
9.12387977182038
30
0
41
1
10
102.267946125737
20
9.1369972428534
30
0
41
1
10
102.453130075599
20
9.14482722817084
30
0
41
1
10
102.724484980621
20
9.15714524540266
30
0
41
1
10
102.814180553698
20
9.16135735201343
30
0
41
1
10
102.988722017799
20
9.16955299792076
30
0
41
1
10
103.0738037226
20
9.17354640064704
30
0
41
1
10
103.322633426403
20
9.18476186308064
30
0
41
1
10
103.480000950049
20
9.19123505924205
30
0
41
1
10
103.628819425906
20
9.19535854645466
30
0
0
SPLINE
5
1A1
100
AcDbEntity
8
1
62
256
6
ByLayer
370
-1
48
1
60
0
100
AcDbSpline
70
4
71
3
72
16
73
12
40
0
40
0
40
0
40
0
40
0.25
40
0.25
40
0.375
40
0.375
40
0.5
40
0.5
40
0.75
40
0.75
40
1
40
1
40
1
40
1
41
1
10
21
20
-8.77437142641097
30
0
41
1
10
24.6679714216132
20
-9.01692654188977
30
0
41
1
10
28.3328855151156
20
-9.17790821676365
30
0
41
1
10
33.8319288865468
20
-9.29120206302662
30
0
41
1
10
35.6652273177337
20
-9.30769363819468
30
0
41
1
10
39.3333834679341
20
-9.2982348149589
30
0
41
1
10
41.1682237866181
20
-9.27227859170131
30
0
41
1
10
46.6689364764291
20
-9.13193662704811
30
0
41
1
10
50.3334953766103
20
-8.95498428603898
30
0
41
1
10
57.6640745661103
20
-8.44431701497936
30
0
41
1
10
61.3298902769548
20
-8.11006946313458
30
0
41
1
10
65
20
-7.70518199291931
30
0
0
SPLINE
5
1A2
100
AcDbEntity
8
1
62
256
6
ByLayer
370
-1
48
1
60
0
100
AcDbSpline
70
4
71
3
72
22
73
18
40
0
40
0
40
0
40
0
40
0.125
40
0.125
40
0.25
40
0.25
40
0.375
40
0.375
40
0.5
40
0.5
40
0.625
40
0.625
40
0.75
40
0.75
40
0.875
40
0.875
40
1
40
1
40
1
40
1
41
1
10
107.898000515097
20
3.22787326350874
30
0
41
1
10
107.903133580976
20
3.22787326350874
30
0
41
1
10
107.897900603211
20
3.23398234524996
30
0
41
1
10
107.872306098437
20
3.25665947135079
30
0
41
1
10
107.852813074078
20
3.27265588937615
30
0
41
1
10
107.806866123291
20
3.31260639764292
30
0
41
1
10
107.780497085271
20
3.33650218306826
30
0
41
1
10
107.72593639548
20
3.39046612924506
30
0
41
1
10
107.697472609479
20
3.42072855452298
30
0
41
1
10
107.639853328334
20
3.4885043037969
30
0
41
1
10
107.610848799284
20
3.52589662613499
30
0
41
1
10
107.555153015752
20
3.60621355126872
30
0
41
1
10
107.528212041193
20
3.64939667684851
30
0
41
1
10
107.476955985937
20
3.74292648748249
30
0
41
1
10
107.452736682311
20
3.79330781411275
30
0
41
1
10
107.409951397862
20
3.89714990776505
30
0
41
1
10
107.391048931429
20
3.95116649428007
30
0
41
1
10
107.37488062834
20
4.0075792329707
30
0
0
SPLINE
5
1A3
100
AcDbEntity
8
1
62
256
6
ByLayer
370
-1
48
1
60
0
100
AcDbSpline
70
4
71
3
72
22
73
18
40
0
40
0
40
0
40
0
40
0.125
40
0.125
40
0.1875
40
0.1875
40
0.25
40
0.25
40
0.375
40
0.375
40
0.5
40
0.5
40
0.75
40
0.75
40
0.875
40
0.875
40
1
40
1
40
1
40
1
41
1
10
7.33935087245391
20
-5.61339929835185
30
0
41
1
10
7.17997948321667
20
-5.48383673511881
30
0
41
1
10
7.04663729018102
20
-5.31362821527648
30
0
41
1
10
6.87339285019922
20
-5.01762849109849
30
0
41
1
10
6.82000708520044
20
-4.91135049629483
30
0
41
1
10
6.72356756941437
20
-4.69245904855745
30
0
41
1
10
6.68013217788553
20
-4.57931509049922
30
0
41
1
10
6.56141840665299
20
-4.23084300081683
30
0
41
1
10
6.49757175091594
20
-3.98644204437869
30
0
41
1
10
6.39196229451832
20
-3.48027792254336
30
0
41
1
10
6.351225944481
20
-3.22334680357903
30
0
41
1
10
6.25414261136507
20
-2.4437681821002
30
0
41
1
10
6.22256879396377
20
-1.9124449767335
30
0
41
1
10
6.20167600098924
20
-1.10259159149297
30
0
41
1
10
6.19933518778637
20
-0.831995223777994
30
0
41
1
10
6.20097735595141
20
-0.293392687996658
30
0
41
1
10
6.20495380188021
20
-0.0247603704891617
30
0
41
1
10
6.21092299298687
20
0.243269737211222
30
0
0
SPLINE
5
1A4
100
AcDbEntity
8
1
62
256
6
ByLayer
370
-1
48
1
60
0
100
AcDbSpline
70
4
71
3
72
31
73
27
40
0
40
0
40
0
40
0
40
0.125000000000003
40
0.125000000000003
40
0.187500000000004
40
0.187500000000004
40
0.250000000000005
40
0.250000000000005
40
0.375000000000007
40
0.375000000000007
40
0.406250000000007
40
0.406250000000007
40
0.437500000000007
40
0.437500000000007
40
0.453125000000007
40
0.453125000000007
40
0.468750000000007
40
0.500000000000007
40
0.500000000000007
40
0.625000000000005
40
0.625000000000005
40
0.750000000000003
40
0.750000000000003
40
0.875000000000002
40
0.875000000000002
40
1
40
1
40
1
40
1
41
1
10
7.33935087245385
20
-5.61339929835182
30
0
41
1
10
7.5391787944375
20
-5.83719496677674
30
0
41
1
10
7.74129284843909
20
-6.02585078030395
30
0
41
1
10
8.04864310284628
20
-6.25847299583788
30
0
41
1
10
8.15217034415213
20
-6.32783124524903
30
0
41
1
10
8.35896218898699
20
-6.44920190617538
30
0
41
1
10
8.46158789865984
20
-6.50091997376754
30
0
41
1
10
8.76764613095131
20
-6.63232921234723
30
0
41
1
10
8.96926813606021
20
-6.68822903777726
30
0
41
1
10
9.21970362902749
20
-6.72885900126059
30
0
41
1
10
9.26971040366965
20
-6.73552589024106
30
0
41
1
10
9.36959666569319
20
-6.7462205033172
30
0
41
1
10
9.41945786778516
20
-6.75001243344025
30
0
41
1
10
9.49428559951116
20
-6.75530968628371
30
0
41
1
10
9.5192215566733
20
-6.75681860313853
30
0
41
1
10
9.5692194859362
20
-6.76135915441486
30
0
41
1
10
9.64435967135071
20
-6.76987598813838
30
0
41
1
10
9.71989307985794
20
-6.7831248879493
30
0
41
1
10
9.97240392344148
20
-6.8363083455732
30
0
41
1
10
10.1766980502542
20
-6.90714993327617
30
0
41
1
10
10.5873628076025
20
-7.07801920640898
30
0
41
1
10
10.7938895666696
20
-7.17832677803037
30
0
41
1
10
11.2069869720674
20
-7.39120107278237
30
0
41
1
10
11.4135178308509
20
-7.50382156274898
30
0
41
1
10
11.8264809536963
20
-7.73086759927634
30
0
41
1
10
12.0329160467646
20
-7.84535650114734
30
0
41
1
10
12.239350872454
20
-7.95736717035641
30
0
0
SPLINE
5
1A5
100
AcDbEntity
8
1
62
256
6
ByLayer
370
-1
48
1
60
0
100
AcDbSpline
70
4
71
3
72
18
73
14
40
0
40
0
40
0
40
0
40
0.250000000000001
40
0.250000000000001
40
0.375000000000001
40
0.375000000000001
40
0.500000000000001
40
0.500000000000001
40
0.750000000000001
40
0.750000000000001
40
0.875000000000001
40
0.875000000000001
40
1
40
1
40
1
40
1
41
1
10
12.239350872454
20
-7.95736717035641
30
0
41
1
10
12.4649674335265
20
-8.0473271480042
30
0
41
1
10
12.7156300232362
20
-8.10655850987501
30
0
41
1
10
13.1280429544007
20
-8.17214685189055
30
0
41
1
10
13.2716320525621
20
-8.19001120649384
30
0
41
1
10
13.5714239152925
20
-8.2205568791334
30
0
41
1
10
13.728288863047
20
-8.23326234804858
30
0
41
1
10
14.2090708433805
20
-8.26676239790933
30
0
41
1
10
14.5453761669686
20
-8.28340807940126
30
0
41
1
10
15.0743500571907
20
-8.31298079304682
30
0
41
1
10
15.2548877273736
20
-8.32356892353994
30
0
41
1
10
15.6242769243675
20
-8.34802878888186
30
0
41
1
10
15.8110843705263
20
-8.36177086791284
30
0
41
1
10
16
20
-8.37773690531179
30
0
0
SPLINE
5
1A6
100
AcDbEntity
8
1
62
256
6
ByLayer
370
-1
48
1
60
0
100
AcDbSpline
70
4
71
3
72
18
73
14
40
0
40
0
40
0
40
0
40
0.0227999123768593
40
0.185666593647383
40
0.267099934282645
40
0.348533274917906
40
0.429966615553168
40
0.51139995618843
40
0.674266637458953
40
0.755699978094215
40
0.837133318729477
40
0.918566659364739
40
1
40
1
40
1
40
1
41
1
10
33.6178023340945
20
0.46599932356645
30
0
41
1
10
33.4915074861466
20
0.475328097839764
30
0
41
1
10
32.4630361672097
20
0.551270002792933
30
0
41
1
10
30.9833118276542
20
0.660199005829981
30
0
41
1
10
29.1786769135486
20
0.792043872401024
30
0
41
1
10
27.8251836080215
20
0.890152680294847
30
0
41
1
10
26.471796879769
20
0.987231726108576
30
0
41
1
10
24.6676665317717
20
1.1147158115632
30
0
41
1
10
22.8635878812494
20
1.23878332446952
30
0
41
1
10
21.0588387202101
20
1.36115898703258
30
0
41
1
10
19.7051803639394
20
1.45242893401664
30
0
41
1
10
18.351961957369
20
1.54309566581287
30
0
41
1
10
17.4505800336987
20
1.60283459795514
30
0
41
1
10
17.0002047222881
20
1.63233809439279
30
0
0
SPLINE
5
1A7
100
AcDbEntity
8
1
62
256
6
ByLayer
370
-1
48
1
60
0
100
AcDbSpline
70
4
71
3
72
16
73
12
40
0
40
0
40
0
40
0
40
0.125
40
0.125
40
0.25
40
0.25
40
0.5
40
0.5
40
0.75
40
0.75
40
1
40
1
40
1
40
1
41
1
10
14.010278587281
20
-7.41336664182151
30
0
41
1
10
14.0801495993975
20
-7.45052787388184
30
0
41
1
10
14.1517043859705
20
-7.4860961093859
30
0
41
1
10
14.2962147271005
20
-7.55308947360626
30
0
41
1
10
14.3693645951548
20
-7.58462709552367
30
0
41
1
10
14.5914895993031
20
-7.67350474912203
30
0
41
1
10
14.7431343084567
20
-7.72512752840996
30
0
41
1
10
15.0536365026246
20
-7.81342282623626
30
0
41
1
10
15.212492942493
20
-7.8500961835924
30
0
41
1
10
15.5377063319214
20
-7.90821326010123
30
0
41
1
10
15.7046438046467
20
-7.92963565542868
30
0
41
1
10
15.8722423025197
20
-7.94285308708001
30
0
0
SPLINE
5
1A8
100
AcDbEntity
8
1
62
256
6
ByLayer
370
-1
48
1
60
0
100
AcDbSpline
70
4
71
3
72
8
73
4
40
0
40
0
40
0
40
0
40
1
40
1
40
1
40
1
41
1
10
15.8722423025197
20
-7.94285308707944
30
0
41
1
10
15.9645852740296
20
-7.95056275581186
30
0
41
1
10
16.0572983737849
20
-7.9586009542999
30
0
41
1
10
16.1503791795061
20
-7.96701279083177
30
0
0
SPLINE
5
1A9
100
AcDbEntity
8
1
62
256
6
ByLayer
370
-1
48
1
60
0
100
AcDbSpline
70
4
71
3
72
14
73
10
40
0
40
0
40
0
40
0
40
0.25
40
0.25
40
0.5
40
0.5
40
0.75
40
0.75
40
1
40
1
40
1
40
1
41
1
10
107.543683807605
20
9.19994535970227
30
0
41
1
10
107.547837364012
20
9.20010919140199
30
0
41
1
10
107.557512871455
20
9.19990022910844
30
0
41
1
10
107.587508585959
20
9.19886428523097
30
0
41
1
10
107.608128479941
20
9.19802344627877
30
0
41
1
10
107.658177670768
20
9.19598997778488
30
0
41
1
10
107.688031989452
20
9.19478196008242
30
0
41
1
10
107.755973677572
20
9.19229266761977
30
0
41
1
10
107.793426245557
20
9.19103459961232
30
0
41
1
10
107.834405244922
20
9.18988908238418
30
0
0
SPLINE
5
1AA
100
AcDbEntity
8
1
62
256
6
ByLayer
370
-1
48
1
60
0
100
AcDbSpline
70
4
71
3
72
8
73
4
40
0
40
0
40
0
40
0
40
1
40
1
40
1
40
1
41
1
10
16
20
3.97080851218348
30
0
41
1
10
16.3357121784137
20
3.88158450606173
30
0
41
1
10
16.6690700040703
20
3.78500589795547
30
0
41
1
10
17.0002047222854
20
3.6811505432681
30
0
0
SPLINE
5
1AB
100
AcDbEntity
8
1
62
256
6
ByLayer
370
-1
48
1
60
0
100
AcDbSpline
70
4
71
3
72
10
73
6
40
0
40
0
40
0
40
0
40
0.5
40
0.5
40
1
40
1
40
1
40
1
41
1
10
105.630841801823
20
-9.15194979587017
30
0
41
1
10
105.917943680959
20
-9.15576485012255
30
0
41
1
10
106.197526635575
20
-9.16190745463445
30
0
41
1
10
106.742307553838
20
-9.17582907036964
30
0
41
1
10
107.007505514226
20
-9.18362845525459
30
0
41
1
10
107.265180658526
20
-9.18983491329172
30
0
0
SPLINE
5
1AC
100
AcDbEntity
8
1
62
256
6
ByLayer
370
-1
48
1
60
0
100
AcDbSpline
70
4
71
3
72
10
73
6
40
0
40
0
40
0
40
0
40
0.5
40
0.5
40
1
40
1
40
1
40
1
41
1
10
107.631919909348
20
6.43278051806411
30
0
41
1
10
107.635334631899
20
6.43278051806411
30
0
41
1
10
107.642302111234
20
6.43710201621596
30
0
41
1
10
107.662702187993
20
6.45303386268372
30
0
41
1
10
107.67619580506
20
6.46469302148554
30
0
41
1
10
107.69224038289
20
6.47868655910889
30
0
0
SPLINE
5
1AD
100
AcDbEntity
8
1
62
256
6
ByLayer
370
-1
48
1
60
0
100
AcDbSpline
70
4
71
3
72
12
73
8
40
0
40
0
40
0
40
0
40
0.25
40
0.25
40
0.5
40
0.5
40
1
40
1
40
1
40
1
41
1
10
105.685971377177
20
3.30354156567682
30
0
41
1
10
105.7981858337
20
3.2813810692343
30
0
41
1
10
105.910290050268
20
3.26262903271154
30
0
41
1
10
106.134162503725
20
3.23183435392897
30
0
41
1
10
106.246159601064
20
3.21980164047207
30
0
41
1
10
106.575835664878
20
3.19395754948758
30
0
41
1
10
106.789049968922
20
3.19008117769121
30
0
41
1
10
106.994712721893
20
3.19760604389253
30
0
0
SPLINE
5
1AE
100
AcDbEntity
8
1
62
256
6
ByLayer
370
-1
48
1
60
0
100
AcDbSpline
70
4
71
3
72
8
73
4
40
0
40
0
40
0
40
0
40
1
40
1
40
1
40
1
41
1
10
11.1002047222867
20
5.14676819121871
30
0
41
1
10
13.0768375599168
20
3.9703728452964
30
0
41
1
10
15.0441494333172
20
2.79752283654878
30
0
41
1
10
17.0002047222853
20
1.63233809439322
30
0
0
SPLINE
5
1AF
100
AcDbEntity
8
1
62
256
6
ByLayer
370
-1
48
1
60
0
100
AcDbSpline
70
4
71
3
72
54
73
50
40
0
40
0
40
0
40
0
40
0.0625000000000004
40
0.0625000000000004
40
0.125000000000001
40
0.125000000000001
40
0.156250000000001
40
0.156250000000001
40
0.187500000000001
40
0.187500000000001
40
0.25
40
0.25
40
0.3125
40
0.3125
40
0.34375
40
0.34375
40
0.375
40
0.375
40
0.4375
40
0.4375
40
0.468749999999999
40
0.468749999999999
40
0.499999999999999
40
0.499999999999999
40
0.531249999999999
40
0.531249999999999
40
0.546874999999999
40
0.546874999999999
40
0.562499999999999
40
0.562499999999999
40
0.624999999999999
40
0.624999999999999
40
0.6875
40
0.6875
40
0.71875
40
0.71875
40
0.75
40
0.75
40
0.8125
40
0.8125
40
0.84375
40
0.84375
40
0.875
40
0.875
40
0.9375
40
0.9375
40
0.96875
40
0.96875
40
1
40
1
40
1
40
1
41
1
10
11.1002047222857
20
5.50773394170051
30
0
41
1
10
10.8808577701367
20
5.60932584934091
30
0
41
1
10
10.6724977406118
20
5.70155655497447
30
0
41
1
10
10.2766302872828
20
5.87464571839942
30
0
41
1
10
10.0891154178549
20
5.95545362091264
30
0
41
1
10
9.82313507838367
20
6.07232337487267
30
0
41
1
10
9.73702954584616
20
6.11054803598606
30
0
41
1
10
9.56994789615814
20
6.18618869138726
30
0
41
1
10
9.48999660612941
20
6.22406345841986
30
0
41
1
10
9.25030490541789
20
6.3313580077909
30
0
41
1
10
9.08854920834995
20
6.39346206102746
30
0
41
1
10
8.75725603951591
20
6.49284824029738
30
0
41
1
10
8.58779720000587
20
6.53023643179409
30
0
41
1
10
8.32517210780867
20
6.56088570900121
30
0
41
1
10
8.23622172575207
20
6.56683070759715
30
0
41
1
10
8.05499957559761
20
6.56844500498494
30
0
41
1
10
7.96344178206138
20
6.56407660945951
30
0
41
1
10
7.68752648655831
20
6.53332672239586
30
0
41
1
10
7.50117807306486
20
6.48951326279848
30
0
41
1
10
7.21933100166225
20
6.37754635044868
30
0
41
1
10
7.12577607798426
20
6.33266172079854
30
0
41
1
10
6.94331756118015
20
6.22852737746038
30
0
41
1
10
6.85393317214542
20
6.16909756300967
30
0
41
1
10
6.67964763535096
20
6.03499900128546
30
0
41
1
10
6.59474528779484
20
5.96033292222555
30
0
41
1
10
6.47147430602629
20
5.8364371423078
30
0
41
1
10
6.43092592994748
20
5.79298391641268
30
0
41
1
10
6.35234265140019
20
5.70320997780007
30
0
41
1
10
6.31423712827777
20
5.65684025226571
30
0
41
1
10
6.12966053056292
20
5.41786989149219
30
0
41
1
10
6.00093476104698
20
5.20408531068736
30
0
41
1
10
5.78352535151154
20
4.73586354924785
30
0
41
1
10
5.69821650979063
20
4.48878651912423
30
0
41
1
10
5.60330606683962
20
4.10294505066344
30
0
41
1
10
5.57713981739263
20
3.97134237741449
30
0
41
1
10
5.53610314955023
20
3.70470134049424
30
0
41
1
10
5.52134543067913
20
3.57063450662196
30
0
41
1
10
5.49341802400952
20
3.16639284019803
30
0
41
1
10
5.49650436645305
20
2.89421395606988
30
0
41
1
10
5.53215020861865
20
2.48192208611394
30
0
41
1
10
5.54924357290722
20
2.34415031981123
30
0
41
1
10
5.59281091172488
20
2.07163688477203
30
0
41
1
10
5.6193264614607
20
1.93635266838567
30
0
41
1
10
5.71217160208636
20
1.53317019772558
30
0
41
1
10
5.79178488003984
20
1.26794359799189
30
0
41
1
10
5.93486071157633
20
0.874510401156584
30
0
41
1
10
5.98620507037057
20
0.744967011154273
30
0
41
1
10
6.09443666040886
20
0.490936966344492
30
0
41
1
10
6.15144941428878
20
0.366103136044899
30
0
41
1
10
6.21092299298687
20
0.243269737211222
30
0
0
SPLINE
5
1B0
100
AcDbEntity
8
1
62
256
6
ByLayer
370
-1
48
1
60
0
100
AcDbSpline
70
4
71
3
72
41
73
37
40
0
40
0
40
0
40
0
40
0.0512497256168189
40
0.102499451233638
40
0.128124314042047
40
0.153749176850457
40
0.179374039658866
40
0.204998902467276
40
0.230623765275685
40
0.256248628084095
40
0.281873490892504
40
0.307498353700914
40
0.333123216509323
40
0.358748079317733
40
0.384372942126142
40
0.409997804934552
40
0.435622667742961
40
0.46124753055137
40
0.48687239335978
40
0.512497256168189
40
0.538122118976599
40
0.563746981785008
40
0.589371844593418
40
0.614996707401827
40
0.666246433018646
40
0.717496158635465
40
0.768745884252284
40
0.794370747060693
40
0.807183178464898
40
0.819995609869103
40
0.832808041273308
40
0.845620472677513
40
0.871245335485922
40
0.922495061102741
40
0.97374478671956
40
1
40
1
40
1
40
1
41
1
10
11.1002047222867
20
5.14676819121871
30
0
41
1
10
10.9897398105393
20
5.11401254531054
30
0
41
1
10
10.7631784612736
20
5.03581865128351
30
0
41
1
10
10.4685106816124
20
4.90430031938936
30
0
41
1
10
10.2278945665025
20
4.77801321465194
30
0
41
1
10
10.0455913630159
20
4.67269858141512
30
0
41
1
10
9.8620468709116
20
4.5567215584218
30
0
41
1
10
9.67794386182385
20
4.43018081400132
30
0
41
1
10
9.49396510738688
20
4.29317501648302
30
0
41
1
10
9.31085018495904
20
4.14597935672012
30
0
41
1
10
9.12933867189864
20
3.98886902556583
30
0
41
1
10
8.95019215460482
20
3.82229707599922
30
0
41
1
10
8.77417221947672
20
3.6467165609993
30
0
41
1
10
8.60202285362811
20
3.46274655961025
30
0
41
1
10
8.43448804417275
20
3.2710061508763
30
0
41
1
10
8.27225333869828
20
3.07225323504738
30
0
41
1
10
8.11600428479233
20
2.86724571237355
30
0
41
1
10
7.96633025776345
20
2.65684197672479
30
0
41
1
10
7.82382063292022
20
2.44190042197133
30
0
41
1
10
7.68893910336138
20
2.22333301571666
30
0
41
1
10
7.56214936218569
20
2.0020517255644
30
0
41
1
10
7.44376982861186
20
1.77897268465262
30
0
41
1
10
7.33411892185862
20
1.55501202611927
30
0
41
1
10
7.1997781830251
20
1.25638736795767
30
0
41
1
10
7.05450745557243
20
0.885271413870043
30
0
41
1
10
6.91658724431267
20
0.449729638924282
30
0
41
1
10
6.83124196444859
20
0.099483249599615
30
0
41
1
10
6.78625512054933
20
-0.137084494324228
30
0
41
1
10
6.76465161035577
20
-0.269299585724269
30
0
41
1
10
6.75039112356842
20
-0.367447569645861
30
0
41
1
10
6.73796329962229
20
-0.465052122588844
30
0
41
1
10
6.72381665745371
20
-0.595056063635809
30
0
41
1
10
6.70537060995238
20
-0.823753788789162
30
0
41
1
10
6.69838051014221
20
-1.15076588142799
30
0
41
1
10
6.71996716012495
20
-1.47485366333498
30
0
41
1
10
6.74694601880563
20
-1.66541397104479
30
0
41
1
10
6.75772658858034
20
-1.72929607450479
30
0
0
SPLINE
5
1B1
100
AcDbEntity
8
1
62
256
6
ByLayer
370
-1
48
1
60
0
100
AcDbSpline
70
4
71
2
72
6
73
3
40
0
40
0
40
0
40
1
40
1
40
1
41
1
10
16.150379179636
20
-7.967012790838
30
0
41
1
10
16.150379179636
20
-8.17826393159794
30
0
41
1
10
16.150379179636
20
-8.38951507235785
30
0
0
SPLINE
5
1B2
100
AcDbEntity
8
1
62
256
6
ByLayer
370
-1
48
1
60
0
100
AcDbSpline
70
4
71
3
72
14
73
10
40
0
40
0
40
0
40
0
40
0.412924569137677
40
0.412924569137677
40
0.619386853706516
40
0.619386853706516
40
0.825849138275354
40
0.825849138275354
40
1
40
1
40
1
40
1
41
1
10
110.069483861579
20
6.23101927553057
30
0
41
1
10
110.085631703259
20
6.09132461706082
30
0
41
1
10
110.124852290617
20
5.95173712965669
30
0
41
1
10
110.225601359819
20
5.74485470271503
30
0
41
1
10
110.26601744903
20
5.6771654032359
30
0
41
1
10
110.360322556831
20
5.54780670114451
30
0
41
1
10
110.414409548895
20
5.48568355163218
30
0
41
1
10
110.529076341376
20
5.37764566007431
30
0
41
1
10
110.585927403849
20
5.33202526830399
30
0
41
1
10
110.647531529362
20
5.29073795516106
30
0
0
SPLINE
5
1B3
100
AcDbEntity
8
1
62
256
6
ByLayer
370
-1
48
1
60
0
100
AcDbSpline
70
4
71
3
72
8
73
4
40
0
40
0
40
0
40
0
40
1
40
1
40
1
40
1
41
1
10
110.061842719488
20
6.41045760356627
30
0
41
1
10
110.060013383333
20
6.3513751973552
30
0
41
1
10
110.062483766045
20
6.29157696330685
30
0
41
1
10
110.069483861579
20
6.23101927553057
30
0
0
SPLINE
5
1B4
100
AcDbEntity
8
1
62
256
6
ByLayer
370
-1
48
1
60
0
100
AcDbSpline
70
4
71
4
72
13
73
8
40
0
40
0
40
0
40
0
40
0
40
0.596786389584226
40
0.596786389584226
40
0.596786389584226
40
1
40
1
40
1
40
1
40
1
41
1
10
17.0002047222881
20
1.63233809439279
30
0
41
1
10
17.0002047222881
20
1.01883435846872
30
0
41
0.942809041582063
10
16.8941025149811
20
-0.619113578824704
30
0
41
1
10
16.6122044146167
20
-3.11233144491314
30
0
41
1
10
16.2566259055926
20
-5.87027950714051
30
0
41
0.973892822547942
10
16.0861429471976
20
-7.05702399599042
30
0
41
0.974595739863506
10
15.9513024966988
20
-7.75162980428198
30
0
41
0.983519821084507
10
15.8722423025192
20
-7.94285308707954
30
0
0
SPLINE
5
1B5
100
AcDbEntity
8
1
62
256
6
ByLayer
370
-1
48
1
60
0
100
AcDbSpline
70
4
71
3
72
14
73
10
40
0
40
0
40
0
40
0
40
0.0705200632847155
40
0.0705200632847155
40
0.380346708856477
40
0.380346708856477
40
0.690173354428238
40
0.690173354428238
40
1
40
1
40
1
40
1
41
1
10
112.798821593537
20
3.54016134033529
30
0
41
1
10
112.798349367147
20
3.53274273123904
30
0
41
1
10
112.797847703106
20
3.52552820752109
30
0
41
1
10
112.795010246414
20
3.48770942251056
30
0
41
1
10
112.792168810209
20
3.46077953884696
30
0
41
1
10
112.786043448765
20
3.41772727115614
30
0
41
1
10
112.782697480224
20
3.40105860854149
30
0
41
1
10
112.775759824631
20
3.37863823865465
30
0
41
1
10
112.772228264525
20
3.37298136335471
30
0
41
1
10
112.7686887499
20
3.37294864766079
30
0
0
SPLINE
5
1B6
100
AcDbEntity
8
1
62
256
6
ByLayer
370
-1
48
1
60
0
100
AcDbSpline
70
4
71
3
72
26
73
22
40
0
40
0
40
0
40
0
40
0.0139614100876053
40
0.0139614100876053
40
0.103601281897823
40
0.103601281897823
40
0.282881025518258
40
0.282881025518258
40
0.462160769138693
40
0.462160769138693
40
0.551800640948911
40
0.551800640948911
40
0.641440512759129
40
0.641440512759129
40
0.731080384569346
40
0.731080384569346
40
0.820720256379564
40
0.820720256379564
40
0.910360128189782
40
0.910360128189782
40
1
40
1
40
1
40
1
41
1
10
73.0525441944223
20
-6.55322777892428
30
0
41
1
10
72.7876934008627
20
-6.58757339094447
30
0
41
1
10
72.522832123088
20
-6.62162350015413
30
0
41
1
10
70.5573299427998
20
-6.87206017693063
30
0
41
1
10
68.8564118459476
20
-7.07626628629458
30
0
41
1
10
63.7561128605131
20
-7.64649276468268
30
0
41
1
10
60.357593295997
20
-7.97028286434895
30
0
41
1
10
53.5576417218255
20
-8.48168676213351
30
0
41
1
10
50.1547851266143
20
-8.67080636711069
30
0
41
1
10
45.0540825406173
20
-8.84982908518333
30
0
41
1
10
43.3541782066951
20
-8.89186110338315
30
0
41
1
10
39.9543432996704
20
-8.93879454883145
30
0
41
1
10
38.2544022652747
20
-8.94372490144883
30
0
41
1
10
34.8537183099972
20
-8.91762649648709
30
0
41
1
10
33.1526581377539
20
-8.88687030483572
30
0
41
1
10
29.7518241138588
20
-8.79300609358364
30
0
41
1
10
28.0517921445762
20
-8.72996680819659
30
0
41
1
10
24.6519241904451
20
-8.57007697188769
30
0
41
1
10
22.9521207948499
20
-8.47191973503266
30
0
41
1
10
19.5518870397178
20
-8.24240121855485
30
0
41
1
10
17.8514458915865
20
-8.11300906999466
30
0
41
1
10
16.150379179636
20
-7.96701279084343
30
0
0
SPLINE
5
1B7
100
AcDbEntity
8
1
62
256
6
ByLayer
370
-1
48
1
60
0
100
AcDbSpline
70
4
71
3
72
10
73
6
40
0
40
0
40
0
40
0
40
0.432583757323296
40
0.432583757323296
40
1
40
1
40
1
40
1
41
1
10
55.3041153907991
20
9.23635978729214
30
0
41
1
10
56.7015881612652
20
9.23110976370066
30
0
41
1
10
58.0991984281426
20
9.2140181873267
30
0
41
1
10
61.3306940679031
20
9.14708542527458
30
0
41
1
10
63.164823464689
20
9.08867516906247
30
0
41
1
10
64.9999999999999
20
9.01015954188401
30
0
0
SPLINE
5
1B8
100
AcDbEntity
8
1
62
256
6
ByLayer
370
-1
48
1
60
0
100
AcDbSpline
70
4
71
3
72
14
73
10
40
0
40
0
40
0
40
0
40
0.0807794144152339
40
0.0807794144152339
40
0.540389707207617
40
0.540389707207617
40
0.770194853603808
40
0.770194853603808
40
1
40
1
40
1
40
1
41
1
10
81.6442846906058
20
7.8007352323645
30
0
41
1
10
82.1789763554381
20
7.85631197435396
30
0
41
1
10
82.7137195679905
20
7.91036169361118
30
0
41
1
10
86.2914005938371
20
8.26147111322825
30
0
41
1
10
89.33221344464
20
8.50957733364032
30
0
41
1
10
93.8932758687974
20
8.79962366331517
30
0
41
1
10
95.4138101376813
20
8.8823425422103
30
0
41
1
10
98.4551362590641
20
9.02003564479384
30
0
41
1
10
99.9761037258105
20
9.07476874233544
30
0
41
1
10
101.497525787108
20
9.11519390433111
30
0
0
SPLINE
5
1B9
100
AcDbEntity
8
1
62
256
6
ByLayer
370
-1
48
1
60
0
100
AcDbSpline
70
4
71
3
72
8
73
4
40
0
40
0
40
0
40
0
40
1
40
1
40
1
40
1
41
1
10
106.994712721893
20
3.19760604389253
30
0
41
1
10
107.034303517449
20
3.19905460681926
30
0
41
1
10
107.073322925731
20
3.20048597830291
30
0
41
1
10
107.111770781023
20
3.20190015335751
30
0
0
SPLINE
5
1BA
100
AcDbEntity
8
1
62
256
6
ByLayer
370
-1
48
1
60
0
100
AcDbSpline
70
4
71
3
72
12
73
8
40
0
40
0
40
0
40
0
40
0.5
40
0.5
40
0.75
40
0.75
40
1
40
1
40
1
40
1
41
1
10
104.456974568039
20
3.78473550676819
30
0
41
1
10
104.606968914709
20
3.67419445319538
30
0
41
1
10
104.774080483649
20
3.586803798711
30
0
41
1
10
105.043053821093
20
3.47750349558481
30
0
41
1
10
105.135254396128
20
3.44513379558015
30
0
41
1
10
105.322026853997
20
3.38773619881107
30
0
41
1
10
105.416929896103
20
3.36258315933839
30
0
41
1
10
105.513171204467
20
3.34045655407397
30
0
0
SPLINE
5
1BB
100
AcDbEntity
8
1
62
256
6
ByLayer
370
-1
48
1
60
0
100
AcDbSpline
70
4
71
3
72
23
73
19
40
0
40
0
40
0
40
0
40
0.103612803019372
40
0.103612803019372
40
0.193251522717435
40
0.193251522717435
40
0.282890242415497
40
0.37252896211356
40
0.37252896211356
40
0.462167681811623
40
0.462167681811623
40
0.641445121207748
40
0.641445121207748
40
0.731083840905811
40
0.731083840905811
40
0.820722560603873
40
0.820722560603873
40
1
40
1
40
1
40
1
41
1
10
103.761554236043
20
2.38353910282362
30
0
41
1
10
103.789804450812
20
2.43645591222077
30
0
41
1
10
103.815780858369
20
2.49571492496304
30
0
41
1
10
103.859861574961
20
2.61824943465547
30
0
41
1
10
103.878417844654
20
2.67969688203411
30
0
41
1
10
103.911178216724
20
2.80970359625567
30
0
41
1
10
103.939776046873
20
2.94732764212873
30
0
41
1
10
103.959927080872
20
3.09981802826408
30
0
41
1
10
103.975650495975
20
3.25971917566105
30
0
41
1
10
103.981310091022
20
3.34373756652349
30
0
41
1
10
103.991021192432
20
3.60450555931672
30
0
41
1
10
103.987901985507
20
3.78797919024407
30
0
41
1
10
103.967792277369
20
4.07624727473606
30
0
41
1
10
103.958498304861
20
4.17452445618054
30
0
41
1
10
103.934297945055
20
4.37533291147449
30
0
41
1
10
103.919327659394
20
4.47814021412392
30
0
41
1
10
103.865961608026
20
4.78804030095083
30
0
41
1
10
103.819131301801
20
4.9979407297518
30
0
41
1
10
103.758804194519
20
5.209999999985
30
0
0
SPLINE
5
1BC
100
AcDbEntity
8
1
62
256
6
ByLayer
370
-1
48
1
60
0
100
AcDbSpline
70
4
71
3
72
8
73
4
40
0
40
0
40
0
40
0
40
1
40
1
40
1
40
1
41
1
10
11.1002047222857
20
5.14676819121195
30
0
41
1
10
11.1002047222857
20
5.26709010804146
30
0
41
1
10
11.1002047222857
20
5.387412024871
30
0
41
1
10
11.1002047222857
20
5.50773394170051
30
0
0
SPLINE
5
1BD
100
AcDbEntity
8
1
62
256
6
ByLayer
370
-1
48
1
60
0
100
AcDbSpline
70
4
71
2
72
6
73
3
40
0
40
0
40
0
40
1
40
1
40
1
41
1
10
7.33935087245379
20
-2.75670819425653
30
0
41
1
10
7.33935087245385
20
-4.18505374630419
30
0
41
1
10
7.33935087245388
20
-5.61339929835182
30
0
0
SPLINE
5
1BE
100
AcDbEntity
8
1
62
256
6
ByLayer
370
-1
48
1
60
0
100
AcDbSpline
70
4
71
3
72
8
73
4
40
0
40
0
40
0
40
0
40
1
40
1
40
1
40
1
41
1
10
12.239350872454
20
-6.27240605614438
30
0
41
1
10
12.239350872454
20
-6.8340597608817
30
0
41
1
10
12.239350872454
20
-7.39571346561905
30
0
41
1
10
12.239350872454
20
-7.95736717035641
30
0
0
SPLINE
5
1BF
100
AcDbEntity
8
1
62
256
6
ByLayer
370
-1
48
1
60
0
100
AcDbSpline
70
4
71
3
72
22
73
18
40
0
40
0
40
0
40
0
40
0.125
40
0.125
40
0.25
40
0.25
40
0.375
40
0.375
40
0.5
40
0.5
40
0.625
40
0.625
40
0.75
40
0.75
40
0.875
40
0.875
40
1
40
1
40
1
40
1
41
1
10
17.0002047222881
20
1.63233809439279
30
0
41
1
10
16.5909690363357
20
1.55462002836435
30
0
41
1
10
16.1709905830645
20
1.39298831754999
30
0
41
1
10
15.3538667941495
20
0.918953956575763
30
0
41
1
10
14.956877232557
20
0.606641674917938
30
0
41
1
10
14.2279355012554
20
-0.135616020439869
30
0
41
1
10
13.896122294832
20
-0.56541993233833
30
0
41
1
10
13.332826125607
20
-1.49702239082262
30
0
41
1
10
13.1014505479133
20
-1.99864333948389
30
0
41
1
10
12.7636605488851
20
-3.02059061624487
30
0
41
1
10
12.6573105228323
20
-3.54072212335228
30
0
41
1
10
12.5809231120209
20
-4.54441347016601
30
0
41
1
10
12.6109002895315
20
-5.02778196913627
30
0
41
1
10
12.8040330383241
20
-5.90655666707087
30
0
41
1
10
12.9671517913528
20
-6.30179533903799
30
0
41
1
10
13.4092807828122
20
-6.96226736722338
30
0
41
1
10
13.6882067350857
20
-7.22737481301672
30
0
41
1
10
14.0102771718898
20
-7.41336582445334
30
0
0
SPLINE
5
1C0
100
AcDbEntity
8
1
62
256
6
ByLayer
370
-1
48
1
60
0
100
AcDbSpline
70
4
71
3
72
26
73
22
40
0
40
0
40
0
40
0
40
0.0624999999999973
40
0.0624999999999973
40
0.124999999999995
40
0.124999999999995
40
0.187499999999992
40
0.187499999999992
40
0.249999999999989
40
0.249999999999989
40
0.312499999999987
40
0.312499999999987
40
0.374999999999984
40
0.374999999999984
40
0.499999999999987
40
0.499999999999987
40
0.62499999999999
40
0.62499999999999
40
0.749999999999993
40
0.749999999999993
40
1
40
1
40
1
40
1
41
1
10
104.237765113442
20
4.68974414138205
30
0
41
1
10
104.209879989269
20
4.68330381605335
30
0
41
1
10
104.182454831909
20
4.67551781207743
30
0
41
1
10
104.128942379777
20
4.65602442806602
30
0
41
1
10
104.102592336104
20
4.64421027579863
30
0
41
1
10
104.053263802099
20
4.61486829222477
30
0
41
1
10
104.030253187891
20
4.59720923085155
30
0
41
1
10
103.992171205403
20
4.55564193526544
30
0
41
1
10
103.977278561615
20
4.53170806991957
30
0
41
1
10
103.95845122204
20
4.48055377278757
30
0
41
1
10
103.95454030398
20
4.45364372411316
30
0
41
1
10
103.955044941798
20
4.401300183215
30
0
41
1
10
103.959279164466
20
4.37558638749809
30
0
41
1
10
103.979499245785
20
4.30079301526831
30
0
41
1
10
104.002076304935
20
4.2552352863608
30
0
41
1
10
104.055583885961
20
4.16821450756837
30
0
41
1
10
104.086190139048
20
4.12787772192704
30
0
41
1
10
104.151541962791
20
4.05120426256903
30
0
41
1
10
104.186415315238
20
4.0148530092778
30
0
41
1
10
104.295618242984
20
3.9099665890387
30
0
41
1
10
104.374655116765
20
3.8454023190539
30
0
41
1
10
104.456974568039
20
3.7847355067683
30
0
0
SPLINE
5
1C1
100
AcDbEntity
8
1
62
256
6
ByLayer
370
-1
48
1
60
0
100
AcDbSpline
70
4
71
3
72
8
73
4
40
0
40
0
40
0
40
0
40
1
40
1
40
1
40
1
41
1
10
16.150379179636
20
-8.38951507236123
30
0
41
1
10
17.7670156253864
20
-8.53291652577542
30
0
41
1
10
19.3834448906168
20
-8.66144232690297
30
0
41
1
10
21
20
-8.77437142641099
30
0
0
SPLINE
5
1C2
100
AcDbEntity
8
1
62
256
6
ByLayer
370
-1
48
1
60
0
100
AcDbSpline
70
4
71
3
72
10
73
6
40
0
40
0
40
0
40
0
40
0.5
40
0.5
40
1
40
1
40
1
40
1
41
1
10
8.21389550930081
20
-3.66603101569959
30
0
41
1
10
8.06081375339966
20
-3.55923862208189
30
0
41
1
10
7.91169999380122
20
-3.42948974762245
30
0
41
1
10
7.62037306691343
20
-3.12645013454167
30
0
41
1
10
7.47816306412474
20
-2.95316561024663
30
0
41
1
10
7.33935087245376
20
-2.75670819425662
30
0
0
SPLINE
5
1C3
100
AcDbEntity
8
1
62
256
6
ByLayer
370
-1
48
1
60
0
100
AcDbSpline
70
4
71
4
72
10
73
5
40
0
40
0
40
0
40
0
40
0
40
1
40
1
40
1
40
1
40
1
41
0.984607907121849
10
101.444850425602
20
3.41873303861531
30
0
41
0.988934014666494
10
101.472116770502
20
3.85642584649016
30
0
41
0.994696149840451
10
101.489794749572
20
4.31831680397681
30
0
41
1
10
101.49752578707
20
4.77932770600705
30
0
41
1
10
101.49752578707
20
5.20999999999987
30
0
0
SPLINE
5
1C4
100
AcDbEntity
8
1
62
256
6
ByLayer
370
-1
48
1
60
0
100
AcDbSpline
70
4
71
3
72
16
73
12
40
0
40
0
40
0
40
0
40
0.249999999999999
40
0.249999999999999
40
0.374999999999999
40
0.374999999999999
40
0.499999999999999
40
0.499999999999999
40
0.75
40
0.75
40
1
40
1
40
1
40
1
41
1
10
65
20
-5.33727093197444
30
0
41
1
10
68.1944581467492
20
-5.84920984956821
30
0
41
1
10
71.3864390776941
20
-6.3237996537892
30
0
41
1
10
76.1752101447224
20
-6.96275528906958
30
0
41
1
10
77.77162957675
20
-7.16355189897681
30
0
41
1
10
80.9652900325367
20
-7.53933882694477
30
0
41
1
10
82.5628837636348
20
-7.71440876982518
30
0
41
1
10
87.3547549845564
20
-8.19884760289946
30
0
41
1
10
90.5468291690323
20
-8.46738731429193
30
0
41
1
10
96.9308983261488
20
-8.88404525356279
30
0
41
1
10
100.122970829645
20
-9.03198827409059
30
0
41
1
10
103.317684674447
20
-9.1162923190038
30
0
0
SPLINE
5
1C5
100
AcDbEntity
8
1
62
256
6
ByLayer
370
-1
48
1
60
0
100
AcDbSpline
70
4
71
3
72
79
73
75
40
-0.0312500000000032
40
-0.0312500000000032
40
0
40
0
40
0.0312499999999925
40
0.0312499999999925
40
0.0468749999999892
40
0.0468749999999892
40
0.0624999999999859
40
0.0624999999999859
40
0.0937499999999795
40
0.0937499999999795
40
0.124999999999973
40
0.124999999999973
40
0.156249999999967
40
0.156249999999967
40
0.171874999999963
40
0.171874999999963
40
0.18749999999996
40
0.18749999999996
40
0.218749999999954
40
0.218749999999954
40
0.249999999999947
40
0.249999999999947
40
0.281249999999941
40
0.281249999999941
40
0.312499999999934
40
0.312499999999934
40
0.328124999999934
40
0.328124999999934
40
0.343749999999933
40
0.343749999999933
40
0.374999999999936
40
0.374999999999936
40
0.406249999999939
40
0.406249999999939
40
0.437499999999942
40
0.437499999999942
40
0.468749999999946
40
0.468749999999946
40
0.499999999999949
40
0.499999999999949
40
0.531249999999952
40
0.531249999999952
40
0.562499999999955
40
0.562499999999955
40
0.593749999999959
40
0.593749999999959
40
0.624999999999962
40
0.624999999999962
40
0.656249999999965
40
0.656249999999965
40
0.687499999999968
40
0.687499999999968
40
0.718749999999971
40
0.718749999999971
40
0.749999999999974
40
0.749999999999974
40
0.765624999999976
40
0.765624999999976
40
0.781249999999978
40
0.796874999999979
40
0.796874999999979
40
0.812499999999981
40
0.812499999999981
40
0.843749999999984
40
0.843749999999984
40
0.874999999999987
40
0.874999999999987
40
0.90624999999999
40
0.90624999999999
40
0.937499999999994
40
0.937499999999994
40
0.968749999999997
40
0.968749999999997
40
1
40
1
40
1.03124999999999
40
1.03124999999999
41
1
10
109.533934637932
20
-1.89993252611481
30
0
41
1
10
109.525795023319
20
-1.74162360553549
30
0
41
1
10
109.529253977156
20
-1.66312936149373
30
0
41
1
10
109.545531915991
20
-1.54637318931472
30
0
41
1
10
109.552818798626
20
-1.5076200727506
30
0
41
1
10
109.571236629028
20
-1.43046178431013
30
0
41
1
10
109.582440319112
20
-1.39189100499155
30
0
41
1
10
109.621270021387
20
-1.27909830213514
30
0
41
1
10
109.6541482746
20
-1.20714028161294
30
0
41
1
10
109.733946903845
20
-1.0697910076407
30
0
41
1
10
109.781474127853
20
-1.00389097369586
30
0
41
1
10
109.887158032201
20
-0.884554125268949
30
0
41
1
10
109.945530372414
20
-0.830460379444844
30
0
41
1
10
110.041579018143
20
-0.757924271383217
30
0
41
1
10
110.075159905163
20
-0.735128606376378
30
0
41
1
10
110.143722807266
20
-0.693482450458617
30
0
41
1
10
110.178857003994
20
-0.674498375619407
30
0
41
1
10
110.286771567658
20
-0.622970503336376
30
0
41
1
10
110.362457513601
20
-0.595693977381444
30
0
41
1
10
110.519034299115
20
-0.556747304597565
30
0
41
1
10
110.598089163574
20
-0.545441553219234
30
0
41
1
10
110.757686178548
20
-0.538689463774318
30
0
41
1
10
110.839095588842
20
-0.543475744735588
30
0
41
1
10
110.997138327786
20
-0.569004750567188
30
0
41
1
10
111.074217776889
20
-0.589548182136838
30
0
41
1
10
111.18689526133
20
-0.632131859536088
30
0
41
1
10
111.224110552413
20
-0.648396746180197
30
0
41
1
10
111.295954182678
20
-0.684229217152222
30
0
41
1
10
111.330754931889
20
-0.703843703544692
30
0
41
1
10
111.431866350404
20
-0.767664102168368
30
0
41
1
10
111.495206104687
20
-0.817077621403882
30
0
41
1
10
111.611545171952
20
-0.928434423873597
30
0
41
1
10
111.663234263543
20
-0.98901059660858
30
0
41
1
10
111.754183290016
20
-1.11948838603595
30
0
41
1
10
111.793705943269
20
-1.19020825642764
30
0
41
1
10
111.857273626489
20
-1.33582057350952
30
0
41
1
10
111.881692815623
20
-1.41095257423939
30
0
41
1
10
111.916022174902
20
-1.56574065767649
30
0
41
1
10
111.925679377432
20
-1.64512467812247
30
0
41
1
10
111.929871673613
20
-1.80189333969147
30
0
41
1
10
111.924615821033
20
-1.88008332757332
30
0
41
1
10
111.899123038515
20
-2.03607435541261
30
0
41
1
10
111.879262363
20
-2.11156179870923
30
0
41
1
10
111.826017206125
20
-2.25765293003488
30
0
41
1
10
111.792260831756
20
-2.32887127788035
30
0
41
1
10
111.712044020426
20
-2.46339417573785
30
0
41
1
10
111.666104375541
20
-2.52610925748678
30
0
41
1
10
111.562516662452
20
-2.64256991722968
30
0
41
1
10
111.504095701018
20
-2.69683581048582
30
0
41
1
10
111.378824265708
20
-2.79205012229471
30
0
41
1
10
111.312031729865
20
-2.83325206573457
30
0
41
1
10
111.169769449483
20
-2.90247028070311
30
0
41
1
10
111.093603331432
20
-2.93048884434012
30
0
41
1
10
110.93945948794
20
-2.96980641102243
30
0
41
1
10
110.860718819016
20
-2.98161579976659
30
0
41
1
10
110.739978932087
20
-2.98701528468081
30
0
41
1
10
110.699385111085
20
-2.98671010133506
30
0
41
1
10
110.619383851156
20
-2.98197125349282
30
0
41
1
10
110.540053484904
20
-2.97313863091196
30
0
41
1
10
110.462038541445
20
-2.95626692413768
30
0
41
1
10
110.384686905355
20
-2.93532954223863
30
0
41
1
10
110.34625721003
20
-2.92276874073642
30
0
41
1
10
110.234581532699
20
-2.87988146832123
30
0
41
1
10
110.164027045102
20
-2.84421127508045
30
0
41
1
10
110.030361585295
20
-2.75917944917936
30
0
41
1
10
109.967698378677
20
-2.70988393993679
30
0
41
1
10
109.854548178311
20
-2.60179234004892
30
0
41
1
10
109.803143454762
20
-2.54226172781188
30
0
41
1
10
109.71218311458
20
-2.41395255208136
30
0
41
1
10
109.673432423615
20
-2.34644247235019
30
0
41
1
10
109.6087942134
20
-2.20488261213123
30
0
41
1
10
109.582777507084
20
-2.13013621164666
30
0
41
1
10
109.545427871136
20
-1.97764378989447
30
0
41
1
10
109.533934637932
20
-1.89993252611481
30
0
41
1
10
109.525795023319
20
-1.74162360553549
30
0
0
SPLINE
5
1C6
100
AcDbEntity
8
1
62
256
6
ByLayer
370
-1
48
1
60
0
100
AcDbSpline
70
4
71
3
72
18
73
14
40
0
40
0
40
0
40
0
40
0.294187346578997
40
0.294187346578997
40
0.588374693157995
40
0.588374693157995
40
0.661921529802744
40
0.661921529802744
40
0.735468366447494
40
0.735468366447494
40
0.882562039736993
40
0.882562039736993
40
1
40
1
40
1
40
1
41
1
10
7.24146405059284
20
-2.61897650236693
30
0
41
1
10
7.06421418954756
20
-2.35777456938016
30
0
41
1
10
6.91041886753592
20
-2.09110986899509
30
0
41
1
10
6.64447362317881
20
-1.55702351463833
30
0
41
1
10
6.53226971863833
20
-1.28936140194975
30
0
41
1
10
6.41875318032913
20
-0.96389483133953
30
0
41
1
10
6.39740669895099
20
-0.899282199223762
30
0
41
1
10
6.35754441829224
20
-0.771391030255984
30
0
41
1
10
6.33898689543813
20
-0.707942716325846
30
0
41
1
10
6.28838270550693
20
-0.522416364335612
30
0
41
1
10
6.2612036650541
20
-0.404664982485826
30
0
41
1
10
6.22495011139799
20
-0.207334620742188
30
0
41
1
10
6.21331910560596
20
-0.124741357980554
30
0
41
1
10
6.20663324260917
20
-0.0485379722497044
30
0
0
SPLINE
5
1C7
100
AcDbEntity
8
1
62
256
6
ByLayer
370
-1
48
1
60
0
100
AcDbSpline
70
4
71
3
72
28
73
24
40
0
40
0
40
0
40
0
40
0.0625000000000005
40
0.0625000000000005
40
0.125000000000001
40
0.125000000000001
40
0.250000000000002
40
0.250000000000002
40
0.375000000000003
40
0.375000000000003
40
0.500000000000004
40
0.500000000000004
40
0.562500000000005
40
0.562500000000005
40
0.625000000000006
40
0.625000000000006
40
0.750000000000004
40
0.750000000000004
40
0.812500000000003
40
0.812500000000003
40
0.875000000000002
40
0.875000000000002
40
1
40
1
40
1
40
1
41
1
10
107.510522708176
20
2.45936673478795
30
0
41
1
10
107.548339410743
20
2.47597890510943
30
0
41
1
10
107.583723057855
20
2.49292778165375
30
0
41
1
10
107.649474861883
20
2.52751961952225
30
0
41
1
10
107.679666893272
20
2.54508690129208
30
0
41
1
10
107.760975894005
20
2.59779889650392
30
0
41
1
10
107.803492344687
20
2.63325818355233
30
0
41
1
10
107.865189816598
20
2.70481148363095
30
0
41
1
10
107.88422828735
20
2.74116683424316
30
0
41
1
10
107.896968649959
20
2.81175625194905
30
0
41
1
10
107.891098178867
20
2.84629301570908
30
0
41
1
10
107.863804247938
20
2.89695336461585
30
0
41
1
10
107.851523187123
20
2.9137296976092
30
0
41
1
10
107.820956080262
20
2.94644119632665
30
0
41
1
10
107.802736930399
20
2.96234901639397
30
0
41
1
10
107.739516792335
20
3.00876593495451
30
0
41
1
10
107.686018471796
20
3.03797846420198
30
0
41
1
10
107.588491899502
20
3.07916072018944
30
0
41
1
10
107.552942525612
20
3.09248230986449
30
0
41
1
10
107.477337324459
20
3.11773703149103
30
0
41
1
10
107.437162233081
20
3.12973109309351
30
0
41
1
10
107.309674748943
20
3.16385482513149
30
0
41
1
10
107.215452966379
20
3.18414014232164
30
0
41
1
10
107.111770781023
20
3.20190015335751
30
0
0
SPLINE
5
1C8
100
AcDbEntity
8
1
62
256
6
ByLayer
370
-1
48
1
60
0
100
AcDbSpline
70
4
71
3
72
8
73
4
40
0
40
0
40
0
40
0
40
1
40
1
40
1
40
1
41
1
10
106.742157566749
20
2.16013237758855
30
0
41
1
10
106.730102489146
20
2.15605513470982
30
0
41
1
10
106.718029300832
20
2.1520101288327
30
0
41
1
10
106.705938396268
20
2.14799764529974
30
0
0
SPLINE
5
1C9
100
AcDbEntity
8
1
62
256
6
ByLayer
370
-1
48
1
60
0
100
AcDbSpline
70
4
71
3
72
18
73
14
40
0
40
0
40
0
40
0
40
0.125
40
0.125
40
0.25
40
0.25
40
0.375
40
0.375
40
0.5
40
0.5
40
0.75
40
0.75
40
1
40
1
40
1
40
1
41
1
10
21
20
2.93454107094993
30
0
41
1
10
22.8342845055912
20
2.58584191784254
30
0
41
1
10
24.668110677598
20
2.23261273637391
30
0
41
1
10
28.3344048700987
20
1.51490956685669
30
0
41
1
10
30.1670562967177
20
1.15132745398853
30
0
41
1
10
33.8330500972929
20
0.423140781828408
30
0
41
1
10
35.6663826601859
20
0.0584947479438256
30
0
41
1
10
39.3346169997331
20
-0.66728852224017
30
0
41
1
10
41.1694448186277
20
-1.02874386922096
30
0
41
1
10
46.6699623726278
20
-2.10046265384304
30
0
41
1
10
50.3343471304696
20
-2.79766474829324
30
0
41
1
10
57.6641957373708
20
-4.12660000588511
30
0
41
1
10
61.3297801277787
20
-4.75763913575977
30
0
41
1
10
65
20
-5.33727093197447
30
0
0
SPLINE
5
1CA
100
AcDbEntity
8
1
62
256
6
ByLayer
370
-1
48
1
60
0
100
AcDbSpline
70
4
71
3
72
16
73
12
40
0
40
0
40
0
40
0
40
0.250000000000007
40
0.250000000000007
40
0.37500000000001
40
0.37500000000001
40
0.500000000000014
40
0.500000000000014
40
0.750000000000007
40
0.750000000000007
40
1
40
1
40
1
40
1
41
1
10
106.705938396268
20
2.14799764529974
30
0
41
1
10
106.545617327647
20
2.09479354924619
30
0
41
1
10
106.363775043029
20
2.05324379654243
30
0
41
1
10
106.06885980326
20
2.01225548454923
30
0
41
1
10
105.96674714473
20
2.0021676810884
30
0
41
1
10
105.755645501629
20
1.99001248144199
30
0
41
1
10
105.648231535115
20
1.98804789923364
30
0
41
1
10
105.322678029519
20
1.99480797022784
30
0
41
1
10
105.100716782407
20
2.01607070602475
30
0
41
1
10
104.649666201628
20
2.09528864944764
30
0
41
1
10
104.425123248836
20
2.15246996725628
30
0
41
1
10
104.202786787771
20
2.22772021723912
30
0
0
SPLINE
5
1CB
100
AcDbEntity
8
1
62
256
6
ByLayer
370
-1
48
1
60
0
100
AcDbSpline
70
4
71
3
72
8
73
4
40
0
40
0
40
0
40
0
40
1
40
1
40
1
40
1
41
1
10
17.0002047222858
20
3.68115054326805
30
0
41
1
10
18.3334422993776
20
3.43616562305525
30
0
41
1
10
19.666581953605
20
3.18669414556982
30
0
41
1
10
21
20
2.93454107094993
30
0
0
SPLINE
5
1CC
100
AcDbEntity
8
1
62
256
6
ByLayer
370
-1
48
1
60
0
100
AcDbSpline
70
4
71
3
72
12
73
8
40
0
40
0
40
0
40
0
40
0.500000000000001
40
0.500000000000001
40
0.75
40
0.75
40
1
40
1
40
1
40
1
41
1
10
12.239350872454
20
-6.27240605614438
30
0
41
1
10
12.4860717477421
20
-6.42821164666051
30
0
41
1
10
12.7591556068923
20
-6.60533343734369
30
0
41
1
10
13.2036390079153
20
-6.89550005911801
30
0
41
1
10
13.3579017981358
20
-6.99631278054031
30
0
41
1
10
13.6777251694575
20
-7.203087198861
30
0
41
1
10
13.8417936995887
20
-7.30806930123944
30
0
41
1
10
14.0102790818879
20
-7.41336228010431
30
0
0
SPLINE
5
1CD
100
AcDbEntity
8
1
62
256
6
ByLayer
370
-1
48
1
60
0
100
AcDbSpline
70
4
71
3
72
8
73
4
40
0
40
0
40
0
40
0
40
1
40
1
40
1
40
1
41
1
10
16.1503791795062
20
-8.38951507235163
30
0
41
1
10
16.1001431386334
20
-8.38588829703011
30
0
41
1
10
16.0500083335282
20
-8.38196331540604
30
0
41
1
10
16
20
-8.37773690531176
30
0
0
SPLINE
5
1CE
100
AcDbEntity
8
1
62
256
6
ByLayer
370
-1
48
1
60
0
100
AcDbSpline
70
4
71
3
72
8
73
4
40
0
40
0
40
0
40
0
40
1
40
1
40
1
40
1
41
1
10
96.2329107836489
20
5.9039809656754
30
0
41
1
10
96.0759979268111
20
5.93667006434671
30
0
41
1
10
95.9173936456207
20
5.97085473303974
30
0
41
1
10
95.7571190209052
20
6.0065163319299
30
0
0
SPLINE
5
1CF
100
AcDbEntity
8
1
62
256
6
ByLayer
370
-1
48
1
60
0
100
AcDbSpline
70
4
71
3
72
10
73
6
40
0
40
0
40
0
40
0
40
0.930719632277478
40
0.930719632277478
40
1
40
1
40
1
40
1
41
1
10
65
20
-7.70518199291934
30
0
41
1
10
67.7123062967053
20
-7.41354476341238
30
0
41
1
10
70.4228592448505
20
-7.08284512937007
30
0
41
1
10
73.3351637893042
20
-6.69165210604214
30
0
41
1
10
73.5369293972137
20
-6.66436592844769
30
0
41
1
10
73.738695694808
20
-6.63689802044516
30
0
0
SPLINE
5
1D0
100
AcDbEntity
8
1
62
256
6
ByLayer
370
-1
48
1
60
0
100
AcDbSpline
70
4
71
3
72
10
73
6
40
0
40
0
40
0
40
0
40
0.5
40
0.5
40
1
40
1
40
1
40
1
41
1
10
8.21389558655369
20
-3.66603030533139
30
0
41
1
10
8.88539367566295
20
-4.11495943983294
30
0
41
1
10
9.55711581547519
20
-4.55781137642978
30
0
41
1
10
10.8994068408879
20
-5.42807283925438
30
0
41
1
10
11.5699687597628
20
-5.85550373352103
30
0
41
1
10
12.239350872454
20
-6.27240605614438
30
0
0
SPLINE
5
1D1
100
AcDbEntity
8
1
62
256
6
ByLayer
370
-1
48
1
60
0
100
AcDbSpline
70
4
71
3
72
8
73
4
40
0
40
0
40
0
40
0
40
1
40
1
40
1
40
1
41
1
10
105.513171204467
20
3.34045655407397
30
0
41
1
10
105.570418475158
20
3.32729497322498
30
0
41
1
10
105.62801566612
20
3.3149868586319
30
0
41
1
10
105.685971377177
20
3.30354156567679
30
0
0
SPLINE
5
1D2
100
AcDbEntity
8
1
62
256
6
ByLayer
370
-1
48
1
60
0
100
AcDbSpline
70
4
71
3
72
8
73
4
40
0
40
0
40
0
40
0
40
1
40
1
40
1
40
1
41
1
10
7.24146405058866
20
-2.61897650236074
30
0
41
1
10
7.27313191368441
20
-2.66564343346812
30
0
41
1
10
7.30574952704194
20
-2.7115540929843
30
0
41
1
10
7.33935091254196
20
-2.75670824812772
30
0
0
SPLINE
5
1D3
100
AcDbEntity
8
1
62
256
6
ByLayer
370
-1
48
1
60
0
100
AcDbSpline
70
4
71
3
72
12
73
8
40
0
40
0
40
0
40
0
40
0.5
40
0.5
40
0.75
40
0.75
40
1
40
1
40
1
40
1
41
1
10
106.459065916744
20
1.18623802598796
30
0
41
1
10
105.984502420504
20
1.1576583628802
30
0
41
1
10
105.516228610683
20
1.18853900106103
30
0
41
1
10
104.823237110015
20
1.32352635771036
30
0
41
1
10
104.59257972249
20
1.38398629350482
30
0
41
1
10
104.143610385242
20
1.53376006508069
30
0
41
1
10
103.924749595387
20
1.62299342694502
30
0
41
1
10
103.711688587029
20
1.72680240973199
30
0
0
SPLINE
5
1D4
100
AcDbEntity
8
1
62
256
6
ByLayer
370
-1
48
1
60
0
100
AcDbSpline
70
4
71
3
72
14
73
10
40
0
40
0
40
0
40
0
40
0.0050966481374681
40
0.0240065217780187
40
0.0435263913424583
40
0.0630462609068979
40
0.375364173937932
40
0.687682086968966
40
1
40
1
40
1
40
1
41
1
10
108.642465730394
20
3.46021903930003
30
0
41
1
10
108.646294739854
20
3.4603532929392
30
0
41
1
10
108.664330353371
20
3.46098563097976
30
0
41
1
10
108.697030819169
20
3.46213191837779
30
0
41
1
10
108.740567149013
20
3.46365804790039
30
0
41
1
10
109.004534791015
20
3.47291121216367
30
0
41
1
10
109.488475468019
20
3.48987534664627
30
0
41
1
10
110.192389180025
20
3.51455045134833
30
0
41
1
10
110.661664988028
20
3.53100052114968
30
0
41
1
10
110.89630289203
20
3.53922555605035
30
0
0
SPLINE
5
1D5
100
AcDbEntity
8
1
62
256
6
ByLayer
370
-1
48
1
60
0
100
AcDbSpline
70
4
71
3
72
22
73
18
40
0
40
0
40
0
40
0
40
0.0178234039224909
40
0.0278216291116058
40
0.0378198543007208
40
0.112806543219083
40
0.187793232137445
40
0.33776660997417
40
0.497738213000009
40
0.657709816025849
40
0.817681419051688
40
0.897667220564608
40
0.977653022077527
40
0.982652134672085
40
0.987651247266642
40
0.997649472455757
40
1
40
1
40
1
40
1
41
1
10
113.269256146564
20
3.62679429408323
30
0
41
1
10
113.270065635439
20
3.62690739466436
30
0
41
1
10
113.27132916355
20
3.62708482567362
30
0
41
1
10
113.273046826419
20
3.62732689433957
30
0
41
1
10
113.277360727821
20
3.62793562550681
30
0
41
1
10
113.284626241461
20
3.62896079351677
30
0
41
1
10
113.29824906834
20
3.6308828261275
30
0
41
1
10
113.315731681803
20
3.63334923263776
30
0
41
1
10
113.337074093043
20
3.63636017045547
30
0
41
1
10
113.35887059814
20
3.63943517077996
30
0
41
1
10
113.377034352387
20
3.64199767105035
30
0
41
1
10
113.391615906281
20
3.64405647664586
30
0
41
1
10
113.399088375128
20
3.64511001031511
30
0
41
1
10
113.403132488867
20
3.64567912957884
30
0
41
1
10
113.404028381347
20
3.64580530023196
30
0
41
1
10
113.404799405543
20
3.64591416599961
30
0
41
1
10
113.405341604779
20
3.64599107502437
30
0
41
1
10
113.405444581736
20
3.64600569770204
30
0
0
SPLINE
5
1D6
100
AcDbEntity
8
1
62
256
6
ByLayer
370
-1
48
1
60
0
100
AcDbSpline
70
4
71
3
72
48
73
44
40
0
40
0
40
0
40
0
40
0.125
40
0.1875
40
0.1953125
40
0.203125
40
0.20703125
40
0.2109375
40
0.21875
40
0.25
40
0.28125
40
0.3125
40
0.3203125
40
0.328125
40
0.34375
40
0.375
40
0.3828125
40
0.390625
40
0.39453125
40
0.3984375
40
0.40625
40
0.4375
40
0.5
40
0.5625
40
0.578125
40
0.5859375
40
0.59375
40
0.609375
40
0.625
40
0.6875
40
0.75
40
0.8125
40
0.875
40
0.9375
40
0.953125
40
0.96826171875
40
0.96875
40
0.9697265625
40
0.970703125
40
0.97265625
40
0.9765625
40
0.984375
40
1
40
1
40
1
40
1
41
1
10
110.691858858042
20
9.4160999769812
30
0
41
1
10
110.693661534944
20
9.3801651402016
30
0
41
1
10
110.696365550296
20
9.32626288503224
30
0
41
1
10
110.699182232955
20
9.27011470256411
30
0
41
1
10
110.700308906019
20
9.24765542957689
30
0
41
1
10
110.700590857239
20
9.24203897863956
30
0
41
1
10
110.700815342988
20
9.23755202211365
30
0
41
1
10
110.701036793333
20
9.23306684646474
30
0
41
1
10
110.701632524767
20
9.22068212322705
30
0
41
1
10
110.702538604455
20
9.20025713136576
30
0
41
1
10
110.703588519071
20
9.17284701448352
30
0
41
1
10
110.704252961544
20
9.15230890785278
30
0
41
1
10
110.704642956713
20
9.13868697157136
30
0
41
1
10
110.70488826456
20
9.12961189904556
30
0
41
1
10
110.705320997006
20
9.1137016755481
30
0
41
1
10
110.705752540056
20
9.09780141512553
30
0
41
1
10
110.706122769975
20
9.08416980698468
30
0
41
1
10
110.706277618855
20
9.07848249649743
30
0
41
1
10
110.706399225792
20
9.07396141526033
30
0
41
1
10
110.706516349971
20
9.06946976923049
30
0
41
1
10
110.706825928535
20
9.05705678932748
30
0
41
1
10
110.707445171242
20
9.02780324209962
30
0
41
1
10
110.707969509913
20
8.98338064272383
30
0
41
1
10
110.707907396308
20
8.94529748445527
30
0
41
1
10
110.707669638118
20
8.92313184941497
30
0
41
1
10
110.707562392743
20
8.91520578823474
30
0
41
1
10
110.707439072768
20
8.90733801190751
30
0
41
1
10
110.707285374683
20
8.89746445355448
30
0
41
1
10
110.70691677041
20
8.87374461074077
30
0
41
1
10
110.706363412117
20
8.83820368446425
30
0
41
1
10
110.705625751688
20
8.79080283678084
30
0
41
1
10
110.704888091258
20
8.74340198909746
30
0
41
1
10
110.704150430828
20
8.69600114141409
30
0
41
1
10
110.703597185506
20
8.66045050565154
30
0
41
1
10
110.703230276282
20
8.63687352151734
30
0
41
1
10
110.703107332877
20
8.62897338023677
30
0
41
1
10
110.70304203733
20
8.62477624583408
30
0
41
1
10
110.703032269142
20
8.62416070642306
30
0
41
1
10
110.703017208214
20
8.62317644800979
30
0
41
1
10
110.702995510368
20
8.62144013647088
30
0
41
1
10
110.702970772461
20
8.61784293635296
30
0
41
1
10
110.702998175096
20
8.6102700572325
30
0
41
1
10
110.70315619658
20
8.60338258021167
30
0
41
1
10
110.703313062957
20
8.59887335595516
30
0
0
SPLINE
5
1D7
100
AcDbEntity
8
1
62
256
6
ByLayer
370
-1
48
1
60
0
100
AcDbSpline
70
4
71
3
72
19
73
15
40
0
40
0
40
0
40
0
40
0.0403657336154017
40
0.10630033064848
40
0.172234927681558
40
0.238169524714636
40
0.370038718780792
40
0.501907912846949
40
0.765646300979261
40
0.83158089801234
40
0.897515495045418
40
0.930482793561957
40
0.963450092078496
40
1
40
1
40
1
40
1
41
1
10
108.402006993796
20
9.33582959272152
30
0
41
1
10
108.400885008883
20
9.33578874124501
30
0
41
1
10
108.397930677686
20
9.33567830652083
30
0
41
1
10
108.39314533465
20
9.33547833478525
30
0
41
1
10
108.387650095373
20
9.33520562524322
30
0
41
1
10
108.380324659741
20
9.33478853961546
30
0
41
1
10
108.371172417269
20
9.33417428748464
30
0
41
1
10
108.35654264757
20
9.33298981629801
30
0
41
1
10
108.343765126224
20
9.33168413236336
30
0
41
1
10
108.332836288609
20
9.33038077138698
30
0
41
1
10
108.328287440983
20
9.32980448853644
30
0
41
1
10
108.324651832186
20
9.32932202365538
30
0
41
1
10
108.321827636509
20
9.32893781810483
30
0
41
1
10
108.319912479699
20
9.32867191819156
30
0
41
1
10
108.318905603508
20
9.32853123894833
30
0
0
SPLINE
5
1D8
100
AcDbEntity
8
1
62
256
6
ByLayer
370
-1
48
1
60
0
100
AcDbSpline
70
4
71
3
72
79
73
75
40
0
40
0
40
0
40
0
40
0.0017245864916174
40
0.0039792263717449
40
0.0084885061319999
40
0.0129977858922549
40
0.022016345412765
40
0.031034904933275
40
0.0671091430153151
40
0.139257619179395
40
0.211406095343475
40
0.220424654863985
40
0.22493393462424
40
0.228315894444432
40
0.229443214384495
40
0.231697854264623
40
0.233952494144751
40
0.237334453964942
40
0.238461773905006
40
0.240716413785133
40
0.242971053665261
40
0.247480333425516
40
0.249734973305643
40
0.256498892946026
40
0.265517452466536
40
0.283554571507556
40
0.292573131028066
40
0.319628809589596
40
0.355703047671636
40
0.391777285753676
40
0.409814404794696
40
0.427851523835716
40
0.445888642876736
40
0.463925761917756
40
0.481962880958776
40
0.499999999999796
40
0.518037119040816
40
0.536074238081836
40
0.554111357122856
40
0.572148476163876
40
0.590185595204895
40
0.608222714245916
40
0.626259833286936
40
0.644296952327956
40
0.662334071368976
40
0.680371190409998
40
0.716445428492036
40
0.725463988012546
40
0.734482547533058
40
0.751392346634013
40
0.752519666574076
40
0.754774306454204
40
0.757028946334331
40
0.760410906154527
40
0.761538226094586
40
0.763792865974716
40
0.766047505854841
40
0.769429465675035
40
0.770556785615096
40
0.771684105555159
40
0.775066065375354
40
0.779575345135607
40
0.784084624895862
40
0.788593904656117
40
0.824668142738157
40
0.860742380820197
40
0.932890856984277
40
0.968965095066317
40
0.987002214107337
40
0.991511493867593
40
0.994893453687783
40
0.996020773627847
40
0.998275413507975
40
1
40
1
40
1
40
1
41
1
10
113.614962633802
20
9.09900145834243
30
0
41
1
10
113.614915238369
20
9.09933778492496
30
0
41
1
10
113.614806284312
20
9.1001082146513
30
0
41
1
10
113.614574058349
20
9.10172904773145
30
0
41
1
10
113.614260800968
20
9.10384487364178
30
0
41
1
10
113.61374342268
20
9.10720005497271
30
0
41
1
10
113.613055470047
20
9.11142792167149
30
0
41
1
10
113.611277357855
20
9.1216309163448
30
0
41
1
10
113.606763317256
20
9.14375788565286
30
0
41
1
10
113.597259696737
20
9.1780314222359
30
0
41
1
10
113.5861679909
20
9.20694709090185
30
0
41
1
10
113.579009936181
20
9.22289587673137
30
0
41
1
10
113.577565660588
20
9.22603614013502
30
0
41
1
10
113.576785590502
20
9.22770851083166
30
0
41
1
10
113.576196345775
20
9.22896171384249
30
0
41
1
10
113.575702689119
20
9.23000537138216
30
0
41
1
10
113.575006682971
20
9.23146520180313
30
0
41
1
10
113.57440487326
20
9.23271507705249
30
0
41
1
10
113.573798880591
20
9.23396379510896
30
0
41
1
10
113.57329127307
20
9.23500366382339
30
0
41
1
10
113.572473528362
20
9.23666586975207
30
0
41
1
10
113.571647429245
20
9.23832565856853
30
0
41
1
10
113.570395762763
20
9.24081159285296
30
0
41
1
10
113.568704632516
20
9.24411939754137
30
0
41
1
10
113.565460903858
20
9.25029822434314
30
0
41
1
10
113.561867992495
20
9.25684372463869
30
0
41
1
10
113.556280107966
20
9.26658621324626
30
0
41
1
10
113.548478896731
20
9.27943458463258
30
0
41
1
10
113.536924398986
20
9.29671034297795
30
0
41
1
10
113.525582439049
20
9.31194034425391
30
0
41
1
10
113.51602798805
20
9.32380039620455
30
0
41
1
10
113.508627168174
20
9.3325237584024
30
0
41
1
10
113.500996826573
20
9.34106574160515
30
0
41
1
10
113.493144341537
20
9.34941786500997
30
0
41
1
10
113.485077091361
20
9.35757164781413
30
0
41
1
10
113.476802454336
20
9.3655186092148
30
0
41
1
10
113.468327808757
20
9.37325026840924
30
0
41
1
10
113.459662097256
20
9.38075982855338
30
0
41
1
10
113.450814262469
20
9.3880404928033
30
0
41
1
10
113.441793247029
20
9.39508546431495
30
0
41
1
10
113.432607993571
20
9.40188794624436
30
0
41
1
10
113.423268524724
20
9.40844314798056
30
0
41
1
10
113.413784863118
20
9.41474627891262
30
0
41
1
10
113.404167031381
20
9.4207925484296
30
0
41
1
10
113.394425052142
20
9.42657716592058
30
0
41
1
10
113.381284291519
20
9.43393763710858
30
0
41
1
10
113.369605814798
20
9.43991101609373
30
0
41
1
10
113.359493288878
20
9.44469092982163
30
0
41
1
10
113.352937529541
20
9.44769001967947
30
0
41
1
10
113.347836448404
20
9.44991394932234
30
0
41
1
10
113.34399910457
20
9.45153071567856
30
0
41
1
10
113.342932581481
20
9.45197715150127
30
0
41
1
10
113.341438363906
20
9.45259718420974
30
0
41
1
10
113.340156468938
20
9.45312330675287
30
0
41
1
10
113.338873695199
20
9.45364516073775
30
0
41
1
10
113.337804174283
20
9.45407737093726
30
0
41
1
10
113.336305855778
20
9.45467748370712
30
0
41
1
10
113.335020548616
20
9.45518652766054
30
0
41
1
10
113.333948795599
20
9.45560717091877
30
0
41
1
10
113.33287671501
20
9.45602603397731
30
0
41
1
10
113.331160351559
20
9.45669051765114
30
0
41
1
10
113.328797961558
20
9.45759046957423
30
0
41
1
10
113.326217993392
20
9.45855513145045
30
0
41
1
10
113.317609263455
20
9.46171363494267
30
0
41
1
10
113.302911024646
20
9.46664658700149
30
0
41
1
10
113.275136434974
20
9.47448816163731
30
0
41
1
10
113.247358128117
20
9.48018886802018
30
0
41
1
10
113.223338481056
20
9.48339459466226
30
0
41
1
10
113.212226398837
20
9.48448640089717
30
0
41
1
10
113.207381502907
20
9.48489471392912
30
0
41
1
10
113.205683710962
20
9.48502873346732
30
0
41
1
10
113.204398167324
20
9.48512616551133
30
0
41
1
10
113.203419432065
20
9.48519804367189
30
0
41
1
10
113.202646203392
20
9.48525340503355
30
0
41
1
10
113.202308666652
20
9.48527740465934
30
0
0
SPLINE
5
1D9
100
AcDbEntity
8
1
62
256
6
ByLayer
370
-1
48
1
60
0
100
AcDbSpline
70
4
71
3
72
22
73
18
40
0
40
0
40
0
40
0
40
0.0023505275440974
40
0.0123487527332132
40
0.022346977922329
40
0.0623398786787922
40
0.102332779435246
40
0.182318580948182
40
0.262304382461104
40
0.342290183974035
40
0.662233390025741
40
0.812206767862478
40
0.957493477641803
40
0.962180145699215
40
0.972178370888326
40
0.982176596077446
40
1
40
1
40
1
40
1
41
1
10
113.202308666653
20
9.48527740465934
30
0
41
1
10
113.202204924397
20
9.48528478096841
30
0
41
1
10
113.201658701444
20
9.48532353626632
30
0
41
1
10
113.200658166333
20
9.48539388470883
30
0
41
1
10
113.197943550483
20
9.48558345690108
30
0
41
1
10
113.193852752816
20
9.48586975446418
30
0
41
1
10
113.186542085968
20
9.48638264651916
30
0
41
1
10
113.177361396917
20
9.48702811357526
30
0
41
1
10
113.166370089683
20
9.48780005192469
30
0
41
1
10
113.144412994839
20
9.48934130650562
30
0
41
1
10
113.119253823665
20
9.49110732737961
30
0
41
1
10
113.091107000913
20
9.49308306323238
30
0
41
1
10
113.077383787622
20
9.49404655241131
30
0
41
1
10
113.07006472506
20
9.49456052267522
30
0
41
1
10
113.068935416342
20
9.49463982835937
30
0
41
1
10
113.067205116012
20
9.49476103156766
30
0
41
1
10
113.065932335929
20
9.49484955442074
30
0
41
1
10
113.065116959452
20
9.49490569670996
30
0
0
SPLINE
5
1DA
100
AcDbEntity
8
1
62
256
6
ByLayer
370
-1
48
1
60
0
100
AcDbSpline
70
4
71
3
72
13
73
9
40
0
40
0
40
0
40
0
40
0.312317913031031
40
0.624635826062062
40
0.936953739093093
40
0.975993478221971
40
0.994903351862522
40
1
40
1
40
1
40
1
41
1
10
110.89630289203
20
3.53922555605035
30
0
41
1
10
111.130940796032
20
3.54745059095103
30
0
41
1
10
111.600216604036
20
3.56390066075238
30
0
41
1
10
112.304130316041
20
3.58857576545444
30
0
41
1
10
112.802735862045
20
3.60605396461838
30
0
41
1
10
113.080910095891
20
3.61580512904163
30
0
41
1
10
113.12827543069
20
3.61746548112097
30
0
41
1
10
113.146311052179
20
3.61809758996549
30
0
41
1
10
113.150140063789
20
3.61823178183104
30
0
0
SPLINE
5
1DB
100
AcDbEntity
8
1
62
256
6
ByLayer
370
-1
48
1
60
0
100
AcDbSpline
70
4
71
3
72
23
73
19
40
0
40
0
40
0
40
0
40
0.0365499079217746
40
0.069517206438311
40
0.102484504954847
40
0.135451803471384
40
0.16841910198792
40
0.234353699020993
40
0.300288296054051
40
0.366222893087138
40
0.498092087153284
40
0.629961281219422
40
0.761830475285575
40
0.827765072318643
40
0.89369966935172
40
0.926666967868256
40
0.959634266384793
40
1
40
1
40
1
40
1
41
1
10
108.52304479062
20
3.46041983632159
30
0
41
1
10
108.524058990056
20
3.46035000418914
30
0
41
1
10
108.525987959299
20
3.46021885689004
30
0
41
1
10
108.528831974217
20
3.46003334570716
30
0
41
1
10
108.531577183931
20
3.45986331048258
30
0
41
1
10
108.534323379175
20
3.45970408991204
30
0
41
1
10
108.537986132803
20
3.45950570026852
30
0
41
1
10
108.542566460891
20
3.4592828182686
30
0
41
1
10
108.548064947846
20
3.45905243742681
30
0
41
1
10
108.5553985836
20
3.45879521020319
30
0
41
1
10
108.564569094473
20
3.45856828439872
30
0
41
1
10
108.5755764263
20
3.45845040952111
30
0
41
1
10
108.584749059383
20
3.45847852053123
30
0
41
1
10
108.592085634331
20
3.45857539938521
30
0
41
1
10
108.596669637679
20
3.45866935566164
30
0
41
1
10
108.600335596043
20
3.45876601156252
30
0
41
1
10
108.603290406108
20
3.45885373758662
30
0
41
1
10
108.605328829589
20
3.45892045127536
30
0
41
1
10
108.606450920214
20
3.45895826398441
30
0
0
SPLINE
5
1DC
100
AcDbEntity
8
1
62
256
6
ByLayer
370
-1
48
1
60
0
100
AcDbSpline
70
4
71
3
72
79
73
75
40
0
40
0
40
0
40
0
40
0.0017245864916235
40
0.0039792263717509
40
0.0084885061320058
40
0.0129977858922607
40
0.0220163454127704
40
0.0310349049332801
40
0.067109143015319
40
0.139257619179397
40
0.211406095343475
40
0.220424654863984
40
0.224933934624239
40
0.22831589444443
40
0.229443214384494
40
0.231697854264622
40
0.233952494144749
40
0.23733445396494
40
0.238461773905004
40
0.240716413785131
40
0.242971053665259
40
0.247480333425514
40
0.249734973305641
40
0.256498892946023
40
0.265517452466533
40
0.283554571507552
40
0.292573131028062
40
0.319628809589591
40
0.35570304767163
40
0.391777285753669
40
0.409814404794689
40
0.427851523835708
40
0.445888642876728
40
0.463925761917747
40
0.481962880958766
40
0.499999999999786
40
0.518037119040805
40
0.536074238081824
40
0.554111357122844
40
0.572148476163863
40
0.590185595204882
40
0.608222714245902
40
0.626259833286922
40
0.644296952327941
40
0.662334071368961
40
0.680371190409982
40
0.716445428492019
40
0.725463988012529
40
0.73448254753304
40
0.751392346633994
40
0.752519666574058
40
0.754774306454185
40
0.757028946334313
40
0.760410906154508
40
0.761538226094568
40
0.763792865974697
40
0.766047505854822
40
0.769429465675016
40
0.770556785615077
40
0.77168410555514
40
0.775066065375334
40
0.779575345135587
40
0.784084624895842
40
0.788593904656097
40
0.824668142738136
40
0.860742380820175
40
0.932890856984252
40
0.968965095066291
40
0.987002214107311
40
0.991511493867567
40
0.994893453687757
40
0.99602077362782
40
0.998275413507948
40
1
40
1
40
1
40
1
41
1
10
107.973199116269
20
3.85632407468913
30
0
41
1
10
107.973246511703
20
3.8559877481066
30
0
41
1
10
107.973355465759
20
3.85521731838026
30
0
41
1
10
107.973587691722
20
3.8535964853001
30
0
41
1
10
107.973900949104
20
3.85148065938978
30
0
41
1
10
107.974418327391
20
3.84812547805885
30
0
41
1
10
107.975106280025
20
3.84389761136006
30
0
41
1
10
107.976884392217
20
3.83369461668679
30
0
41
1
10
107.981398432815
20
3.81156764737869
30
0
41
1
10
107.990902053334
20
3.77729411079565
30
0
41
1
10
108.001993759171
20
3.74837844212971
30
0
41
1
10
108.009151813891
20
3.73242965630018
30
0
41
1
10
108.010596089484
20
3.72928939289653
30
0
41
1
10
108.011376159569
20
3.72761702219989
30
0
41
1
10
108.011965404297
20
3.72636381918906
30
0
41
1
10
108.012459060953
20
3.72532016164939
30
0
41
1
10
108.013155067101
20
3.72386033122842
30
0
41
1
10
108.013756876812
20
3.72261045597907
30
0
41
1
10
108.014362869481
20
3.72136173792259
30
0
41
1
10
108.014870477001
20
3.72032186920816
30
0
41
1
10
108.015688221709
20
3.71865966327948
30
0
41
1
10
108.016514320826
20
3.71699987446306
30
0
41
1
10
108.017765987308
20
3.71451394017859
30
0
41
1
10
108.019457117556
20
3.71120613549019
30
0
41
1
10
108.022700846213
20
3.70502730868842
30
0
41
1
10
108.026293757576
20
3.69848180839287
30
0
41
1
10
108.031881642106
20
3.6887393197853
30
0
41
1
10
108.03968285334
20
3.67589094839897
30
0
41
1
10
108.051237351085
20
3.65861519005361
30
0
41
1
10
108.062579311022
20
3.64338518877764
30
0
41
1
10
108.072133762022
20
3.63152513682701
30
0
41
1
10
108.079534581897
20
3.62280177462915
30
0
41
1
10
108.087164923499
20
3.61425979142641
30
0
41
1
10
108.095017408534
20
3.60590766802159
30
0
41
1
10
108.103084658711
20
3.59775388521743
30
0
41
1
10
108.111359295735
20
3.58980692381675
30
0
41
1
10
108.119833941315
20
3.58207526462232
30
0
41
1
10
108.128499652815
20
3.57456570447818
30
0
41
1
10
108.137347487603
20
3.56728504022826
30
0
41
1
10
108.146368503042
20
3.56024006871661
30
0
41
1
10
108.1555537565
20
3.5534375867872
30
0
41
1
10
108.164893225347
20
3.54688238505099
30
0
41
1
10
108.174376886954
20
3.54057925411894
30
0
41
1
10
108.183994718691
20
3.53453298460195
30
0
41
1
10
108.193736697929
20
3.52874836711098
30
0
41
1
10
108.206877458553
20
3.52138789592297
30
0
41
1
10
108.218555935274
20
3.51541451693782
30
0
41
1
10
108.228668461193
20
3.51063460320992
30
0
41
1
10
108.235224220531
20
3.50763551335208
30
0
41
1
10
108.240325301667
20
3.50541158370922
30
0
41
1
10
108.244162645502
20
3.503794817353
30
0
41
1
10
108.24522916859
20
3.50334838153029
30
0
41
1
10
108.246723386165
20
3.50272834882182
30
0
41
1
10
108.248005281133
20
3.50220222627868
30
0
41
1
10
108.249288054872
20
3.50168037229381
30
0
41
1
10
108.250357575789
20
3.5012481620943
30
0
41
1
10
108.251855894293
20
3.50064804932444
30
0
41
1
10
108.253141201455
20
3.50013900537101
30
0
41
1
10
108.254212954473
20
3.49971836211279
30
0
41
1
10
108.255285035061
20
3.49929949905425
30
0
41
1
10
108.257001398512
20
3.49863501538041
30
0
41
1
10
108.259363788513
20
3.49773506345736
30
0
41
1
10
108.261943756679
20
3.4967704015811
30
0
41
1
10
108.270552486617
20
3.49361189808889
30
0
41
1
10
108.285250725426
20
3.48867894603006
30
0
41
1
10
108.313025315097
20
3.48083737139424
30
0
41
1
10
108.340803621954
20
3.47513666501138
30
0
41
1
10
108.364823269015
20
3.4719309383693
30
0
41
1
10
108.375935351235
20
3.47083913213439
30
0
41
1
10
108.380780247164
20
3.47043081910243
30
0
41
1
10
108.382478039109
20
3.47029679956424
30
0
41
1
10
108.383763582748
20
3.47019936752022
30
0
41
1
10
108.384742318007
20
3.4701274893597
30
0
41
1
10
108.385515546679
20
3.47007212799801
30
0
41
1
10
108.385853083419
20
3.47004812837221
30
0
0
SPLINE
5
1DD
100
AcDbEntity
8
1
62
256
6
ByLayer
370
-1
48
1
60
0
100
AcDbSpline
70
4
71
3
72
13
73
9
40
0
40
0
40
0
40
0
40
0.312317913031034
40
0.624635826062068
40
0.936953739093102
40
0.975993478221981
40
0.994903351862532
40
1
40
1
40
1
40
1
41
1
10
110.691858858041
20
9.41609997698117
30
0
41
1
10
110.457220954039
20
9.4078749420805
30
0
41
1
10
109.987945146036
20
9.39142487227915
30
0
41
1
10
109.28403143403
20
9.36674976757709
30
0
41
1
10
108.785425888026
20
9.34927156841317
30
0
41
1
10
108.50725165418
20
9.33952040398992
30
0
41
1
10
108.459886319382
20
9.33786005191058
30
0
41
1
10
108.441850697892
20
9.33722794306607
30
0
41
1
10
108.438021686283
20
9.33709375120051
30
0
0
SPLINE
5
1DE
100
AcDbEntity
8
1
62
256
6
ByLayer
370
-1
48
1
60
0
100
AcDbSpline
70
4
71
3
72
23
73
19
40
0
40
0
40
0
40
0
40
0.0365499079217436
40
0.0695172064382723
40
0.102484504954801
40
0.13545180347133
40
0.168419101987858
40
0.234353699020916
40
0.300288296053958
40
0.366222893087031
40
0.498092087153146
40
0.629961281219253
40
0.761830475285375
40
0.827765072318429
40
0.89369966935149
40
0.926666967868019
40
0.959634266384547
40
1
40
1
40
1
40
1
41
1
10
107.788319465122
20
8.75737383982948
30
0
41
1
10
107.788249898721
20
8.75635576631561
30
0
41
1
10
107.788119250477
20
8.7544194287234
30
0
41
1
10
107.787934445221
20
8.75156455013067
30
0
41
1
10
107.787765057031
20
8.74880885416209
30
0
41
1
10
107.787606442343
20
8.74605216889805
30
0
41
1
10
107.787408807632
20
8.74237542414679
30
0
41
1
10
107.787186773765
20
8.73777759994934
30
0
41
1
10
107.786957269592
20
8.7322581096675
30
0
41
1
10
107.786701021196
20
8.72489646061626
30
0
41
1
10
107.786474958913
20
8.71569091988172
30
0
41
1
10
107.786357532585
20
8.70464154183446
30
0
41
1
10
107.786385536624
20
8.69543387078329
30
0
41
1
10
107.786482046825
20
8.68806927131112
30
0
41
1
10
107.786575645569
20
8.68346775781546
30
0
41
1
10
107.786671933665
20
8.67978779608609
30
0
41
1
10
107.786759325865
20
8.67682169912621
30
0
41
1
10
107.786825785688
20
8.67477548919896
30
0
41
1
10
107.786863454508
20
8.67364911236984
30
0
0
SPLINE
5
1DF
100
AcDbEntity
8
1
62
256
6
ByLayer
370
-1
48
1
60
0
100
AcDbSpline
70
4
71
3
72
8
73
4
40
0
40
0
40
0
40
0
40
1
40
1
40
1
40
1
41
1
10
108.402009345599
20
9.33576536059005
30
0
41
1
10
108.414012645043
20
9.33623003450418
30
0
41
1
10
108.426016786787
20
9.33667278385664
30
0
41
1
10
108.438021691343
20
9.33709360571564
30
0
0
SPLINE
5
1E0
100
AcDbEntity
8
1
62
256
6
ByLayer
370
-1
48
1
60
0
100
AcDbSpline
70
4
71
3
72
153
73
149
40
0
40
0
40
0
40
0
40
0.125
40
0.25
40
0.375
40
0.3828125
40
0.390625
40
0.398193359375
40
0.4019775390625
40
0.405643463134766
40
0.40576171875
40
0.406005859375
40
0.40625
40
0.4072265625
40
0.40771484375
40
0.408203125
40
0.4091796875
40
0.41015625
40
0.412109375
40
0.4140625
40
0.416015625
40
0.4169921875
40
0.41796875
40
0.4189453125
40
0.41943359375
40
0.419921875
40
0.42041015625
40
0.4208984375
40
0.421875
40
0.422119140625
40
0.42236328125
40
0.422477722167969
40
0.426025390625
40
0.4296875
40
0.4375
40
0.439453125
40
0.44140625
40
0.443359375
40
0.4443359375
40
0.4453125
40
0.445556640625
40
0.44580078125
40
0.446044921875
40
0.4462890625
40
0.4464111328125
40
0.44677734375
40
0.447265625
40
0.44921875
40
0.453125
40
0.4609375
40
0.46484375
40
0.46875
40
0.46923828125
40
0.4697265625
40
0.47021484375
40
0.4705810546875
40
0.470703125
40
0.4708251953125
40
0.47119140625
40
0.471435546875
40
0.4716796875
40
0.4718017578125
40
0.47216796875
40
0.472412109375
40
0.47265625
40
0.4727783203125
40
0.474609375
40
0.4755859375
40
0.4765625
40
0.48046875
40
0.482421875
40
0.484375
40
0.486328125
40
0.48828125
40
0.490234375
40
0.4921875
40
0.494140625
40
0.49609375
40
0.498046875
40
0.5
40
0.501953125
40
0.50390625
40
0.505859375
40
0.5078125
40
0.509765625
40
0.51171875
40
0.515625
40
0.51953125
40
0.5224609375
40
0.5234375
40
0.525390625
40
0.5263671875
40
0.527099609375
40
0.52734375
40
0.52783203125
40
0.528076171875
40
0.5283203125
40
0.5284423828125
40
0.52880859375
40
0.529052734375
40
0.529296875
40
0.5294189453125
40
0.52978515625
40
0.5302734375
40
0.53125
40
0.5390625
40
0.546875
40
0.55078125
40
0.5517578125
40
0.552734375
40
0.55322265625
40
0.5537109375
40
0.553955078125
40
0.55419921875
40
0.554443359375
40
0.5545654296875
40
0.5546875
40
0.556640625
40
0.55859375
40
0.5625
40
0.56640625
40
0.5703125
40
0.573974609375
40
0.5758056640625
40
0.57763671875
40
0.577880859375
40
0.578125
40
0.5791015625
40
0.57958984375
40
0.580078125
40
0.5810546875
40
0.58203125
40
0.5859375
40
0.587890625
40
0.58984375
40
0.5908203125
40
0.591796875
40
0.5927734375
40
0.59375
40
0.593994140625
40
0.59423828125
40
0.594380187988281
40
0.601806640625
40
0.609375
40
0.625
40
0.75
40
0.875
40
1
40
1
40
1
40
1
41
1
10
108.66396675116
20
6.40358846047852
30
0
41
1
10
108.657910644369
20
6.57767512076146
30
0
41
1
10
108.645798430787
20
6.9258484413273
30
0
41
1
10
108.627630110413
20
7.44810842217606
30
0
41
1
10
108.615139390156
20
7.80716215900961
30
0
41
1
10
108.608326270016
20
8.00300965182788
30
0
41
1
10
108.607202578326
20
8.03531088762256
30
0
41
1
10
108.60627405414
20
8.06200190877922
30
0
41
1
10
108.605546426808
20
8.08291802149694
30
0
41
1
10
108.605179748467
20
8.09345842475625
30
0
41
1
10
108.604984580963
20
8.09906863939429
30
0
41
1
10
108.604955194946
20
8.09991335921194
30
0
41
1
10
108.604884224945
20
8.10195343726213
30
0
41
1
10
108.60480142661
20
8.10433352832067
30
0
41
1
10
108.604706799941
20
8.10705363238759
30
0
41
1
10
108.604612173273
20
8.10977373645451
30
0
41
1
10
108.604493889937
20
8.11317386653818
30
0
41
1
10
108.6043046366
20
8.11861407467202
30
0
41
1
10
108.604068069928
20
8.12541433483932
30
0
41
1
10
108.603784189922
20
8.13357464704006
30
0
41
1
10
108.603547623251
20
8.14037490720739
30
0
41
1
10
108.603358369913
20
8.14581511534121
30
0
41
1
10
108.603216429911
20
8.14989527144161
30
0
41
1
10
108.603098146575
20
8.15329540152524
30
0
41
1
10
108.603003519906
20
8.15601550559217
30
0
41
1
10
108.602932549905
20
8.15805558364235
30
0
41
1
10
108.602861579903
20
8.16009566169257
30
0
41
1
10
108.602766953235
20
8.16281576575946
30
0
41
1
10
108.6026841549
20
8.16519585681803
30
0
41
1
10
108.602613184898
20
8.16723593486822
30
0
41
1
10
108.6025839837
20
8.16807534198261
30
0
41
1
10
108.602394730362
20
8.17351555011646
30
0
41
1
10
108.602039880355
20
8.18371594036742
30
0
41
1
10
108.601312068205
20
8.20463736578839
30
0
41
1
10
108.600661509858
20
8.22333808124847
30
0
41
1
10
108.600093749846
20
8.23965870564999
30
0
41
1
10
108.599809856088
20
8.2478192160975
30
0
41
1
10
108.599573255036
20
8.25461997188168
30
0
41
1
10
108.599383953565
20
8.26006087387918
30
0
41
1
10
108.599277462463
20
8.26312151135221
30
0
41
1
10
108.599206464098
20
8.26516199828632
30
0
41
1
10
108.599170964028
20
8.266182254531
30
0
41
1
10
108.599135463046
20
8.26720252394051
30
0
41
1
10
108.59910587811
20
8.26805275974178
30
0
41
1
10
108.599070375463
20
8.26907305315774
30
0
41
1
10
108.599023037292
20
8.27043346322279
30
0
41
1
10
108.598886933203
20
8.27434474086368
30
0
41
1
10
108.598579173055
20
8.28318830059095
30
0
41
1
10
108.597916016243
20
8.30224013087769
30
0
41
1
10
108.597157242594
20
8.32402633899778
30
0
41
1
10
108.596400755609
20
8.34577958373578
30
0
41
1
10
108.596000242549
20
8.3573162364095
30
0
41
1
10
108.595765285711
20
8.36409329004482
30
0
41
1
10
108.59569465608
20
8.36612846148779
30
0
41
1
10
108.595629611801
20
8.36799836645147
30
0
41
1
10
108.595581637686
20
8.36936794396618
30
0
41
1
10
108.595551286836
20
8.37022922079527
30
0
41
1
10
108.595520731134
20
8.37109345067501
30
0
41
1
10
108.595483986316
20
8.37213233310405
30
0
41
1
10
108.595442813465
20
8.37332389391784
30
0
41
1
10
108.595415062941
20
8.37415451114552
30
0
41
1
10
108.595383875608
20
8.37512488282121
30
0
41
1
10
108.5953558999
20
8.37606502137135
30
0
41
1
10
108.595329668483
20
8.37713930893321
30
0
41
1
10
108.595315249338
20
8.37790198599481
30
0
41
1
10
108.595276770414
20
8.38065717610525
30
0
41
1
10
108.595321137278
20
8.38439722215489
30
0
41
1
10
108.595560817236
20
8.38931054502072
30
0
41
1
10
108.596131093561
20
8.39698352343402
30
0
41
1
10
108.597385224307
20
8.40605700546638
30
0
41
1
10
108.599682069794
20
8.41648606039541
30
0
41
1
10
108.601850491659
20
8.42431065571543
30
0
41
1
10
108.604478712421
20
8.43211117869308
30
0
41
1
10
108.607566303703
20
8.43984294281594
30
0
41
1
10
108.611112837126
20
8.44746126157156
30
0
41
1
10
108.61511136981
20
8.45492663479095
30
0
41
1
10
108.619554958877
20
8.46219956230502
30
0
41
1
10
108.624427025593
20
8.46924139391436
30
0
41
1
10
108.629710991229
20
8.47601347941958
30
0
41
1
10
108.635381650636
20
8.48248150125303
30
0
41
1
10
108.641413798669
20
8.48861114184712
30
0
41
1
10
108.647775089849
20
8.49437476753602
30
0
41
1
10
108.654433178695
20
8.49974474465384
30
0
41
1
10
108.661350812351
20
8.5047017755787
30
0
41
1
10
108.668490737958
20
8.50922656268878
30
0
41
1
10
108.678255335109
20
8.51467034332782
30
0
41
1
10
108.690822962957
20
8.52034592050973
30
0
41
1
10
108.704852673259
20
8.52490696574469
30
0
41
1
10
108.715057553984
20
8.52721039498454
30
0
41
1
10
108.722670308611
20
8.52852175978396
30
0
41
1
10
108.727718103819
20
8.5291909383181
30
0
41
1
10
108.732380537828
20
8.52962807032864
30
0
41
1
10
108.734838553554
20
8.52980234199421
30
0
41
1
10
108.736667590939
20
8.52990791897486
30
0
41
1
10
108.737879343572
20
8.52996575712154
30
0
41
1
10
108.739122429502
20
8.53001695295626
30
0
41
1
10
108.739920526025
20
8.53004741276365
30
0
41
1
10
108.740904593935
20
8.53008368773871
30
0
41
1
10
108.741918521261
20
8.53011963952963
30
0
41
1
10
108.743121895914
20
8.53016131267532
30
0
41
1
10
108.743984345855
20
8.53019100103054
30
0
41
1
10
108.745013977698
20
8.5302266255085
30
0
41
1
10
108.746378366535
20
8.53027412234667
30
0
41
1
10
108.748918533365
20
8.53036317364968
30
0
41
1
10
108.761743888129
20
8.53081435384368
30
0
41
1
10
108.784757081678
20
8.53162174717528
30
0
41
1
10
108.811886289472
20
8.53257163768569
30
0
41
1
10
108.829509980066
20
8.5331890635147
30
0
41
1
10
108.83764250633
20
8.53347402884884
30
0
41
1
10
108.841030832099
20
8.53359276433858
30
0
41
1
10
108.843741368982
20
8.53368775269425
30
0
41
1
10
108.845435405557
20
8.5337471204023
30
0
41
1
10
108.846790606978
20
8.53379461456058
30
0
41
1
10
108.84780699451
20
8.53383023517534
30
0
41
1
10
108.848653973164
20
8.5338599190178
30
0
41
1
10
108.849331549708
20
8.53388366608991
30
0
41
1
10
108.852380625306
20
8.53399052790886
30
0
41
1
10
108.857970308012
20
8.53418644115922
30
0
41
1
10
108.868810112893
20
8.53456639389867
30
0
41
1
10
108.882358879142
20
8.53504133453424
30
0
41
1
10
108.89861739864
20
8.53561126329691
30
0
41
1
10
108.914537198983
20
8.53616931854373
30
0
41
1
10
108.927577886497
20
8.53662644890545
30
0
41
1
10
108.937739461183
20
8.53698265438214
30
0
41
1
10
108.943158967683
20
8.53717263063638
30
0
41
1
10
108.946376799667
20
8.53728542903733
30
0
41
1
10
108.948409114604
20
8.53735667013265
30
0
41
1
10
108.950780148698
20
8.53743978474387
30
0
41
1
10
108.953489901947
20
8.537534772871
30
0
41
1
10
108.956199655197
20
8.5376297609981
30
0
41
1
10
108.959586846759
20
8.53774849615701
30
0
41
1
10
108.967716106508
20
8.53803346053834
30
0
41
1
10
108.977200242882
20
8.53836591898323
30
0
41
1
10
108.988039255881
20
8.5387458714917
30
0
41
1
10
108.994813639006
20
8.53898334180948
30
0
41
1
10
109.000233145505
20
8.53917331806372
30
0
41
1
10
109.00429777538
20
8.5393158002544
30
0
41
1
10
109.008362405254
20
8.53945828244505
30
0
41
1
10
109.01141087766
20
8.53956514408807
30
0
41
1
10
109.013443192597
20
8.5396363851834
30
0
41
1
10
109.014317511419
20
8.53966703369628
30
0
41
1
10
109.025156524418
20
8.54004698620474
30
0
41
1
10
109.046157112104
20
8.54078314418987
30
0
41
1
10
109.088638845277
20
8.54227230571084
30
0
41
1
10
109.2942413731
20
8.5494795298556
30
0
41
1
10
109.662767815063
20
8.56239791514318
30
0
41
1
10
110.18304043901
20
8.58063563554916
30
0
41
1
10
110.529888854974
20
8.59279411581983
30
0
41
1
10
110.703313062957
20
8.59887335595516
30
0
0
SPLINE
5
1E1
100
AcDbEntity
8
1
62
256
6
ByLayer
370
-1
48
1
60
0
100
AcDbSpline
70
4
71
3
72
48
73
44
40
0
40
0
40
0
40
0
40
0.015625
40
0.0234375
40
0.02734375
40
0.029296875
40
0.0302734375
40
0.03125
40
0.03173828125
40
0.046875
40
0.0625
40
0.125
40
0.1875
40
0.25
40
0.3125
40
0.375
40
0.390625
40
0.40625
40
0.4140625
40
0.421875
40
0.4375
40
0.5
40
0.5625
40
0.59375
40
0.6015625
40
0.60546875
40
0.609375
40
0.6171875
40
0.625
40
0.65625
40
0.671875
40
0.6796875
40
0.6875
40
0.71875
40
0.75
40
0.78125
40
0.7890625
40
0.79296875
40
0.796875
40
0.8046875
40
0.8125
40
0.875
40
1
40
1
40
1
40
1
41
1
10
108.66396675116
20
6.40358846047852
30
0
41
1
10
108.659474685863
20
6.40343099489766
30
0
41
1
10
108.65269499705
20
6.40319047890026
30
0
41
1
10
108.645386976836
20
6.40292602813409
30
0
41
1
10
108.641953342043
20
6.40280041113795
30
0
41
1
10
108.640305738147
20
6.40273977780294
30
0
41
1
10
108.639374526331
20
6.40270540674177
30
0
41
1
10
108.638792510736
20
6.4026839116319
30
0
41
1
10
108.634822652674
20
6.40253734446887
30
0
41
1
10
108.627350346431
20
6.40226146545626
30
0
41
1
10
108.605050182486
20
6.40143813902802
30
0
41
1
10
108.571424804392
20
6.40019668347125
30
0
41
1
10
108.526590966932
20
6.39854140939559
30
0
41
1
10
108.481757129473
20
6.39688613531993
30
0
41
1
10
108.436923292013
20
6.39523086124427
30
0
41
1
10
108.403307361655
20
6.39398974475023
30
0
41
1
10
108.380871547452
20
6.39316142958697
30
0
41
1
10
108.371532739271
20
6.39281663733166
30
0
41
1
10
108.364091925483
20
6.39254188852811
30
0
41
1
10
108.356579001643
20
6.39226510437265
30
0
41
1
10
108.335506567297
20
6.39149106334079
30
0
41
1
10
108.298955273095
20
6.39016117014936
30
0
41
1
10
108.255722744748
20
6.38860989879635
30
0
41
1
10
108.226978942441
20
6.38758834241679
30
0
41
1
10
108.214735440433
20
6.3871548716069
30
0
41
1
10
108.210300017161
20
6.38699801987124
30
0
41
1
10
108.205831811922
20
6.38684014023551
30
0
41
1
10
108.200209143994
20
6.38664153497695
30
0
41
1
10
108.186733393141
20
6.38616550873127
30
0
41
1
10
108.171015231396
20
6.3856102594022
30
0
41
1
10
108.155286301689
20
6.38505466215486
30
0
41
1
10
108.14631615729
20
6.38473775363909
30
0
41
1
10
108.132829939779
20
6.38426206514217
30
0
41
1
10
108.112420021672
20
6.38354485865472
30
0
41
1
10
108.085017833949
20
6.38258767628133
30
0
41
1
10
108.064475027936
20
6.38187441984866
30
0
41
1
10
108.051972539208
20
6.38144193578327
30
0
41
1
10
108.047439010439
20
6.3812853099983
30
0
41
1
10
108.042900734118
20
6.38112862202374
30
0
41
1
10
108.037219088703
20
6.3809324912352
30
0
41
1
10
108.014499917582
20
6.38014819614025
30
0
41
1
10
107.957701989779
20
6.37818745840289
30
0
41
1
10
107.903175979089
20
6.37630515017506
30
0
41
1
10
107.866825305295
20
6.37505027802314
30
0
0
SPLINE
5
1E2
100
AcDbEntity
8
1
62
256
6
ByLayer
370
-1
48
1
60
0
100
AcDbSpline
70
4
71
3
72
19
73
15
40
0
40
0
40
0
40
0
40
0.0403657336155075
40
0.106300330648575
40
0.172234927681642
40
0.238169524714709
40
0.370038718780844
40
0.501907912846979
40
0.765646300979248
40
0.831580898012315
40
0.897515495045382
40
0.930482793561916
40
0.96345009207845
40
1
40
1
40
1
40
1
41
1
10
113.186154756275
20
3.61949594031003
30
0
41
1
10
113.187276741188
20
3.61953679178654
30
0
41
1
10
113.190231072386
20
3.61964722651072
30
0
41
1
10
113.195016415422
20
3.61984719824631
30
0
41
1
10
113.200511654699
20
3.62011990778834
30
0
41
1
10
113.20783709033
20
3.6205369934161
30
0
41
1
10
113.216989332803
20
3.62115124554691
30
0
41
1
10
113.231619102502
20
3.62233571673355
30
0
41
1
10
113.244396623848
20
3.62364140066819
30
0
41
1
10
113.255325461463
20
3.62494476164457
30
0
41
1
10
113.259874309088
20
3.62552104449512
30
0
41
1
10
113.263509917885
20
3.62600350937618
30
0
41
1
10
113.266334113563
20
3.62638771492672
30
0
41
1
10
113.268249270373
20
3.62665361484
30
0
41
1
10
113.269256146564
20
3.62679429408323
30
0
0
SPLINE
5
1E3
100
AcDbEntity
8
1
62
256
6
ByLayer
370
-1
48
1
60
0
100
AcDbSpline
70
4
71
3
72
22
73
18
40
0
40
0
40
0
40
0
40
0.0178234039225228
40
0.0278216291116378
40
0.0378198543007528
40
0.112806543219115
40
0.187793232137478
40
0.337766609974203
40
0.497738213000043
40
0.657709816025883
40
0.817681419051724
40
0.897667220564644
40
0.977653022077564
40
0.982652134672121
40
0.987651247266679
40
0.997649472455794
40
1
40
1
40
1
40
1
41
1
10
113.63410093223
20
8.96229280547249
30
0
41
1
10
113.633988262031
20
8.96310538646364
30
0
41
1
10
113.6338115062
20
8.96437374104656
30
0
41
1
10
113.633570358678
20
8.9660979651091
30
0
41
1
10
113.632963943917
20
8.97042834491339
30
0
41
1
10
113.631942676981
20
8.97772161163456
30
0
41
1
10
113.630027958285
20
8.99139647549976
30
0
41
1
10
113.627570937196
20
9.00894586970594
30
0
41
1
10
113.624571456905
20
9.0303698054901
30
0
41
1
10
113.621508157885
20
9.05224956969522
30
0
41
1
10
113.618955408702
20
9.0704827065328
30
0
41
1
10
113.616904437484
20
9.08511995959324
30
0
41
1
10
113.615854912828
20
9.09262097205701
30
0
41
1
10
113.615287959235
20
9.09668053365422
30
0
41
1
10
113.615162268699
20
9.09757984829773
30
0
41
1
10
113.615053817199
20
9.09835381768121
30
0
41
1
10
113.614977200836
20
9.09889808802984
30
0
41
1
10
113.614962633802
20
9.09900145834243
30
0
0
SPLINE
5
1E4
100
AcDbEntity
8
1
62
256
6
ByLayer
370
-1
48
1
60
0
100
AcDbSpline
70
4
71
3
72
19
73
15
40
0
40
0
40
0
40
0
40
0.0403657336154814
40
0.106300330648543
40
0.172234927681604
40
0.238169524714665
40
0.370038718780788
40
0.501907912846911
40
0.765646300979156
40
0.831580898012218
40
0.897515495045279
40
0.93048279356181
40
0.96345009207834
40
1
40
1
40
1
40
1
41
1
10
113.641371513564
20
8.87887398137332
30
0
41
1
10
113.641330817539
20
8.88000025208635
30
0
41
1
10
113.641220803053
20
8.88296586834932
30
0
41
1
10
113.64102159227
20
8.88776949061824
30
0
41
1
10
113.64074992047
20
8.89328572081652
30
0
41
1
10
113.640334421979
20
8.90063913842178
30
0
41
1
10
113.639722507263
20
8.90982634097398
30
0
41
1
10
113.638542543347
20
8.92451199401648
30
0
41
1
10
113.637241827934
20
8.93733832341809
30
0
41
1
10
113.635943426639
20
8.94830890741747
30
0
41
1
10
113.635369336719
20
8.95287513090179
30
0
41
1
10
113.634888707762
20
8.9565246271338
30
0
41
1
10
113.63450596423
20
8.95935961077981
30
0
41
1
10
113.634241076146
20
8.96128208317785
30
0
41
1
10
113.63410093223
20
8.96229280547249
30
0
0
SPLINE
5
1E5
100
AcDbEntity
8
1
62
256
6
ByLayer
370
-1
48
1
60
0
100
AcDbSpline
70
4
71
3
72
153
73
149
40
0
40
0
40
0
40
0
40
0.125
40
0.25
40
0.375
40
0.3828125
40
0.390625
40
0.398193359375
40
0.4019775390625
40
0.405643463134766
40
0.40576171875
40
0.406005859375
40
0.40625
40
0.4072265625
40
0.40771484375
40
0.408203125
40
0.4091796875
40
0.41015625
40
0.412109375
40
0.4140625
40
0.416015625
40
0.4169921875
40
0.41796875
40
0.4189453125
40
0.41943359375
40
0.419921875
40
0.42041015625
40
0.4208984375
40
0.421875
40
0.422119140625
40
0.42236328125
40
0.422477722167969
40
0.426025390625
40
0.4296875
40
0.4375
40
0.439453125
40
0.44140625
40
0.443359375
40
0.4443359375
40
0.4453125
40
0.445556640625
40
0.44580078125
40
0.446044921875
40
0.4462890625
40
0.4464111328125
40
0.44677734375
40
0.447265625
40
0.44921875
40
0.453125
40
0.4609375
40
0.46484375
40
0.46875
40
0.46923828125
40
0.4697265625
40
0.47021484375
40
0.4705810546875
40
0.470703125
40
0.4708251953125
40
0.47119140625
40
0.471435546875
40
0.4716796875
40
0.4718017578125
40
0.47216796875
40
0.472412109375
40
0.47265625
40
0.4727783203125
40
0.474609375
40
0.4755859375
40
0.4765625
40
0.48046875
40
0.482421875
40
0.484375
40
0.486328125
40
0.48828125
40
0.490234375
40
0.4921875
40
0.494140625
40
0.49609375
40
0.498046875
40
0.5
40
0.501953125
40
0.50390625
40
0.505859375
40
0.5078125
40
0.509765625
40
0.51171875
40
0.515625
40
0.51953125
40
0.5224609375
40
0.5234375
40
0.525390625
40
0.5263671875
40
0.527099609375
40
0.52734375
40
0.52783203125
40
0.528076171875
40
0.5283203125
40
0.5284423828125
40
0.52880859375
40
0.529052734375
40
0.529296875
40
0.5294189453125
40
0.52978515625
40
0.5302734375
40
0.53125
40
0.5390625
40
0.546875
40
0.55078125
40
0.5517578125
40
0.552734375
40
0.55322265625
40
0.5537109375
40
0.553955078125
40
0.55419921875
40
0.554443359375
40
0.5545654296875
40
0.5546875
40
0.556640625
40
0.55859375
40
0.5625
40
0.56640625
40
0.5703125
40
0.573974609375
40
0.5758056640625
40
0.57763671875
40
0.577880859375
40
0.578125
40
0.5791015625
40
0.57958984375
40
0.580078125
40
0.5810546875
40
0.58203125
40
0.5859375
40
0.587890625
40
0.58984375
40
0.5908203125
40
0.591796875
40
0.5927734375
40
0.59375
40
0.593994140625
40
0.59423828125
40
0.594380187988281
40
0.601806640625
40
0.609375
40
0.625
40
0.75
40
0.875
40
1
40
1
40
1
40
1
41
1
10
110.703313062957
20
8.59887335595516
30
0
41
1
10
110.876737270939
20
8.6049525960905
30
0
41
1
10
111.223585686904
20
8.61711107636114
30
0
41
1
10
111.743858310851
20
8.63534879676712
30
0
41
1
10
112.101545739814
20
8.64788722954626
30
0
41
1
10
112.296647973795
20
8.6547263746985
30
0
41
1
10
112.328826293635
20
8.65585435870798
30
0
41
1
10
112.355415747398
20
8.65678642970528
30
0
41
1
10
112.376252267992
20
8.65751683645615
30
0
41
1
10
112.386752561835
20
8.65788491544873
30
0
41
1
10
112.392341427912
20
8.6580808284609
30
0
41
1
10
112.393182933316
20
8.65811032672696
30
0
41
1
10
112.395215248253
20
8.65818156782228
30
0
41
1
10
112.397586282347
20
8.6582646824335
30
0
41
1
10
112.400296035596
20
8.65835967056063
30
0
41
1
10
112.403005788846
20
8.65845465868773
30
0
41
1
10
112.406392980408
20
8.65857339384664
30
0
41
1
10
112.411812486908
20
8.65876337010087
30
0
41
1
10
112.418586870032
20
8.65900084041866
30
0
41
1
10
112.426716129781
20
8.65928580479999
30
0
41
1
10
112.433490512906
20
8.65952327511778
30
0
41
1
10
112.438910019405
20
8.65971325137201
30
0
41
1
10
112.44297464928
20
8.65985573356267
30
0
41
1
10
112.446361840842
20
8.65997446872157
30
0
41
1
10
112.449071594092
20
8.66006945684867
30
0
41
1
10
112.451103909029
20
8.66014069794403
30
0
41
1
10
112.453136223966
20
8.66021193903936
30
0
41
1
10
112.455845977216
20
8.66030692716646
30
0
41
1
10
112.458217011309
20
8.6603900417777
30
0
41
1
10
112.460249326247
20
8.66046128287303
30
0
41
1
10
112.461085539164
20
8.66049059561539
30
0
41
1
10
112.466505045663
20
8.66068057186962
30
0
41
1
10
112.476666620349
20
8.66103677734628
30
0
41
1
10
112.49750843343
20
8.66176736962086
30
0
41
1
10
112.516137987022
20
8.66242041299478
30
0
41
1
10
112.53239650652
20
8.66299034175745
30
0
41
1
10
112.540525963762
20
8.66327531994367
30
0
41
1
10
112.547300840617
20
8.66351282477365
30
0
41
1
10
112.55272103834
20
8.66370284934496
30
0
41
1
10
112.555770029163
20
8.66380974722577
30
0
41
1
10
112.557802751429
20
8.66388101679365
30
0
41
1
10
112.55881912529
20
8.66391665246738
30
0
41
1
10
112.559835512267
20
8.66395228905782
30
0
41
1
10
112.560682512664
20
8.66398198700293
30
0
41
1
10
112.561698923556
20
8.66401762526505
30
0
41
1
10
112.56305415685
20
8.66406514426009
30
0
41
1
10
112.566950550898
20
8.664201768244
30
0
41
1
10
112.575760458211
20
8.66451070398637
30
0
41
1
10
112.594739790531
20
8.66517639394928
30
0
41
1
10
112.616443095552
20
8.66593806599047
30
0
41
1
10
112.638113562626
20
8.66669744263248
30
0
41
1
10
112.649606314854
20
8.66709948558747
30
0
41
1
10
112.656357579754
20
8.66733533992257
30
0
41
1
10
112.658385006755
20
8.6674062393472
30
0
41
1
10
112.660247796166
20
8.66747153208468
30
0
41
1
10
112.661612162025
20
8.6675196894534
30
0
41
1
10
112.662470161435
20
8.66755015623849
30
0
41
1
10
112.663331102659
20
8.66758082865874
30
0
41
1
10
112.664366031827
20
8.66761771383526
30
0
41
1
10
112.665553058392
20
8.66765904395999
30
0
41
1
10
112.666380514871
20
8.66768690048718
30
0
41
1
10
112.667347193989
20
8.66771820695021
30
0
41
1
10
112.668283755028
20
8.66774628952098
30
0
41
1
10
112.669353954602
20
8.66777262113823
30
0
41
1
10
112.670113729447
20
8.66778709536183
30
0
41
1
10
112.672858435227
20
8.66782572126837
30
0
41
1
10
112.676584249272
20
8.66778118493093
30
0
41
1
10
112.681478875461
20
8.66754058943405
30
0
41
1
10
112.689122655875
20
8.6669681347465
30
0
41
1
10
112.698161610569
20
8.66570921342466
30
0
41
1
10
112.708550979796
20
8.66340359436083
30
0
41
1
10
112.716345800168
20
8.66122688947627
30
0
41
1
10
112.724116639801
20
8.65858862933774
30
0
41
1
10
112.731818982227
20
8.65548924395924
30
0
41
1
10
112.739408310979
20
8.65192916335479
30
0
41
1
10
112.7468452762
20
8.64791535692495
30
0
41
1
10
112.754090528029
20
8.64345479407032
30
0
41
1
10
112.761105563343
20
8.63856411685038
30
0
41
1
10
112.767851879018
20
8.63325996732456
30
0
41
1
10
112.774295288076
20
8.62756764691926
30
0
41
1
10
112.780401603537
20
8.62151245706082
30
0
41
1
10
112.78614329689
20
8.61512686678265
30
0
41
1
10
112.791492839624
20
8.60844334511827
30
0
41
1
10
112.79643100755
20
8.60149928722575
30
0
41
1
10
112.800938576479
20
8.59433208826317
30
0
41
1
10
112.806361641889
20
8.58453019193672
30
0
41
1
10
112.812015621786
20
8.57191455779255
30
0
41
1
10
112.816559310867
20
8.55783125627619
30
0
41
1
10
112.818853974863
20
8.54758739456432
30
0
41
1
10
112.820160349523
20
8.53994556045134
30
0
41
1
10
112.820826981631
20
8.53487848348584
30
0
41
1
10
112.821262450222
20
8.53019823973702
30
0
41
1
10
112.821436058732
20
8.52773083479042
30
0
41
1
10
112.82154123396
20
8.52589481077939
30
0
41
1
10
112.821598852015
20
8.52467842944853
30
0
41
1
10
112.821649853034
20
8.52343059513154
30
0
41
1
10
112.821680196933
20
8.52262945000953
30
0
41
1
10
112.821716333871
20
8.52164162311985
30
0
41
1
10
112.821752148854
20
8.52062382275682
30
0
41
1
10
112.821793663421
20
8.51941585140779
30
0
41
1
10
112.821823238803
20
8.51855010704799
30
0
41
1
10
112.821858727719
20
8.51751654217898
30
0
41
1
10
112.821906043818
20
8.51614694159801
30
0
41
1
10
112.821994756253
20
8.51359707174308
30
0
41
1
10
112.822444219571
20
8.50072272620804
30
0
41
1
10
112.823248540527
20
8.47762162599781
30
0
41
1
10
112.824194816417
20
8.45038878903802
30
0
41
1
10
112.824809892754
20
8.4326977788086
30
0
41
1
10
112.825093773709
20
8.42453418761536
30
0
41
1
10
112.825212057375
20
8.42113291899267
30
0
41
1
10
112.825306684271
20
8.41841202829877
30
0
41
1
10
112.825365826067
20
8.41671152077927
30
0
41
1
10
112.825413139496
20
8.41535114270962
30
0
41
1
10
112.825448624563
20
8.41433087274223
30
0
41
1
10
112.82547819545
20
8.41348065876667
30
0
41
1
10
112.825501852157
20
8.41280049399049
30
0
41
1
10
112.825608307335
20
8.40973977141942
30
0
41
1
10
112.825803475076
20
8.40412873703329
30
0
41
1
10
112.82618198198
20
8.39324752585836
30
0
41
1
10
112.826655115323
20
8.37964700552374
30
0
41
1
10
112.827222875335
20
8.36332638112222
30
0
41
1
10
112.827778807013
20
8.34734576972906
30
0
41
1
10
112.828234197856
20
8.33425526890701
30
0
41
1
10
112.828589047863
20
8.32405487865606
30
0
41
1
10
112.8287783012
20
8.31861467052221
30
0
41
1
10
112.828890670369
20
8.31538454694274
30
0
41
1
10
112.828961640371
20
8.31334446889255
30
0
41
1
10
112.829044438706
20
8.31096437783398
30
0
41
1
10
112.829139065375
20
8.30824427376709
30
0
41
1
10
112.829233692043
20
8.30552416970016
30
0
41
1
10
112.829351975379
20
8.3021240396165
30
0
41
1
10
112.829635855385
20
8.29396372741573
30
0
41
1
10
112.829967048725
20
8.28444336318151
30
0
41
1
10
112.830345555399
20
8.27356294691384
30
0
41
1
10
112.830582122071
20
8.26676268674655
30
0
41
1
10
112.830771375408
20
8.2613224786127
30
0
41
1
10
112.830913315411
20
8.2572423225123
30
0
41
1
10
112.831055255414
20
8.25316216641193
30
0
41
1
10
112.831161710416
20
8.25010204933665
30
0
41
1
10
112.831232680418
20
8.24806197128646
30
0
41
1
10
112.831263212304
20
8.24718431270861
30
0
41
1
10
112.831641718978
20
8.23630389644092
30
0
41
1
10
112.83237507566
20
8.21522308992229
30
0
41
1
10
112.833858570472
20
8.17257908342941
30
0
41
1
10
112.841038368953
20
7.9661911873518
30
0
41
1
10
112.853907595884
20
7.59625703425058
30
0
41
1
10
112.872075916258
20
7.0739970534018
30
0
41
1
10
112.88418812984
20
6.72582373283595
30
0
41
1
10
112.890244236632
20
6.55173707255304
30
0
0
SPLINE
5
1E6
100
AcDbEntity
8
1
62
256
6
ByLayer
370
-1
48
1
60
0
100
AcDbSpline
70
4
71
3
72
48
73
44
40
0
40
0
40
0
40
0
40
0.015625
40
0.0234375
40
0.02734375
40
0.029296875
40
0.0302734375
40
0.03125
40
0.03173828125
40
0.046875
40
0.0625
40
0.125
40
0.1875
40
0.25
40
0.3125
40
0.375
40
0.390625
40
0.40625
40
0.4140625
40
0.421875
40
0.4375
40
0.5
40
0.5625
40
0.59375
40
0.6015625
40
0.60546875
40
0.609375
40
0.6171875
40
0.625
40
0.65625
40
0.671875
40
0.6796875
40
0.6875
40
0.71875
40
0.75
40
0.78125
40
0.7890625
40
0.79296875
40
0.796875
40
0.8046875
40
0.8125
40
0.875
40
1
40
1
40
1
40
1
41
1
10
110.850897924835
20
4.35645217707636
30
0
41
1
10
110.851054791212
20
4.35194295281988
30
0
41
1
10
110.851375971251
20
4.34505547579906
30
0
41
1
10
110.851875457518
20
4.3374825966786
30
0
41
1
10
110.852150473396
20
4.33388539656068
30
0
41
1
10
110.852292976456
20
4.33214908502177
30
0
41
1
10
110.852376517922
20
4.3311648266085
30
0
41
1
10
110.852429112739
20
4.33054928719747
30
0
41
1
10
110.852786427147
20
4.32635215279478
30
0
41
1
10
110.853459028971
20
4.31845201151421
30
0
41
1
10
110.85546632504
20
4.29487502738002
30
0
41
1
10
110.85849303325
20
4.25932439161747
30
0
41
1
10
110.862528644196
20
4.21192354393409
30
0
41
1
10
110.866564255141
20
4.16452269625071
30
0
41
1
10
110.870599866087
20
4.11712184856731
30
0
41
1
10
110.873626011722
20
4.08158092229078
30
0
41
1
10
110.875644942344
20
4.05786107947708
30
0
41
1
10
110.876485600862
20
4.04798752112401
30
0
41
1
10
110.877156327439
20
4.04011974479681
30
0
41
1
10
110.877815034631
20
4.03219368361658
30
0
41
1
10
110.879594983964
20
4.01002804857629
30
0
41
1
10
110.882306762662
20
3.9719448903077
30
0
41
1
10
110.884873160586
20
3.92752229093193
30
0
41
1
10
110.886289255977
20
3.89826874370405
30
0
41
1
10
110.886843320058
20
3.88585576380106
30
0
41
1
10
110.887038705614
20
3.88136411777123
30
0
41
1
10
110.88723165639
20
3.87684303653413
30
0
41
1
10
110.887472506521
20
3.87115572604685
30
0
41
1
10
110.888050706246
20
3.85752411790602
30
0
41
1
10
110.888725436071
20
3.84162385748346
30
0
41
1
10
110.889399669689
20
3.825713633986
30
0
41
1
10
110.889785767009
20
3.8166385614602
30
0
41
1
10
110.890343528557
20
3.80301662517874
30
0
41
1
10
110.891108040685
20
3.78247851854803
30
0
41
1
10
110.891965206079
20
3.75506840166579
30
0
41
1
10
110.892480210944
20
3.73464340980451
30
0
41
1
10
110.892746156176
20
3.72225868656679
30
0
41
1
10
110.892836765385
20
3.71777351091791
30
0
41
1
10
110.892924463095
20
3.713286554392
30
0
41
1
10
110.893033280778
20
3.70767010345466
30
0
41
1
10
110.893469228945
20
3.68521083046744
30
0
41
1
10
110.894559099362
20
3.62906264799932
30
0
41
1
10
110.895605374963
20
3.57516039282996
30
0
41
1
10
110.896302892031
20
3.53922555605035
30
0
0
SPLINE
5
1E7
100
AcDbEntity
8
1
62
256
6
ByLayer
370
-1
48
1
60
0
100
AcDbSpline
70
4
71
3
72
48
73
44
40
0
40
0
40
0
40
0
40
0.015625
40
0.0234375
40
0.02734375
40
0.029296875
40
0.0302734375
40
0.03125
40
0.03173828125
40
0.046875
40
0.0625
40
0.125
40
0.1875
40
0.25
40
0.3125
40
0.375
40
0.390625
40
0.40625
40
0.4140625
40
0.421875
40
0.4375
40
0.5
40
0.5625
40
0.59375
40
0.6015625
40
0.60546875
40
0.609375
40
0.6171875
40
0.625
40
0.65625
40
0.671875
40
0.6796875
40
0.6875
40
0.71875
40
0.75
40
0.78125
40
0.7890625
40
0.79296875
40
0.796875
40
0.8046875
40
0.8125
40
0.875
40
1
40
1
40
1
40
1
41
1
10
112.890244236632
20
6.55173707255304
30
0
41
1
10
112.894736301928
20
6.55189453813387
30
0
41
1
10
112.901679149297
20
6.5521350541313
30
0
41
1
10
112.909459253142
20
6.55239950489746
30
0
41
1
10
112.91319264172
20
6.55252512189358
30
0
41
1
10
112.915004446523
20
6.55258575522859
30
0
41
1
10
112.916034260732
20
6.55262012628978
30
0
41
1
10
112.916678639332
20
6.55264162139966
30
0
41
1
10
112.921071107349
20
6.55278818856266
30
0
41
1
10
112.929338958821
20
6.55306406757526
30
0
41
1
10
112.95401332806
20
6.55388739400354
30
0
41
1
10
112.991218659686
20
6.55512884956028
30
0
41
1
10
113.040825768521
20
6.55678412363594
30
0
41
1
10
113.090432877356
20
6.55843939771162
30
0
41
1
10
113.140039986191
20
6.56009467178728
30
0
41
1
10
113.177235420477
20
6.5613357882813
30
0
41
1
10
113.202058769575
20
6.56216410344459
30
0
41
1
10
113.212391934359
20
6.56250889569989
30
0
41
1
10
113.220626794697
20
6.56278364450341
30
0
41
1
10
113.228905671105
20
6.56306042865887
30
0
41
1
10
113.251995812974
20
6.56383446969076
30
0
41
1
10
113.291320999479
20
6.56516436288217
30
0
41
1
10
113.33659558708
20
6.56671563423521
30
0
41
1
10
113.36613624207
20
6.56773719061476
30
0
41
1
10
113.378624229596
20
6.56817066142466
30
0
41
1
10
113.383137914245
20
6.56832751316031
30
0
41
1
10
113.387677463322
20
6.56848539279605
30
0
41
1
10
113.393386132502
20
6.56868399805458
30
0
41
1
10
113.407069853161
20
6.56916002430029
30
0
41
1
10
113.423031201679
20
6.56971527362936
30
0
41
1
10
113.439001632559
20
6.57027087087667
30
0
41
1
10
113.448112566431
20
6.57058777939247
30
0
41
1
10
113.461766550322
20
6.57106346788939
30
0
41
1
10
113.482276538083
20
6.57178067437681
30
0
41
1
10
113.509485976585
20
6.57273785675022
30
0
41
1
10
113.529637707774
20
6.57345111318287
30
0
41
1
10
113.541810410299
20
6.57388359724828
30
0
41
1
10
113.546213097933
20
6.57404022303325
30
0
41
1
10
113.550614586215
20
6.57419691100779
30
0
41
1
10
113.556123098092
20
6.57439304179636
30
0
41
1
10
113.578151544317
20
6.57517733689127
30
0
41
1
10
113.633222659878
20
6.57713807462864
30
0
41
1
10
113.686090930818
20
6.5790203828565
30
0
41
1
10
113.721336444777
20
6.58027525500839
30
0
0
SPLINE
5
1E8
100
AcDbEntity
8
1
62
256
6
ByLayer
370
-1
48
1
60
0
100
AcDbSpline
70
4
71
3
72
153
73
149
40
0
40
0
40
0
40
0
40
0.125
40
0.25
40
0.375
40
0.3828125
40
0.390625
40
0.398193359375
40
0.4019775390625
40
0.405643463134766
40
0.40576171875
40
0.406005859375
40
0.40625
40
0.4072265625
40
0.40771484375
40
0.408203125
40
0.4091796875
40
0.41015625
40
0.412109375
40
0.4140625
40
0.416015625
40
0.4169921875
40
0.41796875
40
0.4189453125
40
0.41943359375
40
0.419921875
40
0.42041015625
40
0.4208984375
40
0.421875
40
0.422119140625
40
0.42236328125
40
0.422477722167969
40
0.426025390625
40
0.4296875
40
0.4375
40
0.439453125
40
0.44140625
40
0.443359375
40
0.4443359375
40
0.4453125
40
0.445556640625
40
0.44580078125
40
0.446044921875
40
0.4462890625
40
0.4464111328125
40
0.44677734375
40
0.447265625
40
0.44921875
40
0.453125
40
0.4609375
40
0.46484375
40
0.46875
40
0.46923828125
40
0.4697265625
40
0.47021484375
40
0.4705810546875
40
0.470703125
40
0.4708251953125
40
0.47119140625
40
0.471435546875
40
0.4716796875
40
0.4718017578125
40
0.47216796875
40
0.472412109375
40
0.47265625
40
0.4727783203125
40
0.474609375
40
0.4755859375
40
0.4765625
40
0.48046875
40
0.482421875
40
0.484375
40
0.486328125
40
0.48828125
40
0.490234375
40
0.4921875
40
0.494140625
40
0.49609375
40
0.498046875
40
0.5
40
0.501953125
40
0.50390625
40
0.505859375
40
0.5078125
40
0.509765625
40
0.51171875
40
0.515625
40
0.51953125
40
0.5224609375
40
0.5234375
40
0.525390625
40
0.5263671875
40
0.527099609375
40
0.52734375
40
0.52783203125
40
0.528076171875
40
0.5283203125
40
0.5284423828125
40
0.52880859375
40
0.529052734375
40
0.529296875
40
0.5294189453125
40
0.52978515625
40
0.5302734375
40
0.53125
40
0.5390625
40
0.546875
40
0.55078125
40
0.5517578125
40
0.552734375
40
0.55322265625
40
0.5537109375
40
0.553955078125
40
0.55419921875
40
0.554443359375
40
0.5545654296875
40
0.5546875
40
0.556640625
40
0.55859375
40
0.5625
40
0.56640625
40
0.5703125
40
0.573974609375
40
0.5758056640625
40
0.57763671875
40
0.577880859375
40
0.578125
40
0.5791015625
40
0.57958984375
40
0.580078125
40
0.5810546875
40
0.58203125
40
0.5859375
40
0.587890625
40
0.58984375
40
0.5908203125
40
0.591796875
40
0.5927734375
40
0.59375
40
0.593994140625
40
0.59423828125
40
0.594380187988281
40
0.601806640625
40
0.609375
40
0.625
40
0.75
40
0.875
40
1
40
1
40
1
40
1
41
1
10
112.890244236632
20
6.55173707255304
30
0
41
1
10
112.896300343423
20
6.3776504122701
30
0
41
1
10
112.908412557005
20
6.02947709170425
30
0
41
1
10
112.926580877379
20
5.50721711085549
30
0
41
1
10
112.939071597636
20
5.14816337402195
30
0
41
1
10
112.945884717776
20
4.95231588120367
30
0
41
1
10
112.947008409466
20
4.920014645409
30
0
41
1
10
112.947936933652
20
4.89332362425233
30
0
41
1
10
112.948664560984
20
4.87240751153462
30
0
41
1
10
112.949031239325
20
4.86186710827531
30
0
41
1
10
112.949226406829
20
4.85625689363729
30
0
41
1
10
112.949255792845
20
4.85541217381962
30
0
41
1
10
112.949326762847
20
4.85337209576943
30
0
41
1
10
112.949409561182
20
4.85099200471089
30
0
41
1
10
112.94950418785
20
4.84827190064397
30
0
41
1
10
112.949598814519
20
4.84555179657704
30
0
41
1
10
112.949717097855
20
4.84215166649338
30
0
41
1
10
112.949906351192
20
4.83671145835953
30
0
41
1
10
112.950142917864
20
4.82991119819224
30
0
41
1
10
112.950426797869
20
4.82175088599149
30
0
41
1
10
112.950663364541
20
4.81495062582417
30
0
41
1
10
112.950852617878
20
4.80951041769035
30
0
41
1
10
112.950994557881
20
4.80543026158995
30
0
41
1
10
112.951112841217
20
4.80203013150631
30
0
41
1
10
112.951207467885
20
4.79931002743939
30
0
41
1
10
112.951278437887
20
4.7972699493892
30
0
41
1
10
112.951349407888
20
4.79522987133899
30
0
41
1
10
112.951444034557
20
4.79250976727209
30
0
41
1
10
112.951526832892
20
4.79012967621352
30
0
41
1
10
112.951597802894
20
4.78808959816334
30
0
41
1
10
112.951627004092
20
4.78725019104894
30
0
41
1
10
112.951816257429
20
4.78180998291509
30
0
41
1
10
112.952171107436
20
4.77160959266413
30
0
41
1
10
112.952898919587
20
4.75068816724317
30
0
41
1
10
112.953549477934
20
4.73198745178308
30
0
41
1
10
112.954117237945
20
4.71566682738157
30
0
41
1
10
112.954401131704
20
4.70750631693406
30
0
41
1
10
112.954637732756
20
4.70070556114987
30
0
41
1
10
112.954827034226
20
4.69526465915237
30
0
41
1
10
112.954933525328
20
4.69220402167934
30
0
41
1
10
112.955004523694
20
4.69016353474524
30
0
41
1
10
112.955040023763
20
4.68914327850055
30
0
41
1
10
112.955075524746
20
4.68812300909104
30
0
41
1
10
112.955105109681
20
4.68727277328978
30
0
41
1
10
112.955140612329
20
4.68625247987382
30
0
41
1
10
112.9551879505
20
4.68489206980877
30
0
41
1
10
112.955324054588
20
4.6809807921679
30
0
41
1
10
112.955631814737
20
4.6721372324406
30
0
41
1
10
112.956294971549
20
4.65308540215386
30
0
41
1
10
112.957053745198
20
4.63129919403377
30
0
41
1
10
112.957810232182
20
4.60954594929578
30
0
41
1
10
112.958210745242
20
4.59800929662205
30
0
41
1
10
112.958445702081
20
4.59123224298673
30
0
41
1
10
112.958516331712
20
4.58919707154377
30
0
41
1
10
112.95858137599
20
4.58732716658008
30
0
41
1
10
112.958629350106
20
4.58595758906537
30
0
41
1
10
112.958659700956
20
4.58509631223629
30
0
41
1
10
112.958690256658
20
4.58423208235655
30
0
41
1
10
112.958727001475
20
4.58319319992751
30
0
41
1
10
112.958768174326
20
4.58200163911371
30
0
41
1
10
112.958795924851
20
4.58117102188604
30
0
41
1
10
112.958827112184
20
4.58020065021034
30
0
41
1
10
112.958855087892
20
4.57926051166021
30
0
41
1
10
112.958881319309
20
4.57818622409835
30
0
41
1
10
112.958895738454
20
4.57742354703674
30
0
41
1
10
112.958934217377
20
4.57466835692631
30
0
41
1
10
112.958889850514
20
4.57092831087667
30
0
41
1
10
112.958650170556
20
4.56601498801083
30
0
41
1
10
112.958079894231
20
4.55834200959754
30
0
41
1
10
112.956825763485
20
4.54926852756518
30
0
41
1
10
112.954528917998
20
4.53883947263614
30
0
41
1
10
112.952360496132
20
4.53101487731613
30
0
41
1
10
112.94973227537
20
4.52321435433848
30
0
41
1
10
112.946644684089
20
4.51548259021561
30
0
41
1
10
112.943098150666
20
4.50786427145999
30
0
41
1
10
112.939099617981
20
4.5003988982406
30
0
41
1
10
112.934656028915
20
4.49312597072654
30
0
41
1
10
112.929783962198
20
4.4860841391172
30
0
41
1
10
112.924499996563
20
4.47931205361198
30
0
41
1
10
112.918829337155
20
4.47284403177852
30
0
41
1
10
112.912797189122
20
4.46671439118444
30
0
41
1
10
112.906435897943
20
4.46095076549554
30
0
41
1
10
112.899777809097
20
4.45558078837772
30
0
41
1
10
112.892860175441
20
4.45062375745286
30
0
41
1
10
112.885720249834
20
4.44609897034277
30
0
41
1
10
112.875955652682
20
4.44065518970373
30
0
41
1
10
112.863388024835
20
4.43497961252183
30
0
41
1
10
112.849358314533
20
4.43041856728686
30
0
41
1
10
112.839153433807
20
4.42811513804702
30
0
41
1
10
112.83154067918
20
4.4268037732476
30
0
41
1
10
112.826492883973
20
4.42613459471346
30
0
41
1
10
112.821830449964
20
4.42569746270291
30
0
41
1
10
112.819372434238
20
4.42552319103734
30
0
41
1
10
112.817543396853
20
4.4254176140567
30
0
41
1
10
112.81633164422
20
4.42535977591001
30
0
41
1
10
112.81508855829
20
4.4253085800753
30
0
41
1
10
112.814290461767
20
4.4252781202679
30
0
41
1
10
112.813306393856
20
4.42524184529285
30
0
41
1
10
112.812292466531
20
4.42520589350192
30
0
41
1
10
112.811089091878
20
4.42516422035624
30
0
41
1
10
112.810226641937
20
4.42513453200101
30
0
41
1
10
112.809197010094
20
4.42509890752305
30
0
41
1
10
112.807832621257
20
4.42505141068489
30
0
41
1
10
112.805292454426
20
4.42496235938188
30
0
41
1
10
112.792467099663
20
4.42451117918787
30
0
41
1
10
112.769453906113
20
4.42370378585628
30
0
41
1
10
112.74232469832
20
4.42275389534586
30
0
41
1
10
112.724701007726
20
4.42213646951686
30
0
41
1
10
112.716568481462
20
4.42185150418271
30
0
41
1
10
112.713180155693
20
4.42173276869298
30
0
41
1
10
112.71046961881
20
4.42163778033731
30
0
41
1
10
112.708775582235
20
4.42157841262926
30
0
41
1
10
112.707420380814
20
4.42153091847098
30
0
41
1
10
112.706403993282
20
4.42149529785621
30
0
41
1
10
112.705557014627
20
4.42146561401375
30
0
41
1
10
112.704879438083
20
4.42144186694165
30
0
41
1
10
112.701830362486
20
4.4213350051227
30
0
41
1
10
112.69624067978
20
4.42113909187233
30
0
41
1
10
112.685400874898
20
4.42075913913288
30
0
41
1
10
112.67185210865
20
4.42028419849731
30
0
41
1
10
112.655593589151
20
4.41971426973464
30
0
41
1
10
112.639673788809
20
4.41915621448783
30
0
41
1
10
112.626633101295
20
4.4186990841261
30
0
41
1
10
112.616471526608
20
4.41834287864941
30
0
41
1
10
112.611052020109
20
4.41815290239518
30
0
41
1
10
112.607834188125
20
4.41804010399423
30
0
41
1
10
112.605801873188
20
4.4179688628989
30
0
41
1
10
112.603430839094
20
4.41788574828769
30
0
41
1
10
112.600721085844
20
4.41779076016056
30
0
41
1
10
112.598011332595
20
4.41769577203345
30
0
41
1
10
112.594624141032
20
4.41757703687455
30
0
41
1
10
112.586494881283
20
4.41729207249321
30
0
41
1
10
112.577010744909
20
4.41695961404832
30
0
41
1
10
112.566171731911
20
4.41657966153986
30
0
41
1
10
112.559397348786
20
4.41634219122207
30
0
41
1
10
112.553977842287
20
4.41615221496784
30
0
41
1
10
112.549913212412
20
4.41600973277716
30
0
41
1
10
112.545848582538
20
4.4158672505865
30
0
41
1
10
112.542800110132
20
4.41576038894348
30
0
41
1
10
112.540767795194
20
4.41568914784815
30
0
41
1
10
112.539893476372
20
4.41565849933528
30
0
41
1
10
112.529054463373
20
4.41527854682681
30
0
41
1
10
112.508053875688
20
4.41454238884168
30
0
41
1
10
112.465572142514
20
4.41305322732072
30
0
41
1
10
112.259969614692
20
4.40584600317592
30
0
41
1
10
111.891443172729
20
4.39292761788835
30
0
41
1
10
111.371170548782
20
4.37468989748234
30
0
41
1
10
111.024322132817
20
4.3625314172117
30
0
41
1
10
110.850897924835
20
4.35645217707636
30
0
0
SPLINE
5
1E9
100
AcDbEntity
8
1
62
256
6
ByLayer
370
-1
48
1
60
0
100
AcDbSpline
70
4
71
3
72
14
73
10
40
0
40
0
40
0
40
0
40
0.0050966481374819
40
0.0240065217780322
40
0.0435263913424716
40
0.0630462609069109
40
0.375364173937941
40
0.68768208696897
40
1
40
1
40
1
40
1
41
1
10
112.945696019678
20
9.49510649373153
30
0
41
1
10
112.941867010217
20
9.49497224009235
30
0
41
1
10
112.923831396701
20
9.49433990205179
30
0
41
1
10
112.891130930903
20
9.49319361465373
30
0
41
1
10
112.847594601058
20
9.49166748513116
30
0
41
1
10
112.583626959056
20
9.48241432086789
30
0
41
1
10
112.099686282053
20
9.46545018638525
30
0
41
1
10
111.395772570047
20
9.4407750816832
30
0
41
1
10
110.926496762043
20
9.42432501188185
30
0
41
1
10
110.691858858041
20
9.41609997698117
30
0
0
SPLINE
5
1EA
100
AcDbEntity
8
1
62
256
6
ByLayer
370
-1
48
1
60
0
100
AcDbSpline
70
4
71
3
72
153
73
149
40
0
40
0
40
0
40
0
40
0.125
40
0.25
40
0.375
40
0.3828125
40
0.390625
40
0.398193359375
40
0.4019775390625
40
0.405643463134766
40
0.40576171875
40
0.406005859375
40
0.40625
40
0.4072265625
40
0.40771484375
40
0.408203125
40
0.4091796875
40
0.41015625
40
0.412109375
40
0.4140625
40
0.416015625
40
0.4169921875
40
0.41796875
40
0.4189453125
40
0.41943359375
40
0.419921875
40
0.42041015625
40
0.4208984375
40
0.421875
40
0.422119140625
40
0.42236328125
40
0.422477722167969
40
0.426025390625
40
0.4296875
40
0.4375
40
0.439453125
40
0.44140625
40
0.443359375
40
0.4443359375
40
0.4453125
40
0.445556640625
40
0.44580078125
40
0.446044921875
40
0.4462890625
40
0.4464111328125
40
0.44677734375
40
0.447265625
40
0.44921875
40
0.453125
40
0.4609375
40
0.46484375
40
0.46875
40
0.46923828125
40
0.4697265625
40
0.47021484375
40
0.4705810546875
40
0.470703125
40
0.4708251953125
40
0.47119140625
40
0.471435546875
40
0.4716796875
40
0.4718017578125
40
0.47216796875
40
0.472412109375
40
0.47265625
40
0.4727783203125
40
0.474609375
40
0.4755859375
40
0.4765625
40
0.48046875
40
0.482421875
40
0.484375
40
0.486328125
40
0.48828125
40
0.490234375
40
0.4921875
40
0.494140625
40
0.49609375
40
0.498046875
40
0.5
40
0.501953125
40
0.50390625
40
0.505859375
40
0.5078125
40
0.509765625
40
0.51171875
40
0.515625
40
0.51953125
40
0.5224609375
40
0.5234375
40
0.525390625
40
0.5263671875
40
0.527099609375
40
0.52734375
40
0.52783203125
40
0.528076171875
40
0.5283203125
40
0.5284423828125
40
0.52880859375
40
0.529052734375
40
0.529296875
40
0.5294189453125
40
0.52978515625
40
0.5302734375
40
0.53125
40
0.5390625
40
0.546875
40
0.55078125
40
0.5517578125
40
0.552734375
40
0.55322265625
40
0.5537109375
40
0.553955078125
40
0.55419921875
40
0.554443359375
40
0.5545654296875
40
0.5546875
40
0.556640625
40
0.55859375
40
0.5625
40
0.56640625
40
0.5703125
40
0.573974609375
40
0.5758056640625
40
0.57763671875
40
0.577880859375
40
0.578125
40
0.5791015625
40
0.57958984375
40
0.580078125
40
0.5810546875
40
0.58203125
40
0.5859375
40
0.587890625
40
0.58984375
40
0.5908203125
40
0.591796875
40
0.5927734375
40
0.59375
40
0.593994140625
40
0.59423828125
40
0.594380187988281
40
0.601806640625
40
0.609375
40
0.625
40
0.75
40
0.875
40
1
40
1
40
1
40
1
41
1
10
110.850897924835
20
4.35645217707636
30
0
41
1
10
110.677473716853
20
4.35037293694103
30
0
41
1
10
110.330625300888
20
4.33821445667039
30
0
41
1
10
109.810352676941
20
4.31997673626441
30
0
41
1
10
109.452665247977
20
4.30743830348527
30
0
41
1
10
109.257563013997
20
4.30059915833303
30
0
41
1
10
109.225384694157
20
4.29947117432354
30
0
41
1
10
109.198795240394
20
4.29853910332625
30
0
41
1
10
109.1779587198
20
4.2978086965754
30
0
41
1
10
109.167458425957
20
4.29744061758282
30
0
41
1
10
109.16186955988
20
4.29724470457066
30
0
41
1
10
109.161028054476
20
4.2972152063046
30
0
41
1
10
109.158995739538
20
4.29714396520927
30
0
41
1
10
109.156624705445
20
4.29706085059806
30
0
41
1
10
109.153914952195
20
4.29696586247093
30
0
41
1
10
109.151205198946
20
4.29687087434382
30
0
41
1
10
109.147818007383
20
4.29675213918492
30
0
41
1
10
109.142398500884
20
4.29656216293071
30
0
41
1
10
109.13562411776
20
4.2963246926129
30
0
41
1
10
109.12749485801
20
4.29603972823156
30
0
41
1
10
109.120720474886
20
4.29580225791378
30
0
41
1
10
109.115300968387
20
4.29561228165954
30
0
41
1
10
109.111236338512
20
4.29546979946889
30
0
41
1
10
109.10784914695
20
4.29535106430998
30
0
41
1
10
109.1051393937
20
4.29525607618288
30
0
41
1
10
109.103107078763
20
4.29518483508753
30
0
41
1
10
109.101074763826
20
4.2951135939922
30
0
41
1
10
109.098365010576
20
4.2950186058651
30
0
41
1
10
109.095993976482
20
4.29493549125385
30
0
41
1
10
109.093961661545
20
4.29486425015852
30
0
41
1
10
109.093125448628
20
4.29483493741617
30
0
41
1
10
109.087705942129
20
4.29464496116194
30
0
41
1
10
109.077544367442
20
4.29428875568527
30
0
41
1
10
109.056702554361
20
4.29355816341069
30
0
41
1
10
109.03807300077
20
4.29290512003678
30
0
41
1
10
109.021814481271
20
4.2923351912741
30
0
41
1
10
109.01368502403
20
4.29205021308789
30
0
41
1
10
109.006910147174
20
4.29181270825791
30
0
41
1
10
109.001489949452
20
4.2916226836866
30
0
41
1
10
108.998440958628
20
4.29151578580579
30
0
41
1
10
108.996408236363
20
4.2914445162379
30
0
41
1
10
108.995391862501
20
4.29140888056418
30
0
41
1
10
108.994375475525
20
4.29137324397374
30
0
41
1
10
108.993528475128
20
4.29134354602863
30
0
41
1
10
108.992512064236
20
4.29130790776651
30
0
41
1
10
108.991156830942
20
4.29126038877146
30
0
41
1
10
108.987260436893
20
4.29112376478756
30
0
41
1
10
108.978450529581
20
4.29081482904519
30
0
41
1
10
108.95947119726
20
4.29014913908227
30
0
41
1
10
108.93776789224
20
4.28938746704108
30
0
41
1
10
108.916097425165
20
4.28862809039907
30
0
41
1
10
108.904604672938
20
4.28822604744408
30
0
41
1
10
108.897853408038
20
4.28799019310898
30
0
41
1
10
108.895825981037
20
4.28791929368435
30
0
41
1
10
108.893963191626
20
4.28785400094688
30
0
41
1
10
108.892598825767
20
4.28780584357816
30
0
41
1
10
108.891740826356
20
4.28777537679306
30
0
41
1
10
108.890879885132
20
4.28774470437281
30
0
41
1
10
108.889844955965
20
4.2877078191963
30
0
41
1
10
108.888657929399
20
4.28766648907157
30
0
41
1
10
108.887830472921
20
4.28763863254437
30
0
41
1
10
108.886863793802
20
4.28760732608134
30
0
41
1
10
108.885927232763
20
4.28757924351058
30
0
41
1
10
108.88485703319
20
4.28755291189333
30
0
41
1
10
108.884097258345
20
4.28753843766972
30
0
41
1
10
108.881352552565
20
4.28749981176318
30
0
41
1
10
108.877626738519
20
4.28754434810062
30
0
41
1
10
108.87273211233
20
4.2877849435975
30
0
41
1
10
108.865088331916
20
4.28835739828506
30
0
41
1
10
108.856049377223
20
4.28961631960689
30
0
41
1
10
108.845660007996
20
4.29192193867072
30
0
41
1
10
108.837865187624
20
4.29409864355529
30
0
41
1
10
108.830094347991
20
4.29673690369381
30
0
41
1
10
108.822392005565
20
4.29983628907232
30
0
41
1
10
108.814802676812
20
4.30339636967676
30
0
41
1
10
108.807365711592
20
4.3074101761066
30
0
41
1
10
108.800120459763
20
4.31187073896123
30
0
41
1
10
108.793105424448
20
4.31676141618118
30
0
41
1
10
108.786359108773
20
4.32206556570699
30
0
41
1
10
108.779915699716
20
4.32775788611229
30
0
41
1
10
108.773809384255
20
4.33381307597074
30
0
41
1
10
108.768067690902
20
4.34019866624891
30
0
41
1
10
108.762718148168
20
4.34688218791328
30
0
41
1
10
108.757779980242
20
4.35382624580581
30
0
41
1
10
108.753272411313
20
4.36099344476838
30
0
41
1
10
108.747849345903
20
4.37079534109483
30
0
41
1
10
108.742195366006
20
4.383410975239
30
0
41
1
10
108.737651676925
20
4.39749427675537
30
0
41
1
10
108.735357012929
20
4.40773813846724
30
0
41
1
10
108.734050638268
20
4.41537997258021
30
0
41
1
10
108.733384006161
20
4.42044704954571
30
0
41
1
10
108.732948537569
20
4.42512729329454
30
0
41
1
10
108.73277492906
20
4.42759469824114
30
0
41
1
10
108.732669753832
20
4.42943072225216
30
0
41
1
10
108.732612135777
20
4.43064710358303
30
0
41
1
10
108.732561134758
20
4.43189493790001
30
0
41
1
10
108.732530790859
20
4.43269608302205
30
0
41
1
10
108.732494653921
20
4.43368390991174
30
0
41
1
10
108.732458838938
20
4.43470171027474
30
0
41
1
10
108.732417324371
20
4.43590968162377
30
0
41
1
10
108.732387748989
20
4.43677542598357
30
0
41
1
10
108.732352260073
20
4.43780899085257
30
0
41
1
10
108.732304943974
20
4.43917859143355
30
0
41
1
10
108.732216231538
20
4.44172846128848
30
0
41
1
10
108.731766768221
20
4.45460280682352
30
0
41
1
10
108.730962447265
20
4.47770390703374
30
0
41
1
10
108.730016171375
20
4.50493674399354
30
0
41
1
10
108.729401095037
20
4.52262775422295
30
0
41
1
10
108.729117214082
20
4.53079134541619
30
0
41
1
10
108.728998930417
20
4.53419261403889
30
0
41
1
10
108.728904303521
20
4.53691350473278
30
0
41
1
10
108.728845161725
20
4.53861401225228
30
0
41
1
10
108.728797848296
20
4.53997439032193
30
0
41
1
10
108.728762363228
20
4.54099466028933
30
0
41
1
10
108.728732792342
20
4.54184487426488
30
0
41
1
10
108.728709135635
20
4.54252503904107
30
0
41
1
10
108.728602680457
20
4.54558576161213
30
0
41
1
10
108.728407512716
20
4.55119679599827
30
0
41
1
10
108.728029005811
20
4.5620780071732
30
0
41
1
10
108.727555872468
20
4.57567852750782
30
0
41
1
10
108.726988112457
20
4.59199915190933
30
0
41
1
10
108.726432180779
20
4.6079797633025
30
0
41
1
10
108.725976789936
20
4.62107026412454
30
0
41
1
10
108.725621939929
20
4.6312706543755
30
0
41
1
10
108.725432686591
20
4.63671086250935
30
0
41
1
10
108.725320317422
20
4.63994098608882
30
0
41
1
10
108.725249347421
20
4.641981064139
30
0
41
1
10
108.725166549086
20
4.64436115519757
30
0
41
1
10
108.725071922417
20
4.6470812592645
30
0
41
1
10
108.724977295749
20
4.64980136333139
30
0
41
1
10
108.724859012413
20
4.65320149341505
30
0
41
1
10
108.724575132407
20
4.66136180561583
30
0
41
1
10
108.724243939067
20
4.67088216985005
30
0
41
1
10
108.723865432392
20
4.68176258611771
30
0
41
1
10
108.723628865721
20
4.68856284628504
30
0
41
1
10
108.723439612384
20
4.69400305441886
30
0
41
1
10
108.723297672381
20
4.69808321051926
30
0
41
1
10
108.723155732378
20
4.70216336661963
30
0
41
1
10
108.723049277376
20
4.70522348369491
30
0
41
1
10
108.722978307374
20
4.70726356174509
30
0
41
1
10
108.722947775488
20
4.70814122032294
30
0
41
1
10
108.722569268814
20
4.71902163659064
30
0
41
1
10
108.721835912132
20
4.74010244310927
30
0
41
1
10
108.72035241732
20
4.78274644960214
30
0
41
1
10
108.713172618839
20
4.98913434567976
30
0
41
1
10
108.700303391908
20
5.35906849878097
30
0
41
1
10
108.682135071534
20
5.88132847962976
30
0
41
1
10
108.670022857951
20
6.22950180019561
30
0
41
1
10
108.66396675116
20
6.40358846047852
30
0
0
SPLINE
5
1EB
100
AcDbEntity
8
1
62
256
6
ByLayer
370
-1
48
1
60
0
100
AcDbSpline
70
4
71
3
72
14
73
10
40
0
40
0
40
0
40
0
40
0.005096648137471
40
0.0240065217780215
40
0.0435263913424611
40
0.0630462609069007
40
0.375364173937934
40
0.687682086968967
40
1
40
1
40
1
40
1
41
1
10
113.800042317878
20
4.31782880156524
30
0
41
1
10
113.799908575115
20
4.32167243721983
30
0
41
1
10
113.799278643311
20
4.33977694384987
30
0
41
1
10
113.798136717883
20
4.37260232011539
30
0
41
1
10
113.796616395744
20
4.41630495166672
30
0
41
1
10
113.787398442564
20
4.68128090717795
30
0
41
1
10
113.770498861735
20
5.16707015894855
30
0
41
1
10
113.745917653256
20
5.87367270697848
30
0
41
1
10
113.729530180936
20
6.34474107233177
30
0
41
1
10
113.721336444777
20
6.58027525500842
30
0
0
SPLINE
5
1EC
100
AcDbEntity
8
1
62
256
6
ByLayer
370
-1
48
1
60
0
100
AcDbSpline
70
4
71
3
72
19
73
15
40
0
40
0
40
0
40
0
40
0.0403657336154786
40
0.106300330648536
40
0.172234927681592
40
0.238169524714649
40
0.370038718780763
40
0.501907912846877
40
0.765646300979105
40
0.831580898012162
40
0.897515495045219
40
0.930482793561747
40
0.963450092078275
40
1
40
1
40
1
40
1
41
1
10
107.946790236508
20
4.07645155165824
30
0
41
1
10
107.946830932532
20
4.07532528094521
30
0
41
1
10
107.946940947019
20
4.07235966468224
30
0
41
1
10
107.947140157802
20
4.06755604241332
30
0
41
1
10
107.947411829602
20
4.06203981221503
30
0
41
1
10
107.947827328093
20
4.05468639460977
30
0
41
1
10
107.948439242809
20
4.04549919205758
30
0
41
1
10
107.949619206725
20
4.03081353901507
30
0
41
1
10
107.950919922138
20
4.01798720961347
30
0
41
1
10
107.952218323432
20
4.00701662561409
30
0
41
1
10
107.952792413352
20
4.00245040212977
30
0
41
1
10
107.953273042309
20
3.99880090589772
30
0
41
1
10
107.953655785842
20
3.99596592225174
30
0
41
1
10
107.953920673925
20
3.99404344985371
30
0
41
1
10
107.954060817841
20
3.99303272755907
30
0
0
SPLINE
5
1ED
100
AcDbEntity
8
1
62
256
6
ByLayer
370
-1
48
1
60
0
100
AcDbSpline
70
4
71
3
72
22
73
18
40
0
40
0
40
0
40
0
40
0.0178234039225185
40
0.0278216291116336
40
0.0378198543007488
40
0.112806543219112
40
0.187793232137476
40
0.337766609974203
40
0.497738213000046
40
0.657709816025888
40
0.81768141905173
40
0.897667220564651
40
0.977653022077573
40
0.98265213467213
40
0.987651247266688
40
0.997649472455803
40
1
40
1
40
1
40
1
41
1
10
107.954060817841
20
3.99303272755907
30
0
41
1
10
107.954173488041
20
3.99222014656792
30
0
41
1
10
107.954350243872
20
3.990951791985
30
0
41
1
10
107.954591391393
20
3.98922756792245
30
0
41
1
10
107.955197806155
20
3.98489718811817
30
0
41
1
10
107.956219073091
20
3.97760392139699
30
0
41
1
10
107.958133791787
20
3.9639290575318
30
0
41
1
10
107.960590812876
20
3.94637966332562
30
0
41
1
10
107.963590293166
20
3.92495572754146
30
0
41
1
10
107.966653592186
20
3.90307596333634
30
0
41
1
10
107.969206341369
20
3.88484282649876
30
0
41
1
10
107.971257312588
20
3.87020557343831
30
0
41
1
10
107.972306837243
20
3.86270456097455
30
0
41
1
10
107.972873790837
20
3.85864499937733
30
0
41
1
10
107.972999481372
20
3.85774568473383
30
0
41
1
10
107.973107932873
20
3.85697171535034
30
0
41
1
10
107.973184549235
20
3.85642744500171
30
0
41
1
10
107.973199116269
20
3.85632407468913
30
0
0
SPLINE
5
1EE
100
AcDbEntity
8
1
62
256
6
ByLayer
370
-1
48
1
60
0
100
AcDbSpline
70
4
71
3
72
8
73
4
40
0
40
0
40
0
40
0
40
1
40
1
40
1
40
1
41
1
10
112.94569602474
20
9.49510634824674
30
0
41
1
10
112.957700890723
20
9.4955271687536
30
0
41
1
10
112.969706519512
20
9.49592606190785
30
0
41
1
10
112.981712831609
20
9.49630302506816
30
0
0
SPLINE
5
1EF
100
AcDbEntity
8
1
62
256
6
ByLayer
370
-1
48
1
60
0
100
AcDbSpline
70
4
71
3
72
13
73
9
40
0
40
0
40
0
40
0
40
0.312317913031034
40
0.624635826062067
40
0.936953739093101
40
0.97599347822198
40
0.994903351862531
40
1
40
1
40
1
40
1
41
1
10
113.721336444777
20
6.58027525500842
30
0
41
1
10
113.713142708617
20
6.81580943768506
30
0
41
1
10
113.696755236298
20
7.28687780303835
30
0
41
1
10
113.672174027819
20
7.99348035106828
30
0
41
1
10
113.65476233848
20
8.49399048925616
30
0
41
1
10
113.645048280181
20
8.77322730348413
30
0
41
1
10
113.643394246242
20
8.82077356616696
30
0
41
1
10
113.642764542763
20
8.8388780808007
30
0
41
1
10
113.642630861538
20
8.84272171861244
30
0
0
SPLINE
5
1F0
100
AcDbEntity
8
1
62
256
6
ByLayer
370
-1
48
1
60
0
100
AcDbSpline
70
4
71
3
72
22
73
18
40
0
40
0
40
0
40
0
40
0.0023505275440161
40
0.012348752733134
40
0.022346977922252
40
0.062339878678724
40
0.102332779435187
40
0.18231858094814
40
0.262304382461079
40
0.342290183974028
40
0.662233390025803
40
0.812206767862573
40
0.95749347764193
40
0.962180145699343
40
0.972178370888456
40
0.982176596077579
40
1
40
1
40
1
40
1
41
1
10
113.790250631457
20
4.06023593596748
30
0
41
1
10
113.790257979698
20
4.0603400745016
30
0
41
1
10
113.79029658752
20
4.06088838393737
30
0
41
1
10
113.790366668265
20
4.06189274092986
30
0
41
1
10
113.790555519078
20
4.06461772617229
30
0
41
1
10
113.790840727193
20
4.06872415002124
30
0
41
1
10
113.791351667538
20
4.07606274242906
30
0
41
1
10
113.791994678398
20
4.0852785002204
30
0
41
1
10
113.792763679288
20
4.09631179246313
30
0
41
1
10
113.79429906893
20
4.11835275984168
30
0
41
1
10
113.796058369562
20
4.14360803496297
30
0
41
1
10
113.798026587143
20
4.17186237400489
30
0
41
1
10
113.798986409955
20
4.18563800774069
30
0
41
1
10
113.799498424407
20
4.19298502793271
30
0
41
1
10
113.799577428309
20
4.1941186504273
30
0
41
1
10
113.799698170302
20
4.19585556022324
30
0
41
1
10
113.799786356299
20
4.19713320211966
30
0
41
1
10
113.79984228495
20
4.19795169320207
30
0
0
SPLINE
5
1F1
100
AcDbEntity
8
1
62
256
6
ByLayer
370
-1
48
1
60
0
100
AcDbSpline
70
4
71
3
72
22
73
18
40
0
40
0
40
0
40
0
40
0.0023505275439842
40
0.0123487527331021
40
0.02234697792222
40
0.0623398786786914
40
0.102332779435154
40
0.182318580948106
40
0.262304382461044
40
0.342290183973992
40
0.662233390025764
40
0.812206767862532
40
0.957493477641887
40
0.9621801456993
40
0.972178370888413
40
0.982176596077536
40
1
40
1
40
1
40
1
41
1
10
108.385853083419
20
3.47004812837221
30
0
41
1
10
108.385956825674
20
3.47004075206314
30
0
41
1
10
108.386503048627
20
3.47000199676523
30
0
41
1
10
108.387503583738
20
3.46993164832273
30
0
41
1
10
108.390218199589
20
3.46974207613047
30
0
41
1
10
108.394308997255
20
3.46945577856738
30
0
41
1
10
108.401619664104
20
3.46894288651239
30
0
41
1
10
108.410800353154
20
3.46829741945629
30
0
41
1
10
108.421791660389
20
3.46752548110686
30
0
41
1
10
108.443748755232
20
3.46598422652593
30
0
41
1
10
108.468907926407
20
3.46421820565195
30
0
41
1
10
108.497054749159
20
3.46224246979918
30
0
41
1
10
108.510777962449
20
3.46127898062025
30
0
41
1
10
108.518097025011
20
3.46076501035634
30
0
41
1
10
108.51922633373
20
3.46068570467219
30
0
41
1
10
108.52095663406
20
3.46056450146392
30
0
41
1
10
108.522229414143
20
3.46047597861082
30
0
41
1
10
108.52304479062
20
3.46041983632159
30
0
0
SPLINE
5
1F2
100
AcDbEntity
8
1
62
256
6
ByLayer
370
-1
48
1
60
0
100
AcDbSpline
70
4
71
3
72
79
73
75
40
0
40
0
40
0
40
0
40
0.001724586491603
40
0.0039792263717305
40
0.0084885061319855
40
0.0129977858922405
40
0.0220163454127505
40
0.0310349049332605
40
0.0671091430153003
40
0.13925761917938
40
0.21140609534346
40
0.22042465486397
40
0.224933934624225
40
0.228315894444416
40
0.22944321438448
40
0.231697854264607
40
0.233952494144735
40
0.237334453964926
40
0.23846177390499
40
0.240716413785117
40
0.242971053665245
40
0.2474803334255
40
0.249734973305627
40
0.25649889294601
40
0.26551745246652
40
0.28355457150754
40
0.29257313102805
40
0.31962880958958
40
0.355703047671619
40
0.391777285753659
40
0.409814404794679
40
0.427851523835699
40
0.445888642876719
40
0.463925761917739
40
0.481962880958759
40
0.499999999999779
40
0.518037119040799
40
0.536074238081819
40
0.554111357122838
40
0.572148476163859
40
0.590185595204878
40
0.608222714245899
40
0.626259833286918
40
0.644296952327939
40
0.662334071368959
40
0.68037119040998
40
0.716445428492018
40
0.725463988012527
40
0.734482547533039
40
0.751392346633993
40
0.752519666574058
40
0.754774306454186
40
0.757028946334313
40
0.760410906154508
40
0.761538226094568
40
0.763792865974698
40
0.766047505854822
40
0.769429465675016
40
0.770556785615078
40
0.771684105555141
40
0.775066065375334
40
0.779575345135588
40
0.784084624895843
40
0.788593904656098
40
0.824668142738138
40
0.860742380820178
40
0.932890856984258
40
0.968965095066298
40
0.987002214107318
40
0.991511493867574
40
0.994893453687763
40
0.996020773627827
40
0.998275413507955
40
1
40
1
40
1
40
1
41
1
10
108.182717168335
20
9.30931983532952
30
0
41
1
10
108.182382121577
20
9.30927225885341
30
0
41
1
10
108.181614623568
20
9.30916288861033
30
0
41
1
10
108.179999958247
20
9.30892977558153
30
0
41
1
10
108.177892183693
20
9.30861532160768
30
0
41
1
10
108.17454976984
20
9.30809596701926
30
0
41
1
10
108.170337991451
20
9.30740538651835
30
0
41
1
10
108.160173822253
20
9.3056204822268
30
0
41
1
10
108.138131052743
20
9.30108919872671
30
0
41
1
10
108.103987937314
20
9.29154927592089
30
0
41
1
10
108.075182301497
20
9.28041520156981
30
0
41
1
10
108.059294205613
20
9.27322980424393
30
0
41
1
10
108.05616589186
20
9.27178001175278
30
0
41
1
10
108.054499885038
20
9.27099696192633
30
0
41
1
10
108.053251450843
20
9.27040546637974
30
0
41
1
10
108.052211764736
20
9.26990992403566
30
0
41
1
10
108.05075748941
20
9.26921125925711
30
0
41
1
10
108.049512370314
20
9.26860715073079
30
0
41
1
10
108.048268404006
20
9.26799884326817
30
0
41
1
10
108.047232492306
20
9.26748929676936
30
0
41
1
10
108.045576611573
20
9.26666842840979
30
0
41
1
10
108.043923138754
20
9.26583917372818
30
0
41
1
10
108.0414466642
20
9.26458272608343
30
0
41
1
10
108.038151446707
20
9.26288513599354
30
0
41
1
10
108.031996132207
20
9.25962901681942
30
0
41
1
10
108.025475539516
20
9.25602238111833
30
0
41
1
10
108.015770124019
20
9.25041315177802
30
0
41
1
10
108.002970644565
20
9.2425821411837
30
0
41
1
10
107.985760625696
20
9.23098350713445
30
0
41
1
10
107.970588579173
20
9.21959822275312
30
0
41
1
10
107.9587736583
20
9.21000727530307
30
0
41
1
10
107.950083491129
20
9.20257818549817
30
0
41
1
10
107.941574012752
20
9.19491869723106
30
0
41
1
10
107.933253671698
20
9.18703621697844
30
0
41
1
10
107.925130916499
20
9.17893815121698
30
0
41
1
10
107.917214195686
20
9.17063190642344
30
0
41
1
10
107.909511957789
20
9.16212488907445
30
0
41
1
10
107.902030973788
20
9.15342607596375
30
0
41
1
10
107.894778014664
20
9.14454444388497
30
0
41
1
10
107.887759851396
20
9.13548896963178
30
0
41
1
10
107.880983254964
20
9.1262686299979
30
0
41
1
10
107.874452997749
20
9.11689348589729
30
0
41
1
10
107.868173852133
20
9.10737359824401
30
0
41
1
10
107.862150590497
20
9.09771902795211
30
0
41
1
10
107.856387985222
20
9.0879398359356
30
0
41
1
10
107.849055522849
20
9.07474887974121
30
0
41
1
10
107.843104874375
20
9.06302579313669
30
0
41
1
10
107.838343149662
20
9.0528746390109
30
0
41
1
10
107.835355472246
20
9.04629383773755
30
0
41
1
10
107.833140005327
20
9.04117327129984
30
0
41
1
10
107.831529391255
20
9.0373212694353
30
0
41
1
10
107.831084654255
20
9.03625067240185
30
0
41
1
10
107.830466980958
20
9.03475074715854
30
0
41
1
10
107.82994286047
20
9.03346395555999
30
0
41
1
10
107.829422992297
20
9.03217628183398
30
0
41
1
10
107.828992426788
20
9.03110267552117
30
0
41
1
10
107.828394597629
20
9.02959863368326
30
0
41
1
10
107.827887490741
20
9.02830841685702
30
0
41
1
10
107.827468448158
20
9.027232569917
30
0
41
1
10
107.827051178999
20
9.02615639415461
30
0
41
1
10
107.826389223886
20
9.02443347447428
30
0
41
1
10
107.825492696552
20
9.02206206052705
30
0
41
1
10
107.824531705506
20
9.0194722373017
30
0
41
1
10
107.821385221073
20
9.01083062341442
30
0
41
1
10
107.816471040386
20
8.99607623972108
30
0
41
1
10
107.808659305309
20
8.96819555562934
30
0
41
1
10
107.802980291835
20
8.94031114015314
30
0
41
1
10
107.799786763951
20
8.91619974194236
30
0
41
1
10
107.798699112368
20
8.90504521337397
30
0
41
1
10
107.798292353091
20
8.90018181072907
30
0
41
1
10
107.798158843537
20
8.89847753349457
30
0
41
1
10
107.798061782251
20
8.89718707928799
30
0
41
1
10
107.797990177609
20
8.89620460541983
30
0
41
1
10
107.797935026914
20
8.89542842313901
30
0
41
1
10
107.797911118614
20
8.89508959706384
30
0
0
SPLINE
5
1F3
100
AcDbEntity
8
1
62
256
6
ByLayer
370
-1
48
1
60
0
100
AcDbSpline
70
4
71
3
72
22
73
18
40
0
40
0
40
0
40
0
40
0.002350527544041
40
0.0123487527331588
40
0.0223469779222765
40
0.0623398786787476
40
0.10233277943521
40
0.182318580948161
40
0.262304382461098
40
0.342290183974045
40
0.662233390025813
40
0.81220676786258
40
0.957493477641933
40
0.962180145699346
40
0.972178370888459
40
0.982176596077581
40
1
40
1
40
1
40
1
41
1
10
107.797911118614
20
8.89508959706407
30
0
41
1
10
107.797903770374
20
8.89498545852996
30
0
41
1
10
107.797865162552
20
8.89443714909419
30
0
41
1
10
107.797795081806
20
8.89343279210169
30
0
41
1
10
107.797606230993
20
8.89070780685927
30
0
41
1
10
107.797321022879
20
8.88660138301032
30
0
41
1
10
107.796810082533
20
8.8792627906025
30
0
41
1
10
107.796167071674
20
8.87004703281116
30
0
41
1
10
107.795398070783
20
8.85901374056843
30
0
41
1
10
107.793862681141
20
8.83697277318987
30
0
41
1
10
107.79210338051
20
8.81171749806859
30
0
41
1
10
107.790135162928
20
8.78346315902667
30
0
41
1
10
107.789175340117
20
8.76968752529086
30
0
41
1
10
107.788663325665
20
8.76234050509885
30
0
41
1
10
107.788584321763
20
8.76120688260426
30
0
41
1
10
107.788463579769
20
8.75946997280832
30
0
41
1
10
107.788375393772
20
8.7581923309119
30
0
41
1
10
107.788319465122
20
8.75737383982948
30
0
0
SPLINE
5
1F4
100
AcDbEntity
8
1
62
256
6
ByLayer
370
-1
48
1
60
0
100
AcDbSpline
70
4
71
3
72
22
73
18
40
0
40
0
40
0
40
0
40
0.0178234039224326
40
0.0278216291115481
40
0.0378198543006636
40
0.11280654321903
40
0.187793232137395
40
0.337766609974128
40
0.497738212999975
40
0.657709816025822
40
0.81768141905167
40
0.897667220564593
40
0.977653022077517
40
0.982652134672075
40
0.987651247266633
40
0.997649472455748
40
1
40
1
40
1
40
1
41
1
10
108.318905603508
20
9.32853123894833
30
0
41
1
10
108.318096114632
20
9.3284181383672
30
0
41
1
10
108.316832586522
20
9.32824070735794
30
0
41
1
10
108.315114923652
20
9.32799863869198
30
0
41
1
10
108.31080102225
20
9.32738990752475
30
0
41
1
10
108.303535508611
20
9.32636473951479
30
0
41
1
10
108.289912681731
20
9.32444270690405
30
0
41
1
10
108.272430068269
20
9.3219763003938
30
0
41
1
10
108.251087657028
20
9.31896536257608
30
0
41
1
10
108.229291151931
20
9.31589036225159
30
0
41
1
10
108.211127397684
20
9.31332786198121
30
0
41
1
10
108.196545843791
20
9.3112690563857
30
0
41
1
10
108.189073374944
20
9.31021552271645
30
0
41
1
10
108.185029261204
20
9.30964640345272
30
0
41
1
10
108.184133368725
20
9.3095202327996
30
0
41
1
10
108.183362344528
20
9.30941136703194
30
0
41
1
10
108.182820145293
20
9.30933445800719
30
0
41
1
10
108.182717168335
20
9.30931983532952
30
0
0
SPLINE
5
1F5
100
AcDbEntity
8
1
62
256
6
ByLayer
370
-1
48
1
60
0
100
AcDbSpline
70
4
71
3
72
23
73
19
40
0
40
0
40
0
40
0
40
0.0365499079217219
40
0.0695172064382446
40
0.102484504954767
40
0.13545180347129
40
0.168419101987812
40
0.234353699020858
40
0.300288296053888
40
0.366222893086948
40
0.498092087153039
40
0.629961281219122
40
0.76183047528522
40
0.827765072318262
40
0.893699669351311
40
0.926666967867834
40
0.959634266384356
40
1
40
1
40
1
40
1
41
1
10
113.065116959452
20
9.49490569670996
30
0
41
1
10
113.064102760015
20
9.49497552884242
30
0
41
1
10
113.062173790772
20
9.49510667614152
30
0
41
1
10
113.059329775854
20
9.4952921873244
30
0
41
1
10
113.056584566141
20
9.49546222254898
30
0
41
1
10
113.053838370897
20
9.49562144311952
30
0
41
1
10
113.050175617269
20
9.49581983276303
30
0
41
1
10
113.045595289181
20
9.49604271476295
30
0
41
1
10
113.040096802226
20
9.49627309560475
30
0
41
1
10
113.032763166472
20
9.49653032282836
30
0
41
1
10
113.023592655599
20
9.49675724863283
30
0
41
1
10
113.012585323771
20
9.49687512351045
30
0
41
1
10
113.003412690688
20
9.49684701250033
30
0
41
1
10
112.99607611574
20
9.49675013364634
30
0
41
1
10
112.991492112393
20
9.49665617736991
30
0
41
1
10
112.987826154029
20
9.49655952146904
30
0
41
1
10
112.984871343963
20
9.49647179544493
30
0
41
1
10
112.982832920483
20
9.49640508175619
30
0
41
1
10
112.981710829857
20
9.49636726904714
30
0
0
SPLINE
5
1F6
100
AcDbEntity
8
1
62
256
6
ByLayer
370
-1
48
1
60
0
100
AcDbSpline
70
4
71
3
72
8
73
4
40
0
40
0
40
0
40
0
40
1
40
1
40
1
40
1
41
1
10
107.788119577124
20
8.63749673654792
30
0
41
1
10
107.787700357967
20
8.64954745916862
30
0
41
1
10
107.787302982721
20
8.66159894750928
30
0
41
1
10
107.78692745402
20
8.6736511217677
30
0
0
SPLINE
5
1F7
100
AcDbEntity
8
1
62
256
6
ByLayer
370
-1
48
1
60
0
100
AcDbSpline
70
4
71
3
72
79
73
75
40
0
40
0
40
0
40
0
40
0.0017245864916112
40
0.0039792263717387
40
0.0084885061319936
40
0.0129977858922486
40
0.0220163454127585
40
0.0310349049332684
40
0.0671091430153079
40
0.139257619179387
40
0.211406095343466
40
0.220424654863976
40
0.224933934624231
40
0.228315894444422
40
0.229443214384486
40
0.231697854264613
40
0.233952494144741
40
0.237334453964932
40
0.238461773904996
40
0.240716413785123
40
0.242971053665251
40
0.247480333425506
40
0.249734973305633
40
0.256498892946016
40
0.265517452466525
40
0.283554571507545
40
0.292573131028055
40
0.319628809589585
40
0.355703047671624
40
0.391777285753664
40
0.409814404794684
40
0.427851523835703
40
0.445888642876723
40
0.463925761917743
40
0.481962880958763
40
0.499999999999782
40
0.518037119040803
40
0.536074238081822
40
0.554111357122841
40
0.572148476163862
40
0.59018559520488
40
0.608222714245902
40
0.62625983328692
40
0.644296952327941
40
0.662334071368961
40
0.680371190409982
40
0.71644542849202
40
0.725463988012528
40
0.73448254753304
40
0.751392346633995
40
0.75251966657406
40
0.754774306454187
40
0.757028946334315
40
0.760410906154508
40
0.76153822609457
40
0.763792865974699
40
0.766047505854823
40
0.769429465675018
40
0.770556785615079
40
0.771684105555141
40
0.775066065375336
40
0.779575345135589
40
0.784084624895844
40
0.788593904656099
40
0.824668142738139
40
0.860742380820178
40
0.932890856984257
40
0.968965095066297
40
0.987002214107317
40
0.991511493867572
40
0.994893453687761
40
0.996020773627827
40
0.998275413507954
40
1
40
1
40
1
40
1
41
1
10
113.405444581736
20
3.64600569770204
30
0
41
1
10
113.405779628495
20
3.64605327417814
30
0
41
1
10
113.406547126503
20
3.64616264442122
30
0
41
1
10
113.408161791824
20
3.64639575745002
30
0
41
1
10
113.410269566378
20
3.64671021142388
30
0
41
1
10
113.413611980231
20
3.6472295660123
30
0
41
1
10
113.417823758621
20
3.6479201465132
30
0
41
1
10
113.427987927819
20
3.64970505080476
30
0
41
1
10
113.450030697328
20
3.65423633430484
30
0
41
1
10
113.484173812757
20
3.66377625711067
30
0
41
1
10
113.512979448574
20
3.67491033146175
30
0
41
1
10
113.528867544458
20
3.68209572878763
30
0
41
1
10
113.531995858212
20
3.68354552127877
30
0
41
1
10
113.533661865033
20
3.68432857110523
30
0
41
1
10
113.534910299228
20
3.68492006665181
30
0
41
1
10
113.535949985336
20
3.6854156089959
30
0
41
1
10
113.537404260661
20
3.68611427377445
30
0
41
1
10
113.538649379758
20
3.68671838230077
30
0
41
1
10
113.539893346065
20
3.68732668976338
30
0
41
1
10
113.540929257765
20
3.6878362362622
30
0
41
1
10
113.542585138498
20
3.68865710462177
30
0
41
1
10
113.544238611317
20
3.68948635930337
30
0
41
1
10
113.546715085871
20
3.69074280694812
30
0
41
1
10
113.550010303364
20
3.69244039703801
30
0
41
1
10
113.556165617865
20
3.69569651621214
30
0
41
1
10
113.562686210555
20
3.69930315191323
30
0
41
1
10
113.572391626052
20
3.70491238125354
30
0
41
1
10
113.585191105507
20
3.71274339184785
30
0
41
1
10
113.602401124376
20
3.7243420258971
30
0
41
1
10
113.617573170899
20
3.73572731027844
30
0
41
1
10
113.629388091771
20
3.74531825772848
30
0
41
1
10
113.638078258942
20
3.75274734753339
30
0
41
1
10
113.64658773732
20
3.7604068358005
30
0
41
1
10
113.654908078374
20
3.76828931605311
30
0
41
1
10
113.663030833573
20
3.77638738181457
30
0
41
1
10
113.670947554386
20
3.78469362660815
30
0
41
1
10
113.678649792283
20
3.79320064395711
30
0
41
1
10
113.686130776283
20
3.80189945706781
30
0
41
1
10
113.693383735408
20
3.81078108914659
30
0
41
1
10
113.700401898676
20
3.81983656339977
30
0
41
1
10
113.707178495108
20
3.82905690303369
30
0
41
1
10
113.713708752322
20
3.83843204713426
30
0
41
1
10
113.719987897938
20
3.84795193478754
30
0
41
1
10
113.726011159574
20
3.85760650507945
30
0
41
1
10
113.731773764849
20
3.86738569709595
30
0
41
1
10
113.739106227222
20
3.88057665329035
30
0
41
1
10
113.745056875697
20
3.89229973989487
30
0
41
1
10
113.74981860041
20
3.90245089402066
30
0
41
1
10
113.752806277825
20
3.909031695294
30
0
41
1
10
113.755021744745
20
3.91415226173172
30
0
41
1
10
113.756632358817
20
3.91800426359626
30
0
41
1
10
113.757077095816
20
3.91907486062971
30
0
41
1
10
113.757694769113
20
3.92057478587301
30
0
41
1
10
113.758218889601
20
3.92186157747159
30
0
41
1
10
113.758738757774
20
3.92314925119757
30
0
41
1
10
113.759169323283
20
3.92422285751039
30
0
41
1
10
113.759767152443
20
3.92572689934829
30
0
41
1
10
113.76027425933
20
3.92701711617454
30
0
41
1
10
113.760693301914
20
3.92809296311455
30
0
41
1
10
113.761110571072
20
3.92916913887694
30
0
41
1
10
113.761772526185
20
3.93089205855728
30
0
41
1
10
113.762669053519
20
3.93326347250451
30
0
41
1
10
113.763630044566
20
3.93585329572986
30
0
41
1
10
113.766776528999
20
3.94449490961713
30
0
41
1
10
113.771690709686
20
3.95924929331048
30
0
41
1
10
113.779502444763
20
3.98712997740222
30
0
41
1
10
113.785181458236
20
4.01501439287841
30
0
41
1
10
113.788374986121
20
4.03912579108919
30
0
41
1
10
113.789462637703
20
4.05028031965759
30
0
41
1
10
113.789869396981
20
4.05514372230249
30
0
41
1
10
113.790002906534
20
4.05684799953701
30
0
41
1
10
113.79009996782
20
4.05813845374357
30
0
41
1
10
113.790171572463
20
4.05912092761173
30
0
41
1
10
113.790226723158
20
4.05989710989255
30
0
41
1
10
113.790250631457
20
4.06023593596771
30
0
0
SPLINE
5
1F8
100
AcDbEntity
8
1
62
256
6
ByLayer
370
-1
48
1
60
0
100
AcDbSpline
70
4
71
3
72
8
73
4
40
0
40
0
40
0
40
0
40
1
40
1
40
1
40
1
41
1
10
113.800042172947
20
4.31782879648364
30
0
41
1
10
113.800461392105
20
4.30577807386294
30
0
41
1
10
113.80085876735
20
4.29372658552228
30
0
41
1
10
113.801234296052
20
4.28167441126385
30
0
0
SPLINE
5
1F9
100
AcDbEntity
8
1
62
256
6
ByLayer
370
-1
48
1
60
0
100
AcDbSpline
70
4
71
3
72
8
73
4
40
0
40
0
40
0
40
0
40
1
40
1
40
1
40
1
41
1
10
107.946854224217
20
4.07645391244407
30
0
41
1
10
107.946391318527
20
4.08850306254195
30
0
41
1
10
107.94595025397
20
4.10055305815769
30
0
41
1
10
107.945531033465
20
4.11260381949839
30
0
0
SPLINE
5
1FA
100
AcDbEntity
8
1
62
256
6
ByLayer
370
-1
48
1
60
0
100
AcDbSpline
70
4
71
3
72
8
73
4
40
0
40
0
40
0
40
0
40
1
40
1
40
1
40
1
41
1
10
108.642465725331
20
3.46021918478482
30
0
41
1
10
108.630460859348
20
3.45979836427796
30
0
41
1
10
108.618455230559
20
3.4593994711237
30
0
41
1
10
108.606448918463
20
3.4590225079634
30
0
0
SPLINE
5
1FB
100
AcDbEntity
8
1
62
256
6
ByLayer
370
-1
48
1
60
0
100
AcDbSpline
70
4
71
3
72
14
73
10
40
0
40
0
40
0
40
0
40
0.0050966481374705
40
0.0240065217780211
40
0.0435263913424607
40
0.0630462609069003
40
0.375364173937933
40
0.687682086968967
40
1
40
1
40
1
40
1
41
1
10
107.788119432193
20
8.63749673146631
30
0
41
1
10
107.788253174957
20
8.63365309581172
30
0
41
1
10
107.78888310676
20
8.61554858918169
30
0
41
1
10
107.790025032189
20
8.58272321291616
30
0
41
1
10
107.791545354328
20
8.53902058136484
30
0
41
1
10
107.800763307507
20
8.27404462585361
30
0
41
1
10
107.817662888337
20
7.78825537408301
30
0
41
1
10
107.842244096816
20
7.08165282605307
30
0
41
1
10
107.858631569135
20
6.61058446069978
30
0
41
1
10
107.866825305295
20
6.37505027802314
30
0
0
SPLINE
5
1FC
100
AcDbEntity
8
1
62
256
6
ByLayer
370
-1
48
1
60
0
100
AcDbSpline
70
4
71
3
72
8
73
4
40
0
40
0
40
0
40
0
40
1
40
1
40
1
40
1
41
1
10
113.641307525855
20
8.87887162058749
30
0
41
1
10
113.641770431544
20
8.86682247048961
30
0
41
1
10
113.642211496102
20
8.85477247487387
30
0
41
1
10
113.642630716607
20
8.84272171353317
30
0
0
SPLINE
5
1FD
100
AcDbEntity
8
1
62
256
6
ByLayer
370
-1
48
1
60
0
100
AcDbSpline
70
4
71
3
72
23
73
19
40
0
40
0
40
0
40
0
40
0.0365499079217249
40
0.0695172064382536
40
0.102484504954782
40
0.135451803471311
40
0.16841910198784
40
0.234353699020897
40
0.300288296053939
40
0.366222893087012
40
0.498092087153127
40
0.629961281219234
40
0.761830475285356
40
0.82776507231841
40
0.893699669351471
40
0.926666967868
40
0.959634266384529
40
1
40
1
40
1
40
1
41
1
10
113.79984228495
20
4.19795169320207
30
0
41
1
10
113.79991185135
20
4.19896976671595
30
0
41
1
10
113.800042499594
20
4.20090610430816
30
0
41
1
10
113.800227304851
20
4.20376098290089
30
0
41
1
10
113.80039669304
20
4.20651667886946
30
0
41
1
10
113.800555307728
20
4.20927336413351
30
0
41
1
10
113.800752942439
20
4.21295010888477
30
0
41
1
10
113.800974976306
20
4.21754793308222
30
0
41
1
10
113.801204480479
20
4.22306742336406
30
0
41
1
10
113.801460728876
20
4.23042907241529
30
0
41
1
10
113.801686791159
20
4.23963461314983
30
0
41
1
10
113.801804217487
20
4.25068399119709
30
0
41
1
10
113.801776213448
20
4.25989166224826
30
0
41
1
10
113.801679703247
20
4.26725626172043
30
0
41
1
10
113.801586104503
20
4.27185777521609
30
0
41
1
10
113.801489816407
20
4.27553773694547
30
0
41
1
10
113.801402424207
20
4.27850383390535
30
0
41
1
10
113.801335964383
20
4.28055004383259
30
0
41
1
10
113.801298295563
20
4.28167642066171
30
0
0
SPLINE
5
1FE
100
AcDbEntity
8
1
62
256
6
ByLayer
370
-1
48
1
60
0
100
AcDbSpline
70
4
71
3
72
13
73
9
40
0
40
0
40
0
40
0
40
0.312317913031033
40
0.624635826062066
40
0.9369537390931
40
0.975993478221979
40
0.99490335186253
40
1
40
1
40
1
40
1
41
1
10
107.866825305295
20
6.37505027802314
30
0
41
1
10
107.875019041454
20
6.13951609534649
30
0
41
1
10
107.891406513774
20
5.6684477299932
30
0
41
1
10
107.915987722253
20
4.96184518196327
30
0
41
1
10
107.933399411592
20
4.46133504377539
30
0
41
1
10
107.943113469891
20
4.18209822954742
30
0
41
1
10
107.944767503829
20
4.13455196686459
30
0
41
1
10
107.945397207309
20
4.11644745223086
30
0
41
1
10
107.945530888534
20
4.11260381441912
30
0
0
SPLINE
5
1FF
100
AcDbEntity
8
1
62
256
6
ByLayer
370
-1
48
1
60
0
100
AcDbSpline
70
4
71
3
72
8
73
4
40
0
40
0
40
0
40
0
40
1
40
1
40
1
40
1
41
1
10
113.186152404473
20
3.61956017244151
30
0
41
1
10
113.174149105029
20
3.61909549852737
30
0
41
1
10
113.162144963285
20
3.61865274917491
30
0
41
1
10
113.150140058729
20
3.61823192731592
30
0
0
SPLINE
5
200
100
AcDbEntity
8
1
62
256
6
ByLayer
370
-1
48
1
60
0
100
AcDbSpline
70
4
71
3
72
12
73
8
40
0
40
0
40
0
40
0
40
0.25
40
0.25
40
0.5
40
0.5
40
1
40
1
40
1
40
1
41
1
10
113.163270249035
20
0.270068247521891
30
0
41
1
10
113.180366053278
20
0.253090604900962
30
0
41
1
10
113.195653234405
20
0.234207138319704
30
0
41
1
10
113.219500908543
20
0.198596878253369
30
0
41
1
10
113.228209989056
20
0.182160489748128
30
0
41
1
10
113.249053677196
20
0.136240853045479
30
0
41
1
10
113.255946332897
20
0.110730853842881
30
0
41
1
10
113.260631413762
20
0.0869191878940683
30
0
0
SPLINE
5
201
100
AcDbEntity
8
1
62
256
6
ByLayer
370
-1
48
1
60
0
100
AcDbSpline
70
4
71
3
72
12
73
8
40
0
40
0
40
0
40
0
40
0.250000000000024
40
0.250000000000024
40
0.500000000000049
40
0.500000000000049
40
1
40
1
40
1
40
1
41
1
10
113.7608681154
20
-4.88115032975321
30
0
41
1
10
113.744188401349
20
-4.89854277989994
30
0
41
1
10
113.72494384397
20
-4.91348106949846
30
0
41
1
10
113.687727414191
20
-4.93576378533646
30
0
41
1
10
113.670122773791
20
-4.9433320359966
30
0
41
1
10
113.620291447313
20
-4.96035339357621
30
0
41
1
10
113.591737747885
20
-4.96426912282041
30
0
41
1
10
113.564760177369
20
-4.96585701942433
30
0
0
SPLINE
5
202
100
AcDbEntity
8
1
62
256
6
ByLayer
370
-1
48
1
60
0
100
AcDbSpline
70
4
71
3
72
16
73
12
40
0
40
0
40
0
40
0
40
0.250000000000001
40
0.250000000000001
40
0.500000000000002
40
0.500000000000002
40
0.750000000000003
40
0.750000000000003
40
0.875000000000001
40
0.875000000000001
40
1
40
1
40
1
40
1
41
1
10
113.854373509003
20
-4.46097028675052
30
0
41
1
10
113.859377258797
20
-4.48973883011158
30
0
41
1
10
113.862991867215
20
-4.51946712143618
30
0
41
1
10
113.866143423952
20
-4.5816232153453
30
0
41
1
10
113.865753343965
20
-4.61400754503376
30
0
41
1
10
113.857933869739
20
-4.68325138726655
30
0
41
1
10
113.850661667157
20
-4.72008304434334
30
0
41
1
10
113.828729983715
20
-4.77886440765965
30
0
41
1
10
113.819634009162
20
-4.79888029728536
30
0
41
1
10
113.795134542483
20
-4.84033565448908
30
0
41
1
10
113.779843160628
20
-4.86136446728835
30
0
41
1
10
113.7608681154
20
-4.88115032975321
30
0
0
SPLINE
5
203
100
AcDbEntity
8
1
62
256
6
ByLayer
370
-1
48
1
60
0
100
AcDbSpline
70
4
71
3
72
12
73
8
40
0
40
0
40
0
40
0
40
0.250000000000005
40
0.250000000000005
40
0.500000000000011
40
0.500000000000011
40
1
40
1
40
1
40
1
41
1
10
113.732404472027
20
-3.01097822232441
30
0
41
1
10
113.746538435205
20
-3.03984061184823
30
0
41
1
10
113.758889127768
20
-3.06954262686315
30
0
41
1
10
113.779909989626
20
-3.13067793405551
30
0
41
1
10
113.788598317483
20
-3.16231997180208
30
0
41
1
10
113.808199469959
20
-3.25699584473358
30
0
41
1
10
113.813098862107
20
-3.32077339218924
30
0
41
1
10
113.809760062704
20
-3.38444675814782
30
0
0
SPLINE
5
204
100
AcDbEntity
8
1
62
256
6
ByLayer
370
-1
48
1
60
0
100
AcDbSpline
70
4
71
3
72
16
73
12
40
0
40
0
40
0
40
0
40
0.249999999999999
40
0.249999999999999
40
0.499999999999999
40
0.499999999999999
40
0.749999999999998
40
0.749999999999998
40
0.874999999999999
40
0.874999999999999
40
1
40
1
40
1
40
1
41
1
10
113.854373509002
20
-4.46097028675393
30
0
41
1
10
113.847266707729
20
-4.42011046581982
30
0
41
1
10
113.840293264469
20
-4.37801665825142
30
0
41
1
10
113.826804512774
20
-4.28958983590059
30
0
41
1
10
113.820260855782
20
-4.24323344038723
30
0
41
1
10
113.808172062751
20
-4.14264497404065
30
0
41
1
10
113.802534953431
20
-4.08842590673356
30
0
41
1
10
113.796402555455
20
-3.99535902973423
30
0
41
1
10
113.794733408249
20
-3.96173299036855
30
0
41
1
10
113.793083757834
20
-3.88950661513303
30
0
41
1
10
113.79317039192
20
-3.85031076121564
30
0
41
1
10
113.794514610796
20
-3.81193603131675
30
0
0
SPLINE
5
205
100
AcDbEntity
8
1
62
256
6
ByLayer
370
-1
48
1
60
0
100
AcDbSpline
70
4
71
3
72
8
73
4
40
0
40
0
40
0
40
0
40
1
40
1
40
1
40
1
41
1
10
113.732404472027
20
-3.01097822232441
30
0
41
1
10
113.729065092641
20
-3.00415901193068
30
0
41
1
10
113.725812087114
20
-2.99732093313241
30
0
41
1
10
113.722680063867
20
-2.990540298328
30
0
0
SPLINE
5
206
100
AcDbEntity
8
1
62
256
6
ByLayer
370
-1
48
1
60
0
100
AcDbSpline
70
4
71
3
72
12
73
8
40
0
40
0
40
0
40
0
40
0.408353488147628
40
0.408353488147628
40
0.704176744073814
40
0.704176744073814
40
1
40
1
40
1
40
1
41
1
10
112.975915951258
20
0.378952338636509
30
0
41
1
10
112.998499479444
20
0.372228618959611
30
0
41
1
10
113.022258315907
20
0.363418984561605
30
0
41
1
10
113.065539680352
20
0.34257754448268
30
0
41
1
10
113.084271395478
20
0.332167691657844
30
0
41
1
10
113.123601048262
20
0.305496804043827
30
0
41
1
10
113.143821854551
20
0.289382219908873
30
0
41
1
10
113.163270249035
20
0.270068247521891
30
0
0
SPLINE
5
207
100
AcDbEntity
8
1
62
256
6
ByLayer
370
-1
48
1
60
0
100
AcDbSpline
70
4
71
3
72
10
73
6
40
0
40
0
40
0
40
0
40
0.5
40
0.5
40
1
40
1
40
1
40
1
41
1
10
113.457422757584
20
-0.908276320178629
30
0
41
1
10
113.456127391744
20
-0.883635461952025
30
0
41
1
10
113.455361326259
20
-0.860102324426578
30
0
41
1
10
113.454691255161
20
-0.814840169775579
30
0
41
1
10
113.454797061025
20
-0.793161449947064
30
0
41
1
10
113.455212945081
20
-0.773065933030608
30
0
0
SPLINE
5
208
100
AcDbEntity
8
1
62
256
6
ByLayer
370
-1
48
1
60
0
100
AcDbSpline
70
4
71
3
72
8
73
4
40
0
40
0
40
0
40
0
40
1
40
1
40
1
40
1
41
1
10
113.808392598347
20
-3.41574755813625
30
0
41
1
10
113.808759922375
20
-3.40526120013351
30
0
41
1
10
113.809215729604
20
-3.39482759165784
30
0
41
1
10
113.809760062704
20
-3.38444675814785
30
0
0
SPLINE
5
209
100
AcDbEntity
8
1
62
256
6
ByLayer
370
-1
48
1
60
0
100
AcDbSpline
70
4
71
3
72
8
73
4
40
0
40
0
40
0
40
0
40
1
40
1
40
1
40
1
41
1
10
113.431171038288
20
-0.631069423547501
30
0
41
1
10
113.449238235704
20
-0.68064473859161
30
0
41
1
10
113.456108336401
20
-0.729800625859184
30
0
41
1
10
113.455212945081
20
-0.773065933031148
30
0
0
SPLINE
5
20A
100
AcDbEntity
8
1
62
256
6
ByLayer
370
-1
48
1
60
0
100
AcDbSpline
70
4
71
3
72
14
73
10
40
0
40
0
40
0
40
0
40
0.25
40
0.25
40
0.5
40
0.5
40
0.75
40
0.75
40
1
40
1
40
1
40
1
41
1
10
113.431171038291
20
-0.631069423547757
30
0
41
1
10
113.41600389147
20
-0.589451674836795
30
0
41
1
10
113.402548095554
20
-0.548840202294912
30
0
41
1
10
113.380570898972
20
-0.477053366754035
30
0
41
1
10
113.371647867856
20
-0.444863535694424
30
0
41
1
10
113.3565500506
20
-0.386717154559932
30
0
41
1
10
113.350221907814
20
-0.360156980278901
30
0
41
1
10
113.339078849081
20
-0.31047361178139
30
0
41
1
10
113.334292725384
20
-0.287460379122337
30
0
41
1
10
113.329982920657
20
-0.265556033513178
30
0
0
SPLINE
5
20B
100
AcDbEntity
8
SK1
62
256
6
ByLayer
370
-1
48
1
60
0
100
AcDbSpline
70
4
71
3
72
20
73
16
40
0
40
0
40
0
40
0
40
0.125000000000007
40
0.125000000000007
40
0.250000000000015
40
0.250000000000015
40
0.312500000000018
40
0.312500000000018
40
0.375000000000022
40
0.375000000000022
40
0.500000000000012
40
0.500000000000012
40
0.750000000000006
40
0.750000000000006
40
1
40
1
40
1
40
1
41
1
10
-53.6338144512145
20
-6.34034179467375
30
0
41
1
10
-53.6736405326374
20
-6.31405714368671
30
0
41
1
10
-53.7174596238937
20
-6.2918915268643
30
0
41
1
10
-53.8100286430817
20
-6.26230917234659
30
0
41
1
10
-53.858409060093
20
-6.25510537770515
30
0
41
1
10
-53.930507607687
20
-6.25719119578449
30
0
41
1
10
-53.9548847131618
20
-6.26004287846277
30
0
41
1
10
-54.0024268232708
20
-6.26975628298462
30
0
41
1
10
-54.025531470073
20
-6.27654559824734
30
0
41
1
10
-54.0930893921825
20
-6.30200607369946
30
0
41
1
10
-54.136092797726
20
-6.32609087475549
30
0
41
1
10
-54.2534188607808
20
-6.41013429612562
30
0
41
1
10
-54.3194596979378
20
-6.48308041368765
30
0
41
1
10
-54.4306544823114
20
-6.63915672058906
30
0
41
1
10
-54.4771151388184
20
-6.72418194167685
30
0
41
1
10
-54.5162227297291
20
-6.81204395564961
30
0
0
SPLINE
5
20C
100
AcDbEntity
8
SK1
62
256
6
ByLayer
370
-1
48
1
60
0
100
AcDbSpline
70
4
71
3
72
8
73
4
40
0
40
0
40
0
40
0
40
1
40
1
40
1
40
1
41
1
10
-56.0000000000001
20
4.99854728896315
30
0
41
1
10
-55.7019755215914
20
5.68400902895925
30
0
41
1
10
-55.3641473109835
20
6.34826454962635
30
0
41
1
10
-55
20
6.99849805315404
30
0
0
SPLINE
5
20D
100
AcDbEntity
8
SK1
62
256
6
ByLayer
370
-1
48
1
60
0
100
AcDbSpline
70
4
71
3
72
8
73
4
40
0
40
0
40
0
40
0
40
1
40
1
40
1
40
1
41
1
10
-55
20
-6.99849805315392
30
0
41
1
10
-55.3648529633576
20
-6.34700451336727
30
0
41
1
10
-55.7026345426883
20
-5.68249326840734
30
0
41
1
10
-56
20
-4.99854728896301
30
0
0
SPLINE
5
20E
100
AcDbEntity
8
SK1
62
256
6
ByLayer
370
-1
48
1
60
0
100
AcDbSpline
70
4
71
3
72
20
73
16
40
0
40
0
40
0
40
0
40
0.25
40
0.25
40
0.375
40
0.375
40
0.5
40
0.5
40
0.625
40
0.625
40
0.75
40
0.75
40
0.875
40
0.875
40
1
40
1
40
1
40
1
41
1
10
-54.5162227297291
20
6.81204395564973
30
0
41
1
10
-54.4772709483907
20
6.72453199501689
30
0
41
1
10
-54.4306845518237
20
6.63914767831511
30
0
41
1
10
-54.3469265709005
20
6.52165950363116
30
0
41
1
10
-54.3163253277688
20
6.4838456686486
30
0
41
1
10
-54.2501041764424
20
6.41421731653315
30
0
41
1
10
-54.2145625265326
20
6.38236090680323
30
0
41
1
10
-54.1369222939179
20
6.32662557921188
30
0
41
1
10
-54.0940013611407
20
6.30244517653043
30
0
41
1
10
-54.0037548865671
20
6.26824500575401
30
0
41
1
10
-53.9556146989167
20
6.25796898452336
30
0
41
1
10
-53.8582046255659
20
6.25504848254033
30
0
41
1
10
-53.8099490429816
20
6.26234710426348
30
0
41
1
10
-53.7177558858445
20
6.29178438547694
30
0
41
1
10
-53.6739857261288
20
6.31382932086129
30
0
41
1
10
-53.6338144512151
20
6.3403417946746
30
0
0
SPLINE
5
20F
100
AcDbEntity
8
SK1
62
256
6
ByLayer
370
-1
48
1
60
0
100
AcDbSpline
70
4
71
3
72
8
73
4
40
0
40
0
40
0
40
0
40
1
40
1
40
1
40
1
41
1
10
-53.6338144512151
20
6.34034179467457
30
0
41
1
10
-53.2922221196919
20
6.56578790669803
30
0
41
1
10
-52.9473802440142
20
6.78469639798695
30
0
41
1
10
-52.6000000000004
20
6.99849805315478
30
0
0
SPLINE
5
210
100
AcDbEntity
8
SK1
62
256
6
ByLayer
370
-1
48
1
60
0
100
AcDbSpline
70
4
71
3
72
8
73
4
40
0
40
0
40
0
40
0
40
1
40
1
40
1
40
1
41
1
10
-54.6
20
6.99849805315404
30
0
41
1
10
-54.5718676648179
20
6.93646419260517
30
0
41
1
10
-54.5439393896427
20
6.87431425928909
30
0
41
1
10
-54.516222729729
20
6.81204395564973
30
0
0
SPLINE
5
211
100
AcDbEntity
8
SK1
62
256
6
ByLayer
370
-1
48
1
60
0
100
AcDbSpline
70
4
71
3
72
68
73
64
40
0
40
0
40
0
40
0
40
0.015625
40
0.015625
40
0.0312499999999999
40
0.0312499999999999
40
0.0468749999999999
40
0.0468749999999999
40
0.0624999999999998
40
0.0624999999999998
40
0.0781249999999998
40
0.0781249999999998
40
0.0937499999999997
40
0.0937499999999997
40
0.125
40
0.125
40
0.15625
40
0.15625
40
0.1875
40
0.1875
40
0.25
40
0.25
40
0.28125
40
0.28125
40
0.3125
40
0.3125
40
0.375
40
0.375
40
0.4375
40
0.4375
40
0.46875
40
0.46875
40
0.5
40
0.5
40
0.5625
40
0.5625
40
0.625
40
0.625
40
0.6875
40
0.6875
40
0.75
40
0.75
40
0.8125
40
0.8125
40
0.84375
40
0.84375
40
0.859375
40
0.859375
40
0.875
40
0.875
40
0.90625
40
0.90625
40
0.921875
40
0.921875
40
0.9375
40
0.9375
40
0.953125
40
0.953125
40
0.96875
40
0.96875
40
0.984375
40
0.984375
40
1
40
1
40
1
40
1
41
1
10
-6.5
20
-6.99849805315398
30
0
41
1
10
-6.4096424095903
20
-6.99849805315398
30
0
41
1
10
-6.31887533751086
20
-6.9924669932976
30
0
41
1
10
-6.13726564177031
20
-6.96792032412691
30
0
41
1
10
-6.04880117468585
20
-6.94974705973743
30
0
41
1
10
-5.87614107362342
20
-6.90252164638767
30
0
41
1
10
-5.79194795071362
20
-6.87346297167917
30
0
41
1
10
-5.62761370230606
20
-6.80484072991021
30
0
41
1
10
-5.54890965383427
20
-6.76585529638666
30
0
41
1
10
-5.39867973784189
20
-6.68016521734489
30
0
41
1
10
-5.32694157755157
20
-6.63336290342139
30
0
41
1
10
-5.18947718430641
20
-6.53250060019133
30
0
41
1
10
-5.12348684568531
20
-6.47818603126365
30
0
41
1
10
-4.93566988154686
20
-6.30674027670506
30
0
41
1
10
-4.82518003213681
20
-6.18267595320251
30
0
41
1
10
-4.62603001440084
20
-5.91868980815966
30
0
41
1
10
-4.53721391214785
20
-5.77825879287735
30
0
41
1
10
-4.37814656673874
20
-5.48542007115435
30
0
41
1
10
-4.30877871567313
20
-5.33483042069352
30
0
41
1
10
-4.12354082750574
20
-4.87237000918773
30
0
41
1
10
-4.03020120532329
20
-4.54989217457512
30
0
41
1
10
-3.91807144557504
20
-4.04887624586692
30
0
41
1
10
-3.88552668802802
20
-3.87909831441809
30
0
41
1
10
-3.82866773565829
20
-3.53847076026688
30
0
41
1
10
-3.80422767364425
20
-3.36705941807358
30
0
41
1
10
-3.74020579920568
20
-2.84975913582008
30
0
41
1
10
-3.70977205452269
20
-2.5008195214777
30
0
41
1
10
-3.66416163751657
20
-1.79552608157809
30
0
41
1
10
-3.64903771748126
20
-1.43916908464092
30
0
41
1
10
-3.63426182330713
20
-0.899256752194447
30
0
41
1
10
-3.63068669313998
20
-0.718167674817778
30
0
41
1
10
-3.62598899859142
20
-0.357375695924361
30
0
41
1
10
-3.62485343662013
20
-0.177302953433326
30
0
41
1
10
-3.62488496014578
20
0.361962578325034
30
0
41
1
10
-3.62938260517049
20
0.720207066315254
30
0
41
1
10
-3.64887950283875
20
1.43414621185846
30
0
41
1
10
-3.66385562324439
20
1.78984138878459
30
0
41
1
10
-3.70956223321124
20
2.49851694715909
30
0
41
1
10
-3.74045671775656
20
2.85271919963691
30
0
41
1
10
-3.82645737175278
20
3.54573152185978
30
0
41
1
10
-3.88145968550236
20
3.88575414429386
30
0
41
1
10
-4.03051920995767
20
4.55084385300148
30
0
41
1
10
-4.12523349261875
20
4.87761469840365
30
0
41
1
10
-4.31105593218689
20
5.33999328729007
30
0
41
1
10
-4.38041029850672
20
5.4899128326384
30
0
41
1
10
-4.49888437250004
20
5.70752713951083
30
0
41
1
10
-4.54079549132547
20
5.77885043055693
30
0
41
1
10
-4.63023926406612
20
5.91883578995851
30
0
41
1
10
-4.67776791395602
20
5.98743717509882
30
0
41
1
10
-4.82792587490127
20
6.18597359029033
30
0
41
1
10
-4.93858588995937
20
6.30966494075429
30
0
41
1
10
-5.12522766477915
20
6.47964028567972
30
0
41
1
10
-5.19131964832849
20
6.53397024553271
30
0
41
1
10
-5.32929892448178
20
6.63497116118225
30
0
41
1
10
-5.40112275258878
20
6.68167605293547
30
0
41
1
10
-5.55102867370906
20
6.76694298534821
30
0
41
1
10
-5.62910582891868
20
6.80551115138627
30
0
41
1
10
-5.79238720600742
20
6.87359848794483
30
0
41
1
10
-5.87738605118548
20
6.90291103819595
30
0
41
1
10
-6.04966564042599
20
6.94993403370722
30
0
41
1
10
-6.13756051826556
20
6.96792637087054
30
0
41
1
10
-6.31709499624006
20
6.99225989008042
30
0
41
1
10
-6.40924253974518
20
6.99849805315398
30
0
41
1
10
-6.5
20
6.99849805315398
30
0
0
SPLINE
5
212
100
AcDbEntity
8
SK1
62
256
6
ByLayer
370
-1
48
1
60
0
100
AcDbSpline
70
4
71
3
72
8
73
4
40
0
40
0
40
0
40
0
40
1
40
1
40
1
40
1
41
1
10
-54.516222729729
20
-6.81204395564961
30
0
41
1
10
-54.5439393896427
20
-6.87431425928901
30
0
41
1
10
-54.5718676648179
20
-6.93646419260506
30
0
41
1
10
-54.6
20
-6.99849805315392
30
0
0
SPLINE
5
213
100
AcDbEntity
8
SK1
62
256
6
ByLayer
370
-1
48
1
60
0
100
AcDbSpline
70
4
71
3
72
8
73
4
40
0
40
0
40
0
40
0
40
1
40
1
40
1
40
1
41
1
10
-52.6000000000004
20
-6.99849805315466
30
0
41
1
10
-52.9473802440142
20
-6.78469639798683
30
0
41
1
10
-53.292222119692
20
-6.56578790669792
30
0
41
1
10
-53.6338144512151
20
-6.34034179467449
30
0
0
LINE
5
45
100
AcDbEntity
8
80
62
256
6
ByLayer
370
-1
48
1
60
0
100
AcDbLine
10
0
20
0
30
0
11
-7
21
0
31
0
39
0
210
0
220
0
230
1
0
LINE
5
46
100
AcDbEntity
8
81
62
256
6
ByLayer
370
-1
48
1
60
0
100
AcDbLine
10
114
20
0
30
0
11
121
21
0
31
0
39
0
210
0
220
0
230
1
0
LINE
5
47
100
AcDbEntity
8
SK1
62
256
6
ByLayer
370
-1
48
1
60
0
100
AcDbLine
10
-2
20
-12.49675
30
0
11
-1.551212
21
-12.287477
31
0
39
0
210
0
220
0
230
1
0
LINE
5
49
100
AcDbEntity
8
SK1
62
256
6
ByLayer
370
-1
48
1
60
0
100
AcDbLine
10
-1.551212
20
12.287477
30
0
11
-2
21
12.49675
31
0
39
0
210
0
220
0
230
1
0
LINE
5
4A
100
AcDbEntity
8
SK1
62
256
6
ByLayer
370
-1
48
1
60
0
100
AcDbLine
10
-2
20
12.49675
30
0
11
-52.6
21
12.49675
31
0
39
0
210
0
220
0
230
1
0
LINE
5
4B
100
AcDbEntity
8
SK1
62
256
6
ByLayer
370
-1
48
1
60
0
100
AcDbLine
10
-52.6
20
-12.49675
30
0
11
-2
21
-12.49675
31
0
39
0
210
0
220
0
230
1
0
LINE
5
4C
100
AcDbEntity
8
SK1
62
256
6
ByLayer
370
-1
48
1
60
0
100
AcDbLine
10
-0.15
20
12.25
30
0
11
-1.382165
21
12.25
31
0
39
0
210
0
220
0
230
1
0
LINE
5
4D
100
AcDbEntity
8
SK1
62
256
6
ByLayer
370
-1
48
1
60
0
100
AcDbLine
10
-1.382165
20
-12.25
30
0
11
-0.15
21
-12.25
31
0
39
0
210
0
220
0
230
1
0
LINE
5
4E
100
AcDbEntity
8
SK1
62
256
6
ByLayer
370
-1
48
1
60
0
100
AcDbLine
10
-54.6
20
12.49675
30
0
11
-55
21
12.49675
31
0
39
0
210
0
220
0
230
1
0
LINE
5
4F
100
AcDbEntity
8
SK1
62
256
6
ByLayer
370
-1
48
1
60
0
100
AcDbLine
10
-55
20
-12.49675
30
0
11
-54.6
21
-12.49675
31
0
39
0
210
0
220
0
230
1
0
LINE
5
50
100
AcDbEntity
8
SK1
62
256
6
ByLayer
370
-1
48
1
60
0
100
AcDbLine
10
-52.6
20
12.49675
30
0
11
-53.633814
21
12.140417
31
0
39
0
210
0
220
0
230
1
0
LINE
5
51
100
AcDbEntity
8
SK1
62
256
6
ByLayer
370
-1
48
1
60
0
100
AcDbLine
10
-53.633814
20
-12.140417
30
0
11
-52.6
21
-12.49675
31
0
39
0
210
0
220
0
230
1
0
LINE
5
52
100
AcDbEntity
8
SK1
62
256
6
ByLayer
370
-1
48
1
60
0
100
AcDbLine
10
-55
20
12.49675
30
0
11
-56
21
11.49675
31
0
39
0
210
0
220
0
230
1
0
LINE
5
53
100
AcDbEntity
8
SK1
62
256
6
ByLayer
370
-1
48
1
60
0
100
AcDbLine
10
-56
20
-11.49675
30
0
11
-55
21
-12.49675
31
0
39
0
210
0
220
0
230
1
0
LINE
5
54
100
AcDbEntity
8
SK1
62
256
6
ByLayer
370
-1
48
1
60
0
100
AcDbLine
10
-54.6
20
-12.49675
30
0
11
-54.516223
21
-12.393294
31
0
39
0
210
0
220
0
230
1
0
LINE
5
55
100
AcDbEntity
8
SK1
62
256
6
ByLayer
370
-1
48
1
60
0
100
AcDbLine
10
-54.516223
20
12.393294
30
0
11
-54.6
21
12.49675
31
0
39
0
210
0
220
0
230
1
0
LINE
5
56
100
AcDbEntity
8
1
62
256
6
ByLayer
370
-1
48
1
60
0
100
AcDbLine
10
5
20
16
30
0
11
0.2
21
16
31
0
39
0
210
0
220
0
230
1
0
LINE
5
58
100
AcDbEntity
8
1
62
256
6
ByLayer
370
-1
48
1
60
0
100
AcDbLine
10
0.2
20
-16
30
0
11
5
21
-16
31
0
39
0
210
0
220
0
230
1
0
LINE
5
59
100
AcDbEntity
8
1
62
256
6
ByLayer
370
-1
48
1
60
0
100
AcDbLine
10
0.2
20
16
30
0
11
0
21
15.8
31
0
39
0
210
0
220
0
230
1
0
LINE
5
5A
100
AcDbEntity
8
1
62
256
6
ByLayer
370
-1
48
1
60
0
100
AcDbLine
10
0
20
-15.8
30
0
11
0.2
21
-16
31
0
39
0
210
0
220
0
230
1
0
LINE
5
5B
100
AcDbEntity
8
1
62
256
6
ByLayer
370
-1
48
1
60
0
100
AcDbLine
10
55.304266
20
9.236359
30
0
11
21
21
9.365
31
0
39
0
210
0
220
0
230
1
0
LINE
5
5C
100
AcDbEntity
8
1
62
256
6
ByLayer
370
-1
48
1
60
0
100
AcDbLine
10
21
20
9.365
30
0
11
16
21
9.365
31
0
39
0
210
0
220
0
230
1
0
LINE
5
5D
100
AcDbEntity
8
1
62
256
6
ByLayer
370
-1
48
1
60
0
100
AcDbLine
10
16
20
-9.365
30
0
11
21
21
-9.365
31
0
39
0
210
0
220
0
230
1
0
LINE
5
5E
100
AcDbEntity
8
1
62
256
6
ByLayer
370
-1
48
1
60
0
100
AcDbLine
10
21
20
-9.365
30
0
11
37.787764
21
-9.302046
31
0
39
0
210
0
220
0
230
1
0
LINE
5
5F
100
AcDbEntity
8
1
62
256
6
ByLayer
370
-1
48
1
60
0
100
AcDbLine
10
107.551974
20
9.2
30
0
11
104.985573
21
9.2
31
0
39
0
210
0
220
0
230
1
0
LINE
5
60
100
AcDbEntity
8
SK4
62
256
6
ByLayer
370
-1
48
0.05
60
0
100
AcDbLine
10
114
20
0
30
0
11
-56
21
0
31
0
39
0
210
0
220
0
230
1
0
LINE
5
62
100
AcDbEntity
8
4
62
256
6
ByLayer
370
-1
48
0.05
60
0
100
AcDbLine
10
114
20
0
30
0
11
0
21
0
31
0
39
0
210
0
220
0
230
1
0
LINE
5
64
100
AcDbEntity
8
1
62
256
6
ByLayer
370
-1
48
1
60
0
100
AcDbLine
10
107.282423
20
5.508006
30
0
11
107.491597
21
5.508006
31
0
39
0
210
0
220
0
230
1
0
LINE
5
65
100
AcDbEntity
8
1
62
256
6
ByLayer
370
-1
48
1
60
0
100
AcDbLine
10
107.491597
20
5.508006
30
0
11
107.532448
21
4.333722
31
0
39
0
210
0
220
0
230
1
0
LINE
5
66
100
AcDbEntity
8
1
62
256
6
ByLayer
370
-1
48
1
60
0
100
AcDbLine
10
101.497526
20
5.21
30
0
11
103.758804
21
5.21
31
0
39
0
210
0
220
0
230
1
0
LINE
5
67
100
AcDbEntity
8
1
62
256
6
ByLayer
370
-1
48
1
60
0
100
AcDbLine
10
112.800616
20
3.363121
30
0
11
112.619135
21
3.372948
31
0
39
0
210
0
220
0
230
1
0
LINE
5
68
100
AcDbEntity
8
1
62
256
6
ByLayer
370
-1
48
1
60
0
100
AcDbLine
10
107.265181
20
-9.189835
30
0
11
113.173058
21
-9.189835
31
0
39
0
210
0
220
0
230
1
0
LINE
5
69
100
AcDbEntity
8
1
62
256
6
ByLayer
370
-1
48
1
60
0
100
AcDbLine
10
105.944365
20
5.74385
30
0
11
105.944365
21
9.197682
31
0
39
0
210
0
220
0
230
1
0
LINE
5
6A
100
AcDbEntity
8
1
62
256
6
ByLayer
370
-1
48
1
60
0
100
AcDbLine
10
104.788701
20
4.443515
30
0
11
104.237765
21
4.689744
31
0
39
0
210
0
220
0
230
1
0
LINE
5
6B
100
AcDbEntity
8
1
62
256
6
ByLayer
370
-1
48
1
60
0
100
AcDbLine
10
106.459066
20
1.186238
30
0
11
106.742158
21
2.160132
31
0
39
0
210
0
220
0
230
1
0
LINE
5
6C
100
AcDbEntity
8
1
62
256
6
ByLayer
370
-1
48
1
60
0
100
AcDbLine
10
107.69224
20
6.478687
30
0
11
107.804095
21
6.478687
31
0
39
0
210
0
220
0
230
1
0
LINE
5
6D
100
AcDbEntity
8
1
62
256
6
ByLayer
370
-1
48
1
60
0
100
AcDbLine
10
113.030265
20
0.375478
30
0
11
112.976896
21
0.377336
31
0
39
0
210
0
220
0
230
1
0
LINE
5
6E
100
AcDbEntity
8
1
62
256
6
ByLayer
370
-1
48
1
60
0
100
AcDbLine
10
112.992737
20
0.408168
30
0
11
113.003934
21
0.407778
31
0
39
0
210
0
220
0
230
1
0
LINE
5
6F
100
AcDbEntity
8
1
62
256
6
ByLayer
370
-1
48
1
60
0
100
AcDbLine
10
107.604596
20
6.432781
30
0
11
107.63192
21
6.432781
31
0
39
0
210
0
220
0
230
1
0
LINE
5
70
100
AcDbEntity
8
1
62
256
6
ByLayer
370
-1
48
1
60
0
100
AcDbLine
10
112.768689
20
3.372949
30
0
11
113.010038
21
3.360252
31
0
39
0
210
0
220
0
230
1
0
LINE
5
71
100
AcDbEntity
8
1
62
256
6
ByLayer
370
-1
48
1
60
0
100
AcDbLine
10
0.2
20
16
30
0
11
0.2
21
-16
31
0
39
0
210
0
220
0
230
1
0
LINE
5
72
100
AcDbEntity
8
1
62
256
6
ByLayer
370
-1
48
1
60
0
100
AcDbLine
10
0
20
15.8
30
0
11
0
21
-15.8
31
0
39
0
210
0
220
0
230
1
0
LINE
5
73
100
AcDbEntity
8
1
62
256
6
ByLayer
370
-1
48
1
60
0
100
AcDbLine
10
112.957091
20
-0.047417
30
0
11
112.160983
21
0.4204
31
0
39
0
210
0
220
0
230
1
0
LINE
5
74
100
AcDbEntity
8
1
62
256
6
ByLayer
370
-1
48
1
60
0
100
AcDbLine
10
107.852713
20
3.227873
30
0
11
107.898001
21
3.227873
31
0
39
0
210
0
220
0
230
1
0
LINE
5
75
100
AcDbEntity
8
1
62
256
6
ByLayer
370
-1
48
1
60
0
100
AcDbLine
10
107.604596
20
6.432781
30
0
11
107.516563
21
9.193565
31
0
39
0
210
0
220
0
230
1
0
LINE
5
76
100
AcDbEntity
8
1
62
256
6
ByLayer
370
-1
48
1
60
0
100
AcDbLine
10
16
20
-9.365
30
0
11
16
21
-8.377737
31
0
39
0
210
0
220
0
230
1
0
LINE
5
77
100
AcDbEntity
8
1
62
256
6
ByLayer
370
-1
48
1
60
0
100
AcDbLine
10
113.030265
20
0.375478
30
0
11
113.033593
21
0.387853
31
0
39
0
210
0
220
0
230
1
0
LINE
5
78
100
AcDbEntity
8
1
62
256
6
ByLayer
370
-1
48
1
60
0
100
AcDbLine
10
113.508607
20
-5.411355
30
0
11
113.205941
21
-5.332875
31
0
39
0
210
0
220
0
230
1
0
LINE
5
79
100
AcDbEntity
8
1
62
256
6
ByLayer
370
-1
48
1
60
0
100
AcDbLine
10
21
20
9.365
30
0
11
21
21
2.934541
31
0
39
0
210
0
220
0
230
1
0
LINE
5
7A
100
AcDbEntity
8
1
62
256
6
ByLayer
370
-1
48
1
60
0
100
AcDbLine
10
105.944365
20
5.74385
30
0
11
103.628819
21
6.063927
31
0
39
0
210
0
220
0
230
1
0
LINE
5
7B
100
AcDbEntity
8
1
62
256
6
ByLayer
370
-1
48
1
60
0
100
AcDbLine
10
112.869934
20
-4.395675
30
0
11
112.568274
21
-4.21841
31
0
39
0
210
0
220
0
230
1
0
LINE
5
7C
100
AcDbEntity
8
1
62
256
6
ByLayer
370
-1
48
1
60
0
100
AcDbLine
10
103.628819
20
9.195359
30
0
11
103.628819
21
6.063927
31
0
39
0
210
0
220
0
230
1
0
LINE
5
7D
100
AcDbEntity
8
1
62
256
6
ByLayer
370
-1
48
1
60
0
100
AcDbLine
10
21
20
-9.365
30
0
11
21
21
-8.774371
31
0
39
0
210
0
220
0
230
1
0
LINE
5
7E
100
AcDbEntity
8
1
62
256
6
ByLayer
370
-1
48
1
60
0
100
AcDbLine
10
107.852713
20
3.227873
30
0
11
107.111771
21
3.2019
31
0
39
0
210
0
220
0
230
1
0
LINE
5
7F
100
AcDbEntity
8
1
62
256
6
ByLayer
370
-1
48
1
60
0
100
AcDbLine
10
107.374881
20
4.007579
30
0
11
107.07647
21
3.997119
31
0
39
0
210
0
220
0
230
1
0
LINE
5
80
100
AcDbEntity
8
1
62
256
6
ByLayer
370
-1
48
1
60
0
100
AcDbLine
10
113.003934
20
0.407778
30
0
11
113.033593
21
0.387853
31
0
39
0
210
0
220
0
230
1
0
LINE
5
81
100
AcDbEntity
8
1
62
256
6
ByLayer
370
-1
48
1
60
0
100
AcDbLine
10
107.323274
20
4.333722
30
0
11
107.532448
21
4.333722
31
0
39
0
210
0
220
0
230
1
0
LINE
5
82
100
AcDbEntity
8
1
62
256
6
ByLayer
370
-1
48
1
60
0
100
AcDbLine
10
107.282423
20
5.508006
30
0
11
107.323274
21
4.333722
31
0
39
0
210
0
220
0
230
1
0
LINE
5
83
100
AcDbEntity
8
1
62
256
6
ByLayer
370
-1
48
1
60
0
100
AcDbLine
10
113.194807
20
-4.586579
30
0
11
112.961165
21
-0.142173
31
0
39
0
210
0
220
0
230
1
0
LINE
5
84
100
AcDbEntity
8
1
62
256
6
ByLayer
370
-1
48
1
60
0
100
AcDbLine
10
65
20
9.01016
30
0
11
65
21
-5.337271
31
0
39
0
210
0
220
0
230
1
0
LINE
5
85
100
AcDbEntity
8
1
62
256
6
ByLayer
370
-1
48
1
60
0
100
AcDbLine
10
107.543684
20
9.199945
30
0
11
107.63192
21
6.432781
31
0
39
0
210
0
220
0
230
1
0
LINE
5
86
100
AcDbEntity
8
1
62
256
6
ByLayer
370
-1
48
1
60
0
100
AcDbLine
10
112.107274
20
1.528182
30
0
11
112.800616
21
3.363121
31
0
39
0
210
0
220
0
230
1
0
LINE
5
87
100
AcDbEntity
8
1
62
256
6
ByLayer
370
-1
48
1
60
0
100
AcDbLine
10
113.188684
20
-4.655522
30
0
11
113.194807
21
-4.586579
31
0
39
0
210
0
220
0
230
1
0
LINE
5
88
100
AcDbEntity
8
1
62
256
6
ByLayer
370
-1
48
1
60
0
100
AcDbLine
10
113.194807
20
-4.586579
30
0
11
112.942087
21
-4.438073
31
0
39
0
210
0
220
0
230
1
0
LINE
5
89
100
AcDbEntity
8
1
62
256
6
ByLayer
370
-1
48
1
60
0
100
AcDbLine
10
103.890281
20
2.341198
30
0
11
103.711689
21
1.726802
31
0
39
0
210
0
220
0
230
1
0
LINE
5
8A
100
AcDbEntity
8
1
62
256
6
ByLayer
370
-1
48
1
60
0
100
AcDbLine
10
113.010038
20
3.360252
30
0
11
112.800616
21
3.363121
31
0
39
0
210
0
220
0
230
1
0
LINE
5
8B
100
AcDbEntity
8
1
62
256
6
ByLayer
370
-1
48
1
60
0
100
AcDbLine
10
113.033593
20
0.387853
30
0
11
113.142224
21
3.558083
31
0
39
0
210
0
220
0
230
1
0
LINE
5
8C
100
AcDbEntity
8
1
62
256
6
ByLayer
370
-1
48
1
60
0
100
AcDbLine
10
109.289038
20
3.256215
30
0
11
112.619135
21
3.372948
31
0
39
0
210
0
220
0
230
1
0
LINE
5
8D
100
AcDbEntity
8
1
62
256
6
ByLayer
370
-1
48
1
60
0
100
AcDbLine
10
112.619135
20
3.372948
30
0
11
112.768634
21
3.372948
31
0
39
0
210
0
220
0
230
1
0
LINE
5
8E
100
AcDbEntity
8
1
62
256
6
ByLayer
370
-1
48
1
60
0
100
AcDbLine
10
113.173058
20
-9.189835
30
0
11
113.508607
21
-5.411355
31
0
39
0
210
0
220
0
230
1
0
LINE
5
8F
100
AcDbEntity
8
1
62
256
6
ByLayer
370
-1
48
1
60
0
100
AcDbLine
10
5
20
16
30
0
11
5
21
-16
31
0
39
0
210
0
220
0
230
1
0
LINE
5
90
100
AcDbEntity
8
1
62
256
6
ByLayer
370
-1
48
1
60
0
100
AcDbLine
10
16
20
9.365
30
0
11
16
21
3.970809
31
0
39
0
210
0
220
0
230
1
0
LINE
5
91
100
AcDbEntity
8
SK1
62
256
6
ByLayer
370
-1
48
1
60
0
100
AcDbLine
10
-55
20
6.998498
30
0
11
-54.6
21
6.998498
31
0
39
0
210
0
220
0
230
1
0
LINE
5
92
100
AcDbEntity
8
1
62
256
6
ByLayer
370
-1
48
1
60
0
100
AcDbLine
10
107.886479
20
4.110518
30
0
11
107.945531
21
4.112604
31
0
39
0
210
0
220
0
230
1
0
LINE
5
93
100
AcDbEntity
8
1
62
256
6
ByLayer
370
-1
48
1
60
0
100
AcDbLine
10
108.436399
20
9.396829
30
0
11
108.438022
21
9.337094
31
0
39
0
210
0
220
0
230
1
0
LINE
5
94
100
AcDbEntity
8
1
62
256
6
ByLayer
370
-1
48
1
60
0
100
AcDbLine
10
112.944074
20
9.554842
30
0
11
112.945696
21
9.495106
31
0
39
0
210
0
220
0
230
1
0
LINE
5
95
100
AcDbEntity
8
1
62
256
6
ByLayer
370
-1
48
1
60
0
100
AcDbLine
10
113.686783
20
9.144436
30
0
11
113.626928
21
9.140267
31
0
39
0
210
0
220
0
230
1
0
LINE
5
96
100
AcDbEntity
8
1
62
256
6
ByLayer
370
-1
48
1
60
0
100
AcDbLine
10
108.645
20
3.400484
30
0
11
113.152674
21
3.558497
31
0
39
0
210
0
220
0
230
1
0
LINE
5
97
100
AcDbEntity
8
1
62
256
6
ByLayer
370
-1
48
1
60
0
100
AcDbLine
10
108.346135
20
3.395416
30
0
11
108.345679
21
3.455188
31
0
39
0
210
0
220
0
230
1
0
LINE
5
98
100
AcDbEntity
8
1
62
256
6
ByLayer
370
-1
48
1
60
0
100
AcDbLine
10
113.243263
20
3.562087
30
0
11
113.240188
21
3.6218
31
0
39
0
210
0
220
0
230
1
0
LINE
5
99
100
AcDbEntity
8
1
62
256
6
ByLayer
370
-1
48
1
60
0
100
AcDbLine
10
113.860006
20
4.319915
30
0
11
113.800042
21
4.317829
31
0
39
0
210
0
220
0
230
1
0
LINE
5
9A
100
AcDbEntity
8
1
62
256
6
ByLayer
370
-1
48
1
60
0
100
AcDbLine
10
113.702594
20
8.844808
30
0
11
113.642631
21
8.842722
31
0
39
0
210
0
220
0
230
1
0
LINE
5
9B
100
AcDbEntity
8
1
62
256
6
ByLayer
370
-1
48
1
60
0
100
AcDbLine
10
107.725295
20
8.775364
30
0
11
107.784376
21
8.776321
31
0
39
0
210
0
220
0
230
1
0
LINE
5
9C
100
AcDbEntity
8
1
62
256
6
ByLayer
370
-1
48
1
60
0
100
AcDbLine
10
113.696632
20
8.984684
30
0
11
113.636718
21
8.981469
31
0
39
0
210
0
220
0
230
1
0
LINE
5
9D
100
AcDbEntity
8
1
62
256
6
ByLayer
370
-1
48
1
60
0
100
AcDbLine
10
113.699018
20
8.935743
30
0
11
113.639076
21
8.933113
31
0
39
0
210
0
220
0
230
1
0
LINE
5
9E
100
AcDbEntity
8
1
62
256
6
ByLayer
370
-1
48
1
60
0
100
AcDbLine
10
107.914621
20
3.744105
30
0
11
107.971108
21
3.76158
31
0
39
0
210
0
220
0
230
1
0
LINE
5
9F
100
AcDbEntity
8
1
62
256
6
ByLayer
370
-1
48
1
60
0
100
AcDbLine
10
107.726316
20
8.726375
30
0
11
107.785384
21
8.727917
31
0
39
0
210
0
220
0
230
1
0
LINE
5
A0
100
AcDbEntity
8
1
62
256
6
ByLayer
370
-1
48
1
60
0
100
AcDbLine
10
112.944074
20
9.554842
30
0
11
108.436399
21
9.396829
31
0
39
0
210
0
220
0
230
1
0
LINE
5
A1
100
AcDbEntity
8
1
62
256
6
ByLayer
370
-1
48
1
60
0
100
AcDbLine
10
108.34581
20
9.393239
30
0
11
108.347974
21
9.333525
31
0
39
0
210
0
220
0
230
1
0
LINE
5
A2
100
AcDbEntity
8
1
62
256
6
ByLayer
370
-1
48
1
60
0
100
AcDbLine
10
108.071381
20
9.368579
30
0
11
108.088334
21
9.311419
31
0
39
0
210
0
220
0
230
1
0
LINE
5
A3
100
AcDbEntity
8
1
62
256
6
ByLayer
370
-1
48
1
60
0
100
AcDbLine
10
113.083494
20
9.558628
30
0
11
113.083992
21
9.498864
31
0
39
0
210
0
220
0
230
1
0
LINE
5
A4
100
AcDbEntity
8
1
62
256
6
ByLayer
370
-1
48
1
60
0
100
AcDbLine
10
113.862758
20
4.228951
30
0
11
113.802777
21
4.227408
31
0
39
0
210
0
220
0
230
1
0
LINE
5
A5
100
AcDbEntity
8
1
62
256
6
ByLayer
370
-1
48
1
60
0
100
AcDbLine
10
108.297055
20
9.390844
30
0
11
108.299802
21
9.331158
31
0
39
0
210
0
220
0
230
1
0
LINE
5
A6
100
AcDbEntity
8
1
62
256
6
ByLayer
370
-1
48
1
60
0
100
AcDbLine
10
107.729067
20
8.635411
30
0
11
107.78812
21
8.637497
31
0
39
0
210
0
220
0
230
1
0
LINE
5
A7
100
AcDbEntity
8
1
62
256
6
ByLayer
370
-1
48
1
60
0
100
AcDbLine
10
113.292018
20
3.564482
30
0
11
113.28836
21
3.624167
31
0
39
0
210
0
220
0
230
1
0
LINE
5
A8
100
AcDbEntity
8
1
62
256
6
ByLayer
370
-1
48
1
60
0
100
AcDbLine
10
107.731679
20
9.002902
30
0
11
107.789241
21
8.989456
31
0
39
0
210
0
220
0
230
1
0
LINE
5
A9
100
AcDbEntity
8
1
62
256
6
ByLayer
370
-1
48
1
60
0
100
AcDbLine
10
108.137911
20
9.380957
30
0
11
108.141609
21
9.321331
31
0
39
0
210
0
220
0
230
1
0
LINE
5
AA
100
AcDbEntity
8
1
62
256
6
ByLayer
370
-1
48
1
60
0
100
AcDbLine
10
113.863778
20
4.179962
30
0
11
113.803786
21
4.179005
31
0
39
0
210
0
220
0
230
1
0
LINE
5
AB
100
AcDbEntity
8
1
62
256
6
ByLayer
370
-1
48
1
60
0
100
AcDbLine
10
107.890055
20
4.019583
30
0
11
107.949086
21
4.022212
31
0
39
0
210
0
220
0
230
1
0
LINE
5
AC
100
AcDbEntity
8
1
62
256
6
ByLayer
370
-1
48
1
60
0
100
AcDbLine
10
113.310167
20
9.55222
30
0
11
113.296316
21
9.49398
31
0
39
0
210
0
220
0
230
1
0
LINE
5
AD
100
AcDbEntity
8
1
62
256
6
ByLayer
370
-1
48
1
60
0
100
AcDbLine
10
108.554382
20
3.397722
30
0
11
108.552389
21
3.457474
31
0
39
0
210
0
220
0
230
1
0
LINE
5
AE
100
AcDbEntity
8
1
62
256
6
ByLayer
370
-1
48
1
60
0
100
AcDbLine
10
113.865054
20
4.019909
30
0
11
113.805054
21
4.019909
31
0
39
0
210
0
220
0
230
1
0
LINE
5
AF
100
AcDbEntity
8
1
62
256
6
ByLayer
370
-1
48
1
60
0
100
AcDbLine
10
113.674452
20
9.211221
30
0
11
113.617054
21
9.193745
31
0
39
0
210
0
220
0
230
1
0
LINE
5
B0
100
AcDbEntity
8
1
62
256
6
ByLayer
370
-1
48
1
60
0
100
AcDbLine
10
107.902291
20
3.810889
30
0
11
107.961234
21
3.815059
31
0
39
0
210
0
220
0
230
1
0
LINE
5
B1
100
AcDbEntity
8
1
62
256
6
ByLayer
370
-1
48
1
60
0
100
AcDbLine
10
108.278907
20
3.403105
30
0
11
108.291846
21
3.461345
31
0
39
0
210
0
220
0
230
1
0
LINE
5
B2
100
AcDbEntity
8
1
62
256
6
ByLayer
370
-1
48
1
60
0
100
AcDbLine
10
113.242938
20
9.559909
30
0
11
113.242482
21
9.500137
31
0
39
0
210
0
220
0
230
1
0
LINE
5
B3
100
AcDbEntity
8
1
62
256
6
ByLayer
370
-1
48
1
60
0
100
AcDbLine
10
107.729067
20
8.635411
30
0
11
107.886479
21
4.110518
31
0
39
0
210
0
220
0
230
1
0
LINE
5
B4
100
AcDbEntity
8
1
62
256
6
ByLayer
370
-1
48
1
60
0
100
AcDbLine
10
113.451162
20
3.574369
30
0
11
113.446553
21
3.633995
31
0
39
0
210
0
220
0
230
1
0
LINE
5
B5
100
AcDbEntity
8
1
62
256
6
ByLayer
370
-1
48
1
60
0
100
AcDbLine
10
113.517693
20
3.586747
30
0
11
113.499828
21
3.643907
31
0
39
0
210
0
220
0
230
1
0
LINE
5
B6
100
AcDbEntity
8
1
62
256
6
ByLayer
370
-1
48
1
60
0
100
AcDbLine
10
113.152674
20
3.558497
30
0
11
113.15014
21
3.618232
31
0
39
0
210
0
220
0
230
1
0
LINE
5
B7
100
AcDbEntity
8
1
62
256
6
ByLayer
370
-1
48
1
60
0
100
AcDbLine
10
108.645
20
3.400484
30
0
11
108.642466
21
3.460219
31
0
39
0
210
0
220
0
230
1
0
LINE
5
B8
100
AcDbEntity
8
1
62
256
6
ByLayer
370
-1
48
1
60
0
100
AcDbLine
10
113.860006
20
4.319915
30
0
11
113.702594
21
8.844808
31
0
39
0
210
0
220
0
230
1
0
LINE
5
B9
100
AcDbEntity
8
1
62
256
6
ByLayer
370
-1
48
1
60
0
100
AcDbLine
10
107.892441
20
3.970641
30
0
11
107.951444
21
3.973856
31
0
39
0
210
0
220
0
230
1
0
LINE
5
BA
100
AcDbEntity
8
1
62
256
6
ByLayer
370
-1
48
1
60
0
100
AcDbLine
10
113.034692
20
9.557604
30
0
11
113.035772
21
9.497852
31
0
39
0
210
0
220
0
230
1
0
LINE
5
BB
100
AcDbEntity
8
1
62
256
6
ByLayer
370
-1
48
1
60
0
100
AcDbLine
10
108.505579
20
3.396697
30
0
11
108.50417
21
3.456461
31
0
39
0
210
0
220
0
230
1
0
LINE
5
BC
100
AcDbEntity
8
1
62
256
6
ByLayer
370
-1
48
1
60
0
100
AcDbLine
10
113.857394
20
3.952424
30
0
11
113.79892
21
3.965869
31
0
39
0
210
0
220
0
230
1
0
LINE
5
BD
100
AcDbEntity
8
1
62
256
6
ByLayer
370
-1
48
1
60
0
100
AcDbLine
10
107.724019
20
8.935417
30
0
11
107.783108
21
8.935417
31
0
39
0
210
0
220
0
230
1
0
LINE
5
BE
100
AcDbEntity
8
1
62
256
6
ByLayer
370
-1
48
1
60
0
100
AcDbLine
10
113.714937
20
-2.303187
30
0
11
113.524882
21
-2.191505
31
0
39
0
210
0
220
0
230
1
0
LINE
5
BF
100
AcDbEntity
8
1
62
256
6
ByLayer
370
-1
48
1
60
0
100
AcDbLine
10
113.329983
20
-0.265556
30
0
11
113.260631
21
0.086919
31
0
39
0
210
0
220
0
230
1
0
LINE
5
C0
100
AcDbEntity
8
1
62
256
6
ByLayer
370
-1
48
1
60
0
100
AcDbLine
10
113.175362
20
-2.13523
30
0
11
113.107902
21
-0.852001
31
0
39
0
210
0
220
0
230
1
0
LINE
5
C1
100
AcDbEntity
8
1
62
256
6
ByLayer
370
-1
48
1
60
0
100
AcDbLine
10
113.632621
20
-5.059444
30
0
11
113.56476
21
-4.965857
31
0
39
0
210
0
220
0
230
1
0
LINE
5
C2
100
AcDbEntity
8
1
62
256
6
ByLayer
370
-1
48
1
60
0
100
AcDbLine
10
113.309935
20
0.110135
30
0
11
113.260631
21
0.086919
31
0
39
0
210
0
220
0
230
1
0
LINE
5
C3
100
AcDbEntity
8
1
62
256
6
ByLayer
370
-1
48
1
60
0
100
AcDbLine
10
113.638765
20
-0.854214
30
0
11
113.455213
21
-0.773066
31
0
39
0
210
0
220
0
230
1
0
LINE
5
C4
100
AcDbEntity
8
1
62
256
6
ByLayer
370
-1
48
1
60
0
100
AcDbLine
10
113.609296
20
-0.709819
30
0
11
113.431171
21
-0.631069
31
0
39
0
210
0
220
0
230
1
0
LINE
5
C5
100
AcDbEntity
8
1
62
256
6
ByLayer
370
-1
48
1
60
0
100
AcDbLine
10
113.794515
20
-3.811936
30
0
11
113.808393
21
-3.415748
31
0
39
0
210
0
220
0
230
1
0
LINE
5
C6
100
AcDbEntity
8
1
62
256
6
ByLayer
370
-1
48
1
60
0
100
AcDbLine
10
113.075499
20
-2.140447
30
0
11
113.008039
21
-0.857219
31
0
39
0
210
0
220
0
230
1
0
LINE
5
C7
100
AcDbEntity
8
1
62
256
6
ByLayer
370
-1
48
1
60
0
100
AcDbLine
10
113.185567
20
-3.311683
30
0
11
113.171689
21
-3.707871
31
0
39
0
210
0
220
0
230
1
0
LINE
5
C8
100
AcDbEntity
8
1
62
256
6
ByLayer
370
-1
48
1
60
0
100
AcDbLine
10
113.16327
20
0.270068
30
0
11
112.955333
21
0.144306
31
0
39
0
210
0
220
0
230
1
0
LINE
5
C9
100
AcDbEntity
8
1
62
256
6
ByLayer
370
-1
48
1
60
0
100
AcDbLine
10
113.066237
20
-2.140914
30
0
11
113.075499
21
-2.140447
31
0
39
0
210
0
220
0
230
1
0
LINE
5
CA
100
AcDbEntity
8
1
62
256
6
ByLayer
370
-1
48
1
60
0
100
AcDbLine
10
113.169577
20
-4.989117
30
0
11
113.56476
21
-4.965857
31
0
39
0
210
0
220
0
230
1
0
LINE
5
CB
100
AcDbEntity
8
1
62
256
6
ByLayer
370
-1
48
1
60
0
100
AcDbLine
10
113.794515
20
-3.811936
30
0
11
113.444728
21
-3.725223
31
0
39
0
210
0
220
0
230
1
0
LINE
5
CC
100
AcDbEntity
8
1
62
256
6
ByLayer
370
-1
48
1
60
0
100
AcDbLine
10
113.609296
20
-0.709819
30
0
11
113.309935
21
0.110135
31
0
39
0
210
0
220
0
230
1
0
LINE
5
CD
100
AcDbEntity
8
1
62
256
6
ByLayer
370
-1
48
1
60
0
100
AcDbLine
10
113.961306
20
-4.608442
30
0
11
113.999695
21
-3.512501
31
0
39
0
210
0
220
0
230
1
0
LINE
5
CE
100
AcDbEntity
8
1
62
256
6
ByLayer
370
-1
48
1
60
0
100
AcDbLine
10
113.714937
20
-2.303187
30
0
11
113.638765
21
-0.854214
31
0
39
0
210
0
220
0
230
1
0
LINE
5
CF
100
AcDbEntity
8
1
62
256
6
ByLayer
370
-1
48
1
60
0
100
AcDbLine
10
113.808393
20
-3.415748
30
0
11
113.458606
21
-3.329034
31
0
39
0
210
0
220
0
230
1
0
LINE
5
D0
100
AcDbEntity
8
1
62
256
6
ByLayer
370
-1
48
1
60
0
100
AcDbLine
10
113.457423
20
-0.908276
30
0
11
113.107902
21
-0.852001
31
0
39
0
210
0
220
0
230
1
0
LINE
5
D1
100
AcDbEntity
8
1
62
256
6
ByLayer
370
-1
48
1
60
0
100
AcDbLine
10
113.524882
20
-2.191505
30
0
11
113.457423
21
-0.908276
31
0
39
0
210
0
220
0
230
1
0
LINE
5
D2
100
AcDbEntity
8
1
62
256
6
ByLayer
370
-1
48
1
60
0
100
AcDbLine
10
113.168244
20
-4.081318
30
0
11
113.181081
21
-4.069889
31
0
39
0
210
0
220
0
230
1
0
LINE
5
D3
100
AcDbEntity
8
1
62
256
6
ByLayer
370
-1
48
1
60
0
100
AcDbLine
10
113.175362
20
-2.13523
30
0
11
113.075499
21
-2.140447
31
0
39
0
210
0
220
0
230
1
0
LINE
5
D4
100
AcDbEntity
8
1
62
256
6
ByLayer
370
-1
48
1
60
0
100
AcDbLine
10
113.174951
20
-4.209008
30
0
11
113.247692
21
-4.144244
31
0
39
0
210
0
220
0
230
1
0
LINE
5
D5
100
AcDbEntity
8
1
62
256
6
ByLayer
370
-1
48
1
60
0
100
AcDbLine
10
113.760868
20
-4.88115
30
0
11
113.247692
21
-4.144244
31
0
39
0
210
0
220
0
230
1
0
LINE
5
D6
100
AcDbEntity
8
1
62
256
6
ByLayer
370
-1
48
1
60
0
100
AcDbLine
10
113.174995
20
-5.225493
30
0
11
113.632621
21
-5.059444
31
0
39
0
210
0
220
0
230
1
0
LINE
5
D7
100
AcDbEntity
8
1
62
256
6
ByLayer
370
-1
48
1
60
0
100
AcDbLine
10
113.999695
20
-3.512501
30
0
11
113.80976
21
-3.384447
31
0
39
0
210
0
220
0
230
1
0
LINE
5
D8
100
AcDbEntity
8
1
62
256
6
ByLayer
370
-1
48
1
60
0
100
AcDbLine
10
113.344789
20
-3.721744
30
0
11
113.358667
21
-3.325555
31
0
39
0
210
0
220
0
230
1
0
LINE
5
D9
100
AcDbEntity
8
1
62
256
6
ByLayer
370
-1
48
1
60
0
100
AcDbLine
10
113.904268
20
-3.051419
30
0
11
113.732404
21
-3.010978
31
0
39
0
210
0
220
0
230
1
0
LINE
5
DA
100
AcDbEntity
8
1
62
256
6
ByLayer
370
-1
48
1
60
0
100
AcDbLine
10
113.329983
20
-0.265556
30
0
11
112.978819
21
-0.477942
31
0
39
0
210
0
220
0
230
1
0
LINE
5
DB
100
AcDbEntity
8
1
62
256
6
ByLayer
370
-1
48
1
60
0
100
AcDbLine
10
113.72268
20
-2.99054
30
0
11
113.404767
21
-3.061947
31
0
39
0
210
0
220
0
230
1
0
LINE
5
DC
100
AcDbEntity
8
1
62
256
6
ByLayer
370
-1
48
1
60
0
100
AcDbLine
10
113.524882
20
-2.191505
30
0
11
113.175362
21
-2.13523
31
0
39
0
210
0
220
0
230
1
0
LINE
5
DD
100
AcDbEntity
8
1
62
256
6
ByLayer
370
-1
48
1
60
0
100
AcDbLine
10
112.998778
20
-0.857686
30
0
11
113.008039
21
-0.857219
31
0
39
0
210
0
220
0
230
1
0
LINE
5
DE
100
AcDbEntity
8
1
62
256
6
ByLayer
370
-1
48
1
60
0
100
AcDbLine
10
113.444728
20
-3.725223
30
0
11
113.458606
21
-3.329034
31
0
39
0
210
0
220
0
230
1
0
LINE
5
DF
100
AcDbEntity
8
1
62
256
6
ByLayer
370
-1
48
1
60
0
100
AcDbLine
10
113.961306
20
-4.608442
30
0
11
113.854374
21
-4.46097
31
0
39
0
210
0
220
0
230
1
0
LINE
5
E0
100
AcDbEntity
8
SK1
62
256
6
ByLayer
370
-1
48
1
60
0
100
AcDbLine
10
-52.6
20
6.998498
30
0
11
-6.5
21
6.998498
31
0
39
0
210
0
220
0
230
1
0
LINE
5
E1
100
AcDbEntity
8
SK1
62
256
6
ByLayer
370
-1
48
1
60
0
100
AcDbLine
10
-54.516223
20
-6.812044
30
0
11
-54.516223
21
-12.393294
31
0
39
0
210
0
220
0
230
1
0
LINE
5
E2
100
AcDbEntity
8
SK1
62
256
6
ByLayer
370
-1
48
1
60
0
100
AcDbLine
10
-54.516223
20
12.393294
30
0
11
-54.516223
21
6.812044
31
0
39
0
210
0
220
0
230
1
0
LINE
5
E3
100
AcDbEntity
8
SK1
62
256
6
ByLayer
370
-1
48
1
60
0
100
AcDbLine
10
-52.6
20
6.998498
30
0
11
-52.6
21
12.49675
31
0
39
0
210
0
220
0
230
1
0
LINE
5
E4
100
AcDbEntity
8
SK1
62
256
6
ByLayer
370
-1
48
1
60
0
100
AcDbLine
10
-52.6
20
-12.49675
30
0
11
-52.6
21
-6.998498
31
0
39
0
210
0
220
0
230
1
0
LINE
5
E5
100
AcDbEntity
8
SK1
62
256
6
ByLayer
370
-1
48
1
60
0
100
AcDbLine
10
-56
20
-4.998547
30
0
11
-56
21
-11.49675
31
0
39
0
210
0
220
0
230
1
0
LINE
5
E6
100
AcDbEntity
8
SK1
62
256
6
ByLayer
370
-1
48
1
60
0
100
AcDbLine
10
-56
20
11.49675
30
0
11
-56
21
4.998547
31
0
39
0
210
0
220
0
230
1
0
LINE
5
E7
100
AcDbEntity
8
SK1
62
256
6
ByLayer
370
-1
48
1
60
0
100
AcDbLine
10
-2
20
-12.49675
30
0
11
-2
21
12.49675
31
0
39
0
210
0
220
0
230
1
0
LINE
5
E8
100
AcDbEntity
8
SK1
62
256
6
ByLayer
370
-1
48
1
60
0
100
AcDbLine
10
-56
20
4.998547
30
0
11
-56
21
-4.998547
31
0
39
0
210
0
220
0
230
1
0
LINE
5
E9
100
AcDbEntity
8
SK1
62
256
6
ByLayer
370
-1
48
1
60
0
100
AcDbLine
10
-6.5
20
6.998498
30
0
11
-6.5
21
-6.998498
31
0
39
0
210
0
220
0
230
1
0
LINE
5
EA
100
AcDbEntity
8
SK1
62
256
6
ByLayer
370
-1
48
1
60
0
100
AcDbLine
10
-6.5
20
-6.998498
30
0
11
-52.6
21
-6.998498
31
0
39
0
210
0
220
0
230
1
0
LINE
5
EB
100
AcDbEntity
8
SK1
62
256
6
ByLayer
370
-1
48
1
60
0
100
AcDbLine
10
-1.551212
20
12.287477
30
0
11
-1.551212
21
-12.287477
31
0
39
0
210
0
220
0
230
1
0
LINE
5
EC
100
AcDbEntity
8
SK1
62
256
6
ByLayer
370
-1
48
1
60
0
100
AcDbLine
10
-54.6
20
-6.998498
30
0
11
-55
21
-6.998498
31
0
39
0
210
0
220
0
230
1
0
LINE
5
ED
100
AcDbEntity
8
SK1
62
256
6
ByLayer
370
-1
48
1
60
0
100
AcDbLine
10
-0.15
20
12.25
30
0
11
-0.15
21
-12.25
31
0
39
0
210
0
220
0
230
1
0
LINE
5
EE
100
AcDbEntity
8
SK1
62
256
6
ByLayer
370
-1
48
1
60
0
100
AcDbLine
10
-54.6
20
-12.49675
30
0
11
-54.6
21
-6.998498
31
0
39
0
210
0
220
0
230
1
0
LINE
5
EF
100
AcDbEntity
8
SK1
62
256
6
ByLayer
370
-1
48
1
60
0
100
AcDbLine
10
-54.6
20
6.998498
30
0
11
-54.6
21
12.49675
31
0
39
0
210
0
220
0
230
1
0
LINE
5
F0
100
AcDbEntity
8
SK1
62
256
6
ByLayer
370
-1
48
1
60
0
100
AcDbLine
10
-53.633814
20
-6.340342
30
0
11
-53.633814
21
-12.140417
31
0
39
0
210
0
220
0
230
1
0
LINE
5
F1
100
AcDbEntity
8
SK1
62
256
6
ByLayer
370
-1
48
1
60
0
100
AcDbLine
10
-53.633814
20
12.140417
30
0
11
-53.633814
21
6.340342
31
0
39
0
210
0
220
0
230
1
0
LINE
5
F2
100
AcDbEntity
8
SK1
62
256
6
ByLayer
370
-1
48
1
60
0
100
AcDbLine
10
-1.382165
20
12.25
30
0
11
-1.382165
21
-12.25
31
0
39
0
210
0
220
0
230
1
0
LINE
5
F3
100
AcDbEntity
8
SK1
62
256
6
ByLayer
370
-1
48
1
60
0
100
AcDbLine
10
-55
20
-6.998498
30
0
11
-55
21
-12.49675
31
0
39
0
210
0
220
0
230
1
0
LINE
5
F4
100
AcDbEntity
8
SK1
62
256
6
ByLayer
370
-1
48
1
60
0
100
AcDbLine
10
-55
20
12.49675
30
0
11
-55
21
6.998498
31
0
39
0
210
0
220
0
230
1
0
MTEXT
5
214
100
AcDbEntity
8
SK6
62
256
6
ByLayer
370
-1
48
1
60
0
100
AcDbMText
10
0.79375
20
-80.79375
30
0
210
0
220
0
230
1
1
\W00.723;\fsimplex.shx,bigfont.shx;880-D1900L25-05 
40
3.175
41
0
44
1.084337
50
0
71
7
72
5
7
DEFAULT
0
DIMENSION
5
244
100
AcDbEntity
8
SK2
62
256
6
ByLayer
370
-3
48
1
60
0
100
AcDbDimension
2
DimnDraft3D1
10
114
20
-54.86955
30
0
11
29
21
-54.86955
31
0
70
32
71
5
72
1
41
1
210
0
220
0
230
1
3
Standard
100
AcDbAlignedDimension
13
-56
23
-14.0875
33
0
14
114
24
-11.0875
34
0
50
0
100
AcDbRotatedDimension
1001
ACAD
1000
DSTYLE
1002
{
1070
   279
1070
     0
1070
   172
1070
     1
1070
   173
1070
     1
1070
   340
1005
215
1070
   271
1070
     1
1070
   272
1070
     2
1070
    77
1070
     1
1070
    73
1070
     0
1070
   171
1070
     3
1070
   274
1070
     4
1070
   177
1070
   150
1070
   176
1070
     9
1070
   178
1070
    43
1070
    78
1070
     8
1070
    48
1040
-0.005
1070
    41
1041
4.175
1070
   147
1041
2.25
1070
    42
1041
1.5875
1070
    44
1041
3.175
1070
   140
1041
4.5
1070
   343
1005
0
1070
   344
1005
0
1002
}
0
DIMENSION
5
24E
100
AcDbEntity
8
SK2
62
256
6
ByLayer
370
-3
48
1
60
0
100
AcDbDimension
2
DimnDraft3D2
10
0
20
-42.9008
30
0
11
-28
21
-42.9008
31
0
70
32
71
5
72
1
41
1
210
0
220
0
230
1
3
Standard
100
AcDbAlignedDimension
13
-56
23
-14.0875
33
0
14
0
24
-17.5875
34
0
50
0
100
AcDbRotatedDimension
1001
ACAD
1000
DSTYLE
1002
{
1070
   279
1070
     0
1070
   172
1070
     1
1070
   173
1070
     1
1070
   340
1005
215
1070
   271
1070
     1
1070
   272
1070
     2
1070
    77
1070
     1
1070
    73
1070
     0
1070
   171
1070
     3
1070
   274
1070
     4
1070
   177
1070
   150
1070
   176
1070
     9
1070
   178
1070
    43
1070
    78
1070
     8
1070
    48
1040
-0.005
1070
    41
1041
4.175
1070
   147
1041
2.25
1070
    42
1041
1.5875
1070
    44
1041
3.175
1070
   140
1041
4.5
1070
   343
1005
0
1070
   344
1005
0
1002
}
0
DIMENSION
5
259
100
AcDbEntity
8
2
62
256
6
ByLayer
370
-3
48
1
60
0
100
AcDbDimension
2
DimnDraft3D3
10
114
20
-42.9008
30
0
11
57
21
-42.9008
31
0
70
32
71
5
72
1
41
1
210
0
220
0
230
1
3
Standard
100
AcDbAlignedDimension
13
0
23
-17.5875
33
0
14
114
24
-11.0875
34
0
50
0
100
AcDbRotatedDimension
1001
ACAD
1000
DSTYLE
1002
{
1070
   279
1070
     0
1070
   172
1070
     1
1070
   173
1070
     1
1070
   340
1005
215
1070
   271
1070
     1
1070
   272
1070
     2
1070
    77
1070
     1
1070
    73
1070
     0
1070
   171
1070
     3
1070
   274
1070
     4
1070
   177
1070
   150
1070
   176
1070
     9
1070
   178
1070
    43
1070
    78
1070
     8
1070
    48
1040
-0.005
1070
    41
1041
4.175
1070
   147
1041
2.25
1070
    42
1041
1.5875
1070
    44
1041
3.175
1070
   140
1041
4.5
1070
   343
1005
0
1070
   344
1005
0
1002
}
0
DIMENSION
5
263
100
AcDbEntity
8
SK2
62
256
6
ByLayer
370
-3
48
1
60
0
100
AcDbDimension
2
DimnDraft3D4
10
114
20
-32.9008
30
0
11
65
21
-32.9008
31
0
70
32
71
5
72
1
41
1
210
0
220
0
230
1
3
Standard
100
AcDbAlignedDimension
13
16
23
-11.5875
33
0
14
114
24
-11.0875
34
0
50
0
100
AcDbRotatedDimension
1001
ACAD
1000
DSTYLE
1002
{
1070
   279
1070
     0
1070
   172
1070
     1
1070
   173
1070
     1
1070
   340
1005
215
1070
   271
1070
     1
1070
   272
1070
     2
1070
    77
1070
     1
1070
    73
1070
     0
1070
   171
1070
     3
1070
   274
1070
     4
1070
   177
1070
   150
1070
   176
1070
     9
1070
   178
1070
    43
1070
    78
1070
     8
1070
    48
1040
-0.005
1070
    41
1041
4.175
1070
   147
1041
2.25
1070
    42
1041
1.5875
1070
    44
1041
3.175
1070
   140
1041
4.5
1070
   343
1005
0
1070
   344
1005
0
1002
}
0
DIMENSION
5
26E
100
AcDbEntity
8
SK2
62
256
6
ByLayer
370
-3
48
1
60
0
100
AcDbDimension
2
DimnDraft3D5
10
-67.9
20
-12.5
30
0
11
-68.1
21
4.121053
31
0
70
33
71
5
72
1
41
1
210
0
220
0
230
1
3
Standard
100
AcDbAlignedDimension
13
-57.5875
23
12.5
33
0
14
-57.5875
24
-12.5
34
0
1001
ACAD
1000
DSTYLE
1002
{
1070
   279
1070
     0
1070
    74
1070
     0
1070
   173
1070
     1
1070
   340
1005
215
1070
   271
1070
     2
1070
   272
1070
     2
1070
    77
1070
     1
1070
    73
1070
     0
1070
   171
1070
     3
1070
   274
1070
     4
1070
   177
1070
   150
1070
   176
1070
     9
1070
   178
1070
    43
1070
    78
1070
     8
1070
    48
1040
-0.005
1070
    41
1041
4.175
1070
   147
1041
2.25
1070
    42
1041
1.5875
1070
    44
1041
3.175
1070
   140
1041
4.5
1070
   343
1005
0
1070
   344
1005
0
1002
}
0
DIMENSION
5
279
100
AcDbEntity
8
SK2
62
256
6
ByLayer
370
-3
48
1
60
0
100
AcDbDimension
2
DimnDraft3D6
10
-77.9
20
16
30
0
11
-78.1
21
4.121053
31
0
70
33
71
5
72
1
41
1
210
0
220
0
230
1
3
Standard
100
AcDbAlignedDimension
13
-1.5875
23
-16
33
0
14
-1.5875
24
16
34
0
1001
ACAD
1000
DSTYLE
1002
{
1070
   279
1070
     0
1070
    74
1070
     0
1070
   173
1070
     1
1070
   340
1005
215
1070
   271
1070
     1
1070
   272
1070
     2
1070
    77
1070
     1
1070
    73
1070
     0
1070
   171
1070
     3
1070
   274
1070
     4
1070
   177
1070
   150
1070
   176
1070
     9
1070
   178
1070
    43
1070
    78
1070
     8
1070
    48
1040
-0.005
1070
    41
1041
4.175
1070
   147
1041
2.25
1070
    42
1041
1.5875
1070
    44
1041
3.175
1070
   140
1041
4.5
1070
   343
1005
0
1070
   344
1005
0
1002
}
0
DIMENSION
5
284
100
AcDbEntity
8
2
62
256
6
ByLayer
370
-3
48
1
60
0
100
AcDbDimension
2
DimnDraft3D7
10
144.15
20
-9.5
30
0
11
137.6
21
-25.745395
31
0
70
33
71
5
72
1
41
1
210
0
220
0
230
1
3
Standard
100
AcDbAlignedDimension
13
115.5875
23
9.5
33
0
14
115.5875
24
-9.5
34
0
1001
ACAD
1000
DSTYLE
1002
{
1070
   279
1070
     0
1070
    74
1070
     0
1070
   173
1070
     1
1070
   340
1005
215
1070
   271
1070
     2
1070
   272
1070
     2
1070
    77
1070
     1
1070
    73
1070
     0
1070
   171
1070
     3
1070
   274
1070
     4
1070
   177
1070
   150
1070
   176
1070
     9
1070
   178
1070
    43
1070
    78
1070
     8
1070
    48
1040
-0.005
1070
    41
1041
4.175
1070
   147
1041
2.25
1070
    42
1041
1.5875
1070
    44
1041
3.175
1070
   140
1041
4.5
1070
   343
1005
0
1070
   344
1005
0
1002
}
0
ENDSEC
0
SECTION
2
OBJECTS
0
DICTIONARY
5
2b5
330
0
100
AcDbDictionary
280
0
281
1
3
ACAD_GROUP
350
2b6
3
ACAD_MLINESTYLE
350
2b7
0
DICTIONARY
5
2b6
330
0
100
AcDbDictionary
280
0
281
1
0
DICTIONARY
5
2b7
330
0
100
AcDbDictionary
280
0
281
1
3
Standard
350
18
0
MLINESTYLE
5
18
330
2b7
100
AcDbMlineStyle
2
Standard
70
0
3

62
256
51
90
52
90
71
2
49
-0.5
62
256
6
ByLayer
49
0.5
62
256
6
ByLayer
0
RASTERVARIABLES
5
2a3
330

100
AcDbRasterVariables
90
0
70
1
71
1
72
1
0
ENDSEC
0
EOF
