0
SECTION
2
HEADER
9
$ACADVER
1
AC1015
9
$DWGCODEPAGE
3
ANSI_1252
9
$HANDSEED
5
2c3
9
$ANGBASE
50
0
9
$ANGDIR
70
0
9
$ATTMODE
70
1
9
$AUNITS
70
0
9
$AUPREC
70
0
9
$CECOLOR
62
256
9
$CELTSCALE
40
1
9
$CELTYPE
6
ByLayer
9
$CELWEIGHT
370
-1
9
$CLAYER
8
0
9
$CMLJUST
70
0
9
$CMLSCALE
40
1
9
$CMLSTYLE
2
Standard
9
$DIMSTYLE
2
Standard
9
$TEXTSIZE
40
0.2
9
$TEXTSTYLE
7
Standard
9
$LUNITS
70
2
9
$LUPREC
70
4
9
$EXTNAMES
290
1
9
$INSUNITS
70
4
9
$LTSCALE
40
1
9
$LWDISPLAY
290
0
9
$PDMODE
70
0
9
$PDSIZE
40
0
9
$PLINEGEN
70
0
0
ENDSEC
0
SECTION
2
CLASSES
0
CLASS
1
RASTERVARIABLES
2
AcDbRasterVariables
3
ISM
90
0
280
0
281
0
0
ENDSEC
0
SECTION
2
TABLES
0
TABLE
2
VPORT
5
2b9
100
AcDbSymbolTable
0
VPORT
5
1
100
AcDbSymbolTableRecord
100
AcDbViewportTableRecord
2
*Active
70
0
10
0
20
0
11
1
21
1
12
-1
22
1
13
0
23
0
14
0.5
24
0.5
15
10
25
10
16
0
26
0
36
1
17
0
27
0
37
0
0
ENDTAB
0
TABLE
2
LTYPE
5
2ba
100
AcDbSymbolTable
0
LTYPE
5
14
100
AcDbSymbolTableRecord
100
AcDbLinetypeTableRecord
70
0
2
ByBlock
3

72
65
73
0
40
0
0
LTYPE
5
15
100
AcDbSymbolTableRecord
100
AcDbLinetypeTableRecord
70
0
2
ByLayer
3

72
65
73
0
40
0
0
LTYPE
5
16
100
AcDbSymbolTableRecord
100
AcDbLinetypeTableRecord
70
0
2
CONTINUOUS
3
Solid line
72
65
73
0
40
0
0
LTYPE
5
3B
100
AcDbSymbolTableRecord
100
AcDbLinetypeTableRecord
70
0
2
DASHED
3
__ __ __ __ __ __ __ __ __
72
65
73
2
40
25.72
49
12.86
74
0
49
-12.86
74
0
0
LTYPE
5
3C
100
AcDbSymbolTableRecord
100
AcDbLinetypeTableRecord
70
0
2
HIDDEN
3
_ _ _ _ _ _ _ _ _ _ _ _ _ _ _
72
65
73
2
40
0.5
49
0.25
74
0
49
-0.25
74
0
0
LTYPE
5
3D
100
AcDbSymbolTableRecord
100
AcDbLinetypeTableRecord
70
0
2
PHANTOM
3
____ _ _ ____ _ _ _____ _ _ ____
72
65
73
6
40
50.5
49
18
74
0
49
-6.5
74
0
49
6.5
74
0
49
-6.5
74
0
49
6.5
74
0
49
-6.5
74
0
0
LTYPE
5
3E
100
AcDbSymbolTableRecord
100
AcDbLinetypeTableRecord
70
0
2
CENTER
3
____ _ ____ _ ____ _ ____
72
65
73
4
40
47.5
49
22
74
0
49
-8.5
74
0
49
8.5
74
0
49
-8.5
74
0
0
LTYPE
5
3F
100
AcDbSymbolTableRecord
100
AcDbLinetypeTableRecord
70
0
2
DOT
3
.........................
72
65
73
2
40
10
49
0
74
0
49
-10
74
0
0
LTYPE
5
40
100
AcDbSymbolTableRecord
100
AcDbLinetypeTableRecord
70
0
2
DASHDOT
3
_._._._._._._._._._._._._._._._.
72
65
73
4
40
70
49
31
74
0
49
-13
74
0
49
13
74
0
49
-13
74
0
0
ENDTAB
0
TABLE
2
LAYER
5
2bb
100
AcDbSymbolTable
0
LAYER
5
10
100
AcDbSymbolTableRecord
100
AcDbLayerTableRecord
2
0
70
0
62
7
6
CONTINUOUS
290
1
370
-3
390
0
0
LAYER
5
42
100
AcDbSymbolTableRecord
100
AcDbLayerTableRecord
2
81
70
0
62
-3
6
CONTINUOUS
290
1
370
-3
390
0
0
LAYER
5
44
100
AcDbSymbolTableRecord
100
AcDbLayerTableRecord
2
80
70
0
62
-6
6
CONTINUOUS
290
1
370
-3
390
0
0
LAYER
5
48
100
AcDbSymbolTableRecord
100
AcDbLayerTableRecord
2
1
70
0
62
4
6
CONTINUOUS
290
1
370
-3
390
0
0
LAYER
5
63
100
AcDbSymbolTableRecord
100
AcDbLayerTableRecord
2
4
70
0
62
-2
6
CENTER
290
1
370
-3
390
0
0
LAYER
5
252
100
AcDbSymbolTableRecord
100
AcDbLayerTableRecord
2
2
70
0
62
7
6
CONTINUOUS
290
1
370
-3
390
0
0
LAYER
5
2a5
100
AcDbSymbolTableRecord
100
AcDbLayerTableRecord
2
SK1
70
0
62
4
6
CONTINUOUS
290
1
370
-3
390
0
0
LAYER
5
2a6
100
AcDbSymbolTableRecord
100
AcDbLayerTableRecord
2
SK4
70
0
62
2
6
CENTER
290
1
370
-3
390
0
0
LAYER
5
2a7
100
AcDbSymbolTableRecord
100
AcDbLayerTableRecord
2
SK6
70
0
62
5
6
CONTINUOUS
290
1
370
-3
390
0
0
LAYER
5
2a8
100
AcDbSymbolTableRecord
100
AcDbLayerTableRecord
2
SK2
70
0
62
7
6
CONTINUOUS
290
1
370
-3
390
0
0
ENDTAB
0
TABLE
2
STYLE
5
2bc
100
AcDbSymbolTable
0
STYLE
5
11
100
AcDbSymbolTableRecord
100
AcDbTextStyleTableRecord
2
Standard
3
txt
70
0
71
0
40
0
41
1
42
0
50
0
0
STYLE
5
216
100
AcDbSymbolTableRecord
100
AcDbTextStyleTableRecord
2
DEFAULT
3
simplex.shx
70
0
71
0
40
0
41
1
42
0
50
0
0
STYLE
5
239
100
AcDbSymbolTableRecord
100
AcDbTextStyleTableRecord
2
DWGDirectTextStyle
3
SIMPLEX
70
0
71
0
40
0
41
1
42
0
50
0
0
ENDTAB
0
TABLE
2
DIMSTYLE
5
2bd
100
AcDbSymbolTable
100
AcDbDimStyleTable
0
DIMSTYLE
105
27
100
AcDbSymbolTableRecord
100
AcDbDimStyleTableRecord
2
Standard
70
0
3
<>
41
0.18
42
0.0625
44
0.18
140
0.18
147
0.09
73
0
74
0
77
1
271
2
275
0
278
52
280
0
340
11
0
ENDTAB
0
TABLE
2
VIEW
5
2be
100
AcDbSymbolTable
0
ENDTAB
0
TABLE
2
UCS
5
2bf
100
AcDbSymbolTable
0
ENDTAB
0
TABLE
2
APPID
5
2c0
100
AcDbSymbolTable
0
APPID
5
12
100
AcDbSymbolTableRecord
100
AcDbRegAppTableRecord
2
ACAD
70
0
0
ENDTAB
0
TABLE
2
BLOCK_RECORD
5
2c1
100
AcDbSymbolTable
0
BLOCK_RECORD
5
1F
100
AcDbSymbolTableRecord
100
AcDbBlockTableRecord
2
*Model_Space
340
0
70
0
0
BLOCK_RECORD
5
1B
100
AcDbSymbolTableRecord
100
AcDbBlockTableRecord
2
*Paper_Space
340
0
70
0
0
BLOCK_RECORD
5
23
100
AcDbSymbolTableRecord
100
AcDbBlockTableRecord
2
*Paper_Space0
340
0
70
0
0
BLOCK_RECORD
5
23B
100
AcDbSymbolTableRecord
100
AcDbBlockTableRecord
2
DimnDraft3D1
340
0
70
0
0
BLOCK_RECORD
5
246
100
AcDbSymbolTableRecord
100
AcDbBlockTableRecord
2
DimnDraft3D2
340
0
70
0
0
BLOCK_RECORD
5
250
100
AcDbSymbolTableRecord
100
AcDbBlockTableRecord
2
DimnDraft3D3
340
0
70
0
0
BLOCK_RECORD
5
25B
100
AcDbSymbolTableRecord
100
AcDbBlockTableRecord
2
DimnDraft3D4
340
0
70
0
0
BLOCK_RECORD
5
265
100
AcDbSymbolTableRecord
100
AcDbBlockTableRecord
2
DimnDraft3D5
340
0
70
0
0
BLOCK_RECORD
5
270
100
AcDbSymbolTableRecord
100
AcDbBlockTableRecord
2
DimnDraft3D6
340
0
70
0
0
BLOCK_RECORD
5
27B
100
AcDbSymbolTableRecord
100
AcDbBlockTableRecord
2
DimnDraft3D7
340
0
70
0
0
ENDTAB
0
ENDSEC
0
SECTION
2
BLOCKS
0
BLOCK
5
20
100
AcDbEntity
8
0
100
AcDbBlockBegin
2
*Model_Space
70
0
10
0
20
0
30
0
3
*Model_Space
0
ENDBLK
5
21
100
AcDbEntity
8
0
100
AcDbBlockEnd
0
BLOCK
5
1C
100
AcDbEntity
8
0
100
AcDbBlockBegin
2
*Paper_Space
70
0
10
0
20
0
30
0
3
*Paper_Space
0
ENDBLK
5
1D
100
AcDbEntity
8
0
100
AcDbBlockEnd
0
BLOCK
5
24
100
AcDbEntity
8
0
100
AcDbBlockBegin
2
*Paper_Space0
70
0
10
0
20
0
30
0
3
*Paper_Space0
0
ENDBLK
5
25
100
AcDbEntity
8
0
100
AcDbBlockEnd
0
BLOCK
5
243
100
AcDbEntity
8
0
100
AcDbBlockBegin
2
DimnDraft3D1
70
0
10
0
20
0
30
0
3
DimnDraft3D1
0
MTEXT
5
23C
100
AcDbEntity
8
SK2
62
256
6
ByLayer
370
-1
48
1
60
0
100
AcDbMText
10
20.906579
20
-51.7758
30
0
210
0
220
0
230
1
1
\W01.000;\fsimplex.shx,bigfont.shx;(168) 
40
4.5
41
0
44
1.084337
50
0
71
7
72
5
7
DEFAULT
0
LINE
5
23E
100
AcDbEntity
8
SK2
62
256
6
ByLayer
370
-1
48
1
60
0
100
AcDbLine
10
-56
20
-14.0875
30
0
11
-56
21
-58.04455
31
0
39
0
210
0
220
0
230
1
0
LINE
5
23F
100
AcDbEntity
8
SK2
62
256
6
ByLayer
370
-1
48
1
60
0
100
AcDbLine
10
112
20
-10.8375
30
0
11
112
21
-58.04455
31
0
39
0
210
0
220
0
230
1
0
LINE
5
240
100
AcDbEntity
8
SK2
62
256
6
ByLayer
370
-1
48
1
60
0
100
AcDbLine
10
-56
20
-54.86955
30
0
11
112
21
-54.86955
31
0
39
0
210
0
220
0
230
1
0
SOLID
5
241
100
AcDbEntity
8
SK2
62
256
6
ByLayer
370
-1
48
1
60
0
100
AcDbTrace
10
-56
20
-54.86955
30
0
11
-51.825003
21
-53.943975
31
0
12
-51.824997
22
-55.795125
32
0
13
-56
23
-54.86955
33
0
39
0
210
0
220
0
230
1
0
SOLID
5
242
100
AcDbEntity
8
SK2
62
256
6
ByLayer
370
-1
48
1
60
0
100
AcDbTrace
10
112
20
-54.86955
30
0
11
107.825003
21
-55.795125
31
0
12
107.824997
22
-53.943975
32
0
13
112
23
-54.86955
33
0
39
0
210
0
220
0
230
1
0
ENDBLK
5
244
100
AcDbEntity
8
0
100
AcDbBlockEnd
0
BLOCK
5
24D
100
AcDbEntity
8
0
100
AcDbBlockBegin
2
DimnDraft3D2
70
0
10
0
20
0
30
0
3
DimnDraft3D2
0
MTEXT
5
247
100
AcDbEntity
8
SK2
62
256
6
ByLayer
370
-1
48
1
60
0
100
AcDbMText
10
-29.503947
20
-41.7758
30
0
210
0
220
0
230
1
1
\W01.000;\fsimplex.shx,bigfont.shx;56 
40
4.5
41
0
44
1.084337
50
0
71
7
72
5
7
DEFAULT
0
LINE
5
248
100
AcDbEntity
8
SK2
62
256
6
ByLayer
370
-1
48
1
60
0
100
AcDbLine
10
-56
20
-14.0875
30
0
11
-56
21
-46.0758
31
0
39
0
210
0
220
0
230
1
0
LINE
5
249
100
AcDbEntity
8
SK2
62
256
6
ByLayer
370
-1
48
1
60
0
100
AcDbLine
10
0
20
-17.5875
30
0
11
0
21
-46.0758
31
0
39
0
210
0
220
0
230
1
0
LINE
5
24A
100
AcDbEntity
8
SK2
62
256
6
ByLayer
370
-1
48
1
60
0
100
AcDbLine
10
-56
20
-42.9008
30
0
11
0
21
-42.9008
31
0
39
0
210
0
220
0
230
1
0
SOLID
5
24B
100
AcDbEntity
8
SK2
62
256
6
ByLayer
370
-1
48
1
60
0
100
AcDbTrace
10
-56
20
-42.9008
30
0
11
-51.825003
21
-41.975225
31
0
12
-51.824997
22
-43.826375
32
0
13
-56
23
-42.9008
33
0
39
0
210
0
220
0
230
1
0
SOLID
5
24C
100
AcDbEntity
8
SK2
62
256
6
ByLayer
370
-1
48
1
60
0
100
AcDbTrace
10
0
20
-42.9008
30
0
11
-4.174997
21
-43.826375
31
0
12
-4.175003
22
-41.975225
32
0
13
0
23
-42.9008
33
0
39
0
210
0
220
0
230
1
0
ENDBLK
5
24E
100
AcDbEntity
8
0
100
AcDbBlockEnd
0
BLOCK
5
258
100
AcDbEntity
8
0
100
AcDbBlockBegin
2
DimnDraft3D3
70
0
10
0
20
0
30
0
3
DimnDraft3D3
0
MTEXT
5
251
100
AcDbEntity
8
2
62
256
6
ByLayer
370
-1
48
1
60
0
100
AcDbMText
10
53.969079
20
-41.7758
30
0
210
0
220
0
230
1
1
\W01.000;\fsimplex.shx,bigfont.shx;112 
40
4.5
41
0
44
1.084337
50
0
71
7
72
5
7
DEFAULT
0
LINE
5
253
100
AcDbEntity
8
2
62
256
6
ByLayer
370
-1
48
1
60
0
100
AcDbLine
10
0
20
-17.5875
30
0
11
0
21
-46.0758
31
0
39
0
210
0
220
0
230
1
0
LINE
5
254
100
AcDbEntity
8
2
62
256
6
ByLayer
370
-1
48
1
60
0
100
AcDbLine
10
112
20
-10.8375
30
0
11
112
21
-46.0758
31
0
39
0
210
0
220
0
230
1
0
LINE
5
255
100
AcDbEntity
8
2
62
256
6
ByLayer
370
-1
48
1
60
0
100
AcDbLine
10
0
20
-42.9008
30
0
11
112
21
-42.9008
31
0
39
0
210
0
220
0
230
1
0
SOLID
5
256
100
AcDbEntity
8
2
62
256
6
ByLayer
370
-1
48
1
60
0
100
AcDbTrace
10
0
20
-42.9008
30
0
11
4.174997
21
-41.975225
31
0
12
4.175003
22
-43.826375
32
0
13
0
23
-42.9008
33
0
39
0
210
0
220
0
230
1
0
SOLID
5
257
100
AcDbEntity
8
2
62
256
6
ByLayer
370
-1
48
1
60
0
100
AcDbTrace
10
112
20
-42.9008
30
0
11
107.825003
21
-43.826375
31
0
12
107.824997
22
-41.975225
32
0
13
112
23
-42.9008
33
0
39
0
210
0
220
0
230
1
0
ENDBLK
5
259
100
AcDbEntity
8
0
100
AcDbBlockEnd
0
BLOCK
5
262
100
AcDbEntity
8
0
100
AcDbBlockBegin
2
DimnDraft3D4
70
0
10
0
20
0
30
0
3
DimnDraft3D4
0
MTEXT
5
25C
100
AcDbEntity
8
SK2
62
256
6
ByLayer
370
-1
48
1
60
0
100
AcDbMText
10
62.496053
20
-31.7758
30
0
210
0
220
0
230
1
1
\W01.000;\fsimplex.shx,bigfont.shx;96 
40
4.5
41
0
44
1.084337
50
0
71
7
72
5
7
DEFAULT
0
LINE
5
25D
100
AcDbEntity
8
SK2
62
256
6
ByLayer
370
-1
48
1
60
0
100
AcDbLine
10
16
20
-11.5875
30
0
11
16
21
-36.0758
31
0
39
0
210
0
220
0
230
1
0
LINE
5
25E
100
AcDbEntity
8
SK2
62
256
6
ByLayer
370
-1
48
1
60
0
100
AcDbLine
10
112
20
-10.8375
30
0
11
112
21
-36.0758
31
0
39
0
210
0
220
0
230
1
0
LINE
5
25F
100
AcDbEntity
8
SK2
62
256
6
ByLayer
370
-1
48
1
60
0
100
AcDbLine
10
16
20
-32.9008
30
0
11
112
21
-32.9008
31
0
39
0
210
0
220
0
230
1
0
SOLID
5
260
100
AcDbEntity
8
SK2
62
256
6
ByLayer
370
-1
48
1
60
0
100
AcDbTrace
10
16
20
-32.9008
30
0
11
20.174997
21
-31.975225
31
0
12
20.175003
22
-33.826375
32
0
13
16
23
-32.9008
33
0
39
0
210
0
220
0
230
1
0
SOLID
5
261
100
AcDbEntity
8
SK2
62
256
6
ByLayer
370
-1
48
1
60
0
100
AcDbTrace
10
112
20
-32.9008
30
0
11
107.825003
21
-33.826375
31
0
12
107.824997
22
-31.975225
32
0
13
112
23
-32.9008
33
0
39
0
210
0
220
0
230
1
0
ENDBLK
5
263
100
AcDbEntity
8
0
100
AcDbBlockEnd
0
BLOCK
5
26D
100
AcDbEntity
8
0
100
AcDbBlockBegin
2
DimnDraft3D5
70
0
10
0
20
0
30
0
3
DimnDraft3D5
0
MTEXT
5
266
100
AcDbEntity
8
SK2
62
256
6
ByLayer
370
-1
48
1
60
0
100
AcDbMText
10
-66.975
20
5.246053
30
0
210
0
220
0
230
1
1
\W01.000;\fsimplex.shx,bigfont.shx;25 
40
4.5
41
0
44
1.084337
50
90
71
7
72
5
7
DEFAULT
0
MTEXT
5
267
100
AcDbEntity
8
SK2
62
256
6
ByLayer
370
-1
48
1
60
0
100
AcDbMText
10
-66.975
20
-8.253947
30
0
210
0
220
0
230
1
1
\W01.000;\fsimplex.shx,bigfont.shx;%%c 
40
4.5
41
0
44
1.084337
50
90
71
7
72
5
7
DEFAULT
0
LINE
5
268
100
AcDbEntity
8
SK2
62
256
6
ByLayer
370
-1
48
1
60
0
100
AcDbLine
10
-57.5875
20
12.5
30
0
11
-67.9
21
12.5
31
0
39
0
210
0
220
0
230
1
0
LINE
5
269
100
AcDbEntity
8
SK2
62
256
6
ByLayer
370
-1
48
1
60
0
100
AcDbLine
10
-57.5875
20
-12.5
30
0
11
-67.9
21
-12.5
31
0
39
0
210
0
220
0
230
1
0
LINE
5
26A
100
AcDbEntity
8
SK2
62
256
6
ByLayer
370
-1
48
1
60
0
100
AcDbLine
10
-64.725
20
23.75
30
0
11
-64.725
21
-23.75
31
0
39
0
210
0
220
0
230
1
0
SOLID
5
26B
100
AcDbEntity
8
SK2
62
256
6
ByLayer
370
-1
48
1
60
0
100
AcDbTrace
10
-64.725
20
12.5
30
0
11
-65.650575
21
16.674997
31
0
12
-63.799425
22
16.675003
32
0
13
-64.725
23
12.5
33
0
39
0
210
0
220
0
230
1
0
SOLID
5
26C
100
AcDbEntity
8
SK2
62
256
6
ByLayer
370
-1
48
1
60
0
100
AcDbTrace
10
-64.725
20
-12.5
30
0
11
-63.799425
21
-16.674997
31
0
12
-65.650575
22
-16.675003
32
0
13
-64.725
23
-12.5
33
0
39
0
210
0
220
0
230
1
0
ENDBLK
5
26E
100
AcDbEntity
8
0
100
AcDbBlockEnd
0
BLOCK
5
278
100
AcDbEntity
8
0
100
AcDbBlockBegin
2
DimnDraft3D6
70
0
10
0
20
0
30
0
3
DimnDraft3D6
0
MTEXT
5
271
100
AcDbEntity
8
SK2
62
256
6
ByLayer
370
-1
48
1
60
0
100
AcDbMText
10
-76.975
20
5.246053
30
0
210
0
220
0
230
1
1
\W01.000;\fsimplex.shx,bigfont.shx;32 
40
4.5
41
0
44
1.084337
50
90
71
7
72
5
7
DEFAULT
0
MTEXT
5
272
100
AcDbEntity
8
SK2
62
256
6
ByLayer
370
-1
48
1
60
0
100
AcDbMText
10
-76.975
20
-8.253947
30
0
210
0
220
0
230
1
1
\W01.000;\fsimplex.shx,bigfont.shx;%%c 
40
4.5
41
0
44
1.084337
50
90
71
7
72
5
7
DEFAULT
0
LINE
5
273
100
AcDbEntity
8
SK2
62
256
6
ByLayer
370
-1
48
1
60
0
100
AcDbLine
10
-1.5875
20
-16
30
0
11
-77.9
21
-16
31
0
39
0
210
0
220
0
230
1
0
LINE
5
274
100
AcDbEntity
8
SK2
62
256
6
ByLayer
370
-1
48
1
60
0
100
AcDbLine
10
-1.5875
20
16
30
0
11
-77.9
21
16
31
0
39
0
210
0
220
0
230
1
0
LINE
5
275
100
AcDbEntity
8
SK2
62
256
6
ByLayer
370
-1
48
1
60
0
100
AcDbLine
10
-74.725
20
-16
30
0
11
-74.725
21
16
31
0
39
0
210
0
220
0
230
1
0
SOLID
5
276
100
AcDbEntity
8
SK2
62
256
6
ByLayer
370
-1
48
1
60
0
100
AcDbTrace
10
-74.725
20
-16
30
0
11
-75.650575
21
-11.825003
31
0
12
-73.799425
22
-11.824997
32
0
13
-74.725
23
-16
33
0
39
0
210
0
220
0
230
1
0
SOLID
5
277
100
AcDbEntity
8
SK2
62
256
6
ByLayer
370
-1
48
1
60
0
100
AcDbTrace
10
-74.725
20
16
30
0
11
-73.799425
21
11.825003
31
0
12
-75.650575
22
11.824997
32
0
13
-74.725
23
16
33
0
39
0
210
0
220
0
230
1
0
ENDBLK
5
279
100
AcDbEntity
8
0
100
AcDbBlockEnd
0
BLOCK
5
283
100
AcDbEntity
8
0
100
AcDbBlockBegin
2
DimnDraft3D7
70
0
10
0
20
0
30
0
3
DimnDraft3D7
0
MTEXT
5
27C
100
AcDbEntity
8
2
62
256
6
ByLayer
370
-1
48
1
60
0
100
AcDbMText
10
136.725
20
-29.438816
30
0
210
0
220
0
230
1
1
\W01.000;\fsimplex.shx,bigfont.shx;18.5 
40
4.5
41
0
44
1.084337
50
90
71
7
72
5
7
DEFAULT
0
MTEXT
5
27D
100
AcDbEntity
8
2
62
256
6
ByLayer
370
-1
48
1
60
0
100
AcDbMText
10
136.725
20
-42.938816
30
0
210
0
220
0
230
1
1
\W01.000;\fsimplex.shx,bigfont.shx;%%c 
40
4.5
41
0
44
1.084337
50
90
71
7
72
5
7
DEFAULT
0
LINE
5
27E
100
AcDbEntity
8
2
62
256
6
ByLayer
370
-1
48
1
60
0
100
AcDbLine
10
113.5875
20
9.25
30
0
11
142.15
21
9.25
31
0
39
0
210
0
220
0
230
1
0
LINE
5
27F
100
AcDbEntity
8
2
62
256
6
ByLayer
370
-1
48
1
60
0
100
AcDbLine
10
113.5875
20
-9.25
30
0
11
142.15
21
-9.25
31
0
39
0
210
0
220
0
230
1
0
LINE
5
280
100
AcDbEntity
8
2
62
256
6
ByLayer
370
-1
48
1
60
0
100
AcDbLine
10
138.975
20
9.25
30
0
11
138.975
21
-44.063816
31
0
39
0
210
0
220
0
230
1
0
SOLID
5
281
100
AcDbEntity
8
2
62
256
6
ByLayer
370
-1
48
1
60
0
100
AcDbTrace
10
138.975
20
9.25
30
0
11
139.900575
21
5.075003
31
0
12
138.049425
22
5.074997
32
0
13
138.975
23
9.25
33
0
39
0
210
0
220
0
230
1
0
SOLID
5
282
100
AcDbEntity
8
2
62
256
6
ByLayer
370
-1
48
1
60
0
100
AcDbTrace
10
138.975
20
-9.25
30
0
11
138.049425
21
-5.075003
31
0
12
139.900575
22
-5.074997
32
0
13
138.975
23
-9.25
33
0
39
0
210
0
220
0
230
1
0
ENDBLK
5
284
100
AcDbEntity
8
0
100
AcDbBlockEnd
0
ENDSEC
0
SECTION
2
ENTITIES
0
ARC
5
F5
100
AcDbEntity
8
SK1
62
256
6
ByLayer
370
-1
48
1
60
0
100
AcDbCircle
39
0
10
1.382165
20
12.65
30
0
40
0.4
210
0
220
0
230
-1
100
AcDbArc
50
270
51
295
0
ARC
5
F6
100
AcDbEntity
8
SK1
62
256
6
ByLayer
370
-1
48
1
60
0
100
AcDbCircle
39
0
10
1.382165
20
-12.65
30
0
40
0.4
210
0
220
0
230
-1
100
AcDbArc
50
65
51
90
0
ARC
5
F7
100
AcDbEntity
8
SK1
62
256
6
ByLayer
370
-1
48
1
60
0
100
AcDbCircle
39
0
10
0.15
20
12.65
30
0
40
0.4
210
0
220
0
230
-1
100
AcDbArc
50
247.975687
51
270
0
ARC
5
F8
100
AcDbEntity
8
SK1
62
256
6
ByLayer
370
-1
48
1
60
0
100
AcDbCircle
39
0
10
0.15
20
-12.65
30
0
40
0.4
210
0
220
0
230
-1
100
AcDbArc
50
90
51
112.024313
0
ARC
5
F9
100
AcDbEntity
8
SK1
62
256
6
ByLayer
370
-1
48
1
60
0
100
AcDbCircle
39
0
10
53.894506
20
12.89675
30
0
40
0.8
210
0
220
0
230
-1
100
AcDbArc
50
250.982048
51
321
0
ARC
5
FA
100
AcDbEntity
8
SK1
62
256
6
ByLayer
370
-1
48
1
60
0
100
AcDbCircle
39
0
10
53.894506
20
-12.89675
30
0
40
0.8
210
0
220
0
230
-1
100
AcDbArc
50
39
51
109.017952
0
ELLIPSE
5
FB
100
AcDbEntity
8
1
62
256
6
ByLayer
370
-1
48
1
60
0
100
AcDbEllipse
10
106.84023
20
5.30485
30
0
11
-1.4470236532442E-15
21
-1.35
31
0
210
0
220
0
230
1
40
0.996195
41
-2.26960617922759
42
-1.53588974175501
0
ELLIPSE
5
FC
100
AcDbEntity
8
1
62
256
6
ByLayer
370
-1
48
1
60
0
100
AcDbEllipse
10
111.035072
20
-0.067206
30
0
11
-0.038040127822498
21
0.601647689743942
31
0
210
0
220
0
230
-1
40
0.117632
41
-1.48074662755949
42
-1.32098444102367
0
ELLIPSE
5
FD
100
AcDbEntity
8
1
62
256
6
ByLayer
370
-1
48
1
60
0
100
AcDbEllipse
10
106.13439
20
4.104391
30
0
11
-0.599637270106163
21
-0.0208601126465933
31
0
210
0
220
0
230
1
40
0.003042
41
0.0872135714661165
42
1.13795433213007
0
ELLIPSE
5
FE
100
AcDbEntity
8
1
62
256
6
ByLayer
370
-1
48
1
60
0
100
AcDbEllipse
10
110.981568
20
3.712543
30
0
11
-0.0392800404092458
21
0.602839270806218
31
0
210
0
220
0
230
-1
40
0.116448
41
2.32117608586248
42
-3.13241151920985
0
ELLIPSE
5
FF
100
AcDbEntity
8
1
62
256
6
ByLayer
370
-1
48
1
60
0
100
AcDbEllipse
10
106.093539
20
5.278675
30
0
11
-0.599637270106163
21
-0.0208601126465933
31
0
210
0
220
0
230
1
40
0.003042
41
0.0872135714661165
42
1.13795433213007
0
ELLIPSE
5
100
100
AcDbEntity
8
1
62
256
6
ByLayer
370
-1
48
1
60
0
100
AcDbEllipse
10
104.830548
20
8.94368
30
0
11
-6.43121623664089E-15
21
-6
31
0
210
0
220
0
230
1
40
0.996195
41
-0.266081096124695
42
-3.35886497991887E-06
0
ELLIPSE
5
101
100
AcDbEntity
8
1
62
256
6
ByLayer
370
-1
48
1
60
0
100
AcDbEllipse
10
108.72822
20
-1.722791
30
0
11
-1.10000000000001
21
1.11170296059061E-15
31
0
210
0
220
0
230
1
40
0.996917
41
0
42
6.28318530717959
0
ELLIPSE
5
102
100
AcDbEntity
8
1
62
256
6
ByLayer
370
-1
48
1
60
0
100
AcDbEllipse
10
111.940683
20
0
30
0
11
-0.715944342573845
21
-8.94953219472116
31
0
210
0
220
0
230
-1
40
0.127813
41
0.0359075066727673
42
1.08353987402181
0
ELLIPSE
5
103
100
AcDbEntity
8
1
62
256
6
ByLayer
370
-1
48
1
60
0
100
AcDbEllipse
10
94.412872
20
6.757198
30
0
11
-10.0687861413654
21
5.22478761529258
31
0
210
0
220
0
230
-1
40
0.093243
41
-2.4566395665819
42
-1.66905041748984
0
ELLIPSE
5
104
100
AcDbEntity
8
1
62
256
6
ByLayer
370
-1
48
1
60
0
100
AcDbEllipse
10
111.282267
20
0
30
0
11
-0.561780356962778
21
8.94975448516243
31
0
210
0
220
0
230
-1
40
0.118004
41
-2.04042136260739
42
-1.50444628581396
0
ELLIPSE
5
105
100
AcDbEntity
8
1
62
256
6
ByLayer
370
-1
48
1
60
0
100
AcDbEllipse
10
111.264351
20
-4.550528
30
0
11
-0.0569062193972617
21
-0.657991401938934
31
0
210
0
220
0
230
-1
40
0.116725
41
0.0197262659371164
42
1.59052259273241
0
ELLIPSE
5
106
100
AcDbEntity
8
1
62
256
6
ByLayer
370
-1
48
1
60
0
100
AcDbEllipse
10
106.028626
20
5.63
30
0
11
-4.73854878558243
21
-3.33809383846006
31
0
210
0
220
0
230
-1
40
0.465098
41
-1.12857024958001
42
-0.997701437374692
0
ELLIPSE
5
107
100
AcDbEntity
8
1
62
256
6
ByLayer
370
-1
48
1
60
0
100
AcDbEllipse
10
108.893302
20
6.022628
30
0
11
1.46431667789534E-15
21
1.25
31
0
210
0
220
0
230
1
40
0.996195
41
-1.80160505545351
42
0
0
ELLIPSE
5
108
100
AcDbEntity
8
1
62
256
6
ByLayer
370
-1
48
1
60
0
100
AcDbEllipse
10
108.893302
20
6.022628
30
0
11
1.46431667789534E-15
21
1.25
31
0
210
0
220
0
230
1
40
0.996195
41
0
42
0.963290731159636
0
ELLIPSE
5
109
100
AcDbEntity
8
1
62
256
6
ByLayer
370
-1
48
1
60
0
100
AcDbEllipse
10
108.72822
20
-1.722791
30
0
11
1.2
21
0
31
0
210
0
220
0
230
1
40
0.996917
41
0.0627335289814609
42
3.14159243441241
0
ELLIPSE
5
10A
100
AcDbEntity
8
1
62
256
6
ByLayer
370
-1
48
1
60
0
100
AcDbEllipse
10
109.137338
20
6.022628
30
0
11
1.2885986765479E-15
21
1.1
31
0
210
0
220
0
230
1
40
0.996195
41
0.105635868485064
42
1.57079627600051
0
ELLIPSE
5
10B
100
AcDbEntity
8
1
62
256
6
ByLayer
370
-1
48
1
60
0
100
AcDbEllipse
10
109.137338
20
6.022628
30
0
11
1.2885986765479E-15
21
1.1
31
0
210
0
220
0
230
1
40
0.996195
41
1.57079627600051
42
2.71413988791279
0
ELLIPSE
5
10C
100
AcDbEntity
8
1
62
256
6
ByLayer
370
-1
48
1
60
0
100
AcDbEllipse
10
104.503022
20
-9E-06
30
0
11
-69.9701904386402
21
0.713813996747193
31
0
210
0
220
0
230
-1
40
0.127504
41
-1.5592908990815
42
-1.54445729457991
0
ELLIPSE
5
10D
100
AcDbEntity
8
1
62
256
6
ByLayer
370
-1
48
1
60
0
100
AcDbEllipse
10
105.838608
20
0
30
0
11
-0.289786154379223
21
8.94996403990122
31
0
210
0
220
0
230
-1
40
0.087398
41
-0.0356201212225151
42
-0.000712886025688066
0
ELLIPSE
5
10E
100
AcDbEntity
8
1
62
256
6
ByLayer
370
-1
48
1
60
0
100
AcDbEllipse
10
110.80246
20
-5.502971
30
0
11
-0.0783270753406688
21
-0.997329595498661
31
0
210
0
220
0
230
-1
40
0.127229
41
0
42
6.28318530717959
0
ELLIPSE
5
10F
100
AcDbEntity
8
1
62
256
6
ByLayer
370
-1
48
1
60
0
100
AcDbEllipse
10
106.671907
20
4.130566
30
0
11
1.58146201212697E-15
21
1.35
31
0
210
0
220
0
230
1
40
0.996195
41
1.60570291183479
42
1.85093280967831
0
ELLIPSE
5
110
100
AcDbEntity
8
1
62
256
6
ByLayer
370
-1
48
1
60
0
100
AcDbEllipse
10
106.923718
20
4.130566
30
0
11
-1.17794646133824
21
-1.04893007472
31
0
210
0
220
0
230
-1
40
0.721468
41
-1.26712593957003
42
-0.133853100320485
0
ELLIPSE
5
111
100
AcDbEntity
8
1
62
256
6
ByLayer
370
-1
48
1
60
0
100
AcDbEllipse
10
105.011335
20
3.746848
30
0
11
0.0280261150489236
21
-0.799508934831416
31
0
210
0
220
0
230
1
40
0.087103
41
0.0630727813209479
42
1.56774302595898
0
ELLIPSE
5
112
100
AcDbEntity
8
1
62
256
6
ByLayer
370
-1
48
1
60
0
100
AcDbEllipse
10
111.28193
20
0
30
0
11
-0.587658865083263
21
8.94973261641766
31
0
210
0
220
0
230
-1
40
0.117755
41
-1.50412138239351
42
-1.41290125658971
0
ELLIPSE
5
113
100
AcDbEntity
8
1
62
256
6
ByLayer
370
-1
48
1
60
0
100
AcDbEllipse
10
106.88108
20
4.130566
30
0
11
-1.4470236532442E-15
21
-1.35
31
0
210
0
220
0
230
1
40
0.996195
41
-1.53588974175501
42
-0.146913134865276
0
ELLIPSE
5
114
100
AcDbEntity
8
1
62
256
6
ByLayer
370
-1
48
1
60
0
100
AcDbEllipse
10
110.92859
20
0
30
0
11
-20.3658176438435
21
8.67320154014404
31
0
210
0
220
0
230
-1
40
0.108448
41
-1.14903954703392
42
-0.670944622193943
0
ELLIPSE
5
115
100
AcDbEntity
8
1
62
256
6
ByLayer
370
-1
48
1
60
0
100
AcDbEllipse
10
108.72822
20
-2.103317
30
0
11
-1.1
21
1.1117029605906E-15
31
0
210
0
220
0
230
1
40
0.996917
41
-2.96723467011757
42
-0.174456906816537
0
ELLIPSE
5
116
100
AcDbEntity
8
1
62
256
6
ByLayer
370
-1
48
1
60
0
100
AcDbEllipse
10
102.723566
20
4.193244
30
0
11
-0.326425640836806
21
-0.730374082922088
31
0
210
0
220
0
230
1
40
0.079621
41
0.3955777320273
42
1.60636616336577
0
ELLIPSE
5
117
100
AcDbEntity
8
1
62
256
6
ByLayer
370
-1
48
1
60
0
100
AcDbEllipse
10
102.983953
20
0
30
0
11
-41.7784144106493
21
-4.73391084368085E-14
31
0
210
0
220
0
230
-1
40
0.214225
41
1.53842339038677
42
1.59385205143597
0
ELLIPSE
5
118
100
AcDbEntity
8
1
62
256
6
ByLayer
370
-1
48
1
60
0
100
AcDbEllipse
10
72.47647
20
9.816397
30
0
11
-31.4661606633616
21
4.31889714633918
31
0
210
0
220
0
230
-1
40
0.122783
41
3.1247416579991
42
-2.81680728368751
0
ELLIPSE
5
119
100
AcDbEntity
8
1
62
256
6
ByLayer
370
-1
48
1
60
0
100
AcDbEllipse
10
100.92789
20
3.64062
30
0
11
-9.84553223805371
21
0.517931703567048
31
0
210
0
220
0
230
-1
40
0.000334
41
-3.13619361382887
42
-3.13524192217831
0
ELLIPSE
5
11A
100
AcDbEntity
8
1
62
256
6
ByLayer
370
-1
48
1
60
0
100
AcDbEllipse
10
111.035365
20
-0.067217
30
0
11
-0.0397819100086172
21
0.601706092977134
31
0
210
0
220
0
230
-1
40
0.117372
41
-1.32066899687243
42
0.0903651394635492
0
ELLIPSE
5
11B
100
AcDbEntity
8
1
62
256
6
ByLayer
370
-1
48
1
60
0
100
AcDbEllipse
10
108.906375
20
6.022628
30
0
11
1.46431667789534E-15
21
1.25
31
0
210
0
220
0
230
1
40
0.996195
41
0
42
1.01581412355465
0
ELLIPSE
5
11C
100
AcDbEntity
8
1
62
256
6
ByLayer
370
-1
48
1
60
0
100
AcDbEllipse
10
10.8
20
0.642178
30
0
11
-5.00000000000001
21
5.05319527541183E-15
31
0
210
0
220
0
230
1
40
0.89641
41
-1.69351333062229
42
-0.19614141519355
0
ELLIPSE
5
11D
100
AcDbEntity
8
1
62
256
6
ByLayer
370
-1
48
1
60
0
100
AcDbEllipse
10
103.36299
20
5.530908
30
0
11
-0.535988339320876
21
-3.86299320477166
31
0
210
0
220
0
230
1
40
0.207571
41
0.307774655724367
42
0.905189630958876
0
ELLIPSE
5
11E
100
AcDbEntity
8
1
62
256
6
ByLayer
370
-1
48
1
60
0
100
AcDbEllipse
10
106.631056
20
5.30485
30
0
11
1.58146201212697E-15
21
1.35
31
0
210
0
220
0
230
1
40
0.996195
41
0.863056052375929
42
1.60570291183478
0
ELLIPSE
5
11F
100
AcDbEntity
8
1
62
256
6
ByLayer
370
-1
48
1
60
0
100
AcDbEllipse
10
101.588727
20
-1.1E-05
30
0
11
-102.299031606566
21
-3.52932803617065E-07
31
0
210
0
220
0
230
-1
40
0.087489
41
1.59385207660665
42
1.6092462610192
0
ELLIPSE
5
120
100
AcDbEntity
8
1
62
256
6
ByLayer
370
-1
48
1
60
0
100
AcDbEllipse
10
104.900272
20
8.94368
30
0
11
6.09155738004463E-15
21
5.2
31
0
210
0
220
0
230
1
40
0.996195
41
2.72271363311116
42
-3.10668606854991
0
ELLIPSE
5
121
100
AcDbEntity
8
1
62
256
6
ByLayer
370
-1
48
1
60
0
100
AcDbEllipse
10
106.214734
20
6.803387
30
0
11
-0.579980163007396
21
-0.618336926883176
31
0
210
0
220
0
230
-1
40
0.04503
41
-0.739916138234904
42
-0.421202239011785
0
ELLIPSE
5
122
100
AcDbEntity
8
1
62
256
6
ByLayer
370
-1
48
1
60
0
100
AcDbEllipse
10
108.906375
20
6.022628
30
0
11
1.2885986765479E-15
21
1.1
31
0
210
0
220
0
230
1
40
0.996195
41
-2.42668389129718
42
0
0
ELLIPSE
5
123
100
AcDbEntity
8
1
62
256
6
ByLayer
370
-1
48
1
60
0
100
AcDbEllipse
10
108.906375
20
6.022628
30
0
11
1.2885986765479E-15
21
1.1
31
0
210
0
220
0
230
1
40
0.996195
41
0
42
1.57079634372637
0
ELLIPSE
5
124
100
AcDbEntity
8
1
62
256
6
ByLayer
370
-1
48
1
60
0
100
AcDbEllipse
10
108.906375
20
6.022628
30
0
11
1.2885986765479E-15
21
1.1
31
0
210
0
220
0
230
1
40
0.996195
41
1.5707962760005
42
1.74584211605793
0
ELLIPSE
5
125
100
AcDbEntity
8
1
62
256
6
ByLayer
370
-1
48
1
60
0
100
AcDbEllipse
10
103.027907
20
2.949264
30
0
11
-6.30686122501979
21
-0.19840295250232
31
0
210
0
220
0
230
-1
40
0.01063
41
-1.89665632975897
42
-1.88744681142847
0
ELLIPSE
5
126
100
AcDbEntity
8
1
62
256
6
ByLayer
370
-1
48
1
60
0
100
AcDbEllipse
10
46.946459
20
0
30
0
11
-159.172498304346
21
-8.65519255303786
31
0
210
0
220
0
230
-1
40
0.014313
41
-1.97833787672983
42
-1.93985514414706
0
ELLIPSE
5
127
100
AcDbEntity
8
1
62
256
6
ByLayer
370
-1
48
1
60
0
100
AcDbEllipse
10
110.867764
20
-3.183851
30
0
11
-0.49120224503834
21
4.96428172779883E-16
31
0
210
0
220
0
230
1
40
0.996917
41
3.10668606854989
42
-2.71005519262058
0
ELLIPSE
5
128
100
AcDbEntity
8
1
62
256
6
ByLayer
370
-1
48
1
60
0
100
AcDbEllipse
10
110.51751
20
-0.758232
30
0
11
-0.59120224503834
21
5.97492078288119E-16
31
0
210
0
220
0
230
1
40
0.996917
41
-3.08923277602998
42
-2.47146672521936
0
ELLIPSE
5
129
100
AcDbEntity
8
1
62
256
6
ByLayer
370
-1
48
1
60
0
100
AcDbEllipse
10
111.358667
20
-3.185249
30
0
11
-0.199877411459051
21
0.00700145616491039
31
0
210
0
220
0
230
1
40
0.078411
41
0.526345418649194
42
1.57354296984573
0
ELLIPSE
5
12A
100
AcDbEntity
8
1
62
256
6
ByLayer
370
-1
48
1
60
0
100
AcDbEllipse
10
113.712196
20
-1.878075
30
0
11
2.54031606939949
21
0
31
0
210
0
220
0
230
1
40
0.996917
41
-3.08923277522941
42
-2.71005519262055
0
ELLIPSE
5
12B
100
AcDbEntity
8
1
62
256
6
ByLayer
370
-1
48
1
60
0
100
AcDbEllipse
10
108.878496
20
-2.322584
30
0
11
1.25
21
0
31
0
210
0
220
0
230
1
40
0.996917
41
1.28854364210873
42
2.89095229547494
0
ELLIPSE
5
12C
100
AcDbEntity
8
1
62
256
6
ByLayer
370
-1
48
1
60
0
100
AcDbEllipse
10
110.867764
20
-3.183851
30
0
11
-0.59120224503834
21
5.97492078288119E-16
31
0
210
0
220
0
230
1
40
0.996917
41
3.10668606854989
42
-2.71005519262056
0
ELLIPSE
5
12D
100
AcDbEntity
8
1
62
256
6
ByLayer
370
-1
48
1
60
0
100
AcDbEllipse
10
111.181081
20
-3.929583
30
0
11
-0.132993144458099
21
0.149374775404507
31
0
210
0
220
0
230
1
40
0.052262
41
1.52202618920783
42
1.62942896444685
0
ELLIPSE
5
12E
100
AcDbEntity
8
1
62
256
6
ByLayer
370
-1
48
1
60
0
100
AcDbEllipse
10
110.867764
20
-3.176005
30
0
11
0.317997164281453
21
0
31
0
210
0
220
0
230
1
40
0.996917
41
-0.0349065850398907
42
0.431537460969242
0
ELLIPSE
5
12F
100
AcDbEntity
8
1
62
256
6
ByLayer
370
-1
48
1
60
0
100
AcDbEllipse
10
111.13945
20
-0.755687
30
0
11
0.49999999999999
21
0
31
0
210
0
220
0
230
1
40
0.996917
41
0.0523598775598221
42
0.34906585039959
0
ELLIPSE
5
130
100
AcDbEntity
8
1
62
256
6
ByLayer
370
-1
48
1
60
0
100
AcDbEllipse
10
110.853886
20
-3.580039
30
0
11
-0.591202245038341
21
5.97492078288121E-16
31
0
210
0
220
0
230
1
40
0.996917
41
2.29977787734964
42
3.10668606854989
0
ELLIPSE
5
131
100
AcDbEntity
8
1
62
256
6
ByLayer
370
-1
48
1
60
0
100
AcDbEllipse
10
113.712196
20
-2.074223
30
0
11
2.00000000000009
21
0
31
0
210
0
220
0
230
1
40
0.996917
41
-3.08923277501295
42
-2.69974671309689
0
ELLIPSE
5
132
100
AcDbEntity
8
1
62
256
6
ByLayer
370
-1
48
1
60
0
100
AcDbEllipse
10
113.712196
20
-1.870229
30
0
11
-2.81352115015638
21
2.84345435664829E-15
31
0
210
0
220
0
230
1
40
0.996917
41
0.394970502278599
42
0.431537460969238
0
ELLIPSE
5
133
100
AcDbEntity
8
1
62
256
6
ByLayer
370
-1
48
1
60
0
100
AcDbEllipse
10
111.313934
20
-2.963338
30
0
11
-0.181566402711963
21
-0.0838668075357429
31
0
210
0
220
0
230
1
40
0.071266
41
0.490692267778127
42
1.53788981897468
0
ELLIPSE
5
134
100
AcDbEntity
8
1
62
256
6
ByLayer
370
-1
48
1
60
0
100
AcDbEllipse
10
108.878496
20
-2.322584
30
0
11
1.35
21
0
31
0
210
0
220
0
230
1
40
0.996917
41
1.85353942513309
42
2.48696289997321
0
ELLIPSE
5
135
100
AcDbEntity
8
1
62
256
6
ByLayer
370
-1
48
1
60
0
100
AcDbEllipse
10
110.853886
20
-3.572193
30
0
11
0.317997164281453
21
0
31
0
210
0
220
0
230
1
40
0.996917
41
-0.340736875057145
42
-0.0349065850399047
0
ELLIPSE
5
136
100
AcDbEntity
8
1
62
256
6
ByLayer
370
-1
48
1
60
0
100
AcDbEllipse
10
108.878496
20
-2.370059
30
0
11
1.25
21
0
31
0
210
0
220
0
230
1
40
0.996917
41
1.13323161392044
42
2.87053274355023
0
ELLIPSE
5
137
100
AcDbEntity
8
1
62
256
6
ByLayer
370
-1
48
1
60
0
100
AcDbEllipse
10
111.344789
20
-3.581437
30
0
11
-0.199877411459051
21
0.00700145616491039
31
0
210
0
220
0
230
1
40
0.078411
41
0.52634541864911
42
1.57354296984573
0
ELLIPSE
5
138
100
AcDbEntity
8
1
62
256
6
ByLayer
370
-1
48
1
60
0
100
AcDbEllipse
10
113.712196
20
-1.878075
30
0
11
2.64031606939949
21
0
31
0
210
0
220
0
230
1
40
0.996917
41
-3.08923277525973
42
-2.71005519262056
0
ELLIPSE
5
139
100
AcDbEntity
8
1
62
256
6
ByLayer
370
-1
48
1
60
0
100
AcDbEllipse
10
110.840089
20
0.064266
30
0
11
0.500000000000144
21
0
31
0
210
0
220
0
230
1
40
0.996917
41
0.349065850399469
42
1.16853003057825
0
ELLIPSE
5
13A
100
AcDbEntity
8
1
62
256
6
ByLayer
370
-1
48
1
60
0
100
AcDbEllipse
10
110.51751
20
-0.758232
30
0
11
-0.49120224503834
21
4.96428172779883E-16
31
0
210
0
220
0
230
1
40
0.996917
41
-3.08923277602998
42
-2.89461999450606
0
ELLIPSE
5
13B
100
AcDbEntity
8
1
62
256
6
ByLayer
370
-1
48
1
60
0
100
AcDbEllipse
10
110.853886
20
-3.580039
30
0
11
-0.49120224503834
21
4.96428172779883E-16
31
0
210
0
220
0
230
1
40
0.996917
41
2.29977787734966
42
3.10668606854989
0
ELLIPSE
5
13C
100
AcDbEntity
8
1
62
256
6
ByLayer
370
-1
48
1
60
0
100
AcDbEllipse
10
113.712196
20
-1.952611
30
0
11
2.19031606939965
21
0
31
0
210
0
220
0
230
1
40
0.996917
41
-3.08923277510136
42
-2.71005519262056
0
ELLIPSE
5
13D
100
AcDbEntity
8
1
62
256
6
ByLayer
370
-1
48
1
60
0
100
AcDbEllipse
10
111.000305
20
-3.353095
30
0
11
1.00000000000004
21
0
31
0
210
0
220
0
230
1
40
0.996917
41
-0.0349065850401072
42
0.441845940492527
0
ELLIPSE
5
13E
100
AcDbEntity
8
1
62
256
6
ByLayer
370
-1
48
1
60
0
100
AcDbEllipse
10
111.461611
20
-4.466432
30
0
11
0.500000000000144
21
0
31
0
210
0
220
0
230
1
40
0.996917
41
-1.22173047639541
42
-0.0349065850401081
0
ELLIPSE
5
13F
100
AcDbEntity
8
1
62
256
6
ByLayer
370
-1
48
1
60
0
100
AcDbEllipse
10
106.350724
20
13.145146
30
0
11
-1.07186937277344E-14
21
-9.99999999999964
31
0
210
0
220
0
230
1
40
0.996195
41
0
42
0.0160059630348837
0
ELLIPSE
5
140
100
AcDbEntity
8
1
62
256
6
ByLayer
370
-1
48
1
60
0
100
AcDbEllipse
10
111.434904
20
3.623367
30
0
11
-3.21560811832048E-16
21
-0.300000000000003
31
0
210
0
220
0
230
1
40
0.996195
41
0.0698131700797046
42
0.296705972838942
0
ELLIPSE
5
141
100
AcDbEntity
8
1
62
256
6
ByLayer
370
-1
48
1
60
0
100
AcDbEllipse
10
111.167349
20
4.308998
30
0
11
5.78724697506073E-15
21
4.94022831811449
31
0
210
0
220
0
230
1
40
0.996195
41
0.0160059630348843
42
0.0258059561216742
0
ELLIPSE
5
142
100
AcDbEntity
8
1
62
256
6
ByLayer
370
-1
48
1
60
0
100
AcDbEllipse
10
106.350268
20
13.145146
30
0
11
1.16445136866418E-14
21
9.94022831811422
31
0
210
0
220
0
230
1
40
0.996195
41
3.14159265358979
42
-3.12558669055491
0
ELLIPSE
5
143
100
AcDbEntity
8
1
62
256
6
ByLayer
370
-1
48
1
60
0
100
AcDbEllipse
10
101.750849
20
8.245542
30
0
11
1.16445136866421E-14
21
9.9402283181145
31
0
210
0
220
0
230
1
40
0.996195
41
-1.53225055769574
42
-1.52678911283681
0
ELLIPSE
5
144
100
AcDbEntity
8
1
62
256
6
ByLayer
370
-1
48
1
60
0
100
AcDbEllipse
10
109.008299
20
6.227392
30
0
11
1.46431667789534E-15
21
1.25
31
0
210
0
220
0
230
1
40
0.996195
41
0.0349500371117705
42
1.57079634872777
0
ELLIPSE
5
145
100
AcDbEntity
8
1
62
256
6
ByLayer
370
-1
48
1
60
0
100
AcDbEllipse
10
109.008299
20
6.227392
30
0
11
1.46431667789534E-15
21
1.25
31
0
210
0
220
0
230
1
40
0.996195
41
1.57079634872777
42
3.1168526777092
0
ELLIPSE
5
146
100
AcDbEntity
8
1
62
256
6
ByLayer
370
-1
48
1
60
0
100
AcDbEllipse
10
106.42999
20
8.145786
30
0
11
5.78724697506073E-15
21
4.94022831811449
31
0
210
0
220
0
230
1
40
0.996195
41
-3.12558669055492
42
-3.11578669746813
0
ELLIPSE
5
147
100
AcDbEntity
8
1
62
256
6
ByLayer
370
-1
48
1
60
0
100
AcDbEllipse
10
106.727
20
8.465507
30
0
11
5.78724697506073E-15
21
4.94022831811449
31
0
210
0
220
0
230
1
40
0.996195
41
-1.52678911283679
42
-1.51698911975
0
ELLIPSE
5
148
100
AcDbEntity
8
1
62
256
6
ByLayer
370
-1
48
1
60
0
100
AcDbEllipse
10
106.887576
20
3.849664
30
0
11
5.78724697506073E-15
21
4.94022831811449
31
0
210
0
220
0
230
1
40
0.996195
41
-1.55479036376002
42
-1.54499037067323
0
ELLIPSE
5
149
100
AcDbEntity
8
1
62
256
6
ByLayer
370
-1
48
1
60
0
100
AcDbEllipse
10
115.689079
20
8.734135
30
0
11
1.16445136866421E-14
21
9.9402283181145
31
0
210
0
220
0
230
1
40
0.996195
41
1.59660228291658
42
1.6020637394685
0
ELLIPSE
5
14A
100
AcDbEntity
8
1
62
256
6
ByLayer
370
-1
48
1
60
0
100
AcDbEllipse
10
106.430446
20
8.145786
30
0
11
-5.35934686386771E-15
21
-5.00000000000028
31
0
210
0
220
0
230
1
40
0.996195
41
0.016005963034881
42
0.0258059561216735
0
ELLIPSE
5
14B
100
AcDbEntity
8
1
62
256
6
ByLayer
370
-1
48
1
60
0
100
AcDbEllipse
10
106.163347
20
8.831416
30
0
11
-3.21560811832048E-16
21
-0.300000000000003
31
0
210
0
220
0
230
1
40
0.996195
41
-3.07177948351009
42
-2.84488668075079
0
ELLIPSE
5
14C
100
AcDbEntity
8
1
62
256
6
ByLayer
370
-1
48
1
60
0
100
AcDbEllipse
10
110.870795
20
3.989277
30
0
11
-5.35934686386771E-15
21
-5.00000000000028
31
0
210
0
220
0
230
1
40
0.996195
41
-1.52678911283679
42
-1.51698911975
0
ELLIPSE
5
14D
100
AcDbEntity
8
1
62
256
6
ByLayer
370
-1
48
1
60
0
100
AcDbEllipse
10
111.570329
20
3.769638
30
0
11
2.81416266174359E-16
21
0.240228318114594
31
0
210
0
220
0
230
1
40
0.996195
41
-1.79768912955413
42
-1.5707963267949
0
ELLIPSE
5
14E
100
AcDbEntity
8
1
62
256
6
ByLayer
370
-1
48
1
60
0
100
AcDbEllipse
10
106.569527
20
4.147809
30
0
11
-5.35934686386771E-15
21
-5.00000000000028
31
0
210
0
220
0
230
1
40
0.996195
41
-3.09758543963168
42
-3.08778544654489
0
ELLIPSE
5
14F
100
AcDbEntity
8
1
62
256
6
ByLayer
370
-1
48
1
60
0
100
AcDbEllipse
10
111.376652
20
3.814628
30
0
11
-5.35934686386747E-16
21
-0.500000000000006
31
0
210
0
220
0
230
1
40
0.996195
41
0.296705972839008
42
1.34390352403562
0
ELLIPSE
5
150
100
AcDbEntity
8
1
62
256
6
ByLayer
370
-1
48
1
60
0
100
AcDbEllipse
10
101.908261
20
3.720649
30
0
11
1.16445136866421E-14
21
9.9402283181145
31
0
210
0
220
0
230
1
40
0.996195
41
-1.54499037067321
42
-1.5395289141213
0
ELLIPSE
5
151
100
AcDbEntity
8
1
62
256
6
ByLayer
370
-1
48
1
60
0
100
AcDbEllipse
10
111.434448
20
3.623367
30
0
11
2.81416266174359E-16
21
0.240228318114594
31
0
210
0
220
0
230
1
40
0.996195
41
-3.07177948351007
42
-2.8448866807508
0
ELLIPSE
5
152
100
AcDbEntity
8
1
62
256
6
ByLayer
370
-1
48
1
60
0
100
AcDbEllipse
10
108.781694
20
6.227392
30
0
11
1.98450509329016E-15
21
1.69405389152441
31
0
210
0
220
0
230
1
40
0.996195
41
0
42
6.28318530717959
0
ELLIPSE
5
153
100
AcDbEntity
8
1
62
256
6
ByLayer
370
-1
48
1
60
0
100
AcDbEllipse
10
106.727456
20
8.465507
30
0
11
-5.35934686386771E-15
21
-5.00000000000028
31
0
210
0
220
0
230
1
40
0.996195
41
1.614803540753
42
1.6246035338398
0
ELLIPSE
5
154
100
AcDbEntity
8
1
62
256
6
ByLayer
370
-1
48
1
60
0
100
AcDbEllipse
10
111.247527
20
-0.690362
30
0
11
-1.07186937277344E-14
21
-9.99999999999964
31
0
210
0
220
0
230
1
40
0.996195
41
3.14159265358979
42
-3.12558669055491
0
ELLIPSE
5
155
100
AcDbEntity
8
1
62
256
6
ByLayer
370
-1
48
1
60
0
100
AcDbEllipse
10
101.753691
20
8.196601
30
0
11
-1.07186937277344E-14
21
-9.99999999999964
31
0
210
0
220
0
230
1
40
0.996195
41
1.62460353383979
42
1.64060949687468
0
ELLIPSE
5
156
100
AcDbEntity
8
1
62
256
6
ByLayer
370
-1
48
1
60
0
100
AcDbEllipse
10
111.028268
20
8.306975
30
0
11
5.78724697506073E-15
21
4.94022831811449
31
0
210
0
220
0
230
1
40
0.996195
41
-3.09758543963168
42
-3.0877854465449
0
ELLIPSE
5
157
100
AcDbEntity
8
1
62
256
6
ByLayer
370
-1
48
1
60
0
100
AcDbEllipse
10
106.395543
20
3.64002
30
0
11
-5.35934686386747E-16
21
-0.500000000000006
31
0
210
0
220
0
230
1
40
0.996195
41
-1.27409035395589
42
-0.226892802759316
0
ELLIPSE
5
158
100
AcDbEntity
8
1
62
256
6
ByLayer
370
-1
48
1
60
0
100
AcDbEllipse
10
110.809596
20
13.302134
30
0
11
-1.07186937277348E-14
21
-9.99999999999999
31
0
210
0
220
0
230
1
40
0.996195
41
0.0349065850398898
42
0.0440072139580896
0
ELLIPSE
5
159
100
AcDbEntity
8
1
62
256
6
ByLayer
370
-1
48
1
60
0
100
AcDbEllipse
10
115.690555
20
8.685146
30
0
11
-1.07186937277344E-14
21
-9.99999999999964
31
0
210
0
220
0
230
1
40
0.996195
41
-1.5707963267949
42
-1.55479036376002
0
ELLIPSE
5
15A
100
AcDbEntity
8
1
62
256
6
ByLayer
370
-1
48
1
60
0
100
AcDbEllipse
10
101.908716
20
3.720649
30
0
11
-1.07186937277348E-14
21
-9.99999999999999
31
0
210
0
220
0
230
1
40
0.996195
41
1.59660228291659
42
1.60570291183479
0
ELLIPSE
5
15B
100
AcDbEntity
8
1
62
256
6
ByLayer
370
-1
48
1
60
0
100
AcDbEllipse
10
111.393241
20
8.873238
30
0
11
-3.21560811832048E-16
21
-0.300000000000003
31
0
210
0
220
0
230
1
40
0.996195
41
1.64060949687463
42
1.86750229963385
0
ELLIPSE
5
15C
100
AcDbEntity
8
1
62
256
6
ByLayer
370
-1
48
1
60
0
100
AcDbEllipse
10
111.028724
20
8.306975
30
0
11
-5.35934686386771E-15
21
-5.00000000000028
31
0
210
0
220
0
230
1
40
0.996195
41
0.04400721395811
42
0.0538072070448985
0
ELLIPSE
5
15D
100
AcDbEntity
8
1
62
256
6
ByLayer
370
-1
48
1
60
0
100
AcDbEllipse
10
106.221599
20
8.640156
30
0
11
-5.35934686386747E-16
21
-0.500000000000006
31
0
210
0
220
0
230
1
40
0.996195
41
-2.84488668075075
42
-1.7976891295542
0
ELLIPSE
5
15E
100
AcDbEntity
8
1
62
256
6
ByLayer
370
-1
48
1
60
0
100
AcDbEllipse
10
101.751305
20
8.245542
30
0
11
-1.07186937277348E-14
21
-9.99999999999999
31
0
210
0
220
0
230
1
40
0.996195
41
1.60570291183479
42
1.61480354075299
0
ELLIPSE
5
15F
100
AcDbEntity
8
1
62
256
6
ByLayer
370
-1
48
1
60
0
100
AcDbEllipse
10
110.760385
20
13.299739
30
0
11
1.16445136866418E-14
21
9.94022831811422
31
0
210
0
220
0
230
1
40
0.996195
41
-3.0877854465449
42
-3.07177948351001
0
ELLIPSE
5
160
100
AcDbEntity
8
1
62
256
6
ByLayer
370
-1
48
1
60
0
100
AcDbEllipse
10
106.788655
20
-0.84735
30
0
11
-1.07186937277348E-14
21
-9.99999999999999
31
0
210
0
220
0
230
1
40
0.996195
41
-3.1066860685499
42
-3.0975854396317
0
ELLIPSE
5
161
100
AcDbEntity
8
1
62
256
6
ByLayer
370
-1
48
1
60
0
100
AcDbEllipse
10
111.295874
20
-0.689338
30
0
11
1.16445136866421E-14
21
9.9402283181145
31
0
210
0
220
0
230
1
40
0.996195
41
0.0258059561216904
42
0.0312674126736014
0
ELLIPSE
5
162
100
AcDbEntity
8
1
62
256
6
ByLayer
370
-1
48
1
60
0
100
AcDbEllipse
10
111.29633
20
-0.689338
30
0
11
-1.07186937277348E-14
21
-9.99999999999999
31
0
210
0
220
0
230
1
40
0.996195
41
-3.1157866974681
42
-3.1066860685499
0
ELLIPSE
5
163
100
AcDbEntity
8
1
62
256
6
ByLayer
370
-1
48
1
60
0
100
AcDbEllipse
10
106.836955
20
-0.844955
30
0
11
1.16445136866418E-14
21
9.94022831811422
31
0
210
0
220
0
230
1
40
0.996195
41
0.0538072070448957
42
0.0698131700797874
0
ELLIPSE
5
164
100
AcDbEntity
8
1
62
256
6
ByLayer
370
-1
48
1
60
0
100
AcDbEllipse
10
101.90724
20
3.769638
30
0
11
1.16445136866418E-14
21
9.94022831811422
31
0
210
0
220
0
230
1
40
0.996195
41
-1.5707963267949
42
-1.55479036376002
0
ELLIPSE
5
165
100
AcDbEntity
8
1
62
256
6
ByLayer
370
-1
48
1
60
0
100
AcDbEllipse
10
108.825169
20
6.227392
30
0
11
-1.77841723412775E-15
21
-1.65917347701247
31
0
210
0
220
0
230
1
40
0.996195
41
2.21551000470675
42
0
0
ELLIPSE
5
166
100
AcDbEntity
8
1
62
256
6
ByLayer
370
-1
48
1
60
0
100
AcDbEllipse
10
108.825169
20
6.227392
30
0
11
-1.77841723412775E-15
21
-1.65917347701247
31
0
210
0
220
0
230
1
40
0.996195
41
0
42
0.926082326066338
0
ELLIPSE
5
167
100
AcDbEntity
8
1
62
256
6
ByLayer
370
-1
48
1
60
0
100
AcDbEllipse
10
111.202252
20
8.814764
30
0
11
5.15706934637614E-16
21
0.440228318114594
31
0
210
0
220
0
230
1
40
0.996195
41
-1.27409035395587
42
-0.22689280275929
0
ELLIPSE
5
168
100
AcDbEntity
8
1
62
256
6
ByLayer
370
-1
48
1
60
0
100
AcDbEllipse
10
115.846946
20
4.209242
30
0
11
-1.07186937277348E-14
21
-9.99999999999999
31
0
210
0
220
0
230
1
40
0.996195
41
-1.53588974175501
42
-1.52678911283681
0
ELLIPSE
5
169
100
AcDbEntity
8
1
62
256
6
ByLayer
370
-1
48
1
60
0
100
AcDbEllipse
10
106.350724
20
3.445146
30
0
11
-3.21560811832048E-16
21
-0.300000000000003
31
0
210
0
220
0
230
1
40
0.996195
41
-0.226892802759225
42
0
0
ELLIPSE
5
16A
100
AcDbEntity
8
1
62
256
6
ByLayer
370
-1
48
1
60
0
100
AcDbEllipse
10
101.907696
20
3.769638
30
0
11
-1.07186937277344E-14
21
-9.99999999999964
31
0
210
0
220
0
230
1
40
0.996195
41
1.57079632679489
42
1.58680228982978
0
ELLIPSE
5
16B
100
AcDbEntity
8
1
62
256
6
ByLayer
370
-1
48
1
60
0
100
AcDbEllipse
10
111.376196
20
3.814628
30
0
11
5.15706934637614E-16
21
0.440228318114594
31
0
210
0
220
0
230
1
40
0.996195
41
-2.84488668075078
42
-1.79768912955418
0
ELLIPSE
5
16C
100
AcDbEntity
8
1
62
256
6
ByLayer
370
-1
48
1
60
0
100
AcDbEllipse
10
106.888032
20
3.849664
30
0
11
-5.35934686386771E-15
21
-5.00000000000028
31
0
210
0
220
0
230
1
40
0.996195
41
1.58680228982978
42
1.59660228291657
0
ELLIPSE
5
16D
100
AcDbEntity
8
1
62
256
6
ByLayer
370
-1
48
1
60
0
100
AcDbEllipse
10
106.395088
20
3.64002
30
0
11
5.15706934637614E-16
21
0.440228318114594
31
0
210
0
220
0
230
1
40
0.996195
41
1.86750229963392
42
2.9146998508305
0
ELLIPSE
5
16E
100
AcDbEntity
8
1
62
256
6
ByLayer
370
-1
48
1
60
0
100
AcDbEllipse
10
101.753236
20
8.196601
30
0
11
1.16445136866418E-14
21
9.94022831811422
31
0
210
0
220
0
230
1
40
0.996195
41
-1.51698911975
42
-1.50098315671511
0
ELLIPSE
5
16F
100
AcDbEntity
8
1
62
256
6
ByLayer
370
-1
48
1
60
0
100
AcDbEllipse
10
106.83741
20
-0.844955
30
0
11
-1.07186937277344E-14
21
-9.99999999999964
31
0
210
0
220
0
230
1
40
0.996195
41
-3.0877854465449
42
-3.07177948351001
0
ELLIPSE
5
170
100
AcDbEntity
8
1
62
256
6
ByLayer
370
-1
48
1
60
0
100
AcDbEllipse
10
106.027011
20
8.685146
30
0
11
2.81416266174359E-16
21
0.240228318114594
31
0
210
0
220
0
230
1
40
0.996195
41
1.34390352403567
42
1.5707963267949
0
ELLIPSE
5
171
100
AcDbEntity
8
1
62
256
6
ByLayer
370
-1
48
1
60
0
100
AcDbEllipse
10
106.569072
20
4.147809
30
0
11
5.78724697506073E-15
21
4.94022831811449
31
0
210
0
220
0
230
1
40
0.996195
41
0.0440072139581124
42
0.0538072070448983
0
ELLIPSE
5
172
100
AcDbEntity
8
1
62
256
6
ByLayer
370
-1
48
1
60
0
100
AcDbEllipse
10
110.870339
20
3.989277
30
0
11
5.78724697506073E-15
21
4.94022831811449
31
0
210
0
220
0
230
1
40
0.996195
41
1.61480354075301
42
1.62460353383979
0
ELLIPSE
5
173
100
AcDbEntity
8
1
62
256
6
ByLayer
370
-1
48
1
60
0
100
AcDbEllipse
10
111.167805
20
4.308998
30
0
11
-5.35934686386771E-15
21
-5.00000000000028
31
0
210
0
220
0
230
1
40
0.996195
41
-3.12558669055491
42
-3.11578669746812
0
ELLIPSE
5
174
100
AcDbEntity
8
1
62
256
6
ByLayer
370
-1
48
1
60
0
100
AcDbEllipse
10
108.946847
20
6.227392
30
0
11
-1.33983671596685E-15
21
-1.25
31
0
210
0
220
0
230
1
40
0.996195
41
3.14159240058226
42
0
0
ELLIPSE
5
175
100
AcDbEntity
8
1
62
256
6
ByLayer
370
-1
48
1
60
0
100
AcDbEllipse
10
108.946847
20
6.227392
30
0
11
-1.33983671596685E-15
21
-1.25
31
0
210
0
220
0
230
1
40
0.996195
41
0
42
0.0349505431244582
0
ELLIPSE
5
176
100
AcDbEntity
8
1
62
256
6
ByLayer
370
-1
48
1
60
0
100
AcDbEllipse
10
115.84456
20
4.258183
30
0
11
-1.07186937277344E-14
21
-9.99999999999964
31
0
210
0
220
0
230
1
40
0.996195
41
-1.51698911975
42
-1.50098315671511
0
ELLIPSE
5
177
100
AcDbEntity
8
1
62
256
6
ByLayer
370
-1
48
1
60
0
100
AcDbEllipse
10
106.204554
20
3.581545
30
0
11
2.81416266174359E-16
21
0.240228318114594
31
0
210
0
220
0
230
1
40
0.996195
41
1.64060949687468
42
1.86750229963393
0
ELLIPSE
5
178
100
AcDbEntity
8
1
62
256
6
ByLayer
370
-1
48
1
60
0
100
AcDbEllipse
10
106.20501
20
3.581545
30
0
11
-3.21560811832048E-16
21
-0.300000000000003
31
0
210
0
220
0
230
1
40
0.996195
41
-1.50098315671517
42
-1.27409035395589
0
ELLIPSE
5
179
100
AcDbEntity
8
1
62
256
6
ByLayer
370
-1
48
1
60
0
100
AcDbEllipse
10
111.202708
20
8.814764
30
0
11
-5.35934686386747E-16
21
-0.500000000000006
31
0
210
0
220
0
230
1
40
0.996195
41
1.8675022996339
42
2.91469985083048
0
ELLIPSE
5
17A
100
AcDbEntity
8
1
62
256
6
ByLayer
370
-1
48
1
60
0
100
AcDbEllipse
10
108.845225
20
6.227392
30
0
11
-1.69826236850985E-15
21
-1.58439303486727
31
0
210
0
220
0
230
1
40
0.996195
41
0
42
6.28318530717959
0
ELLIPSE
5
17B
100
AcDbEntity
8
1
62
256
6
ByLayer
370
-1
48
1
60
0
100
AcDbEllipse
10
106.027467
20
8.685146
30
0
11
-3.21560811832048E-16
21
-0.300000000000003
31
0
210
0
220
0
230
1
40
0.996195
41
-1.79768912955412
42
-1.5707963267949
0
ELLIPSE
5
17C
100
AcDbEntity
8
1
62
256
6
ByLayer
370
-1
48
1
60
0
100
AcDbEllipse
10
111.247071
20
9.009638
30
0
11
2.81416266174359E-16
21
0.240228318114594
31
0
210
0
220
0
230
1
40
0.996195
41
-0.226892802759265
42
5.93815652555542E-14
0
ELLIPSE
5
17D
100
AcDbEntity
8
1
62
256
6
ByLayer
370
-1
48
1
60
0
100
AcDbEllipse
10
106.7882
20
-0.84735
30
0
11
1.16445136866421E-14
21
9.9402283181145
31
0
210
0
220
0
230
1
40
0.996195
41
0.0385457690991545
42
0.0440072139580909
0
ELLIPSE
5
17E
100
AcDbEntity
8
1
62
256
6
ByLayer
370
-1
48
1
60
0
100
AcDbEllipse
10
106.350268
20
3.445146
30
0
11
2.81416266174359E-16
21
0.240228318114594
31
0
210
0
220
0
230
1
40
0.996195
41
2.91469985083058
42
3.14159265358979
0
ELLIPSE
5
17F
100
AcDbEntity
8
1
62
256
6
ByLayer
370
-1
48
1
60
0
100
AcDbEllipse
10
115.846491
20
4.209242
30
0
11
1.16445136866421E-14
21
9.9402283181145
31
0
210
0
220
0
230
1
40
0.996195
41
1.60934209589405
42
1.61480354075299
0
ELLIPSE
5
180
100
AcDbEntity
8
1
62
256
6
ByLayer
370
-1
48
1
60
0
100
AcDbEllipse
10
115.689535
20
8.734135
30
0
11
-1.07186937277348E-14
21
-9.99999999999999
31
0
210
0
220
0
230
1
40
0.996195
41
-1.54499037067321
42
-1.53588974175501
0
ELLIPSE
5
181
100
AcDbEntity
8
1
62
256
6
ByLayer
370
-1
48
1
60
0
100
AcDbEllipse
10
106.301922
20
13.144121
30
0
11
-1.07186937277348E-14
21
-9.99999999999999
31
0
210
0
220
0
230
1
40
0.996195
41
0.0258059561216878
42
0.0349065850398896
0
ELLIPSE
5
182
100
AcDbEntity
8
1
62
256
6
ByLayer
370
-1
48
1
60
0
100
AcDbEllipse
10
110.709764
20
8.605119
30
0
11
5.78724697506073E-15
21
4.94022831811449
31
0
210
0
220
0
230
1
40
0.996195
41
1.58680228982978
42
1.59660228291657
0
ELLIPSE
5
183
100
AcDbEntity
8
1
62
256
6
ByLayer
370
-1
48
1
60
0
100
AcDbEllipse
10
111.247527
20
9.009638
30
0
11
-3.21560811832048E-16
21
-0.300000000000003
31
0
210
0
220
0
230
1
40
0.996195
41
2.91469985083057
42
-3.14159265358975
0
ELLIPSE
5
184
100
AcDbEntity
8
1
62
256
6
ByLayer
370
-1
48
1
60
0
100
AcDbEllipse
10
106.221143
20
8.640156
30
0
11
5.15706934637614E-16
21
0.440228318114594
31
0
210
0
220
0
230
1
40
0.996195
41
0.296705972839039
42
1.34390352403561
0
ELLIPSE
5
185
100
AcDbEntity
8
1
62
256
6
ByLayer
370
-1
48
1
60
0
100
AcDbEllipse
10
110.71022
20
8.605119
30
0
11
-5.35934686386771E-15
21
-5.00000000000028
31
0
210
0
220
0
230
1
40
0.996195
41
-1.55479036376002
42
-1.54499037067323
0
ELLIPSE
5
186
100
AcDbEntity
8
1
62
256
6
ByLayer
370
-1
48
1
60
0
100
AcDbEllipse
10
111.392785
20
8.873238
30
0
11
2.81416266174359E-16
21
0.240228318114594
31
0
210
0
220
0
230
1
40
0.996195
41
-1.50098315671512
42
-1.27409035395586
0
ELLIPSE
5
187
100
AcDbEntity
8
1
62
256
6
ByLayer
370
-1
48
1
60
0
100
AcDbEllipse
10
110.80914
20
13.302134
30
0
11
1.16445136866421E-14
21
9.9402283181145
31
0
210
0
220
0
230
1
40
0.996195
41
-3.10304688449064
42
-3.0975854396317
0
ELLIPSE
5
188
100
AcDbEntity
8
1
62
256
6
ByLayer
370
-1
48
1
60
0
100
AcDbEllipse
10
115.690099
20
8.685146
30
0
11
1.16445136866418E-14
21
9.94022831811422
31
0
210
0
220
0
230
1
40
0.996195
41
1.57079632679489
42
1.58680228982978
0
ELLIPSE
5
189
100
AcDbEntity
8
1
62
256
6
ByLayer
370
-1
48
1
60
0
100
AcDbEllipse
10
106.162892
20
8.831416
30
0
11
2.81416266174359E-16
21
0.240228318114594
31
0
210
0
220
0
230
1
40
0.996195
41
0.0698131700797251
42
0.296705972838996
0
ELLIPSE
5
18A
100
AcDbEntity
8
1
62
256
6
ByLayer
370
-1
48
1
60
0
100
AcDbEllipse
10
111.247071
20
-0.690362
30
0
11
1.16445136866418E-14
21
9.94022831811422
31
0
210
0
220
0
230
1
40
0.996195
41
0
42
0.016005963034882
0
ELLIPSE
5
18B
100
AcDbEntity
8
1
62
256
6
ByLayer
370
-1
48
1
60
0
100
AcDbEllipse
10
110.760841
20
13.299739
30
0
11
-1.07186937277344E-14
21
-9.99999999999964
31
0
210
0
220
0
230
1
40
0.996195
41
0.0538072070448948
42
0.0698131700797821
0
ELLIPSE
5
18C
100
AcDbEntity
8
1
62
256
6
ByLayer
370
-1
48
1
60
0
100
AcDbEllipse
10
111.570785
20
3.769638
30
0
11
-3.21560811832048E-16
21
-0.300000000000003
31
0
210
0
220
0
230
1
40
0.996195
41
1.34390352403567
42
1.5707963267949
0
ELLIPSE
5
18D
100
AcDbEntity
8
1
62
256
6
ByLayer
370
-1
48
1
60
0
100
AcDbEllipse
10
115.844104
20
4.258183
30
0
11
1.16445136866418E-14
21
9.94022831811422
31
0
210
0
220
0
230
1
40
0.996195
41
1.62460353383979
42
1.64060949687468
0
ELLIPSE
5
18E
100
AcDbEntity
8
1
62
256
6
ByLayer
370
-1
48
1
60
0
100
AcDbEllipse
10
106.301466
20
13.144121
30
0
11
1.16445136866421E-14
21
9.9402283181145
31
0
210
0
220
0
230
1
40
0.996195
41
-3.1157866974681
42
-3.11032524091619
0
POINT
5
41
100
AcDbEntity
8
81
62
256
6
ByLayer
370
-1
48
1
60
0
100
AcDbPoint
10
112
20
0
30
0
39
0
210
0
220
0
230
1
50
360
0
POINT
5
43
100
AcDbEntity
8
80
62
256
6
ByLayer
370
-1
48
1
60
0
100
AcDbPoint
10
0
20
0
30
0
39
0
210
0
220
0
230
1
50
360
0
SPLINE
5
18F
100
AcDbEntity
8
1
62
256
6
ByLayer
370
-1
48
1
60
0
100
AcDbSpline
70
4
71
3
72
20
73
16
40
0
40
0
40
0
40
0
40
0.0347374990023776
40
0.120502631827171
40
0.206067200958299
40
0.291145710003046
40
0.375628898564951
40
0.459578796341607
40
0.543191442056214
40
0.62673672736484
40
0.710411131649115
40
0.794456105681964
40
0.879037736605658
40
0.964188749141067
40
1
40
1
40
1
40
1
41
1
10
108.917867340232
20
7.46644830256275
30
0
41
1
10
108.962383841765
20
7.47203823501678
30
0
41
1
10
109.115485348699
20
7.48061467024604
30
0
41
1
10
109.376087935679
20
7.41304110323279
30
0
41
1
10
109.669946200744
20
7.26041647916674
30
0
41
1
10
109.913177052592
20
7.03099209682193
30
0
41
1
10
110.088060491173
20
6.7465097812472
30
0
41
1
10
110.182717788689
20
6.42603135257713
30
0
41
1
10
110.191052237366
20
6.09252562803334
30
0
41
1
10
110.11305289236
20
5.76908079775919
30
0
41
1
10
109.954592878072
20
5.47784992966902
30
0
41
1
10
109.726640803262
20
5.23850163394806
30
0
41
1
10
109.444949613322
20
5.0672403240165
30
0
41
1
10
109.18891276132
20
4.99371785605896
30
0
41
1
10
109.035650387512
20
4.97977316831307
30
0
41
1
10
108.989720151596
20
4.97814309527769
30
0
0
SPLINE
5
190
100
AcDbEntity
8
1
62
256
6
ByLayer
370
-1
48
1
60
0
100
AcDbSpline
70
4
71
3
72
13
73
9
40
0
40
0
40
0
40
0
40
0.0560578056564847
40
0.272867879797991
40
0.48868323497823
40
0.703272851975967
40
0.916756224933018
40
1
40
1
40
1
40
1
41
1
10
107.67629519277
20
-2.02452651552841
30
0
41
1
10
107.684921442964
20
-1.99721612495574
30
0
41
1
10
107.731747570497
20
-1.86555288930654
30
0
41
1
10
107.846186682579
20
-1.64423595060231
30
0
41
1
10
108.0762085904
20
-1.40077804248497
30
0
41
1
10
108.360682624209
20
-1.22586554175283
30
0
41
1
10
108.617472207916
20
-1.15040628581781
30
0
41
1
10
108.769518865538
20
-1.13469334780115
30
0
41
1
10
108.812721685418
20
-1.13241077722492
30
0
0
SPLINE
5
191
100
AcDbEntity
8
1
62
256
6
ByLayer
370
-1
48
1
60
0
100
AcDbSpline
70
4
71
3
72
10
73
6
40
0
40
0
40
0
40
0
40
0.168188472290621
40
0.693136513614169
40
1
40
1
40
1
40
1
41
1
10
108.812721685418
20
-1.13241077722492
30
0
41
1
10
108.847925900451
20
-1.13058334873489
30
0
41
1
10
108.992239161047
20
-1.12903342140555
30
0
41
1
10
109.201064012903
20
-1.16309293308163
30
0
41
1
10
109.363343600766
20
-1.22595800019681
30
0
41
1
10
109.421018875179
20
-1.2535106537764
30
0
0
SPLINE
5
192
100
AcDbEntity
8
1
62
256
6
ByLayer
370
-1
48
1
60
0
100
AcDbSpline
70
4
71
3
72
18
73
14
40
0
40
0
40
0
40
0
40
0.113755764904043
40
0.230611023426568
40
0.348364146741153
40
0.464711241459325
40
0.578615358206231
40
0.654627894154075
40
0.729233397058396
40
0.800776264348245
40
0.868573544642184
40
0.933727178619899
40
1
40
1
40
1
40
1
41
1
10
16
20
9.11499999999998
30
0
41
1
10
15.4800437623714
20
9.11592428020768
30
0
41
1
10
14.4483562995761
20
9.21523325282922
30
0
41
1
10
12.9297160046426
20
9.66967516130674
30
0
41
1
10
11.5281759012901
20
10.4210952106798
30
0
41
1
10
10.299051546421
20
11.4179082011076
30
0
41
1
10
9.448021950591
20
12.5123683332984
30
0
41
1
10
8.74596631480546
20
13.4752773448266
30
0
41
1
10
8.11633010372879
20
14.2551482019509
30
0
41
1
10
7.44702816285968
20
14.9527747181229
30
0
41
1
10
6.71673291098875
20
15.521056398301
30
0
41
1
10
5.89148727233319
20
15.9119433618398
30
0
41
1
10
5.30747686114455
20
15.9960631635167
30
0
41
1
10
5.00000000000003
20
16
30
0
0
SPLINE
5
193
100
AcDbEntity
8
1
62
256
6
ByLayer
370
-1
48
1
60
0
100
AcDbSpline
70
4
71
3
72
18
73
14
40
0
40
0
40
0
40
0
40
0.0707110812742933
40
0.140521435679028
40
0.213666605283855
40
0.291049371371878
40
0.375351867806105
40
0.46003913585161
40
0.543490066430362
40
0.657917392927422
40
0.773584250769362
40
0.888305509362125
40
1
40
1
40
1
40
1
41
1
10
4.99999999999997
20
-16
30
0
41
1
10
5.3290672757478
20
-15.9946689357799
30
0
41
1
10
5.95260415701986
20
-15.8992011964964
30
0
41
1
10
6.82687884929996
20
-15.4542964805022
30
0
41
1
10
7.5939543252278
20
-14.8178496653694
30
0
41
1
10
8.30694282889553
20
-14.0321826232374
30
0
41
1
10
8.99020719658756
20
-13.1559653420677
30
0
41
1
10
9.64343691846884
20
-12.2234164350168
30
0
41
1
10
10.4863756054092
20
-11.2631988584842
30
0
41
1
10
11.5986942607897
20
-10.3747273146748
30
0
41
1
10
12.9837092830839
20
-9.65011557103185
30
0
41
1
10
14.4763839371434
20
-9.21155604614626
30
0
41
1
10
15.4897027746991
20
-9.11585910642293
30
0
41
1
10
16
20
-9.11500000000004
30
0
0
SPLINE
5
194
100
AcDbEntity
8
1
62
256
6
ByLayer
370
-1
48
1
60
0
100
AcDbSpline
70
4
71
3
72
10
73
6
40
0
40
0
40
0
40
0
40
0.5
40
0.5
40
1
40
1
40
1
40
1
41
1
10
8.29563299955896
20
-3.66987450995265
30
0
41
1
10
8.95488814344151
20
-4.12174483747756
30
0
41
1
10
9.61451451919135
20
-4.56587891665384
30
0
41
1
10
10.9329902071791
20
-5.43409416805139
30
0
41
1
10
11.5918295625649
20
-5.85825983745872
30
0
41
1
10
12.2497527213445
20
-6.26854887947417
30
0
0
SPLINE
5
195
100
AcDbEntity
8
1
62
256
6
ByLayer
370
-1
48
1
60
0
100
AcDbSpline
70
4
71
3
72
14
73
10
40
0
40
0
40
0
40
0
40
0.25
40
0.25
40
0.5
40
0.5
40
0.75
40
0.75
40
1
40
1
40
1
40
1
41
1
10
105.548264218404
20
8.94994383608974
30
0
41
1
10
105.552417717398
20
8.95011224378831
30
0
41
1
10
105.562093716705
20
8.94989742837336
30
0
41
1
10
105.592091242125
20
8.94883249642393
30
0
41
1
10
105.612712303456
20
8.94796814139363
30
0
41
1
10
105.662763728527
20
8.94587781613217
30
0
41
1
10
105.692619770743
20
8.94463600185216
30
0
41
1
10
105.760562307003
20
8.94207714112972
30
0
41
1
10
105.79801519685
20
8.94078389904976
30
0
41
1
10
105.838994623143
20
8.93960633221963
30
0
0
SPLINE
5
196
100
AcDbEntity
8
1
62
256
6
ByLayer
370
-1
48
1
60
0
100
AcDbSpline
70
4
71
3
72
8
73
4
40
0
40
0
40
0
40
0
40
1
40
1
40
1
40
1
41
1
10
101.612046134796
20
-8.87421479981666
30
0
41
1
10
101.940467194178
20
-8.87948198122206
30
0
41
1
10
102.259420424862
20
-8.88873529913712
30
0
41
1
10
102.569305160589
20
-8.89959574136341
30
0
0
SPLINE
5
197
100
AcDbEntity
8
1
62
256
6
ByLayer
370
-1
48
1
60
0
100
AcDbSpline
70
4
71
3
72
10
73
6
40
0
40
0
40
0
40
0
40
0.5
40
0.5
40
1
40
1
40
1
40
1
41
1
10
103.606994427198
20
-8.91268613544295
30
0
41
1
10
103.855064242353
20
-8.91558084098193
30
0
41
1
10
104.097990288136
20
-8.92001366854177
30
0
41
1
10
104.573888326293
20
-8.93007825834675
30
0
41
1
10
104.806860315137
20
-8.93571947737919
30
0
41
1
10
105.034682921334
20
-8.94047820397282
30
0
0
SPLINE
5
198
100
AcDbEntity
8
1
62
256
6
ByLayer
370
-1
48
1
60
0
100
AcDbSpline
70
4
71
3
72
12
73
8
40
0
40
0
40
0
40
0
40
0.5
40
0.5
40
0.75
40
0.75
40
1
40
1
40
1
40
1
41
1
10
12.2497527213445
20
-6.26854887947417
30
0
41
1
10
12.4609703588132
20
-6.4082933349143
30
0
41
1
10
12.6901572618606
20
-6.56701746083158
30
0
41
1
10
13.0578210230344
20
-6.82551925029193
30
0
41
1
10
13.1844172771077
20
-6.91503731255546
30
0
41
1
10
13.4458118148953
20
-7.09905455559658
30
0
41
1
10
13.5806507432482
20
-7.19356997296512
30
0
41
1
10
13.7182687442921
20
-7.2886075000475
30
0
0
SPLINE
5
199
100
AcDbEntity
8
1
62
256
6
ByLayer
370
-1
48
1
60
0
100
AcDbSpline
70
4
71
3
72
8
73
4
40
0
40
0
40
0
40
0
40
1
40
1
40
1
40
1
41
1
10
11.4120461348485
20
5.09052333892188
30
0
41
1
10
13.2897217394557
20
3.92045226886682
30
0
41
1
10
15.157148964294
20
2.75439554989467
30
0
41
1
10
17.0120461348474
20
1.59696174921476
30
0
0
SPLINE
5
19A
100
AcDbEntity
8
1
62
256
6
ByLayer
370
-1
48
1
60
0
100
AcDbSpline
70
4
71
3
72
32
73
28
40
0
40
0
40
0
40
0
40
0.0898953573408543
40
0.0898953573408543
40
0.180905821606769
40
0.180905821606769
40
0.271916285872683
40
0.271916285872683
40
0.362926750138598
40
0.362926750138598
40
0.453937214404512
40
0.453937214404512
40
0.544947678670427
40
0.544947678670427
40
0.635958142936341
40
0.635958142936341
40
0.726968607202256
40
0.726968607202256
40
0.81797907146817
40
0.81797907146817
40
0.863484303601128
40
0.863484303601128
40
0.908989535734085
40
0.908989535734085
40
0.954494767867043
40
0.954494767867043
40
1
40
1
40
1
40
1
41
1
10
71.1164120638884
20
-6.29645513898819
30
0
41
1
10
69.4703505449972
20
-6.51264750271557
30
0
41
1
10
67.8244482825678
20
-6.7177048868156
30
0
41
1
10
64.5120254366295
20
-7.10428022736477
30
0
41
1
10
62.8454618737244
20
-7.28553172655299
30
0
41
1
10
59.5112760474076
20
-7.61875873416073
30
0
41
1
10
57.8435320608573
20
-7.77071185517968
30
0
41
1
10
54.5088378226383
20
-8.04237389206159
30
0
41
1
10
52.8415814451795
20
-8.16222035720361
30
0
41
1
10
49.5066229797819
20
-8.36923949378291
30
0
41
1
10
47.8389055974237
20
-8.45640579783966
30
0
41
1
10
44.504863137999
20
-8.59653203059204
30
0
41
1
10
42.8382361067844
20
-8.64943435379428
30
0
41
1
10
39.5050819291422
20
-8.71904871761623
30
0
41
1
10
37.838544384555
20
-8.73577159889004
30
0
41
1
10
34.5048009426761
20
-8.73427068733352
30
0
41
1
10
32.8372511842721
20
-8.71650165733627
30
0
41
1
10
29.5028910276281
20
-8.65069607034025
30
0
41
1
10
27.8360696156298
20
-8.6027725430269
30
0
41
1
10
25.3360338348941
20
-8.50619354985034
30
0
41
1
10
24.5027297274131
20
-8.46960014423155
30
0
41
1
10
22.8361147477692
20
-8.38666054180308
30
0
41
1
10
22.002795394531
20
-8.34047403795114
30
0
41
1
10
20.3360016857858
20
-8.24063269885576
30
0
41
1
10
19.5025283824038
20
-8.18707089512895
30
0
41
1
10
17.83537006996
20
-8.07315322918041
30
0
41
1
10
17.0016897545243
20
-8.01283918247228
30
0
41
1
10
16.1678661513922
20
-7.94798114271649
30
0
0
SPLINE
5
19B
100
AcDbEntity
8
1
62
256
6
ByLayer
370
-1
48
1
60
0
100
AcDbSpline
70
4
71
3
72
8
73
4
40
0
40
0
40
0
40
0
40
1
40
1
40
1
40
1
41
1
10
104.763704778009
20
1.96820127435325
30
0
41
1
10
104.69514297841
20
1.94531942574506
30
0
41
1
10
104.625999900404
20
1.92349014435729
30
0
41
1
10
104.556319830552
20
1.90275504770307
30
0
0
SPLINE
5
19C
100
AcDbEntity
8
1
62
256
6
ByLayer
370
-1
48
1
60
0
100
AcDbSpline
70
4
71
3
72
10
73
6
40
0
40
0
40
0
40
0
40
0.128113145789224
40
0.128113145789224
40
1
40
1
40
1
40
1
41
1
10
51.6683891733078
20
8.99731635340004
30
0
41
1
10
52.1947828353855
20
8.99529540332523
30
0
41
1
10
52.7211839431618
20
8.99158729796198
30
0
41
1
10
56.8301853990081
20
8.94949119041539
30
0
41
1
10
60.4131673318951
20
8.83437289000841
30
0
41
1
10
64
20
8.64299584878648
30
0
0
SPLINE
5
19D
100
AcDbEntity
8
1
62
256
6
ByLayer
370
-1
48
1
60
0
100
AcDbSpline
70
4
71
3
72
8
73
4
40
0
40
0
40
0
40
0
40
1
40
1
40
1
40
1
41
1
10
16.1678661512973
20
-8.32382230076223
30
0
41
1
10
16.111777014542
20
-8.32019213736623
30
0
41
1
10
16.0558100287145
20
-8.31622147061881
30
0
41
1
10
16
20
-8.31190539698463
30
0
0
SPLINE
5
19E
100
AcDbEntity
8
1
62
256
6
ByLayer
370
-1
48
1
60
0
100
AcDbSpline
70
4
71
3
72
10
73
6
40
0
40
0
40
0
40
0
40
0.5
40
0.5
40
1
40
1
40
1
40
1
41
1
10
8.2956326234972
20
-3.66987872319851
30
0
41
1
10
8.18447128301656
20
-3.59071773804263
30
0
41
1
10
8.07519215247072
20
-3.49678359222835
30
0
41
1
10
7.85998746701375
20
-3.2803204014798
30
0
41
1
10
7.75406291846531
20
-3.15779355457204
30
0
41
1
10
7.64975272134436
20
-3.02036094824939
30
0
0
SPLINE
5
19F
100
AcDbEntity
8
1
62
256
6
ByLayer
370
-1
48
1
60
0
100
AcDbSpline
70
4
71
3
72
14
73
10
40
0
40
0
40
0
40
0
40
0.0705200632888079
40
0.0705200632888079
40
0.380346708859205
40
0.380346708859205
40
0.690173354429603
40
0.690173354429603
40
1
40
1
40
1
40
1
41
1
10
110.803410593537
20
3.28989045152812
30
0
41
1
10
110.802938367147
20
3.28247184243139
30
0
41
1
10
110.802436703106
20
3.27525731871296
30
0
41
1
10
110.799599246414
20
3.23743853370195
30
0
41
1
10
110.796757810209
20
3.21050865003835
30
0
41
1
10
110.790632448766
20
3.16745638234752
30
0
41
1
10
110.787286480224
20
3.15078771973287
30
0
41
1
10
110.780348824631
20
3.12836734984603
30
0
41
1
10
110.776817264525
20
3.1227104745461
30
0
41
1
10
110.7732777499
20
3.12267775885218
30
0
0
SPLINE
5
1A0
100
AcDbEntity
8
1
62
256
6
ByLayer
370
-1
48
1
60
0
100
AcDbSpline
70
4
71
3
72
20
73
16
40
0
40
0
40
0
40
0
40
0.125
40
0.125
40
0.25
40
0.25
40
0.375
40
0.375
40
0.5
40
0.5
40
0.75
40
0.75
40
0.875
40
0.875
40
1
40
1
40
1
40
1
41
1
10
21
20
2.71560462204278
30
0
41
1
10
22.7925803380567
20
2.37761292837175
30
0
41
1
10
24.584913109579
20
2.03651613994126
30
0
41
1
10
28.167697188765
20
1.34111289642558
30
0
41
1
10
29.9585025705801
20
0.988566741440764
30
0
41
1
10
33.5410907240752
20
0.28473804791841
30
0
41
1
10
35.3328263781975
20
-0.0667730143046867
30
0
41
1
10
38.9179238426534
20
-0.765089828992643
30
0
41
1
10
40.7111264628403
20
-1.11242474478271
30
0
41
1
10
46.0869580528506
20
-2.14209671814507
30
0
41
1
10
49.6682487383663
20
-2.81192120826384
30
0
41
1
10
55.040599594068
20
-3.77011667696911
30
0
41
1
10
56.8314633997205
20
-4.08169462055196
30
0
41
1
10
60.4144929639332
20
-4.68383053140187
30
0
41
1
10
62.2067046934191
20
-4.97419087660518
30
0
41
1
10
64
20
-5.2521569537119
30
0
0
SPLINE
5
1A1
100
AcDbEntity
8
1
62
256
6
ByLayer
370
-1
48
1
60
0
100
AcDbSpline
70
4
71
3
72
8
73
4
40
0
40
0
40
0
40
0
40
1
40
1
40
1
40
1
41
1
10
94.9157544300223
20
5.31034881296716
30
0
41
1
10
94.7435304011915
20
5.34499313395622
30
0
41
1
10
94.5691301410856
20
5.38154747408191
30
0
41
1
10
94.3925835625592
20
5.41998557964348
30
0
0
SPLINE
5
1A2
100
AcDbEntity
8
1
62
256
6
ByLayer
370
-1
48
1
60
0
100
AcDbSpline
70
4
71
2
72
6
73
3
40
0
40
0
40
0
40
1
40
1
40
1
41
1
10
7.64975272134436
20
-3.02036094824936
30
0
41
1
10
7.64975272134439
20
-4.22024055385984
30
0
41
1
10
7.64975272134441
20
-5.42012015947034
30
0
0
SPLINE
5
1A3
100
AcDbEntity
8
1
62
256
6
ByLayer
370
-1
48
1
60
0
100
AcDbSpline
70
4
71
3
72
18
73
14
40
0
40
0
40
0
40
0
40
0.249999999999996
40
0.249999999999996
40
0.374999999999994
40
0.374999999999994
40
0.499999999999993
40
0.499999999999993
40
0.749999999999989
40
0.749999999999989
40
0.874999999999994
40
0.874999999999994
40
1
40
1
40
1
40
1
41
1
10
104.556319830552
20
1.90275504770301
30
0
41
1
10
104.403962685659
20
1.8574172612737
30
0
41
1
10
104.233355263191
20
1.82308750329901
30
0
41
1
10
103.958729875216
20
1.79076542672698
30
0
41
1
10
103.863975678932
20
1.78320506685654
30
0
41
1
10
103.668717711765
20
1.77515460406673
30
0
41
1
10
103.568492284977
20
1.77472229922933
30
0
41
1
10
103.266426422948
20
1.78458548172412
30
0
41
1
10
103.061195396704
20
1.80586329048433
30
0
41
1
10
102.749439888038
20
1.86133081821978
30
0
41
1
10
102.644651565034
20
1.88383293860957
30
0
41
1
10
102.436400795085
20
1.93646194420077
30
0
41
1
10
102.332661631397
20
1.96662246771749
30
0
41
1
10
102.229371364136
20
2.00070540039161
30
0
0
SPLINE
5
1A4
100
AcDbEntity
8
1
62
256
6
ByLayer
370
-1
48
1
60
0
100
AcDbSpline
70
4
71
3
72
26
73
22
40
0
40
0
40
0
40
0
40
0.124999999999999
40
0.124999999999999
40
0.249999999999998
40
0.249999999999998
40
0.312499999999997
40
0.312499999999997
40
0.374999999999997
40
0.374999999999997
40
0.499999999999996
40
0.499999999999996
40
0.562499999999997
40
0.562499999999997
40
0.624999999999998
40
0.624999999999998
40
0.749999999999998
40
0.749999999999998
40
0.874999999999999
40
0.874999999999999
40
1
40
1
40
1
40
1
41
1
10
105.403940290749
20
2.2095763302093
30
0
41
1
10
105.480892115766
20
2.24183423488108
30
0
41
1
10
105.548597913426
20
2.27578242588237
30
0
41
1
10
105.659591321451
20
2.3440453841572
30
0
41
1
10
105.70375565313
20
2.37867251890998
30
0
41
1
10
105.752673654855
20
2.43137113526871
30
0
41
1
10
105.766095488327
20
2.44913947963445
30
0
41
1
10
105.786532111652
20
2.48425147415014
30
0
41
1
10
105.793632698908
20
2.50166019889434
30
0
41
1
10
105.805778672128
20
2.55345387948196
30
0
41
1
10
105.801744850343
20
2.58740995914121
30
0
41
1
10
105.776903268803
20
2.63745645189235
30
0
41
1
10
105.765482954659
20
2.65390144555977
30
0
41
1
10
105.736831543965
20
2.68584309573438
30
0
41
1
10
105.719567018748
20
2.70141373677097
30
0
41
1
10
105.659087777322
20
2.74694291814501
30
0
41
1
10
105.607019343895
20
2.77582958078432
30
0
41
1
10
105.479854881563
20
2.82990240037537
30
0
41
1
10
105.406307369025
20
2.85448130530668
30
0
41
1
10
105.240118791054
20
2.8989305176525
30
0
41
1
10
105.146888394508
20
2.91889307254931
30
0
41
1
10
105.045064766283
20
2.93613834830103
30
0
0
SPLINE
5
1A5
100
AcDbEntity
8
1
62
256
6
ByLayer
370
-1
48
1
60
0
100
AcDbSpline
70
4
71
3
72
24
73
20
40
0
40
0
40
0
40
0
40
0.125
40
0.125
40
0.250000000000001
40
0.250000000000001
40
0.3125
40
0.3125
40
0.375
40
0.375
40
0.5
40
0.5
40
0.5625
40
0.5625
40
0.625
40
0.625
40
0.75
40
0.75
40
1
40
1
40
1
40
1
41
1
10
7.64975272134444
20
-5.42012015947034
30
0
41
1
10
7.49856774472536
20
-5.33999237969968
30
0
41
1
10
7.36670641965114
20
-5.21290108133584
30
0
41
1
10
7.13534388322208
20
-4.88747464184769
30
0
41
1
10
7.04148516193797
20
-4.69815591206046
30
0
41
1
10
6.92197598757863
20
-4.38813931897249
30
0
41
1
10
6.88572600569651
20
-4.27998019493495
30
0
41
1
10
6.82058514764987
20
-4.06025275034173
30
0
41
1
10
6.79148357354603
20
-3.94819135465414
30
0
41
1
10
6.71261217736861
20
-3.60653499003664
30
0
41
1
10
6.67118404228728
20
-3.37152772218346
30
0
41
1
10
6.62086857596375
20
-3.01071239986004
30
0
41
1
10
6.60606718719032
20
-2.88872454392455
30
0
41
1
10
6.58008363065304
20
-2.6439757701429
30
0
41
1
10
6.56889330755442
20
-2.52126215957438
30
0
41
1
10
6.53982429425068
20
-2.15221180372868
30
0
41
1
10
6.52641126926028
20
-1.90497095058274
30
0
41
1
10
6.49880879351548
20
-1.16019398128361
30
0
41
1
10
6.49704746360348
20
-0.659630934919164
30
0
41
1
10
6.50300321820657
20
-0.155791842434837
30
0
0
SPLINE
5
1A6
100
AcDbEntity
8
1
62
256
6
ByLayer
370
-1
48
1
60
0
100
AcDbSpline
70
4
71
3
72
8
73
4
40
0
40
0
40
0
40
0
40
1
40
1
40
1
40
1
41
1
10
101.905318741226
20
4.39071093140257
30
0
41
1
10
101.869679480234
20
4.600762897359
30
0
41
1
10
101.822444474799
20
4.81425664263531
30
0
41
1
10
101.761282129187
20
5.02999999998755
30
0
0
SPLINE
5
1A7
100
AcDbEntity
8
1
62
256
6
ByLayer
370
-1
48
1
60
0
100
AcDbSpline
70
4
71
2
72
6
73
3
40
0
40
0
40
0
40
1
40
1
40
1
41
1
10
16.1678661513922
20
-7.94798114271273
30
0
41
1
10
16.1678661513922
20
-8.13590172173963
30
0
41
1
10
16.1678661513922
20
-8.32382230076649
30
0
0
SPLINE
5
1A8
100
AcDbEntity
8
1
62
256
6
ByLayer
370
-1
48
1
60
0
100
AcDbSpline
70
4
71
3
72
8
73
4
40
0
40
0
40
0
40
0
40
1
40
1
40
1
40
1
41
1
10
16
20
3.75189816600835
30
0
41
1
10
16.3399900790774
20
3.66130175552706
30
0
41
1
10
16.6772854509856
20
3.5623686733816
30
0
41
1
10
17.0120461348474
20
3.45521500749871
30
0
0
SPLINE
5
1A9
100
AcDbEntity
8
1
62
256
6
ByLayer
370
-1
48
1
60
0
100
AcDbSpline
70
4
71
3
72
18
73
14
40
0
40
0
40
0
40
0
40
0.25
40
0.25
40
0.375
40
0.375
40
0.499999999999999
40
0.499999999999999
40
0.749999999999999
40
0.749999999999999
40
0.874999999999999
40
0.874999999999999
40
1
40
1
40
1
40
1
41
1
10
12.2497527213445
20
-7.97938932037104
30
0
41
1
10
12.4755386994661
20
-8.05810073891922
30
0
41
1
10
12.7259506104759
20
-8.10708582606409
30
0
41
1
10
13.1374576514538
20
-8.15861292397065
30
0
41
1
10
13.2806563973269
20
-8.17200987578047
30
0
41
1
10
13.5795065965395
20
-8.19405228240328
30
0
41
1
10
13.7358667299284
20
-8.20271254257051
30
0
41
1
10
14.2151708111824
20
-8.2249613352451
30
0
41
1
10
14.5502998838028
20
-8.23518740143314
30
0
41
1
10
15.0773159650097
20
-8.25679490157256
30
0
41
1
10
15.2570680319649
20
-8.26500144715854
30
0
41
1
10
15.6252415687972
20
-8.28532417614579
30
0
41
1
10
15.8116208093
20
-8.29733707518048
30
0
41
1
10
16
20
-8.31190539698463
30
0
0
SPLINE
5
1AA
100
AcDbEntity
8
1
62
256
6
ByLayer
370
-1
48
1
60
0
100
AcDbSpline
70
4
71
3
72
16
73
12
40
0
40
0
40
0
40
0
40
0.249999999999992
40
0.249999999999992
40
0.499999999999984
40
0.499999999999984
40
0.624999999999988
40
0.624999999999988
40
0.749999999999992
40
0.749999999999992
40
1
40
1
40
1
40
1
41
1
10
99.4912199119881
20
8.86269155846483
30
0
41
1
10
99.6901403772123
20
8.86615511635418
30
0
41
1
10
99.8846244468028
20
8.87159258581667
30
0
41
1
10
100.265139604806
20
8.88510649259194
30
0
41
1
10
100.451169748301
20
8.89318749439431
30
0
41
1
10
100.723769114944
20
8.90590780458083
30
0
41
1
10
100.813860455998
20
8.9102578028272
30
0
41
1
10
100.989109706858
20
8.91871834875241
30
0
41
1
10
101.074533079723
20
8.92284048693435
30
0
41
1
10
101.324350631727
20
8.93441241834941
30
0
41
1
10
101.4823277685
20
8.94108453077723
30
0
41
1
10
101.631699177057
20
8.94531057818116
30
0
0
SPLINE
5
1AB
100
AcDbEntity
8
1
62
256
6
ByLayer
370
-1
48
1
60
0
100
AcDbSpline
70
4
71
3
72
10
73
6
40
0
40
0
40
0
40
0
40
0.346860910255352
40
0.693721820510705
40
1
40
1
40
1
40
1
41
0.999999999999999
10
99.4912199119881
20
5.02999999999986
30
0
41
0.999999999999999
10
99.0609440169157
20
5.01838986836603
30
0
41
0.999999999999999
10
98.2003825631822
20
4.99397045506081
30
0
41
0.999999999999999
10
96.9598210444382
20
4.95521024504155
30
0
41
0.999999999999999
10
96.1496035064634
20
4.92766967431962
30
0
41
0.999999999999999
10
95.7696760339424
20
4.91425772409162
30
0
0
SPLINE
5
1AC
100
AcDbEntity
8
1
62
256
6
ByLayer
370
-1
48
1
60
0
100
AcDbSpline
70
4
71
3
72
18
73
14
40
0
40
0
40
0
40
0
40
0.280683337492329
40
0.280683337492329
40
0.561366674984657
40
0.561366674984657
40
0.701708343730822
40
0.701708343730822
40
0.842050012476986
40
0.842050012476986
40
0.982391681223151
40
0.982391681223151
40
1
40
1
40
1
40
1
41
1
10
7.35343765289556
20
-2.60490806439205
30
0
41
1
10
7.21384935329974
20
-2.37756034682676
30
0
41
1
10
7.09132569405301
20
-2.14788393691853
30
0
41
1
10
6.87788011723399
20
-1.69142900887385
30
0
41
1
10
6.78690974998895
20
-1.464509910071
30
0
41
1
10
6.67519371349275
20
-1.13503641377122
30
0
41
1
10
6.64198554983389
20
-1.0265547489831
30
0
41
1
10
6.58557388627042
20
-0.819099298829713
30
0
41
1
10
6.56228610367592
20
-0.720007663463377
30
0
41
1
10
6.52616330974891
20
-0.533861644624437
30
0
41
1
10
6.51332472393318
20
-0.446820766614735
30
0
41
1
10
6.50538434748063
20
-0.357246536889136
30
0
41
1
10
6.50459181010905
20
-0.347382623590534
30
0
41
1
10
6.50389263780016
20
-0.33765112964258
30
0
0
SPLINE
5
1AD
100
AcDbEntity
8
1
62
256
6
ByLayer
370
-1
48
1
60
0
100
AcDbSpline
70
4
71
3
72
20
73
16
40
0
40
0
40
0
40
0
40
0.25
40
0.25
40
0.375
40
0.375
40
0.5
40
0.5
40
0.625
40
0.625
40
0.75
40
0.75
40
0.875
40
0.875
40
1
40
1
40
1
40
1
41
1
10
64
20
-5.2521569537119
30
0
41
1
10
67.1354112511086
20
-5.7457202668819
30
0
41
1
10
70.268514119696
20
-6.20264312211449
30
0
41
1
10
74.9689668016782
20
-6.81708459071862
30
0
41
1
10
76.5359970538783
20
-7.00985508637129
30
0
41
1
10
79.6710259636255
20
-7.36987845549004
30
0
41
1
10
81.2393844879699
20
-7.53721608273543
30
0
41
1
10
84.3750882087915
20
-7.84641416563136
30
0
41
1
10
85.9422486535761
20
-7.98816470295651
30
0
41
1
10
89.0761771756344
20
-8.24342866022528
30
0
41
1
10
90.6429358127544
20
-8.35702898316308
30
0
41
1
10
93.7762497179169
20
-8.55563407930987
30
0
41
1
10
95.342941751893
20
-8.64036986840222
30
0
41
1
10
98.4770324729896
20
-8.77979871018258
30
0
41
1
10
100.044094788566
20
-8.83480344036238
30
0
41
1
10
101.612046134839
20
-8.87421479981734
30
0
0
SPLINE
5
1AE
100
AcDbEntity
8
1
62
256
6
ByLayer
370
-1
48
1
60
0
100
AcDbSpline
70
4
71
3
72
8
73
4
40
0
40
0
40
0
40
0
40
1
40
1
40
1
40
1
41
1
10
12.2497527213445
20
-6.26854887947417
30
0
41
1
10
12.2497527213445
20
-6.83882902643978
30
0
41
1
10
12.2497527213445
20
-7.4091091734054
30
0
41
1
10
12.2497527213445
20
-7.97938932037104
30
0
0
SPLINE
5
1AF
100
AcDbEntity
8
1
62
256
6
ByLayer
370
-1
48
1
60
0
100
AcDbSpline
70
4
71
3
72
8
73
4
40
0
40
0
40
0
40
0
40
1
40
1
40
1
40
1
41
1
10
16.1678661513922
20
-8.32382230076857
30
0
41
1
10
17.7786634285717
20
-8.45319194071226
30
0
41
1
10
19.3892662225698
20
-8.56745360500739
30
0
41
1
10
21
20
-8.66596688226733
30
0
0
SPLINE
5
1B0
100
AcDbEntity
8
1
62
256
6
ByLayer
370
-1
48
1
60
0
100
AcDbSpline
70
4
71
3
72
8
73
4
40
0
40
0
40
0
40
0
40
1
40
1
40
1
40
1
41
1
10
7.35343765289178
20
-2.60490806438588
30
0
41
1
10
7.44288501075232
20
-2.7505911389041
30
0
41
1
10
7.5413010201344
20
-2.88906539099963
30
0
41
1
10
7.6497527806971
20
-3.02036102010459
30
0
0
SPLINE
5
1B1
100
AcDbEntity
8
1
62
256
6
ByLayer
370
-1
48
1
60
0
100
AcDbSpline
70
4
71
3
72
14
73
10
40
0
40
0
40
0
40
0
40
0.5
40
0.5
40
0.625000000000003
40
0.625000000000003
40
0.750000000000007
40
0.750000000000007
40
1
40
1
40
1
40
1
41
1
10
104.481530614647
20
0.99746326827011
30
0
41
1
10
104.007045743832
20
0.969027343200736
30
0
41
1
10
103.538831307721
20
0.999750688523875
30
0
41
1
10
102.961379151883
20
1.11161440387423
30
0
41
1
10
102.846286078138
20
1.13771774635768
30
0
41
1
10
102.616921527569
20
1.19761374349522
30
0
41
1
10
102.502891317657
20
1.2313679477686
30
0
41
1
10
102.165876434476
20
1.34316767491771
30
0
41
1
10
101.946762972204
20
1.43200490139165
30
0
41
1
10
101.733389333844
20
1.53539950084817
30
0
0
SPLINE
5
1B2
100
AcDbEntity
8
1
62
256
6
ByLayer
370
-1
48
1
60
0
100
AcDbSpline
70
4
71
3
72
14
73
10
40
0
40
0
40
0
40
0
40
0.25
40
0.25
40
0.5
40
0.5
40
0.75
40
0.75
40
1
40
1
40
1
40
1
41
1
10
64
20
8.64299584878628
30
0
41
1
10
66.5337488717384
20
8.51554011605205
30
0
41
1
10
69.0660176031682
20
8.3489746086363
30
0
41
1
10
74.1302948331186
20
7.94254374174474
30
0
41
1
10
76.6622998361698
20
7.70272710423558
30
0
41
1
10
81.7283099589495
20
7.15562684860302
30
0
41
1
10
84.2622251326786
20
6.84833639119088
30
0
41
1
10
89.3274107753087
20
6.17551623980623
30
0
41
1
10
91.8595937659938
20
5.80995097520204
30
0
41
1
10
94.3925835625573
20
5.41998557964496
30
0
0
SPLINE
5
1B3
100
AcDbEntity
8
1
62
256
6
ByLayer
370
-1
48
1
60
0
100
AcDbSpline
70
4
71
3
72
8
73
4
40
0
40
0
40
0
40
0
40
1
40
1
40
1
40
1
41
1
10
104.981543990524
20
2.94692025620574
30
0
41
1
10
105.002917086077
20
2.94328132337139
30
0
41
1
10
105.024093075466
20
2.93969020161282
30
0
41
1
10
105.045064766283
20
2.93613834830103
30
0
0
SPLINE
5
1B4
100
AcDbEntity
8
1
62
256
6
ByLayer
370
-1
48
1
60
0
100
AcDbSpline
70
4
71
3
72
24
73
20
40
0
40
0
40
0
40
0
40
0.25
40
0.25
40
0.375
40
0.375
40
0.40625
40
0.40625
40
0.4375
40
0.4375
40
0.5
40
0.5
40
0.625
40
0.625
40
0.75
40
0.75
40
0.875
40
0.875
40
1
40
1
40
1
40
1
41
1
10
7.64975272134441
20
-5.42012015947032
30
0
41
1
10
8.03194997788412
20
-5.81830734368222
30
0
41
1
10
8.41065895795242
20
-6.06213107196677
30
0
41
1
10
8.98024856689062
20
-6.30958519911536
30
0
41
1
10
9.17031655069198
20
-6.37265026841973
30
0
41
1
10
9.40844284249562
20
-6.4410446062285
30
0
41
1
10
9.45607669598817
20
-6.45424135461917
30
0
41
1
10
9.55136564810832
20
-6.47970185206921
30
0
41
1
10
9.59901528335405
20
-6.49175886637082
30
0
41
1
10
9.74229509783842
20
-6.53585916722997
30
0
41
1
10
9.8381370955257
20
-6.57240197695589
30
0
41
1
10
10.1262664950178
20
-6.69702804218647
30
0
41
1
10
10.3191345125701
20
-6.7997821648737
30
0
41
1
10
10.7052896672582
20
-7.02201836596956
30
0
41
1
10
10.8986079626105
20
-7.14169313760877
30
0
41
1
10
11.2848071403516
20
-7.38421493917741
30
0
41
1
10
11.4777909891158
20
-7.50721252255138
30
0
41
1
10
11.8637275969107
20
-7.74829536551189
30
0
41
1
10
12.0566814108218
20
-7.86643199218634
30
0
41
1
10
12.2497527213445
20
-7.97938932037104
30
0
0
SPLINE
5
1B5
100
AcDbEntity
8
1
62
256
6
ByLayer
370
-1
48
1
60
0
100
AcDbSpline
70
4
71
3
72
18
73
14
40
0
40
0
40
0
40
0
40
0.25
40
0.25
40
0.375
40
0.375
40
0.500000000000001
40
0.500000000000001
40
0.750000000000001
40
0.750000000000001
40
0.875
40
0.875
40
1
40
1
40
1
40
1
41
1
10
16
20
3.75189816600837
30
0
41
1
10
15.6012464673899
20
3.85815314503375
30
0
41
1
10
15.2016378278021
20
3.96263797584018
30
0
41
1
10
14.6020332497909
20
4.12095003245432
30
0
41
1
10
14.4014171367609
20
4.17419119594797
30
0
41
1
10
14.0043061482297
20
4.28102562664594
30
0
41
1
10
13.8080280338595
20
4.33455807814835
30
0
41
1
10
13.2262443159486
20
4.49678896784857
30
0
41
1
10
12.8477596366746
20
4.60709519127442
30
0
41
1
10
12.2954046551605
20
4.78123338077003
30
0
41
1
10
12.1136530332699
20
4.84080072831543
30
0
41
1
10
11.7564709913362
20
4.96355313069361
30
0
41
1
10
11.5821174569937
20
5.02636431568243
30
0
41
1
10
11.4120461348485
20
5.09105340883644
30
0
0
SPLINE
5
1B6
100
AcDbEntity
8
1
62
256
6
ByLayer
370
-1
48
1
60
0
100
AcDbSpline
70
4
71
3
72
8
73
4
40
0
40
0
40
0
40
0
40
1
40
1
40
1
40
1
41
1
10
103.258836638357
20
3.1548273900583
30
0
41
1
10
103.391322545001
20
3.11782737748516
30
0
41
1
10
103.525887541671
20
3.08546205097278
30
0
41
1
10
103.662683140554
20
3.05786144581333
30
0
0
SPLINE
5
1B7
100
AcDbEntity
8
1
62
256
6
ByLayer
370
-1
48
1
60
0
100
AcDbSpline
70
4
71
3
72
10
73
6
40
0
40
0
40
0
40
0
40
0.5
40
0.5
40
1
40
1
40
1
40
1
41
1
10
102.444757179414
20
3.50925833652715
30
0
41
1
10
102.565271213899
20
3.42881856548107
30
0
41
1
10
102.694789606599
20
3.36151748681183
30
0
41
1
10
102.967578323204
20
3.24507596286603
30
0
41
1
10
103.111687072387
20
3.19592259730661
30
0
41
1
10
103.258836638357
20
3.15482739005827
30
0
0
SPLINE
5
1B8
100
AcDbEntity
8
1
62
256
6
ByLayer
370
-1
48
1
60
0
100
AcDbSpline
70
4
71
3
72
16
73
12
40
0
40
0
40
0
40
0
40
0.204891723878965
40
0.204891723878965
40
0.602445861939482
40
0.602445861939482
40
0.701834396454612
40
0.701834396454612
40
0.801222930969741
40
0.801222930969741
40
1
40
1
40
1
40
1
41
1
10
101.745214504741
20
2.17284598862219
30
0
41
1
10
101.785627103592
20
2.2426040034529
30
0
41
1
10
101.821654613963
20
2.32458002836762
30
0
41
1
10
101.914408228836
20
2.60180872357145
30
0
41
1
10
101.955785221621
20
2.82224285503588
30
0
41
1
10
101.980870668428
20
3.14193254667839
30
0
41
1
10
101.984527337553
20
3.20838641640094
30
0
41
1
10
101.988887322788
20
3.34414307084089
30
0
41
1
10
101.989607605104
20
3.41347221223137
30
0
41
1
10
101.98732549088
20
3.62561676824524
30
0
41
1
10
101.97991062321
20
3.7725767941846
30
0
41
1
10
101.966082215706
20
3.9247353462703
30
0
0
SPLINE
5
1B9
100
AcDbEntity
8
1
62
256
6
ByLayer
370
-1
48
1
60
0
100
AcDbSpline
70
4
71
3
72
12
73
8
40
0
40
0
40
0
40
0
40
0.249999999999993
40
0.249999999999993
40
0.499999999999987
40
0.499999999999987
40
1
40
1
40
1
40
1
41
1
10
103.662683140554
20
3.05786144581333
30
0
41
1
10
103.775906421392
20
3.03501691649529
30
0
41
1
10
103.889019301412
20
3.01565149463735
30
0
41
1
10
104.114898532324
20
2.98376499673094
30
0
41
1
10
104.227854107342
20
2.9712599937568
30
0
41
1
10
104.560106327187
20
2.94421048937991
30
0
41
1
10
104.774779977242
20
2.939791355192
30
0
41
1
10
104.981543990524
20
2.94692025620574
30
0
0
SPLINE
5
1BA
100
AcDbEntity
8
1
62
256
6
ByLayer
370
-1
48
1
60
0
100
AcDbSpline
70
4
71
3
72
8
73
4
40
0
40
0
40
0
40
0
40
1
40
1
40
1
40
1
41
1
10
64
20
-7.3239896961484
30
0
41
1
10
66.5437740221894
20
-7.04001810476382
30
0
41
1
10
69.0860467995851
20
-6.72244142200492
30
0
41
1
10
71.6282532821529
20
-6.37619581855262
30
0
0
SPLINE
5
1BB
100
AcDbEntity
8
1
62
256
6
ByLayer
370
-1
48
1
60
0
100
AcDbSpline
70
4
71
4
72
19
73
14
40
0
40
0
40
0
40
0
40
0
40
0.406429119164102
40
0.406429119164102
40
0.406429119164102
40
0.609643678746153
40
0.609643678746153
40
0.609643678746153
40
0.812858238328203
40
0.812858238328203
40
0.812858238328203
40
1
40
1
40
1
40
1
40
1
41
1
10
17.0120461348503
20
1.59696174921436
30
0
41
1
10
17.0120461348503
20
1.18241468546654
30
0
41
0.988033871712585
10
16.9604245801335
20
0.32549720040308
30
0
41
1
10
16.838534942693
20
-0.958990614293555
30
0
41
1
10
16.6397671297933
20
-2.79028236648807
30
0
41
0.997008467928146
10
16.5637512299936
20
-3.45062413767974
30
0
41
0.995512701892219
10
16.4819986337842
20
-4.11557705079998
30
0
41
0.995512701892219
10
16.3180013662213
20
-5.36999747498656
30
0
41
0.997008467928146
10
16.2362487700119
20
-5.9557010872985
30
0
41
1
10
16.1602328702123
20
-6.45825548734868
30
0
41
1
10
16.0329613591112
20
-7.23268279267791
30
0
41
0.997462970895773
10
15.9745402962149
20
-7.55425045140046
30
0
41
0.995893465439008
10
15.9238554940998
20
-7.78838189494259
30
0
41
0.995568668336645
10
15.8833935838095
20
-7.92532787775401
30
0
0
SPLINE
5
1BC
100
AcDbEntity
8
1
62
256
6
ByLayer
370
-1
48
1
60
0
100
AcDbSpline
70
4
71
4
72
10
73
5
40
0
40
0
40
0
40
0
40
0
40
1
40
1
40
1
40
1
40
1
41
0.995548692645452
10
99.4335047149347
20
3.14879843394045
30
0
41
0.995814042900535
10
99.4624775678997
20
3.59150688536479
30
0
41
0.997375716773686
10
99.4822188660794
20
4.07128672977665
30
0
41
1
10
99.4912199119881
20
4.56169529079924
30
0
41
1
10
99.4912199119881
20
5.02999999999986
30
0
0
SPLINE
5
1BD
100
AcDbEntity
8
1
62
256
6
ByLayer
370
-1
48
1
60
0
100
AcDbSpline
70
4
71
3
72
10
73
6
40
0
40
0
40
0
40
0
40
0.5
40
0.5
40
1
40
1
40
1
40
1
41
1
10
101.966082215706
20
3.9247353462703
30
0
41
1
10
102.031387428176
20
3.84224252208486
30
0
41
1
10
102.10730652033
20
3.76915494840884
30
0
41
1
10
102.269352304075
20
3.63211554905317
30
0
41
1
10
102.355609855341
20
3.56876169950468
30
0
41
1
10
102.444757179414
20
3.50925833652715
30
0
0
SPLINE
5
1BE
100
AcDbEntity
8
1
62
256
6
ByLayer
370
-1
48
1
60
0
100
AcDbSpline
70
4
71
3
72
22
73
18
40
0
40
0
40
0
40
0
40
0.125
40
0.125
40
0.25
40
0.25
40
0.375
40
0.375
40
0.5
40
0.5
40
0.625
40
0.625
40
0.75
40
0.75
40
0.875
40
0.875
40
1
40
1
40
1
40
1
41
1
10
105.902589515097
20
2.97760237470013
30
0
41
1
10
105.907722580976
20
2.97760237470013
30
0
41
1
10
105.902489603211
20
2.98371145644134
30
0
41
1
10
105.876895098437
20
3.0063885825422
30
0
41
1
10
105.857402074078
20
3.02238500056754
30
0
41
1
10
105.811455123291
20
3.06233550883431
30
0
41
1
10
105.785086085271
20
3.08623129425968
30
0
41
1
10
105.73052539548
20
3.14019524043644
30
0
41
1
10
105.702061609479
20
3.17045766571437
30
0
41
1
10
105.644442328333
20
3.23823341498832
30
0
41
1
10
105.615437799284
20
3.27562573732638
30
0
41
1
10
105.559742015752
20
3.35594266246014
30
0
41
1
10
105.532801041192
20
3.3991257880399
30
0
41
1
10
105.481544985937
20
3.49265559867388
30
0
41
1
10
105.457325682311
20
3.54303692530417
30
0
41
1
10
105.414540397862
20
3.64687901895644
30
0
41
1
10
105.395637931428
20
3.70089560547146
30
0
41
1
10
105.37946962834
20
3.75730834416208
30
0
0
SPLINE
5
1BF
100
AcDbEntity
8
1
62
256
6
ByLayer
370
-1
48
1
60
0
100
AcDbSpline
70
4
71
3
72
16
73
12
40
0
40
0
40
0
40
0
40
0.25
40
0.25
40
0.375
40
0.375
40
0.5
40
0.5
40
0.75
40
0.75
40
1
40
1
40
1
40
1
41
1
10
21
20
-8.66596688226733
30
0
41
1
10
24.5845637249101
20
-8.87152168575579
30
0
41
1
10
28.1663097824387
20
-8.99795732473015
30
0
41
1
10
33.5404919366023
20
-9.06474457160351
30
0
41
1
10
35.3321515857229
20
-9.06661122096554
30
0
41
1
10
38.916923993287
20
-9.02982117016256
30
0
41
1
10
40.709976278238
20
-8.99115740574365
30
0
41
1
10
46.0855569595795
20
-8.81576394813069
30
0
41
1
10
49.6668459051636
20
-8.61952060172624
30
0
41
1
10
56.8308528754195
20
-8.07914591645215
30
0
41
1
10
60.4133877471253
20
-7.73450410001112
30
0
41
1
10
64
20
-7.3239896961484
30
0
0
SPLINE
5
1C0
100
AcDbEntity
8
1
62
256
6
ByLayer
370
-1
48
1
60
0
100
AcDbSpline
70
4
71
3
72
12
73
8
40
0
40
0
40
0
40
0
40
0.503524609301464
40
0.503524609301464
40
0.755286913952196
40
0.755286913952196
40
1
40
1
40
1
40
1
41
1
10
108.064421182706
20
5.98074838672201
30
0
41
1
10
108.080364502227
20
5.84045138114084
30
0
41
1
10
108.119569157943
20
5.70039537437614
30
0
41
1
10
108.220450390778
20
5.49304310692571
30
0
41
1
10
108.260982745115
20
5.42517011658347
30
0
41
1
10
108.354124274149
20
5.29751845016645
30
0
41
1
10
108.406548339744
20
5.2371162319188
30
0
41
1
10
108.466588765154
20
5.18004915890847
30
0
0
SPLINE
5
1C1
100
AcDbEntity
8
1
62
256
6
ByLayer
370
-1
48
1
60
0
100
AcDbSpline
70
4
71
3
72
8
73
4
40
0
40
0
40
0
40
0
40
1
40
1
40
1
40
1
41
1
10
108.056591808775
20
6.10330723137474
30
0
41
1
10
108.057158956511
20
6.06278911510387
30
0
41
1
10
108.059745814712
20
6.02189039160245
30
0
41
1
10
108.064421182706
20
5.98074838672201
30
0
0
SPLINE
5
1C2
100
AcDbEntity
8
1
62
256
6
ByLayer
370
-1
48
1
60
0
100
AcDbSpline
70
4
71
3
72
10
73
6
40
0
40
0
40
0
40
0
40
0.5
40
0.5
40
1
40
1
40
1
40
1
41
1
10
102.128339074327
20
4.49042992406342
30
0
41
1
10
102.088041121954
20
4.48170294267931
30
0
41
1
10
102.048590328763
20
4.47041507997608
30
0
41
1
10
101.972664894996
20
4.43881791287012
30
0
41
1
10
101.93592684207
20
4.41829154063285
30
0
41
1
10
101.905318741226
20
4.39071093140259
30
0
0
SPLINE
5
1C3
100
AcDbEntity
8
1
62
256
6
ByLayer
370
-1
48
1
60
0
100
AcDbSpline
70
4
71
3
72
8
73
4
40
0
40
0
40
0
40
0
40
1
40
1
40
1
40
1
41
1
10
15.8833935838088
20
-7.9253278777569
30
0
41
1
10
15.9778393693065
20
-7.93228222783995
30
0
41
1
10
16.0726644147793
20
-7.93981588826841
30
0
41
1
10
16.1678661512973
20
-7.94798114270873
30
0
0
SPLINE
5
1C4
100
AcDbEntity
8
1
62
256
6
ByLayer
370
-1
48
1
60
0
100
AcDbSpline
70
4
71
3
72
8
73
4
40
0
40
0
40
0
40
0
40
1
40
1
40
1
40
1
41
1
10
102.229371364136
20
2.00070540039144
30
0
41
1
10
102.118906040086
20
2.03715590344709
30
0
41
1
10
102.00995757094
20
2.07582818408215
30
0
41
1
10
101.902425582164
20
2.11691946956154
30
0
0
SPLINE
5
1C5
100
AcDbEntity
8
1
62
256
6
ByLayer
370
-1
48
1
60
0
100
AcDbSpline
70
4
71
3
72
12
73
8
40
0
40
0
40
0
40
0
40
0.5
40
0.5
40
0.75
40
0.75
40
1
40
1
40
1
40
1
41
1
10
101.905318741225
20
4.39071093140257
30
0
41
1
10
101.903167012925
20
4.30455188599075
30
0
41
1
10
101.908644033535
20
4.22025892396232
30
0
41
1
10
101.924669849373
20
4.10351289314144
30
0
41
1
10
101.931329317218
20
4.06590889640162
30
0
41
1
10
101.947023323786
20
3.9931775642803
30
0
41
1
10
101.95610442623
20
3.95795672468333
30
0
41
1
10
101.966082215706
20
3.9247353462703
30
0
0
SPLINE
5
1C6
100
AcDbEntity
8
1
62
256
6
ByLayer
370
-1
48
1
60
0
100
AcDbSpline
70
4
71
3
72
78
73
74
40
-0.0312500000000014
40
-0.0312500000000014
40
0
40
0
40
0.0312499999999971
40
0.0312499999999971
40
0.0468749999999956
40
0.0468749999999956
40
0.0624999999999941
40
0.0624999999999941
40
0.0937499999999909
40
0.0937499999999909
40
0.124999999999988
40
0.124999999999988
40
0.156249999999985
40
0.156249999999985
40
0.171874999999985
40
0.171874999999985
40
0.187499999999986
40
0.187499999999986
40
0.218749999999982
40
0.218749999999982
40
0.249999999999978
40
0.249999999999978
40
0.281249999999975
40
0.281249999999975
40
0.312499999999971
40
0.312499999999971
40
0.328124999999972
40
0.328124999999972
40
0.343749999999972
40
0.343749999999972
40
0.374999999999974
40
0.374999999999974
40
0.406249999999975
40
0.406249999999975
40
0.437499999999976
40
0.437499999999976
40
0.468749999999978
40
0.468749999999978
40
0.499999999999979
40
0.499999999999979
40
0.53124999999998
40
0.53124999999998
40
0.562499999999982
40
0.562499999999982
40
0.593749999999983
40
0.593749999999983
40
0.624999999999984
40
0.624999999999984
40
0.656249999999985
40
0.656249999999985
40
0.687499999999987
40
0.687499999999987
40
0.718749999999988
40
0.718749999999988
40
0.749999999999989
40
0.749999999999989
40
0.781249999999991
40
0.781249999999991
40
0.796874999999991
40
0.796874999999991
40
0.812499999999992
40
0.812499999999992
40
0.843749999999993
40
0.843749999999993
40
0.874999999999995
40
0.874999999999995
40
0.906249999999996
40
0.906249999999996
40
0.937499999999997
40
0.937499999999997
40
0.968749999999999
40
0.968749999999999
40
1
40
1
40
1.03125
40
1.03125
41
1
10
107.533938670826
20
-1.79296895601823
30
0
41
1
10
107.525790990425
20
-1.63458942482527
30
0
41
1
10
107.529260788114
20
-1.55606454672935
30
0
41
1
10
107.545575866518
20
-1.43926903988728
30
0
41
1
10
107.552878657599
20
-1.40050392035505
30
0
41
1
10
107.571335736162
20
-1.32332384879035
30
0
41
1
10
107.582561591193
20
-1.2847491877765
30
0
41
1
10
107.621455721524
20
-1.17197278340919
30
0
41
1
10
107.654383691618
20
-1.100034047994
30
0
41
1
10
107.734294277272
20
-0.962737388037112
30
0
41
1
10
107.78187049361
20
-0.896895096171761
30
0
41
1
10
107.887608735421
20
-0.777710995569976
30
0
41
1
10
107.946006956621
20
-0.723689820187957
30
0
41
1
10
108.042096442098
20
-0.651257472566641
30
0
41
1
10
108.075671339081
20
-0.62851012983046
30
0
41
1
10
108.144201169681
20
-0.586961690441797
30
0
41
1
10
108.179319225577
20
-0.568021192688889
30
0
41
1
10
108.287187907063
20
-0.516610635560397
30
0
41
1
10
108.362895395475
20
-0.48938397929436
30
0
41
1
10
108.519295090234
20
-0.450562736462501
30
0
41
1
10
108.598274713244
20
-0.439289683305134
30
0
41
1
10
108.757749146265
20
-0.432564919939182
30
0
41
1
10
108.839093576283
20
-0.437346946894934
30
0
41
1
10
108.996976341548
20
-0.462818232237282
30
0
41
1
10
109.073999036627
20
-0.483313889034349
30
0
41
1
10
109.186622923754
20
-0.525814159603016
30
0
41
1
10
109.22381685676
20
-0.542045703969677
30
0
41
1
10
109.295616709063
20
-0.577801792085523
30
0
41
1
10
109.330402176204
20
-0.597376836878425
30
0
41
1
10
109.431484989804
20
-0.661079327077488
30
0
41
1
10
109.494837205258
20
-0.710422746292949
30
0
41
1
10
109.611197181352
20
-0.821625037614638
30
0
41
1
10
109.662914085259
20
-0.882134043417039
30
0
41
1
10
109.7539369891
20
-1.01251218600726
30
0
41
1
10
109.793506846764
20
-1.08320188551525
30
0
41
1
10
109.857157637199
20
-1.22878032258402
30
0
41
1
10
109.881615368144
20
-1.3039111267324
30
0
41
1
10
109.916002864587
20
-1.45873356764315
30
0
41
1
10
109.925676797616
20
-1.53814325004183
30
0
41
1
10
109.929873898619
20
-1.69497164363037
30
0
41
1
10
109.924606813383
20
-1.77319817878569
30
0
41
1
10
109.899056879842
20
-1.92927569118996
30
0
41
1
10
109.879166133164
20
-2.00475155418681
30
0
41
1
10
109.825831317718
20
-2.15087075527251
30
0
41
1
10
109.792006103486
20
-2.22211961376635
30
0
41
1
10
109.711716222295
20
-2.3565685293259
30
0
41
1
10
109.665737997508
20
-2.41925003223545
30
0
41
1
10
109.562062955947
20
-2.53564699002712
30
0
41
1
10
109.50359769399
20
-2.58987087052839
30
0
41
1
10
109.378353466883
20
-2.68493265129166
30
0
41
1
10
109.311571133583
20
-2.72607539513334
30
0
41
1
10
109.169310803052
20
-2.7951955044351
30
0
41
1
10
109.093202497514
20
-2.82314657975982
30
0
41
1
10
108.939203442708
20
-2.86236839812787
30
0
41
1
10
108.860518106836
20
-2.87415346436424
30
0
41
1
10
108.699599994221
20
-2.88132461933788
30
0
41
1
10
108.619071258468
20
-2.8764944304514
30
0
41
1
10
108.501160530282
20
-2.85724630514719
30
0
41
1
10
108.462178868818
20
-2.84882342083873
30
0
41
1
10
108.384865426324
20
-2.82791414833125
30
0
41
1
10
108.346469612126
20
-2.81537499967701
30
0
41
1
10
108.23488601143
20
-2.7725641954321
30
0
41
1
10
108.164361035853
20
-2.73695013940653
30
0
41
1
10
108.030706075058
20
-2.6520156598605
30
0
41
1
10
107.968056573964
20
-2.602785989468
30
0
41
1
10
107.854880262301
20
-2.49479313117215
30
0
41
1
10
107.803433432838
20
-2.43528475699776
30
0
41
1
10
107.712415399555
20
-2.30704503288751
30
0
41
1
10
107.673625909978
20
-2.23955428793616
30
0
41
1
10
107.608908036189
20
-2.09799436856369
30
0
41
1
10
107.582850264224
20
-2.02322303215757
30
0
41
1
10
107.545449408383
20
-1.87070159669025
30
0
41
1
10
107.533938670826
20
-1.79296895601823
30
0
41
1
10
107.525790990425
20
-1.63458942482527
30
0
0
SPLINE
5
1C7
100
AcDbEntity
8
1
62
256
6
ByLayer
370
-1
48
1
60
0
100
AcDbSpline
70
4
71
3
72
43
73
39
40
0
40
0
40
0
40
0
40
0.0503961245026079
40
0.0755941867539118
40
0.100792249005216
40
0.12599031125652
40
0.151188373507824
40
0.176386435759128
40
0.201584498010432
40
0.226782560261736
40
0.25198062251304
40
0.277178684764344
40
0.302376747015647
40
0.327574809266952
40
0.352772871518255
40
0.377970933769559
40
0.403168996020863
40
0.428367058272167
40
0.453565120523471
40
0.478763182774775
40
0.503961245026079
40
0.516560276151732
40
0.529159307277383
40
0.541758338403035
40
0.554357369528687
40
0.604753494031295
40
0.655149618533903
40
0.705545743036511
40
0.755941867539119
40
0.781139929790423
40
0.806337992041727
40
0.818937023167379
40
0.831536054293031
40
0.844135085418683
40
0.856734116544335
40
0.907130241046943
40
0.957526365549551
40
1
40
1
40
1
40
1
41
1
10
11.4120461348485
20
5.09052333892188
30
0
41
1
10
11.2906175916807
20
5.06087380957848
30
0
41
1
10
11.1048253956933
20
5.00604526438846
30
0
41
1
10
10.8520302132344
20
4.91155969301357
30
0
41
1
10
10.6605411246291
20
4.8299823128952
30
0
41
1
10
10.4678027597395
20
4.73766895182993
30
0
41
1
10
10.2745212383498
20
4.63475863757159
30
0
41
1
10
10.0814026802443
20
4.52139039787403
30
0
41
1
10
9.88918427430801
20
4.39786914868355
30
0
41
1
10
9.69860320942595
20
4.26449980594651
30
0
41
1
10
9.51039179753505
20
4.12174594312518
30
0
41
1
10
9.32528235057219
20
3.97007113368176
30
0
41
1
10
9.14396518621572
20
3.81007704991265
30
0
41
1
10
8.96713062214394
20
3.64236536411431
30
0
41
1
10
8.79539242868043
20
3.46764551955636
30
0
41
1
10
8.62936437614866
20
3.28662695950845
30
0
41
1
10
8.46955596635473
20
3.10008862837057
30
0
41
1
10
8.31647670110482
20
2.90880947054268
30
0
41
1
10
8.17051664472655
20
2.71360406882744
30
0
41
1
10
8.03206586154752
20
2.51528700602754
30
0
41
1
10
7.92313368804903
20
2.34804936190787
30
0
41
1
10
7.83996548763139
20
2.21344696701075
30
0
41
1
10
7.77964016903437
20
2.11226496845313
30
0
41
1
10
7.72142774467915
20
2.01102870492656
30
0
41
1
10
7.60773618063163
20
1.80589609283777
30
0
41
1
10
7.44783995833862
20
1.48826664159572
30
0
41
1
10
7.26203345496521
20
1.04843782802234
30
0
41
1
10
7.10786936016783
20
0.598057831041189
30
0
41
1
10
7.00872475236346
20
0.219314730579612
30
0
41
1
10
6.94831359715573
20
-0.0823208014859063
30
0
41
1
10
6.91859210357018
20
-0.269559511031446
30
0
41
1
10
6.89973135004593
20
-0.418150018149333
30
0
41
1
10
6.88804919893528
20
-0.528889618240498
30
0
41
1
10
6.87883565521756
20
-0.638822888096541
30
0
41
1
10
6.86535616928885
20
-0.856870667362443
30
0
41
1
10
6.8637293962494
20
-1.17634910967868
30
0
41
1
10
6.8984484834146
20
-1.55898096400713
30
0
41
1
10
6.94180921841794
20
-1.79157896282231
30
0
41
1
10
6.96571219649942
20
-1.89432650305162
30
0
0
SPLINE
5
1C8
100
AcDbEntity
8
1
62
256
6
ByLayer
370
-1
48
1
60
0
100
AcDbSpline
70
4
71
3
72
16
73
12
40
0
40
0
40
0
40
0
40
0.153689919858515
40
0.322951935886812
40
0.407582943900961
40
0.492213951915109
40
0.661475967943406
40
0.746106975957555
40
0.830737983971703
40
0.915368991985852
40
1
40
1
40
1
40
1
41
1
10
32.6322501902785
20
0.46353393808289
30
0
41
1
10
31.8320326865664
20
0.524423253055176
30
0
41
1
10
30.150347604648
20
0.652317063377808
30
0
41
1
10
28.0277291925271
20
0.812889176730267
30
0
41
1
10
26.2649663488424
20
0.944330235824481
30
0
41
1
10
24.5027214651527
20
1.07315537407143
30
0
41
1
10
22.7403154776664
20
1.1979305574917
30
0
41
1
10
20.9769132654838
20
1.32154884562442
30
0
41
1
10
19.6542657296675
20
1.41409249981865
30
0
41
1
10
18.3321566813306
20
1.50628273332623
30
0
41
1
10
17.4517835278171
20
1.56704368940945
30
0
41
1
10
17.0120461348503
20
1.59696174921436
30
0
0
SPLINE
5
1C9
100
AcDbEntity
8
1
62
256
6
ByLayer
370
-1
48
1
60
0
100
AcDbSpline
70
4
71
3
72
14
73
10
40
0
40
0
40
0
40
0
40
0.138606743094243
40
0.138606743094243
40
0.56930337154712
40
0.56930337154712
40
0.78465168577356
40
0.78465168577356
40
1
40
1
40
1
40
1
41
1
10
78.8892449444097
20
7.46109678461255
30
0
41
1
10
79.8411604747805
20
7.56285766866827
30
0
41
1
10
80.793208482809
20
7.65987029488406
30
0
41
1
10
84.7043473013139
20
8.03799634985504
30
0
41
1
10
87.6613220095024
20
8.27620143151063
30
0
41
1
10
92.096788433131
20
8.55555744181135
30
0
41
1
10
93.5753014117877
20
8.63567943173723
30
0
41
1
10
96.5327330366691
20
8.76936026953641
30
0
41
1
10
98.0117760472739
20
8.82278391286525
30
0
41
1
10
99.4912199120254
20
8.86269155846546
30
0
0
SPLINE
5
1CA
100
AcDbEntity
8
1
62
256
6
ByLayer
370
-1
48
1
60
0
100
AcDbSpline
70
4
71
4
72
10
73
5
40
0
40
0
40
0
40
0
40
0
40
1
40
1
40
1
40
1
40
1
41
1
10
99.4912199119881
20
5.02999999999986
30
0
41
1
10
99.4912199120033
20
5.98817288961627
30
0
41
1
10
99.4912199120137
20
6.94634577923267
30
0
41
1
10
99.4912199120207
20
7.90451866884908
30
0
41
1
10
99.4912199120254
20
8.86269155846549
30
0
0
SPLINE
5
1CB
100
AcDbEntity
8
1
62
256
6
ByLayer
370
-1
48
1
60
0
100
AcDbSpline
70
4
71
3
72
8
73
4
40
0
40
0
40
0
40
0
40
1
40
1
40
1
40
1
41
1
10
17.0120461348476
20
3.45521500749868
30
0
41
1
10
18.3413479704207
20
3.2124344074347
30
0
41
1
10
19.6704839395175
20
2.96501310092228
30
0
41
1
10
21
20
2.71560462204278
30
0
0
SPLINE
5
1CC
100
AcDbEntity
8
1
62
256
6
ByLayer
370
-1
48
1
60
0
100
AcDbSpline
70
4
71
3
72
22
73
18
40
0
40
0
40
0
40
0
40
0.125
40
0.125
40
0.25
40
0.25
40
0.375
40
0.375
40
0.5
40
0.5
40
0.625
40
0.625
40
0.75
40
0.75
40
0.875
40
0.875
40
1
40
1
40
1
40
1
41
1
10
17.0120461348502
20
1.59696174921433
30
0
41
1
10
16.5995657241598
20
1.53547419163377
30
0
41
1
10
16.176723893589
20
1.39420404654635
30
0
41
1
10
15.3525579057034
20
0.966211005841501
30
0
41
1
10
14.9513743469055
20
0.679561123655333
30
0
41
1
10
14.210883022251
20
-0.0104099806441411
30
0
41
1
10
13.87170158044
20
-0.413613497203897
30
0
41
1
10
13.2893502522263
20
-1.29617774933158
30
0
41
1
10
13.0462797119917
20
-1.77538792393662
30
0
41
1
10
12.6806308295772
20
-2.76179284438905
30
0
41
1
10
12.5581148652329
20
-3.26881931458482
30
0
41
1
10
12.4459388335638
20
-4.25986999231327
30
0
41
1
10
12.4562979028983
20
-4.74372513165181
30
0
41
1
10
12.6088753748306
20
-5.63975946868442
30
0
41
1
10
12.7510677484893
20
-6.05178580748773
30
0
41
1
10
13.1530552190963
20
-6.76269674483112
30
0
41
1
10
13.4127817390311
20
-7.06146006558882
30
0
41
1
10
13.7182681295509
20
-7.2886085001565
30
0
0
SPLINE
5
1CD
100
AcDbEntity
8
1
62
256
6
ByLayer
370
-1
48
1
60
0
100
AcDbSpline
70
4
71
3
72
8
73
4
40
0
40
0
40
0
40
0
40
1
40
1
40
1
40
1
41
1
10
11.4120461348475
20
5.09052333891535
30
0
41
1
10
11.4120461348475
20
5.090700028887
30
0
41
1
10
11.4120461348475
20
5.09087671885868
30
0
41
1
10
11.4120461348475
20
5.09105340883036
30
0
0
SPLINE
5
1CE
100
AcDbEntity
8
1
62
256
6
ByLayer
370
-1
48
1
60
0
100
AcDbSpline
70
4
71
3
72
8
73
4
40
0
40
0
40
0
40
0
40
1
40
1
40
1
40
1
41
1
10
104.981543990524
20
2.94692025620574
30
0
41
1
10
104.985621222437
20
2.94705439588654
30
0
41
1
10
104.989698158135
20
2.94719269573241
30
0
41
1
10
104.993774797715
20
2.94733515508392
30
0
0
SPLINE
5
1CF
100
AcDbEntity
8
1
62
256
6
ByLayer
370
-1
48
1
60
0
100
AcDbSpline
70
4
71
3
72
10
73
6
40
0
40
0
40
0
40
0
40
0.5
40
0.5
40
1
40
1
40
1
40
1
41
1
10
105.636508909347
20
6.18250962925549
30
0
41
1
10
105.639923631899
20
6.18250962925549
30
0
41
1
10
105.646891111234
20
6.18683112740737
30
0
41
1
10
105.667291187993
20
6.20276297387511
30
0
41
1
10
105.68078480506
20
6.21442213267693
30
0
41
1
10
105.69682938289
20
6.22841567030031
30
0
0
SPLINE
5
1D0
100
AcDbEntity
8
1
62
256
6
ByLayer
370
-1
48
1
60
0
100
AcDbSpline
70
4
71
3
72
14
73
10
40
0
40
0
40
0
40
0
40
0.25
40
0.25
40
0.5
40
0.5
40
0.75
40
0.75
40
1
40
1
40
1
40
1
41
1
10
107.721342558371
20
3.20986775644735
30
0
41
1
10
107.692026105774
20
3.18072373910454
30
0
41
1
10
107.662734009366
20
3.15440408970193
30
0
41
1
10
107.605270854369
20
3.10693227213042
30
0
41
1
10
107.577059688716
20
3.08576487426541
30
0
41
1
10
107.523881907621
20
3.04902744317005
30
0
41
1
10
107.499260160026
20
3.03373020371288
30
0
41
1
10
107.460660998799
20
3.01204750708155
30
0
41
1
10
107.447303096285
20
3.0059437622381
30
0
41
1
10
107.443125391489
20
3.0059437622381
30
0
0
SPLINE
5
1D1
100
AcDbEntity
8
1
62
256
6
ByLayer
370
-1
48
1
60
0
100
AcDbSpline
70
4
71
1
72
4
73
2
40
0
40
0
40
1
40
1
41
1
10
17.0120461348474
20
1.59696174921476
30
0
41
1
10
17.0120461348474
20
3.45521500749874
30
0
0
SPLINE
5
1D2
100
AcDbEntity
8
1
62
256
6
ByLayer
370
-1
48
1
60
0
100
AcDbSpline
70
4
71
3
72
16
73
12
40
0
40
0
40
0
40
0
40
0.250000000000001
40
0.250000000000001
40
0.500000000000001
40
0.500000000000001
40
0.750000000000002
40
0.750000000000002
40
0.875000000000002
40
0.875000000000002
40
1
40
1
40
1
40
1
41
1
10
13.7182686157871
20
-7.28860886170375
30
0
41
1
10
13.8749998511753
20
-7.38119738146497
30
0
41
1
10
14.0412349325794
20
-7.46542321105667
30
0
41
1
10
14.3826861959894
20
-7.61219911792881
30
0
41
1
10
14.558487363731
20
-7.67527204015309
30
0
41
1
10
14.9203305515685
20
-7.7815145483992
30
0
41
1
10
15.1063704361693
20
-7.82468473365373
30
0
41
1
10
15.39346218199
20
-7.8742355826185
30
0
41
1
10
15.4908033019205
20
-7.88823839738478
30
0
41
1
10
15.6863837872525
20
-7.91080776203228
30
0
41
1
10
15.7846514457657
20
-7.91940049343407
30
0
41
1
10
15.8833935838608
20
-7.92532787776003
30
0
0
SPLINE
5
1D3
100
AcDbEntity
8
1
62
256
6
ByLayer
370
-1
48
1
60
0
100
AcDbSpline
70
4
71
3
72
8
73
4
40
0
40
0
40
0
40
0
40
1
40
1
40
1
40
1
41
1
10
101.761282129234
20
5.02999999999989
30
0
41
1
10
101.683396021796
20
5.30473456326456
30
0
41
1
10
101.631699177057
20
5.58763755802747
30
0
41
1
10
101.631699177057
20
5.88447404736328
30
0
0
SPLINE
5
1D4
100
AcDbEntity
8
1
62
256
6
ByLayer
370
-1
48
1
60
0
100
AcDbSpline
70
4
71
3
72
56
73
52
40
0
40
0
40
0
40
0
40
0.0624999999999986
40
0.0624999999999986
40
0.124999999999997
40
0.124999999999997
40
0.187499999999996
40
0.187499999999996
40
0.203124999999996
40
0.203124999999996
40
0.218749999999996
40
0.218749999999996
40
0.249999999999996
40
0.249999999999996
40
0.312499999999996
40
0.312499999999996
40
0.343749999999996
40
0.343749999999996
40
0.374999999999997
40
0.374999999999997
40
0.437499999999998
40
0.437499999999998
40
0.468749999999998
40
0.468749999999998
40
0.499999999999998
40
0.499999999999998
40
0.531249999999999
40
0.531249999999999
40
0.546874999999999
40
0.546874999999999
40
0.562499999999999
40
0.562499999999999
40
0.624999999999999
40
0.624999999999999
40
0.687499999999999
40
0.687499999999999
40
0.718749999999999
40
0.718749999999999
40
0.749999999999999
40
0.749999999999999
40
0.781249999999999
40
0.781249999999999
40
0.812499999999999
40
0.812499999999999
40
0.875
40
0.875
40
0.90625
40
0.90625
40
0.9375
40
0.9375
40
1
40
1
40
1
40
1
41
1
10
11.4120461348475
20
5.09105340883036
30
0
41
1
10
11.1811875055296
20
5.18772447224183
30
0
41
1
10
10.9613465375036
20
5.2735984736949
30
0
41
1
10
10.5424252703914
20
5.43161660675719
30
0
41
1
10
10.3433359907826
20
5.50370187061273
30
0
41
1
10
9.96529804838997
20
5.63991054519354
30
0
41
1
10
9.78564860552598
20
5.70426433216343
30
0
41
1
10
9.57686582024564
20
5.78185832227476
30
0
41
1
10
9.53603420874995
20
5.79734639535855
30
0
41
1
10
9.45415115646759
20
5.82705915091026
30
0
41
1
10
9.41328969883872
20
5.84139144444694
30
0
41
1
10
9.2909339881241
20
5.88279103252506
30
0
41
1
10
9.20962383354836
20
5.90824025291855
30
0
41
1
10
8.96548743224872
20
5.97716299916624
30
0
41
1
10
8.80245192112878
20
6.01334158315927
30
0
41
1
10
8.55379215622546
20
6.04715146170741
30
0
41
1
10
8.47022314098223
20
6.05498335655423
30
0
41
1
10
8.3011020335706
20
6.06232962844274
30
0
41
1
10
8.21534341283763
20
6.06181234601112
30
0
41
1
10
7.95727716902968
20
6.04525285687922
30
0
41
1
10
7.78337400147234
20
6.01452772556863
30
0
41
1
10
7.51918371109559
20
5.92714948910523
30
0
41
1
10
7.43006078491544
20
5.89079445920643
30
0
41
1
10
7.25434318612722
20
5.80330307348282
30
0
41
1
10
7.16764783464728
20
5.75222622309337
30
0
41
1
10
6.99734688768498
20
5.63421626516703
30
0
41
1
10
6.91373993993435
20
5.56728591197964
30
0
41
1
10
6.79141536808763
20
5.45401934255989
30
0
41
1
10
6.7510101347149
20
5.41395077326504
30
0
41
1
10
6.67242405240427
20
5.3304788775693
30
0
41
1
10
6.63417940200583
20
5.28703933190766
30
0
41
1
10
6.44833837455352
20
5.06154646245156
30
0
41
1
10
6.31673934318044
20
4.85464006363344
30
0
41
1
10
6.09292846636822
20
4.39204231704252
30
0
41
1
10
6.00483998974215
20
4.1452130751745
30
0
41
1
10
5.90658015353958
20
3.75570151314432
30
0
41
1
10
5.87944431430697
20
3.62198696844177
30
0
41
1
10
5.83724242880254
20
3.35281990220994
30
0
41
1
10
5.82204326128613
20
3.2170843179909
30
0
41
1
10
5.80284330666174
20
2.94349317804844
30
0
41
1
10
5.79884546206691
20
2.80563672405944
30
0
41
1
10
5.80172477556806
20
2.52785773006164
30
0
41
1
10
5.80867661151558
20
2.38733467110424
30
0
41
1
10
5.84501081232864
20
1.96867954860519
30
0
41
1
10
5.8896035772328
20
1.69268761055127
30
0
41
1
10
5.98300367769014
20
1.28253848614887
30
0
41
1
10
6.01857375914764
20
1.14646336016872
30
0
41
1
10
6.09804487988274
20
0.875462672797283
30
0
41
1
10
6.14176801873245
20
0.741238746378542
30
0
41
1
10
6.28200555623809
20
0.346348645764209
30
0
41
1
10
6.3880714660628
20
0.0916480957463648
30
0
41
1
10
6.50300321820663
20
-0.155791842434894
30
0
0
SPLINE
5
1D5
100
AcDbEntity
8
1
62
256
6
ByLayer
370
-1
48
1
60
0
100
AcDbSpline
70
4
71
3
72
12
73
8
40
0
40
0
40
0
40
0
40
0.408353488145803
40
0.408353488145803
40
0.704176744072902
40
0.704176744072902
40
1
40
1
40
1
40
1
41
1
10
110.975915951258
20
0.503567005352977
30
0
41
1
10
110.998499479444
20
0.496843285676107
30
0
41
1
10
111.022258315907
20
0.488033651278158
30
0
41
1
10
111.065539680352
20
0.467192211199318
30
0
41
1
10
111.084271395479
20
0.456782358374483
30
0
41
1
10
111.123601048262
20
0.430111470760465
30
0
41
1
10
111.143821854551
20
0.413996886625483
30
0
41
1
10
111.163270249035
20
0.39468291423853
30
0
0
SPLINE
5
1D6
100
AcDbEntity
8
1
62
256
6
ByLayer
370
-1
48
1
60
0
100
AcDbSpline
70
4
71
3
72
10
73
6
40
0
40
0
40
0
40
0
40
0.5
40
0.5
40
1
40
1
40
1
40
1
41
1
10
111.457422757584
20
-0.783661653462019
30
0
41
1
10
111.456127391744
20
-0.759020795235386
30
0
41
1
10
111.455361326259
20
-0.735487657709939
30
0
41
1
10
111.454691255161
20
-0.69022550305894
30
0
41
1
10
111.454797061025
20
-0.668546783230425
30
0
41
1
10
111.455212945081
20
-0.64845126631397
30
0
0
SPLINE
5
1D7
100
AcDbEntity
8
1
62
256
6
ByLayer
370
-1
48
1
60
0
100
AcDbSpline
70
4
71
3
72
14
73
10
40
0
40
0
40
0
40
0
40
0.25
40
0.25
40
0.5
40
0.5
40
0.75
40
0.75
40
1
40
1
40
1
40
1
41
1
10
111.431171038291
20
-0.506454756831118
30
0
41
1
10
111.41600389147
20
-0.464837008120156
30
0
41
1
10
111.402548095554
20
-0.424225535578273
30
0
41
1
10
111.380570898972
20
-0.352438700037396
30
0
41
1
10
111.371647867856
20
-0.320248868977785
30
0
41
1
10
111.3565500506
20
-0.262102487843293
30
0
41
1
10
111.350221907815
20
-0.235542313562263
30
0
41
1
10
111.339078849081
20
-0.185858945064751
30
0
41
1
10
111.334292725384
20
-0.162845712405698
30
0
41
1
10
111.329982920657
20
-0.140941366796568
30
0
0
SPLINE
5
1D8
100
AcDbEntity
8
1
62
256
6
ByLayer
370
-1
48
1
60
0
100
AcDbSpline
70
4
71
3
72
16
73
12
40
0
40
0
40
0
40
0
40
0.250000000000001
40
0.250000000000001
40
0.500000000000001
40
0.500000000000001
40
0.750000000000002
40
0.750000000000002
40
0.875000000000001
40
0.875000000000001
40
1
40
1
40
1
40
1
41
1
10
111.854373509002
20
-4.33635562003729
30
0
41
1
10
111.847266707729
20
-4.29549579910318
30
0
41
1
10
111.840293264469
20
-4.25340199153479
30
0
41
1
10
111.826804512774
20
-4.16497516918398
30
0
41
1
10
111.820260855782
20
-4.11861877367059
30
0
41
1
10
111.808172062751
20
-4.01803030732404
30
0
41
1
10
111.802534953431
20
-3.96381124001692
30
0
41
1
10
111.796402555455
20
-3.87074436301759
30
0
41
1
10
111.794733408249
20
-3.83711832365194
30
0
41
1
10
111.793083757834
20
-3.76489194841639
30
0
41
1
10
111.79317039192
20
-3.725696094499
30
0
41
1
10
111.794514610796
20
-3.68732136460014
30
0
0
SPLINE
5
1D9
100
AcDbEntity
8
1
62
256
6
ByLayer
370
-1
48
1
60
0
100
AcDbSpline
70
4
71
3
72
8
73
4
40
0
40
0
40
0
40
0
40
1
40
1
40
1
40
1
41
1
10
111.808392598347
20
-3.29113289141961
30
0
41
1
10
111.808759922375
20
-3.28064653341687
30
0
41
1
10
111.809215729604
20
-3.2702129249412
30
0
41
1
10
111.809760062704
20
-3.25983209143121
30
0
0
SPLINE
5
1DA
100
AcDbEntity
8
1
62
256
6
ByLayer
370
-1
48
1
60
0
100
AcDbSpline
70
4
71
3
72
8
73
4
40
0
40
0
40
0
40
0
40
1
40
1
40
1
40
1
41
1
10
111.431171038288
20
-0.506454756830863
30
0
41
1
10
111.449238235704
20
-0.556030071874972
30
0
41
1
10
111.456108336401
20
-0.605185959142574
30
0
41
1
10
111.455212945081
20
-0.64845126631451
30
0
0
SPLINE
5
1DB
100
AcDbEntity
8
1
62
256
6
ByLayer
370
-1
48
1
60
0
100
AcDbSpline
70
4
71
3
72
12
73
8
40
0
40
0
40
0
40
0
40
0.249999999999975
40
0.249999999999975
40
0.499999999999949
40
0.499999999999949
40
1
40
1
40
1
40
1
41
1
10
111.7608681154
20
-4.75653566303657
30
0
41
1
10
111.744188401349
20
-4.7739281131833
30
0
41
1
10
111.72494384397
20
-4.78886640278182
30
0
41
1
10
111.687727414191
20
-4.81114911861985
30
0
41
1
10
111.670122773791
20
-4.81871736927997
30
0
41
1
10
111.620291447313
20
-4.83573872685957
30
0
41
1
10
111.591737747885
20
-4.8396544561038
30
0
41
1
10
111.564760177369
20
-4.8412423527077
30
0
0
SPLINE
5
1DC
100
AcDbEntity
8
1
62
256
6
ByLayer
370
-1
48
1
60
0
100
AcDbSpline
70
4
71
3
72
16
73
12
40
0
40
0
40
0
40
0
40
0.25
40
0.25
40
0.5
40
0.5
40
0.75
40
0.75
40
0.875
40
0.875
40
1
40
1
40
1
40
1
41
1
10
111.854373509002
20
-4.33635562003388
30
0
41
1
10
111.859377258797
20
-4.36512416339494
30
0
41
1
10
111.862991867215
20
-4.39485245471954
30
0
41
1
10
111.866143423952
20
-4.45700854862866
30
0
41
1
10
111.865753343965
20
-4.48939287831712
30
0
41
1
10
111.857933869739
20
-4.55863672054991
30
0
41
1
10
111.850661667157
20
-4.5954683776267
30
0
41
1
10
111.828729983715
20
-4.65424974094301
30
0
41
1
10
111.819634009162
20
-4.67426563056873
30
0
41
1
10
111.795134542483
20
-4.71572098777244
30
0
41
1
10
111.779843160628
20
-4.73674980057172
30
0
41
1
10
111.7608681154
20
-4.75653566303657
30
0
0
SPLINE
5
1DD
100
AcDbEntity
8
1
62
256
6
ByLayer
370
-1
48
1
60
0
100
AcDbSpline
70
4
71
3
72
12
73
8
40
0
40
0
40
0
40
0
40
0.249999999999995
40
0.249999999999995
40
0.499999999999989
40
0.499999999999989
40
1
40
1
40
1
40
1
41
1
10
111.732404472027
20
-2.88636355560777
30
0
41
1
10
111.746538435205
20
-2.9152259451316
30
0
41
1
10
111.758889127768
20
-2.94492796014652
30
0
41
1
10
111.779909989627
20
-3.00606326733887
30
0
41
1
10
111.788598317483
20
-3.03770530508544
30
0
41
1
10
111.808199469959
20
-3.13238117801694
30
0
41
1
10
111.813098862107
20
-3.1961587254726
30
0
41
1
10
111.809760062704
20
-3.25983209143118
30
0
0
SPLINE
5
1DE
100
AcDbEntity
8
1
62
256
6
ByLayer
370
-1
48
1
60
0
100
AcDbSpline
70
4
71
3
72
8
73
4
40
0
40
0
40
0
40
0
40
1
40
1
40
1
40
1
41
1
10
111.732404472027
20
-2.88636355560777
30
0
41
1
10
111.729065092641
20
-2.87954434521404
30
0
41
1
10
111.725812087114
20
-2.8727062664158
30
0
41
1
10
111.722680063867
20
-2.86592563161139
30
0
0
SPLINE
5
1DF
100
AcDbEntity
8
1
62
256
6
ByLayer
370
-1
48
1
60
0
100
AcDbSpline
70
4
71
3
72
12
73
8
40
0
40
0
40
0
40
0
40
0.25000000000001
40
0.25000000000001
40
0.500000000000021
40
0.500000000000021
40
1
40
1
40
1
40
1
41
1
10
111.163270249035
20
0.39468291423853
30
0
41
1
10
111.180366053278
20
0.3777052716176
30
0
41
1
10
111.195653234405
20
0.358821805036342
30
0
41
1
10
111.219500908543
20
0.323211544970007
30
0
41
1
10
111.228209989055
20
0.306775156464767
30
0
41
1
10
111.249053677196
20
0.260855519762117
30
0
41
1
10
111.255946332897
20
0.23534552055952
30
0
41
1
10
111.260631413762
20
0.211533854610707
30
0
0
SPLINE
5
1E0
100
AcDbEntity
8
1
62
256
6
ByLayer
370
-1
48
1
60
0
100
AcDbSpline
70
4
71
3
72
19
73
15
40
0
40
0
40
0
40
0
40
0.0403657336153438
40
0.106300330648413
40
0.172234927681482
40
0.238169524714552
40
0.37003871878069
40
0.501907912846829
40
0.765646300979106
40
0.831580898012175
40
0.897515495045244
40
0.930482793561779
40
0.963450092078314
40
1
40
1
40
1
40
1
41
1
10
111.190743756275
20
3.36922505150142
30
0
41
1
10
111.191865741188
20
3.36926590297793
30
0
41
1
10
111.194820072386
20
3.36937633770211
30
0
41
1
10
111.199605415422
20
3.36957630943769
30
0
41
1
10
111.205100654699
20
3.36984901897972
30
0
41
1
10
111.21242609033
20
3.37026610460748
30
0
41
1
10
111.221578332803
20
3.3708803567383
30
0
41
1
10
111.236208102502
20
3.37206482792493
30
0
41
1
10
111.248985623848
20
3.3733705118596
30
0
41
1
10
111.259914461463
20
3.37467387283598
30
0
41
1
10
111.264463309088
20
3.3752501556865
30
0
41
1
10
111.268098917885
20
3.37573262056756
30
0
41
1
10
111.270923113563
20
3.37611682611811
30
0
41
1
10
111.272838270373
20
3.37638272603138
30
0
41
1
10
111.273845146564
20
3.37652340527461
30
0
0
SPLINE
5
1E1
100
AcDbEntity
8
1
62
256
6
ByLayer
370
-1
48
1
60
0
100
AcDbSpline
70
4
71
3
72
22
73
18
40
0
40
0
40
0
40
0
40
0.0023505275440115
40
0.0123487527331296
40
0.0223469779222477
40
0.0623398786787201
40
0.102332779435183
40
0.182318580948137
40
0.262304382461078
40
0.342290183974027
40
0.662233390025806
40
0.812206767862578
40
0.957493477641936
40
0.962180145699349
40
0.972178370888463
40
0.982176596077585
40
1
40
1
40
1
40
1
41
1
10
111.794839631458
20
3.80996504715887
30
0
41
1
10
111.794846979697
20
3.81006918569298
30
0
41
1
10
111.79488558752
20
3.81061749512875
30
0
41
1
10
111.794955668265
20
3.81162185212125
30
0
41
1
10
111.795144519078
20
3.8143468373637
30
0
41
1
10
111.795429727192
20
3.81845326121263
30
0
41
1
10
111.795940667538
20
3.82579185362044
30
0
41
1
10
111.796583678397
20
3.83500761141178
30
0
41
1
10
111.797352679288
20
3.84604090365451
30
0
41
1
10
111.79888806893
20
3.86808187103307
30
0
41
1
10
111.800647369562
20
3.89333714615435
30
0
41
1
10
111.802615587143
20
3.92159148519627
30
0
41
1
10
111.803575409955
20
3.93536711893208
30
0
41
1
10
111.804087424407
20
3.94271413912409
30
0
41
1
10
111.804166428309
20
3.94384776161868
30
0
41
1
10
111.804287170302
20
3.94558467141462
30
0
41
1
10
111.804375356299
20
3.94686231331104
30
0
41
1
10
111.80443128495
20
3.94768080439346
30
0
0
SPLINE
5
1E2
100
AcDbEntity
8
1
62
256
6
ByLayer
370
-1
48
1
60
0
100
AcDbSpline
70
4
71
3
72
14
73
10
40
0
40
0
40
0
40
0
40
0.0050966481374703
40
0.0240065217780208
40
0.0435263913424604
40
0.0630462609069
40
0.375364173937933
40
0.687682086968967
40
1
40
1
40
1
40
1
41
1
10
111.804631317878
20
4.06755791275666
30
0
41
1
10
111.804497575115
20
4.07140154841122
30
0
41
1
10
111.803867643311
20
4.08950605504126
30
0
41
1
10
111.802725717883
20
4.1223314313068
30
0
41
1
10
111.801205395744
20
4.16603406285813
30
0
41
1
10
111.791987442564
20
4.43101001836934
30
0
41
1
10
111.775087861735
20
4.91679927013993
30
0
41
1
10
111.750506653256
20
5.62340181816987
30
0
41
1
10
111.734119180937
20
6.09447018352316
30
0
41
1
10
111.725925444777
20
6.3300043661998
30
0
0
SPLINE
5
1E3
100
AcDbEntity
8
1
62
256
6
ByLayer
370
-1
48
1
60
0
100
AcDbSpline
70
4
71
3
72
153
73
149
40
0
40
0
40
0
40
0
40
0.125
40
0.25
40
0.375
40
0.3828125
40
0.390625
40
0.398193359375
40
0.4019775390625
40
0.405643463134766
40
0.40576171875
40
0.406005859375
40
0.40625
40
0.4072265625
40
0.40771484375
40
0.408203125
40
0.4091796875
40
0.41015625
40
0.412109375
40
0.4140625
40
0.416015625
40
0.4169921875
40
0.41796875
40
0.4189453125
40
0.41943359375
40
0.419921875
40
0.42041015625
40
0.4208984375
40
0.421875
40
0.422119140625
40
0.42236328125
40
0.422477722167969
40
0.426025390625
40
0.4296875
40
0.4375
40
0.439453125
40
0.44140625
40
0.443359375
40
0.4443359375
40
0.4453125
40
0.445556640625
40
0.44580078125
40
0.446044921875
40
0.4462890625
40
0.4464111328125
40
0.44677734375
40
0.447265625
40
0.44921875
40
0.453125
40
0.4609375
40
0.46484375
40
0.46875
40
0.46923828125
40
0.4697265625
40
0.47021484375
40
0.4705810546875
40
0.470703125
40
0.4708251953125
40
0.47119140625
40
0.471435546875
40
0.4716796875
40
0.4718017578125
40
0.47216796875
40
0.472412109375
40
0.47265625
40
0.4727783203125
40
0.474609375
40
0.4755859375
40
0.4765625
40
0.48046875
40
0.482421875
40
0.484375
40
0.486328125
40
0.48828125
40
0.490234375
40
0.4921875
40
0.494140625
40
0.49609375
40
0.498046875
40
0.5
40
0.501953125
40
0.50390625
40
0.505859375
40
0.5078125
40
0.509765625
40
0.51171875
40
0.515625
40
0.51953125
40
0.5224609375
40
0.5234375
40
0.525390625
40
0.5263671875
40
0.527099609375
40
0.52734375
40
0.52783203125
40
0.528076171875
40
0.5283203125
40
0.5284423828125
40
0.52880859375
40
0.529052734375
40
0.529296875
40
0.5294189453125
40
0.52978515625
40
0.5302734375
40
0.53125
40
0.5390625
40
0.546875
40
0.55078125
40
0.5517578125
40
0.552734375
40
0.55322265625
40
0.5537109375
40
0.553955078125
40
0.55419921875
40
0.554443359375
40
0.5545654296875
40
0.5546875
40
0.556640625
40
0.55859375
40
0.5625
40
0.56640625
40
0.5703125
40
0.573974609375
40
0.5758056640625
40
0.57763671875
40
0.577880859375
40
0.578125
40
0.5791015625
40
0.57958984375
40
0.580078125
40
0.5810546875
40
0.58203125
40
0.5859375
40
0.587890625
40
0.58984375
40
0.5908203125
40
0.591796875
40
0.5927734375
40
0.59375
40
0.593994140625
40
0.59423828125
40
0.594380187988281
40
0.601806640625
40
0.609375
40
0.625
40
0.75
40
0.875
40
1
40
1
40
1
40
1
41
1
10
106.66855575116
20
6.1533175716699
30
0
41
1
10
106.662499644369
20
6.32740423195284
30
0
41
1
10
106.650387430787
20
6.67557755251869
30
0
41
1
10
106.632219110413
20
7.19783753336745
30
0
41
1
10
106.619728390156
20
7.55689127020099
30
0
41
1
10
106.612915270016
20
7.75273876301927
30
0
41
1
10
106.611791578326
20
7.78503999881397
30
0
41
1
10
106.61086305414
20
7.81173101997061
30
0
41
1
10
106.610135426808
20
7.83264713268832
30
0
41
1
10
106.609768748467
20
7.84318753594764
30
0
41
1
10
106.609573580963
20
7.84879775058567
30
0
41
1
10
106.609544194946
20
7.84964247040333
30
0
41
1
10
106.609473224945
20
7.85168254845351
30
0
41
1
10
106.60939042661
20
7.85406263951208
30
0
41
1
10
106.609295799941
20
7.856782743579
30
0
41
1
10
106.609201173273
20
7.8595028476459
30
0
41
1
10
106.609082889937
20
7.86290297772956
30
0
41
1
10
106.6088936366
20
7.86834318586341
30
0
41
1
10
106.608657069928
20
7.87514344603071
30
0
41
1
10
106.608373189922
20
7.88330375823148
30
0
41
1
10
106.608136623251
20
7.89010401839877
30
0
41
1
10
106.607947369914
20
7.89554422653262
30
0
41
1
10
106.607805429911
20
7.89962438263299
30
0
41
1
10
106.607687146575
20
7.90302451271666
30
0
41
1
10
106.607592519906
20
7.90574461678355
30
0
41
1
10
106.607521549905
20
7.90778469483377
30
0
41
1
10
106.607450579903
20
7.90982477288395
30
0
41
1
10
106.607355953235
20
7.91254487695088
30
0
41
1
10
106.6072731549
20
7.91492496800942
30
0
41
1
10
106.607202184898
20
7.9169650460596
30
0
41
1
10
106.6071729837
20
7.917804453174
30
0
41
1
10
106.606983730363
20
7.92324466130785
30
0
41
1
10
106.606628880355
20
7.93344505155881
30
0
41
1
10
106.605901068205
20
7.95436647697977
30
0
41
1
10
106.605250509858
20
7.97306719243986
30
0
41
1
10
106.604682749846
20
7.98938781684137
30
0
41
1
10
106.604398856088
20
7.99754832728888
30
0
41
1
10
106.604162255036
20
8.00434908307309
30
0
41
1
10
106.603972953565
20
8.00978998507057
30
0
41
1
10
106.603866462463
20
8.0128506225436
30
0
41
1
10
106.603795464098
20
8.0148911094777
30
0
41
1
10
106.603759964028
20
8.01591136572239
30
0
41
1
10
106.603724463046
20
8.0169316351319
30
0
41
1
10
106.60369487811
20
8.01778187093319
30
0
41
1
10
106.603659375463
20
8.01880216434913
30
0
41
1
10
106.603612037292
20
8.02016257441417
30
0
41
1
10
106.603475933203
20
8.02407385205507
30
0
41
1
10
106.603168173055
20
8.03291741178234
30
0
41
1
10
106.602505016243
20
8.05196924206911
30
0
41
1
10
106.601746242594
20
8.0737554501892
30
0
41
1
10
106.600989755609
20
8.09550869492716
30
0
41
1
10
106.600589242549
20
8.10704534760089
30
0
41
1
10
106.600354285711
20
8.11382240123621
30
0
41
1
10
106.60028365608
20
8.1158575726792
30
0
41
1
10
106.600218611801
20
8.11772747764286
30
0
41
1
10
106.600170637686
20
8.1190970551576
30
0
41
1
10
106.600140286836
20
8.11995833198668
30
0
41
1
10
106.600109731134
20
8.12082256186639
30
0
41
1
10
106.600072986316
20
8.12186144429546
30
0
41
1
10
106.600031813465
20
8.12305300510923
30
0
41
1
10
106.600004062941
20
8.12388362233693
30
0
41
1
10
106.599972875608
20
8.1248539940126
30
0
41
1
10
106.5999448999
20
8.12579413256273
30
0
41
1
10
106.599918668483
20
8.12686842012462
30
0
41
1
10
106.599904249338
20
8.1276310971862
30
0
41
1
10
106.599865770414
20
8.13038628729663
30
0
41
1
10
106.599910137278
20
8.1341263333463
30
0
41
1
10
106.600149817236
20
8.13903965621211
30
0
41
1
10
106.600720093561
20
8.14671263462543
30
0
41
1
10
106.601974224307
20
8.15578611665777
30
0
41
1
10
106.604271069794
20
8.1662151715868
30
0
41
1
10
106.606439491659
20
8.17403976690682
30
0
41
1
10
106.609067712421
20
8.18184028988449
30
0
41
1
10
106.612155303703
20
8.18957205400733
30
0
41
1
10
106.615701837126
20
8.19719037276298
30
0
41
1
10
106.61970036981
20
8.20465574598234
30
0
41
1
10
106.624143958877
20
8.2119286734964
30
0
41
1
10
106.629016025593
20
8.21897050510574
30
0
41
1
10
106.634299991229
20
8.22574259061096
30
0
41
1
10
106.639970650636
20
8.23221061244442
30
0
41
1
10
106.646002798669
20
8.2383402530385
30
0
41
1
10
106.652364089849
20
8.2441038787274
30
0
41
1
10
106.659022178695
20
8.24947385584522
30
0
41
1
10
106.665939812351
20
8.25443088677011
30
0
41
1
10
106.673079737958
20
8.25895567388017
30
0
41
1
10
106.682844335109
20
8.26439945451921
30
0
41
1
10
106.695411962957
20
8.27007503170111
30
0
41
1
10
106.709441673259
20
8.2746360769361
30
0
41
1
10
106.719646553984
20
8.27693950617592
30
0
41
1
10
106.727259308611
20
8.27825087097534
30
0
41
1
10
106.732307103819
20
8.27892004950948
30
0
41
1
10
106.736969537828
20
8.27935718152003
30
0
41
1
10
106.739427553553
20
8.2795314531856
30
0
41
1
10
106.741256590939
20
8.27963703016627
30
0
41
1
10
106.742468343572
20
8.27969486831293
30
0
41
1
10
106.743711429502
20
8.27974606414764
30
0
41
1
10
106.744509526025
20
8.27977652395504
30
0
41
1
10
106.745493593935
20
8.2798127989301
30
0
41
1
10
106.746507521261
20
8.27984875072102
30
0
41
1
10
106.747710895914
20
8.2798904238667
30
0
41
1
10
106.748573345855
20
8.27992011222193
30
0
41
1
10
106.749602977698
20
8.27995573669992
30
0
41
1
10
106.750967366535
20
8.28000323353805
30
0
41
1
10
106.753507533365
20
8.28009228484106
30
0
41
1
10
106.766332888129
20
8.28054346503507
30
0
41
1
10
106.789346081678
20
8.28135085836666
30
0
41
1
10
106.816475289472
20
8.28230074887708
30
0
41
1
10
106.834098980066
20
8.28291817470608
30
0
41
1
10
106.84223150633
20
8.28320314004023
30
0
41
1
10
106.845619832099
20
8.28332187552996
30
0
41
1
10
106.848330368982
20
8.28341686388566
30
0
41
1
10
106.850024405557
20
8.28347623159368
30
0
41
1
10
106.851379606978
20
8.28352372575196
30
0
41
1
10
106.85239599451
20
8.28355934636673
30
0
41
1
10
106.853242973164
20
8.28358903020919
30
0
41
1
10
106.853920549708
20
8.28361277728129
30
0
41
1
10
106.856969625306
20
8.28371963910024
30
0
41
1
10
106.862559308012
20
8.28391555235061
30
0
41
1
10
106.873399112893
20
8.28429550509006
30
0
41
1
10
106.886947879142
20
8.28477044572563
30
0
41
1
10
106.90320639864
20
8.28534037448833
30
0
41
1
10
106.919126198982
20
8.28589842973511
30
0
41
1
10
106.932166886497
20
8.28635556009684
30
0
41
1
10
106.942328461183
20
8.28671176557353
30
0
41
1
10
106.947747967683
20
8.28690174182776
30
0
41
1
10
106.950965799667
20
8.28701454022871
30
0
41
1
10
106.952998114604
20
8.28708578132404
30
0
41
1
10
106.955369148698
20
8.28716889593528
30
0
41
1
10
106.958078901947
20
8.28726388406238
30
0
41
1
10
106.960788655197
20
8.28735887218949
30
0
41
1
10
106.964175846759
20
8.28747760734839
30
0
41
1
10
106.972305106508
20
8.28776257172973
30
0
41
1
10
106.981789242882
20
8.28809503017465
30
0
41
1
10
106.992628255881
20
8.28847498268308
30
0
41
1
10
106.999402639006
20
8.28871245300087
30
0
41
1
10
107.004822145505
20
8.2889024292551
30
0
41
1
10
107.00888677538
20
8.28904491144579
30
0
41
1
10
107.012951405254
20
8.28918739363644
30
0
41
1
10
107.01599987766
20
8.28929425527946
30
0
41
1
10
107.018032192597
20
8.28936549637478
30
0
41
1
10
107.01890651142
20
8.28939614488769
30
0
41
1
10
107.029745524418
20
8.28977609739613
30
0
41
1
10
107.050746112104
20
8.29051225538129
30
0
41
1
10
107.093227845277
20
8.29200141690222
30
0
41
1
10
107.2988303731
20
8.29920864104704
30
0
41
1
10
107.667356815063
20
8.31212702633459
30
0
41
1
10
108.18762943901
20
8.3303647467406
30
0
41
1
10
108.534477854974
20
8.34252322701124
30
0
41
1
10
108.707902062957
20
8.34860246714658
30
0
0
SPLINE
5
1E4
100
AcDbEntity
8
1
62
256
6
ByLayer
370
-1
48
1
60
0
100
AcDbSpline
70
4
71
3
72
8
73
4
40
0
40
0
40
0
40
0
40
1
40
1
40
1
40
1
41
1
10
106.647054725331
20
3.2099482959762
30
0
41
1
10
106.635049859348
20
3.20952747546934
30
0
41
1
10
106.623044230559
20
3.20912858231509
30
0
41
1
10
106.611037918463
20
3.20875161915478
30
0
0
SPLINE
5
1E5
100
AcDbEntity
8
1
62
256
6
ByLayer
370
-1
48
1
60
0
100
AcDbSpline
70
4
71
3
72
13
73
9
40
0
40
0
40
0
40
0
40
0.312317913031033
40
0.624635826062065
40
0.936953739093098
40
0.975993478221977
40
0.994903351862528
40
1
40
1
40
1
40
1
41
1
10
108.90089189203
20
3.28895466724177
30
0
41
1
10
109.135529796032
20
3.29717970214244
30
0
41
1
10
109.604805604036
20
3.31362977194379
30
0
41
1
10
110.308719316041
20
3.33830487664582
30
0
41
1
10
110.807324862045
20
3.35578307580977
30
0
41
1
10
111.085499095891
20
3.36553424023302
30
0
41
1
10
111.13286443069
20
3.36719459231236
30
0
41
1
10
111.150900052179
20
3.36782670115687
30
0
41
1
10
111.154729063789
20
3.36796089302243
30
0
0
SPLINE
5
1E6
100
AcDbEntity
8
1
62
256
6
ByLayer
370
-1
48
1
60
0
100
AcDbSpline
70
4
71
3
72
22
73
18
40
0
40
0
40
0
40
0
40
0.002350527544068
40
0.0123487527331845
40
0.0223469779223011
40
0.0623398786787672
40
0.102332779435224
40
0.182318580948166
40
0.262304382461093
40
0.34229018397403
40
0.662233390025759
40
0.812206767862507
40
0.957493477641843
40
0.962180145699255
40
0.972178370888367
40
0.982176596077488
40
1
40
1
40
1
40
1
41
1
10
111.206897666653
20
9.23500651585073
30
0
41
1
10
111.206793924397
20
9.2350138921598
30
0
41
1
10
111.206247701444
20
9.23505264745774
30
0
41
1
10
111.205247166333
20
9.23512299590024
30
0
41
1
10
111.202532550483
20
9.2353125680925
30
0
41
1
10
111.198441752816
20
9.23559886565556
30
0
41
1
10
111.191131085968
20
9.23611175771057
30
0
41
1
10
111.181950396917
20
9.23675722476665
30
0
41
1
10
111.170959089683
20
9.23752916311608
30
0
41
1
10
111.149001994839
20
9.23907041769701
30
0
41
1
10
111.123842823665
20
9.24083643857099
30
0
41
1
10
111.095696000913
20
9.24281217442376
30
0
41
1
10
111.081972787623
20
9.24377566360272
30
0
41
1
10
111.07465372506
20
9.2442896338666
30
0
41
1
10
111.073524416342
20
9.24436893955075
30
0
41
1
10
111.071794116012
20
9.24449014275905
30
0
41
1
10
111.070521335929
20
9.24457866561212
30
0
41
1
10
111.069705959452
20
9.24463480790135
30
0
0
SPLINE
5
1E7
100
AcDbEntity
8
1
62
256
6
ByLayer
370
-1
48
1
60
0
100
AcDbSpline
70
4
71
3
72
79
73
75
40
0
40
0
40
0
40
0
40
0.0017245864916215
40
0.003979226371749
40
0.0084885061320039
40
0.0129977858922589
40
0.0220163454127688
40
0.0310349049332787
40
0.0671091430153184
40
0.139257619179398
40
0.211406095343477
40
0.220424654863987
40
0.224933934624242
40
0.228315894444433
40
0.229443214384497
40
0.231697854264624
40
0.233952494144752
40
0.237334453964943
40
0.238461773905007
40
0.240716413785134
40
0.242971053665262
40
0.247480333425517
40
0.249734973305644
40
0.256498892946027
40
0.265517452466537
40
0.283554571507556
40
0.292573131028066
40
0.319628809589596
40
0.355703047671636
40
0.391777285753676
40
0.409814404794695
40
0.427851523835715
40
0.445888642876735
40
0.463925761917755
40
0.481962880958775
40
0.499999999999795
40
0.518037119040815
40
0.536074238081835
40
0.554111357122854
40
0.572148476163875
40
0.590185595204892
40
0.608222714245914
40
0.626259833286933
40
0.644296952327954
40
0.662334071368974
40
0.680371190409995
40
0.716445428492033
40
0.725463988012541
40
0.734482547533053
40
0.751392346634008
40
0.752519666574073
40
0.754774306454201
40
0.757028946334328
40
0.760410906154521
40
0.761538226094583
40
0.763792865974713
40
0.766047505854836
40
0.769429465675031
40
0.770556785615093
40
0.771684105555155
40
0.775066065375349
40
0.779575345135603
40
0.784084624895858
40
0.788593904656113
40
0.824668142738152
40
0.860742380820192
40
0.932890856984271
40
0.968965095066311
40
0.987002214107331
40
0.991511493867586
40
0.994893453687775
40
0.996020773627841
40
0.998275413507968
40
1
40
1
40
1
40
1
41
1
10
111.619551633802
20
8.84873056953384
30
0
41
1
10
111.619504238369
20
8.84906689611634
30
0
41
1
10
111.619395284313
20
8.84983732584269
30
0
41
1
10
111.619163058349
20
8.85145815892284
30
0
41
1
10
111.618849800968
20
8.85357398483316
30
0
41
1
10
111.61833242268
20
8.85692916616409
30
0
41
1
10
111.617644470047
20
8.86115703286291
30
0
41
1
10
111.615866357855
20
8.87136002753618
30
0
41
1
10
111.611352317256
20
8.89348699684425
30
0
41
1
10
111.601848696737
20
8.92776053342732
30
0
41
1
10
111.5907569909
20
8.95667620209323
30
0
41
1
10
111.583598936181
20
8.97262498792276
30
0
41
1
10
111.582154660588
20
8.97576525132641
30
0
41
1
10
111.581374590502
20
8.97743762202307
30
0
41
1
10
111.580785345775
20
8.97869082503388
30
0
41
1
10
111.580291689119
20
8.97973448257355
30
0
41
1
10
111.579595682971
20
8.98119431299455
30
0
41
1
10
111.57899387326
20
8.98244418824387
30
0
41
1
10
111.578387880591
20
8.98369290630035
30
0
41
1
10
111.57788027307
20
8.98473277501481
30
0
41
1
10
111.577062528362
20
8.98639498094349
30
0
41
1
10
111.576236429245
20
8.98805476975991
30
0
41
1
10
111.574984762763
20
8.99054070404435
30
0
41
1
10
111.573293632516
20
8.99384850873275
30
0
41
1
10
111.570049903858
20
9.00002733553453
30
0
41
1
10
111.566456992495
20
9.0065728358301
30
0
41
1
10
111.560869107966
20
9.01631532443764
30
0
41
1
10
111.553067896731
20
9.02916369582397
30
0
41
1
10
111.541513398986
20
9.04643945416936
30
0
41
1
10
111.530171439049
20
9.06166945544533
30
0
41
1
10
111.52061698805
20
9.07352950739593
30
0
41
1
10
111.513216168174
20
9.08225286959379
30
0
41
1
10
111.505585826573
20
9.09079485279653
30
0
41
1
10
111.497733341537
20
9.09914697620138
30
0
41
1
10
111.489666091361
20
9.10730075900551
30
0
41
1
10
111.481391454336
20
9.11524772040619
30
0
41
1
10
111.472916808757
20
9.12297937960062
30
0
41
1
10
111.464251097256
20
9.13048893974479
30
0
41
1
10
111.455403262469
20
9.13776960399468
30
0
41
1
10
111.446382247029
20
9.14481457550636
30
0
41
1
10
111.437196993571
20
9.15161705743574
30
0
41
1
10
111.427857524725
20
9.15817225917195
30
0
41
1
10
111.418373863118
20
9.16447539010403
30
0
41
1
10
111.408756031381
20
9.17052165962102
30
0
41
1
10
111.399014052142
20
9.17630627711196
30
0
41
1
10
111.385873291519
20
9.18366674829997
30
0
41
1
10
111.374194814798
20
9.18964012728512
30
0
41
1
10
111.364082288878
20
9.19442004101302
30
0
41
1
10
111.357526529541
20
9.19741913087088
30
0
41
1
10
111.352425448404
20
9.19964306051375
30
0
41
1
10
111.34858810457
20
9.20125982686994
30
0
41
1
10
111.347521581481
20
9.20170626269265
30
0
41
1
10
111.346027363906
20
9.20232629540112
30
0
41
1
10
111.344745468938
20
9.20285241794429
30
0
41
1
10
111.3434626952
20
9.20337427192914
30
0
41
1
10
111.342393174283
20
9.20380648212864
30
0
41
1
10
111.340894855778
20
9.2044065948985
30
0
41
1
10
111.339609548616
20
9.20491563885193
30
0
41
1
10
111.338537795599
20
9.20533628211015
30
0
41
1
10
111.33746571501
20
9.20575514516869
30
0
41
1
10
111.335749351559
20
9.20641962884255
30
0
41
1
10
111.333386961558
20
9.20731958076561
30
0
41
1
10
111.330806993392
20
9.20828424264184
30
0
41
1
10
111.322198263455
20
9.21144274613408
30
0
41
1
10
111.307500024646
20
9.21637569819288
30
0
41
1
10
111.279725434974
20
9.2242172728287
30
0
41
1
10
111.251947128117
20
9.22991797921159
30
0
41
1
10
111.227927481056
20
9.23312370585364
30
0
41
1
10
111.216815398837
20
9.23421551208855
30
0
41
1
10
111.211970502907
20
9.23462382512054
30
0
41
1
10
111.210272710962
20
9.2347578446587
30
0
41
1
10
111.208987167324
20
9.23485527670275
30
0
41
1
10
111.208008432065
20
9.23492715486327
30
0
41
1
10
111.207235203392
20
9.23498251622496
30
0
41
1
10
111.206897666652
20
9.23500651585076
30
0
0
SPLINE
5
1E8
100
AcDbEntity
8
1
62
256
6
ByLayer
370
-1
48
1
60
0
100
AcDbSpline
70
4
71
3
72
13
73
9
40
0
40
0
40
0
40
0
40
0.312317913031032
40
0.624635826062064
40
0.936953739093096
40
0.975993478221975
40
0.994903351862526
40
1
40
1
40
1
40
1
41
1
10
108.696447858041
20
9.16582908817259
30
0
41
1
10
108.46180995404
20
9.15760405327191
30
0
41
1
10
107.992534146036
20
9.14115398347056
30
0
41
1
10
107.28862043403
20
9.11647887876853
30
0
41
1
10
106.790014888026
20
9.09900067960459
30
0
41
1
10
106.51184065418
20
9.08924951518131
30
0
41
1
10
106.464475319382
20
9.08758916310197
30
0
41
1
10
106.446439697892
20
9.08695705425745
30
0
41
1
10
106.442610686283
20
9.0868228623919
30
0
0
SPLINE
5
1E9
100
AcDbEntity
8
1
62
256
6
ByLayer
370
-1
48
1
60
0
100
AcDbSpline
70
4
71
3
72
22
73
18
40
0
40
0
40
0
40
0
40
0.0178234039225047
40
0.0278216291116198
40
0.0378198543007349
40
0.112806543219098
40
0.187793232137461
40
0.337766609974188
40
0.49773821300003
40
0.657709816025871
40
0.817681419051713
40
0.897667220564634
40
0.977653022077554
40
0.982652134672112
40
0.987651247266669
40
0.997649472455785
40
1
40
1
40
1
40
1
41
1
10
111.63868993223
20
8.7120219166639
30
0
41
1
10
111.638577262031
20
8.71283449765505
30
0
41
1
10
111.6384005062
20
8.71410285223794
30
0
41
1
10
111.638159358678
20
8.71582707630051
30
0
41
1
10
111.637552943917
20
8.72015745610477
30
0
41
1
10
111.636531676981
20
8.72745072282595
30
0
41
1
10
111.634616958284
20
8.74112558669117
30
0
41
1
10
111.632159937196
20
8.75867498089733
30
0
41
1
10
111.629160456905
20
8.78009891668151
30
0
41
1
10
111.626097157885
20
8.80197868088661
30
0
41
1
10
111.623544408702
20
8.82021181772419
30
0
41
1
10
111.621493437484
20
8.83484907078466
30
0
41
1
10
111.620443912828
20
8.84235008324842
30
0
41
1
10
111.619876959235
20
8.84640964484561
30
0
41
1
10
111.619751268699
20
8.84730895948911
30
0
41
1
10
111.619642817199
20
8.84808292887263
30
0
41
1
10
111.619566200836
20
8.84862719922126
30
0
41
1
10
111.619551633802
20
8.84873056953381
30
0
0
SPLINE
5
1EA
100
AcDbEntity
8
1
62
256
6
ByLayer
370
-1
48
1
60
0
100
AcDbSpline
70
4
71
3
72
153
73
149
40
0
40
0
40
0
40
0
40
0.125
40
0.25
40
0.375
40
0.3828125
40
0.390625
40
0.398193359375
40
0.4019775390625
40
0.405643463134766
40
0.40576171875
40
0.406005859375
40
0.40625
40
0.4072265625
40
0.40771484375
40
0.408203125
40
0.4091796875
40
0.41015625
40
0.412109375
40
0.4140625
40
0.416015625
40
0.4169921875
40
0.41796875
40
0.4189453125
40
0.41943359375
40
0.419921875
40
0.42041015625
40
0.4208984375
40
0.421875
40
0.422119140625
40
0.42236328125
40
0.422477722167969
40
0.426025390625
40
0.4296875
40
0.4375
40
0.439453125
40
0.44140625
40
0.443359375
40
0.4443359375
40
0.4453125
40
0.445556640625
40
0.44580078125
40
0.446044921875
40
0.4462890625
40
0.4464111328125
40
0.44677734375
40
0.447265625
40
0.44921875
40
0.453125
40
0.4609375
40
0.46484375
40
0.46875
40
0.46923828125
40
0.4697265625
40
0.47021484375
40
0.4705810546875
40
0.470703125
40
0.4708251953125
40
0.47119140625
40
0.471435546875
40
0.4716796875
40
0.4718017578125
40
0.47216796875
40
0.472412109375
40
0.47265625
40
0.4727783203125
40
0.474609375
40
0.4755859375
40
0.4765625
40
0.48046875
40
0.482421875
40
0.484375
40
0.486328125
40
0.48828125
40
0.490234375
40
0.4921875
40
0.494140625
40
0.49609375
40
0.498046875
40
0.5
40
0.501953125
40
0.50390625
40
0.505859375
40
0.5078125
40
0.509765625
40
0.51171875
40
0.515625
40
0.51953125
40
0.5224609375
40
0.5234375
40
0.525390625
40
0.5263671875
40
0.527099609375
40
0.52734375
40
0.52783203125
40
0.528076171875
40
0.5283203125
40
0.5284423828125
40
0.52880859375
40
0.529052734375
40
0.529296875
40
0.5294189453125
40
0.52978515625
40
0.5302734375
40
0.53125
40
0.5390625
40
0.546875
40
0.55078125
40
0.5517578125
40
0.552734375
40
0.55322265625
40
0.5537109375
40
0.553955078125
40
0.55419921875
40
0.554443359375
40
0.5545654296875
40
0.5546875
40
0.556640625
40
0.55859375
40
0.5625
40
0.56640625
40
0.5703125
40
0.573974609375
40
0.5758056640625
40
0.57763671875
40
0.577880859375
40
0.578125
40
0.5791015625
40
0.57958984375
40
0.580078125
40
0.5810546875
40
0.58203125
40
0.5859375
40
0.587890625
40
0.58984375
40
0.5908203125
40
0.591796875
40
0.5927734375
40
0.59375
40
0.593994140625
40
0.59423828125
40
0.594380187988281
40
0.601806640625
40
0.609375
40
0.625
40
0.75
40
0.875
40
1
40
1
40
1
40
1
41
1
10
110.894833236631
20
6.30146618374442
30
0
41
1
10
110.900889343423
20
6.12737952346151
30
0
41
1
10
110.913001557005
20
5.77920620289567
30
0
41
1
10
110.931169877379
20
5.25694622204688
30
0
41
1
10
110.943660597636
20
4.89789248521336
30
0
41
1
10
110.950473717776
20
4.70204499239506
30
0
41
1
10
110.951597409466
20
4.66974375660038
30
0
41
1
10
110.952525933652
20
4.64305273544372
30
0
41
1
10
110.953253560984
20
4.622136622726
30
0
41
1
10
110.953620239325
20
4.61159621946669
30
0
41
1
10
110.953815406829
20
4.60598600482868
30
0
41
1
10
110.953844792845
20
4.605141285011
30
0
41
1
10
110.953915762847
20
4.60310120696082
30
0
41
1
10
110.953998561182
20
4.60072111590228
30
0
41
1
10
110.95409318785
20
4.59800101183535
30
0
41
1
10
110.954187814519
20
4.59528090776843
30
0
41
1
10
110.954306097855
20
4.59188077768476
30
0
41
1
10
110.954495351192
20
4.58644056955094
30
0
41
1
10
110.954731917864
20
4.57964030938362
30
0
41
1
10
110.955015797869
20
4.57147999718288
30
0
41
1
10
110.955252364541
20
4.56467973701558
30
0
41
1
10
110.955441617878
20
4.55923952888173
30
0
41
1
10
110.955583557881
20
4.55515937278133
30
0
41
1
10
110.955701841217
20
4.5517592426977
30
0
41
1
10
110.955796467886
20
4.54903913863077
30
0
41
1
10
110.955867437887
20
4.54699906058059
30
0
41
1
10
110.955938407888
20
4.5449589825304
30
0
41
1
10
110.956033034557
20
4.54223887846348
30
0
41
1
10
110.956115832892
20
4.53985878740491
30
0
41
1
10
110.956186802893
20
4.53781870935472
30
0
41
1
10
110.956216004092
20
4.53697930224033
30
0
41
1
10
110.956405257429
20
4.53153909410648
30
0
41
1
10
110.956760107436
20
4.52133870385552
30
0
41
1
10
110.957487919587
20
4.50041727843458
30
0
41
1
10
110.958138477934
20
4.4817165629745
30
0
41
1
10
110.958706237945
20
4.46539593857295
30
0
41
1
10
110.958990131704
20
4.45723542812544
30
0
41
1
10
110.959226732756
20
4.45043467234126
30
0
41
1
10
110.959416034226
20
4.44499377034376
30
0
41
1
10
110.959522525328
20
4.44193313287076
30
0
41
1
10
110.959593523694
20
4.43989264593662
30
0
41
1
10
110.959629023763
20
4.43887238969194
30
0
41
1
10
110.959664524746
20
4.43785212028243
30
0
41
1
10
110.959694109681
20
4.43700188448116
30
0
41
1
10
110.959729612329
20
4.4359815910652
30
0
41
1
10
110.9597769505
20
4.43462118100015
30
0
41
1
10
110.959913054588
20
4.43070990335929
30
0
41
1
10
110.960220814737
20
4.42186634363202
30
0
41
1
10
110.960883971549
20
4.40281451334525
30
0
41
1
10
110.961642745198
20
4.38102830522516
30
0
41
1
10
110.962399232182
20
4.35927506048719
30
0
41
1
10
110.962799745243
20
4.34773840781344
30
0
41
1
10
110.963034702081
20
4.34096135417815
30
0
41
1
10
110.963105331712
20
4.33892618273515
30
0
41
1
10
110.96317037599
20
4.3370562777715
30
0
41
1
10
110.963218350106
20
4.33568670025676
30
0
41
1
10
110.963248700956
20
4.33482542342767
30
0
41
1
10
110.963279256658
20
4.33396119354796
30
0
41
1
10
110.963316001475
20
4.33292231111889
30
0
41
1
10
110.963357174327
20
4.3317307503051
30
0
41
1
10
110.963384924851
20
4.33090013307742
30
0
41
1
10
110.963416112184
20
4.32992976140173
30
0
41
1
10
110.963444087892
20
4.32898962285159
30
0
41
1
10
110.963470319309
20
4.32791533528973
30
0
41
1
10
110.963484738454
20
4.32715265822816
30
0
41
1
10
110.963523217377
20
4.3243974681177
30
0
41
1
10
110.963478850514
20
4.32065742206805
30
0
41
1
10
110.963239170556
20
4.31574409920222
30
0
41
1
10
110.962668894231
20
4.30807112078892
30
0
41
1
10
110.961414763485
20
4.29899763875656
30
0
41
1
10
110.959117917998
20
4.28856858382755
30
0
41
1
10
110.956949496132
20
4.28074398850751
30
0
41
1
10
110.95432127537
20
4.27294346552986
30
0
41
1
10
110.951233684089
20
4.265211701407
30
0
41
1
10
110.947687150666
20
4.25759338265138
30
0
41
1
10
110.943688617981
20
4.25012800943202
30
0
41
1
10
110.939245028915
20
4.24285508191795
30
0
41
1
10
110.934372962198
20
4.23581325030858
30
0
41
1
10
110.929088996563
20
4.22904116480339
30
0
41
1
10
110.923418337155
20
4.22257314296994
30
0
41
1
10
110.917386189122
20
4.21644350237582
30
0
41
1
10
110.911024897943
20
4.21067987668695
30
0
41
1
10
110.904366809097
20
4.20530989956913
30
0
41
1
10
110.897449175441
20
4.20035286864425
30
0
41
1
10
110.890309249834
20
4.19582808153419
30
0
41
1
10
110.880544652682
20
4.19038430089515
30
0
41
1
10
110.867977024835
20
4.18470872371321
30
0
41
1
10
110.853947314533
20
4.18014767847825
30
0
41
1
10
110.843742433807
20
4.17784424923843
30
0
41
1
10
110.83612967918
20
4.17653288443898
30
0
41
1
10
110.831081883972
20
4.17586370590485
30
0
41
1
10
110.826419449964
20
4.17542657389433
30
0
41
1
10
110.823961434238
20
4.17525230222873
30
0
41
1
10
110.822132396853
20
4.17514672524808
30
0
41
1
10
110.82092064422
20
4.1750888871014
30
0
41
1
10
110.819677558289
20
4.17503769126668
30
0
41
1
10
110.818879461767
20
4.17500723145929
30
0
41
1
10
110.817895393857
20
4.17497095648423
30
0
41
1
10
110.816881466531
20
4.17493500469331
30
0
41
1
10
110.815678091878
20
4.17489333154762
30
0
41
1
10
110.814815641937
20
4.1748636431924
30
0
41
1
10
110.813786010094
20
4.17482801871444
30
0
41
1
10
110.812421621257
20
4.17478052187627
30
0
41
1
10
110.809881454426
20
4.17469147057327
30
0
41
1
10
110.797056099663
20
4.17424029037926
30
0
41
1
10
110.774042906113
20
4.17343289704769
30
0
41
1
10
110.74691369832
20
4.17248300653725
30
0
41
1
10
110.729290007726
20
4.17186558070824
30
0
41
1
10
110.721157481462
20
4.1715806153741
30
0
41
1
10
110.717769155693
20
4.17146187988439
30
0
41
1
10
110.71505861881
20
4.17136689152869
30
0
41
1
10
110.713364582235
20
4.17130752382067
30
0
41
1
10
110.712009380814
20
4.17126002966236
30
0
41
1
10
110.710992993282
20
4.1712244090476
30
0
41
1
10
110.710146014627
20
4.17119472520514
30
0
41
1
10
110.709468438084
20
4.17117097813303
30
0
41
1
10
110.706419362486
20
4.17106411631411
30
0
41
1
10
110.70082967978
20
4.17086820306372
30
0
41
1
10
110.689989874898
20
4.1704882503243
30
0
41
1
10
110.67644110865
20
4.17001330968873
30
0
41
1
10
110.660182589151
20
4.16944338092603
30
0
41
1
10
110.644262788809
20
4.16888532567924
30
0
41
1
10
110.631222101295
20
4.16842819531749
30
0
41
1
10
110.621060526608
20
4.1680719898408
30
0
41
1
10
110.615641020109
20
4.16788201358659
30
0
41
1
10
110.612423188125
20
4.16776921518564
30
0
41
1
10
110.610390873188
20
4.16769797409029
30
0
41
1
10
110.608019839094
20
4.16761485947907
30
0
41
1
10
110.605310085844
20
4.16751987135197
30
0
41
1
10
110.602600332595
20
4.16742488322484
30
0
41
1
10
110.599213141032
20
4.16730614806596
30
0
41
1
10
110.591083881283
20
4.1670211836846
30
0
41
1
10
110.581599744909
20
4.16668872523971
30
0
41
1
10
110.57076073191
20
4.16630877273124
30
0
41
1
10
110.563986348786
20
4.16607130241346
30
0
41
1
10
110.558566842287
20
4.16588132615922
30
0
41
1
10
110.554502212412
20
4.16573884396857
30
0
41
1
10
110.550437582537
20
4.16559636177789
30
0
41
1
10
110.547389110132
20
4.1654895001349
30
0
41
1
10
110.545356795194
20
4.16541825903954
30
0
41
1
10
110.544482476372
20
4.16538761052666
30
0
41
1
10
110.533643463373
20
4.1650076580182
30
0
41
1
10
110.512642875688
20
4.16427150003307
30
0
41
1
10
110.470161142514
20
4.16278233851213
30
0
41
1
10
110.264558614692
20
4.15557511436731
30
0
41
1
10
109.896032172729
20
4.14265672907973
30
0
41
1
10
109.375759548782
20
4.12441900867375
30
0
41
1
10
109.028911132817
20
4.11226052840311
30
0
41
1
10
108.855486924835
20
4.10618128826778
30
0
0
SPLINE
5
1EB
100
AcDbEntity
8
1
62
256
6
ByLayer
370
-1
48
1
60
0
100
AcDbSpline
70
4
71
3
72
22
73
18
40
0
40
0
40
0
40
0
40
0.0023505275440047
40
0.0123487527331227
40
0.0223469779222407
40
0.0623398786787128
40
0.102332779435176
40
0.182318580948129
40
0.262304382461068
40
0.342290183974017
40
0.662233390025793
40
0.812206767862564
40
0.957493477641921
40
0.962180145699334
40
0.972178370888447
40
0.98217659607757
40
1
40
1
40
1
40
1
41
1
10
105.802500118614
20
8.64481870825546
30
0
41
1
10
105.802492770374
20
8.64471456972134
30
0
41
1
10
105.802454162552
20
8.64416626028557
30
0
41
1
10
105.802384081806
20
8.64316190329308
30
0
41
1
10
105.802195230993
20
8.64043691805065
30
0
41
1
10
105.801910022879
20
8.63633049420173
30
0
41
1
10
105.801399082533
20
8.62899190179388
30
0
41
1
10
105.800756071674
20
8.61977614400257
30
0
41
1
10
105.799987070783
20
8.60874285175984
30
0
41
1
10
105.798451681141
20
8.58670188438126
30
0
41
1
10
105.79669238051
20
8.56144660925997
30
0
41
1
10
105.794724162928
20
8.53319227021805
30
0
41
1
10
105.793764340117
20
8.51941663648225
30
0
41
1
10
105.793252325665
20
8.51206961629023
30
0
41
1
10
105.793173321763
20
8.51093599379567
30
0
41
1
10
105.793052579769
20
8.50919908399973
30
0
41
1
10
105.792964393772
20
8.50792144210331
30
0
41
1
10
105.792908465121
20
8.50710295102087
30
0
0
SPLINE
5
1EC
100
AcDbEntity
8
1
62
256
6
ByLayer
370
-1
48
1
60
0
100
AcDbSpline
70
4
71
3
72
79
73
75
40
0
40
0
40
0
40
0
40
0.0017245864915969
40
0.0039792263717244
40
0.0084885061319794
40
0.0129977858922344
40
0.0220163454127444
40
0.0310349049332545
40
0.0671091430152945
40
0.139257619179375
40
0.211406095343455
40
0.220424654863965
40
0.22493393462422
40
0.228315894444411
40
0.229443214384475
40
0.231697854264602
40
0.23395249414473
40
0.237334453964921
40
0.238461773904985
40
0.240716413785112
40
0.24297105366524
40
0.247480333425495
40
0.249734973305622
40
0.256498892946005
40
0.265517452466515
40
0.283554571507535
40
0.292573131028045
40
0.319628809589575
40
0.355703047671615
40
0.391777285753655
40
0.409814404794675
40
0.427851523835695
40
0.445888642876715
40
0.463925761917735
40
0.481962880958755
40
0.499999999999776
40
0.518037119040796
40
0.536074238081816
40
0.554111357122836
40
0.572148476163856
40
0.590185595204874
40
0.608222714245896
40
0.626259833286916
40
0.644296952327936
40
0.662334071368956
40
0.680371190409978
40
0.716445428492016
40
0.725463988012525
40
0.734482547533037
40
0.751392346633992
40
0.752519666574056
40
0.754774306454184
40
0.757028946334311
40
0.760410906154505
40
0.761538226094566
40
0.763792865974696
40
0.76604750585482
40
0.769429465675014
40
0.770556785615076
40
0.771684105555138
40
0.775066065375333
40
0.779575345135586
40
0.784084624895841
40
0.788593904656096
40
0.824668142738136
40
0.860742380820176
40
0.932890856984256
40
0.968965095066296
40
0.987002214107316
40
0.991511493867572
40
0.994893453687762
40
0.996020773627826
40
0.998275413507954
40
1
40
1
40
1
40
1
41
1
10
106.187306168335
20
9.0590489465209
30
0
41
1
10
106.186971121577
20
9.0590013700448
30
0
41
1
10
106.186203623568
20
9.05889199980172
30
0
41
1
10
106.184588958247
20
9.05865888677292
30
0
41
1
10
106.182481183693
20
9.05834443279906
30
0
41
1
10
106.17913876984
20
9.05782507821064
30
0
41
1
10
106.174926991451
20
9.05713449770974
30
0
41
1
10
106.164762822253
20
9.05534959341819
30
0
41
1
10
106.142720052743
20
9.05081830991813
30
0
41
1
10
106.108576937314
20
9.04127838711227
30
0
41
1
10
106.079771301497
20
9.03014431276119
30
0
41
1
10
106.063883205613
20
9.02295891543531
30
0
41
1
10
106.06075489186
20
9.0215091229442
30
0
41
1
10
106.059088885039
20
9.02072607311774
30
0
41
1
10
106.057840450844
20
9.02013457757113
30
0
41
1
10
106.056800764736
20
9.01963903522707
30
0
41
1
10
106.05534648941
20
9.01894037044849
30
0
41
1
10
106.054101370314
20
9.01833626192217
30
0
41
1
10
106.052857404006
20
9.01772795445956
30
0
41
1
10
106.051821492306
20
9.01721840796077
30
0
41
1
10
106.050165611573
20
9.01639753960117
30
0
41
1
10
106.048512138754
20
9.01556828491957
30
0
41
1
10
106.0460356642
20
9.01431183727482
30
0
41
1
10
106.042740446707
20
9.01261424718493
30
0
41
1
10
106.036585132207
20
9.0093581280108
30
0
41
1
10
106.030064539516
20
9.00575149230971
30
0
41
1
10
106.020359124019
20
9.0001422629694
30
0
41
1
10
106.007559644565
20
8.99231125237512
30
0
41
1
10
105.990349625696
20
8.98071261832584
30
0
41
1
10
105.975177579173
20
8.96932733394451
30
0
41
1
10
105.9633626583
20
8.95973638649446
30
0
41
1
10
105.954672491129
20
8.95230729668955
30
0
41
1
10
105.946163012752
20
8.94464780842245
30
0
41
1
10
105.937842671698
20
8.93676532816983
30
0
41
1
10
105.929719916499
20
8.92866726240837
30
0
41
1
10
105.921803195686
20
8.92036101761482
30
0
41
1
10
105.914100957789
20
8.91185400026583
30
0
41
1
10
105.906619973788
20
8.90315518715514
30
0
41
1
10
105.899367014664
20
8.89427355507635
30
0
41
1
10
105.892348851396
20
8.88521808082317
30
0
41
1
10
105.885572254964
20
8.87599774118928
30
0
41
1
10
105.879041997749
20
8.86662259708868
30
0
41
1
10
105.872762852133
20
8.8571027094354
30
0
41
1
10
105.866739590497
20
8.84744813914349
30
0
41
1
10
105.860976985222
20
8.83766894712699
30
0
41
1
10
105.853644522849
20
8.82447799093259
30
0
41
1
10
105.847693874375
20
8.8127549043281
30
0
41
1
10
105.842932149662
20
8.80260375020228
30
0
41
1
10
105.839944472246
20
8.79602294892894
30
0
41
1
10
105.837729005327
20
8.79090238249123
30
0
41
1
10
105.836118391255
20
8.78705038062668
30
0
41
1
10
105.835673654255
20
8.78597978359326
30
0
41
1
10
105.835055980958
20
8.78447985834995
30
0
41
1
10
105.83453186047
20
8.78319306675138
30
0
41
1
10
105.834011992297
20
8.7819053930254
30
0
41
1
10
105.833581426788
20
8.78083178671255
30
0
41
1
10
105.832983597629
20
8.77932774487465
30
0
41
1
10
105.832476490741
20
8.77803752804843
30
0
41
1
10
105.832057448157
20
8.77696168110839
30
0
41
1
10
105.831640178999
20
8.77588550534603
30
0
41
1
10
105.830978223887
20
8.77416258566566
30
0
41
1
10
105.830081696552
20
8.77179117171843
30
0
41
1
10
105.829120705506
20
8.76920134849308
30
0
41
1
10
105.825974221073
20
8.76055973460581
30
0
41
1
10
105.821060040386
20
8.74580535091249
30
0
41
1
10
105.813248305309
20
8.71792466682072
30
0
41
1
10
105.807569291835
20
8.69004025134453
30
0
41
1
10
105.804375763951
20
8.66592885313375
30
0
41
1
10
105.803288112368
20
8.65477432456535
30
0
41
1
10
105.80288135309
20
8.64991092192045
30
0
41
1
10
105.802747843537
20
8.64820664468596
30
0
41
1
10
105.802650782251
20
8.64691619047937
30
0
41
1
10
105.802579177609
20
8.64593371661121
30
0
41
1
10
105.802524026914
20
8.64515753433042
30
0
41
1
10
105.802500118614
20
8.64481870825526
30
0
0
SPLINE
5
1ED
100
AcDbEntity
8
1
62
256
6
ByLayer
370
-1
48
1
60
0
100
AcDbSpline
70
4
71
3
72
14
73
10
40
0
40
0
40
0
40
0
40
0.0050966481374707
40
0.0240065217780212
40
0.0435263913424608
40
0.0630462609069004
40
0.375364173937934
40
0.687682086968967
40
1
40
1
40
1
40
1
41
1
10
105.792708432193
20
8.3872258426577
30
0
41
1
10
105.792842174957
20
8.38338220700311
30
0
41
1
10
105.79347210676
20
8.36527770037307
30
0
41
1
10
105.794614032189
20
8.33245232410755
30
0
41
1
10
105.796134354328
20
8.28874969255622
30
0
41
1
10
105.805352307507
20
8.02377373704499
30
0
41
1
10
105.822251888337
20
7.53798448527442
30
0
41
1
10
105.846833096816
20
6.83138193724449
30
0
41
1
10
105.863220569135
20
6.3603135718912
30
0
41
1
10
105.871414305295
20
6.12477938921452
30
0
0
SPLINE
5
1EE
100
AcDbEntity
8
1
62
256
6
ByLayer
370
-1
48
1
60
0
100
AcDbSpline
70
4
71
3
72
22
73
18
40
0
40
0
40
0
40
0
40
0.0178234039225267
40
0.0278216291116413
40
0.0378198543007559
40
0.112806543219116
40
0.187793232137476
40
0.337766609974195
40
0.49773821300003
40
0.657709816025864
40
0.817681419051698
40
0.897667220564615
40
0.977653022077533
40
0.98265213467209
40
0.987651247266647
40
0.997649472455762
40
1
40
1
40
1
40
1
41
1
10
106.323494603508
20
9.07826035013971
30
0
41
1
10
106.322685114632
20
9.07814724955858
30
0
41
1
10
106.321421586522
20
9.07796981854932
30
0
41
1
10
106.319703923652
20
9.07772774988337
30
0
41
1
10
106.31539002225
20
9.07711901871616
30
0
41
1
10
106.308124508611
20
9.0760938507062
30
0
41
1
10
106.294501681731
20
9.07417181809544
30
0
41
1
10
106.277019068269
20
9.07170541158519
30
0
41
1
10
106.255676657028
20
9.06869447376747
30
0
41
1
10
106.233880151931
20
9.06561947344301
30
0
41
1
10
106.215716397684
20
9.06305697317259
30
0
41
1
10
106.201134843791
20
9.06099816757708
30
0
41
1
10
106.193662374944
20
9.05994463390783
30
0
41
1
10
106.189618261204
20
9.0593755146441
30
0
41
1
10
106.188722368725
20
9.05924934399101
30
0
41
1
10
106.187951344528
20
9.05914047822333
30
0
41
1
10
106.187409145293
20
9.0590635691986
30
0
41
1
10
106.187306168335
20
9.0590489465209
30
0
0
SPLINE
5
1EF
100
AcDbEntity
8
1
62
256
6
ByLayer
370
-1
48
1
60
0
100
AcDbSpline
70
4
71
3
72
23
73
19
40
0
40
0
40
0
40
0
40
0.0365499079218752
40
0.0695172064384076
40
0.10248450495494
40
0.135451803471472
40
0.168419101988005
40
0.23435369902107
40
0.30028829605412
40
0.366222893087199
40
0.498092087153329
40
0.629961281219451
40
0.761830475285588
40
0.827765072318649
40
0.893699669351718
40
0.92666696786825
40
0.959634266384783
40
1
40
1
40
1
40
1
41
1
10
106.52763379062
20
3.21014894751298
30
0
41
1
10
106.528647990056
20
3.21007911538052
30
0
41
1
10
106.530576959299
20
3.20994796808142
30
0
41
1
10
106.533420974217
20
3.20976245689854
30
0
41
1
10
106.536166183931
20
3.20959242167399
30
0
41
1
10
106.538912379175
20
3.20943320110345
30
0
41
1
10
106.542575132802
20
3.20923481145994
30
0
41
1
10
106.547155460891
20
3.20901192945999
30
0
41
1
10
106.552653947846
20
3.20878154861819
30
0
41
1
10
106.5599875836
20
3.20852432139458
30
0
41
1
10
106.569158094472
20
3.20829739559014
30
0
41
1
10
106.5801654263
20
3.20817952071252
30
0
41
1
10
106.589338059383
20
3.20820763172264
30
0
41
1
10
106.596674634331
20
3.20830451057663
30
0
41
1
10
106.601258637679
20
3.20839846685303
30
0
41
1
10
106.604924596043
20
3.2084951227539
30
0
41
1
10
106.607879406108
20
3.20858284877804
30
0
41
1
10
106.609917829589
20
3.20864956246675
30
0
41
1
10
106.611039920214
20
3.2086873751758
30
0
0
SPLINE
5
1F0
100
AcDbEntity
8
1
62
256
6
ByLayer
370
-1
48
1
60
0
100
AcDbSpline
70
4
71
3
72
14
73
10
40
0
40
0
40
0
40
0
40
0.0050966481374755
40
0.024006521778026
40
0.0435263913424655
40
0.0630462609069049
40
0.375364173937937
40
0.687682086968968
40
1
40
1
40
1
40
1
41
1
10
106.647054730394
20
3.20994815049141
30
0
41
1
10
106.650883739854
20
3.21008240413059
30
0
41
1
10
106.66891935337
20
3.21071474217115
30
0
41
1
10
106.701619819169
20
3.21186102956921
30
0
41
1
10
106.745156149013
20
3.21338715909178
30
0
41
1
10
107.009123791015
20
3.22264032335505
30
0
41
1
10
107.493064468019
20
3.23960445783771
30
0
41
1
10
108.196978180025
20
3.26427956253974
30
0
41
1
10
108.666253988028
20
3.28072963234109
30
0
41
1
10
108.90089189203
20
3.28895466724177
30
0
0
SPLINE
5
1F1
100
AcDbEntity
8
1
62
256
6
ByLayer
370
-1
48
1
60
0
100
AcDbSpline
70
4
71
3
72
22
73
18
40
0
40
0
40
0
40
0
40
0.0178234039225402
40
0.0278216291116548
40
0.0378198543007694
40
0.112806543219129
40
0.187793232137488
40
0.337766609974207
40
0.497738213000041
40
0.657709816025875
40
0.817681419051708
40
0.897667220564625
40
0.977653022077542
40
0.982652134672099
40
0.987651247266656
40
0.997649472455771
40
1
40
1
40
1
40
1
41
1
10
105.958649817842
20
3.74276183875045
30
0
41
1
10
105.958762488041
20
3.7419492577593
30
0
41
1
10
105.958939243872
20
3.74068090317641
30
0
41
1
10
105.959180391393
20
3.73895667911384
30
0
41
1
10
105.959786806154
20
3.73462629930958
30
0
41
1
10
105.960808073091
20
3.72733303258838
30
0
41
1
10
105.962722791787
20
3.71365816872318
30
0
41
1
10
105.965179812876
20
3.696108774517
30
0
41
1
10
105.968179293166
20
3.67468483873284
30
0
41
1
10
105.971242592186
20
3.65280507452775
30
0
41
1
10
105.973795341369
20
3.63457193769014
30
0
41
1
10
105.975846312588
20
3.6199346846297
30
0
41
1
10
105.976895837244
20
3.61243367216594
30
0
41
1
10
105.977462790837
20
3.60837411056872
30
0
41
1
10
105.977588481372
20
3.60747479592524
30
0
41
1
10
105.977696932873
20
3.60670082654173
30
0
41
1
10
105.977773549235
20
3.6061565561931
30
0
41
1
10
105.977788116269
20
3.60605318588051
30
0
0
SPLINE
5
1F2
100
AcDbEntity
8
1
62
256
6
ByLayer
370
-1
48
1
60
0
100
AcDbSpline
70
4
71
3
72
8
73
4
40
0
40
0
40
0
40
0
40
1
40
1
40
1
40
1
41
1
10
111.645896525855
20
8.62860073177887
30
0
41
1
10
111.646359431544
20
8.61655158168099
30
0
41
1
10
111.646800496102
20
8.60450158606528
30
0
41
1
10
111.647219716607
20
8.59245082472458
30
0
0
SPLINE
5
1F3
100
AcDbEntity
8
1
62
256
6
ByLayer
370
-1
48
1
60
0
100
AcDbSpline
70
4
71
3
72
79
73
75
40
0
40
0
40
0
40
0
40
0.0017245864916225
40
0.0039792263717499
40
0.0084885061320048
40
0.0129977858922597
40
0.0220163454127695
40
0.0310349049332793
40
0.0671091430153185
40
0.139257619179397
40
0.211406095343475
40
0.220424654863985
40
0.22493393462424
40
0.228315894444431
40
0.229443214384495
40
0.231697854264622
40
0.23395249414475
40
0.237334453964941
40
0.238461773905005
40
0.240716413785132
40
0.24297105366526
40
0.247480333425514
40
0.249734973305642
40
0.256498892946024
40
0.265517452466534
40
0.283554571507553
40
0.292573131028063
40
0.319628809589593
40
0.355703047671632
40
0.391777285753671
40
0.409814404794691
40
0.42785152383571
40
0.44588864287673
40
0.463925761917749
40
0.481962880958769
40
0.499999999999789
40
0.518037119040809
40
0.536074238081828
40
0.554111357122847
40
0.572148476163867
40
0.590185595204885
40
0.608222714245907
40
0.626259833286925
40
0.644296952327946
40
0.662334071368965
40
0.680371190409986
40
0.716445428492024
40
0.725463988012532
40
0.734482547533044
40
0.751392346633999
40
0.752519666574063
40
0.754774306454191
40
0.757028946334318
40
0.760410906154512
40
0.761538226094573
40
0.763792865974703
40
0.766047505854826
40
0.769429465675021
40
0.770556785615083
40
0.771684105555145
40
0.775066065375339
40
0.779575345135593
40
0.784084624895848
40
0.788593904656103
40
0.824668142738142
40
0.860742380820181
40
0.932890856984259
40
0.968965095066298
40
0.987002214107318
40
0.991511493867573
40
0.994893453687762
40
0.996020773627828
40
0.998275413507955
40
1
40
1
40
1
40
1
41
1
10
111.410033581736
20
3.39573480889342
30
0
41
1
10
111.410368628495
20
3.39578238536953
30
0
41
1
10
111.411136126503
20
3.39589175561261
30
0
41
1
10
111.412750791824
20
3.39612486864144
30
0
41
1
10
111.414858566378
20
3.39643932261529
30
0
41
1
10
111.418200980231
20
3.39695867720371
30
0
41
1
10
111.422412758621
20
3.39764925770461
30
0
41
1
10
111.432576927819
20
3.39943416199617
30
0
41
1
10
111.454619697328
20
3.40396544549623
30
0
41
1
10
111.488762812757
20
3.41350536830208
30
0
41
1
10
111.517568448574
20
3.42463944265316
30
0
41
1
10
111.533456544458
20
3.43182483997904
30
0
41
1
10
111.536584858212
20
3.43327463247016
30
0
41
1
10
111.538250865033
20
3.43405768229661
30
0
41
1
10
111.539499299228
20
3.4346491778432
30
0
41
1
10
111.540538985336
20
3.43514472018728
30
0
41
1
10
111.541993260661
20
3.43584338496584
30
0
41
1
10
111.543238379758
20
3.43644749349215
30
0
41
1
10
111.544482346065
20
3.43705580095479
30
0
41
1
10
111.545518257765
20
3.43756534745359
30
0
41
1
10
111.547174138499
20
3.43838621581315
30
0
41
1
10
111.548827611317
20
3.43921547049476
30
0
41
1
10
111.551304085871
20
3.44047191813951
30
0
41
1
10
111.554599303364
20
3.4421695082294
30
0
41
1
10
111.560754617865
20
3.44542562740352
30
0
41
1
10
111.567275210555
20
3.44903226310464
30
0
41
1
10
111.576980626052
20
3.45464149244492
30
0
41
1
10
111.589780105507
20
3.46247250303924
30
0
41
1
10
111.606990124376
20
3.47407113708852
30
0
41
1
10
111.622162170899
20
3.48545642146982
30
0
41
1
10
111.633977091771
20
3.49504736891987
30
0
41
1
10
111.642667258942
20
3.50247645872477
30
0
41
1
10
111.65117673732
20
3.51013594699188
30
0
41
1
10
111.659497078374
20
3.51801842724453
30
0
41
1
10
111.667619833573
20
3.52611649300596
30
0
41
1
10
111.675536554386
20
3.53442273779953
30
0
41
1
10
111.683238792283
20
3.54292975514849
30
0
41
1
10
111.690719776283
20
3.55162856825922
30
0
41
1
10
111.697972735408
20
3.560510200338
30
0
41
1
10
111.704990898676
20
3.56956567459116
30
0
41
1
10
111.711767495108
20
3.57878601422507
30
0
41
1
10
111.718297752322
20
3.58816115832568
30
0
41
1
10
111.724576897938
20
3.59768104597893
30
0
41
1
10
111.730600159574
20
3.60733561627083
30
0
41
1
10
111.736362764849
20
3.61711480828737
30
0
41
1
10
111.743695227222
20
3.63030576448176
30
0
41
1
10
111.749645875697
20
3.64202885108625
30
0
41
1
10
111.75440760041
20
3.65218000521205
30
0
41
1
10
111.757395277825
20
3.65876080648539
30
0
41
1
10
111.759610744745
20
3.6638813729231
30
0
41
1
10
111.761221358817
20
3.66773337478765
30
0
41
1
10
111.761666095816
20
3.66880397182109
30
0
41
1
10
111.762283769113
20
3.6703038970644
30
0
41
1
10
111.762807889601
20
3.67159068866297
30
0
41
1
10
111.763327757774
20
3.67287836238896
30
0
41
1
10
111.763758323283
20
3.67395196870177
30
0
41
1
10
111.764356152443
20
3.67545601053971
30
0
41
1
10
111.76486325933
20
3.67674622736592
30
0
41
1
10
111.765282301914
20
3.67782207430596
30
0
41
1
10
111.765699571072
20
3.67889825006833
30
0
41
1
10
111.766361526185
20
3.68062116974866
30
0
41
1
10
111.767258053519
20
3.68299258369589
30
0
41
1
10
111.768219044566
20
3.68558240692127
30
0
41
1
10
111.771365528999
20
3.69422402080852
30
0
41
1
10
111.776279709686
20
3.70897840450186
30
0
41
1
10
111.784091444763
20
3.7368590885936
30
0
41
1
10
111.789770458237
20
3.7647435040698
30
0
41
1
10
111.792963986121
20
3.78885490228061
30
0
41
1
10
111.794051637703
20
3.80000943084897
30
0
41
1
10
111.794458396981
20
3.8048728334939
30
0
41
1
10
111.794591906534
20
3.8065771107284
30
0
41
1
10
111.79468896782
20
3.80786756493495
30
0
41
1
10
111.794760572463
20
3.80885003880312
30
0
41
1
10
111.794815723158
20
3.80962622108393
30
0
41
1
10
111.794839631458
20
3.8099650471591
30
0
0
SPLINE
5
1F4
100
AcDbEntity
8
1
62
256
6
ByLayer
370
-1
48
1
60
0
100
AcDbSpline
70
4
71
3
72
48
73
44
40
0
40
0
40
0
40
0
40
0.015625
40
0.0234375
40
0.02734375
40
0.029296875
40
0.0302734375
40
0.03125
40
0.03173828125
40
0.046875
40
0.0625
40
0.125
40
0.1875
40
0.25
40
0.3125
40
0.375
40
0.390625
40
0.40625
40
0.4140625
40
0.421875
40
0.4375
40
0.5
40
0.5625
40
0.59375
40
0.6015625
40
0.60546875
40
0.609375
40
0.6171875
40
0.625
40
0.65625
40
0.671875
40
0.6796875
40
0.6875
40
0.71875
40
0.75
40
0.78125
40
0.7890625
40
0.79296875
40
0.796875
40
0.8046875
40
0.8125
40
0.875
40
1
40
1
40
1
40
1
41
1
10
110.894833236631
20
6.30146618374442
30
0
41
1
10
110.899325301928
20
6.30162364932528
30
0
41
1
10
110.906268149297
20
6.30186416532268
30
0
41
1
10
110.914048253142
20
6.30212861608885
30
0
41
1
10
110.91778164172
20
6.30225423308499
30
0
41
1
10
110.919593446522
20
6.30231486642001
30
0
41
1
10
110.920623260732
20
6.30234923748117
30
0
41
1
10
110.921267639332
20
6.30237073259104
30
0
41
1
10
110.925660107349
20
6.30251729975404
30
0
41
1
10
110.933927958821
20
6.30279317876668
30
0
41
1
10
110.95860232806
20
6.30361650519492
30
0
41
1
10
110.995807659686
20
6.30485796075169
30
0
41
1
10
111.045414768521
20
6.30651323482735
30
0
41
1
10
111.095021877356
20
6.30816850890301
30
0
41
1
10
111.144628986191
20
6.30982378297867
30
0
41
1
10
111.181824420477
20
6.31106489947271
30
0
41
1
10
111.206647769575
20
6.31189321463597
30
0
41
1
10
111.216980934359
20
6.31223800689128
30
0
41
1
10
111.225215794697
20
6.31251275569483
30
0
41
1
10
111.233494671106
20
6.31278953985029
30
0
41
1
10
111.256584812974
20
6.31356358088215
30
0
41
1
10
111.29590999948
20
6.31489347407359
30
0
41
1
10
111.34118458708
20
6.31644474542659
30
0
41
1
10
111.370725242071
20
6.31746630180615
30
0
41
1
10
111.383213229596
20
6.31789977261604
30
0
41
1
10
111.387726914245
20
6.3180566243517
30
0
41
1
10
111.392266463322
20
6.31821450398743
30
0
41
1
10
111.397975132502
20
6.318413109246
30
0
41
1
10
111.411658853161
20
6.31888913549167
30
0
41
1
10
111.427620201679
20
6.31944438482074
30
0
41
1
10
111.44359063256
20
6.31999998206808
30
0
41
1
10
111.452701566431
20
6.32031689058385
30
0
41
1
10
111.466355550322
20
6.32079257908077
30
0
41
1
10
111.486865538084
20
6.32150978556823
30
0
41
1
10
111.514074976585
20
6.32246696794161
30
0
41
1
10
111.534226707774
20
6.32318022437428
30
0
41
1
10
111.546399410299
20
6.32361270843967
30
0
41
1
10
111.550802097933
20
6.32376933422464
30
0
41
1
10
111.555203586215
20
6.3239260221992
30
0
41
1
10
111.560712098092
20
6.32412215298774
30
0
41
1
10
111.582740544317
20
6.32490644808269
30
0
41
1
10
111.637811659878
20
6.32686718582002
30
0
41
1
10
111.690679930817
20
6.32874949404788
30
0
41
1
10
111.725925444777
20
6.3300043661998
30
0
0
SPLINE
5
1F5
100
AcDbEntity
8
1
62
256
6
ByLayer
370
-1
48
1
60
0
100
AcDbSpline
70
4
71
3
72
19
73
15
40
0
40
0
40
0
40
0
40
0.040365733615487
40
0.106300330648545
40
0.172234927681604
40
0.238169524714662
40
0.370038718780779
40
0.501907912846896
40
0.76564630097913
40
0.831580898012188
40
0.897515495045246
40
0.930482793561775
40
0.963450092078305
40
1
40
1
40
1
40
1
41
1
10
105.951379236508
20
3.82618066284962
30
0
41
1
10
105.951419932532
20
3.82505439213659
30
0
41
1
10
105.951529947019
20
3.82208877587365
30
0
41
1
10
105.951729157802
20
3.8172851536047
30
0
41
1
10
105.952000829602
20
3.81176892340642
30
0
41
1
10
105.952416328093
20
3.80441550580116
30
0
41
1
10
105.953028242809
20
3.79522830324896
30
0
41
1
10
105.954208206725
20
3.78054265020649
30
0
41
1
10
105.955508922138
20
3.76771632080485
30
0
41
1
10
105.956807323432
20
3.7567457368055
30
0
41
1
10
105.957381413352
20
3.75217951332115
30
0
41
1
10
105.957862042309
20
3.74853001708914
30
0
41
1
10
105.958244785842
20
3.74569503344313
30
0
41
1
10
105.958509673925
20
3.74377256104509
30
0
41
1
10
105.958649817842
20
3.74276183875045
30
0
0
SPLINE
5
1F6
100
AcDbEntity
8
1
62
256
6
ByLayer
370
-1
48
1
60
0
100
AcDbSpline
70
4
71
3
72
8
73
4
40
0
40
0
40
0
40
0
40
1
40
1
40
1
40
1
41
1
10
111.804631172947
20
4.06755790767502
30
0
41
1
10
111.805050392105
20
4.05550718505435
30
0
41
1
10
111.80544776735
20
4.04345569671366
30
0
41
1
10
111.805823296052
20
4.03140352245524
30
0
0
SPLINE
5
1F7
100
AcDbEntity
8
1
62
256
6
ByLayer
370
-1
48
1
60
0
100
AcDbSpline
70
4
71
3
72
8
73
4
40
0
40
0
40
0
40
0
40
1
40
1
40
1
40
1
41
1
10
106.406598345598
20
9.08549447178143
30
0
41
1
10
106.418601645043
20
9.08595914569557
30
0
41
1
10
106.430605786787
20
9.08640189504806
30
0
41
1
10
106.442610691343
20
9.08682271690702
30
0
0
SPLINE
5
1F8
100
AcDbEntity
8
1
62
256
6
ByLayer
370
-1
48
1
60
0
100
AcDbSpline
70
4
71
3
72
22
73
18
40
0
40
0
40
0
40
0
40
0.0023505275440842
40
0.0123487527332019
40
0.0223469779223197
40
0.0623398786787906
40
0.102332779435252
40
0.182318580948203
40
0.262304382461141
40
0.342290183974087
40
0.662233390025855
40
0.812206767862621
40
0.957493477641974
40
0.962180145699387
40
0.9721783708885
40
0.982176596077622
40
1
40
1
40
1
40
1
41
1
10
106.390442083419
20
3.21977723956363
30
0
41
1
10
106.390545825674
20
3.21976986325455
30
0
41
1
10
106.391092048627
20
3.21973110795662
30
0
41
1
10
106.392092583738
20
3.21966075951411
30
0
41
1
10
106.394807199589
20
3.21947118732186
30
0
41
1
10
106.398897997255
20
3.21918488975877
30
0
41
1
10
106.406208664104
20
3.21867199770378
30
0
41
1
10
106.415389353154
20
3.21802653064768
30
0
41
1
10
106.426380660389
20
3.21725459229825
30
0
41
1
10
106.448337755232
20
3.21571333771732
30
0
41
1
10
106.473496926407
20
3.21394731684333
30
0
41
1
10
106.501643749159
20
3.21197158099056
30
0
41
1
10
106.515366962449
20
3.21100809181163
30
0
41
1
10
106.522686025011
20
3.21049412154775
30
0
41
1
10
106.52381533373
20
3.2104148158636
30
0
41
1
10
106.52554563406
20
3.21029361265531
30
0
41
1
10
106.526818414143
20
3.21020508980223
30
0
41
1
10
106.52763379062
20
3.21014894751298
30
0
0
SPLINE
5
1F9
100
AcDbEntity
8
1
62
256
6
ByLayer
370
-1
48
1
60
0
100
AcDbSpline
70
4
71
3
72
8
73
4
40
0
40
0
40
0
40
0
40
1
40
1
40
1
40
1
41
1
10
111.190741404473
20
3.3692892836329
30
0
41
1
10
111.178738105029
20
3.36882460971876
30
0
41
1
10
111.166733963285
20
3.3683818603663
30
0
41
1
10
111.154729058729
20
3.3679610385073
30
0
0
SPLINE
5
1FA
100
AcDbEntity
8
1
62
256
6
ByLayer
370
-1
48
1
60
0
100
AcDbSpline
70
4
71
3
72
48
73
44
40
0
40
0
40
0
40
0
40
0.015625
40
0.0234375
40
0.02734375
40
0.029296875
40
0.0302734375
40
0.03125
40
0.03173828125
40
0.046875
40
0.0625
40
0.125
40
0.1875
40
0.25
40
0.3125
40
0.375
40
0.390625
40
0.40625
40
0.4140625
40
0.421875
40
0.4375
40
0.5
40
0.5625
40
0.59375
40
0.6015625
40
0.60546875
40
0.609375
40
0.6171875
40
0.625
40
0.65625
40
0.671875
40
0.6796875
40
0.6875
40
0.71875
40
0.75
40
0.78125
40
0.7890625
40
0.79296875
40
0.796875
40
0.8046875
40
0.8125
40
0.875
40
1
40
1
40
1
40
1
41
1
10
108.855486924834
20
4.10618128826775
30
0
41
1
10
108.855643791211
20
4.10167206401127
30
0
41
1
10
108.85596497125
20
4.09478458699044
30
0
41
1
10
108.856464457517
20
4.08721170786995
30
0
41
1
10
108.856739473395
20
4.08361450775206
30
0
41
1
10
108.856881976455
20
4.08187819621313
30
0
41
1
10
108.856965517921
20
4.08089393779989
30
0
41
1
10
108.857018112738
20
4.08027839838886
30
0
41
1
10
108.857375427146
20
4.07608126398617
30
0
41
1
10
108.85804802897
20
4.0681811227056
30
0
41
1
10
108.860055325039
20
4.0446041385714
30
0
41
1
10
108.863082033249
20
4.00905350280885
30
0
41
1
10
108.867117644195
20
3.96165265512548
30
0
41
1
10
108.87115325514
20
3.91425180744207
30
0
41
1
10
108.875188866086
20
3.86685095975869
30
0
41
1
10
108.878215011721
20
3.83131003348214
30
0
41
1
10
108.880233942343
20
3.80759019066844
30
0
41
1
10
108.881074600861
20
3.7977166323154
30
0
41
1
10
108.881745327438
20
3.7898488559882
30
0
41
1
10
108.88240403463
20
3.78192279480797
30
0
41
1
10
108.884183983963
20
3.75975715976764
30
0
41
1
10
108.886895762661
20
3.72167400149908
30
0
41
1
10
108.889462160585
20
3.67725140212332
30
0
41
1
10
108.890878255976
20
3.64799785489544
30
0
41
1
10
108.891432320057
20
3.63558487499245
30
0
41
1
10
108.891627705613
20
3.63109322896258
30
0
41
1
10
108.891820656388
20
3.62657214772551
30
0
41
1
10
108.89206150652
20
3.62088483723824
30
0
41
1
10
108.892639706245
20
3.60725322909741
30
0
41
1
10
108.89331443607
20
3.59135296867484
30
0
41
1
10
108.893988669688
20
3.57544274517736
30
0
41
1
10
108.894374767007
20
3.56636767265158
30
0
41
1
10
108.894932528556
20
3.55274573637013
30
0
41
1
10
108.895697040683
20
3.53220762973942
30
0
41
1
10
108.896554206078
20
3.50479751285718
30
0
41
1
10
108.897069210943
20
3.48437252099589
30
0
41
1
10
108.897335156175
20
3.47198779775818
30
0
41
1
10
108.897425765384
20
3.46750262210929
30
0
41
1
10
108.897513463093
20
3.46301566558338
30
0
41
1
10
108.897622280776
20
3.45739921464605
30
0
41
1
10
108.898058228943
20
3.4349399416588
30
0
41
1
10
108.899148099361
20
3.37879175919071
30
0
41
1
10
108.900194374962
20
3.32488950402131
30
0
41
1
10
108.900891892029
20
3.28895466724174
30
0
0
SPLINE
5
1FB
100
AcDbEntity
8
1
62
256
6
ByLayer
370
-1
48
1
60
0
100
AcDbSpline
70
4
71
3
72
19
73
15
40
0
40
0
40
0
40
0
40
0.0403657336154996
40
0.106300330648554
40
0.172234927681609
40
0.238169524714663
40
0.370038718780772
40
0.501907912846881
40
0.765646300979098
40
0.831580898012153
40
0.897515495045207
40
0.930482793561735
40
0.963450092078262
40
1
40
1
40
1
40
1
41
1
10
111.645960513564
20
8.6286030925647
30
0
41
1
10
111.645919817539
20
8.62972936327773
30
0
41
1
10
111.645809803053
20
8.6326949795407
30
0
41
1
10
111.64561059227
20
8.63749860180963
30
0
41
1
10
111.64533892047
20
8.64301483200794
30
0
41
1
10
111.644923421979
20
8.65036824961317
30
0
41
1
10
111.644311507263
20
8.65955545216539
30
0
41
1
10
111.643131543347
20
8.67424110520787
30
0
41
1
10
111.641830827934
20
8.68706743460947
30
0
41
1
10
111.640532426639
20
8.69803801860886
30
0
41
1
10
111.639958336719
20
8.70260424209317
30
0
41
1
10
111.639477707762
20
8.70625373832522
30
0
41
1
10
111.63909496423
20
8.7090887219712
30
0
41
1
10
111.638830076146
20
8.71101119436923
30
0
41
1
10
111.63868993223
20
8.71202191666387
30
0
0
SPLINE
5
1FC
100
AcDbEntity
8
1
62
256
6
ByLayer
370
-1
48
1
60
0
100
AcDbSpline
70
4
71
3
72
19
73
15
40
0
40
0
40
0
40
0
40
0.0403657336154065
40
0.10630033064848
40
0.172234927681554
40
0.238169524714628
40
0.370038718780775
40
0.501907912846922
40
0.765646300979217
40
0.831580898012291
40
0.897515495045365
40
0.930482793561902
40
0.963450092078439
40
1
40
1
40
1
40
1
41
1
10
106.406595993796
20
9.08555870391291
30
0
41
1
10
106.405474008883
20
9.0855178524364
30
0
41
1
10
106.402519677686
20
9.08540741771222
30
0
41
1
10
106.39773433465
20
9.08520744597664
30
0
41
1
10
106.392239095373
20
9.0849347364346
30
0
41
1
10
106.384913659741
20
9.08451765080687
30
0
41
1
10
106.375761417269
20
9.08390339867606
30
0
41
1
10
106.36113164757
20
9.08271892748942
30
0
41
1
10
106.348354126224
20
9.08141324355475
30
0
41
1
10
106.337425288609
20
9.08010988257837
30
0
41
1
10
106.332876440983
20
9.07953359972785
30
0
41
1
10
106.329240832186
20
9.07905113484679
30
0
41
1
10
106.326416636509
20
9.07866692929625
30
0
41
1
10
106.324501479699
20
9.07840102938295
30
0
41
1
10
106.323494603508
20
9.07826035013971
30
0
0
SPLINE
5
1FD
100
AcDbEntity
8
1
62
256
6
ByLayer
370
-1
48
1
60
0
100
AcDbSpline
70
4
71
3
72
23
73
19
40
0
40
0
40
0
40
0
40
0.036549907921725
40
0.0695172064382539
40
0.102484504954783
40
0.135451803471311
40
0.16841910198784
40
0.234353699020898
40
0.300288296053941
40
0.366222893087013
40
0.498092087153129
40
0.629961281219236
40
0.761830475285359
40
0.827765072318413
40
0.893699669351474
40
0.926666967868003
40
0.959634266384532
40
1
40
1
40
1
40
1
41
1
10
111.80443128495
20
3.94768080439346
30
0
41
1
10
111.80450085135
20
3.94869887790733
30
0
41
1
10
111.804631499594
20
3.95063521549955
30
0
41
1
10
111.804816304851
20
3.95349009409227
30
0
41
1
10
111.80498569304
20
3.95624579006085
30
0
41
1
10
111.805144307728
20
3.95900247532489
30
0
41
1
10
111.805341942439
20
3.96267922007615
30
0
41
1
10
111.805563976306
20
3.9672770442736
30
0
41
1
10
111.805793480479
20
3.97279653455547
30
0
41
1
10
111.806049728876
20
3.9801581836067
30
0
41
1
10
111.806275791159
20
3.98936372434122
30
0
41
1
10
111.806393217487
20
4.00041310238848
30
0
41
1
10
111.806365213448
20
4.00962077343965
30
0
41
1
10
111.806268703247
20
4.01698537291182
30
0
41
1
10
111.806175104503
20
4.02158688640748
30
0
41
1
10
111.806078816407
20
4.02526684813685
30
0
41
1
10
111.805991424206
20
4.02823294509673
30
0
41
1
10
111.805924964383
20
4.03027915502398
30
0
41
1
10
111.805887295563
20
4.0314055318531
30
0
0
SPLINE
5
1FE
100
AcDbEntity
8
1
62
256
6
ByLayer
370
-1
48
1
60
0
100
AcDbSpline
70
4
71
3
72
153
73
149
40
0
40
0
40
0
40
0
40
0.125
40
0.25
40
0.375
40
0.3828125
40
0.390625
40
0.398193359375
40
0.4019775390625
40
0.405643463134766
40
0.40576171875
40
0.406005859375
40
0.40625
40
0.4072265625
40
0.40771484375
40
0.408203125
40
0.4091796875
40
0.41015625
40
0.412109375
40
0.4140625
40
0.416015625
40
0.4169921875
40
0.41796875
40
0.4189453125
40
0.41943359375
40
0.419921875
40
0.42041015625
40
0.4208984375
40
0.421875
40
0.422119140625
40
0.42236328125
40
0.422477722167969
40
0.426025390625
40
0.4296875
40
0.4375
40
0.439453125
40
0.44140625
40
0.443359375
40
0.4443359375
40
0.4453125
40
0.445556640625
40
0.44580078125
40
0.446044921875
40
0.4462890625
40
0.4464111328125
40
0.44677734375
40
0.447265625
40
0.44921875
40
0.453125
40
0.4609375
40
0.46484375
40
0.46875
40
0.46923828125
40
0.4697265625
40
0.47021484375
40
0.4705810546875
40
0.470703125
40
0.4708251953125
40
0.47119140625
40
0.471435546875
40
0.4716796875
40
0.4718017578125
40
0.47216796875
40
0.472412109375
40
0.47265625
40
0.4727783203125
40
0.474609375
40
0.4755859375
40
0.4765625
40
0.48046875
40
0.482421875
40
0.484375
40
0.486328125
40
0.48828125
40
0.490234375
40
0.4921875
40
0.494140625
40
0.49609375
40
0.498046875
40
0.5
40
0.501953125
40
0.50390625
40
0.505859375
40
0.5078125
40
0.509765625
40
0.51171875
40
0.515625
40
0.51953125
40
0.5224609375
40
0.5234375
40
0.525390625
40
0.5263671875
40
0.527099609375
40
0.52734375
40
0.52783203125
40
0.528076171875
40
0.5283203125
40
0.5284423828125
40
0.52880859375
40
0.529052734375
40
0.529296875
40
0.5294189453125
40
0.52978515625
40
0.5302734375
40
0.53125
40
0.5390625
40
0.546875
40
0.55078125
40
0.5517578125
40
0.552734375
40
0.55322265625
40
0.5537109375
40
0.553955078125
40
0.55419921875
40
0.554443359375
40
0.5545654296875
40
0.5546875
40
0.556640625
40
0.55859375
40
0.5625
40
0.56640625
40
0.5703125
40
0.573974609375
40
0.5758056640625
40
0.57763671875
40
0.577880859375
40
0.578125
40
0.5791015625
40
0.57958984375
40
0.580078125
40
0.5810546875
40
0.58203125
40
0.5859375
40
0.587890625
40
0.58984375
40
0.5908203125
40
0.591796875
40
0.5927734375
40
0.59375
40
0.593994140625
40
0.59423828125
40
0.594380187988281
40
0.601806640625
40
0.609375
40
0.625
40
0.75
40
0.875
40
1
40
1
40
1
40
1
41
1
10
108.855486924835
20
4.10618128826778
30
0
41
1
10
108.682062716853
20
4.10010204813247
30
0
41
1
10
108.335214300888
20
4.0879435678618
30
0
41
1
10
107.814941676941
20
4.06970584745582
30
0
41
1
10
107.457254247977
20
4.05716741467671
30
0
41
1
10
107.262152013997
20
4.05032826952447
30
0
41
1
10
107.229973694157
20
4.04920028551498
30
0
41
1
10
107.203384240394
20
4.04826821451766
30
0
41
1
10
107.1825477198
20
4.04753780776679
30
0
41
1
10
107.172047425957
20
4.04716972877421
30
0
41
1
10
107.16645855988
20
4.04697381576204
30
0
41
1
10
107.165617054476
20
4.04694431749601
30
0
41
1
10
107.163584739539
20
4.04687307640066
30
0
41
1
10
107.161213705445
20
4.04678996178944
30
0
41
1
10
107.158503952195
20
4.04669497366234
30
0
41
1
10
107.155794198946
20
4.04659998553521
30
0
41
1
10
107.152407007383
20
4.04648125037633
30
0
41
1
10
107.146987500884
20
4.0462912741221
30
0
41
1
10
107.14021311776
20
4.04605380380431
30
0
41
1
10
107.13208385801
20
4.04576883942295
30
0
41
1
10
107.125309474886
20
4.04553136910516
30
0
41
1
10
107.119889968387
20
4.04534139285096
30
0
41
1
10
107.115825338512
20
4.04519891066028
30
0
41
1
10
107.11243814695
20
4.04508017550137
30
0
41
1
10
107.1097283937
20
4.04498518737427
30
0
41
1
10
107.107696078763
20
4.04491394627894
30
0
41
1
10
107.105663763826
20
4.04484270518358
30
0
41
1
10
107.102954010576
20
4.04474771705648
30
0
41
1
10
107.100582976482
20
4.04466460244527
30
0
41
1
10
107.098550661545
20
4.04459336134991
30
0
41
1
10
107.097714448628
20
4.04456404860755
30
0
41
1
10
107.092294942129
20
4.04437407235335
30
0
41
1
10
107.082133367442
20
4.04401786687666
30
0
41
1
10
107.061291554361
20
4.04328727460211
30
0
41
1
10
107.04266200077
20
4.04263423122819
30
0
41
1
10
107.026403481271
20
4.04206430246549
30
0
41
1
10
107.01827402403
20
4.04177932427928
30
0
41
1
10
107.011499147174
20
4.04154181944929
30
0
41
1
10
107.006078949452
20
4.04135179487798
30
0
41
1
10
107.003029958628
20
4.0412448969972
30
0
41
1
10
107.000997236363
20
4.04117362742929
30
0
41
1
10
106.999980862501
20
4.04113799175559
30
0
41
1
10
106.998964475525
20
4.04110235516512
30
0
41
1
10
106.998117475128
20
4.04107265722001
30
0
41
1
10
106.997101064236
20
4.04103701895789
30
0
41
1
10
106.995745830942
20
4.04098949996288
30
0
41
1
10
106.991849436894
20
4.04085287597894
30
0
41
1
10
106.983039529581
20
4.04054394023657
30
0
41
1
10
106.96406019726
20
4.03987825027366
30
0
41
1
10
106.94235689224
20
4.03911657823247
30
0
41
1
10
106.920686425165
20
4.03835720159046
30
0
41
1
10
106.909193672938
20
4.03795515863547
30
0
41
1
10
106.902442408038
20
4.03771930430037
30
0
41
1
10
106.900414981037
20
4.03764840487574
30
0
41
1
10
106.898552191626
20
4.03758311213826
30
0
41
1
10
106.897187825767
20
4.03753495476954
30
0
41
1
10
106.896329826356
20
4.03750448798445
30
0
41
1
10
106.895468885132
20
4.0374738155642
30
0
41
1
10
106.894433955965
20
4.03743693038771
30
0
41
1
10
106.893246929399
20
4.03739560026298
30
0
41
1
10
106.892419472921
20
4.03736774373576
30
0
41
1
10
106.891452793802
20
4.03733643727273
30
0
41
1
10
106.890516232763
20
4.03730835470196
30
0
41
1
10
106.88944603319
20
4.03728202308471
30
0
41
1
10
106.888686258345
20
4.03726754886114
30
0
41
1
10
106.885941552565
20
4.0372289229546
30
0
41
1
10
106.882215738519
20
4.03727345929201
30
0
41
1
10
106.87732111233
20
4.03751405478889
30
0
41
1
10
106.869677331917
20
4.03808650947647
30
0
41
1
10
106.860638377223
20
4.03934543079828
30
0
41
1
10
106.850249007996
20
4.04165104986211
30
0
41
1
10
106.842454187624
20
4.04382775474667
30
0
41
1
10
106.834683347991
20
4.04646601488523
30
0
41
1
10
106.826981005565
20
4.0495654002637
30
0
41
1
10
106.819391676812
20
4.05312548086818
30
0
41
1
10
106.811954711592
20
4.05713928729799
30
0
41
1
10
106.804709459763
20
4.06159985015262
30
0
41
1
10
106.797694424448
20
4.06649052737257
30
0
41
1
10
106.790948108773
20
4.07179467689838
30
0
41
1
10
106.784504699716
20
4.07748699730368
30
0
41
1
10
106.778398384255
20
4.08354218716215
30
0
41
1
10
106.772656690901
20
4.08992777744029
30
0
41
1
10
106.767307148168
20
4.09661129910469
30
0
41
1
10
106.762368980242
20
4.10355535699722
30
0
41
1
10
106.757861411313
20
4.1107225559598
30
0
41
1
10
106.752438345903
20
4.12052445228622
30
0
41
1
10
106.746784366006
20
4.13314008643039
30
0
41
1
10
106.742240676925
20
4.14722338794675
30
0
41
1
10
106.739946012929
20
4.15746724965862
30
0
41
1
10
106.738639638268
20
4.1651090837716
30
0
41
1
10
106.737973006161
20
4.1701761607371
30
0
41
1
10
106.737537537569
20
4.17485640448592
30
0
41
1
10
106.73736392906
20
4.17732380943255
30
0
41
1
10
106.737258753832
20
4.17915983344355
30
0
41
1
10
106.737201135777
20
4.18037621477444
30
0
41
1
10
106.737150134757
20
4.1816240490914
30
0
41
1
10
106.737119790859
20
4.18242519421344
30
0
41
1
10
106.737083653921
20
4.18341302110312
30
0
41
1
10
106.737047838937
20
4.18443082146615
30
0
41
1
10
106.737006324371
20
4.18563879281515
30
0
41
1
10
106.736976748989
20
4.18650453717496
30
0
41
1
10
106.736941260073
20
4.18753810204399
30
0
41
1
10
106.736893943974
20
4.18890770262493
30
0
41
1
10
106.736805231538
20
4.19145757247986
30
0
41
1
10
106.736355768221
20
4.2043319180149
30
0
41
1
10
106.735551447265
20
4.22743301822516
30
0
41
1
10
106.734605171375
20
4.25466585518492
30
0
41
1
10
106.733990095037
20
4.27235686541434
30
0
41
1
10
106.733706214082
20
4.28052045660758
30
0
41
1
10
106.733587930417
20
4.28392172523027
30
0
41
1
10
106.733493303521
20
4.28664261592417
30
0
41
1
10
106.733434161725
20
4.28834312344367
30
0
41
1
10
106.733386848296
20
4.28970350151332
30
0
41
1
10
106.733351363228
20
4.29072377148071
30
0
41
1
10
106.733321792342
20
4.2915739854563
30
0
41
1
10
106.733298135635
20
4.29225415023245
30
0
41
1
10
106.733191680457
20
4.29531487280352
30
0
41
1
10
106.732996512716
20
4.30092590718965
30
0
41
1
10
106.732618005811
20
4.31180711836461
30
0
41
1
10
106.732144872468
20
4.3254076386992
30
0
41
1
10
106.731577112457
20
4.34172826310072
30
0
41
1
10
106.731021180778
20
4.35770887449388
30
0
41
1
10
106.730565789936
20
4.37079937531595
30
0
41
1
10
106.730210939928
20
4.38099976556691
30
0
41
1
10
106.730021686591
20
4.38643997370073
30
0
41
1
10
106.729909317422
20
4.3896700972802
30
0
41
1
10
106.729838347421
20
4.39171017533039
30
0
41
1
10
106.729755549086
20
4.39409026638896
30
0
41
1
10
106.729660922417
20
4.39681037045588
30
0
41
1
10
106.729566295749
20
4.39953047452281
30
0
41
1
10
106.729448012413
20
4.40293060460644
30
0
41
1
10
106.729164132407
20
4.41109091680721
30
0
41
1
10
106.728832939067
20
4.42061128104143
30
0
41
1
10
106.728454432392
20
4.43149169730913
30
0
41
1
10
106.728217865721
20
4.43829195747642
30
0
41
1
10
106.728028612384
20
4.44373216561027
30
0
41
1
10
106.727886672381
20
4.44781232171064
30
0
41
1
10
106.727744732378
20
4.45189247781101
30
0
41
1
10
106.727638277376
20
4.45495259488629
30
0
41
1
10
106.727567307374
20
4.45699267293651
30
0
41
1
10
106.727536775488
20
4.45787033151433
30
0
41
1
10
106.727158268814
20
4.46875074778202
30
0
41
1
10
106.726424912132
20
4.48983155430065
30
0
41
1
10
106.72494141732
20
4.53247556079356
30
0
41
1
10
106.717761618839
20
4.73886345687114
30
0
41
1
10
106.704892391908
20
5.10879760997236
30
0
41
1
10
106.686724071534
20
5.63105759082114
30
0
41
1
10
106.674611857952
20
5.97923091138699
30
0
41
1
10
106.66855575116
20
6.1533175716699
30
0
0
SPLINE
5
1FF
100
AcDbEntity
8
1
62
256
6
ByLayer
370
-1
48
1
60
0
100
AcDbSpline
70
4
71
3
72
14
73
10
40
0
40
0
40
0
40
0
40
0.0050966481374643
40
0.024006521778015
40
0.0435263913424547
40
0.0630462609068944
40
0.37536417393793
40
0.687682086968965
40
1
40
1
40
1
40
1
41
1
10
110.950285019678
20
9.24483560492294
30
0
41
1
10
110.946456010217
20
9.24470135128374
30
0
41
1
10
110.928420396701
20
9.24406901324321
30
0
41
1
10
110.895719930902
20
9.24292272584515
30
0
41
1
10
110.852183601058
20
9.24139659632255
30
0
41
1
10
110.588215959056
20
9.2321434320593
30
0
41
1
10
110.104275282052
20
9.21517929757664
30
0
41
1
10
109.400361570047
20
9.19050419287461
30
0
41
1
10
108.931085762043
20
9.17405412307326
30
0
41
1
10
108.696447858041
20
9.16582908817259
30
0
0
SPLINE
5
200
100
AcDbEntity
8
1
62
256
6
ByLayer
370
-1
48
1
60
0
100
AcDbSpline
70
4
71
3
72
13
73
9
40
0
40
0
40
0
40
0
40
0.312317913031033
40
0.624635826062066
40
0.9369537390931
40
0.975993478221979
40
0.99490335186253
40
1
40
1
40
1
40
1
41
1
10
111.725925444777
20
6.3300043661998
30
0
41
1
10
111.717731708617
20
6.56553854887645
30
0
41
1
10
111.701344236298
20
7.03660691422974
30
0
41
1
10
111.676763027819
20
7.74320946225967
30
0
41
1
10
111.659351338479
20
8.24371960044755
30
0
41
1
10
111.649637280181
20
8.52295641467552
30
0
41
1
10
111.647983246243
20
8.57050267735835
30
0
41
1
10
111.647353542763
20
8.58860719199208
30
0
41
1
10
111.647219861538
20
8.59245082980385
30
0
0
SPLINE
5
201
100
AcDbEntity
8
1
62
256
6
ByLayer
370
-1
48
1
60
0
100
AcDbSpline
70
4
71
3
72
23
73
19
40
0
40
0
40
0
40
0
40
0.036549907921643
40
0.0695172064381722
40
0.102484504954701
40
0.135451803471231
40
0.16841910198776
40
0.234353699020818
40
0.300288296053862
40
0.366222893086935
40
0.498092087153052
40
0.629961281219161
40
0.761830475285285
40
0.82776507231834
40
0.893699669351402
40
0.926666967867931
40
0.959634266384461
40
1
40
1
40
1
40
1
41
1
10
111.069705959452
20
9.24463480790135
30
0
41
1
10
111.068691760015
20
9.2447046400338
30
0
41
1
10
111.066762790772
20
9.2448357873329
30
0
41
1
10
111.063918775854
20
9.24502129851578
30
0
41
1
10
111.061173566141
20
9.24519133374037
30
0
41
1
10
111.058427370896
20
9.2453505543109
30
0
41
1
10
111.054764617269
20
9.24554894395442
30
0
41
1
10
111.050184289181
20
9.24577182595434
30
0
41
1
10
111.044685802226
20
9.24600220679613
30
0
41
1
10
111.037352166472
20
9.24625943401975
30
0
41
1
10
111.028181655599
20
9.24648635982422
30
0
41
1
10
111.017174323771
20
9.24660423470183
30
0
41
1
10
111.008001690688
20
9.24657612369171
30
0
41
1
10
111.00066511574
20
9.24647924483773
30
0
41
1
10
110.996081112393
20
9.2463852885613
30
0
41
1
10
110.992415154029
20
9.24628863266042
30
0
41
1
10
110.989460343963
20
9.24620090663632
30
0
41
1
10
110.987421920483
20
9.24613419294758
30
0
41
1
10
110.986299829857
20
9.24609638023853
30
0
0
SPLINE
5
202
100
AcDbEntity
8
1
62
256
6
ByLayer
370
-1
48
1
60
0
100
AcDbSpline
70
4
71
3
72
8
73
4
40
0
40
0
40
0
40
0
40
1
40
1
40
1
40
1
41
1
10
105.792708577124
20
8.3872258477393
30
0
41
1
10
105.792289357967
20
8.39927657036
30
0
41
1
10
105.791891982721
20
8.41132805870069
30
0
41
1
10
105.79151645402
20
8.42338023295912
30
0
0
SPLINE
5
203
100
AcDbEntity
8
1
62
256
6
ByLayer
370
-1
48
1
60
0
100
AcDbSpline
70
4
71
3
72
48
73
44
40
0
40
0
40
0
40
0
40
0.015625
40
0.0234375
40
0.02734375
40
0.029296875
40
0.0302734375
40
0.03125
40
0.03173828125
40
0.046875
40
0.0625
40
0.125
40
0.1875
40
0.25
40
0.3125
40
0.375
40
0.390625
40
0.40625
40
0.4140625
40
0.421875
40
0.4375
40
0.5
40
0.5625
40
0.59375
40
0.6015625
40
0.60546875
40
0.609375
40
0.6171875
40
0.625
40
0.65625
40
0.671875
40
0.6796875
40
0.6875
40
0.71875
40
0.75
40
0.78125
40
0.7890625
40
0.79296875
40
0.796875
40
0.8046875
40
0.8125
40
0.875
40
1
40
1
40
1
40
1
41
1
10
106.66855575116
20
6.1533175716699
30
0
41
1
10
106.664063685863
20
6.15316010608905
30
0
41
1
10
106.65728399705
20
6.15291959009164
30
0
41
1
10
106.649975976836
20
6.15265513932547
30
0
41
1
10
106.646542342044
20
6.15252952232936
30
0
41
1
10
106.644894738147
20
6.15246888899432
30
0
41
1
10
106.643963526331
20
6.15243451793316
30
0
41
1
10
106.643381510736
20
6.15241302282328
30
0
41
1
10
106.639411652674
20
6.15226645566028
30
0
41
1
10
106.631939346431
20
6.15199057664765
30
0
41
1
10
106.609639182486
20
6.1511672502194
30
0
41
1
10
106.576013804392
20
6.14992579466266
30
0
41
1
10
106.531179966932
20
6.14827052058698
30
0
41
1
10
106.486346129472
20
6.14661524651132
30
0
41
1
10
106.441512292013
20
6.14495997243566
30
0
41
1
10
106.407896361655
20
6.14371885594164
30
0
41
1
10
106.385460547452
20
6.14289054077835
30
0
41
1
10
106.376121739271
20
6.14254574852305
30
0
41
1
10
106.368680925483
20
6.1422709997195
30
0
41
1
10
106.361168001643
20
6.14199421556407
30
0
41
1
10
106.340095567297
20
6.14122017453218
30
0
41
1
10
106.303544273095
20
6.13989028134077
30
0
41
1
10
106.260311744748
20
6.13833900998773
30
0
41
1
10
106.231567942441
20
6.13731745360818
30
0
41
1
10
106.219324440433
20
6.13688398279828
30
0
41
1
10
106.214889017161
20
6.13672713106263
30
0
41
1
10
106.210420811922
20
6.13656925142689
30
0
41
1
10
106.204798143994
20
6.13637064616833
30
0
41
1
10
106.19132239314
20
6.13589461992265
30
0
41
1
10
106.175604231396
20
6.13533937059358
30
0
41
1
10
106.159875301689
20
6.13478377334627
30
0
41
1
10
106.15090515729
20
6.13446686483047
30
0
41
1
10
106.137418939779
20
6.13399117633355
30
0
41
1
10
106.117009021672
20
6.1332739698461
30
0
41
1
10
106.089606833949
20
6.13231678747272
30
0
41
1
10
106.069064027936
20
6.13160353104004
30
0
41
1
10
106.056561539208
20
6.13117104697466
30
0
41
1
10
106.052028010439
20
6.13101442118969
30
0
41
1
10
106.047489734118
20
6.13085773321512
30
0
41
1
10
106.041808088703
20
6.13066160242659
30
0
41
1
10
106.019088917582
20
6.12987730733164
30
0
41
1
10
105.962290989779
20
6.12791656959431
30
0
41
1
10
105.907764979088
20
6.12603426136644
30
0
41
1
10
105.871414305295
20
6.12477938921452
30
0
0
SPLINE
5
204
100
AcDbEntity
8
1
62
256
6
ByLayer
370
-1
48
1
60
0
100
AcDbSpline
70
4
71
3
72
23
73
19
40
0
40
0
40
0
40
0
40
0.036549907921742
40
0.0695172064382692
40
0.102484504954796
40
0.135451803471324
40
0.168419101987851
40
0.234353699020905
40
0.300288296053945
40
0.366222893087014
40
0.498092087153123
40
0.629961281219224
40
0.761830475285341
40
0.827765072318392
40
0.89369966935145
40
0.926666967867977
40
0.959634266384504
40
1
40
1
40
1
40
1
41
1
10
105.792908465121
20
8.50710295102087
30
0
41
1
10
105.792838898721
20
8.50608487750702
30
0
41
1
10
105.792708250477
20
8.50414853991478
30
0
41
1
10
105.79252344522
20
8.50129366132208
30
0
41
1
10
105.792354057031
20
8.49853796535348
30
0
41
1
10
105.792195442343
20
8.49578128008946
30
0
41
1
10
105.791997807632
20
8.4921045353382
30
0
41
1
10
105.791775773765
20
8.48750671114075
30
0
41
1
10
105.791546269592
20
8.48198722085888
30
0
41
1
10
105.791290021196
20
8.47462557180765
30
0
41
1
10
105.791063958913
20
8.46542003107311
30
0
41
1
10
105.790946532585
20
8.45437065302588
30
0
41
1
10
105.790974536624
20
8.4451629819747
30
0
41
1
10
105.791071046824
20
8.43779838250251
30
0
41
1
10
105.791164645569
20
8.43319686900685
30
0
41
1
10
105.791260933665
20
8.4295169072775
30
0
41
1
10
105.791348325865
20
8.42655081031759
30
0
41
1
10
105.791414785688
20
8.42450460039035
30
0
41
1
10
105.791452454508
20
8.42337822356123
30
0
0
SPLINE
5
205
100
AcDbEntity
8
1
62
256
6
ByLayer
370
-1
48
1
60
0
100
AcDbSpline
70
4
71
3
72
8
73
4
40
0
40
0
40
0
40
0
40
1
40
1
40
1
40
1
41
1
10
105.951443224217
20
3.82618302363548
30
0
41
1
10
105.950980318527
20
3.83823217373333
30
0
41
1
10
105.95053925397
20
3.85028216934907
30
0
41
1
10
105.950120033465
20
3.86233293068977
30
0
0
SPLINE
5
206
100
AcDbEntity
8
1
62
256
6
ByLayer
370
-1
48
1
60
0
100
AcDbSpline
70
4
71
3
72
153
73
149
40
0
40
0
40
0
40
0
40
0.125
40
0.25
40
0.375
40
0.3828125
40
0.390625
40
0.398193359375
40
0.4019775390625
40
0.405643463134766
40
0.40576171875
40
0.406005859375
40
0.40625
40
0.4072265625
40
0.40771484375
40
0.408203125
40
0.4091796875
40
0.41015625
40
0.412109375
40
0.4140625
40
0.416015625
40
0.4169921875
40
0.41796875
40
0.4189453125
40
0.41943359375
40
0.419921875
40
0.42041015625
40
0.4208984375
40
0.421875
40
0.422119140625
40
0.42236328125
40
0.422477722167969
40
0.426025390625
40
0.4296875
40
0.4375
40
0.439453125
40
0.44140625
40
0.443359375
40
0.4443359375
40
0.4453125
40
0.445556640625
40
0.44580078125
40
0.446044921875
40
0.4462890625
40
0.4464111328125
40
0.44677734375
40
0.447265625
40
0.44921875
40
0.453125
40
0.4609375
40
0.46484375
40
0.46875
40
0.46923828125
40
0.4697265625
40
0.47021484375
40
0.4705810546875
40
0.470703125
40
0.4708251953125
40
0.47119140625
40
0.471435546875
40
0.4716796875
40
0.4718017578125
40
0.47216796875
40
0.472412109375
40
0.47265625
40
0.4727783203125
40
0.474609375
40
0.4755859375
40
0.4765625
40
0.48046875
40
0.482421875
40
0.484375
40
0.486328125
40
0.48828125
40
0.490234375
40
0.4921875
40
0.494140625
40
0.49609375
40
0.498046875
40
0.5
40
0.501953125
40
0.50390625
40
0.505859375
40
0.5078125
40
0.509765625
40
0.51171875
40
0.515625
40
0.51953125
40
0.5224609375
40
0.5234375
40
0.525390625
40
0.5263671875
40
0.527099609375
40
0.52734375
40
0.52783203125
40
0.528076171875
40
0.5283203125
40
0.5284423828125
40
0.52880859375
40
0.529052734375
40
0.529296875
40
0.5294189453125
40
0.52978515625
40
0.5302734375
40
0.53125
40
0.5390625
40
0.546875
40
0.55078125
40
0.5517578125
40
0.552734375
40
0.55322265625
40
0.5537109375
40
0.553955078125
40
0.55419921875
40
0.554443359375
40
0.5545654296875
40
0.5546875
40
0.556640625
40
0.55859375
40
0.5625
40
0.56640625
40
0.5703125
40
0.573974609375
40
0.5758056640625
40
0.57763671875
40
0.577880859375
40
0.578125
40
0.5791015625
40
0.57958984375
40
0.580078125
40
0.5810546875
40
0.58203125
40
0.5859375
40
0.587890625
40
0.58984375
40
0.5908203125
40
0.591796875
40
0.5927734375
40
0.59375
40
0.593994140625
40
0.59423828125
40
0.594380187988281
40
0.601806640625
40
0.609375
40
0.625
40
0.75
40
0.875
40
1
40
1
40
1
40
1
41
1
10
108.707902062957
20
8.34860246714658
30
0
41
1
10
108.881326270939
20
8.35468170728191
30
0
41
1
10
109.228174686904
20
8.36684018755253
30
0
41
1
10
109.748447310851
20
8.38507790795853
30
0
41
1
10
110.106134739814
20
8.39761634073764
30
0
41
1
10
110.301236973795
20
8.40445548588988
30
0
41
1
10
110.333415293635
20
8.40558346989937
30
0
41
1
10
110.360004747398
20
8.40651554089666
30
0
41
1
10
110.380841267992
20
8.40724594764757
30
0
41
1
10
110.391341561835
20
8.40761402664012
30
0
41
1
10
110.396930427912
20
8.40780993965231
30
0
41
1
10
110.397771933316
20
8.40783943791834
30
0
41
1
10
110.399804248253
20
8.40791067901367
30
0
41
1
10
110.402175282347
20
8.40799379362491
30
0
41
1
10
110.404885035596
20
8.40808878175201
30
0
41
1
10
110.407594788846
20
8.40818376987912
30
0
41
1
10
110.410981980408
20
8.40830250503802
30
0
41
1
10
110.416401486908
20
8.40849248129226
30
0
41
1
10
110.423175870032
20
8.40872995161004
30
0
41
1
10
110.431305129781
20
8.40901491599138
30
0
41
1
10
110.438079512906
20
8.40925238630916
30
0
41
1
10
110.443499019405
20
8.4094423625634
30
0
41
1
10
110.44756364928
20
8.40958484475408
30
0
41
1
10
110.450950840842
20
8.40970357991296
30
0
41
1
10
110.453660594092
20
8.40979856804009
30
0
41
1
10
110.455692909029
20
8.40986980913542
30
0
41
1
10
110.457725223966
20
8.40994105023074
30
0
41
1
10
110.460434977216
20
8.41003603835787
30
0
41
1
10
110.462806011309
20
8.41011915296909
30
0
41
1
10
110.464838326247
20
8.41019039406441
30
0
41
1
10
110.465674539164
20
8.41021970680677
30
0
41
1
10
110.471094045663
20
8.410409683061
30
0
41
1
10
110.481255620349
20
8.41076588853767
30
0
41
1
10
110.50209743343
20
8.41149648081225
30
0
41
1
10
110.520726987022
20
8.41214952418616
30
0
41
1
10
110.53698550652
20
8.41271945294883
30
0
41
1
10
110.545114963762
20
8.41300443113508
30
0
41
1
10
110.551889840617
20
8.41324193596503
30
0
41
1
10
110.55731003834
20
8.41343196053634
30
0
41
1
10
110.560359029163
20
8.41353885841716
30
0
41
1
10
110.562391751429
20
8.41361012798504
30
0
41
1
10
110.56340812529
20
8.41364576365876
30
0
41
1
10
110.564424512267
20
8.4136814002492
30
0
41
1
10
110.565271512664
20
8.41371109819431
30
0
41
1
10
110.566287923556
20
8.41374673645646
30
0
41
1
10
110.56764315685
20
8.41379425545148
30
0
41
1
10
110.571539550898
20
8.41393087943538
30
0
41
1
10
110.580349458211
20
8.41423981517775
30
0
41
1
10
110.599328790531
20
8.41490550514069
30
0
41
1
10
110.621032095552
20
8.41566717718186
30
0
41
1
10
110.642702562626
20
8.41642655382387
30
0
41
1
10
110.654195314854
20
8.41682859677886
30
0
41
1
10
110.660946579754
20
8.41706445111399
30
0
41
1
10
110.662974006755
20
8.41713535053859
30
0
41
1
10
110.664836796166
20
8.41720064327606
30
0
41
1
10
110.666201162025
20
8.41724880064479
30
0
41
1
10
110.667059161435
20
8.41727926742988
30
0
41
1
10
110.667920102659
20
8.41730993985013
30
0
41
1
10
110.668955031827
20
8.41734682502664
30
0
41
1
10
110.670142058392
20
8.41738815515137
30
0
41
1
10
110.670969514871
20
8.4174160116786
30
0
41
1
10
110.671936193989
20
8.4174473181416
30
0
41
1
10
110.672872755028
20
8.41747540071239
30
0
41
1
10
110.673942954602
20
8.41750173232964
30
0
41
1
10
110.674702729447
20
8.41751620655322
30
0
41
1
10
110.677447435227
20
8.41755483245976
30
0
41
1
10
110.681173249272
20
8.41751029612232
30
0
41
1
10
110.686067875461
20
8.41726970062544
30
0
41
1
10
110.693711655875
20
8.41669724593788
30
0
41
1
10
110.702750610569
20
8.41543832461605
30
0
41
1
10
110.713139979796
20
8.41313270555224
30
0
41
1
10
110.720934800168
20
8.41095600066765
30
0
41
1
10
110.728705639801
20
8.40831774052913
30
0
41
1
10
110.736407982227
20
8.40521835515062
30
0
41
1
10
110.743997310979
20
8.40165827454618
30
0
41
1
10
110.7514342762
20
8.39764446811634
30
0
41
1
10
110.758679528029
20
8.39318390526174
30
0
41
1
10
110.765694563343
20
8.38829322804176
30
0
41
1
10
110.772440879019
20
8.38298907851595
30
0
41
1
10
110.778884288076
20
8.37729675811065
30
0
41
1
10
110.784990603537
20
8.3712415682522
30
0
41
1
10
110.79073229689
20
8.36485597797406
30
0
41
1
10
110.796081839624
20
8.35817245630966
30
0
41
1
10
110.801020007549
20
8.35122839841713
30
0
41
1
10
110.805527576478
20
8.34406119945456
30
0
41
1
10
110.810950641889
20
8.33425930312814
30
0
41
1
10
110.816604621786
20
8.32164366898394
30
0
41
1
10
110.821148310867
20
8.3075603674676
30
0
41
1
10
110.823442974863
20
8.2973165057557
30
0
41
1
10
110.824749349523
20
8.28967467164273
30
0
41
1
10
110.825415981631
20
8.28460759467725
30
0
41
1
10
110.825851450222
20
8.2799273509284
30
0
41
1
10
110.826025058732
20
8.2774599459818
30
0
41
1
10
110.82613023396
20
8.27562392197078
30
0
41
1
10
110.826187852015
20
8.27440754063991
30
0
41
1
10
110.826238853034
20
8.27315970632293
30
0
41
1
10
110.826269196933
20
8.27235856120092
30
0
41
1
10
110.826305333871
20
8.27137073431123
30
0
41
1
10
110.826341148854
20
8.2703529339482
30
0
41
1
10
110.826382663421
20
8.2691449625992
30
0
41
1
10
110.826412238803
20
8.26827921823937
30
0
41
1
10
110.826447727719
20
8.26724565337037
30
0
41
1
10
110.826495043818
20
8.26587605278939
30
0
41
1
10
110.826583756253
20
8.26332618293446
30
0
41
1
10
110.827033219571
20
8.25045183739945
30
0
41
1
10
110.827837540527
20
8.2273507371892
30
0
41
1
10
110.828783816417
20
8.2001179002294
30
0
41
1
10
110.829398892754
20
8.18242688999999
30
0
41
1
10
110.829682773709
20
8.17426329880678
30
0
41
1
10
110.829801057375
20
8.17086203018405
30
0
41
1
10
110.829895684271
20
8.16814113949016
30
0
41
1
10
110.829954826067
20
8.16644063197066
30
0
41
1
10
110.830002139496
20
8.16508025390101
30
0
41
1
10
110.830037624563
20
8.16405998393364
30
0
41
1
10
110.83006719545
20
8.16320976995806
30
0
41
1
10
110.830090852157
20
8.16252960518187
30
0
41
1
10
110.830197307335
20
8.15946888261081
30
0
41
1
10
110.830392475076
20
8.15385784822467
30
0
41
1
10
110.83077098198
20
8.14297663704974
30
0
41
1
10
110.831244115323
20
8.12937611671512
30
0
41
1
10
110.831811875335
20
8.11305549231361
30
0
41
1
10
110.832367807013
20
8.09707488092045
30
0
41
1
10
110.832823197856
20
8.0839843800984
30
0
41
1
10
110.833178047863
20
8.07378398984744
30
0
41
1
10
110.8333673012
20
8.06834378171359
30
0
41
1
10
110.833479670369
20
8.06511365813412
30
0
41
1
10
110.833550640371
20
8.06307358008394
30
0
41
1
10
110.833633438706
20
8.0606934890254
30
0
41
1
10
110.833728065375
20
8.05797338495847
30
0
41
1
10
110.833822692043
20
8.05525328089155
30
0
41
1
10
110.833940975379
20
8.05185315080789
30
0
41
1
10
110.834224855385
20
8.04369283860714
30
0
41
1
10
110.834556048725
20
8.03417247437292
30
0
41
1
10
110.834934555399
20
8.02329205810523
30
0
41
1
10
110.835171122071
20
8.01649179793793
30
0
41
1
10
110.835360375408
20
8.01105158980408
30
0
41
1
10
110.835502315411
20
8.00697143370371
30
0
41
1
10
110.835644255414
20
8.00289127760331
30
0
41
1
10
110.835750710416
20
7.99983116052803
30
0
41
1
10
110.835821680418
20
7.99779108247785
30
0
41
1
10
110.835852212304
20
7.9969134239
30
0
41
1
10
110.836230718978
20
7.98603300763233
30
0
41
1
10
110.83696407566
20
7.96495220111368
30
0
41
1
10
110.838447570472
20
7.9223081946208
30
0
41
1
10
110.845627368953
20
7.71592029854318
30
0
41
1
10
110.858496595884
20
7.34598614544197
30
0
41
1
10
110.876664916258
20
6.82372616459321
30
0
41
1
10
110.88877712984
20
6.47555284402736
30
0
41
1
10
110.894833236631
20
6.30146618374442
30
0
0
SPLINE
5
207
100
AcDbEntity
8
1
62
256
6
ByLayer
370
-1
48
1
60
0
100
AcDbSpline
70
4
71
3
72
48
73
44
40
0
40
0
40
0
40
0
40
0.125
40
0.1875
40
0.1953125
40
0.203125
40
0.20703125
40
0.2109375
40
0.21875
40
0.25
40
0.28125
40
0.3125
40
0.3203125
40
0.328125
40
0.34375
40
0.375
40
0.3828125
40
0.390625
40
0.39453125
40
0.3984375
40
0.40625
40
0.4375
40
0.5
40
0.5625
40
0.578125
40
0.5859375
40
0.59375
40
0.609375
40
0.625
40
0.6875
40
0.75
40
0.8125
40
0.875
40
0.9375
40
0.953125
40
0.96826171875
40
0.96875
40
0.9697265625
40
0.970703125
40
0.97265625
40
0.9765625
40
0.984375
40
1
40
1
40
1
40
1
41
1
10
108.696447858042
20
9.16582908817261
30
0
41
1
10
108.698250534944
20
9.12989425139304
30
0
41
1
10
108.700954550296
20
9.07599199622365
30
0
41
1
10
108.703771232955
20
9.01984381375553
30
0
41
1
10
108.704897906019
20
8.99738454076831
30
0
41
1
10
108.705179857239
20
8.99176808983097
30
0
41
1
10
108.705404342989
20
8.98728113330506
30
0
41
1
10
108.705625793333
20
8.98279595765618
30
0
41
1
10
108.706221524767
20
8.97041123441846
30
0
41
1
10
108.707127604455
20
8.94998624255717
30
0
41
1
10
108.708177519071
20
8.92257612567494
30
0
41
1
10
108.708841961545
20
8.90203801904423
30
0
41
1
10
108.709231956713
20
8.88841608276277
30
0
41
1
10
108.70947726456
20
8.87934101023697
30
0
41
1
10
108.709909997006
20
8.86343078673951
30
0
41
1
10
108.710341540056
20
8.84753052631694
30
0
41
1
10
108.710711769976
20
8.83389891817612
30
0
41
1
10
108.710866618855
20
8.82821160768884
30
0
41
1
10
108.710988225792
20
8.82369052645177
30
0
41
1
10
108.711105349971
20
8.81919888042191
30
0
41
1
10
108.711414928535
20
8.80678590051892
30
0
41
1
10
108.712034171242
20
8.77753235329104
30
0
41
1
10
108.712558509913
20
8.73310975391527
30
0
41
1
10
108.712496396308
20
8.69502659564671
30
0
41
1
10
108.712258638118
20
8.67286096060639
30
0
41
1
10
108.712151392742
20
8.66493489942616
30
0
41
1
10
108.712028072768
20
8.65706712309895
30
0
41
1
10
108.711874374684
20
8.64719356474592
30
0
41
1
10
108.71150577041
20
8.62347372193219
30
0
41
1
10
108.710952412117
20
8.58793279565566
30
0
41
1
10
108.710214751688
20
8.54053194797228
30
0
41
1
10
108.709477091258
20
8.49313110028888
30
0
41
1
10
108.708739430828
20
8.4457302526055
30
0
41
1
10
108.708186185506
20
8.41017961684295
30
0
41
1
10
108.707819276282
20
8.38660263270876
30
0
41
1
10
108.707696332877
20
8.37870249142819
30
0
41
1
10
108.70763103733
20
8.3745053570255
30
0
41
1
10
108.707621269142
20
8.37388981761447
30
0
41
1
10
108.707606208214
20
8.3729055592012
30
0
41
1
10
108.707584510368
20
8.37116924766229
30
0
41
1
10
108.707559772461
20
8.36757204754437
30
0
41
1
10
108.707587175097
20
8.35999916842391
30
0
41
1
10
108.70774519658
20
8.35311169140309
30
0
41
1
10
108.707902062957
20
8.34860246714658
30
0
0
SPLINE
5
208
100
AcDbEntity
8
1
62
256
6
ByLayer
370
-1
48
1
60
0
100
AcDbSpline
70
4
71
3
72
13
73
9
40
0
40
0
40
0
40
0
40
0.312317913031033
40
0.624635826062066
40
0.936953739093099
40
0.975993478221978
40
0.994903351862529
40
1
40
1
40
1
40
1
41
1
10
105.871414305295
20
6.12477938921452
30
0
41
1
10
105.879608041454
20
5.88924520653788
30
0
41
1
10
105.895995513774
20
5.41817684118459
30
0
41
1
10
105.920576722253
20
4.71157429315465
30
0
41
1
10
105.937988411592
20
4.21106415496681
30
0
41
1
10
105.947702469891
20
3.93182734073881
30
0
41
1
10
105.949356503829
20
3.88428107805601
30
0
41
1
10
105.949986207309
20
3.86617656342224
30
0
41
1
10
105.950119888533
20
3.8623329256105
30
0
0
SPLINE
5
209
100
AcDbEntity
8
1
62
256
6
ByLayer
370
-1
48
1
60
0
100
AcDbSpline
70
4
71
3
72
8
73
4
40
0
40
0
40
0
40
0
40
1
40
1
40
1
40
1
41
1
10
110.95028502474
20
9.24483545943815
30
0
41
1
10
110.962289890723
20
9.24525627994498
30
0
41
1
10
110.974295519512
20
9.24565517309927
30
0
41
1
10
110.986301831609
20
9.24603213625957
30
0
0
SPLINE
5
20A
100
AcDbEntity
8
1
62
256
6
ByLayer
370
-1
48
1
60
0
100
AcDbSpline
70
4
71
3
72
22
73
18
40
0
40
0
40
0
40
0
40
0.0178234039225819
40
0.0278216291116969
40
0.0378198543008119
40
0.112806543219174
40
0.187793232137537
40
0.337766609974262
40
0.497738213000102
40
0.657709816025942
40
0.817681419051783
40
0.897667220564703
40
0.977653022077623
40
0.98265213467218
40
0.987651247266738
40
0.997649472455853
40
1
40
1
40
1
40
1
41
1
10
111.273845146564
20
3.37652340527461
30
0
41
1
10
111.274654635439
20
3.37663650585577
30
0
41
1
10
111.27591816355
20
3.37681393686503
30
0
41
1
10
111.277635826419
20
3.37705600553096
30
0
41
1
10
111.281949727821
20
3.37766473669819
30
0
41
1
10
111.28921524146
20
3.37868990470815
30
0
41
1
10
111.30283806834
20
3.38061193731889
30
0
41
1
10
111.320320681803
20
3.38307834382914
30
0
41
1
10
111.341663093043
20
3.38608928164686
30
0
41
1
10
111.36345959814
20
3.38916428197135
30
0
41
1
10
111.381623352387
20
3.39172678224173
30
0
41
1
10
111.396204906281
20
3.39378558783724
30
0
41
1
10
111.403677375128
20
3.39483912150649
30
0
41
1
10
111.407721488867
20
3.39540824077025
30
0
41
1
10
111.408617381347
20
3.39553441142334
30
0
41
1
10
111.409388405543
20
3.39564327719103
30
0
41
1
10
111.409930604779
20
3.39572018621576
30
0
41
1
10
111.410033581736
20
3.39573480889342
30
0
0
SPLINE
5
20B
100
AcDbEntity
8
1
62
256
6
ByLayer
370
-1
48
1
60
0
100
AcDbSpline
70
4
71
3
72
79
73
75
40
0
40
0
40
0
40
0
40
0.0017245864916194
40
0.0039792263717468
40
0.0084885061320016
40
0.0129977858922565
40
0.0220163454127661
40
0.0310349049332758
40
0.0671091430153144
40
0.139257619179392
40
0.211406095343469
40
0.220424654863979
40
0.224933934624233
40
0.228315894444424
40
0.229443214384488
40
0.231697854264616
40
0.233952494144743
40
0.237334453964934
40
0.238461773904998
40
0.240716413785125
40
0.242971053665253
40
0.247480333425508
40
0.249734973305635
40
0.256498892946017
40
0.265517452466527
40
0.283554571507546
40
0.292573131028056
40
0.319628809589585
40
0.355703047671623
40
0.391777285753662
40
0.409814404794682
40
0.427851523835701
40
0.44588864287672
40
0.463925761917739
40
0.481962880958759
40
0.499999999999778
40
0.518037119040797
40
0.536074238081817
40
0.554111357122835
40
0.572148476163855
40
0.590185595204874
40
0.608222714245894
40
0.626259833286912
40
0.644296952327933
40
0.662334071368952
40
0.680371190409972
40
0.71644542849201
40
0.725463988012518
40
0.73448254753303
40
0.751392346633984
40
0.752519666574048
40
0.754774306454176
40
0.757028946334303
40
0.760410906154497
40
0.761538226094558
40
0.763792865974688
40
0.766047505854812
40
0.769429465675006
40
0.770556785615068
40
0.77168410555513
40
0.775066065375324
40
0.779575345135577
40
0.784084624895832
40
0.788593904656087
40
0.824668142738126
40
0.860742380820164
40
0.932890856984242
40
0.96896509506628
40
0.9870022141073
40
0.991511493867555
40
0.994893453687745
40
0.996020773627809
40
0.998275413507937
40
1
40
1
40
1
40
1
41
1
10
105.977788116269
20
3.60605318588051
30
0
41
1
10
105.977835511703
20
3.60571685929798
30
0
41
1
10
105.977944465759
20
3.60494642957167
30
0
41
1
10
105.978176691722
20
3.60332559649152
30
0
41
1
10
105.978489949104
20
3.60120977058116
30
0
41
1
10
105.979007327391
20
3.59785458925023
30
0
41
1
10
105.979695280025
20
3.59362672255145
30
0
41
1
10
105.981473392217
20
3.58342372787817
30
0
41
1
10
105.985987432815
20
3.56129675857008
30
0
41
1
10
105.995491053335
20
3.52702322198704
30
0
41
1
10
106.006582759171
20
3.49810755332109
30
0
41
1
10
106.013740813891
20
3.48215876749157
30
0
41
1
10
106.015185089484
20
3.47901850408792
30
0
41
1
10
106.015965159569
20
3.47734613339128
30
0
41
1
10
106.016554404297
20
3.47609293038045
30
0
41
1
10
106.017048060953
20
3.47504927284078
30
0
41
1
10
106.017744067101
20
3.47358944241981
30
0
41
1
10
106.018345876812
20
3.47233956717045
30
0
41
1
10
106.018951869481
20
3.47109084911398
30
0
41
1
10
106.019459477001
20
3.47005098039955
30
0
41
1
10
106.020277221709
20
3.46838877447087
30
0
41
1
10
106.021103320826
20
3.46672898565444
30
0
41
1
10
106.022354987308
20
3.46424305136998
30
0
41
1
10
106.024046117556
20
3.46093524668157
30
0
41
1
10
106.027289846213
20
3.45475641987983
30
0
41
1
10
106.030882757577
20
3.44821091958426
30
0
41
1
10
106.036470642106
20
3.43846843097668
30
0
41
1
10
106.04427185334
20
3.42562005959036
30
0
41
1
10
106.055826351085
20
3.408344301245
30
0
41
1
10
106.067168311022
20
3.39311429996903
30
0
41
1
10
106.076722762022
20
3.38125424801842
30
0
41
1
10
106.084123581897
20
3.37253088582054
30
0
41
1
10
106.091753923499
20
3.36398890261782
30
0
41
1
10
106.099606408534
20
3.35563677921297
30
0
41
1
10
106.107673658711
20
3.34748299640881
30
0
41
1
10
106.115948295735
20
3.33953603500814
30
0
41
1
10
106.124422941315
20
3.33180437581373
30
0
41
1
10
106.133088652815
20
3.32429481566956
30
0
41
1
10
106.141936487603
20
3.31701415141964
30
0
41
1
10
106.150957503042
20
3.30996917990799
30
0
41
1
10
106.1601427565
20
3.30316669797858
30
0
41
1
10
106.169482225347
20
3.29661149624238
30
0
41
1
10
106.178965886954
20
3.29030836531032
30
0
41
1
10
106.188583718691
20
3.28426209579334
30
0
41
1
10
106.198325697929
20
3.27847747830236
30
0
41
1
10
106.211466458553
20
3.27111700711438
30
0
41
1
10
106.223144935274
20
3.26514362812921
30
0
41
1
10
106.233257461193
20
3.26036371440134
30
0
41
1
10
106.239813220531
20
3.25736462454347
30
0
41
1
10
106.244914301667
20
3.2551406949006
30
0
41
1
10
106.248751645502
20
3.25352392854438
30
0
41
1
10
106.24981816859
20
3.2530774927217
30
0
41
1
10
106.251312386165
20
3.2524574600132
30
0
41
1
10
106.252594281133
20
3.25193133747007
30
0
41
1
10
106.253877054872
20
3.25140948348519
30
0
41
1
10
106.254946575789
20
3.25097727328569
30
0
41
1
10
106.256444894293
20
3.25037716051585
30
0
41
1
10
106.257730201455
20
3.24986811656242
30
0
41
1
10
106.258801954473
20
3.2494474733042
30
0
41
1
10
106.259874035061
20
3.24902861024563
30
0
41
1
10
106.261590398512
20
3.2483641265718
30
0
41
1
10
106.263952788513
20
3.24746417464874
30
0
41
1
10
106.266532756679
20
3.24649951277249
30
0
41
1
10
106.275141486617
20
3.24334100928027
30
0
41
1
10
106.289839725426
20
3.23840805722145
30
0
41
1
10
106.317614315097
20
3.23056648258563
30
0
41
1
10
106.345392621954
20
3.22486577620276
30
0
41
1
10
106.369412269015
20
3.22166004956071
30
0
41
1
10
106.380524351235
20
3.22056824332577
30
0
41
1
10
106.385369247164
20
3.22015993029382
30
0
41
1
10
106.387067039109
20
3.22002591075565
30
0
41
1
10
106.388352582748
20
3.21992847871161
30
0
41
1
10
106.389331318006
20
3.21985660055108
30
0
41
1
10
106.390104546679
20
3.21980123918939
30
0
41
1
10
106.390442083419
20
3.2197772395636
30
0
0
SPLINE
5
20C
100
AcDbEntity
8
SK1
62
256
6
ByLayer
370
-1
48
1
60
0
100
AcDbSpline
70
4
71
3
72
8
73
4
40
0
40
0
40
0
40
0
40
1
40
1
40
1
40
1
41
1
10
-52.6000000000004
20
-6.99849805315466
30
0
41
1
10
-52.9473802440142
20
-6.78469639798683
30
0
41
1
10
-53.292222119692
20
-6.56578790669792
30
0
41
1
10
-53.6338144512151
20
-6.34034179467449
30
0
0
SPLINE
5
20D
100
AcDbEntity
8
SK1
62
256
6
ByLayer
370
-1
48
1
60
0
100
AcDbSpline
70
4
71
3
72
20
73
16
40
0
40
0
40
0
40
0
40
0.125000000000007
40
0.125000000000007
40
0.250000000000015
40
0.250000000000015
40
0.312500000000018
40
0.312500000000018
40
0.375000000000022
40
0.375000000000022
40
0.500000000000012
40
0.500000000000012
40
0.750000000000006
40
0.750000000000006
40
1
40
1
40
1
40
1
41
1
10
-53.6338144512145
20
-6.34034179467375
30
0
41
1
10
-53.6736405326374
20
-6.31405714368671
30
0
41
1
10
-53.7174596238937
20
-6.2918915268643
30
0
41
1
10
-53.8100286430817
20
-6.26230917234659
30
0
41
1
10
-53.858409060093
20
-6.25510537770515
30
0
41
1
10
-53.930507607687
20
-6.25719119578449
30
0
41
1
10
-53.9548847131618
20
-6.26004287846277
30
0
41
1
10
-54.0024268232708
20
-6.26975628298462
30
0
41
1
10
-54.025531470073
20
-6.27654559824734
30
0
41
1
10
-54.0930893921825
20
-6.30200607369946
30
0
41
1
10
-54.136092797726
20
-6.32609087475549
30
0
41
1
10
-54.2534188607808
20
-6.41013429612562
30
0
41
1
10
-54.3194596979378
20
-6.48308041368765
30
0
41
1
10
-54.4306544823114
20
-6.63915672058906
30
0
41
1
10
-54.4771151388184
20
-6.72418194167685
30
0
41
1
10
-54.5162227297291
20
-6.81204395564961
30
0
0
SPLINE
5
20E
100
AcDbEntity
8
SK1
62
256
6
ByLayer
370
-1
48
1
60
0
100
AcDbSpline
70
4
71
3
72
8
73
4
40
0
40
0
40
0
40
0
40
1
40
1
40
1
40
1
41
1
10
-54.516222729729
20
-6.81204395564961
30
0
41
1
10
-54.5439393896427
20
-6.87431425928901
30
0
41
1
10
-54.5718676648179
20
-6.93646419260506
30
0
41
1
10
-54.6
20
-6.99849805315392
30
0
0
SPLINE
5
20F
100
AcDbEntity
8
SK1
62
256
6
ByLayer
370
-1
48
1
60
0
100
AcDbSpline
70
4
71
3
72
8
73
4
40
0
40
0
40
0
40
0
40
1
40
1
40
1
40
1
41
1
10
-53.6338144512151
20
6.34034179467457
30
0
41
1
10
-53.2922221196919
20
6.56578790669803
30
0
41
1
10
-52.9473802440142
20
6.78469639798695
30
0
41
1
10
-52.6000000000004
20
6.99849805315478
30
0
0
SPLINE
5
210
100
AcDbEntity
8
SK1
62
256
6
ByLayer
370
-1
48
1
60
0
100
AcDbSpline
70
4
71
3
72
68
73
64
40
0
40
0
40
0
40
0
40
0.015625
40
0.015625
40
0.0312499999999999
40
0.0312499999999999
40
0.0468749999999999
40
0.0468749999999999
40
0.0624999999999998
40
0.0624999999999998
40
0.0781249999999998
40
0.0781249999999998
40
0.0937499999999997
40
0.0937499999999997
40
0.125
40
0.125
40
0.15625
40
0.15625
40
0.1875
40
0.1875
40
0.25
40
0.25
40
0.28125
40
0.28125
40
0.3125
40
0.3125
40
0.375
40
0.375
40
0.4375
40
0.4375
40
0.46875
40
0.46875
40
0.5
40
0.5
40
0.5625
40
0.5625
40
0.625
40
0.625
40
0.6875
40
0.6875
40
0.75
40
0.75
40
0.8125
40
0.8125
40
0.84375
40
0.84375
40
0.859375
40
0.859375
40
0.875
40
0.875
40
0.90625
40
0.90625
40
0.921875
40
0.921875
40
0.9375
40
0.9375
40
0.953125
40
0.953125
40
0.96875
40
0.96875
40
0.984375
40
0.984375
40
1
40
1
40
1
40
1
41
1
10
-6.5
20
-6.99849805315398
30
0
41
1
10
-6.4096424095903
20
-6.99849805315398
30
0
41
1
10
-6.31887533751086
20
-6.9924669932976
30
0
41
1
10
-6.13726564177031
20
-6.96792032412691
30
0
41
1
10
-6.04880117468585
20
-6.94974705973743
30
0
41
1
10
-5.87614107362342
20
-6.90252164638767
30
0
41
1
10
-5.79194795071362
20
-6.87346297167917
30
0
41
1
10
-5.62761370230606
20
-6.80484072991021
30
0
41
1
10
-5.54890965383427
20
-6.76585529638666
30
0
41
1
10
-5.39867973784189
20
-6.68016521734489
30
0
41
1
10
-5.32694157755157
20
-6.63336290342139
30
0
41
1
10
-5.18947718430641
20
-6.53250060019133
30
0
41
1
10
-5.12348684568531
20
-6.47818603126365
30
0
41
1
10
-4.93566988154686
20
-6.30674027670506
30
0
41
1
10
-4.82518003213681
20
-6.18267595320251
30
0
41
1
10
-4.62603001440084
20
-5.91868980815966
30
0
41
1
10
-4.53721391214785
20
-5.77825879287735
30
0
41
1
10
-4.37814656673874
20
-5.48542007115435
30
0
41
1
10
-4.30877871567313
20
-5.33483042069352
30
0
41
1
10
-4.12354082750574
20
-4.87237000918773
30
0
41
1
10
-4.03020120532329
20
-4.54989217457512
30
0
41
1
10
-3.91807144557504
20
-4.04887624586692
30
0
41
1
10
-3.88552668802802
20
-3.87909831441809
30
0
41
1
10
-3.82866773565829
20
-3.53847076026688
30
0
41
1
10
-3.80422767364425
20
-3.36705941807358
30
0
41
1
10
-3.74020579920568
20
-2.84975913582008
30
0
41
1
10
-3.70977205452269
20
-2.5008195214777
30
0
41
1
10
-3.66416163751657
20
-1.79552608157809
30
0
41
1
10
-3.64903771748126
20
-1.43916908464092
30
0
41
1
10
-3.63426182330713
20
-0.899256752194447
30
0
41
1
10
-3.63068669313998
20
-0.718167674817778
30
0
41
1
10
-3.62598899859142
20
-0.357375695924361
30
0
41
1
10
-3.62485343662013
20
-0.177302953433326
30
0
41
1
10
-3.62488496014578
20
0.361962578325034
30
0
41
1
10
-3.62938260517049
20
0.720207066315254
30
0
41
1
10
-3.64887950283875
20
1.43414621185846
30
0
41
1
10
-3.66385562324439
20
1.78984138878459
30
0
41
1
10
-3.70956223321124
20
2.49851694715909
30
0
41
1
10
-3.74045671775656
20
2.85271919963691
30
0
41
1
10
-3.82645737175278
20
3.54573152185978
30
0
41
1
10
-3.88145968550236
20
3.88575414429386
30
0
41
1
10
-4.03051920995767
20
4.55084385300148
30
0
41
1
10
-4.12523349261875
20
4.87761469840365
30
0
41
1
10
-4.31105593218689
20
5.33999328729007
30
0
41
1
10
-4.38041029850672
20
5.4899128326384
30
0
41
1
10
-4.49888437250004
20
5.70752713951083
30
0
41
1
10
-4.54079549132547
20
5.77885043055693
30
0
41
1
10
-4.63023926406612
20
5.91883578995851
30
0
41
1
10
-4.67776791395602
20
5.98743717509882
30
0
41
1
10
-4.82792587490127
20
6.18597359029033
30
0
41
1
10
-4.93858588995937
20
6.30966494075429
30
0
41
1
10
-5.12522766477915
20
6.47964028567972
30
0
41
1
10
-5.19131964832849
20
6.53397024553271
30
0
41
1
10
-5.32929892448178
20
6.63497116118225
30
0
41
1
10
-5.40112275258878
20
6.68167605293547
30
0
41
1
10
-5.55102867370906
20
6.76694298534821
30
0
41
1
10
-5.62910582891868
20
6.80551115138627
30
0
41
1
10
-5.79238720600742
20
6.87359848794483
30
0
41
1
10
-5.87738605118548
20
6.90291103819595
30
0
41
1
10
-6.04966564042599
20
6.94993403370722
30
0
41
1
10
-6.13756051826556
20
6.96792637087054
30
0
41
1
10
-6.31709499624006
20
6.99225989008042
30
0
41
1
10
-6.40924253974518
20
6.99849805315398
30
0
41
1
10
-6.5
20
6.99849805315398
30
0
0
SPLINE
5
211
100
AcDbEntity
8
SK1
62
256
6
ByLayer
370
-1
48
1
60
0
100
AcDbSpline
70
4
71
3
72
8
73
4
40
0
40
0
40
0
40
0
40
1
40
1
40
1
40
1
41
1
10
-55
20
-6.99849805315392
30
0
41
1
10
-55.3648529633576
20
-6.34700451336727
30
0
41
1
10
-55.7026345426883
20
-5.68249326840734
30
0
41
1
10
-56
20
-4.99854728896301
30
0
0
SPLINE
5
212
100
AcDbEntity
8
SK1
62
256
6
ByLayer
370
-1
48
1
60
0
100
AcDbSpline
70
4
71
3
72
8
73
4
40
0
40
0
40
0
40
0
40
1
40
1
40
1
40
1
41
1
10
-56.0000000000001
20
4.99854728896315
30
0
41
1
10
-55.7019755215914
20
5.68400902895925
30
0
41
1
10
-55.3641473109835
20
6.34826454962635
30
0
41
1
10
-55
20
6.99849805315404
30
0
0
SPLINE
5
213
100
AcDbEntity
8
SK1
62
256
6
ByLayer
370
-1
48
1
60
0
100
AcDbSpline
70
4
71
3
72
8
73
4
40
0
40
0
40
0
40
0
40
1
40
1
40
1
40
1
41
1
10
-54.6
20
6.99849805315404
30
0
41
1
10
-54.5718676648179
20
6.93646419260517
30
0
41
1
10
-54.5439393896427
20
6.87431425928909
30
0
41
1
10
-54.516222729729
20
6.81204395564973
30
0
0
SPLINE
5
214
100
AcDbEntity
8
SK1
62
256
6
ByLayer
370
-1
48
1
60
0
100
AcDbSpline
70
4
71
3
72
20
73
16
40
0
40
0
40
0
40
0
40
0.25
40
0.25
40
0.375
40
0.375
40
0.5
40
0.5
40
0.625
40
0.625
40
0.75
40
0.75
40
0.875
40
0.875
40
1
40
1
40
1
40
1
41
1
10
-54.5162227297291
20
6.81204395564973
30
0
41
1
10
-54.4772709483907
20
6.72453199501689
30
0
41
1
10
-54.4306845518237
20
6.63914767831511
30
0
41
1
10
-54.3469265709005
20
6.52165950363116
30
0
41
1
10
-54.3163253277688
20
6.4838456686486
30
0
41
1
10
-54.2501041764424
20
6.41421731653315
30
0
41
1
10
-54.2145625265326
20
6.38236090680323
30
0
41
1
10
-54.1369222939179
20
6.32662557921188
30
0
41
1
10
-54.0940013611407
20
6.30244517653043
30
0
41
1
10
-54.0037548865671
20
6.26824500575401
30
0
41
1
10
-53.9556146989167
20
6.25796898452336
30
0
41
1
10
-53.8582046255659
20
6.25504848254033
30
0
41
1
10
-53.8099490429816
20
6.26234710426348
30
0
41
1
10
-53.7177558858445
20
6.29178438547694
30
0
41
1
10
-53.6739857261288
20
6.31382932086129
30
0
41
1
10
-53.6338144512151
20
6.3403417946746
30
0
0
LINE
5
45
100
AcDbEntity
8
80
62
256
6
ByLayer
370
-1
48
1
60
0
100
AcDbLine
10
0
20
0
30
0
11
-7
21
0
31
0
39
0
210
0
220
0
230
1
0
LINE
5
46
100
AcDbEntity
8
81
62
256
6
ByLayer
370
-1
48
1
60
0
100
AcDbLine
10
112
20
0
30
0
11
119
21
0
31
0
39
0
210
0
220
0
230
1
0
LINE
5
47
100
AcDbEntity
8
1
62
256
6
ByLayer
370
-1
48
1
60
0
100
AcDbLine
10
0.2
20
16
30
0
11
0
21
15.8
31
0
39
0
210
0
220
0
230
1
0
LINE
5
49
100
AcDbEntity
8
1
62
256
6
ByLayer
370
-1
48
1
60
0
100
AcDbLine
10
0
20
-15.8
30
0
11
0.2
21
-16
31
0
39
0
210
0
220
0
230
1
0
LINE
5
4A
100
AcDbEntity
8
1
62
256
6
ByLayer
370
-1
48
1
60
0
100
AcDbLine
10
5
20
16
30
0
11
0.2
21
16
31
0
39
0
210
0
220
0
230
1
0
LINE
5
4B
100
AcDbEntity
8
1
62
256
6
ByLayer
370
-1
48
1
60
0
100
AcDbLine
10
0.2
20
-16
30
0
11
5
21
-16
31
0
39
0
210
0
220
0
230
1
0
LINE
5
4C
100
AcDbEntity
8
1
62
256
6
ByLayer
370
-1
48
1
60
0
100
AcDbLine
10
51.667193
20
8.997324
30
0
11
21
21
9.115
31
0
39
0
210
0
220
0
230
1
0
LINE
5
4D
100
AcDbEntity
8
1
62
256
6
ByLayer
370
-1
48
1
60
0
100
AcDbLine
10
21
20
9.115
30
0
11
16
21
9.115
31
0
39
0
210
0
220
0
230
1
0
LINE
5
4E
100
AcDbEntity
8
1
62
256
6
ByLayer
370
-1
48
1
60
0
100
AcDbLine
10
16
20
-9.115
30
0
11
21
21
-9.115
31
0
39
0
210
0
220
0
230
1
0
LINE
5
4F
100
AcDbEntity
8
1
62
256
6
ByLayer
370
-1
48
1
60
0
100
AcDbLine
10
21
20
-9.115
30
0
11
35.609389
21
-9.058941
31
0
39
0
210
0
220
0
230
1
0
LINE
5
50
100
AcDbEntity
8
1
62
256
6
ByLayer
370
-1
48
1
60
0
100
AcDbLine
10
105.556554
20
8.95
30
0
11
102.983953
21
8.95
31
0
39
0
210
0
220
0
230
1
0
LINE
5
51
100
AcDbEntity
8
SK1
62
256
6
ByLayer
370
-1
48
1
60
0
100
AcDbLine
10
-2
20
-12.49675
30
0
11
-1.551212
21
-12.287477
31
0
39
0
210
0
220
0
230
1
0
LINE
5
53
100
AcDbEntity
8
SK1
62
256
6
ByLayer
370
-1
48
1
60
0
100
AcDbLine
10
-1.551212
20
12.287477
30
0
11
-2
21
12.49675
31
0
39
0
210
0
220
0
230
1
0
LINE
5
54
100
AcDbEntity
8
SK1
62
256
6
ByLayer
370
-1
48
1
60
0
100
AcDbLine
10
-2
20
12.49675
30
0
11
-52.6
21
12.49675
31
0
39
0
210
0
220
0
230
1
0
LINE
5
55
100
AcDbEntity
8
SK1
62
256
6
ByLayer
370
-1
48
1
60
0
100
AcDbLine
10
-52.6
20
-12.49675
30
0
11
-2
21
-12.49675
31
0
39
0
210
0
220
0
230
1
0
LINE
5
56
100
AcDbEntity
8
SK1
62
256
6
ByLayer
370
-1
48
1
60
0
100
AcDbLine
10
-0.15
20
12.25
30
0
11
-1.382165
21
12.25
31
0
39
0
210
0
220
0
230
1
0
LINE
5
57
100
AcDbEntity
8
SK1
62
256
6
ByLayer
370
-1
48
1
60
0
100
AcDbLine
10
-1.382165
20
-12.25
30
0
11
-0.15
21
-12.25
31
0
39
0
210
0
220
0
230
1
0
LINE
5
58
100
AcDbEntity
8
SK1
62
256
6
ByLayer
370
-1
48
1
60
0
100
AcDbLine
10
-54.6
20
12.49675
30
0
11
-55
21
12.49675
31
0
39
0
210
0
220
0
230
1
0
LINE
5
59
100
AcDbEntity
8
SK1
62
256
6
ByLayer
370
-1
48
1
60
0
100
AcDbLine
10
-55
20
-12.49675
30
0
11
-54.6
21
-12.49675
31
0
39
0
210
0
220
0
230
1
0
LINE
5
5A
100
AcDbEntity
8
SK1
62
256
6
ByLayer
370
-1
48
1
60
0
100
AcDbLine
10
-55
20
12.49675
30
0
11
-56
21
11.49675
31
0
39
0
210
0
220
0
230
1
0
LINE
5
5B
100
AcDbEntity
8
SK1
62
256
6
ByLayer
370
-1
48
1
60
0
100
AcDbLine
10
-56
20
-11.49675
30
0
11
-55
21
-12.49675
31
0
39
0
210
0
220
0
230
1
0
LINE
5
5C
100
AcDbEntity
8
SK1
62
256
6
ByLayer
370
-1
48
1
60
0
100
AcDbLine
10
-54.6
20
-12.49675
30
0
11
-54.516223
21
-12.393294
31
0
39
0
210
0
220
0
230
1
0
LINE
5
5D
100
AcDbEntity
8
SK1
62
256
6
ByLayer
370
-1
48
1
60
0
100
AcDbLine
10
-54.516223
20
12.393294
30
0
11
-54.6
21
12.49675
31
0
39
0
210
0
220
0
230
1
0
LINE
5
5E
100
AcDbEntity
8
SK1
62
256
6
ByLayer
370
-1
48
1
60
0
100
AcDbLine
10
-52.6
20
12.49675
30
0
11
-53.633814
21
12.140417
31
0
39
0
210
0
220
0
230
1
0
LINE
5
5F
100
AcDbEntity
8
SK1
62
256
6
ByLayer
370
-1
48
1
60
0
100
AcDbLine
10
-53.633814
20
-12.140417
30
0
11
-52.6
21
-12.49675
31
0
39
0
210
0
220
0
230
1
0
LINE
5
60
100
AcDbEntity
8
SK4
62
256
6
ByLayer
370
-1
48
0.05
60
0
100
AcDbLine
10
112
20
0
30
0
11
-56
21
0
31
0
39
0
210
0
220
0
230
1
0
LINE
5
62
100
AcDbEntity
8
4
62
256
6
ByLayer
370
-1
48
0.05
60
0
100
AcDbLine
10
112
20
0
30
0
11
0
21
0
31
0
39
0
210
0
220
0
230
1
0
LINE
5
64
100
AcDbEntity
8
1
62
256
6
ByLayer
370
-1
48
1
60
0
100
AcDbLine
10
111.035344
20
0.510141
30
0
11
111.142134
21
3.307664
31
0
39
0
210
0
220
0
230
1
0
LINE
5
65
100
AcDbEntity
8
1
62
256
6
ByLayer
370
-1
48
1
60
0
100
AcDbLine
10
111.188684
20
-4.530908
30
0
11
111.194807
21
-4.461964
31
0
39
0
210
0
220
0
230
1
0
LINE
5
66
100
AcDbEntity
8
1
62
256
6
ByLayer
370
-1
48
1
60
0
100
AcDbLine
10
111.194807
20
-4.461964
30
0
11
110.961165
21
-0.017558
31
0
39
0
210
0
220
0
230
1
0
LINE
5
67
100
AcDbEntity
8
1
62
256
6
ByLayer
370
-1
48
1
60
0
100
AcDbLine
10
105.37947
20
3.757308
30
0
11
105.081059
21
3.746848
31
0
39
0
210
0
220
0
230
1
0
LINE
5
68
100
AcDbEntity
8
1
62
256
6
ByLayer
370
-1
48
1
60
0
100
AcDbLine
10
0.2
20
16
30
0
11
0.2
21
-16
31
0
39
0
210
0
220
0
230
1
0
LINE
5
69
100
AcDbEntity
8
1
62
256
6
ByLayer
370
-1
48
1
60
0
100
AcDbLine
10
110.990959
20
0.532844
30
0
11
111.002118
21
0.532456
31
0
39
0
210
0
220
0
230
1
0
LINE
5
6A
100
AcDbEntity
8
1
62
256
6
ByLayer
370
-1
48
1
60
0
100
AcDbLine
10
16
20
9.115
30
0
11
16
21
3.751898
31
0
39
0
210
0
220
0
230
1
0
LINE
5
6B
100
AcDbEntity
8
1
62
256
6
ByLayer
370
-1
48
1
60
0
100
AcDbLine
10
99.49122
20
5.03
30
0
11
101.761282
21
5.03
31
0
39
0
210
0
220
0
230
1
0
LINE
5
6C
100
AcDbEntity
8
1
62
256
6
ByLayer
370
-1
48
1
60
0
100
AcDbLine
10
21
20
-9.115
30
0
11
21
21
-8.665967
31
0
39
0
210
0
220
0
230
1
0
LINE
5
6D
100
AcDbEntity
8
1
62
256
6
ByLayer
370
-1
48
1
60
0
100
AcDbLine
10
103.947099
20
5.563213
30
0
11
103.947099
21
8.947621
31
0
39
0
210
0
220
0
230
1
0
LINE
5
6E
100
AcDbEntity
8
1
62
256
6
ByLayer
370
-1
48
1
60
0
100
AcDbLine
10
105.609185
20
6.18251
30
0
11
105.636509
21
6.18251
31
0
39
0
210
0
220
0
230
1
0
LINE
5
6F
100
AcDbEntity
8
1
62
256
6
ByLayer
370
-1
48
1
60
0
100
AcDbLine
10
105.857302
20
2.977602
30
0
11
105.90259
21
2.977602
31
0
39
0
210
0
220
0
230
1
0
LINE
5
70
100
AcDbEntity
8
1
62
256
6
ByLayer
370
-1
48
1
60
0
100
AcDbLine
10
111.002118
20
0.532456
30
0
11
111.035344
21
0.510141
31
0
39
0
210
0
220
0
230
1
0
LINE
5
71
100
AcDbEntity
8
1
62
256
6
ByLayer
370
-1
48
1
60
0
100
AcDbLine
10
0
20
15.8
30
0
11
0
21
-15.8
31
0
39
0
210
0
220
0
230
1
0
LINE
5
72
100
AcDbEntity
8
1
62
256
6
ByLayer
370
-1
48
1
60
0
100
AcDbLine
10
101.902426
20
2.116919
30
0
11
101.733389
21
1.5354
31
0
39
0
210
0
220
0
230
1
0
LINE
5
73
100
AcDbEntity
8
1
62
256
6
ByLayer
370
-1
48
1
60
0
100
AcDbLine
10
103.947099
20
5.563213
30
0
11
101.631699
21
5.884474
31
0
39
0
210
0
220
0
230
1
0
LINE
5
74
100
AcDbEntity
8
1
62
256
6
ByLayer
370
-1
48
1
60
0
100
AcDbLine
10
105.857302
20
2.977602
30
0
11
105.04888
21
2.949264
31
0
39
0
210
0
220
0
230
1
0
LINE
5
75
100
AcDbEntity
8
1
62
256
6
ByLayer
370
-1
48
1
60
0
100
AcDbLine
10
111.184136
20
-8.940478
30
0
11
111.508607
21
-5.28674
31
0
39
0
210
0
220
0
230
1
0
LINE
5
76
100
AcDbEntity
8
1
62
256
6
ByLayer
370
-1
48
1
60
0
100
AcDbLine
10
110.957091
20
0.077198
30
0
11
110.19124
21
0.527235
31
0
39
0
210
0
220
0
230
1
0
LINE
5
77
100
AcDbEntity
8
1
62
256
6
ByLayer
370
-1
48
1
60
0
100
AcDbLine
10
110.623724
20
3.122678
30
0
11
110.773223
21
3.122678
31
0
39
0
210
0
220
0
230
1
0
LINE
5
78
100
AcDbEntity
8
1
62
256
6
ByLayer
370
-1
48
1
60
0
100
AcDbLine
10
111.194807
20
-4.461964
30
0
11
110.594733
21
-4.109344
31
0
39
0
210
0
220
0
230
1
0
LINE
5
79
100
AcDbEntity
8
1
62
256
6
ByLayer
370
-1
48
1
60
0
100
AcDbLine
10
105.496186
20
5.257735
30
0
11
105.537037
21
4.083451
31
0
39
0
210
0
220
0
230
1
0
LINE
5
7A
100
AcDbEntity
8
1
62
256
6
ByLayer
370
-1
48
1
60
0
100
AcDbLine
10
5
20
16
30
0
11
5
21
-16
31
0
39
0
210
0
220
0
230
1
0
LINE
5
7B
100
AcDbEntity
8
1
62
256
6
ByLayer
370
-1
48
1
60
0
100
AcDbLine
10
107.293627
20
3.005944
30
0
11
110.623724
21
3.122678
31
0
39
0
210
0
220
0
230
1
0
LINE
5
7C
100
AcDbEntity
8
1
62
256
6
ByLayer
370
-1
48
1
60
0
100
AcDbLine
10
101.631699
20
8.945311
30
0
11
101.631699
21
5.884474
31
0
39
0
210
0
220
0
230
1
0
LINE
5
7D
100
AcDbEntity
8
1
62
256
6
ByLayer
370
-1
48
1
60
0
100
AcDbLine
10
105.287012
20
5.257735
30
0
11
105.496186
21
5.257735
31
0
39
0
210
0
220
0
230
1
0
LINE
5
7E
100
AcDbEntity
8
1
62
256
6
ByLayer
370
-1
48
1
60
0
100
AcDbLine
10
110.773278
20
3.122678
30
0
11
111.020202
21
3.109688
31
0
39
0
210
0
220
0
230
1
0
LINE
5
7F
100
AcDbEntity
8
1
62
256
6
ByLayer
370
-1
48
1
60
0
100
AcDbLine
10
111.032571
20
0.500012
30
0
11
111.035344
21
0.510141
31
0
39
0
210
0
220
0
230
1
0
LINE
5
80
100
AcDbEntity
8
1
62
256
6
ByLayer
370
-1
48
1
60
0
100
AcDbLine
10
110.148758
20
1.338915
30
0
11
110.810999
21
3.112536
31
0
39
0
210
0
220
0
230
1
0
LINE
5
81
100
AcDbEntity
8
1
62
256
6
ByLayer
370
-1
48
1
60
0
100
AcDbLine
10
105.548264
20
8.949944
30
0
11
105.636509
21
6.18251
31
0
39
0
210
0
220
0
230
1
0
LINE
5
82
100
AcDbEntity
8
1
62
256
6
ByLayer
370
-1
48
1
60
0
100
AcDbLine
10
111.508607
20
-5.28674
30
0
11
111.205941
21
-5.20826
31
0
39
0
210
0
220
0
230
1
0
LINE
5
83
100
AcDbEntity
8
1
62
256
6
ByLayer
370
-1
48
1
60
0
100
AcDbLine
10
64
20
8.642996
30
0
11
64
21
-5.252157
31
0
39
0
210
0
220
0
230
1
0
LINE
5
84
100
AcDbEntity
8
1
62
256
6
ByLayer
370
-1
48
1
60
0
100
AcDbLine
10
21
20
9.115
30
0
11
21
21
2.715605
31
0
39
0
210
0
220
0
230
1
0
LINE
5
85
100
AcDbEntity
8
1
62
256
6
ByLayer
370
-1
48
1
60
0
100
AcDbLine
10
105.287012
20
5.257735
30
0
11
105.327863
21
4.083451
31
0
39
0
210
0
220
0
230
1
0
LINE
5
86
100
AcDbEntity
8
1
62
256
6
ByLayer
370
-1
48
1
60
0
100
AcDbLine
10
105.327863
20
4.083451
30
0
11
105.537037
21
4.083451
31
0
39
0
210
0
220
0
230
1
0
LINE
5
87
100
AcDbEntity
8
1
62
256
6
ByLayer
370
-1
48
1
60
0
100
AcDbLine
10
111.020202
20
3.109688
30
0
11
110.810999
21
3.112536
31
0
39
0
210
0
220
0
230
1
0
LINE
5
88
100
AcDbEntity
8
1
62
256
6
ByLayer
370
-1
48
1
60
0
100
AcDbLine
10
111.032571
20
0.500012
30
0
11
110.975253
21
0.502007
31
0
39
0
210
0
220
0
230
1
0
LINE
5
89
100
AcDbEntity
8
1
62
256
6
ByLayer
370
-1
48
1
60
0
100
AcDbLine
10
105.034683
20
-8.940478
30
0
11
111.184136
21
-8.940478
31
0
39
0
210
0
220
0
230
1
0
LINE
5
8A
100
AcDbEntity
8
1
62
256
6
ByLayer
370
-1
48
1
60
0
100
AcDbLine
10
104.481531
20
0.997463
30
0
11
104.763705
21
1.968201
31
0
39
0
210
0
220
0
230
1
0
LINE
5
8B
100
AcDbEntity
8
1
62
256
6
ByLayer
370
-1
48
1
60
0
100
AcDbLine
10
105.045065
20
2.936138
30
0
11
105.04888
21
2.949264
31
0
39
0
210
0
220
0
230
1
0
LINE
5
8C
100
AcDbEntity
8
1
62
256
6
ByLayer
370
-1
48
1
60
0
100
AcDbLine
10
110.810999
20
3.112536
30
0
11
110.623724
21
3.122678
31
0
39
0
210
0
220
0
230
1
0
LINE
5
8D
100
AcDbEntity
8
1
62
256
6
ByLayer
370
-1
48
1
60
0
100
AcDbLine
10
105.696829
20
6.228416
30
0
11
105.808684
21
6.228416
31
0
39
0
210
0
220
0
230
1
0
LINE
5
8E
100
AcDbEntity
8
1
62
256
6
ByLayer
370
-1
48
1
60
0
100
AcDbLine
10
102.79329
20
4.193244
30
0
11
102.128339
21
4.49043
31
0
39
0
210
0
220
0
230
1
0
LINE
5
8F
100
AcDbEntity
8
1
62
256
6
ByLayer
370
-1
48
1
60
0
100
AcDbLine
10
105.609185
20
6.18251
30
0
11
105.521149
21
8.943385
31
0
39
0
210
0
220
0
230
1
0
LINE
5
90
100
AcDbEntity
8
1
62
256
6
ByLayer
370
-1
48
1
60
0
100
AcDbLine
10
16
20
-9.115
30
0
11
16
21
-8.311905
31
0
39
0
210
0
220
0
230
1
0
LINE
5
91
100
AcDbEntity
8
1
62
256
6
ByLayer
370
-1
48
1
60
0
100
AcDbLine
10
111.961306
20
-4.483828
30
0
11
111.999695
21
-3.387887
31
0
39
0
210
0
220
0
230
1
0
LINE
5
92
100
AcDbEntity
8
1
62
256
6
ByLayer
370
-1
48
1
60
0
100
AcDbLine
10
111.185567
20
-3.187068
30
0
11
111.171689
21
-3.583257
31
0
39
0
210
0
220
0
230
1
0
LINE
5
93
100
AcDbEntity
8
1
62
256
6
ByLayer
370
-1
48
1
60
0
100
AcDbLine
10
111.309935
20
0.234749
30
0
11
111.260631
21
0.211534
31
0
39
0
210
0
220
0
230
1
0
LINE
5
94
100
AcDbEntity
8
1
62
256
6
ByLayer
370
-1
48
1
60
0
100
AcDbLine
10
111.632621
20
-4.93483
30
0
11
111.56476
21
-4.841242
31
0
39
0
210
0
220
0
230
1
0
LINE
5
95
100
AcDbEntity
8
1
62
256
6
ByLayer
370
-1
48
1
60
0
100
AcDbLine
10
111.175362
20
-2.010615
30
0
11
111.075499
21
-2.015832
31
0
39
0
210
0
220
0
230
1
0
LINE
5
96
100
AcDbEntity
8
1
62
256
6
ByLayer
370
-1
48
1
60
0
100
AcDbLine
10
111.760868
20
-4.756536
30
0
11
111.247692
21
-4.01963
31
0
39
0
210
0
220
0
230
1
0
LINE
5
97
100
AcDbEntity
8
1
62
256
6
ByLayer
370
-1
48
1
60
0
100
AcDbLine
10
111.961306
20
-4.483828
30
0
11
111.854374
21
-4.336356
31
0
39
0
210
0
220
0
230
1
0
LINE
5
98
100
AcDbEntity
8
1
62
256
6
ByLayer
370
-1
48
1
60
0
100
AcDbLine
10
111.714937
20
-2.178572
30
0
11
111.638765
21
-0.7296
31
0
39
0
210
0
220
0
230
1
0
LINE
5
99
100
AcDbEntity
8
1
62
256
6
ByLayer
370
-1
48
1
60
0
100
AcDbLine
10
111.16327
20
0.394683
30
0
11
110.954606
21
0.268481
31
0
39
0
210
0
220
0
230
1
0
LINE
5
9A
100
AcDbEntity
8
1
62
256
6
ByLayer
370
-1
48
1
60
0
100
AcDbLine
10
111.169577
20
-4.864503
30
0
11
111.56476
21
-4.841242
31
0
39
0
210
0
220
0
230
1
0
LINE
5
9B
100
AcDbEntity
8
1
62
256
6
ByLayer
370
-1
48
1
60
0
100
AcDbLine
10
111.444728
20
-3.600608
30
0
11
111.458606
21
-3.20442
31
0
39
0
210
0
220
0
230
1
0
LINE
5
9C
100
AcDbEntity
8
1
62
256
6
ByLayer
370
-1
48
1
60
0
100
AcDbLine
10
111.794515
20
-3.687321
30
0
11
111.808393
21
-3.291133
31
0
39
0
210
0
220
0
230
1
0
LINE
5
9D
100
AcDbEntity
8
1
62
256
6
ByLayer
370
-1
48
1
60
0
100
AcDbLine
10
111.714937
20
-2.178572
30
0
11
111.524882
21
-2.06689
31
0
39
0
210
0
220
0
230
1
0
LINE
5
9E
100
AcDbEntity
8
1
62
256
6
ByLayer
370
-1
48
1
60
0
100
AcDbLine
10
111.168244
20
-3.956703
30
0
11
111.181081
21
-3.945274
31
0
39
0
210
0
220
0
230
1
0
LINE
5
9F
100
AcDbEntity
8
1
62
256
6
ByLayer
370
-1
48
1
60
0
100
AcDbLine
10
111.794515
20
-3.687321
30
0
11
111.444728
21
-3.600608
31
0
39
0
210
0
220
0
230
1
0
LINE
5
A0
100
AcDbEntity
8
1
62
256
6
ByLayer
370
-1
48
1
60
0
100
AcDbLine
10
111.524882
20
-2.06689
30
0
11
111.457423
21
-0.783662
31
0
39
0
210
0
220
0
230
1
0
LINE
5
A1
100
AcDbEntity
8
1
62
256
6
ByLayer
370
-1
48
1
60
0
100
AcDbLine
10
111.329983
20
-0.140941
30
0
11
111.260631
21
0.211534
31
0
39
0
210
0
220
0
230
1
0
LINE
5
A2
100
AcDbEntity
8
1
62
256
6
ByLayer
370
-1
48
1
60
0
100
AcDbLine
10
111.609296
20
-0.585204
30
0
11
111.309935
21
0.234749
31
0
39
0
210
0
220
0
230
1
0
LINE
5
A3
100
AcDbEntity
8
1
62
256
6
ByLayer
370
-1
48
1
60
0
100
AcDbLine
10
111.075499
20
-2.015832
30
0
11
111.008039
21
-0.732604
31
0
39
0
210
0
220
0
230
1
0
LINE
5
A4
100
AcDbEntity
8
1
62
256
6
ByLayer
370
-1
48
1
60
0
100
AcDbLine
10
111.175362
20
-2.010615
30
0
11
111.107902
21
-0.727387
31
0
39
0
210
0
220
0
230
1
0
LINE
5
A5
100
AcDbEntity
8
1
62
256
6
ByLayer
370
-1
48
1
60
0
100
AcDbLine
10
111.638765
20
-0.7296
30
0
11
111.455213
21
-0.648451
31
0
39
0
210
0
220
0
230
1
0
LINE
5
A6
100
AcDbEntity
8
1
62
256
6
ByLayer
370
-1
48
1
60
0
100
AcDbLine
10
111.457423
20
-0.783662
30
0
11
111.107902
21
-0.727387
31
0
39
0
210
0
220
0
230
1
0
LINE
5
A7
100
AcDbEntity
8
1
62
256
6
ByLayer
370
-1
48
1
60
0
100
AcDbLine
10
111.066237
20
-2.016299
30
0
11
111.075499
21
-2.015832
31
0
39
0
210
0
220
0
230
1
0
LINE
5
A8
100
AcDbEntity
8
1
62
256
6
ByLayer
370
-1
48
1
60
0
100
AcDbLine
10
111.609296
20
-0.585204
30
0
11
111.431171
21
-0.506455
31
0
39
0
210
0
220
0
230
1
0
LINE
5
A9
100
AcDbEntity
8
1
62
256
6
ByLayer
370
-1
48
1
60
0
100
AcDbLine
10
111.329983
20
-0.140941
30
0
11
110.978819
21
-0.353328
31
0
39
0
210
0
220
0
230
1
0
LINE
5
AA
100
AcDbEntity
8
1
62
256
6
ByLayer
370
-1
48
1
60
0
100
AcDbLine
10
111.174951
20
-4.084393
30
0
11
111.247692
21
-4.01963
31
0
39
0
210
0
220
0
230
1
0
LINE
5
AB
100
AcDbEntity
8
1
62
256
6
ByLayer
370
-1
48
1
60
0
100
AcDbLine
10
111.344789
20
-3.597129
30
0
11
111.358667
21
-3.20094
31
0
39
0
210
0
220
0
230
1
0
LINE
5
AC
100
AcDbEntity
8
1
62
256
6
ByLayer
370
-1
48
1
60
0
100
AcDbLine
10
111.808393
20
-3.291133
30
0
11
111.458606
21
-3.20442
31
0
39
0
210
0
220
0
230
1
0
LINE
5
AD
100
AcDbEntity
8
1
62
256
6
ByLayer
370
-1
48
1
60
0
100
AcDbLine
10
111.174995
20
-5.100878
30
0
11
111.632621
21
-4.93483
31
0
39
0
210
0
220
0
230
1
0
LINE
5
AE
100
AcDbEntity
8
1
62
256
6
ByLayer
370
-1
48
1
60
0
100
AcDbLine
10
111.999695
20
-3.387887
30
0
11
111.80976
21
-3.259832
31
0
39
0
210
0
220
0
230
1
0
LINE
5
AF
100
AcDbEntity
8
1
62
256
6
ByLayer
370
-1
48
1
60
0
100
AcDbLine
10
111.524882
20
-2.06689
30
0
11
111.175362
21
-2.010615
31
0
39
0
210
0
220
0
230
1
0
LINE
5
B0
100
AcDbEntity
8
1
62
256
6
ByLayer
370
-1
48
1
60
0
100
AcDbLine
10
111.904268
20
-2.926804
30
0
11
111.732404
21
-2.886364
31
0
39
0
210
0
220
0
230
1
0
LINE
5
B1
100
AcDbEntity
8
1
62
256
6
ByLayer
370
-1
48
1
60
0
100
AcDbLine
10
110.998778
20
-0.733071
30
0
11
111.008039
21
-0.732604
31
0
39
0
210
0
220
0
230
1
0
LINE
5
B2
100
AcDbEntity
8
1
62
256
6
ByLayer
370
-1
48
1
60
0
100
AcDbLine
10
111.72268
20
-2.865926
30
0
11
111.404767
21
-2.937332
31
0
39
0
210
0
220
0
230
1
0
LINE
5
B3
100
AcDbEntity
8
1
62
256
6
ByLayer
370
-1
48
1
60
0
100
AcDbLine
10
106.558971
20
3.147451
30
0
11
106.556978
21
3.207203
31
0
39
0
210
0
220
0
230
1
0
LINE
5
B4
100
AcDbEntity
8
1
62
256
6
ByLayer
370
-1
48
1
60
0
100
AcDbLine
10
111.314756
20
9.301949
30
0
11
111.300905
21
9.243709
31
0
39
0
210
0
220
0
230
1
0
LINE
5
B5
100
AcDbEntity
8
1
62
256
6
ByLayer
370
-1
48
1
60
0
100
AcDbLine
10
111.703607
20
8.685472
30
0
11
111.643665
21
8.682842
31
0
39
0
210
0
220
0
230
1
0
LINE
5
B6
100
AcDbEntity
8
1
62
256
6
ByLayer
370
-1
48
1
60
0
100
AcDbLine
10
105.90688
20
3.560618
30
0
11
105.965823
21
3.564788
31
0
39
0
210
0
220
0
230
1
0
LINE
5
B7
100
AcDbEntity
8
1
62
256
6
ByLayer
370
-1
48
1
60
0
100
AcDbLine
10
111.869643
20
3.769638
30
0
11
111.809643
21
3.769638
31
0
39
0
210
0
220
0
230
1
0
LINE
5
B8
100
AcDbEntity
8
1
62
256
6
ByLayer
370
-1
48
1
60
0
100
AcDbLine
10
111.701221
20
8.734413
30
0
11
111.641307
21
8.731199
31
0
39
0
210
0
220
0
230
1
0
LINE
5
B9
100
AcDbEntity
8
1
62
256
6
ByLayer
370
-1
48
1
60
0
100
AcDbLine
10
105.733656
20
8.38514
30
0
11
105.792709
21
8.387226
31
0
39
0
210
0
220
0
230
1
0
LINE
5
BA
100
AcDbEntity
8
1
62
256
6
ByLayer
370
-1
48
1
60
0
100
AcDbLine
10
106.350399
20
9.142968
30
0
11
106.352563
21
9.083254
31
0
39
0
210
0
220
0
230
1
0
LINE
5
BB
100
AcDbEntity
8
1
62
256
6
ByLayer
370
-1
48
1
60
0
100
AcDbLine
10
106.649589
20
3.150213
30
0
11
111.157263
21
3.308226
31
0
39
0
210
0
220
0
230
1
0
LINE
5
BC
100
AcDbEntity
8
1
62
256
6
ByLayer
370
-1
48
1
60
0
100
AcDbLine
10
111.455751
20
3.324098
30
0
11
111.451142
21
3.383724
31
0
39
0
210
0
220
0
230
1
0
LINE
5
BD
100
AcDbEntity
8
1
62
256
6
ByLayer
370
-1
48
1
60
0
100
AcDbLine
10
111.296607
20
3.314211
30
0
11
111.292949
21
3.373896
31
0
39
0
210
0
220
0
230
1
0
LINE
5
BE
100
AcDbEntity
8
1
62
256
6
ByLayer
370
-1
48
1
60
0
100
AcDbLine
10
111.088083
20
9.308357
30
0
11
111.088581
21
9.248593
31
0
39
0
210
0
220
0
230
1
0
LINE
5
BF
100
AcDbEntity
8
1
62
256
6
ByLayer
370
-1
48
1
60
0
100
AcDbLine
10
105.91921
20
3.493834
30
0
11
105.975697
21
3.511309
31
0
39
0
210
0
220
0
230
1
0
LINE
5
C0
100
AcDbEntity
8
1
62
256
6
ByLayer
370
-1
48
1
60
0
100
AcDbLine
10
110.948663
20
9.304571
30
0
11
110.950285
21
9.244835
31
0
39
0
210
0
220
0
230
1
0
LINE
5
C1
100
AcDbEntity
8
1
62
256
6
ByLayer
370
-1
48
1
60
0
100
AcDbLine
10
111.868367
20
3.929691
30
0
11
111.808375
21
3.928734
31
0
39
0
210
0
220
0
230
1
0
LINE
5
C2
100
AcDbEntity
8
1
62
256
6
ByLayer
370
-1
48
1
60
0
100
AcDbLine
10
105.730905
20
8.476104
30
0
11
105.789973
21
8.477646
31
0
39
0
210
0
220
0
230
1
0
LINE
5
C3
100
AcDbEntity
8
1
62
256
6
ByLayer
370
-1
48
1
60
0
100
AcDbLine
10
105.891068
20
3.860247
30
0
11
105.95012
21
3.862333
31
0
39
0
210
0
220
0
230
1
0
LINE
5
C4
100
AcDbEntity
8
1
62
256
6
ByLayer
370
-1
48
1
60
0
100
AcDbLine
10
106.350724
20
3.145146
30
0
11
106.350268
21
3.204917
31
0
39
0
210
0
220
0
230
1
0
LINE
5
C5
100
AcDbEntity
8
1
62
256
6
ByLayer
370
-1
48
1
60
0
100
AcDbLine
10
111.157263
20
3.308226
30
0
11
111.154729
21
3.367961
31
0
39
0
210
0
220
0
230
1
0
LINE
5
C6
100
AcDbEntity
8
1
62
256
6
ByLayer
370
-1
48
1
60
0
100
AcDbLine
10
105.894644
20
3.769312
30
0
11
105.953675
21
3.771941
31
0
39
0
210
0
220
0
230
1
0
LINE
5
C7
100
AcDbEntity
8
1
62
256
6
ByLayer
370
-1
48
1
60
0
100
AcDbLine
10
105.728608
20
8.685146
30
0
11
105.787697
21
8.685146
31
0
39
0
210
0
220
0
230
1
0
LINE
5
C8
100
AcDbEntity
8
1
62
256
6
ByLayer
370
-1
48
1
60
0
100
AcDbLine
10
111.707183
20
8.594537
30
0
11
111.64722
21
8.592451
31
0
39
0
210
0
220
0
230
1
0
LINE
5
C9
100
AcDbEntity
8
1
62
256
6
ByLayer
370
-1
48
1
60
0
100
AcDbLine
10
111.247527
20
9.309638
30
0
11
111.247071
21
9.249866
31
0
39
0
210
0
220
0
230
1
0
LINE
5
CA
100
AcDbEntity
8
1
62
256
6
ByLayer
370
-1
48
1
60
0
100
AcDbLine
10
110.948663
20
9.304571
30
0
11
106.440988
21
9.146558
31
0
39
0
210
0
220
0
230
1
0
LINE
5
CB
100
AcDbEntity
8
1
62
256
6
ByLayer
370
-1
48
1
60
0
100
AcDbLine
10
106.1425
20
9.130686
30
0
11
106.146198
21
9.07106
31
0
39
0
210
0
220
0
230
1
0
LINE
5
CC
100
AcDbEntity
8
1
62
256
6
ByLayer
370
-1
48
1
60
0
100
AcDbLine
10
111.691372
20
8.894165
30
0
11
111.631517
21
8.889996
31
0
39
0
210
0
220
0
230
1
0
LINE
5
CD
100
AcDbEntity
8
1
62
256
6
ByLayer
370
-1
48
1
60
0
100
AcDbLine
10
105.89703
20
3.720371
30
0
11
105.956033
21
3.723585
31
0
39
0
210
0
220
0
230
1
0
LINE
5
CE
100
AcDbEntity
8
1
62
256
6
ByLayer
370
-1
48
1
60
0
100
AcDbLine
10
111.864595
20
4.069644
30
0
11
111.707183
21
8.594537
31
0
39
0
210
0
220
0
230
1
0
LINE
5
CF
100
AcDbEntity
8
1
62
256
6
ByLayer
370
-1
48
1
60
0
100
AcDbLine
10
105.729884
20
8.525093
30
0
11
105.788965
21
8.52605
31
0
39
0
210
0
220
0
230
1
0
LINE
5
D0
100
AcDbEntity
8
1
62
256
6
ByLayer
370
-1
48
1
60
0
100
AcDbLine
10
106.649589
20
3.150213
30
0
11
106.647055
21
3.209948
31
0
39
0
210
0
220
0
230
1
0
LINE
5
D1
100
AcDbEntity
8
1
62
256
6
ByLayer
370
-1
48
1
60
0
100
AcDbLine
10
106.283496
20
3.152835
30
0
11
106.296435
21
3.211074
31
0
39
0
210
0
220
0
230
1
0
LINE
5
D2
100
AcDbEntity
8
1
62
256
6
ByLayer
370
-1
48
1
60
0
100
AcDbLine
10
111.861983
20
3.702153
30
0
11
111.803509
21
3.715598
31
0
39
0
210
0
220
0
230
1
0
LINE
5
D3
100
AcDbEntity
8
1
62
256
6
ByLayer
370
-1
48
1
60
0
100
AcDbLine
10
105.736268
20
8.752631
30
0
11
105.79383
21
8.739185
31
0
39
0
210
0
220
0
230
1
0
LINE
5
D4
100
AcDbEntity
8
1
62
256
6
ByLayer
370
-1
48
1
60
0
100
AcDbLine
10
111.039281
20
9.307333
30
0
11
111.040361
21
9.247581
31
0
39
0
210
0
220
0
230
1
0
LINE
5
D5
100
AcDbEntity
8
1
62
256
6
ByLayer
370
-1
48
1
60
0
100
AcDbLine
10
111.864595
20
4.069644
30
0
11
111.804631
21
4.067558
31
0
39
0
210
0
220
0
230
1
0
LINE
5
D6
100
AcDbEntity
8
1
62
256
6
ByLayer
370
-1
48
1
60
0
100
AcDbLine
10
111.247852
20
3.311816
30
0
11
111.244777
21
3.371529
31
0
39
0
210
0
220
0
230
1
0
LINE
5
D7
100
AcDbEntity
8
1
62
256
6
ByLayer
370
-1
48
1
60
0
100
AcDbLine
10
111.679041
20
8.96095
30
0
11
111.621643
21
8.943474
31
0
39
0
210
0
220
0
230
1
0
LINE
5
D8
100
AcDbEntity
8
1
62
256
6
ByLayer
370
-1
48
1
60
0
100
AcDbLine
10
106.440988
20
9.146558
30
0
11
106.442611
21
9.086823
31
0
39
0
210
0
220
0
230
1
0
LINE
5
D9
100
AcDbEntity
8
1
62
256
6
ByLayer
370
-1
48
1
60
0
100
AcDbLine
10
106.510168
20
3.146427
30
0
11
106.508759
21
3.206191
31
0
39
0
210
0
220
0
230
1
0
LINE
5
DA
100
AcDbEntity
8
1
62
256
6
ByLayer
370
-1
48
1
60
0
100
AcDbLine
10
111.522282
20
3.336476
30
0
11
111.504417
21
3.393636
31
0
39
0
210
0
220
0
230
1
0
LINE
5
DB
100
AcDbEntity
8
1
62
256
6
ByLayer
370
-1
48
1
60
0
100
AcDbLine
10
111.867347
20
3.97868
30
0
11
111.807366
21
3.977138
31
0
39
0
210
0
220
0
230
1
0
LINE
5
DC
100
AcDbEntity
8
1
62
256
6
ByLayer
370
-1
48
1
60
0
100
AcDbLine
10
106.07597
20
9.118308
30
0
11
106.092923
21
9.061148
31
0
39
0
210
0
220
0
230
1
0
LINE
5
DD
100
AcDbEntity
8
1
62
256
6
ByLayer
370
-1
48
1
60
0
100
AcDbLine
10
106.301644
20
9.140573
30
0
11
106.304391
21
9.080887
31
0
39
0
210
0
220
0
230
1
0
LINE
5
DE
100
AcDbEntity
8
1
62
256
6
ByLayer
370
-1
48
1
60
0
100
AcDbLine
10
105.733656
20
8.38514
30
0
11
105.891068
21
3.860247
31
0
39
0
210
0
220
0
230
1
0
LINE
5
DF
100
AcDbEntity
8
SK1
62
256
6
ByLayer
370
-1
48
1
60
0
100
AcDbLine
10
-1.382165
20
12.25
30
0
11
-1.382165
21
-12.25
31
0
39
0
210
0
220
0
230
1
0
LINE
5
E0
100
AcDbEntity
8
SK1
62
256
6
ByLayer
370
-1
48
1
60
0
100
AcDbLine
10
-54.516223
20
-6.812044
30
0
11
-54.516223
21
-12.393294
31
0
39
0
210
0
220
0
230
1
0
LINE
5
E1
100
AcDbEntity
8
SK1
62
256
6
ByLayer
370
-1
48
1
60
0
100
AcDbLine
10
-54.516223
20
12.393294
30
0
11
-54.516223
21
6.812044
31
0
39
0
210
0
220
0
230
1
0
LINE
5
E2
100
AcDbEntity
8
SK1
62
256
6
ByLayer
370
-1
48
1
60
0
100
AcDbLine
10
-1.551212
20
12.287477
30
0
11
-1.551212
21
-12.287477
31
0
39
0
210
0
220
0
230
1
0
LINE
5
E3
100
AcDbEntity
8
SK1
62
256
6
ByLayer
370
-1
48
1
60
0
100
AcDbLine
10
-55
20
6.998498
30
0
11
-54.6
21
6.998498
31
0
39
0
210
0
220
0
230
1
0
LINE
5
E4
100
AcDbEntity
8
SK1
62
256
6
ByLayer
370
-1
48
1
60
0
100
AcDbLine
10
-2
20
-12.49675
30
0
11
-2
21
12.49675
31
0
39
0
210
0
220
0
230
1
0
LINE
5
E5
100
AcDbEntity
8
SK1
62
256
6
ByLayer
370
-1
48
1
60
0
100
AcDbLine
10
-55
20
-6.998498
30
0
11
-55
21
-12.49675
31
0
39
0
210
0
220
0
230
1
0
LINE
5
E6
100
AcDbEntity
8
SK1
62
256
6
ByLayer
370
-1
48
1
60
0
100
AcDbLine
10
-55
20
12.49675
30
0
11
-55
21
6.998498
31
0
39
0
210
0
220
0
230
1
0
LINE
5
E7
100
AcDbEntity
8
SK1
62
256
6
ByLayer
370
-1
48
1
60
0
100
AcDbLine
10
-56
20
4.998547
30
0
11
-56
21
-4.998547
31
0
39
0
210
0
220
0
230
1
0
LINE
5
E8
100
AcDbEntity
8
SK1
62
256
6
ByLayer
370
-1
48
1
60
0
100
AcDbLine
10
-52.6
20
6.998498
30
0
11
-6.5
21
6.998498
31
0
39
0
210
0
220
0
230
1
0
LINE
5
E9
100
AcDbEntity
8
SK1
62
256
6
ByLayer
370
-1
48
1
60
0
100
AcDbLine
10
-54.6
20
-12.49675
30
0
11
-54.6
21
-6.998498
31
0
39
0
210
0
220
0
230
1
0
LINE
5
EA
100
AcDbEntity
8
SK1
62
256
6
ByLayer
370
-1
48
1
60
0
100
AcDbLine
10
-54.6
20
6.998498
30
0
11
-54.6
21
12.49675
31
0
39
0
210
0
220
0
230
1
0
LINE
5
EB
100
AcDbEntity
8
SK1
62
256
6
ByLayer
370
-1
48
1
60
0
100
AcDbLine
10
-53.633814
20
-6.340342
30
0
11
-53.633814
21
-12.140417
31
0
39
0
210
0
220
0
230
1
0
LINE
5
EC
100
AcDbEntity
8
SK1
62
256
6
ByLayer
370
-1
48
1
60
0
100
AcDbLine
10
-53.633814
20
12.140417
30
0
11
-53.633814
21
6.340342
31
0
39
0
210
0
220
0
230
1
0
LINE
5
ED
100
AcDbEntity
8
SK1
62
256
6
ByLayer
370
-1
48
1
60
0
100
AcDbLine
10
-54.6
20
-6.998498
30
0
11
-55
21
-6.998498
31
0
39
0
210
0
220
0
230
1
0
LINE
5
EE
100
AcDbEntity
8
SK1
62
256
6
ByLayer
370
-1
48
1
60
0
100
AcDbLine
10
-0.15
20
12.25
30
0
11
-0.15
21
-12.25
31
0
39
0
210
0
220
0
230
1
0
LINE
5
EF
100
AcDbEntity
8
SK1
62
256
6
ByLayer
370
-1
48
1
60
0
100
AcDbLine
10
-52.6
20
6.998498
30
0
11
-52.6
21
12.49675
31
0
39
0
210
0
220
0
230
1
0
LINE
5
F0
100
AcDbEntity
8
SK1
62
256
6
ByLayer
370
-1
48
1
60
0
100
AcDbLine
10
-52.6
20
-12.49675
30
0
11
-52.6
21
-6.998498
31
0
39
0
210
0
220
0
230
1
0
LINE
5
F1
100
AcDbEntity
8
SK1
62
256
6
ByLayer
370
-1
48
1
60
0
100
AcDbLine
10
-56
20
-4.998547
30
0
11
-56
21
-11.49675
31
0
39
0
210
0
220
0
230
1
0
LINE
5
F2
100
AcDbEntity
8
SK1
62
256
6
ByLayer
370
-1
48
1
60
0
100
AcDbLine
10
-56
20
11.49675
30
0
11
-56
21
4.998547
31
0
39
0
210
0
220
0
230
1
0
LINE
5
F3
100
AcDbEntity
8
SK1
62
256
6
ByLayer
370
-1
48
1
60
0
100
AcDbLine
10
-6.5
20
-6.998498
30
0
11
-52.6
21
-6.998498
31
0
39
0
210
0
220
0
230
1
0
LINE
5
F4
100
AcDbEntity
8
SK1
62
256
6
ByLayer
370
-1
48
1
60
0
100
AcDbLine
10
-6.5
20
6.998498
30
0
11
-6.5
21
-6.998498
31
0
39
0
210
0
220
0
230
1
0
MTEXT
5
215
100
AcDbEntity
8
SK6
62
256
6
ByLayer
370
-1
48
1
60
0
100
AcDbMText
10
0.79375
20
-80.79375
30
0
210
0
220
0
230
1
1
\W00.723;\fsimplex.shx,bigfont.shx;880-D1850L25-05 
40
3.175
41
0
44
1.084337
50
0
71
7
72
5
7
DEFAULT
0
DIMENSION
5
245
100
AcDbEntity
8
SK2
62
256
6
ByLayer
370
-3
48
1
60
0
100
AcDbDimension
2
DimnDraft3D1
10
112
20
-54.86955
30
0
11
28
21
-54.86955
31
0
70
32
71
5
72
1
41
1
210
0
220
0
230
1
3
Standard
100
AcDbAlignedDimension
13
-56
23
-14.0875
33
0
14
112
24
-10.8375
34
0
50
0
100
AcDbRotatedDimension
1001
ACAD
1000
DSTYLE
1002
{
1070
   279
1070
     0
1070
   172
1070
     1
1070
   173
1070
     1
1070
   340
1005
216
1070
   271
1070
     1
1070
   272
1070
     2
1070
    77
1070
     1
1070
    73
1070
     0
1070
   171
1070
     3
1070
   274
1070
     4
1070
   177
1070
   150
1070
   176
1070
     9
1070
   178
1070
    43
1070
    78
1070
     8
1070
    48
1040
-0.005
1070
    41
1041
4.175
1070
   147
1041
2.25
1070
    42
1041
1.5875
1070
    44
1041
3.175
1070
   140
1041
4.5
1070
   343
1005
0
1070
   344
1005
0
1002
}
0
DIMENSION
5
24F
100
AcDbEntity
8
SK2
62
256
6
ByLayer
370
-3
48
1
60
0
100
AcDbDimension
2
DimnDraft3D2
10
0
20
-42.9008
30
0
11
-28
21
-42.9008
31
0
70
32
71
5
72
1
41
1
210
0
220
0
230
1
3
Standard
100
AcDbAlignedDimension
13
-56
23
-14.0875
33
0
14
0
24
-17.5875
34
0
50
0
100
AcDbRotatedDimension
1001
ACAD
1000
DSTYLE
1002
{
1070
   279
1070
     0
1070
   172
1070
     1
1070
   173
1070
     1
1070
   340
1005
216
1070
   271
1070
     1
1070
   272
1070
     2
1070
    77
1070
     1
1070
    73
1070
     0
1070
   171
1070
     3
1070
   274
1070
     4
1070
   177
1070
   150
1070
   176
1070
     9
1070
   178
1070
    43
1070
    78
1070
     8
1070
    48
1040
-0.005
1070
    41
1041
4.175
1070
   147
1041
2.25
1070
    42
1041
1.5875
1070
    44
1041
3.175
1070
   140
1041
4.5
1070
   343
1005
0
1070
   344
1005
0
1002
}
0
DIMENSION
5
25A
100
AcDbEntity
8
2
62
256
6
ByLayer
370
-3
48
1
60
0
100
AcDbDimension
2
DimnDraft3D3
10
112
20
-42.9008
30
0
11
56
21
-42.9008
31
0
70
32
71
5
72
1
41
1
210
0
220
0
230
1
3
Standard
100
AcDbAlignedDimension
13
0
23
-17.5875
33
0
14
112
24
-10.8375
34
0
50
0
100
AcDbRotatedDimension
1001
ACAD
1000
DSTYLE
1002
{
1070
   279
1070
     0
1070
   172
1070
     1
1070
   173
1070
     1
1070
   340
1005
216
1070
   271
1070
     1
1070
   272
1070
     2
1070
    77
1070
     1
1070
    73
1070
     0
1070
   171
1070
     3
1070
   274
1070
     4
1070
   177
1070
   150
1070
   176
1070
     9
1070
   178
1070
    43
1070
    78
1070
     8
1070
    48
1040
-0.005
1070
    41
1041
4.175
1070
   147
1041
2.25
1070
    42
1041
1.5875
1070
    44
1041
3.175
1070
   140
1041
4.5
1070
   343
1005
0
1070
   344
1005
0
1002
}
0
DIMENSION
5
264
100
AcDbEntity
8
SK2
62
256
6
ByLayer
370
-3
48
1
60
0
100
AcDbDimension
2
DimnDraft3D4
10
112
20
-32.9008
30
0
11
64
21
-32.9008
31
0
70
32
71
5
72
1
41
1
210
0
220
0
230
1
3
Standard
100
AcDbAlignedDimension
13
16
23
-11.5875
33
0
14
112
24
-10.8375
34
0
50
0
100
AcDbRotatedDimension
1001
ACAD
1000
DSTYLE
1002
{
1070
   279
1070
     0
1070
   172
1070
     1
1070
   173
1070
     1
1070
   340
1005
216
1070
   271
1070
     1
1070
   272
1070
     2
1070
    77
1070
     1
1070
    73
1070
     0
1070
   171
1070
     3
1070
   274
1070
     4
1070
   177
1070
   150
1070
   176
1070
     9
1070
   178
1070
    43
1070
    78
1070
     8
1070
    48
1040
-0.005
1070
    41
1041
4.175
1070
   147
1041
2.25
1070
    42
1041
1.5875
1070
    44
1041
3.175
1070
   140
1041
4.5
1070
   343
1005
0
1070
   344
1005
0
1002
}
0
DIMENSION
5
26F
100
AcDbEntity
8
SK2
62
256
6
ByLayer
370
-3
48
1
60
0
100
AcDbDimension
2
DimnDraft3D5
10
-67.9
20
-12.5
30
0
11
-68.1
21
4.121053
31
0
70
33
71
5
72
1
41
1
210
0
220
0
230
1
3
Standard
100
AcDbAlignedDimension
13
-57.5875
23
12.5
33
0
14
-57.5875
24
-12.5
34
0
1001
ACAD
1000
DSTYLE
1002
{
1070
   279
1070
     0
1070
    74
1070
     0
1070
   173
1070
     1
1070
   340
1005
216
1070
   271
1070
     2
1070
   272
1070
     2
1070
    77
1070
     1
1070
    73
1070
     0
1070
   171
1070
     3
1070
   274
1070
     4
1070
   177
1070
   150
1070
   176
1070
     9
1070
   178
1070
    43
1070
    78
1070
     8
1070
    48
1040
-0.005
1070
    41
1041
4.175
1070
   147
1041
2.25
1070
    42
1041
1.5875
1070
    44
1041
3.175
1070
   140
1041
4.5
1070
   343
1005
0
1070
   344
1005
0
1002
}
0
DIMENSION
5
27A
100
AcDbEntity
8
SK2
62
256
6
ByLayer
370
-3
48
1
60
0
100
AcDbDimension
2
DimnDraft3D6
10
-77.9
20
16
30
0
11
-78.1
21
4.121053
31
0
70
33
71
5
72
1
41
1
210
0
220
0
230
1
3
Standard
100
AcDbAlignedDimension
13
-1.5875
23
-16
33
0
14
-1.5875
24
16
34
0
1001
ACAD
1000
DSTYLE
1002
{
1070
   279
1070
     0
1070
    74
1070
     0
1070
   173
1070
     1
1070
   340
1005
216
1070
   271
1070
     1
1070
   272
1070
     2
1070
    77
1070
     1
1070
    73
1070
     0
1070
   171
1070
     3
1070
   274
1070
     4
1070
   177
1070
   150
1070
   176
1070
     9
1070
   178
1070
    43
1070
    78
1070
     8
1070
    48
1040
-0.005
1070
    41
1041
4.175
1070
   147
1041
2.25
1070
    42
1041
1.5875
1070
    44
1041
3.175
1070
   140
1041
4.5
1070
   343
1005
0
1070
   344
1005
0
1002
}
0
DIMENSION
5
285
100
AcDbEntity
8
2
62
256
6
ByLayer
370
-3
48
1
60
0
100
AcDbDimension
2
DimnDraft3D7
10
142.15
20
-9.25
30
0
11
135.6
21
-30.563816
31
0
70
33
71
5
72
1
41
1
210
0
220
0
230
1
3
Standard
100
AcDbAlignedDimension
13
113.5875
23
9.25
33
0
14
113.5875
24
-9.25
34
0
1001
ACAD
1000
DSTYLE
1002
{
1070
   279
1070
     0
1070
    74
1070
     0
1070
   173
1070
     1
1070
   340
1005
216
1070
   271
1070
     2
1070
   272
1070
     2
1070
    77
1070
     1
1070
    73
1070
     0
1070
   171
1070
     3
1070
   274
1070
     4
1070
   177
1070
   150
1070
   176
1070
     9
1070
   178
1070
    43
1070
    78
1070
     8
1070
    48
1040
-0.005
1070
    41
1041
4.175
1070
   147
1041
2.25
1070
    42
1041
1.5875
1070
    44
1041
3.175
1070
   140
1041
4.5
1070
   343
1005
0
1070
   344
1005
0
1002
}
0
ENDSEC
0
SECTION
2
OBJECTS
0
DICTIONARY
5
2b6
330
0
100
AcDbDictionary
280
0
281
1
3
ACAD_GROUP
350
2b7
3
ACAD_MLINESTYLE
350
2b8
0
DICTIONARY
5
2b7
330
0
100
AcDbDictionary
280
0
281
1
0
DICTIONARY
5
2b8
330
0
100
AcDbDictionary
280
0
281
1
3
Standard
350
18
0
MLINESTYLE
5
18
330
2b8
100
AcDbMlineStyle
2
Standard
70
0
3

62
256
51
90
52
90
71
2
49
-0.5
62
256
6
ByLayer
49
0.5
62
256
6
ByLayer
0
RASTERVARIABLES
5
2a4
330

100
AcDbRasterVariables
90
0
70
1
71
1
72
1
0
ENDSEC
0
EOF
